  0
SECTION
  2
HEADER
  9
$ACADVER
  1
AC1012
  9
$DWGCODEPAGE
  3
dos932
  9
$INSBASE
 10
0.0
 20
0.0
 30
0.0
  9
$EXTMIN
 10
0.0
 20
0.0
 30
0.0
  9
$EXTMAX
 10
297.0
 20
420.0
 30
0.0
  9
$LIMMIN
 10
0.0
 20
0.0
  9
$LIMMAX
 10
297.0
 20
420.0
  9
$ORTHOMODE
 70
     1
  9
$REGENMODE
 70
     1
  9
$FILLMODE
 70
     1
  9
$QTEXTMODE
 70
     0
  9
$MIRRTEXT
 70
     0
  9
$DRAGMODE
 70
     2
  9
$LTSCALE
 40
1.0
  9
$OSMODE
 70
    37
  9
$ATTMODE
 70
     1
  9
$TEXTSIZE
 40
3.5
  9
$TRACEWID
 40
0.05
  9
$TEXTSTYLE
  7
STANDARD
  9
$CLAYER
  8
DEFPOINTS
  9
$CELTYPE
  6
CONTINUOUS
  9
$CECOLOR
 62
   256
  9
$CELTSCALE
 40
1.0
  9
$DELOBJ
 70
     1
  9
$DISPSILH
 70
     0
  9
$DIMSCALE
 40
2.0
  9
$DIMASZ
 40
2.5
  9
$DIMEXO
 40
1.5
  9
$DIMDLI
 40
0.0
  9
$DIMRND
 40
0.0
  9
$DIMDLE
 40
0.0
  9
$DIMEXE
 40
1.0
  9
$DIMTP
 40
0.0
  9
$DIMTM
 40
0.0
  9
$DIMTXT
 40
2.5
  9
$DIMCEN
 40
0.0
  9
$DIMTSZ
 40
0.0
  9
$DIMTOL
 70
     0
  9
$DIMLIM
 70
     0
  9
$DIMTIH
 70
     0
  9
$DIMTOH
 70
     0
  9
$DIMSE1
 70
     0
  9
$DIMSE2
 70
     0
  9
$DIMTAD
 70
     1
  9
$DIMZIN
 70
     8
  9
$DIMBLK
  1
OPEN30
  9
$DIMASO
 70
     1
  9
$DIMSHO
 70
     1
  9
$DIMPOST
  1

  9
$DIMAPOST
  1

  9
$DIMALT
 70
     0
  9
$DIMALTD
 70
     2
  9
$DIMALTF
 40
25.4
  9
$DIMLFAC
 40
1.0
  9
$DIMTOFL
 70
     1
  9
$DIMTVP
 40
0.0
  9
$DIMTIX
 70
     0
  9
$DIMSOXD
 70
     0
  9
$DIMSAH
 70
     0
  9
$DIMBLK1
  1

  9
$DIMBLK2
  1

  9
$DIMSTYLE
  2
SUNPOU_2
  9
$DIMCLRD
 70
   256
  9
$DIMCLRE
 70
   256
  9
$DIMCLRT
 70
   256
  9
$DIMTFAC
 40
1.0
  9
$DIMGAP
 40
1.0
  9
$DIMJUST
 70
     0
  9
$DIMSD1
 70
     0
  9
$DIMSD2
 70
     0
  9
$DIMTOLJ
 70
     1
  9
$DIMTZIN
 70
     0
  9
$DIMALTZ
 70
     0
  9
$DIMALTTZ
 70
     0
  9
$DIMFIT
 70
     3
  9
$DIMUPT
 70
     0
  9
$DIMUNIT
 70
     2
  9
$DIMDEC
 70
     1
  9
$DIMTDEC
 70
     1
  9
$DIMALTU
 70
     2
  9
$DIMALTTD
 70
     2
  9
$DIMTXSTY
  7
SUNPOU
  9
$DIMAUNIT
 70
     0
  9
$LUNITS
 70
     2
  9
$LUPREC
 70
     4
  9
$SKETCHINC
 40
0.1
  9
$FILLETRAD
 40
0.0
  9
$AUNITS
 70
     0
  9
$AUPREC
 70
     0
  9
$MENU
  1
acad
  9
$ELEVATION
 40
0.0
  9
$PELEVATION
 40
0.0
  9
$THICKNESS
 40
0.0
  9
$LIMCHECK
 70
     0
  9
$BLIPMODE
 70
     0
  9
$CHAMFERA
 40
0.0
  9
$CHAMFERB
 40
0.0
  9
$CHAMFERC
 40
0.0
  9
$CHAMFERD
 40
0.0
  9
$SKPOLY
 70
     0
  9
$TDCREATE
 40
2444972.375000000
  9
$TDUPDATE
 40
2453266.398706053
  9
$TDINDWG
 40
1.0830186806
  9
$TDUSRTIMER
 40
1.0830184954
  9
$USRTIMER
 70
     1
  9
$ANGBASE
 50
0.0
  9
$ANGDIR
 70
     0
  9
$PDMODE
 70
     0
  9
$PDSIZE
 40
1.0
  9
$PLINEWID
 40
0.0
  9
$COORDS
 70
     1
  9
$SPLFRAME
 70
     0
  9
$SPLINETYPE
 70
     6
  9
$SPLINESEGS
 70
     8
  9
$ATTDIA
 70
     0
  9
$ATTREQ
 70
     1
  9
$HANDLING
 70
-16383
  9
$HANDSEED
  5
3E9F
  9
$SURFTAB1
 70
     6
  9
$SURFTAB2
 70
     6
  9
$SURFTYPE
 70
     6
  9
$SURFU
 70
     6
  9
$SURFV
 70
     6
  9
$UCSNAME
  2

  9
$UCSORG
 10
0.0
 20
0.0
 30
0.0
  9
$UCSXDIR
 10
1.0
 20
0.0
 30
0.0
  9
$UCSYDIR
 10
0.0
 20
1.0
 30
0.0
  9
$PUCSNAME
  2

  9
$PUCSORG
 10
0.0
 20
0.0
 30
0.0
  9
$PUCSXDIR
 10
1.0
 20
0.0
 30
0.0
  9
$PUCSYDIR
 10
0.0
 20
1.0
 30
0.0
  9
$USERI1
 70
     0
  9
$USERI2
 70
     0
  9
$USERI3
 70
     0
  9
$USERI4
 70
     0
  9
$USERI5
 70
     0
  9
$USERR1
 40
0.0
  9
$USERR2
 40
0.0
  9
$USERR3
 40
0.0
  9
$USERR4
 40
0.0
  9
$USERR5
 40
0.0
  9
$WORLDVIEW
 70
     1
  9
$SHADEDGE
 70
     3
  9
$SHADEDIF
 70
    70
  9
$TILEMODE
 70
     1
  9
$MAXACTVP
 70
    16
  9
$PINSBASE
 10
0.0
 20
0.0
 30
0.0
  9
$PLIMCHECK
 70
     0
  9
$PEXTMIN
 10
-9.045885838996923
 20
-12.83097832408429
 30
-0.0000000349181948
  9
$PEXTMAX
 10
288.319676141298
 20
414.9493274556774
 30
0.0000000814935746
  9
$PLIMMIN
 10
-17.84151043845371
 20
-21.64160006251813
  9
$PLIMMAX
 10
297.1184810166244
 20
423.7473922470521
  9
$UNITMODE
 70
     0
  9
$VISRETAIN
 70
     0
  9
$PLINEGEN
 70
     1
  9
$PSLTSCALE
 70
     0
  9
$TREEDEPTH
 70
  3020
  9
$PICKSTYLE
 70
     1
  9
$CMLSTYLE
  2
STANDARD
  9
$CMLJUST
 70
     0
  9
$CMLSCALE
 40
1.0
  9
$SAVEIMAGES
 70
     1
  0
ENDSEC
  0
SECTION
  2
CLASSES
  0
CLASS
  1
LWPOLYLINE
  2
AcDbPolyline
  3
AutoCAD 2000
 90
    32768
280
     0
281
     1
  0
CLASS
  1
IMAGE
  2
AcDbRasterImage
  3
ISM
 90
    32895
280
     0
281
     1
  0
CLASS
  1
OLE2FRAME
  2
AcDbOle2Frame
  3
AutoCAD 2000
 90
    32768
280
     0
281
     1
  0
CLASS
  1
HATCH
  2
AcDbHatch
  3
AutoCAD 2000
 90
    32768
280
     0
281
     1
  0
CLASS
  1
DICTIONARYVAR
  2
AcDbDictionaryVar
  3
AutoCAD 2000
 90
    32768
280
     0
281
     0
  0
CLASS
  1
RASTERVARIABLES
  2
AcDbRasterVariables
  3
ISM
 90
    32768
280
     0
281
     0
  0
CLASS
  1
IMAGEDEF
  2
AcDbRasterImageDef
  3
ISM
 90
    32768
280
     0
281
     0
  0
CLASS
  1
IMAGEDEF_REACTOR
  2
AcDbRasterImageDefReactor
  3
ISM
 90
    32769
280
     0
281
     0
  0
CLASS
  1
IDBUFFER
  2
AcDbIdBuffer
  3
AutoCAD 2000
 90
    32768
280
     0
281
     0
  0
CLASS
  1
SPATIAL_FILTER
  2
AcDbSpatialFilter
  3
AutoCAD 2000
 90
    32768
280
     0
281
     0
  0
CLASS
  1
XRECORD
  2
AcDbXrecord
  3
AutoCAD 2000
 90
    32768
280
     0
281
     0
  0
CLASS
  1
SORTENTSTABLE
  2
AcDbSortentsTable
  3
AutoCAD 2000
 90
    32768
280
     0
281
     0
  0
CLASS
  1
LAYER_INDEX
  2
AcDbLayerIndex
  3
AutoCAD 2000
 90
    32768
280
     0
281
     0
  0
CLASS
  1
SPATIAL_INDEX
  2
AcDbSpatialIndex
  3
AutoCAD 2000
 90
    32768
280
     0
281
     0
  0
CLASS
  1
OBJECT_PTR
  2
CAseDLPNTableRecord
  3
ASE-LPNTableRecord
 90
    32769
280
     0
281
     0
  0
CLASS
  1
LAYOUT
  2
AcDbLayout
  3
AutoCAD 2000
 90
    32768
280
     0
281
     0
  0
CLASS
  1
PLOTSETTINGS
  2
AcDbPlotSettings
  3
AutoCAD 2000
 90
    32768
280
     0
281
     0
  0
CLASS
  1
ACDBDICTIONARYWDFLT
  2
AcDbDictionaryWithDefault
  3
AutoCAD 2000
 90
    32768
280
     0
281
     0
  0
CLASS
  1
ACDBPLACEHOLDER
  2
AcDbPlaceHolder
  3
AutoCAD 2000
 90
    32768
280
     0
281
     0
  0
CLASS
  1
VBA_PROJECT
  2
AcDbVbaProject
  3
acad
 90
    32768
280
     0
281
     0
  0
CLASS
  1
WIPEOUT
  2
AcDbWipeout
  3
"WipeOut|Product Desc: Object Enabler for WipeOut entity^I^I^I^I^I^I|Company: Autodesk, Inc.^I^I^I^I^I^I|WEB Address: www.autodesk.com"
 90
    32895
280
     0
281
     1
  0
CLASS
  1
WIPEOUTVARIABLES
  2
AcDbWipeoutVariables
  3
"WipeOut|Product Desc:     WipeOut Dbx Application|Company:          Autodesk, Inc.|WEB Address:      www.autodesk.com"
 90
    32768
280
     0
281
     0
  0
CLASS
  1
RTEXT
  2
RText
  3
RText|AutoCAD Express Tool|expresstools@autodesk.com
 90
    32768
280
     0
281
     1
  0
CLASS
  1
ARCALIGNEDTEXT
  2
AcDbArcAlignedText
  3
ATEXT|AutoCAD Express Tool|expresstools@autodesk.com
 90
    32768
280
     0
281
     1
  0
CLASS
  1
LONG_TRANSACTION
  2
AcDbLongTransaction
  3
AutoCAD 2000
 90
    32768
280
     0
281
     0
  0
CLASS
  1
LWPOLYLINE
  2
AcDbPolyline
  3
AutoCAD 2000
 90
    32768
280
     0
281
     1
  0
CLASS
  1
HATCH
  2
AcDbHatch
  3
AutoCAD 2000
 90
    32768
280
     0
281
     1
  0
CLASS
  1
XRECORD
  2
AcDbXrecord
  3
AutoCAD 2000
 90
    32768
280
     0
281
     0
  0
CLASS
  1
LONG_TRANSACTION
  2
AcDbLongTransaction
  3
AutoCAD 2000
 90
    32768
280
     0
281
     0
  0
CLASS
  1
LWPOLYLINE
  2
AcDbPolyline
  3
AutoCAD 2000
 90
    32768
280
     0
281
     1
  0
CLASS
  1
HATCH
  2
AcDbHatch
  3
AutoCAD 2000
 90
    32768
280
     0
281
     1
  0
CLASS
  1
XRECORD
  2
AcDbXrecord
  3
AutoCAD 2000
 90
    32768
280
     0
281
     0
  0
ENDSEC
  0
SECTION
  2
TABLES
  0
TABLE
  2
VPORT
  5
7
330
0
100
AcDbSymbolTable
 70
     2
  0
VPORT
  5
3E7E
330
7
100
AcDbSymbolTableRecord
100
AcDbViewportTableRecord
  2
*ACTIVE
 70
     0
 10
0.0
 20
0.0
 11
1.0
 21
1.0
 12
161.4820149115895
 22
210.0000029338453
 13
0.0
 23
0.0
 14
1.0
 24
1.0
 15
0.0
 25
0.0
 16
0.0
 26
0.0
 36
1.0
 17
0.0
 27
0.0
 37
0.0
 40
425.1240372595295
 41
1.780442804428044
 42
50.0
 43
0.0
 44
0.0
 50
0.0
 51
0.0
 71
     0
 72
   100
 73
     1
 74
     1
 75
     0
 76
     0
 77
     0
 78
     0
  0
ENDTAB
  0
TABLE
  2
LTYPE
  5
4
330
0
100
AcDbSymbolTable
 70
     3
  0
LTYPE
  5
11
330
4
100
AcDbSymbolTableRecord
100
AcDbLinetypeTableRecord
  2
BYBLOCK
 70
     0
  3

 72
    65
 73
     0
 40
0.0
  0
LTYPE
  5
12
330
4
100
AcDbSymbolTableRecord
100
AcDbLinetypeTableRecord
  2
BYLAYER
 70
     0
  3

 72
    65
 73
     0
 40
0.0
  0
LTYPE
  5
13
330
4
100
AcDbSymbolTableRecord
100
AcDbLinetypeTableRecord
  2
CONTINUOUS
 70
     0
  3
Solid line
 72
    65
 73
     0
 40
0.0
  0
LTYPE
  5
21
330
4
100
AcDbSymbolTableRecord
100
AcDbLinetypeTableRecord
  2
DASHED2
 70
     0
  3
CADPAC LINETYPE
 72
    65
 73
     2
 40
13.365
 49
8.91
 74
     0
 49
-4.455
 74
     0
  0
LTYPE
  5
1217
330
4
100
AcDbSymbolTableRecord
100
AcDbLinetypeTableRecord
  2
CENTER2
 70
     0
  3
Center (.5x) ___ _ ___ _ ___ _ ___ _ ___ _ ___
 72
    65
 73
     4
 40
28.57499999999999
 49
19.05
 74
     0
 49
-3.174999999999998
 74
     0
 49
3.174999999999998
 74
     0
 49
-3.174999999999998
 74
     0
  0
ENDTAB
  0
TABLE
  2
LAYER
  5
2
102
{ACAD_XDICTIONARY
360
11DA
102
}
330
0
100
AcDbSymbolTable
 70
    12
  0
LAYER
  5
14
330
2
100
AcDbSymbolTableRecord
100
AcDbLayerTableRecord
  2
0
 70
     0
 62
     7
  6
CONTINUOUS
  0
LAYER
  5
38
330
2
100
AcDbSymbolTableRecord
100
AcDbLayerTableRecord
  2
DEFPOINTS
 70
     0
 62
     7
  6
CONTINUOUS
  0
LAYER
  5
11E3
330
2
100
AcDbSymbolTableRecord
100
AcDbLayerTableRecord
  2
MOJI
 70
     0
 62
     3
  6
CONTINUOUS
  0
LAYER
  5
11E4
330
2
100
AcDbSymbolTableRecord
100
AcDbLayerTableRecord
  2
SAISEN
 70
     0
 62
     3
  6
CONTINUOUS
  0
LAYER
  5
11F6
330
2
100
AcDbSymbolTableRecord
100
AcDbLayerTableRecord
  2
03
 70
     0
 62
     3
  6
CONTINUOUS
  0
LAYER
  5
11F7
330
2
100
AcDbSymbolTableRecord
100
AcDbLayerTableRecord
  2
06
 70
     0
 62
     6
  6
CONTINUOUS
  0
LAYER
  5
120E
330
2
100
AcDbSymbolTableRecord
100
AcDbLayerTableRecord
  2
02
 70
     0
 62
     2
  6
CONTINUOUS
  0
LAYER
  5
120F
330
2
100
AcDbSymbolTableRecord
100
AcDbLayerTableRecord
  2
04
 70
     0
 62
     4
  6
CONTINUOUS
  0
LAYER
  5
1216
330
2
100
AcDbSymbolTableRecord
100
AcDbLayerTableRecord
  2
CHUSIN
 70
     0
 62
     6
  6
CENTER2
  0
LAYER
  5
1218
330
2
100
AcDbSymbolTableRecord
100
AcDbLayerTableRecord
  2
HIKIDASI
 70
     0
 62
     6
  6
CONTINUOUS
  0
LAYER
  5
1219
330
2
100
AcDbSymbolTableRecord
100
AcDbLayerTableRecord
  2
KAKURE
 70
     0
 62
     6
  6
DASHED2
  0
LAYER
  5
121C
330
2
100
AcDbSymbolTableRecord
100
AcDbLayerTableRecord
  2
SUNPOU
 70
     0
 62
     6
  6
CONTINUOUS
  0
ENDTAB
  0
TABLE
  2
STYLE
  5
3
330
0
100
AcDbSymbolTable
 70
     4
  0
STYLE
  5
17
330
3
100
AcDbSymbolTableRecord
100
AcDbTextStyleTableRecord
  2
STANDARD
 70
     0
 40
0.0
 41
0.8
 50
0.0
 71
     0
 42
3.5
  3
txt.shx
  4
bigfont.shx
  0
STYLE
  5
11E5
330
3
100
AcDbSymbolTableRecord
100
AcDbTextStyleTableRecord
  2
SUNPOU
 70
     0
 40
0.0
 41
0.8
 50
0.0
 71
     0
 42
0.2
  3
txt.shx
  4
extfont.shx
  0
STYLE
  5
11E7
330
3
100
AcDbSymbolTableRecord
100
AcDbTextStyleTableRecord
  2
0_8
 70
     0
 40
0.0
 41
0.8
 50
0.0
 71
     0
 42
2.5
  3
txt.shx
  4
extfont.shx
  0
STYLE
  5
3E17
330
3
100
AcDbSymbolTableRecord
100
AcDbTextStyleTableRecord
  2
0_80
 70
     0
 40
0.0
 41
0.8
 50
0.0
 71
     0
 42
7.0
  3
txt.shx
  4
extfont.shx
  0
ENDTAB
  0
TABLE
  2
VIEW
  5
5
330
0
100
AcDbSymbolTable
 70
     1
  0
VIEW
  5
3E
330
5
100
AcDbSymbolTableRecord
100
AcDbViewTableRecord
  2
QQQQ
 70
     0
 40
468.3147639908256
 10
3.691731927710832
 20
-3.062133027522945
 41
667.1288724397591
 11
0.0
 21
0.0
 31
1.0
 12
100.0
 22
100.0
 32
0.0
 42
50.0
 43
0.0
 44
0.0
 50
0.0
 71
     0
  0
ENDTAB
  0
TABLE
  2
UCS
  5
6
330
0
100
AcDbSymbolTable
 70
     0
  0
ENDTAB
  0
TABLE
  2
APPID
  5
8
330
0
100
AcDbSymbolTable
 70
     3
  0
APPID
  5
16
330
8
100
AcDbSymbolTableRecord
100
AcDbRegAppTableRecord
  2
ACAD
 70
     0
  0
APPID
  5
3DF1
330
8
100
AcDbSymbolTableRecord
100
AcDbRegAppTableRecord
  2
CONTENTBLOCKICON
 70
     0
  0
APPID
  5
3E13
330
8
100
AcDbSymbolTableRecord
100
AcDbRegAppTableRecord
  2
DCO15
 70
     0
  0
ENDTAB
  0
TABLE
  2
DIMSTYLE
  5
9
330
0
100
AcDbSymbolTable
 70
     3
  0
DIMSTYLE
105
18
330
9
100
AcDbSymbolTableRecord
100
AcDbDimStyleTableRecord
  2
STANDARD
 70
     0
  3

  4

  5

  6

  7

 40
1.0
 41
0.18
 42
0.0625
 43
0.38
 44
0.18
 45
0.0
 46
0.0
 47
0.0
 48
0.0
140
0.18
141
0.09
142
0.0
143
25.4
144
1.0
145
0.0
146
1.0
147
0.09
 71
     0
 72
     0
 73
     1
 74
     1
 75
     0
 76
     0
 77
     0
 78
     0
170
     0
171
     2
172
     0
173
     0
174
     0
175
     0
176
     0
177
     0
178
     0
270
     2
271
     4
272
     4
273
     2
274
     2
340
17
275
     0
280
     0
281
     0
282
     0
283
     1
284
     0
285
     0
286
     0
287
     3
288
     0
  0
DIMSTYLE
105
121D
102
{ACAD_REACTORS
330
1237
330
1244
330
1251
330
1267
330
1274
330
1281
330
128F
330
12A5
330
12C9
330
12D8
330
12E5
330
12F2
330
1301
330
130E
330
131D
330
132A
330
1339
330
1346
330
1355
330
13C1
330
17C4
330
17D1
330
199C
330
19A9
330
14D1
330
14DD
330
14E2
330
14E4
330
14E7
330
1993
330
1998
330
1A69
330
1AA8
330
1AC0
330
1ABF
330
1AA7
330
1AAB
330
2F13
330
2F20
330
2F2D
330
30D9
330
30E6
330
3100
330
3175
102
}
330
9
100
AcDbSymbolTableRecord
100
AcDbDimStyleTableRecord
  2
SUNPOU_1_5
 70
     0
  3

  4

  5
OPEN30
  6

  7

 40
1.5
 41
2.5
 42
1.5
 43
0.0
 44
1.0
 45
0.0
 46
0.0
 47
0.0
 48
0.0
140
2.5
141
0.0
142
0.0
143
25.4
144
1.0
145
0.0
146
1.0
147
1.0
 71
     0
 72
     0
 73
     0
 74
     0
 75
     0
 76
     0
 77
     1
 78
     8
170
     0
171
     2
172
     1
173
     0
174
     0
175
     0
176
   256
177
   256
178
     6
270
     2
271
     1
272
     1
273
     2
274
     2
340
11E5
275
     0
280
     0
281
     0
282
     0
283
     1
284
     0
285
     0
286
     0
287
     3
288
     0
  0
DIMSTYLE
105
3E31
330
9
100
AcDbSymbolTableRecord
100
AcDbDimStyleTableRecord
  2
SUNPOU_2
 70
     0
  3

  4

  5
OPEN30
  6

  7

 40
2.0
 41
2.5
 42
1.5
 43
0.0
 44
1.0
 45
0.0
 46
0.0
 47
0.0
 48
0.0
140
2.5
141
0.0
142
0.0
143
25.4
144
1.0
145
0.0
146
1.0
147
1.0
 71
     0
 72
     0
 73
     0
 74
     0
 75
     0
 76
     0
 77
     1
 78
     8
170
     0
171
     2
172
     1
173
     0
174
     0
175
     0
176
   256
177
   256
178
   256
270
     2
271
     1
272
     1
273
     2
274
     2
340
11E5
275
     0
280
     0
281
     0
282
     0
283
     1
284
     0
285
     0
286
     0
287
     3
288
     0
  0
ENDTAB
  0
TABLE
  2
BLOCK_RECORD
  5
1
330
0
100
AcDbSymbolTable
 70
    38
  0
BLOCK_RECORD
  5
A
102
{ACAD_XDICTIONARY
360
3DE8
102
}
330
1
100
AcDbSymbolTableRecord
100
AcDbBlockTableRecord
  2
*MODEL_SPACE
  0
BLOCK_RECORD
  5
B
102
{ACAD_XDICTIONARY
360
3DEA
102
}
330
1
100
AcDbSymbolTableRecord
100
AcDbBlockTableRecord
  2
*PAPER_SPACE
  0
BLOCK_RECORD
  5
11DD
330
1
100
AcDbSymbolTableRecord
100
AcDbBlockTableRecord
  2
_OPEN30
1001
CONTENTBLOCKICON
1071
        0
1004
2800000020000000200000000100080000000000000400000000000000000000000000000000000000000000000080000080000000808000800000008000800080800000C0C0C000C0DCC000F0CAA6000020400000206000002080000020A0000020C0000020E00000400000004020000040400000406000004080000040A0
1004
000040C0000040E00000600000006020000060400000606000006080000060A0000060C0000060E00000800000008020000080400000806000008080000080A0000080C0000080E00000A0000000A0200000A0400000A0600000A0800000A0A00000A0C00000A0E00000C0000000C0200000C0400000C0600000C0800000C0
1004
A00000C0C00000C0E00000E0000000E0200000E0400000E0600000E0800000E0A00000E0C00000E0E00040000000400020004000400040006000400080004000A0004000C0004000E00040200000402020004020400040206000402080004020A0004020C0004020E000404000004040200040404000404060004040800040
1004
40A0004040C0004040E00040600000406020004060400040606000406080004060A0004060C0004060E00040800000408020004080400040806000408080004080A0004080C0004080E00040A0000040A0200040A0400040A0600040A0800040A0A00040A0C00040A0E00040C0000040C0200040C0400040C0600040C08000
1004
40C0A00040C0C00040C0E00040E0000040E0200040E0400040E0600040E0800040E0A00040E0C00040E0E00080000000800020008000400080006000800080008000A0008000C0008000E00080200000802020008020400080206000802080008020A0008020C0008020E00080400000804020008040400080406000804080
1004
008040A0008040C0008040E00080600000806020008060400080606000806080008060A0008060C0008060E00080800000808020008080400080806000808080008080A0008080C0008080E00080A0000080A0200080A0400080A0600080A0800080A0A00080A0C00080A0E00080C0000080C0200080C0400080C0600080C0
1004
800080C0A00080C0C00080C0E00080E0000080E0200080E0400080E0600080E0800080E0A00080E0C00080E0E000C0000000C0002000C0004000C0006000C0008000C000A000C000C000C000E000C0200000C0202000C0204000C0206000C0208000C020A000C020C000C020E000C0400000C0402000C0404000C0406000C0
1004
408000C040A000C040C000C040E000C0600000C0602000C0604000C0606000C0608000C060A000C060C000C060E000C0800000C0802000C0804000C0806000C0808000C080A000C080C000C080E000C0A00000C0A02000C0A04000C0A06000C0A08000C0A0A000C0A0C000C0A0E000C0C00000C0C02000C0C04000C0C06000
1004
C0C08000C0C0A000F0FBFF00A4A0A000808080000000FF0000FF000000FFFF00FF000000FF00FF00FFFF0000FFFFFF0000000000000000000000000000000000000000000000000000000000000000000000000000000000000000000000000000000000000000000000000000000000000000000000000000000000000000
1004
00000000000000000000000000000000000000000000000000000000000000000000000000000000000000000000000000000000000000000000000000000000000000000000000000000000000000000000000000000000000000000000000000000000000000000000000000000000000000000000000000000000000000
1004
000000000000000000000000000000000000000000000000000000000000000000000000000000000000000000000000000000FFFF0000000000000000000000000000000000000000000000000000000000000000FFFFFFFF0000000000000000000000000000000000000000000000000000000000000000FFFFFFFF0000
1004
000000000000000000000000000000000000000000000000000000000000FFFFFF0000000000000000000000000000000000000000000000000000000000000000FFFFFFFF0000000000000000000000000000000000000000000000000000000000000000FFFFFF0000000000000000000000000000000000000000000000
1004
000000000000000000FFFFFFFF0000000000000000000000000000000000000000000000000000000000000000FFFFFFFF00000000FFFFFFFFFFFFFFFFFFFFFFFFFFFFFFFFFFFFFFFFFFFFFFFFFFFFFFFFFFFF00000000000000000000000000000000000000000000000000FFFFFFFF000000000000000000000000000000
1004
000000000000000000FFFFFFFF000000000000000000000000000000000000000000000000FFFFFFFF000000000000000000000000000000000000000000000000FFFFFFFF000000000000000000000000000000000000000000000000FFFFFFFF000000000000000000000000000000000000000000000000FFFFFFFF0000
1004
0000000000000000000000000000000000000000000000FFFFFF0000000000000000000000000000000000000000000000000000000000000000000000000000000000000000000000000000000000000000000000000000000000000000000000000000000000000000000000000000000000000000000000000000000000
1004
00000000000000000000000000000000000000000000000000000000000000000000000000000000000000000000000000000000000000000000000000000000000000000000000000000000000000000000000000000000000000000000000000000000000000000000000000000000000000000000000000000000000000
1004
0000000000000000000000000000000000000000000000000000000000000000000000000000000000000000000000000000000000000000
  0
BLOCK_RECORD
  5
1238
330
1
100
AcDbSymbolTableRecord
100
AcDbBlockTableRecord
  2
*D1
  0
BLOCK_RECORD
  5
1245
330
1
100
AcDbSymbolTableRecord
100
AcDbBlockTableRecord
  2
*D2
  0
BLOCK_RECORD
  5
1252
330
1
100
AcDbSymbolTableRecord
100
AcDbBlockTableRecord
  2
*D3
  0
BLOCK_RECORD
  5
1268
330
1
100
AcDbSymbolTableRecord
100
AcDbBlockTableRecord
  2
*D4
  0
BLOCK_RECORD
  5
1275
330
1
100
AcDbSymbolTableRecord
100
AcDbBlockTableRecord
  2
*D5
  0
BLOCK_RECORD
  5
1282
330
1
100
AcDbSymbolTableRecord
100
AcDbBlockTableRecord
  2
*D6
  0
BLOCK_RECORD
  5
1290
330
1
100
AcDbSymbolTableRecord
100
AcDbBlockTableRecord
  2
*D7
  0
BLOCK_RECORD
  5
12A6
330
1
100
AcDbSymbolTableRecord
100
AcDbBlockTableRecord
  2
*D8
  0
BLOCK_RECORD
  5
12CA
330
1
100
AcDbSymbolTableRecord
100
AcDbBlockTableRecord
  2
*D9
  0
BLOCK_RECORD
  5
12D9
330
1
100
AcDbSymbolTableRecord
100
AcDbBlockTableRecord
  2
*D10
  0
BLOCK_RECORD
  5
12E6
330
1
100
AcDbSymbolTableRecord
100
AcDbBlockTableRecord
  2
*D11
  0
BLOCK_RECORD
  5
12F3
330
1
100
AcDbSymbolTableRecord
100
AcDbBlockTableRecord
  2
*D12
  0
BLOCK_RECORD
  5
1302
330
1
100
AcDbSymbolTableRecord
100
AcDbBlockTableRecord
  2
*D13
  0
BLOCK_RECORD
  5
130F
330
1
100
AcDbSymbolTableRecord
100
AcDbBlockTableRecord
  2
*D14
  0
BLOCK_RECORD
  5
131E
330
1
100
AcDbSymbolTableRecord
100
AcDbBlockTableRecord
  2
*D15
  0
BLOCK_RECORD
  5
132B
330
1
100
AcDbSymbolTableRecord
100
AcDbBlockTableRecord
  2
*D16
  0
BLOCK_RECORD
  5
133A
330
1
100
AcDbSymbolTableRecord
100
AcDbBlockTableRecord
  2
*D17
  0
BLOCK_RECORD
  5
1347
330
1
100
AcDbSymbolTableRecord
100
AcDbBlockTableRecord
  2
*D18
  0
BLOCK_RECORD
  5
1356
330
1
100
AcDbSymbolTableRecord
100
AcDbBlockTableRecord
  2
*D19
  0
BLOCK_RECORD
  5
13C2
330
1
100
AcDbSymbolTableRecord
100
AcDbBlockTableRecord
  2
*D20
  0
BLOCK_RECORD
  5
17C5
330
1
100
AcDbSymbolTableRecord
100
AcDbBlockTableRecord
  2
*D21
  0
BLOCK_RECORD
  5
17D2
330
1
100
AcDbSymbolTableRecord
100
AcDbBlockTableRecord
  2
*D22
  0
BLOCK_RECORD
  5
199D
330
1
100
AcDbSymbolTableRecord
100
AcDbBlockTableRecord
  2
*D23
  0
BLOCK_RECORD
  5
19AA
330
1
100
AcDbSymbolTableRecord
100
AcDbBlockTableRecord
  2
*D24
  0
BLOCK_RECORD
  5
1AC4
330
1
100
AcDbSymbolTableRecord
100
AcDbBlockTableRecord
  2
*D25
  0
BLOCK_RECORD
  5
1AD0
330
1
100
AcDbSymbolTableRecord
100
AcDbBlockTableRecord
  2
*D26
  0
BLOCK_RECORD
  5
1ADE
330
1
100
AcDbSymbolTableRecord
100
AcDbBlockTableRecord
  2
*D27
  0
BLOCK_RECORD
  5
1AEC
330
1
100
AcDbSymbolTableRecord
100
AcDbBlockTableRecord
  2
*D28
  0
BLOCK_RECORD
  5
1AF8
330
1
100
AcDbSymbolTableRecord
100
AcDbBlockTableRecord
  2
*D29
  0
BLOCK_RECORD
  5
1B04
330
1
100
AcDbSymbolTableRecord
100
AcDbBlockTableRecord
  2
*D30
  0
BLOCK_RECORD
  5
2F14
330
1
100
AcDbSymbolTableRecord
100
AcDbBlockTableRecord
  2
*D31
  0
BLOCK_RECORD
  5
2F21
330
1
100
AcDbSymbolTableRecord
100
AcDbBlockTableRecord
  2
*D32
  0
BLOCK_RECORD
  5
2F2E
330
1
100
AcDbSymbolTableRecord
100
AcDbBlockTableRecord
  2
*D33
  0
BLOCK_RECORD
  5
30DA
330
1
100
AcDbSymbolTableRecord
100
AcDbBlockTableRecord
  2
*D34
  0
BLOCK_RECORD
  5
30E7
330
1
100
AcDbSymbolTableRecord
100
AcDbBlockTableRecord
  2
*D35
  0
BLOCK_RECORD
  5
3101
330
1
100
AcDbSymbolTableRecord
100
AcDbBlockTableRecord
  2
*D36
  0
BLOCK_RECORD
  5
3176
330
1
100
AcDbSymbolTableRecord
100
AcDbBlockTableRecord
  2
*D37
  0
ENDTAB
  0
ENDSEC
  0
SECTION
  2
BLOCKS
  0
BLOCK
  5
D
330
A
100
AcDbEntity
  8
0
100
AcDbBlockBegin
  2
*MODEL_SPACE
 70
     0
 10
0.0
 20
0.0
 30
0.0
  3
*MODEL_SPACE
  1

  0
ENDBLK
  5
E
330
A
100
AcDbEntity
  8
0
100
AcDbBlockEnd
  0
BLOCK
  5
F
330
B
100
AcDbEntity
 67
     1
  8
0
100
AcDbBlockBegin
  2
*PAPER_SPACE
 70
     0
 10
0.0
 20
0.0
 30
0.0
  3
*PAPER_SPACE
  1

  0
ENDBLK
  5
10
330
B
100
AcDbEntity
 67
     1
  8
0
100
AcDbBlockEnd
  0
BLOCK
  5
11E1
330
11DD
100
AcDbEntity
  8
0
100
AcDbBlockBegin
  2
_OPEN30
 70
     0
 10
0.0
 20
0.0
 30
0.0
  3
_OPEN30
  1

  0
LINE
  5
11DE
330
11DD
100
AcDbEntity
  8
0
  6
BYBLOCK
 62
     0
100
AcDbLine
 10
-1.0
 20
0.26794919
 30
0.0
 11
0.0
 21
0.0
 31
0.0
  0
LINE
  5
11DF
330
11DD
100
AcDbEntity
  8
0
  6
BYBLOCK
 62
     0
100
AcDbLine
 10
0.0
 20
0.0
 30
0.0
 11
-1.0
 21
-0.26794919
 31
0.0
  0
LINE
  5
11E0
330
11DD
100
AcDbEntity
  8
0
  6
BYBLOCK
 62
     0
100
AcDbLine
 10
0.0
 20
0.0
 30
0.0
 11
-1.0
 21
0.0
 31
0.0
  0
ENDBLK
  5
11E2
330
11DD
100
AcDbEntity
  8
0
100
AcDbBlockEnd
  0
BLOCK
  5
1242
330
1238
100
AcDbEntity
  8
0
100
AcDbBlockBegin
  2
*D1
 70
     1
 10
0.0
 20
0.0
 30
0.0
  3
*D1
  1

  0
LINE
  5
3B74
330
1238
100
AcDbEntity
  8
SUNPOU
100
AcDbLine
 10
68.48792622759248
 20
316.3019247707576
 30
0.0
 11
47.37335670923813
 21
316.3019247707576
 31
0.0
  0
LINE
  5
3B75
330
1238
100
AcDbEntity
  8
SUNPOU
100
AcDbLine
 10
68.15807186980302
 20
291.3019247707577
 30
0.0
 11
47.37335670923811
 21
291.3019247707577
 31
0.0
  0
LINE
  5
3B76
330
1238
100
AcDbEntity
  8
SUNPOU
100
AcDbLine
 10
48.87335670923813
 20
312.5519247707576
 30
0.0
 11
48.87335670923811
 21
295.0519247707577
 31
0.0
  0
INSERT
  5
3B77
330
1238
100
AcDbEntity
  8
SUNPOU
100
AcDbBlockReference
  2
_OPEN30
 10
48.87335670923813
 20
316.3019247707576
 30
0.0
 41
3.75
 42
3.75
 43
3.75
 50
90.0
  0
INSERT
  5
3B78
330
1238
100
AcDbEntity
  8
SUNPOU
100
AcDbBlockReference
  2
_OPEN30
 10
48.87335670923811
 20
291.3019247707577
 30
0.0
 41
3.75
 42
3.75
 43
3.75
 50
270.0
  0
MTEXT
  5
3B79
330
1238
100
AcDbEntity
  8
SUNPOU
 62
     6
100
AcDbMText
 10
45.49835670923807
 20
303.8019247707576
 30
0.0
 40
3.75
 41
0.0
 71
     5
 72
     1
  1
\A1;25
  7
SUNPOU
 11
0.0000000000000001
 21
1.0
 31
0.0
1001
ACAD
1000
MTEXTBEGIN
1070
    73
1070
     1
1070
    44
1040
1.0
1070
    74
1070
     0
1000
MTEXTEND
1000
MTEXTBEGIN
1070
    73
1070
     1
1070
    44
1040
1.0
1070
    74
1070
     0
1000
MTEXTEND
  0
POINT
  5
3B7A
330
1238
100
AcDbEntity
  8
DEFPOINTS
 62
     0
100
AcDbPoint
 10
70.73792622759248
 20
316.3019247707576
 30
0.0
  0
POINT
  5
3B7B
330
1238
100
AcDbEntity
  8
DEFPOINTS
 62
     0
100
AcDbPoint
 10
70.40807186980302
 20
291.3019247707577
 30
0.0
  0
POINT
  5
3B7C
330
1238
100
AcDbEntity
  8
DEFPOINTS
 62
     0
100
AcDbPoint
 10
48.87335670923811
 20
291.3019247707577
 30
0.0
  0
ENDBLK
  5
1243
330
1238
100
AcDbEntity
  8
0
100
AcDbBlockEnd
  0
BLOCK
  5
124F
330
1245
100
AcDbEntity
  8
0
100
AcDbBlockBegin
  2
*D2
 70
     1
 10
0.0
 20
0.0
 30
0.0
  3
*D2
  1

  0
LINE
  5
3D7F
330
1245
100
AcDbEntity
  8
SUNPOU
100
AcDbLine
 10
68.15807186980302
 20
291.3019247707577
 30
0.0
 11
47.37335670923811
 21
291.3019247707577
 31
0.0
  0
LINE
  5
3D80
330
1245
100
AcDbEntity
  8
SUNPOU
100
AcDbLine
 10
103.3645575415435
 20
214.3018236802265
 30
0.0
 11
47.37335670923811
 21
214.3018236802266
 31
0.0
  0
LINE
  5
3D81
330
1245
100
AcDbEntity
  8
SUNPOU
100
AcDbLine
 10
48.87335670923811
 20
287.5519247707576
 30
0.0
 11
48.8733567092381
 21
218.0518236802266
 31
0.0
  0
INSERT
  5
3D82
330
1245
100
AcDbEntity
  8
SUNPOU
100
AcDbBlockReference
  2
_OPEN30
 10
48.87335670923811
 20
291.3019247707577
 30
0.0
 41
3.75
 42
3.75
 43
3.75
 50
90.0
  0
INSERT
  5
3D83
330
1245
100
AcDbEntity
  8
SUNPOU
100
AcDbBlockReference
  2
_OPEN30
 10
48.8733567092381
 20
214.3018236802266
 30
0.0
 41
3.75
 42
3.75
 43
3.75
 50
270.0
  0
MTEXT
  5
3D84
330
1245
100
AcDbEntity
  8
SUNPOU
 62
     6
100
AcDbMText
 10
45.49835670923807
 20
252.8018742254921
 30
0.0
 40
3.75
 41
0.0
 71
     5
 72
     1
  1
\A1;77
  7
SUNPOU
 11
0.0000000000000001
 21
1.0
 31
0.0
1001
ACAD
1000
MTEXTBEGIN
1070
    73
1070
     1
1070
    44
1040
1.0
1070
    74
1070
     0
1000
MTEXTEND
1000
MTEXTBEGIN
1070
    73
1070
     1
1070
    44
1040
1.0
1070
    74
1070
     0
1000
MTEXTEND
  0
POINT
  5
3D85
330
1245
100
AcDbEntity
  8
DEFPOINTS
 62
     0
100
AcDbPoint
 10
70.40807186980302
 20
291.3019247707577
 30
0.0
  0
POINT
  5
3D86
330
1245
100
AcDbEntity
  8
DEFPOINTS
 62
     0
100
AcDbPoint
 10
105.6145575415434
 20
214.3018236802265
 30
0.0
  0
POINT
  5
3D87
330
1245
100
AcDbEntity
  8
DEFPOINTS
 62
     0
100
AcDbPoint
 10
48.8733567092381
 20
214.3018236802266
 30
0.0
  0
ENDBLK
  5
1250
330
1245
100
AcDbEntity
  8
0
100
AcDbBlockEnd
  0
BLOCK
  5
125C
330
1252
100
AcDbEntity
  8
0
100
AcDbBlockBegin
  2
*D3
 70
     1
 10
0.0
 20
0.0
 30
0.0
  3
*D3
  1

  0
LINE
  5
3D76
330
1252
100
AcDbEntity
  8
SUNPOU
100
AcDbLine
 10
103.3645575415435
 20
214.3018236802265
 30
0.0
 11
47.37335670923811
 21
214.3018236802266
 31
0.0
  0
LINE
  5
3D77
330
1252
100
AcDbEntity
  8
SUNPOU
100
AcDbLine
 10
57.00395137184093
 20
139.3018236802265
 30
0.0
 11
47.3733567092381
 21
139.3018236802265
 31
0.0
  0
LINE
  5
3D78
330
1252
100
AcDbEntity
  8
SUNPOU
100
AcDbLine
 10
48.87335670923811
 20
210.5518236802266
 30
0.0
 11
48.8733567092381
 21
143.0518236802265
 31
0.0
  0
INSERT
  5
3D79
330
1252
100
AcDbEntity
  8
SUNPOU
100
AcDbBlockReference
  2
_OPEN30
 10
48.87335670923811
 20
214.3018236802266
 30
0.0
 41
3.75
 42
3.75
 43
3.75
 50
90.0
  0
INSERT
  5
3D7A
330
1252
100
AcDbEntity
  8
SUNPOU
100
AcDbBlockReference
  2
_OPEN30
 10
48.8733567092381
 20
139.3018236802265
 30
0.0
 41
3.75
 42
3.75
 43
3.75
 50
270.0
  0
MTEXT
  5
3D7B
330
1252
100
AcDbEntity
  8
SUNPOU
 62
     6
100
AcDbMText
 10
45.49835670923807
 20
176.8018236802265
 30
0.0
 40
3.75
 41
0.0
 71
     5
 72
     1
  1
\A1;75
  7
SUNPOU
 11
0.0000000000000001
 21
1.0
 31
0.0
1001
ACAD
1000
MTEXTBEGIN
1070
    73
1070
     1
1070
    44
1040
1.0
1070
    74
1070
     0
1000
MTEXTEND
1000
MTEXTBEGIN
1070
    73
1070
     1
1070
    44
1040
1.0
1070
    74
1070
     0
1000
MTEXTEND
  0
POINT
  5
3D7C
330
1252
100
AcDbEntity
  8
DEFPOINTS
 62
     0
100
AcDbPoint
 10
105.6145575415434
 20
214.3018236802265
 30
0.0
  0
POINT
  5
3D7D
330
1252
100
AcDbEntity
  8
DEFPOINTS
 62
     0
100
AcDbPoint
 10
59.25395137184093
 20
139.3018236802265
 30
0.0
  0
POINT
  5
3D7E
330
1252
100
AcDbEntity
  8
DEFPOINTS
 62
     0
100
AcDbPoint
 10
48.8733567092381
 20
139.3018236802265
 30
0.0
  0
ENDBLK
  5
125D
330
1252
100
AcDbEntity
  8
0
100
AcDbBlockEnd
  0
BLOCK
  5
1272
330
1268
100
AcDbEntity
  8
0
100
AcDbBlockBegin
  2
*D4
 70
     1
 10
0.0
 20
0.0
 30
0.0
  3
*D4
  1

  0
LINE
  5
3E87
330
1268
100
AcDbEntity
  8
SUNPOU
100
AcDbLine
 10
69.25395137184108
 20
276.0636394142951
 30
0.0
 11
69.25395137184108
 21
275.3136394142951
 31
0.0
  0
LINE
  5
3E88
330
1268
100
AcDbEntity
  8
SUNPOU
100
AcDbLine
 10
84.25395137184111
 20
276.0636394142951
 30
0.0
 11
84.25395137184111
 21
275.3136394142951
 31
0.0
  0
LINE
  5
3E89
330
1268
100
AcDbEntity
  8
SUNPOU
100
AcDbLine
 10
73.00395137184108
 20
273.8136394142951
 30
0.0
 11
80.50395137184111
 21
273.8136394142951
 31
0.0
  0
MTEXT
  5
3E8A
330
1268
100
AcDbEntity
  8
SUNPOU
 62
     6
100
AcDbMText
 10
75.22435908379884
 20
278.1157182719089
 30
0.0
 40
3.75
 41
0.0
 71
     5
 72
     1
  1
\A1;15
  7
SUNPOU
  0
INSERT
  5
3E8B
330
1268
100
AcDbEntity
  8
SUNPOU
100
AcDbBlockReference
  2
_OPEN30
 10
69.25395137184108
 20
273.8136394142951
 30
0.0
 41
3.75
 42
3.75
 43
3.75
 50
180.0
  0
INSERT
  5
3E8C
330
1268
100
AcDbEntity
  8
SUNPOU
100
AcDbBlockReference
  2
_OPEN30
 10
84.25395137184111
 20
273.8136394142951
 30
0.0
 41
3.75
 42
3.75
 43
3.75
  0
POINT
  5
3E8D
330
1268
100
AcDbEntity
  8
DEFPOINTS
 62
     0
100
AcDbPoint
 10
69.25395137184108
 20
273.8136394142951
 30
0.0
  0
POINT
  5
3E8E
330
1268
100
AcDbEntity
  8
DEFPOINTS
 62
     0
100
AcDbPoint
 10
84.25395137184111
 20
273.8136394142951
 30
0.0
  0
POINT
  5
3E8F
330
1268
100
AcDbEntity
  8
DEFPOINTS
 62
     0
100
AcDbPoint
 10
84.25395137184111
 20
273.8136394142951
 30
0.0
  0
ENDBLK
  5
1273
330
1268
100
AcDbEntity
  8
0
100
AcDbBlockEnd
  0
BLOCK
  5
127F
330
1275
100
AcDbEntity
  8
0
100
AcDbBlockBegin
  2
*D5
 70
     1
 10
0.0
 20
0.0
 30
0.0
  3
*D5
  1

  0
LINE
  5
3B7D
330
1275
100
AcDbEntity
  8
SUNPOU
100
AcDbLine
 10
84.25395137184111
 20
276.0636394142951
 30
0.0
 11
84.25395137184111
 21
275.3136394142951
 31
0.0
  0
LINE
  5
3B7E
330
1275
100
AcDbEntity
  8
SUNPOU
100
AcDbLine
 10
121.253951371841
 20
278.1075036378359
 30
0.0
 11
121.253951371841
 21
272.313639414295
 31
0.0
  0
LINE
  5
3B7F
330
1275
100
AcDbEntity
  8
SUNPOU
100
AcDbLine
 10
88.00395137184111
 20
273.8136394142951
 30
0.0
 11
117.503951371841
 21
273.8136394142951
 31
0.0
  0
INSERT
  5
3B80
330
1275
100
AcDbEntity
  8
SUNPOU
100
AcDbBlockReference
  2
_OPEN30
 10
84.25395137184111
 20
273.8136394142951
 30
0.0
 41
3.75
 42
3.75
 43
3.75
 50
180.0
  0
INSERT
  5
3B81
330
1275
100
AcDbEntity
  8
SUNPOU
100
AcDbBlockReference
  2
_OPEN30
 10
121.253951371841
 20
273.8136394142951
 30
0.0
 41
3.75
 42
3.75
 43
3.75
  0
MTEXT
  5
3B82
330
1275
100
AcDbEntity
  8
SUNPOU
 62
     6
100
AcDbMText
 10
102.753951371841
 20
277.1886394142951
 30
0.0
 40
3.75
 41
0.0
 71
     5
 72
     1
  1
\A1;37
  7
SUNPOU
1001
ACAD
1000
MTEXTBEGIN
1070
    73
1070
     1
1070
    44
1040
1.0
1070
    74
1070
     0
1000
MTEXTEND
1000
MTEXTBEGIN
1070
    73
1070
     1
1070
    44
1040
1.0
1070
    74
1070
     0
1000
MTEXTEND
  0
POINT
  5
3B83
330
1275
100
AcDbEntity
  8
DEFPOINTS
 62
     0
100
AcDbPoint
 10
84.25395137184111
 20
273.8136394142951
 30
0.0
  0
POINT
  5
3B84
330
1275
100
AcDbEntity
  8
DEFPOINTS
 62
     0
100
AcDbPoint
 10
121.253951371841
 20
280.3575036378361
 30
0.0
  0
POINT
  5
3B85
330
1275
100
AcDbEntity
  8
DEFPOINTS
 62
     0
100
AcDbPoint
 10
121.253951371841
 20
273.8136394142951
 30
0.0
  0
ENDBLK
  5
1280
330
1275
100
AcDbEntity
  8
0
100
AcDbBlockEnd
  0
BLOCK
  5
128C
330
1282
100
AcDbEntity
  8
0
100
AcDbBlockBegin
  2
*D6
 70
     1
 10
0.0
 20
0.0
 30
0.0
  3
*D6
  1

  0
LINE
  5
3AE0
330
1282
100
AcDbEntity
  8
SUNPOU
100
AcDbLine
 10
121.253951371841
 20
278.1075036378359
 30
0.0
 11
121.253951371841
 21
272.313639414295
 31
0.0
  0
LINE
  5
3AE1
330
1282
100
AcDbEntity
  8
SUNPOU
100
AcDbLine
 10
201.253951371841
 20
277.1575036378358
 30
0.0
 11
201.253951371841
 21
272.313639414295
 31
0.0
  0
LINE
  5
3AE2
330
1282
100
AcDbEntity
  8
SUNPOU
100
AcDbLine
 10
125.003951371841
 20
273.8136394142951
 30
0.0
 11
197.503951371841
 21
273.8136394142951
 31
0.0
  0
MTEXT
  5
3AE3
330
1282
100
AcDbEntity
  8
SUNPOU
 62
     6
100
AcDbMText
 10
151.0308204472048
 20
278.3136394142949
 30
0.0
 40
3.75
 41
0.0
 71
     5
 72
     1
  1
\A1;80
  7
SUNPOU
1001
ACAD
1000
MTEXTBEGIN
1070
    73
1070
     1
1070
    44
1040
1.0
1070
    74
1070
     0
1000
MTEXTEND
1000
MTEXTBEGIN
1070
    73
1070
     1
1070
    44
1040
1.0
1070
    74
1070
     0
1000
MTEXTEND
  0
INSERT
  5
3AE4
330
1282
100
AcDbEntity
  8
SUNPOU
100
AcDbBlockReference
  2
_OPEN30
 10
121.253951371841
 20
273.8136394142951
 30
0.0
 41
3.75
 42
3.75
 43
3.75
 50
180.0
  0
INSERT
  5
3AE5
330
1282
100
AcDbEntity
  8
SUNPOU
100
AcDbBlockReference
  2
_OPEN30
 10
201.253951371841
 20
273.8136394142951
 30
0.0
 41
3.75
 42
3.75
 43
3.75
  0
POINT
  5
3AE6
330
1282
100
AcDbEntity
  8
DEFPOINTS
 62
     0
100
AcDbPoint
 10
121.253951371841
 20
280.3575036378361
 30
0.0
  0
POINT
  5
3AE7
330
1282
100
AcDbEntity
  8
DEFPOINTS
 62
     0
100
AcDbPoint
 10
201.253951371841
 20
279.4075036378358
 30
0.0
  0
POINT
  5
3AE8
330
1282
100
AcDbEntity
  8
DEFPOINTS
 62
     0
100
AcDbPoint
 10
201.253951371841
 20
273.8136394142951
 30
0.0
  0
ENDBLK
  5
128D
330
1282
100
AcDbEntity
  8
0
100
AcDbBlockEnd
  0
BLOCK
  5
129A
330
1290
100
AcDbEntity
  8
0
100
AcDbBlockBegin
  2
*D7
 70
     1
 10
0.0
 20
0.0
 30
0.0
  3
*D7
  1

  0
LINE
  5
3B86
330
1290
100
AcDbEntity
  8
SUNPOU
100
AcDbLine
 10
78.25395137184111
 20
244.9311961493363
 30
0.0
 11
78.25395137184111
 21
245.6811961493364
 31
0.0
  0
LINE
  5
3B87
330
1290
100
AcDbEntity
  8
SUNPOU
100
AcDbLine
 10
114.253951371841
 20
226.5518236802266
 30
0.0
 11
114.253951371841
 21
248.6811961493363
 31
0.0
  0
LINE
  5
3B88
330
1290
100
AcDbEntity
  8
SUNPOU
100
AcDbLine
 10
82.00395137184111
 20
247.1811961493363
 30
0.0
 11
110.5039513718409
 21
247.1811961493363
 31
0.0
  0
INSERT
  5
3B89
330
1290
100
AcDbEntity
  8
SUNPOU
100
AcDbBlockReference
  2
_OPEN30
 10
78.25395137184111
 20
247.1811961493363
 30
0.0
 41
3.75
 42
3.75
 43
3.75
 50
180.0
  0
INSERT
  5
3B8A
330
1290
100
AcDbEntity
  8
SUNPOU
100
AcDbBlockReference
  2
_OPEN30
 10
114.253951371841
 20
247.1811961493363
 30
0.0
 41
3.75
 42
3.75
 43
3.75
  0
MTEXT
  5
3B8B
330
1290
100
AcDbEntity
  8
SUNPOU
 62
     6
100
AcDbMText
 10
96.25395137184108
 20
250.5561961493363
 30
0.0
 40
3.75
 41
0.0
 71
     5
 72
     1
  1
\A1;36
  7
SUNPOU
1001
ACAD
1000
MTEXTBEGIN
1070
    73
1070
     1
1070
    44
1040
1.0
1070
    74
1070
     0
1000
MTEXTEND
1000
MTEXTBEGIN
1070
    73
1070
     1
1070
    44
1040
1.0
1070
    74
1070
     0
1000
MTEXTEND
  0
POINT
  5
3B8C
330
1290
100
AcDbEntity
  8
DEFPOINTS
 62
     0
100
AcDbPoint
 10
78.25395137184111
 20
247.1811961493363
 30
0.0
  0
POINT
  5
3B8D
330
1290
100
AcDbEntity
  8
DEFPOINTS
 62
     0
100
AcDbPoint
 10
114.253951371841
 20
224.3018236802266
 30
0.0
  0
POINT
  5
3B8E
330
1290
100
AcDbEntity
  8
DEFPOINTS
 62
     0
100
AcDbPoint
 10
114.253951371841
 20
247.1811961493363
 30
0.0
  0
ENDBLK
  5
129B
330
1290
100
AcDbEntity
  8
0
100
AcDbBlockEnd
  0
BLOCK
  5
12B0
330
12A6
100
AcDbEntity
  8
0
100
AcDbBlockBegin
  2
*D8
 70
     1
 10
0.0
 20
0.0
 30
0.0
  3
*D8
  1

  0
LINE
  5
3AE9
330
12A6
100
AcDbEntity
  8
SUNPOU
100
AcDbLine
 10
114.253951371841
 20
226.5518236802266
 30
0.0
 11
114.253951371841
 21
248.6811961493363
 31
0.0
  0
LINE
  5
3AEA
330
12A6
100
AcDbEntity
  8
SUNPOU
100
AcDbLine
 10
159.2539513718409
 20
249.4311961493363
 30
0.0
 11
159.2539513718409
 21
248.6811961493363
 31
0.0
  0
LINE
  5
3AEB
330
12A6
100
AcDbEntity
  8
SUNPOU
100
AcDbLine
 10
118.003951371841
 20
247.1811961493363
 30
0.0
 11
155.503951371841
 21
247.1811961493363
 31
0.0
  0
INSERT
  5
3AEC
330
12A6
100
AcDbEntity
  8
SUNPOU
100
AcDbBlockReference
  2
_OPEN30
 10
114.253951371841
 20
247.1811961493363
 30
0.0
 41
3.75
 42
3.75
 43
3.75
 50
180.0
  0
INSERT
  5
3AED
330
12A6
100
AcDbEntity
  8
SUNPOU
100
AcDbBlockReference
  2
_OPEN30
 10
159.2539513718409
 20
247.1811961493363
 30
0.0
 41
3.75
 42
3.75
 43
3.75
  0
MTEXT
  5
3AEE
330
12A6
100
AcDbEntity
  8
SUNPOU
 62
     6
100
AcDbMText
 10
136.753951371841
 20
250.5561961493363
 30
0.0
 40
3.75
 41
0.0
 71
     5
 72
     1
  1
\A1;45
  7
SUNPOU
1001
ACAD
1000
MTEXTBEGIN
1070
    73
1070
     1
1070
    44
1040
1.0
1070
    74
1070
     0
1000
MTEXTEND
1000
MTEXTBEGIN
1070
    73
1070
     1
1070
    44
1040
1.0
1070
    74
1070
     0
1000
MTEXTEND
  0
POINT
  5
3AEF
330
12A6
100
AcDbEntity
  8
DEFPOINTS
 62
     0
100
AcDbPoint
 10
114.253951371841
 20
224.3018236802266
 30
0.0
  0
POINT
  5
3AF0
330
12A6
100
AcDbEntity
  8
DEFPOINTS
 62
     0
100
AcDbPoint
 10
159.2539513718409
 20
247.1811961493363
 30
0.0
  0
POINT
  5
3AF1
330
12A6
100
AcDbEntity
  8
DEFPOINTS
 62
     0
100
AcDbPoint
 10
159.2539513718409
 20
247.1811961493363
 30
0.0
  0
ENDBLK
  5
12B1
330
12A6
100
AcDbEntity
  8
0
100
AcDbBlockEnd
  0
BLOCK
  5
12D6
330
12CA
100
AcDbEntity
  8
0
100
AcDbBlockBegin
  2
*D9
 70
     1
 10
0.0
 20
0.0
 30
0.0
  3
*D9
  1

  0
LINE
  5
3C35
330
12CA
100
AcDbEntity
  8
SUNPOU
100
AcDbLine
 10
211.503951371841
 20
325.3019247707577
 30
0.0
 11
265.4737335755344
 21
325.3019247707577
 31
0.0
  0
LINE
  5
3C36
330
12CA
100
AcDbEntity
  8
SUNPOU
100
AcDbLine
 10
220.503951371841
 20
311.3019247707577
 30
0.0
 11
265.4737335755344
 21
311.3019247707577
 31
0.0
  0
LINE
  5
3C37
330
12CA
100
AcDbEntity
  8
SUNPOU
100
AcDbLine
 10
263.9737335755345
 20
321.5519247707577
 30
0.0
 11
263.9737335755345
 21
315.0519247707577
 31
0.0
  0
INSERT
  5
3C38
330
12CA
100
AcDbEntity
  8
SUNPOU
100
AcDbBlockReference
  2
_OPEN30
 10
263.9737335755345
 20
325.3019247707577
 30
0.0
 41
3.75
 42
3.75
 43
3.75
 50
90.0
  0
INSERT
  5
3C39
330
12CA
100
AcDbEntity
  8
SUNPOU
100
AcDbBlockReference
  2
_OPEN30
 10
263.9737335755345
 20
311.3019247707577
 30
0.0
 41
3.75
 42
3.75
 43
3.75
 50
270.0
  0
MTEXT
  5
3C3A
330
12CA
100
AcDbEntity
  8
SUNPOU
 62
     6
100
AcDbMText
 10
260.5987335755344
 20
318.3019247707578
 30
0.0
 40
3.75
 41
0.0
 71
     5
 72
     1
  1
\A1;14
  7
SUNPOU
 11
0.0000000000000001
 21
1.0
 31
0.0
1001
ACAD
1000
MTEXTBEGIN
1070
    73
1070
     1
1070
    44
1040
1.0
1070
    74
1070
     0
1000
MTEXTEND
1000
MTEXTBEGIN
1070
    73
1070
     1
1070
    44
1040
1.0
1070
    74
1070
     0
1000
MTEXTEND
  0
POINT
  5
3C3B
330
12CA
100
AcDbEntity
  8
DEFPOINTS
 62
     0
100
AcDbPoint
 10
209.253951371841
 20
325.3019247707577
 30
0.0
  0
POINT
  5
3C3C
330
12CA
100
AcDbEntity
  8
DEFPOINTS
 62
     0
100
AcDbPoint
 10
218.253951371841
 20
311.3019247707577
 30
0.0
  0
POINT
  5
3C3D
330
12CA
100
AcDbEntity
  8
DEFPOINTS
 62
     0
100
AcDbPoint
 10
263.9737335755345
 20
311.3019247707577
 30
0.0
  0
ENDBLK
  5
12D7
330
12CA
100
AcDbEntity
  8
0
100
AcDbBlockEnd
  0
BLOCK
  5
12E3
330
12D9
100
AcDbEntity
  8
0
100
AcDbBlockBegin
  2
*D10
 70
     1
 10
0.0
 20
0.0
 30
0.0
  3
*D10
  1

  0
LINE
  5
3C2C
330
12D9
100
AcDbEntity
  8
SUNPOU
100
AcDbLine
 10
220.503951371841
 20
311.3019247707577
 30
0.0
 11
265.4737335755345
 21
311.3019247707577
 31
0.0
  0
LINE
  5
3C2D
330
12D9
100
AcDbEntity
  8
SUNPOU
100
AcDbLine
 10
220.503951371841
 20
279.3019247707576
 30
0.0
 11
265.4737335755345
 21
279.3019247707576
 31
0.0
  0
LINE
  5
3C2E
330
12D9
100
AcDbEntity
  8
SUNPOU
100
AcDbLine
 10
263.9737335755345
 20
307.5519247707577
 30
0.0
 11
263.9737335755345
 21
283.0519247707576
 31
0.0
  0
INSERT
  5
3C2F
330
12D9
100
AcDbEntity
  8
SUNPOU
100
AcDbBlockReference
  2
_OPEN30
 10
263.9737335755345
 20
311.3019247707577
 30
0.0
 41
3.75
 42
3.75
 43
3.75
 50
90.0
  0
INSERT
  5
3C30
330
12D9
100
AcDbEntity
  8
SUNPOU
100
AcDbBlockReference
  2
_OPEN30
 10
263.9737335755345
 20
279.3019247707576
 30
0.0
 41
3.75
 42
3.75
 43
3.75
 50
270.0
  0
MTEXT
  5
3C31
330
12D9
100
AcDbEntity
  8
SUNPOU
 62
     6
100
AcDbMText
 10
260.5987335755344
 20
295.3019247707578
 30
0.0
 40
3.75
 41
0.0
 71
     5
 72
     1
  1
\A1;32
  7
SUNPOU
 11
0.0000000000000001
 21
1.0
 31
0.0
1001
ACAD
1000
MTEXTBEGIN
1070
    73
1070
     1
1070
    44
1040
1.0
1070
    74
1070
     0
1000
MTEXTEND
1000
MTEXTBEGIN
1070
    73
1070
     1
1070
    44
1040
1.0
1070
    74
1070
     0
1000
MTEXTEND
  0
POINT
  5
3C32
330
12D9
100
AcDbEntity
  8
DEFPOINTS
 62
     0
100
AcDbPoint
 10
218.253951371841
 20
311.3019247707577
 30
0.0
  0
POINT
  5
3C33
330
12D9
100
AcDbEntity
  8
DEFPOINTS
 62
     0
100
AcDbPoint
 10
218.253951371841
 20
279.3019247707576
 30
0.0
  0
POINT
  5
3C34
330
12D9
100
AcDbEntity
  8
DEFPOINTS
 62
     0
100
AcDbPoint
 10
263.9737335755345
 20
279.3019247707576
 30
0.0
  0
ENDBLK
  5
12E4
330
12D9
100
AcDbEntity
  8
0
100
AcDbBlockEnd
  0
BLOCK
  5
12F0
330
12E6
100
AcDbEntity
  8
0
100
AcDbBlockBegin
  2
*D11
 70
     1
 10
0.0
 20
0.0
 30
0.0
  3
*D11
  1

  0
LINE
  5
3B99
330
12E6
100
AcDbEntity
  8
SUNPOU
100
AcDbLine
 10
251.503951371841
 20
399.3018236802266
 30
0.0
 11
276.6258516941823
 21
399.3018236802266
 31
0.0
  0
LINE
  5
3B9A
330
12E6
100
AcDbEntity
  8
SUNPOU
100
AcDbLine
 10
246.503951371841
 20
139.3018236802267
 30
0.0
 11
276.6258516941823
 21
139.3018236802267
 31
0.0
  0
LINE
  5
3B9B
330
12E6
100
AcDbEntity
  8
SUNPOU
100
AcDbLine
 10
275.1258516941823
 20
395.5518236802266
 30
0.0
 11
275.1258516941823
 21
143.0518236802266
 31
0.0
  0
INSERT
  5
3B9C
330
12E6
100
AcDbEntity
  8
SUNPOU
100
AcDbBlockReference
  2
_OPEN30
 10
275.1258516941823
 20
399.3018236802266
 30
0.0
 41
3.75
 42
3.75
 43
3.75
 50
90.0
  0
INSERT
  5
3B9D
330
12E6
100
AcDbEntity
  8
SUNPOU
100
AcDbBlockReference
  2
_OPEN30
 10
275.1258516941823
 20
139.3018236802267
 30
0.0
 41
3.75
 42
3.75
 43
3.75
 50
270.0
  0
MTEXT
  5
3B9E
330
12E6
100
AcDbEntity
  8
SUNPOU
 62
     6
100
AcDbMText
 10
271.7508516941821
 20
269.3018236802266
 30
0.0
 40
3.75
 41
0.0
 71
     5
 72
     1
  1
\A1;260
  7
SUNPOU
 11
0.0000000000000001
 21
1.0
 31
0.0
1001
ACAD
1000
MTEXTBEGIN
1070
    73
1070
     1
1070
    44
1040
1.0
1070
    74
1070
     0
1000
MTEXTEND
1000
MTEXTBEGIN
1070
    73
1070
     1
1070
    44
1040
1.0
1070
    74
1070
     0
1000
MTEXTEND
  0
POINT
  5
3B9F
330
12E6
100
AcDbEntity
  8
DEFPOINTS
 62
     0
100
AcDbPoint
 10
249.253951371841
 20
399.3018236802266
 30
0.0
  0
POINT
  5
3BA0
330
12E6
100
AcDbEntity
  8
DEFPOINTS
 62
     0
100
AcDbPoint
 10
244.253951371841
 20
139.3018236802267
 30
0.0
  0
POINT
  5
3BA1
330
12E6
100
AcDbEntity
  8
DEFPOINTS
 62
     0
100
AcDbPoint
 10
275.1258516941823
 20
139.3018236802267
 30
0.0
  0
ENDBLK
  5
12F1
330
12E6
100
AcDbEntity
  8
0
100
AcDbBlockEnd
  0
BLOCK
  5
12FF
330
12F3
100
AcDbEntity
  8
0
100
AcDbBlockBegin
  2
*D12
 70
     1
 10
0.0
 20
0.0
 30
0.0
  3
*D12
  1

  0
LINE
  5
3B33
330
12F3
100
AcDbEntity
  8
SUNPOU
100
AcDbLine
 10
59.25395137184107
 20
116.5518236802265
 30
0.0
 11
59.25395137184107
 21
115.8018236802266
 31
0.0
  0
LINE
  5
3B34
330
12F3
100
AcDbEntity
  8
SUNPOU
100
AcDbLine
 10
64.25395137184094
 20
137.0518236802265
 30
0.0
 11
64.25395137184094
 21
112.8018236802265
 31
0.0
  0
LINE
  5
3B35
330
12F3
100
AcDbEntity
  8
SUNPOU
100
AcDbLine
 10
55.50395137184107
 20
114.3018236802265
 30
0.0
 11
51.75395137184107
 21
114.3018236802265
 31
0.0
  0
LINE
  5
3B36
330
12F3
100
AcDbEntity
  8
SUNPOU
100
AcDbLine
 10
68.00395137184094
 20
114.3018236802265
 30
0.0
 11
71.75395137184094
 21
114.3018236802265
 31
0.0
  0
MTEXT
  5
3B37
330
12F3
100
AcDbEntity
  8
SUNPOU
 62
     6
100
AcDbMText
 10
48.48005518810669
 20
118.6256614648546
 30
0.0
 40
3.75
 41
0.0
 71
     5
 72
     1
  1
\A1;5
  7
SUNPOU
1001
ACAD
1000
MTEXTBEGIN
1070
    73
1070
     1
1070
    44
1040
1.0
1070
    74
1070
     0
1000
MTEXTEND
1000
MTEXTBEGIN
1070
    73
1070
     1
1070
    44
1040
1.0
1070
    74
1070
     0
1000
MTEXTEND
  0
LINE
  5
3B38
330
12F3
100
AcDbEntity
  8
SUNPOU
100
AcDbLine
 10
59.25395137184107
 20
114.3018236802265
 30
0.0
 11
64.25395137184094
 21
114.3018236802265
 31
0.0
  0
INSERT
  5
3B39
330
12F3
100
AcDbEntity
  8
SUNPOU
100
AcDbBlockReference
  2
_OPEN30
 10
59.25395137184107
 20
114.3018236802265
 30
0.0
 41
3.75
 42
3.75
 43
3.75
  0
INSERT
  5
3B3A
330
12F3
100
AcDbEntity
  8
SUNPOU
100
AcDbBlockReference
  2
_OPEN30
 10
64.25395137184094
 20
114.3018236802265
 30
0.0
 41
3.75
 42
3.75
 43
3.75
 50
180.0
  0
POINT
  5
3B3B
330
12F3
100
AcDbEntity
  8
DEFPOINTS
 62
     0
100
AcDbPoint
 10
59.25395137184107
 20
114.3018236802265
 30
0.0
  0
POINT
  5
3B3C
330
12F3
100
AcDbEntity
  8
DEFPOINTS
 62
     0
100
AcDbPoint
 10
64.25395137184094
 20
139.3018236802265
 30
0.0
  0
POINT
  5
3B3D
330
12F3
100
AcDbEntity
  8
DEFPOINTS
 62
     0
100
AcDbPoint
 10
64.25395137184094
 20
114.3018236802265
 30
0.0
  0
ENDBLK
  5
1300
330
12F3
100
AcDbEntity
  8
0
100
AcDbBlockEnd
  0
BLOCK
  5
130C
330
1302
100
AcDbEntity
  8
0
100
AcDbBlockBegin
  2
*D13
 70
     1
 10
0.0
 20
0.0
 30
0.0
  3
*D13
  1

  0
LINE
  5
3AFB
330
1302
100
AcDbEntity
  8
SUNPOU
100
AcDbLine
 10
64.25395137184094
 20
137.0518236802265
 30
0.0
 11
64.25395137184094
 21
112.8018236802265
 31
0.0
  0
LINE
  5
3AFC
330
1302
100
AcDbEntity
  8
SUNPOU
100
AcDbLine
 10
244.253951371841
 20
134.0518236802265
 30
0.0
 11
244.253951371841
 21
112.8018236802265
 31
0.0
  0
LINE
  5
3AFD
330
1302
100
AcDbEntity
  8
SUNPOU
100
AcDbLine
 10
68.00395137184094
 20
114.3018236802265
 30
0.0
 11
240.503951371841
 21
114.3018236802265
 31
0.0
  0
MTEXT
  5
3AFE
330
1302
100
AcDbEntity
  8
SUNPOU
 62
     6
100
AcDbMText
 10
159.3490636761606
 20
118.8018236802266
 30
0.0
 40
3.75
 41
0.0
 71
     5
 72
     1
  1
\A1;180
  7
SUNPOU
1001
ACAD
1000
MTEXTBEGIN
1070
    73
1070
     1
1070
    44
1040
1.0
1070
    74
1070
     0
1000
MTEXTEND
1000
MTEXTBEGIN
1070
    73
1070
     1
1070
    44
1040
1.0
1070
    74
1070
     0
1000
MTEXTEND
  0
INSERT
  5
3AFF
330
1302
100
AcDbEntity
  8
SUNPOU
100
AcDbBlockReference
  2
_OPEN30
 10
64.25395137184094
 20
114.3018236802265
 30
0.0
 41
3.75
 42
3.75
 43
3.75
 50
180.0
  0
INSERT
  5
3B00
330
1302
100
AcDbEntity
  8
SUNPOU
100
AcDbBlockReference
  2
_OPEN30
 10
244.253951371841
 20
114.3018236802265
 30
0.0
 41
3.75
 42
3.75
 43
3.75
  0
POINT
  5
3B01
330
1302
100
AcDbEntity
  8
DEFPOINTS
 62
     0
100
AcDbPoint
 10
64.25395137184094
 20
139.3018236802265
 30
0.0
  0
POINT
  5
3B02
330
1302
100
AcDbEntity
  8
DEFPOINTS
 62
     0
100
AcDbPoint
 10
244.253951371841
 20
136.3018236802265
 30
0.0
  0
POINT
  5
3B03
330
1302
100
AcDbEntity
  8
DEFPOINTS
 62
     0
100
AcDbPoint
 10
244.253951371841
 20
114.3018236802265
 30
0.0
  0
ENDBLK
  5
130D
330
1302
100
AcDbEntity
  8
0
100
AcDbBlockEnd
  0
BLOCK
  5
131B
330
130F
100
AcDbEntity
  8
0
100
AcDbBlockBegin
  2
*D14
 70
     1
 10
0.0
 20
0.0
 30
0.0
  3
*D14
  1

  0
LINE
  5
3C18
330
130F
100
AcDbEntity
  8
SUNPOU
100
AcDbLine
 10
244.253951371841
 20
134.0518236802265
 30
0.0
 11
244.253951371841
 21
112.8018236802265
 31
0.0
  0
LINE
  5
3C19
330
130F
100
AcDbEntity
  8
SUNPOU
100
AcDbLine
 10
249.2539513718409
 20
116.5518236802265
 30
0.0
 11
249.2539513718409
 21
115.8018236802266
 31
0.0
  0
LINE
  5
3C1A
330
130F
100
AcDbEntity
  8
SUNPOU
100
AcDbLine
 10
240.503951371841
 20
114.3018236802265
 30
0.0
 11
236.753951371841
 21
114.3018236802265
 31
0.0
  0
LINE
  5
3C1B
330
130F
100
AcDbEntity
  8
SUNPOU
100
AcDbLine
 10
253.0039513718409
 20
114.3018236802265
 30
0.0
 11
256.753951371841
 21
114.3018236802265
 31
0.0
  0
MTEXT
  5
3C1C
330
130F
100
AcDbEntity
  8
SUNPOU
 62
     6
100
AcDbMText
 10
246.7400018306051
 20
119.7183695333341
 30
0.0
 40
3.75
 41
0.0
 71
     5
 72
     1
  1
\A1;5
  7
SUNPOU
1001
ACAD
1000
MTEXTBEGIN
1070
    73
1070
     1
1070
    44
1040
1.0
1070
    74
1070
     0
1000
MTEXTEND
1000
MTEXTBEGIN
1070
    73
1070
     1
1070
    44
1040
1.0
1070
    74
1070
     0
1000
MTEXTEND
  0
LINE
  5
3C1D
330
130F
100
AcDbEntity
  8
SUNPOU
100
AcDbLine
 10
244.253951371841
 20
114.3018236802265
 30
0.0
 11
249.2539513718409
 21
114.3018236802265
 31
0.0
  0
INSERT
  5
3C1E
330
130F
100
AcDbEntity
  8
SUNPOU
100
AcDbBlockReference
  2
_OPEN30
 10
244.253951371841
 20
114.3018236802265
 30
0.0
 41
3.75
 42
3.75
 43
3.75
  0
INSERT
  5
3C1F
330
130F
100
AcDbEntity
  8
SUNPOU
100
AcDbBlockReference
  2
_OPEN30
 10
249.2539513718409
 20
114.3018236802265
 30
0.0
 41
3.75
 42
3.75
 43
3.75
 50
180.0
  0
POINT
  5
3C20
330
130F
100
AcDbEntity
  8
DEFPOINTS
 62
     0
100
AcDbPoint
 10
244.253951371841
 20
136.3018236802265
 30
0.0
  0
POINT
  5
3C21
330
130F
100
AcDbEntity
  8
DEFPOINTS
 62
     0
100
AcDbPoint
 10
249.2539513718409
 20
114.3018236802265
 30
0.0
  0
POINT
  5
3C22
330
130F
100
AcDbEntity
  8
DEFPOINTS
 62
     0
100
AcDbPoint
 10
249.2539513718409
 20
114.3018236802265
 30
0.0
  0
ENDBLK
  5
131C
330
130F
100
AcDbEntity
  8
0
100
AcDbBlockEnd
  0
BLOCK
  5
1328
330
131E
100
AcDbEntity
  8
0
100
AcDbBlockBegin
  2
*D15
 70
     1
 10
0.0
 20
0.0
 30
0.0
  3
*D15
  1

  0
LINE
  5
3B47
330
131E
100
AcDbEntity
  8
SUNPOU
100
AcDbLine
 10
64.25395137184094
 20
137.0518236802265
 30
0.0
 11
64.25395137184094
 21
120.6425104179052
 31
0.0
  0
LINE
  5
3B48
330
131E
100
AcDbEntity
  8
SUNPOU
100
AcDbLine
 10
139.253951371841
 20
122.0518236802266
 30
0.0
 11
139.253951371841
 21
120.6425104179052
 31
0.0
  0
LINE
  5
3B49
330
131E
100
AcDbEntity
  8
SUNPOU
100
AcDbLine
 10
68.00395137184094
 20
122.1425104179052
 30
0.0
 11
135.5039513718409
 21
122.1425104179052
 31
0.0
  0
MTEXT
  5
3B4A
330
131E
100
AcDbEntity
  8
SUNPOU
 62
     6
100
AcDbMText
 10
91.93218097828504
 20
125.975387323764
 30
0.0
 40
3.75
 41
0.0
 71
     5
 72
     1
  1
\A1;75
  7
SUNPOU
1001
ACAD
1000
MTEXTBEGIN
1070
    73
1070
     1
1070
    44
1040
1.0
1070
    74
1070
     0
1000
MTEXTEND
1000
MTEXTBEGIN
1070
    73
1070
     1
1070
    44
1040
1.0
1070
    74
1070
     0
1000
MTEXTEND
  0
INSERT
  5
3B4B
330
131E
100
AcDbEntity
  8
SUNPOU
100
AcDbBlockReference
  2
_OPEN30
 10
64.25395137184094
 20
122.1425104179052
 30
0.0
 41
3.75
 42
3.75
 43
3.75
 50
180.0
  0
INSERT
  5
3B4C
330
131E
100
AcDbEntity
  8
SUNPOU
100
AcDbBlockReference
  2
_OPEN30
 10
139.253951371841
 20
122.1425104179052
 30
0.0
 41
3.75
 42
3.75
 43
3.75
  0
POINT
  5
3B4D
330
131E
100
AcDbEntity
  8
DEFPOINTS
 62
     0
100
AcDbPoint
 10
64.25395137184094
 20
139.3018236802265
 30
0.0
  0
POINT
  5
3B4E
330
131E
100
AcDbEntity
  8
DEFPOINTS
 62
     0
100
AcDbPoint
 10
139.253951371841
 20
124.3018236802265
 30
0.0
  0
POINT
  5
3B4F
330
131E
100
AcDbEntity
  8
DEFPOINTS
 62
     0
100
AcDbPoint
 10
139.253951371841
 20
122.1425104179052
 30
0.0
  0
ENDBLK
  5
1329
330
131E
100
AcDbEntity
  8
0
100
AcDbBlockEnd
  0
BLOCK
  5
1337
330
132B
100
AcDbEntity
  8
0
100
AcDbBlockBegin
  2
*D16
 70
     1
 10
0.0
 20
0.0
 30
0.0
  3
*D16
  1

  0
LINE
  5
3B04
330
132B
100
AcDbEntity
  8
SUNPOU
100
AcDbLine
 10
139.253951371841
 20
124.3925104179051
 30
0.0
 11
139.253951371841
 21
123.6425104179051
 31
0.0
  0
LINE
  5
3B05
330
132B
100
AcDbEntity
  8
SUNPOU
100
AcDbLine
 10
145.253951371841
 20
124.3925104179051
 30
0.0
 11
145.253951371841
 21
123.6425104179051
 31
0.0
  0
LINE
  5
3B06
330
132B
100
AcDbEntity
  8
SUNPOU
100
AcDbLine
 10
135.5039513718409
 20
122.1425104179052
 30
0.0
 11
131.753951371841
 21
122.1425104179052
 31
0.0
  0
LINE
  5
3B07
330
132B
100
AcDbEntity
  8
SUNPOU
100
AcDbLine
 10
149.0039513718409
 20
122.1425104179052
 30
0.0
 11
152.753951371841
 21
122.1425104179052
 31
0.0
  0
MTEXT
  5
3B08
330
132B
100
AcDbEntity
  8
SUNPOU
 62
     6
100
AcDbMText
 10
142.1150817865898
 20
126.556750049392
 30
0.0
 40
3.75
 41
0.0
 71
     5
 72
     1
  1
\A1;6
  7
SUNPOU
1001
ACAD
1000
MTEXTBEGIN
1070
    73
1070
     1
1070
    44
1040
1.0
1070
    74
1070
     0
1000
MTEXTEND
1000
MTEXTBEGIN
1070
    73
1070
     1
1070
    44
1040
1.0
1070
    74
1070
     0
1000
MTEXTEND
  0
LINE
  5
3B09
330
132B
100
AcDbEntity
  8
SUNPOU
100
AcDbLine
 10
139.253951371841
 20
122.1425104179052
 30
0.0
 11
145.253951371841
 21
122.1425104179052
 31
0.0
  0
INSERT
  5
3B0A
330
132B
100
AcDbEntity
  8
SUNPOU
100
AcDbBlockReference
  2
_OPEN30
 10
139.253951371841
 20
122.1425104179052
 30
0.0
 41
3.75
 42
3.75
 43
3.75
  0
INSERT
  5
3B0B
330
132B
100
AcDbEntity
  8
SUNPOU
100
AcDbBlockReference
  2
_OPEN30
 10
145.253951371841
 20
122.1425104179052
 30
0.0
 41
3.75
 42
3.75
 43
3.75
 50
180.0
  0
POINT
  5
3B0C
330
132B
100
AcDbEntity
  8
DEFPOINTS
 62
     0
100
AcDbPoint
 10
139.253951371841
 20
122.1425104179052
 30
0.0
  0
POINT
  5
3B0D
330
132B
100
AcDbEntity
  8
DEFPOINTS
 62
     0
100
AcDbPoint
 10
145.253951371841
 20
122.1425104179052
 30
0.0
  0
POINT
  5
3B0E
330
132B
100
AcDbEntity
  8
DEFPOINTS
 62
     0
100
AcDbPoint
 10
145.253951371841
 20
122.1425104179052
 30
0.0
  0
ENDBLK
  5
1338
330
132B
100
AcDbEntity
  8
0
100
AcDbBlockEnd
  0
BLOCK
  5
1344
330
133A
100
AcDbEntity
  8
0
100
AcDbBlockBegin
  2
*D17
 70
     1
 10
0.0
 20
0.0
 30
0.0
  3
*D17
  1

  0
LINE
  5
3BE5
330
133A
100
AcDbEntity
  8
SUNPOU
100
AcDbLine
 10
145.253951371841
 20
124.3925104179051
 30
0.0
 11
145.253951371841
 21
123.6425104179051
 31
0.0
  0
LINE
  5
3BE6
330
133A
100
AcDbEntity
  8
SUNPOU
100
AcDbLine
 10
173.253951371841
 20
122.0518236802266
 30
0.0
 11
173.253951371841
 21
120.6425104179052
 31
0.0
  0
LINE
  5
3BE7
330
133A
100
AcDbEntity
  8
SUNPOU
100
AcDbLine
 10
149.0039513718409
 20
122.1425104179052
 30
0.0
 11
169.5039513718409
 21
122.1425104179052
 31
0.0
  0
MTEXT
  5
3BE8
330
133A
100
AcDbEntity
  8
SUNPOU
 62
     6
100
AcDbMText
 10
159.6684231304704
 20
126.3715989528237
 30
0.0
 40
3.75
 41
0.0
 71
     5
 72
     1
  1
\A1;28
  7
SUNPOU
1001
ACAD
1000
MTEXTBEGIN
1070
    73
1070
     1
1070
    44
1040
1.0
1070
    74
1070
     0
1000
MTEXTEND
1000
MTEXTBEGIN
1070
    73
1070
     1
1070
    44
1040
1.0
1070
    74
1070
     0
1000
MTEXTEND
  0
INSERT
  5
3BE9
330
133A
100
AcDbEntity
  8
SUNPOU
100
AcDbBlockReference
  2
_OPEN30
 10
145.253951371841
 20
122.1425104179052
 30
0.0
 41
3.75
 42
3.75
 43
3.75
 50
180.0
  0
INSERT
  5
3BEA
330
133A
100
AcDbEntity
  8
SUNPOU
100
AcDbBlockReference
  2
_OPEN30
 10
173.253951371841
 20
122.1425104179052
 30
0.0
 41
3.75
 42
3.75
 43
3.75
  0
POINT
  5
3BEB
330
133A
100
AcDbEntity
  8
DEFPOINTS
 62
     0
100
AcDbPoint
 10
145.253951371841
 20
122.1425104179052
 30
0.0
  0
POINT
  5
3BEC
330
133A
100
AcDbEntity
  8
DEFPOINTS
 62
     0
100
AcDbPoint
 10
173.253951371841
 20
124.3018236802265
 30
0.0
  0
POINT
  5
3BED
330
133A
100
AcDbEntity
  8
DEFPOINTS
 62
     0
100
AcDbPoint
 10
173.253951371841
 20
122.1425104179052
 30
0.0
  0
ENDBLK
  5
1345
330
133A
100
AcDbEntity
  8
0
100
AcDbBlockEnd
  0
BLOCK
  5
1353
330
1347
100
AcDbEntity
  8
0
100
AcDbBlockBegin
  2
*D18
 70
     1
 10
0.0
 20
0.0
 30
0.0
  3
*D18
  1

  0
LINE
  5
3BEE
330
1347
100
AcDbEntity
  8
SUNPOU
100
AcDbLine
 10
173.253951371841
 20
122.0518236802266
 30
0.0
 11
173.253951371841
 21
120.6425104179052
 31
0.0
  0
LINE
  5
3BEF
330
1347
100
AcDbEntity
  8
SUNPOU
100
AcDbLine
 10
179.2539513718409
 20
134.0518236802265
 30
0.0
 11
179.2539513718409
 21
120.6425104179052
 31
0.0
  0
LINE
  5
3BF0
330
1347
100
AcDbEntity
  8
SUNPOU
100
AcDbLine
 10
169.5039513718409
 20
122.1425104179052
 30
0.0
 11
165.7539513718409
 21
122.1425104179052
 31
0.0
  0
LINE
  5
3BF1
330
1347
100
AcDbEntity
  8
SUNPOU
100
AcDbLine
 10
183.003951371841
 20
122.1425104179052
 30
0.0
 11
186.753951371841
 21
122.1425104179052
 31
0.0
  0
MTEXT
  5
3BF2
330
1347
100
AcDbEntity
  8
SUNPOU
 62
     6
100
AcDbMText
 10
176.5532456457426
 20
126.3715989528237
 30
0.0
 40
3.75
 41
0.0
 71
     5
 72
     1
  1
\A1;6
  7
SUNPOU
1001
ACAD
1000
MTEXTBEGIN
1070
    73
1070
     1
1070
    44
1040
1.0
1070
    74
1070
     0
1000
MTEXTEND
1000
MTEXTBEGIN
1070
    73
1070
     1
1070
    44
1040
1.0
1070
    74
1070
     0
1000
MTEXTEND
  0
LINE
  5
3BF3
330
1347
100
AcDbEntity
  8
SUNPOU
100
AcDbLine
 10
173.253951371841
 20
122.1425104179052
 30
0.0
 11
179.2539513718409
 21
122.1425104179052
 31
0.0
  0
INSERT
  5
3BF4
330
1347
100
AcDbEntity
  8
SUNPOU
100
AcDbBlockReference
  2
_OPEN30
 10
173.253951371841
 20
122.1425104179052
 30
0.0
 41
3.75
 42
3.75
 43
3.75
  0
INSERT
  5
3BF5
330
1347
100
AcDbEntity
  8
SUNPOU
100
AcDbBlockReference
  2
_OPEN30
 10
179.2539513718409
 20
122.1425104179052
 30
0.0
 41
3.75
 42
3.75
 43
3.75
 50
180.0
  0
POINT
  5
3BF6
330
1347
100
AcDbEntity
  8
DEFPOINTS
 62
     0
100
AcDbPoint
 10
173.253951371841
 20
124.3018236802265
 30
0.0
  0
POINT
  5
3BF7
330
1347
100
AcDbEntity
  8
DEFPOINTS
 62
     0
100
AcDbPoint
 10
179.2539513718409
 20
136.3018236802265
 30
0.0
  0
POINT
  5
3BF8
330
1347
100
AcDbEntity
  8
DEFPOINTS
 62
     0
100
AcDbPoint
 10
179.2539513718409
 20
122.1425104179052
 30
0.0
  0
ENDBLK
  5
1354
330
1347
100
AcDbEntity
  8
0
100
AcDbBlockEnd
  0
BLOCK
  5
1360
330
1356
100
AcDbEntity
  8
0
100
AcDbBlockBegin
  2
*D19
 70
     1
 10
0.0
 20
0.0
 30
0.0
  3
*D19
  1

  0
LINE
  5
3BAB
330
1356
100
AcDbEntity
  8
SUNPOU
100
AcDbLine
 10
179.2539513718409
 20
134.0518236802265
 30
0.0
 11
179.2539513718409
 21
120.6425104179052
 31
0.0
  0
LINE
  5
3BAC
330
1356
100
AcDbEntity
  8
SUNPOU
100
AcDbLine
 10
244.253951371841
 20
134.0518236802265
 30
0.0
 11
244.253951371841
 21
120.6425104179052
 31
0.0
  0
LINE
  5
3BAD
330
1356
100
AcDbEntity
  8
SUNPOU
100
AcDbLine
 10
183.003951371841
 20
122.1425104179052
 30
0.0
 11
240.503951371841
 21
122.1425104179052
 31
0.0
  0
INSERT
  5
3BAE
330
1356
100
AcDbEntity
  8
SUNPOU
100
AcDbBlockReference
  2
_OPEN30
 10
179.2539513718409
 20
122.1425104179052
 30
0.0
 41
3.75
 42
3.75
 43
3.75
 50
180.0
  0
INSERT
  5
3BAF
330
1356
100
AcDbEntity
  8
SUNPOU
100
AcDbBlockReference
  2
_OPEN30
 10
244.253951371841
 20
122.1425104179052
 30
0.0
 41
3.75
 42
3.75
 43
3.75
  0
MTEXT
  5
3BB0
330
1356
100
AcDbEntity
  8
SUNPOU
 62
     6
100
AcDbMText
 10
211.7539513718409
 20
125.5175104179051
 30
0.0
 40
3.75
 41
0.0
 71
     5
 72
     1
  1
\A1;65
  7
SUNPOU
1001
ACAD
1000
MTEXTBEGIN
1070
    73
1070
     1
1070
    44
1040
1.0
1070
    74
1070
     0
1000
MTEXTEND
1000
MTEXTBEGIN
1070
    73
1070
     1
1070
    44
1040
1.0
1070
    74
1070
     0
1000
MTEXTEND
  0
POINT
  5
3BB1
330
1356
100
AcDbEntity
  8
DEFPOINTS
 62
     0
100
AcDbPoint
 10
179.2539513718409
 20
136.3018236802265
 30
0.0
  0
POINT
  5
3BB2
330
1356
100
AcDbEntity
  8
DEFPOINTS
 62
     0
100
AcDbPoint
 10
244.253951371841
 20
136.3018236802265
 30
0.0
  0
POINT
  5
3BB3
330
1356
100
AcDbEntity
  8
DEFPOINTS
 62
     0
100
AcDbPoint
 10
244.253951371841
 20
122.1425104179052
 30
0.0
  0
ENDBLK
  5
1361
330
1356
100
AcDbEntity
  8
0
100
AcDbBlockEnd
  0
BLOCK
  5
13CC
330
13C2
100
AcDbEntity
  8
0
100
AcDbBlockBegin
  2
*D20
 70
     1
 10
0.0
 20
0.0
 30
0.0
  3
*D20
  1

  0
LINE
  5
3AF2
330
13C2
100
AcDbEntity
  8
SUNPOU
100
AcDbLine
 10
59.25395137184114
 20
100.1768236802266
 30
0.0
 11
59.25395137184114
 21
100.9268236802264
 31
0.0
  0
LINE
  5
3AF3
330
13C2
100
AcDbEntity
  8
SUNPOU
100
AcDbLine
 10
249.2539513718409
 20
102.0518236802264
 30
0.0
 11
249.2539513718409
 21
100.9268236802264
 31
0.0
  0
LINE
  5
3AF4
330
13C2
100
AcDbEntity
  8
SUNPOU
100
AcDbLine
 10
63.00395137184114
 20
102.4268236802264
 30
0.0
 11
245.503951371841
 21
102.4268236802264
 31
0.0
  0
MTEXT
  5
3AF5
330
13C2
100
AcDbEntity
  8
SUNPOU
 62
     6
100
AcDbMText
 10
159.8281037053216
 20
106.4073339729309
 30
0.0
 40
3.75
 41
0.0
 71
     5
 72
     1
  1
\A1;190
  7
SUNPOU
1001
ACAD
1000
MTEXTBEGIN
1070
    73
1070
     1
1070
    44
1040
1.0
1070
    74
1070
     0
1000
MTEXTEND
1000
MTEXTBEGIN
1070
    73
1070
     1
1070
    44
1040
1.0
1070
    74
1070
     0
1000
MTEXTEND
  0
INSERT
  5
3AF6
330
13C2
100
AcDbEntity
  8
SUNPOU
100
AcDbBlockReference
  2
_OPEN30
 10
59.25395137184114
 20
102.4268236802264
 30
0.0
 41
3.75
 42
3.75
 43
3.75
 50
180.0
  0
INSERT
  5
3AF7
330
13C2
100
AcDbEntity
  8
SUNPOU
100
AcDbBlockReference
  2
_OPEN30
 10
249.2539513718409
 20
102.4268236802264
 30
0.0
 41
3.75
 42
3.75
 43
3.75
  0
POINT
  5
3AF8
330
13C2
100
AcDbEntity
  8
DEFPOINTS
 62
     0
100
AcDbPoint
 10
59.25395137184114
 20
102.4268236802265
 30
0.0
  0
POINT
  5
3AF9
330
13C2
100
AcDbEntity
  8
DEFPOINTS
 62
     0
100
AcDbPoint
 10
249.2539513718409
 20
104.3018236802266
 30
0.0
  0
POINT
  5
3AFA
330
13C2
100
AcDbEntity
  8
DEFPOINTS
 62
     0
100
AcDbPoint
 10
249.2539513718409
 20
102.4268236802264
 30
0.0
  0
ENDBLK
  5
13CD
330
13C2
100
AcDbEntity
  8
0
100
AcDbBlockEnd
  0
BLOCK
  5
17CF
330
17C5
100
AcDbEntity
  8
0
100
AcDbBlockBegin
  2
*D21
 70
     1
 10
0.0
 20
0.0
 30
0.0
  3
*D21
  1

  0
LINE
  5
3C47
330
17C5
100
AcDbEntity
  8
SUNPOU
100
AcDbLine
 10
64.25395137184108
 20
401.5518236802266
 30
0.0
 11
64.25395137184108
 21
404.0682370907582
 31
0.0
  0
LINE
  5
3C48
330
17C5
100
AcDbEntity
  8
SUNPOU
100
AcDbLine
 10
161.2539513718409
 20
383.1044039949723
 30
0.0
 11
161.2539513718409
 21
404.0682370907582
 31
0.0
  0
LINE
  5
3C49
330
17C5
100
AcDbEntity
  8
SUNPOU
100
AcDbLine
 10
68.00395137184108
 20
402.5682370907582
 30
0.0
 11
157.503951371841
 21
402.5682370907582
 31
0.0
  0
INSERT
  5
3C4A
330
17C5
100
AcDbEntity
  8
SUNPOU
100
AcDbBlockReference
  2
_OPEN30
 10
64.25395137184108
 20
402.5682370907582
 30
0.0
 41
3.75
 42
3.75
 43
3.75
 50
180.0
  0
INSERT
  5
3C4B
330
17C5
100
AcDbEntity
  8
SUNPOU
100
AcDbBlockReference
  2
_OPEN30
 10
161.2539513718409
 20
402.5682370907582
 30
0.0
 41
3.75
 42
3.75
 43
3.75
  0
MTEXT
  5
3C4C
330
17C5
100
AcDbEntity
  8
SUNPOU
 62
     6
100
AcDbMText
 10
112.753951371841
 20
405.9432370907583
 30
0.0
 40
3.75
 41
0.0
 71
     5
 72
     1
  1
\A1;97
  7
SUNPOU
1001
ACAD
1000
MTEXTBEGIN
1070
    73
1070
     1
1070
    44
1040
1.0
1070
    74
1070
     0
1000
MTEXTEND
1000
MTEXTBEGIN
1070
    73
1070
     1
1070
    44
1040
1.0
1070
    74
1070
     0
1000
MTEXTEND
  0
POINT
  5
3C4D
330
17C5
100
AcDbEntity
  8
DEFPOINTS
 62
     0
100
AcDbPoint
 10
64.25395137184108
 20
399.3018236802268
 30
0.0
  0
POINT
  5
3C4E
330
17C5
100
AcDbEntity
  8
DEFPOINTS
 62
     0
100
AcDbPoint
 10
161.2539513718409
 20
380.8544039949723
 30
0.0
  0
POINT
  5
3C4F
330
17C5
100
AcDbEntity
  8
DEFPOINTS
 62
     0
100
AcDbPoint
 10
161.2539513718409
 20
402.5682370907582
 30
0.0
  0
ENDBLK
  5
17D0
330
17C5
100
AcDbEntity
  8
0
100
AcDbBlockEnd
  0
BLOCK
  5
17DC
330
17D2
100
AcDbEntity
  8
0
100
AcDbBlockBegin
  2
*D22
 70
     1
 10
0.0
 20
0.0
 30
0.0
  3
*D22
  1

  0
LINE
  5
3C50
330
17D2
100
AcDbEntity
  8
SUNPOU
100
AcDbLine
 10
161.2539513718409
 20
383.1044039949723
 30
0.0
 11
161.2539513718409
 21
404.0682370907582
 31
0.0
  0
LINE
  5
3C51
330
17D2
100
AcDbEntity
  8
SUNPOU
100
AcDbLine
 10
244.253951371841
 20
401.5518236802265
 30
0.0
 11
244.253951371841
 21
404.0682370907582
 31
0.0
  0
LINE
  5
3C52
330
17D2
100
AcDbEntity
  8
SUNPOU
100
AcDbLine
 10
165.003951371841
 20
402.5682370907582
 30
0.0
 11
240.503951371841
 21
402.5682370907582
 31
0.0
  0
INSERT
  5
3C53
330
17D2
100
AcDbEntity
  8
SUNPOU
100
AcDbBlockReference
  2
_OPEN30
 10
161.2539513718409
 20
402.5682370907582
 30
0.0
 41
3.75
 42
3.75
 43
3.75
 50
180.0
  0
INSERT
  5
3C54
330
17D2
100
AcDbEntity
  8
SUNPOU
100
AcDbBlockReference
  2
_OPEN30
 10
244.253951371841
 20
402.5682370907582
 30
0.0
 41
3.75
 42
3.75
 43
3.75
  0
MTEXT
  5
3C55
330
17D2
100
AcDbEntity
  8
SUNPOU
 62
     6
100
AcDbMText
 10
202.753951371841
 20
405.9432370907583
 30
0.0
 40
3.75
 41
0.0
 71
     5
 72
     1
  1
\A1;83
  7
SUNPOU
1001
ACAD
1000
MTEXTBEGIN
1070
    73
1070
     1
1070
    44
1040
1.0
1070
    74
1070
     0
1000
MTEXTEND
1000
MTEXTBEGIN
1070
    73
1070
     1
1070
    44
1040
1.0
1070
    74
1070
     0
1000
MTEXTEND
  0
POINT
  5
3C56
330
17D2
100
AcDbEntity
  8
DEFPOINTS
 62
     0
100
AcDbPoint
 10
161.2539513718409
 20
380.8544039949723
 30
0.0
  0
POINT
  5
3C57
330
17D2
100
AcDbEntity
  8
DEFPOINTS
 62
     0
100
AcDbPoint
 10
244.253951371841
 20
399.3018236802266
 30
0.0
  0
POINT
  5
3C58
330
17D2
100
AcDbEntity
  8
DEFPOINTS
 62
     0
100
AcDbPoint
 10
244.253951371841
 20
402.5682370907582
 30
0.0
  0
ENDBLK
  5
17DD
330
17D2
100
AcDbEntity
  8
0
100
AcDbBlockEnd
  0
BLOCK
  5
19A7
330
199D
100
AcDbEntity
  8
0
100
AcDbBlockBegin
  2
*D23
 70
     1
 10
0.0
 20
0.0
 30
0.0
  3
*D23
  1

  0
LINE
  5
3B0F
330
199D
100
AcDbEntity
  8
SUNPOU
  6
CONTINUOUS
100
AcDbLine
 10
129.2542775466216
 20
385.7205964675454
 30
0.0
 11
129.2542775466216
 21
390.2612369046742
 31
0.0
  0
LINE
  5
3B10
330
199D
100
AcDbEntity
  8
SUNPOU
  6
CONTINUOUS
100
AcDbLine
 10
161.2539513718409
 20
383.1044039949723
 30
0.0
 11
161.2539513718409
 21
390.2612369046742
 31
0.0
  0
LINE
  5
3B11
330
199D
100
AcDbEntity
  8
SUNPOU
  6
CONTINUOUS
100
AcDbLine
 10
133.0042775466216
 20
388.7612369046742
 30
0.0
 11
157.503951371841
 21
388.7612369046742
 31
0.0
  0
INSERT
  5
3B12
330
199D
100
AcDbEntity
  8
SUNPOU
  6
CONTINUOUS
100
AcDbBlockReference
  2
_OPEN30
 10
129.2542775466216
 20
388.7612369046742
 30
0.0
 41
3.75
 42
3.75
 43
3.75
 50
180.0
  0
INSERT
  5
3B13
330
199D
100
AcDbEntity
  8
SUNPOU
  6
CONTINUOUS
100
AcDbBlockReference
  2
_OPEN30
 10
161.2539513718409
 20
388.7612369046742
 30
0.0
 41
3.75
 42
3.75
 43
3.75
  0
MTEXT
  5
3B14
330
199D
100
AcDbEntity
  8
SUNPOU
  6
CONTINUOUS
 62
     6
100
AcDbMText
 10
145.2541144592314
 20
392.1362369046742
 30
0.0
 40
3.75
 41
0.0
 71
     5
 72
     1
  1
\A1;32
  7
SUNPOU
1001
ACAD
1000
MTEXTBEGIN
1070
    73
1070
     1
1070
    44
1040
1.0
1070
    74
1070
     0
1000
MTEXTEND
1000
MTEXTBEGIN
1070
    73
1070
     1
1070
    44
1040
1.0
1070
    74
1070
     0
1000
MTEXTEND
  0
POINT
  5
3B15
330
199D
100
AcDbEntity
  8
DEFPOINTS
  6
CONTINUOUS
 62
     0
100
AcDbPoint
 10
129.2542775466216
 20
383.4705964675454
 30
0.0
  0
POINT
  5
3B16
330
199D
100
AcDbEntity
  8
DEFPOINTS
  6
CONTINUOUS
 62
     0
100
AcDbPoint
 10
161.2539513718409
 20
380.8544039949723
 30
0.0
  0
POINT
  5
3B17
330
199D
100
AcDbEntity
  8
DEFPOINTS
  6
CONTINUOUS
 62
     0
100
AcDbPoint
 10
161.2539513718409
 20
388.7612369046742
 30
0.0
  0
ENDBLK
  5
19A8
330
199D
100
AcDbEntity
  8
0
100
AcDbBlockEnd
  0
BLOCK
  5
19B4
330
19AA
100
AcDbEntity
  8
0
100
AcDbBlockBegin
  2
*D24
 70
     1
 10
0.0
 20
0.0
 30
0.0
  3
*D24
  1

  0
LINE
  5
3C3E
330
19AA
100
AcDbEntity
  8
SUNPOU
  6
CONTINUOUS
100
AcDbLine
 10
161.2539513718409
 20
383.1044039949723
 30
0.0
 11
161.2539513718409
 21
390.2612369046742
 31
0.0
  0
LINE
  5
3C3F
330
19AA
100
AcDbEntity
  8
SUNPOU
  6
CONTINUOUS
100
AcDbLine
 10
179.2542775466216
 20
385.7205964675454
 30
0.0
 11
179.2542775466216
 21
390.2612369046742
 31
0.0
  0
LINE
  5
3C40
330
19AA
100
AcDbEntity
  8
SUNPOU
  6
CONTINUOUS
100
AcDbLine
 10
165.003951371841
 20
388.7612369046742
 30
0.0
 11
175.5042775466217
 21
388.7612369046742
 31
0.0
  0
INSERT
  5
3C41
330
19AA
100
AcDbEntity
  8
SUNPOU
  6
CONTINUOUS
100
AcDbBlockReference
  2
_OPEN30
 10
161.2539513718409
 20
388.7612369046742
 30
0.0
 41
3.75
 42
3.75
 43
3.75
 50
180.0
  0
INSERT
  5
3C42
330
19AA
100
AcDbEntity
  8
SUNPOU
  6
CONTINUOUS
100
AcDbBlockReference
  2
_OPEN30
 10
179.2542775466216
 20
388.7612369046742
 30
0.0
 41
3.75
 42
3.75
 43
3.75
  0
MTEXT
  5
3C43
330
19AA
100
AcDbEntity
  8
SUNPOU
  6
CONTINUOUS
 62
     6
100
AcDbMText
 10
170.2541144592314
 20
392.1362369046742
 30
0.0
 40
3.75
 41
0.0
 71
     5
 72
     1
  1
\A1;18
  7
SUNPOU
1001
ACAD
1000
MTEXTBEGIN
1070
    73
1070
     1
1070
    44
1040
1.0
1070
    74
1070
     0
1000
MTEXTEND
1000
MTEXTBEGIN
1070
    73
1070
     1
1070
    44
1040
1.0
1070
    74
1070
     0
1000
MTEXTEND
  0
POINT
  5
3C44
330
19AA
100
AcDbEntity
  8
DEFPOINTS
  6
CONTINUOUS
 62
     0
100
AcDbPoint
 10
161.2539513718409
 20
380.8544039949723
 30
0.0
  0
POINT
  5
3C45
330
19AA
100
AcDbEntity
  8
DEFPOINTS
  6
CONTINUOUS
 62
     0
100
AcDbPoint
 10
179.2542775466216
 20
383.4705964675454
 30
0.0
  0
POINT
  5
3C46
330
19AA
100
AcDbEntity
  8
DEFPOINTS
  6
CONTINUOUS
 62
     0
100
AcDbPoint
 10
179.2542775466216
 20
388.7612369046742
 30
0.0
  0
ENDBLK
  5
19B5
330
19AA
100
AcDbEntity
  8
0
100
AcDbBlockEnd
  0
BLOCK
  5
1ACE
330
1AC4
100
AcDbEntity
  8
0
100
AcDbBlockBegin
  2
*D25
 70
     1
 10
0.0
 20
0.0
 30
0.0
  3
*D25
  1

  0
LINE
  5
3BDC
330
1AC4
100
AcDbEntity
  8
SUNPOU
100
AcDbLine
 10
148.7539513718409
 20
46.8806885724086
 30
0.0
 11
148.7539513718409
 21
31.94080688202939
 31
0.0
  0
LINE
  5
3BDD
330
1AC4
100
AcDbEntity
  8
SUNPOU
100
AcDbLine
 10
169.7539513718409
 20
46.8806885724086
 30
0.0
 11
169.7539513718409
 21
31.94080688202939
 31
0.0
  0
LINE
  5
3BDE
330
1AC4
100
AcDbEntity
  8
SUNPOU
100
AcDbLine
 10
152.503951371841
 20
33.44080688202939
 30
0.0
 11
166.003951371841
 21
33.44080688202939
 31
0.0
  0
INSERT
  5
3BDF
330
1AC4
100
AcDbEntity
  8
SUNPOU
100
AcDbBlockReference
  2
_OPEN30
 10
148.7539513718409
 20
33.44080688202939
 30
0.0
 41
3.75
 42
3.75
 43
3.75
 50
180.0
  0
INSERT
  5
3BE0
330
1AC4
100
AcDbEntity
  8
SUNPOU
100
AcDbBlockReference
  2
_OPEN30
 10
169.7539513718409
 20
33.44080688202939
 30
0.0
 41
3.75
 42
3.75
 43
3.75
  0
MTEXT
  5
3BE1
330
1AC4
100
AcDbEntity
  8
SUNPOU
 62
     6
100
AcDbMText
 10
159.2539513718409
 20
36.81580688202939
 30
0.0
 40
3.75
 41
0.0
 71
     5
 72
     1
  1
\A1;21
  7
SUNPOU
1001
ACAD
1000
MTEXTBEGIN
1070
    73
1070
     1
1070
    44
1040
1.0
1070
    74
1070
     0
1000
MTEXTEND
1000
MTEXTBEGIN
1070
    73
1070
     1
1070
    44
1040
1.0
1070
    74
1070
     0
1000
MTEXTEND
  0
POINT
  5
3BE2
330
1AC4
100
AcDbEntity
  8
DEFPOINTS
 62
     0
100
AcDbPoint
 10
148.7539513718409
 20
49.13068857240862
 30
0.0
  0
POINT
  5
3BE3
330
1AC4
100
AcDbEntity
  8
DEFPOINTS
 62
     0
100
AcDbPoint
 10
169.7539513718409
 20
49.13068857240862
 30
0.0
  0
POINT
  5
3BE4
330
1AC4
100
AcDbEntity
  8
DEFPOINTS
 62
     0
100
AcDbPoint
 10
169.7539513718409
 20
33.44080688202939
 30
0.0
  0
ENDBLK
  5
1ACF
330
1AC4
100
AcDbEntity
  8
0
100
AcDbBlockEnd
  0
BLOCK
  5
1ADC
330
1AD0
100
AcDbEntity
  8
0
100
AcDbBlockBegin
  2
*D26
 70
     1
 10
0.0
 20
0.0
 30
0.0
  3
*D26
  1

  0
LINE
  5
3BD1
330
1AD0
100
AcDbEntity
  8
SUNPOU
100
AcDbLine
 10
175.0039513718408
 20
74.13068857240867
 30
0.0
 11
225.8548697651438
 21
74.13068857240865
 31
0.0
  0
LINE
  5
3BD2
330
1AD0
100
AcDbEntity
  8
SUNPOU
100
AcDbLine
 10
175.0039513718408
 20
71.13068857240867
 30
0.0
 11
225.8548697651438
 21
71.13068857240866
 31
0.0
  0
LINE
  5
3BD3
330
1AD0
100
AcDbEntity
  8
SUNPOU
100
AcDbLine
 10
224.3548697651438
 20
77.88068857240865
 30
0.0
 11
224.3548697651438
 21
81.63068857240865
 31
0.0
  0
LINE
  5
3BD4
330
1AD0
100
AcDbEntity
  8
SUNPOU
100
AcDbLine
 10
224.3548697651438
 20
67.38068857240866
 30
0.0
 11
224.3548697651437
 21
63.63068857240866
 31
0.0
  0
MTEXT
  5
3BD5
330
1AD0
100
AcDbEntity
  8
SUNPOU
 62
     6
100
AcDbMText
 10
218.6412922210112
 20
68.69857314951946
 30
0.0
 40
3.75
 41
0.0
 71
     5
 72
     1
  1
\A1;3
  7
SUNPOU
 11
0.0000000000000001
 21
1.0
 31
0.0
1001
ACAD
1000
MTEXTBEGIN
1070
    73
1070
     1
1070
    44
1040
1.0
1070
    74
1070
     0
1000
MTEXTEND
1000
MTEXTBEGIN
1070
    73
1070
     1
1070
    44
1040
1.0
1070
    74
1070
     0
1000
MTEXTEND
  0
LINE
  5
3BD6
330
1AD0
100
AcDbEntity
  8
SUNPOU
100
AcDbLine
 10
224.3548697651438
 20
74.13068857240865
 30
0.0
 11
224.3548697651438
 21
71.13068857240866
 31
0.0
  0
INSERT
  5
3BD7
330
1AD0
100
AcDbEntity
  8
SUNPOU
100
AcDbBlockReference
  2
_OPEN30
 10
224.3548697651438
 20
74.13068857240865
 30
0.0
 41
3.75
 42
3.75
 43
3.75
 50
270.0
  0
INSERT
  5
3BD8
330
1AD0
100
AcDbEntity
  8
SUNPOU
100
AcDbBlockReference
  2
_OPEN30
 10
224.3548697651438
 20
71.13068857240866
 30
0.0
 41
3.75
 42
3.75
 43
3.75
 50
90.0
  0
POINT
  5
3BD9
330
1AD0
100
AcDbEntity
  8
DEFPOINTS
 62
     0
100
AcDbPoint
 10
172.753951371841
 20
74.13068857240867
 30
0.0
  0
POINT
  5
3BDA
330
1AD0
100
AcDbEntity
  8
DEFPOINTS
 62
     0
100
AcDbPoint
 10
172.753951371841
 20
71.13068857240867
 30
0.0
  0
POINT
  5
3BDB
330
1AD0
100
AcDbEntity
  8
DEFPOINTS
 62
     0
100
AcDbPoint
 10
224.3548697651438
 20
71.13068857240866
 30
0.0
  0
ENDBLK
  5
1ADD
330
1AD0
100
AcDbEntity
  8
0
100
AcDbBlockEnd
  0
BLOCK
  5
1AEA
330
1ADE
100
AcDbEntity
  8
0
100
AcDbBlockBegin
  2
*D27
 70
     1
 10
0.0
 20
0.0
 30
0.0
  3
*D27
  1

  0
LINE
  5
3BC6
330
1ADE
100
AcDbEntity
  8
SUNPOU
100
AcDbLine
 10
175.5039513718408
 20
81.13068857240866
 30
0.0
 11
265.4737335755344
 21
81.13068857240866
 31
0.0
  0
LINE
  5
3BC7
330
1ADE
100
AcDbEntity
  8
SUNPOU
100
AcDbLine
 10
272.8758516941821
 20
71.13068857240866
 30
0.0
 11
262.4737335755344
 21
71.13068857240866
 31
0.0
  0
LINE
  5
3BC8
330
1ADE
100
AcDbEntity
  8
SUNPOU
100
AcDbLine
 10
263.9737335755344
 20
84.88068857240866
 30
0.0
 11
263.9737335755344
 21
88.63068857240866
 31
0.0
  0
LINE
  5
3BC9
330
1ADE
100
AcDbEntity
  8
SUNPOU
100
AcDbLine
 10
263.9737335755344
 20
67.38068857240865
 30
0.0
 11
263.9737335755344
 21
63.63068857240865
 31
0.0
  0
MTEXT
  5
3BCA
330
1ADE
100
AcDbEntity
  8
SUNPOU
 62
     6
100
AcDbMText
 10
259.9490317173124
 20
76.04581343565723
 30
0.0
 40
3.75
 41
0.0
 71
     5
 72
     1
  1
\A1;10
  7
SUNPOU
 11
0.0000000000000001
 21
1.0
 31
0.0
1001
ACAD
1000
MTEXTBEGIN
1070
    73
1070
     1
1070
    44
1040
1.0
1070
    74
1070
     0
1000
MTEXTEND
1000
MTEXTBEGIN
1070
    73
1070
     1
1070
    44
1040
1.0
1070
    74
1070
     0
1000
MTEXTEND
  0
LINE
  5
3BCB
330
1ADE
100
AcDbEntity
  8
SUNPOU
100
AcDbLine
 10
263.9737335755344
 20
81.13068857240866
 30
0.0
 11
263.9737335755344
 21
71.13068857240866
 31
0.0
  0
INSERT
  5
3BCC
330
1ADE
100
AcDbEntity
  8
SUNPOU
100
AcDbBlockReference
  2
_OPEN30
 10
263.9737335755344
 20
81.13068857240866
 30
0.0
 41
3.75
 42
3.75
 43
3.75
 50
270.0
  0
INSERT
  5
3BCD
330
1ADE
100
AcDbEntity
  8
SUNPOU
100
AcDbBlockReference
  2
_OPEN30
 10
263.9737335755344
 20
71.13068857240866
 30
0.0
 41
3.75
 42
3.75
 43
3.75
 50
90.0
  0
POINT
  5
3BCE
330
1ADE
100
AcDbEntity
  8
DEFPOINTS
 62
     0
100
AcDbPoint
 10
173.2539513718408
 20
81.13068857240866
 30
0.0
  0
POINT
  5
3BCF
330
1ADE
100
AcDbEntity
  8
DEFPOINTS
 62
     0
100
AcDbPoint
 10
275.1258516941821
 20
71.13068857240866
 30
0.0
  0
POINT
  5
3BD0
330
1ADE
100
AcDbEntity
  8
DEFPOINTS
 62
     0
100
AcDbPoint
 10
263.9737335755344
 20
71.13068857240866
 30
0.0
  0
ENDBLK
  5
1AEB
330
1ADE
100
AcDbEntity
  8
0
100
AcDbBlockEnd
  0
BLOCK
  5
1AF6
330
1AEC
100
AcDbEntity
  8
0
100
AcDbBlockBegin
  2
*D28
 70
     1
 10
0.0
 20
0.0
 30
0.0
  3
*D28
  1

  0
LINE
  5
3BA2
330
1AEC
100
AcDbEntity
  8
SUNPOU
100
AcDbLine
 10
175.0039513718408
 20
74.13068857240867
 30
0.0
 11
237.0728699168705
 21
74.13068857240865
 31
0.0
  0
LINE
  5
3BA3
330
1AEC
100
AcDbEntity
  8
SUNPOU
100
AcDbLine
 10
175.0039513718408
 20
49.13068857240862
 30
0.0
 11
237.0728699168705
 21
49.13068857240858
 31
0.0
  0
LINE
  5
3BA4
330
1AEC
100
AcDbEntity
  8
SUNPOU
100
AcDbLine
 10
235.5728699168706
 20
70.38068857240865
 30
0.0
 11
235.5728699168706
 21
52.88068857240858
 31
0.0
  0
INSERT
  5
3BA5
330
1AEC
100
AcDbEntity
  8
SUNPOU
100
AcDbBlockReference
  2
_OPEN30
 10
235.5728699168706
 20
74.13068857240865
 30
0.0
 41
3.75
 42
3.75
 43
3.75
 50
90.0
  0
INSERT
  5
3BA6
330
1AEC
100
AcDbEntity
  8
SUNPOU
100
AcDbBlockReference
  2
_OPEN30
 10
235.5728699168706
 20
49.13068857240858
 30
0.0
 41
3.75
 42
3.75
 43
3.75
 50
270.0
  0
MTEXT
  5
3BA7
330
1AEC
100
AcDbEntity
  8
SUNPOU
 62
     6
100
AcDbMText
 10
232.1978699168706
 20
61.63068857240865
 30
0.0
 40
3.75
 41
0.0
 71
     5
 72
     1
  1
\A1;25
  7
SUNPOU
 11
0.0000000000000001
 21
1.0
 31
0.0
1001
ACAD
1000
MTEXTBEGIN
1070
    73
1070
     1
1070
    44
1040
1.0
1070
    74
1070
     0
1000
MTEXTEND
1000
MTEXTBEGIN
1070
    73
1070
     1
1070
    44
1040
1.0
1070
    74
1070
     0
1000
MTEXTEND
  0
POINT
  5
3BA8
330
1AEC
100
AcDbEntity
  8
DEFPOINTS
 62
     0
100
AcDbPoint
 10
172.753951371841
 20
74.13068857240867
 30
0.0
  0
POINT
  5
3BA9
330
1AEC
100
AcDbEntity
  8
DEFPOINTS
 62
     0
100
AcDbPoint
 10
172.753951371841
 20
49.13068857240862
 30
0.0
  0
POINT
  5
3BAA
330
1AEC
100
AcDbEntity
  8
DEFPOINTS
 62
     0
100
AcDbPoint
 10
235.5728699168706
 20
49.13068857240858
 30
0.0
  0
ENDBLK
  5
1AF7
330
1AEC
100
AcDbEntity
  8
0
100
AcDbBlockEnd
  0
BLOCK
  5
1B02
330
1AF8
100
AcDbEntity
  8
0
100
AcDbBlockBegin
  2
*D29
 70
     1
 10
0.0
 20
0.0
 30
0.0
  3
*D29
  1

  0
LINE
  5
3BBD
330
1AF8
100
AcDbEntity
  8
SUNPOU
100
AcDbLine
 10
246.503951371841
 20
139.3018236802265
 30
0.0
 11
276.6258516941823
 21
139.3018236802265
 31
0.0
  0
LINE
  5
3BBE
330
1AF8
100
AcDbEntity
  8
SUNPOU
100
AcDbLine
 10
235.4670237499797
 20
71.13068857240866
 30
0.0
 11
276.6258516941821
 21
71.13068857240866
 31
0.0
  0
LINE
  5
3BBF
330
1AF8
100
AcDbEntity
  8
SUNPOU
100
AcDbLine
 10
275.1258516941823
 20
135.5518236802266
 30
0.0
 11
275.1258516941821
 21
74.88068857240866
 31
0.0
  0
MTEXT
  5
3BC0
330
1AF8
100
AcDbEntity
  8
SUNPOU
 62
     6
100
AcDbMText
 10
271.4055570591107
 20
106.5958974761805
 30
0.0
 40
3.75
 41
0.0
 71
     5
 72
     1
  1
\A1;H
  7
SUNPOU
 11
0.0000000000000001
 21
1.0
 31
0.0
1001
ACAD
1000
MTEXTBEGIN
1070
    73
1070
     1
1070
    44
1040
1.0
1070
    74
1070
     0
1000
MTEXTEND
1000
MTEXTBEGIN
1070
    73
1070
     1
1070
    44
1040
1.0
1070
    74
1070
     0
1000
MTEXTEND
  0
INSERT
  5
3BC1
330
1AF8
100
AcDbEntity
  8
SUNPOU
100
AcDbBlockReference
  2
_OPEN30
 10
275.1258516941823
 20
139.3018236802265
 30
0.0
 41
3.75
 42
3.75
 43
3.75
 50
90.0
  0
INSERT
  5
3BC2
330
1AF8
100
AcDbEntity
  8
SUNPOU
100
AcDbBlockReference
  2
_OPEN30
 10
275.1258516941821
 20
71.13068857240866
 30
0.0
 41
3.75
 42
3.75
 43
3.75
 50
270.0
  0
POINT
  5
3BC3
330
1AF8
100
AcDbEntity
  8
DEFPOINTS
 62
     0
100
AcDbPoint
 10
244.253951371841
 20
139.3018236802265
 30
0.0
  0
POINT
  5
3BC4
330
1AF8
100
AcDbEntity
  8
DEFPOINTS
 62
     0
100
AcDbPoint
 10
233.2170237499797
 20
71.13068857240866
 30
0.0
  0
POINT
  5
3BC5
330
1AF8
100
AcDbEntity
  8
DEFPOINTS
 62
     0
100
AcDbPoint
 10
275.1258516941821
 20
71.13068857240866
 30
0.0
  0
ENDBLK
  5
1B03
330
1AF8
100
AcDbEntity
  8
0
100
AcDbBlockEnd
  0
BLOCK
  5
1B0E
330
1B04
100
AcDbEntity
  8
0
100
AcDbBlockBegin
  2
*D30
 70
     1
 10
0.0
 20
0.0
 30
0.0
  3
*D30
  1

  0
LINE
  5
3BB4
330
1B04
100
AcDbEntity
  8
SUNPOU
100
AcDbLine
 10
175.503951371841
 20
136.3018236802265
 30
0.0
 11
265.4737335755344
 21
136.3018236802265
 31
0.0
  0
LINE
  5
3BB5
330
1B04
100
AcDbEntity
  8
SUNPOU
100
AcDbLine
 10
175.5039513718408
 20
81.13068857240866
 30
0.0
 11
265.4737335755344
 21
81.13068857240863
 31
0.0
  0
LINE
  5
3BB6
330
1B04
100
AcDbEntity
  8
SUNPOU
100
AcDbLine
 10
263.9737335755345
 20
132.5518236802265
 30
0.0
 11
263.9737335755344
 21
84.88068857240863
 31
0.0
  0
MTEXT
  5
3BB7
330
1B04
100
AcDbEntity
  8
SUNPOU
 62
     6
100
AcDbMText
 10
259.715225525645
 20
105.6611160527631
 30
0.0
 40
3.75
 41
0.0
 71
     5
 72
     1
  1
\A1;DH
  7
SUNPOU
 11
0.0000000000000001
 21
1.0
 31
0.0
1001
ACAD
1000
MTEXTBEGIN
1070
    73
1070
     1
1070
    44
1040
1.0
1070
    74
1070
     0
1000
MTEXTEND
1000
MTEXTBEGIN
1070
    73
1070
     1
1070
    44
1040
1.0
1070
    74
1070
     0
1000
MTEXTEND
  0
INSERT
  5
3BB8
330
1B04
100
AcDbEntity
  8
SUNPOU
100
AcDbBlockReference
  2
_OPEN30
 10
263.9737335755345
 20
136.3018236802265
 30
0.0
 41
3.75
 42
3.75
 43
3.75
 50
90.0
  0
INSERT
  5
3BB9
330
1B04
100
AcDbEntity
  8
SUNPOU
100
AcDbBlockReference
  2
_OPEN30
 10
263.9737335755344
 20
81.13068857240863
 30
0.0
 41
3.75
 42
3.75
 43
3.75
 50
270.0
  0
POINT
  5
3BBA
330
1B04
100
AcDbEntity
  8
DEFPOINTS
 62
     0
100
AcDbPoint
 10
173.253951371841
 20
136.3018236802265
 30
0.0
  0
POINT
  5
3BBB
330
1B04
100
AcDbEntity
  8
DEFPOINTS
 62
     0
100
AcDbPoint
 10
173.2539513718408
 20
81.13068857240866
 30
0.0
  0
POINT
  5
3BBC
330
1B04
100
AcDbEntity
  8
DEFPOINTS
 62
     0
100
AcDbPoint
 10
263.9737335755344
 20
81.13068857240863
 30
0.0
  0
ENDBLK
  5
1B0F
330
1B04
100
AcDbEntity
  8
0
100
AcDbBlockEnd
  0
BLOCK
  5
2F1E
330
2F14
100
AcDbEntity
  8
0
100
AcDbBlockBegin
  2
*D31
 70
     1
 10
0.0
 20
0.0
 30
0.0
  3
*D31
  1

  0
LINE
  5
3B59
330
2F14
100
AcDbEntity
  8
SUNPOU
  6
CONTINUOUS
100
AcDbLine
 10
64.25395137184094
 20
137.0518236802265
 30
0.0
 11
64.25395137184094
 21
129.5413344767969
 31
0.0
  0
LINE
  5
3B5A
330
2F14
100
AcDbEntity
  8
SUNPOU
  6
CONTINUOUS
100
AcDbLine
 10
96.25395137184096
 20
137.2115775845297
 30
0.0
 11
96.25395137184096
 21
129.5413344767969
 31
0.0
  0
LINE
  5
3B5B
330
2F14
100
AcDbEntity
  8
SUNPOU
  6
CONTINUOUS
100
AcDbLine
 10
68.00395137184094
 20
131.0413344767969
 30
0.0
 11
92.50395137184096
 21
131.0413344767969
 31
0.0
  0
INSERT
  5
3B5C
330
2F14
100
AcDbEntity
  8
SUNPOU
  6
CONTINUOUS
100
AcDbBlockReference
  2
_OPEN30
 10
64.25395137184094
 20
131.0413344767969
 30
0.0
 41
3.75
 42
3.75
 43
3.75
 50
180.0
  0
INSERT
  5
3B5D
330
2F14
100
AcDbEntity
  8
SUNPOU
  6
CONTINUOUS
100
AcDbBlockReference
  2
_OPEN30
 10
96.25395137184096
 20
131.0413344767969
 30
0.0
 41
3.75
 42
3.75
 43
3.75
  0
MTEXT
  5
3B5E
330
2F14
100
AcDbEntity
  8
SUNPOU
  6
CONTINUOUS
 62
     6
100
AcDbMText
 10
80.25395137184094
 20
134.4163344767969
 30
0.0
 40
3.75
 41
0.0
 71
     5
 72
     1
  1
\A1;32
  7
SUNPOU
1001
ACAD
1000
MTEXTBEGIN
1070
    73
1070
     1
1070
    44
1040
1.0
1070
    74
1070
     0
1000
MTEXTEND
1000
MTEXTBEGIN
1070
    73
1070
     1
1070
    44
1040
1.0
1070
    74
1070
     0
1000
MTEXTEND
  0
POINT
  5
3B5F
330
2F14
100
AcDbEntity
  8
DEFPOINTS
  6
CONTINUOUS
 62
     0
100
AcDbPoint
 10
64.25395137184094
 20
139.3018236802265
 30
0.0
  0
POINT
  5
3B60
330
2F14
100
AcDbEntity
  8
DEFPOINTS
  6
CONTINUOUS
 62
     0
100
AcDbPoint
 10
96.25395137184096
 20
139.4615775845298
 30
0.0
  0
POINT
  5
3B61
330
2F14
100
AcDbEntity
  8
DEFPOINTS
  6
CONTINUOUS
 62
     0
100
AcDbPoint
 10
96.25395137184096
 20
131.0413344767969
 30
0.0
  0
ENDBLK
  5
2F1F
330
2F14
100
AcDbEntity
  8
0
100
AcDbBlockEnd
  0
BLOCK
  5
2F2B
330
2F21
100
AcDbEntity
  8
0
100
AcDbBlockBegin
  2
*D32
 70
     1
 10
0.0
 20
0.0
 30
0.0
  3
*D32
  1

  0
LINE
  5
3B50
330
2F21
100
AcDbEntity
  8
SUNPOU
  6
CONTINUOUS
100
AcDbLine
 10
96.25395137184096
 20
137.2115775845297
 30
0.0
 11
96.25395137184096
 21
129.5413344767969
 31
0.0
  0
LINE
  5
3B51
330
2F21
100
AcDbEntity
  8
SUNPOU
  6
CONTINUOUS
100
AcDbLine
 10
114.2539513718409
 20
137.0518236802265
 30
0.0
 11
114.2539513718409
 21
129.5413344767969
 31
0.0
  0
LINE
  5
3B52
330
2F21
100
AcDbEntity
  8
SUNPOU
  6
CONTINUOUS
100
AcDbLine
 10
100.0039513718409
 20
131.0413344767969
 30
0.0
 11
110.5039513718409
 21
131.0413344767969
 31
0.0
  0
INSERT
  5
3B53
330
2F21
100
AcDbEntity
  8
SUNPOU
  6
CONTINUOUS
100
AcDbBlockReference
  2
_OPEN30
 10
96.25395137184096
 20
131.0413344767969
 30
0.0
 41
3.75
 42
3.75
 43
3.75
 50
180.0
  0
INSERT
  5
3B54
330
2F21
100
AcDbEntity
  8
SUNPOU
  6
CONTINUOUS
100
AcDbBlockReference
  2
_OPEN30
 10
114.2539513718409
 20
131.0413344767969
 30
0.0
 41
3.75
 42
3.75
 43
3.75
  0
MTEXT
  5
3B55
330
2F21
100
AcDbEntity
  8
SUNPOU
  6
CONTINUOUS
 62
     6
100
AcDbMText
 10
105.2539513718409
 20
134.4163344767969
 30
0.0
 40
3.75
 41
0.0
 71
     5
 72
     1
  1
\A1;18
  7
SUNPOU
1001
ACAD
1000
MTEXTBEGIN
1070
    73
1070
     1
1070
    44
1040
1.0
1070
    74
1070
     0
1000
MTEXTEND
1000
MTEXTBEGIN
1070
    73
1070
     1
1070
    44
1040
1.0
1070
    74
1070
     0
1000
MTEXTEND
  0
POINT
  5
3B56
330
2F21
100
AcDbEntity
  8
DEFPOINTS
  6
CONTINUOUS
 62
     0
100
AcDbPoint
 10
96.25395137184096
 20
139.4615775845298
 30
0.0
  0
POINT
  5
3B57
330
2F21
100
AcDbEntity
  8
DEFPOINTS
  6
CONTINUOUS
 62
     0
100
AcDbPoint
 10
114.2539513718409
 20
139.3018236802265
 30
0.0
  0
POINT
  5
3B58
330
2F21
100
AcDbEntity
  8
DEFPOINTS
  6
CONTINUOUS
 62
     0
100
AcDbPoint
 10
114.2539513718409
 20
131.0413344767969
 30
0.0
  0
ENDBLK
  5
2F2C
330
2F21
100
AcDbEntity
  8
0
100
AcDbBlockEnd
  0
BLOCK
  5
2F38
330
2F2E
100
AcDbEntity
  8
0
100
AcDbBlockBegin
  2
*D33
 70
     1
 10
0.0
 20
0.0
 30
0.0
  3
*D33
  1

  0
LINE
  5
3B62
330
2F2E
100
AcDbEntity
  8
SUNPOU
  6
CONTINUOUS
100
AcDbLine
 10
114.2539513718409
 20
137.0518236802265
 30
0.0
 11
114.2539513718409
 21
129.5413344767969
 31
0.0
  0
LINE
  5
3B63
330
2F2E
100
AcDbEntity
  8
SUNPOU
  6
CONTINUOUS
100
AcDbLine
 10
139.253951371841
 20
137.0518236802269
 30
0.0
 11
139.253951371841
 21
129.5413344767969
 31
0.0
  0
LINE
  5
3B64
330
2F2E
100
AcDbEntity
  8
SUNPOU
  6
CONTINUOUS
100
AcDbLine
 10
118.0039513718409
 20
131.0413344767969
 30
0.0
 11
135.5039513718409
 21
131.0413344767969
 31
0.0
  0
INSERT
  5
3B65
330
2F2E
100
AcDbEntity
  8
SUNPOU
  6
CONTINUOUS
100
AcDbBlockReference
  2
_OPEN30
 10
114.2539513718409
 20
131.0413344767969
 30
0.0
 41
3.75
 42
3.75
 43
3.75
 50
180.0
  0
INSERT
  5
3B66
330
2F2E
100
AcDbEntity
  8
SUNPOU
  6
CONTINUOUS
100
AcDbBlockReference
  2
_OPEN30
 10
139.253951371841
 20
131.0413344767969
 30
0.0
 41
3.75
 42
3.75
 43
3.75
  0
MTEXT
  5
3B67
330
2F2E
100
AcDbEntity
  8
SUNPOU
  6
CONTINUOUS
 62
     6
100
AcDbMText
 10
126.753951371841
 20
134.4163344767969
 30
0.0
 40
3.75
 41
0.0
 71
     5
 72
     1
  1
\A1;25
  7
SUNPOU
1001
ACAD
1000
MTEXTBEGIN
1070
    73
1070
     1
1070
    44
1040
1.0
1070
    74
1070
     0
1000
MTEXTEND
1000
MTEXTBEGIN
1070
    73
1070
     1
1070
    44
1040
1.0
1070
    74
1070
     0
1000
MTEXTEND
  0
POINT
  5
3B68
330
2F2E
100
AcDbEntity
  8
DEFPOINTS
  6
CONTINUOUS
 62
     0
100
AcDbPoint
 10
114.2539513718409
 20
139.3018236802265
 30
0.0
  0
POINT
  5
3B69
330
2F2E
100
AcDbEntity
  8
DEFPOINTS
  6
CONTINUOUS
 62
     0
100
AcDbPoint
 10
139.253951371841
 20
139.3018236802268
 30
0.0
  0
POINT
  5
3B6A
330
2F2E
100
AcDbEntity
  8
DEFPOINTS
  6
CONTINUOUS
 62
     0
100
AcDbPoint
 10
139.253951371841
 20
131.0413344767969
 30
0.0
  0
ENDBLK
  5
2F39
330
2F2E
100
AcDbEntity
  8
0
100
AcDbBlockEnd
  0
BLOCK
  5
30E4
330
30DA
100
AcDbEntity
  8
0
100
AcDbBlockBegin
  2
*D34
 70
     1
 10
0.0
 20
0.0
 30
0.0
  3
*D34
  1

  0
LINE
  5
3BF9
330
30DA
100
AcDbEntity
  8
SUNPOU
  6
CONTINUOUS
100
AcDbLine
 10
246.503951371841
 20
139.3018236802267
 30
0.0
 11
265.4737335755344
 21
139.3018236802267
 31
0.0
  0
LINE
  5
3BFA
330
30DA
100
AcDbEntity
  8
SUNPOU
  6
CONTINUOUS
100
AcDbLine
 10
246.503951371841
 20
151.3018236802265
 30
0.0
 11
265.4737335755344
 21
151.3018236802265
 31
0.0
  0
LINE
  5
3BFB
330
30DA
100
AcDbEntity
  8
SUNPOU
  6
CONTINUOUS
100
AcDbLine
 10
263.9737335755345
 20
143.0518236802266
 30
0.0
 11
263.9737335755345
 21
147.5518236802265
 31
0.0
  0
INSERT
  5
3BFC
330
30DA
100
AcDbEntity
  8
SUNPOU
  6
CONTINUOUS
100
AcDbBlockReference
  2
_OPEN30
 10
263.9737335755345
 20
139.3018236802267
 30
0.0
 41
3.75
 42
3.75
 43
3.75
 50
270.0
  0
INSERT
  5
3BFD
330
30DA
100
AcDbEntity
  8
SUNPOU
  6
CONTINUOUS
100
AcDbBlockReference
  2
_OPEN30
 10
263.9737335755345
 20
151.3018236802265
 30
0.0
 41
3.75
 42
3.75
 43
3.75
 50
90.0
  0
MTEXT
  5
3BFE
330
30DA
100
AcDbEntity
  8
SUNPOU
  6
CONTINUOUS
 62
     6
100
AcDbMText
 10
260.5987335755344
 20
145.3018236802266
 30
0.0
 40
3.75
 41
0.0
 71
     5
 72
     1
  1
\A1;12
  7
SUNPOU
 11
0.0000000000000001
 21
1.0
 31
0.0
1001
ACAD
1000
MTEXTBEGIN
1070
    73
1070
     1
1070
    44
1040
1.0
1070
    74
1070
     0
1000
MTEXTEND
1000
MTEXTBEGIN
1070
    73
1070
     1
1070
    44
1040
1.0
1070
    74
1070
     0
1000
MTEXTEND
  0
POINT
  5
3BFF
330
30DA
100
AcDbEntity
  8
DEFPOINTS
  6
CONTINUOUS
 62
     0
100
AcDbPoint
 10
244.253951371841
 20
139.3018236802267
 30
0.0
  0
POINT
  5
3C00
330
30DA
100
AcDbEntity
  8
DEFPOINTS
  6
CONTINUOUS
 62
     0
100
AcDbPoint
 10
244.253951371841
 20
151.3018236802265
 30
0.0
  0
POINT
  5
3C01
330
30DA
100
AcDbEntity
  8
DEFPOINTS
  6
CONTINUOUS
 62
     0
100
AcDbPoint
 10
263.9737335755345
 20
151.3018236802265
 30
0.0
  0
ENDBLK
  5
30E5
330
30DA
100
AcDbEntity
  8
0
100
AcDbBlockEnd
  0
BLOCK
  5
30F3
330
30E7
100
AcDbEntity
  8
0
100
AcDbBlockBegin
  2
*D35
 70
     1
 10
0.0
 20
0.0
 30
0.0
  3
*D35
  1

  0
LINE
  5
3C02
330
30E7
100
AcDbEntity
  8
SUNPOU
  6
CONTINUOUS
100
AcDbLine
 10
246.503951371841
 20
151.3018236802265
 30
0.0
 11
265.4737335755344
 21
151.3018236802265
 31
0.0
  0
LINE
  5
3C03
330
30E7
100
AcDbEntity
  8
SUNPOU
  6
CONTINUOUS
100
AcDbLine
 10
243.803951371841
 20
152.3018236802266
 30
0.0
 11
265.4737335755344
 21
152.3018236802266
 31
0.0
  0
LINE
  5
3C04
330
30E7
100
AcDbEntity
  8
SUNPOU
  6
CONTINUOUS
100
AcDbLine
 10
263.9737335755345
 20
147.5518236802265
 30
0.0
 11
263.9737335755345
 21
143.8018236802266
 31
0.0
  0
LINE
  5
3C05
330
30E7
100
AcDbEntity
  8
SUNPOU
  6
CONTINUOUS
100
AcDbLine
 10
263.9737335755345
 20
156.0518236802265
 30
0.0
 11
263.9737335755345
 21
159.8018236802265
 31
0.0
  0
MTEXT
  5
3C06
330
30E7
100
AcDbEntity
  8
SUNPOU
  6
CONTINUOUS
 62
     6
100
AcDbMText
 10
259.9969643729691
 20
156.5596106473655
 30
0.0
 40
3.75
 41
0.0
 71
     5
 72
     1
  1
\A1;1
  7
SUNPOU
 11
0.0000000000000001
 21
1.0
 31
0.0
1001
ACAD
1000
MTEXTBEGIN
1070
    73
1070
     1
1070
    44
1040
1.0
1070
    74
1070
     0
1000
MTEXTEND
1000
MTEXTBEGIN
1070
    73
1070
     1
1070
    44
1040
1.0
1070
    74
1070
     0
1000
MTEXTEND
  0
LINE
  5
3C07
330
30E7
100
AcDbEntity
  8
SUNPOU
  6
CONTINUOUS
100
AcDbLine
 10
263.9737335755345
 20
151.3018236802265
 30
0.0
 11
263.9737335755345
 21
152.3018236802266
 31
0.0
  0
INSERT
  5
3C08
330
30E7
100
AcDbEntity
  8
SUNPOU
  6
CONTINUOUS
100
AcDbBlockReference
  2
_OPEN30
 10
263.9737335755345
 20
151.3018236802265
 30
0.0
 41
3.75
 42
3.75
 43
3.75
 50
90.0
  0
INSERT
  5
3C09
330
30E7
100
AcDbEntity
  8
SUNPOU
  6
CONTINUOUS
100
AcDbBlockReference
  2
_OPEN30
 10
263.9737335755345
 20
152.3018236802266
 30
0.0
 41
3.75
 42
3.75
 43
3.75
 50
270.0
  0
POINT
  5
3C0A
330
30E7
100
AcDbEntity
  8
DEFPOINTS
  6
CONTINUOUS
 62
     0
100
AcDbPoint
 10
244.253951371841
 20
151.3018236802265
 30
0.0
  0
POINT
  5
3C0B
330
30E7
100
AcDbEntity
  8
DEFPOINTS
  6
CONTINUOUS
 62
     0
100
AcDbPoint
 10
241.553951371841
 20
152.3018236802266
 30
0.0
  0
POINT
  5
3C0C
330
30E7
100
AcDbEntity
  8
DEFPOINTS
  6
CONTINUOUS
 62
     0
100
AcDbPoint
 10
263.9737335755345
 20
152.3018236802266
 30
0.0
  0
ENDBLK
  5
30F4
330
30E7
100
AcDbEntity
  8
0
100
AcDbBlockEnd
  0
BLOCK
  5
310D
330
3101
100
AcDbEntity
  8
0
100
AcDbBlockBegin
  2
*D36
 70
     1
 10
0.0
 20
0.0
 30
0.0
  3
*D36
  1

  0
LINE
  5
3C0D
330
3101
100
AcDbEntity
  8
SUNPOU
  6
CONTINUOUS
100
AcDbLine
 10
261.7237335755344
 20
136.3018236802265
 30
0.0
 11
262.4737335755344
 21
136.3018236802265
 31
0.0
  0
LINE
  5
3C0E
330
3101
100
AcDbEntity
  8
SUNPOU
  6
CONTINUOUS
100
AcDbLine
 10
261.7237335755344
 20
139.3018236802265
 30
0.0
 11
262.4737335755344
 21
139.3018236802265
 31
0.0
  0
LINE
  5
3C0F
330
3101
100
AcDbEntity
  8
SUNPOU
  6
CONTINUOUS
100
AcDbLine
 10
263.9737335755345
 20
132.5518236802265
 30
0.0
 11
263.9737335755345
 21
128.8018236802265
 31
0.0
  0
LINE
  5
3C10
330
3101
100
AcDbEntity
  8
SUNPOU
  6
CONTINUOUS
100
AcDbLine
 10
263.9737335755345
 20
143.0518236802265
 30
0.0
 11
263.9737335755345
 21
146.8018236802265
 31
0.0
  0
MTEXT
  5
3C11
330
3101
100
AcDbEntity
  8
SUNPOU
  6
CONTINUOUS
 62
     6
100
AcDbMText
 10
260.3882767577987
 20
137.8018236802267
 30
0.0
 40
3.75
 41
0.0
 71
     5
 72
     1
  1
\A1;3
  7
SUNPOU
 11
0.0000000000000001
 21
1.0
 31
0.0
1001
ACAD
1000
MTEXTBEGIN
1070
    73
1070
     1
1070
    44
1040
1.0
1070
    74
1070
     0
1000
MTEXTEND
1000
MTEXTBEGIN
1070
    73
1070
     1
1070
    44
1040
1.0
1070
    74
1070
     0
1000
MTEXTEND
  0
LINE
  5
3C12
330
3101
100
AcDbEntity
  8
SUNPOU
  6
CONTINUOUS
100
AcDbLine
 10
263.9737335755345
 20
136.3018236802265
 30
0.0
 11
263.9737335755345
 21
139.3018236802265
 31
0.0
  0
INSERT
  5
3C13
330
3101
100
AcDbEntity
  8
SUNPOU
  6
CONTINUOUS
100
AcDbBlockReference
  2
_OPEN30
 10
263.9737335755345
 20
136.3018236802265
 30
0.0
 41
3.75
 42
3.75
 43
3.75
 50
90.0
  0
INSERT
  5
3C14
330
3101
100
AcDbEntity
  8
SUNPOU
  6
CONTINUOUS
100
AcDbBlockReference
  2
_OPEN30
 10
263.9737335755345
 20
139.3018236802265
 30
0.0
 41
3.75
 42
3.75
 43
3.75
 50
270.0
  0
POINT
  5
3C15
330
3101
100
AcDbEntity
  8
DEFPOINTS
  6
CONTINUOUS
 62
     0
100
AcDbPoint
 10
263.9737335755345
 20
136.3018236802265
 30
0.0
  0
POINT
  5
3C16
330
3101
100
AcDbEntity
  8
DEFPOINTS
  6
CONTINUOUS
 62
     0
100
AcDbPoint
 10
263.9737335755345
 20
139.3018236802265
 30
0.0
  0
POINT
  5
3C17
330
3101
100
AcDbEntity
  8
DEFPOINTS
  6
CONTINUOUS
 62
     0
100
AcDbPoint
 10
263.9737335755345
 20
139.3018236802265
 30
0.0
  0
ENDBLK
  5
310E
330
3101
100
AcDbEntity
  8
0
100
AcDbBlockEnd
  0
BLOCK
  5
3180
330
3176
100
AcDbEntity
  8
0
100
AcDbBlockBegin
  2
*D37
 70
     1
 10
0.0
 20
0.0
 30
0.0
  3
*D37
  1

  0
LINE
  5
3B3E
330
3176
100
AcDbEntity
  8
SUNPOU
  6
CONTINUOUS
100
AcDbLine
 10
65.25395137184094
 20
108.9702294505505
 30
0.0
 11
65.25395137184094
 21
108.2202294505504
 31
0.0
  0
LINE
  5
3B3F
330
3176
100
AcDbEntity
  8
SUNPOU
  6
CONTINUOUS
100
AcDbLine
 10
139.253951371841
 20
108.9702294505505
 30
0.0
 11
139.253951371841
 21
108.2202294505504
 31
0.0
  0
LINE
  5
3B40
330
3176
100
AcDbEntity
  8
SUNPOU
  6
CONTINUOUS
100
AcDbLine
 10
69.00395137184094
 20
106.7202294505505
 30
0.0
 11
135.5039513718409
 21
106.7202294505505
 31
0.0
  0
MTEXT
  5
3B41
330
3176
100
AcDbEntity
  8
SUNPOU
  6
CONTINUOUS
 62
     6
100
AcDbMText
 10
91.93218097828504
 20
110.0952294505505
 30
0.0
 40
3.75
 41
0.0
 71
     5
 72
     1
  1
\A1;74
  7
SUNPOU
1001
ACAD
1000
MTEXTBEGIN
1070
    73
1070
     1
1070
    44
1040
1.0
1070
    74
1070
     0
1000
MTEXTEND
1000
MTEXTBEGIN
1070
    73
1070
     1
1070
    44
1040
1.0
1070
    74
1070
     0
1000
MTEXTEND
  0
INSERT
  5
3B42
330
3176
100
AcDbEntity
  8
SUNPOU
  6
CONTINUOUS
100
AcDbBlockReference
  2
_OPEN30
 10
65.25395137184094
 20
106.7202294505505
 30
0.0
 41
3.75
 42
3.75
 43
3.75
 50
180.0
  0
INSERT
  5
3B43
330
3176
100
AcDbEntity
  8
SUNPOU
  6
CONTINUOUS
100
AcDbBlockReference
  2
_OPEN30
 10
139.253951371841
 20
106.7202294505505
 30
0.0
 41
3.75
 42
3.75
 43
3.75
  0
POINT
  5
3B44
330
3176
100
AcDbEntity
  8
DEFPOINTS
  6
CONTINUOUS
 62
     0
100
AcDbPoint
 10
65.25395137184094
 20
106.7202294505505
 30
0.0
  0
POINT
  5
3B45
330
3176
100
AcDbEntity
  8
DEFPOINTS
  6
CONTINUOUS
 62
     0
100
AcDbPoint
 10
139.253951371841
 20
106.7202294505505
 30
0.0
  0
POINT
  5
3B46
330
3176
100
AcDbEntity
  8
DEFPOINTS
  6
CONTINUOUS
 62
     0
100
AcDbPoint
 10
139.253951371841
 20
106.7202294505505
 30
0.0
  0
ENDBLK
  5
3181
330
3176
100
AcDbEntity
  8
0
100
AcDbBlockEnd
  0
ENDSEC
  0
SECTION
  2
ENTITIES
  0
ARC
  5
38D
330
A
100
AcDbEntity
  8
02
100
AcDbCircle
 10
84.75395137184111
 20
374.8018236802266
 30
0.0
 40
6.5
100
AcDbArc
 50
90.0
 51
180.0
  0
ARC
  5
38E
330
A
100
AcDbEntity
  8
02
100
AcDbCircle
 10
117.7539513718409
 20
385.8018236802266
 30
0.0
 40
4.5
100
AcDbArc
 50
270.0
 51
0.0
  0
ARC
  5
38F
330
A
100
AcDbEntity
  8
02
100
AcDbCircle
 10
73.75395137184111
 20
341.8018236802266
 30
0.0
 40
4.5
100
AcDbArc
 50
270.0
 51
0.0
  0
ARC
  5
393
330
A
100
AcDbEntity
  8
02
100
AcDbCircle
 10
84.75395137184111
 20
163.8018236802265
 30
0.0
 40
6.5
100
AcDbArc
 50
180.0
 51
270.0
  0
ARC
  5
394
330
A
100
AcDbEntity
  8
02
100
AcDbCircle
 10
117.7539513718409
 20
152.8018236802265
 30
0.0
 40
4.5
100
AcDbArc
 50
0.0
 51
90.0
  0
ARC
  5
395
330
A
100
AcDbEntity
  8
02
100
AcDbCircle
 10
73.75395137184111
 20
196.8018236802265
 30
0.0
 40
4.5
100
AcDbArc
 50
0.0
 51
90.0
  0
ARC
  5
3C8
330
A
100
AcDbEntity
  8
02
100
AcDbCircle
 10
108.2539513718409
 20
223.3018236802265
 30
0.0
 40
6.0
100
AcDbArc
 50
0.0
 51
90.0
  0
ARC
  5
3CA
330
A
100
AcDbEntity
  8
02
100
AcDbCircle
 10
108.2539513718409
 20
163.3018236802265
 30
0.0
 40
6.0
100
AcDbArc
 50
270.0
 51
0.0
  0
ARC
  5
3D3
330
A
100
AcDbEntity
  8
04
100
AcDbCircle
 10
147.0107528341569
 20
215.3018236802267
 30
0.0
 40
15.0
100
AcDbArc
 50
215.3112134396333
 51
270.0
  0
ARC
  5
3DC
330
A
100
AcDbEntity
  8
04
100
AcDbCircle
 10
168.253951371841
 20
162.8018236802265
 30
0.0
 40
3.0
100
AcDbArc
 50
270.0
 51
0.0
  0
ARC
  5
3DD
330
A
100
AcDbEntity
  8
04
100
AcDbCircle
 10
168.253951371841
 20
162.8018236802265
 30
0.0
 40
7.5
100
AcDbArc
 50
336.4218215217981
 51
0.0
  0
ARC
  5
415
330
A
100
AcDbEntity
  8
04
100
AcDbCircle
 10
156.753951371841
 20
174.8018236802265
 30
0.0
 40
1.0
100
AcDbArc
 50
90.0
 51
180.0
  0
ARC
  5
416
330
A
100
AcDbEntity
  8
04
100
AcDbCircle
 10
162.753951371841
 20
174.8018236802265
 30
0.0
 40
1.0
100
AcDbArc
 50
0.0
 51
90.0
  0
ARC
  5
44A
330
A
100
AcDbEntity
  8
04
100
AcDbCircle
 10
168.7539513718409
 20
262.8015977627705
 30
0.0
 40
0.5
100
AcDbArc
 50
0.0
 51
90.00000000000019
  0
ARC
  5
44C
330
A
100
AcDbEntity
  8
04
100
AcDbCircle
 10
149.7539513718404
 20
262.8015977627705
 30
0.0
 40
0.5
100
AcDbArc
 50
90.00000000000019
 51
180.0000000000004
  0
ARC
  5
450
330
A
100
AcDbEntity
  8
04
100
AcDbCircle
 10
168.7539513718409
 20
203.8015977627705
 30
0.0
 40
0.5
100
AcDbArc
 50
270.0000000000006
 51
0.0
  0
ARC
  5
452
330
A
100
AcDbEntity
  8
04
100
AcDbCircle
 10
149.7539513718404
 20
203.8015977627705
 30
0.0
 40
0.5
100
AcDbArc
 50
180.0000000000004
 51
270.0000000000006
  0
ARC
  5
459
330
A
100
AcDbEntity
  8
04
100
AcDbCircle
 10
149.6219365200319
 20
237.6084497537723
 30
0.0
 40
2.367985148190983
100
AcDbArc
 50
142.443933555109
 51
180.0
  0
ARC
  5
472
330
A
100
AcDbEntity
  8
04
100
AcDbCircle
 10
159.2528251709445
 20
203.3018236802266
 30
0.0
 40
5.0
100
AcDbArc
 50
0.0000000000006514
 51
180.0
  0
ARC
  5
474
330
A
100
AcDbEntity
  8
04
100
AcDbCircle
 10
159.7528251709445
 20
202.8018236802267
 30
0.0
 40
0.5
100
AcDbArc
 50
90.0
 51
180.0
  0
ARC
  5
477
330
A
100
AcDbEntity
  8
04
100
AcDbCircle
 10
159.7528251709445
 20
181.8018236802265
 30
0.0
 40
0.5
100
AcDbArc
 50
180.0
 51
270.0
  0
ARC
  5
479
330
A
100
AcDbEntity
  8
04
100
AcDbCircle
 10
155.2528251709445
 20
177.3018236802266
 30
0.0
 40
1.0
100
AcDbArc
 50
180.0
 51
270.0
  0
ARC
  5
47B
330
A
100
AcDbEntity
  8
04
100
AcDbCircle
 10
152.9282158596831
 20
204.3015960162505
 30
0.0
 40
0.9999999999999715
100
AcDbArc
 50
270.0
 51
346.6596986608483
  0
ARC
  5
47C
330
A
100
AcDbEntity
  8
04
100
AcDbCircle
 10
165.577434482206
 20
204.3015960162509
 30
0.0
 40
1.0
100
AcDbArc
 50
193.3403013391565
 51
270.0
  0
ARC
  5
47D
330
A
100
AcDbEntity
  8
04
100
AcDbCircle
 10
159.2528251709445
 20
202.8018238301131
 30
0.0
 40
5.49999996541607
100
AcDbArc
 50
13.34029981986023
 51
166.6597001801418
  0
ARC
  5
47E
330
A
100
AcDbEntity
  8
04
100
AcDbCircle
 10
159.2528251709445
 20
263.80182353034
 30
0.0
 40
5.499999965416039
100
AcDbArc
 50
193.3402998198574
 51
346.65970018014
  0
ARC
  5
47F
330
A
100
AcDbEntity
  8
04
100
AcDbCircle
 10
152.9282158596831
 20
262.3020513442027
 30
0.0
 40
1.0
100
AcDbArc
 50
13.34030133915334
 51
89.99999999999998
  0
ARC
  5
480
330
A
100
AcDbEntity
  8
04
100
AcDbCircle
 10
165.577434482206
 20
262.3020513442024
 30
0.0
 40
1.0
100
AcDbArc
 50
89.99999999999998
 51
166.6596986608434
  0
ARC
  5
AE8
330
A
100
AcDbEntity
  8
KAKURE
100
AcDbCircle
 10
122.18596622365
 20
209.9951993532006
 30
0.0
 40
2.367985148190982
100
AcDbArc
 50
322.4439335551088
 51
0.0
  0
LINE
  5
C1B
330
A
100
AcDbEntity
  8
03
100
AcDbLine
 10
145.253951371841
 20
146.3018236802265
 30
0.0
 11
173.253951371841
 21
136.3018236802265
 31
0.0
  0
LINE
  5
C1C
330
A
100
AcDbEntity
  8
03
100
AcDbLine
 10
145.253951371841
 20
136.3018236802265
 30
0.0
 11
173.253951371841
 21
146.3018236802265
 31
0.0
  0
LINE
  5
C76
330
A
100
AcDbEntity
  8
KAKURE
100
AcDbLine
 10
151.0539513718409
 20
200.3018236802265
 30
0.0
 11
151.0539513718409
 21
179.3018236802265
 31
0.0
  0
LINE
  5
C77
330
A
100
AcDbEntity
  8
KAKURE
100
AcDbLine
 10
117.4539513718409
 20
224.3018236802265
 30
0.0
 11
117.4539513718409
 21
174.3018236802265
 31
0.0
  0
LINE
  5
C78
330
A
100
AcDbEntity
  8
CHUSIN
 48
0.3
100
AcDbLine
 10
185.6889513718413
 20
302.6607408973388
 30
0.0
 11
185.6889513718413
 21
287.4431348722755
 31
0.0
  0
LINE
  5
C95
330
A
100
AcDbEntity
  8
CHUSIN
100
AcDbLine
 10
159.2539513718409
 20
265.3026015060182
 30
0.0
 11
159.2539513718409
 21
133.1339315609243
 31
0.0
  0
LINE
  5
C96
330
A
100
AcDbEntity
  8
CHUSIN
 48
0.5
100
AcDbLine
 10
143.4171601176165
 20
233.3018254267464
 30
0.0
 11
194.461997199882
 21
233.3018254267464
 31
0.0
  0
LINE
  5
C9D
330
A
100
AcDbEntity
  8
CHUSIN
 48
0.3
100
AcDbLine
 10
148.5162809252932
 20
192.3018236802265
 30
0.0
 11
169.5599979151288
 21
192.3018236802265
 31
0.0
  0
LINE
  5
C9E
330
A
100
AcDbEntity
  8
CHUSIN
 48
0.3
100
AcDbLine
 10
105.6145575415434
 20
214.3018236802265
 30
0.0
 11
125.8477923138674
 21
214.3018236802265
 31
0.0
  0
LINE
  5
C9F
330
A
100
AcDbEntity
  8
CHUSIN
 48
0.3
100
AcDbLine
 10
226.8726155566331
 20
171.3018236802265
 30
0.0
 11
242.949471865321
 21
171.3018236802265
 31
0.0
  0
LINE
  5
CA0
330
A
100
AcDbEntity
  8
CHUSIN
 48
0.3
100
AcDbLine
 10
227.5971677542186
 20
367.2018236802266
 30
0.0
 11
242.5871957665282
 21
367.2018236802266
 31
0.0
  0
LINE
  5
CA3
330
A
100
AcDbEntity
  8
04
100
AcDbLine
 10
179.253951371841
 20
281.89130892509
 30
0.0
 11
179.253951371841
 21
279.3019247707576
 31
0.0
  0
LINE
  5
E1D
330
A
100
AcDbEntity
  8
04
100
AcDbLine
 10
184.5539513718408
 20
243.8018254267466
 30
0.0
 11
184.5539513718408
 21
242.3018254267466
 31
0.0
  0
LINE
  5
E1E
330
A
100
AcDbEntity
  8
04
100
AcDbLine
 10
184.5539513718408
 20
222.8018254267466
 30
0.0
 11
182.753951371841
 21
222.8018254267466
 31
0.0
  0
LINE
  5
E1F
330
A
100
AcDbEntity
  8
04
100
AcDbLine
 10
190.4167739443408
 20
222.3321754267467
 30
0.0
 11
191.5539513718409
 21
224.3018254267466
 31
0.0
  0
LINE
  5
E20
330
A
100
AcDbEntity
  8
04
100
AcDbLine
 10
185.6911287993409
 20
222.3321754267467
 30
0.0
 11
190.4167739443408
 21
222.3321754267467
 31
0.0
  0
LINE
  5
E21
330
A
100
AcDbEntity
  8
04
100
AcDbLine
 10
185.6911287993409
 20
222.3321754267467
 30
0.0
 11
184.5539513718408
 21
224.3018254267466
 31
0.0
  0
LINE
  5
E22
330
A
100
AcDbEntity
  8
04
100
AcDbLine
 10
184.5539513718408
 20
243.8018254267466
 30
0.0
 11
182.7539513718408
 21
243.8018254267466
 31
0.0
  0
LINE
  5
E23
330
A
100
AcDbEntity
  8
04
100
AcDbLine
 10
184.5539513718408
 20
242.3018254267466
 30
0.0
 11
184.5539513718408
 21
224.3018254267466
 31
0.0
  0
LINE
  5
E27
330
A
100
AcDbEntity
  8
04
100
AcDbLine
 10
191.5539513718409
 20
224.3018254267466
 30
0.0
 11
191.5539513718409
 21
242.3018254267466
 31
0.0
  0
LINE
  5
E28
330
A
100
AcDbEntity
  8
04
100
AcDbLine
 10
190.4167739443408
 20
244.2714754267466
 30
0.0
 11
191.5539513718409
 21
242.3018254267466
 31
0.0
  0
LINE
  5
E29
330
A
100
AcDbEntity
  8
04
100
AcDbLine
 10
185.6911287993409
 20
244.2714754267466
 30
0.0
 11
190.4167739443408
 21
244.2714754267466
 31
0.0
  0
LINE
  5
E2A
330
A
100
AcDbEntity
  8
04
100
AcDbLine
 10
185.6911287993409
 20
244.2714754267466
 30
0.0
 11
184.5539513718408
 21
242.3018254267466
 31
0.0
  0
LINE
  5
E2E
330
A
100
AcDbEntity
  8
04
100
AcDbLine
 10
185.6911287993413
 20
222.3321754267464
 30
0.0
 11
184.5539513718413
 21
224.3018254267465
 31
0.0
  0
LINE
  5
E2F
330
A
100
AcDbEntity
  8
04
100
AcDbLine
 10
180.2539513718409
 20
245.3018254267465
 30
0.0
 11
180.2539513718414
 21
221.3018254267466
 31
0.0
  0
LINE
  5
E30
330
A
100
AcDbEntity
  8
04
100
AcDbLine
 10
182.7539513718408
 20
245.3018254267465
 30
0.0
 11
180.2539513718407
 21
245.3018254267465
 31
0.0
  0
LINE
  5
E31
330
A
100
AcDbEntity
  8
04
100
AcDbLine
 10
180.2539513718414
 20
221.3018254267466
 30
0.0
 11
182.753951371841
 21
221.3018254267461
 31
0.0
  0
LINE
  5
E53
330
A
100
AcDbEntity
  8
04
100
AcDbLine
 10
164.2528251709445
 20
181.3018236802266
 30
0.0
 11
164.2528251709445
 21
176.3018236802265
 31
0.0
  0
LINE
  5
E54
330
A
100
AcDbEntity
  8
04
100
AcDbLine
 10
155.2528251709445
 20
176.3018236802265
 30
0.0
 11
164.2528251709445
 21
176.3018236802265
 31
0.0
  0
LINE
  5
E55
330
A
100
AcDbEntity
  8
04
100
AcDbLine
 10
159.7528251709445
 20
181.3018236802266
 30
0.0
 11
164.2528251709445
 21
181.3018236802266
 31
0.0
  0
LINE
  5
E56
330
A
100
AcDbEntity
  8
04
100
AcDbLine
 10
159.2528251709445
 20
181.8018236802265
 30
0.0
 11
159.2528251709445
 21
202.8018236802267
 31
0.0
  0
LINE
  5
E57
330
A
100
AcDbEntity
  8
04
100
AcDbLine
 10
159.7528251709445
 20
203.3018236802266
 30
0.0
 11
164.2528251709445
 21
203.3018236802266
 31
0.0
  0
LINE
  5
E58
330
A
100
AcDbEntity
  8
04
100
AcDbLine
 10
154.2528251709445
 20
203.3018236802266
 30
0.0
 11
154.2528251709445
 21
177.3018236802266
 31
0.0
  0
LINE
  5
E5E
330
A
100
AcDbEntity
  8
04
100
AcDbLine
 10
167.9549390492532
 20
186.0018296066033
 30
0.0
 11
167.9549695663689
 21
198.6018359644992
 31
0.0
  0
LINE
  5
E5F
330
A
100
AcDbEntity
  8
04
100
AcDbLine
 10
167.2588807128096
 20
184.7962768356079
 30
0.0
 11
167.9549085316424
 21
186.0018408537077
 31
0.0
  0
LINE
  5
E60
330
A
100
AcDbEntity
  8
04
100
AcDbLine
 10
160.8538991328716
 20
184.7962043506381
 30
0.0
 11
167.2589482608819
 21
184.7963243983293
 31
0.0
  0
LINE
  5
E61
330
A
100
AcDbEntity
  8
04
100
AcDbLine
 10
159.2553984058065
 20
183.3018325739072
 30
0.0
 11
160.8538824451278
 21
183.3018190813021
 31
0.0
  0
LINE
  5
E63
330
A
100
AcDbEntity
  8
04
100
AcDbLine
 10
167.2590135943921
 20
199.8074373791838
 30
0.0
 11
167.9548340819709
 21
198.6018491758951
 31
0.0
  0
LINE
  5
E64
330
A
100
AcDbEntity
  8
04
100
AcDbLine
 10
160.854030766142
 20
199.8073921796592
 30
0.0
 11
167.2589014613714
 21
199.80738153393
 31
0.0
  0
LINE
  5
E66
330
A
100
AcDbEntity
  8
04
100
AcDbLine
 10
160.8539613302454
 20
201.3018329944549
 30
0.0
 11
159.2553533132766
 21
201.3018271066923
 31
0.0
  0
LINE
  5
E6B
330
A
100
AcDbEntity
  8
04
100
AcDbLine
 10
149.2539513718404
 20
227.5518254267464
 30
0.0
 11
147.744699100652
 21
227.5518254267464
 31
0.0
  0
LINE
  5
E6C
330
A
100
AcDbEntity
  8
04
100
AcDbLine
 10
147.253951371841
 20
237.6084497537723
 30
0.0
 11
147.253951371841
 21
228.9952010997206
 31
0.0
  0
LINE
  5
E6E
330
A
100
AcDbEntity
  8
04
100
AcDbLine
 10
149.2539513718404
 20
239.0518254267465
 30
0.0
 11
147.744699100652
 21
239.0518254267465
 31
0.0
  0
LINE
  5
E6F
330
A
100
AcDbEntity
  8
04
100
AcDbLine
 10
149.253951371841
 20
227.5518254267464
 30
0.0
 11
149.2539513718404
 21
203.8015977627705
 31
0.0
  0
LINE
  5
E70
330
A
100
AcDbEntity
  8
04
100
AcDbLine
 10
152.9282158596831
 20
203.3015960162506
 30
0.0
 11
149.7539513718404
 21
203.3015977627705
 31
0.0
  0
LINE
  5
E71
330
A
100
AcDbEntity
  8
04
100
AcDbLine
 10
168.7539513718409
 20
203.3015977627705
 30
0.0
 11
165.577434482206
 21
203.3015960162509
 31
0.0
  0
LINE
  5
E72
330
A
100
AcDbEntity
  8
04
100
AcDbLine
 10
169.253951371841
 20
262.8015977627705
 30
0.0
 11
169.253951371841
 21
203.8015977627705
 31
0.0
  0
LINE
  5
E73
330
A
100
AcDbEntity
  8
04
100
AcDbLine
 10
149.2539513718404
 20
262.8015977627705
 30
0.0
 11
149.2539513718404
 21
227.5518254267464
 31
0.0
  0
LINE
  5
E74
330
A
100
AcDbEntity
  8
04
100
AcDbLine
 10
149.7539513718404
 20
263.3015977627706
 30
0.0
 11
152.9583315885991
 21
263.3015977627706
 31
0.0
  0
LINE
  5
E75
330
A
100
AcDbEntity
  8
04
100
AcDbLine
 10
165.5473187532994
 20
263.3015977627706
 30
0.0
 11
168.7539513718409
 21
263.3015977627706
 31
0.0
  0
LINE
  5
E76
330
A
100
AcDbEntity
  8
04
100
AcDbLine
 10
180.2539513718409
 20
254.3018254267464
 30
0.0
 11
170.7539513718409
 21
254.3018254267464
 31
0.0
  0
LINE
  5
E77
330
A
100
AcDbEntity
  8
04
100
AcDbLine
 10
170.7539513718409
 20
254.3018254267464
 30
0.0
 11
170.7539513718409
 21
244.2518254267465
 31
0.0
  0
LINE
  5
E78
330
A
100
AcDbEntity
  8
04
100
AcDbLine
 10
175.7539513718409
 20
222.3518254267464
 30
0.0
 11
169.253951371841
 21
222.3518254267464
 31
0.0
  0
LINE
  5
E79
330
A
100
AcDbEntity
  8
04
100
AcDbLine
 10
180.2539513718409
 20
244.2518254267465
 30
0.0
 11
180.2539513718409
 21
222.3518254267464
 31
0.0
  0
LINE
  5
E7A
330
A
100
AcDbEntity
  8
04
100
AcDbLine
 10
180.2539513718409
 20
222.3518254267464
 30
0.0
 11
180.2539513718409
 21
244.2518254267465
 31
0.0
  0
LINE
  5
E7C
330
A
100
AcDbEntity
  8
04
100
AcDbLine
 10
175.7539513718409
 20
244.2518254267465
 30
0.0
 11
169.253951371841
 21
244.2518254267465
 31
0.0
  0
LINE
  5
E8E
330
A
100
AcDbEntity
  8
03
100
AcDbLine
 10
108.2539513718409
 20
138.5030541587107
 30
0.0
 11
114.2539513718409
 21
139.5939632496197
 31
0.0
  0
LINE
  5
E8F
330
A
100
AcDbEntity
  8
03
100
AcDbLine
 10
96.25395137184099
 20
139.4615775845298
 30
0.0
 11
102.2539513718409
 21
138.5030541587107
 31
0.0
  0
LINE
  5
E90
330
A
100
AcDbEntity
  8
03
100
AcDbLine
 10
102.2539513718409
 20
146.3018236802265
 30
0.0
 11
108.2539513718409
 21
146.3018236802265
 31
0.0
  0
LINE
  5
E91
330
A
100
AcDbEntity
  8
03
100
AcDbLine
 10
108.2539513718409
 20
98.47458674216738
 30
0.0
 11
108.2539513718409
 21
146.3018236802265
 31
0.0
  0
LINE
  5
E92
330
A
100
AcDbEntity
  8
03
100
AcDbLine
 10
102.2539513718409
 20
146.3018236802265
 30
0.0
 11
102.2539513718409
 21
98.47458674216738
 31
0.0
  0
LINE
  5
E93
330
A
100
AcDbEntity
  8
03
100
AcDbLine
 10
65.25395137184094
 20
139.3018236802265
 30
0.0
 11
65.25395137184094
 21
98.47458674216738
 31
0.0
  0
LINE
  5
E94
330
A
100
AcDbEntity
  8
03
100
AcDbLine
 10
139.253951371841
 20
98.47458674216738
 30
0.0
 11
139.253951371841
 21
139.3018236802265
 31
0.0
  0
LINE
  5
E95
330
A
100
AcDbEntity
  8
03
100
AcDbLine
 10
249.253951371841
 20
399.3018236802266
 30
0.0
 11
249.2539513718409
 21
98.47458674216738
 31
0.0
  0
LINE
  5
E96
330
A
100
AcDbEntity
  8
03
100
AcDbLine
 10
59.25395137184107
 20
98.47458674216738
 30
0.0
 11
59.25395137184114
 21
399.3018236802268
 31
0.0
  0
LINE
  5
EA2
330
A
100
AcDbEntity
  8
04
100
AcDbLine
 10
151.7539521645344
 20
163.0018455237365
 30
0.0
 11
151.7539478648712
 21
161.4019030257435
 31
0.0
  0
LINE
  5
EA3
330
A
100
AcDbEntity
  8
04
100
AcDbLine
 10
166.7539478637177
 20
161.4017714905791
 30
0.0
 11
166.7539521644755
 21
163.0018157988404
 31
0.0
  0
LINE
  5
EA5
330
A
100
AcDbEntity
  8
04
100
AcDbLine
 10
163.753951371841
 20
174.8018236802265
 30
0.0
 11
163.753951371841
 21
173.8018236802265
 31
0.0
  0
LINE
  5
EA6
330
A
100
AcDbEntity
  8
04
100
AcDbLine
 10
155.753951371841
 20
174.8018236802265
 30
0.0
 11
155.753951371841
 21
173.8018236802265
 31
0.0
  0
LINE
  5
EA7
330
A
100
AcDbEntity
  8
04
100
AcDbLine
 10
154.2539513718409
 20
169.8018236802266
 30
0.0
 11
171.253951371841
 21
169.8018236802266
 31
0.0
  0
LINE
  5
EA8
330
A
100
AcDbEntity
  8
04
100
AcDbLine
 10
163.753951371841
 20
173.8018236802265
 30
0.0
 11
171.253951371841
 21
173.8018236802265
 31
0.0
  0
LINE
  5
EA9
330
A
100
AcDbEntity
  8
04
100
AcDbLine
 10
156.753951371841
 20
175.8018236802265
 30
0.0
 11
162.753951371841
 21
175.8018236802265
 31
0.0
  0
LINE
  5
EAA
330
A
100
AcDbEntity
  8
04
100
AcDbLine
 10
154.2539513718409
 20
173.8018236802265
 30
0.0
 11
154.2539513718409
 21
169.8018236802266
 31
0.0
  0
LINE
  5
EAE
330
A
100
AcDbEntity
  8
04
100
AcDbLine
 10
182.2539513718409
 20
197.001823679156
 30
0.0
 11
180.253951371841
 21
197.001823679156
 31
0.0
  0
LINE
  5
EB0
330
A
100
AcDbEntity
  8
04
100
AcDbLine
 10
187.057927079341
 20
196.8073736791559
 30
0.0
 11
187.753951371841
 21
195.6018236791559
 31
0.0
  0
LINE
  5
EB1
330
A
100
AcDbEntity
  8
04
100
AcDbLine
 10
182.2539513718409
 20
196.8073736791559
 30
0.0
 11
187.057927079341
 21
196.8073736791559
 31
0.0
  0
LINE
  5
EB2
330
A
100
AcDbEntity
  8
04
100
AcDbLine
 10
182.2539513718409
 20
168.6018236802266
 30
0.0
 11
180.2539513718409
 21
168.6018236802266
 31
0.0
  0
LINE
  5
EB3
330
A
100
AcDbEntity
  8
04
100
AcDbLine
 10
182.2539513718409
 20
184.0018236802266
 30
0.0
 11
180.253951371841
 21
184.0018236802266
 31
0.0
  0
LINE
  5
EB7
330
A
100
AcDbEntity
  8
04
100
AcDbLine
 10
187.753951371841
 20
170.0018236802266
 30
0.0
 11
187.753951371841
 21
195.6018236791559
 31
0.0
  0
LINE
  5
EB8
330
A
100
AcDbEntity
  8
04
100
AcDbLine
 10
187.057927079341
 20
168.7962736802266
 30
0.0
 11
187.753951371841
 21
170.0018236802266
 31
0.0
  0
LINE
  5
EB9
330
A
100
AcDbEntity
  8
04
100
AcDbLine
 10
187.057927079341
 20
183.8073736802266
 30
0.0
 11
187.753951371841
 21
182.6018236802266
 31
0.0
  0
LINE
  5
EBA
330
A
100
AcDbEntity
  8
04
100
AcDbLine
 10
182.2539513718409
 20
168.7962736802266
 30
0.0
 11
187.057927079341
 21
168.7962736802266
 31
0.0
  0
LINE
  5
EBB
330
A
100
AcDbEntity
  8
04
100
AcDbLine
 10
182.2539513718409
 20
183.8073736802266
 30
0.0
 11
187.057927079341
 21
183.8073736802266
 31
0.0
  0
LINE
  5
EC0
330
A
100
AcDbEntity
  8
04
100
AcDbLine
 10
165.5539471919843
 20
168.5028113576388
 30
0.0
 11
152.9539408340883
 21
168.5028418747545
 31
0.0
  0
LINE
  5
EC1
330
A
100
AcDbEntity
  8
04
100
AcDbLine
 10
166.7594999629795
 20
167.8067530211951
 30
0.0
 11
165.5539359448798
 21
168.5027808400281
 31
0.0
  0
LINE
  5
EC2
330
A
100
AcDbEntity
  8
04
100
AcDbLine
 10
151.7483394194036
 20
167.8068859027777
 30
0.0
 11
152.9539276226925
 21
168.5027063903566
 31
0.0
  0
LINE
  5
EC3
330
A
100
AcDbEntity
  8
04
100
AcDbLine
 10
166.7595864782807
 20
163.001761618353
 30
0.0
 11
166.7594524002583
 21
167.8068205692676
 31
0.0
  0
LINE
  5
EC4
330
A
100
AcDbEntity
  8
04
100
AcDbLine
 10
151.7483986482235
 20
163.0017750976915
 30
0.0
 11
151.7483952646574
 21
167.8067737697571
 31
0.0
  0
LINE
  5
EC6
330
A
100
AcDbEntity
  8
04
100
AcDbLine
 10
168.2539442246803
 20
159.8032707141923
 30
0.0
 11
168.2539577172854
 21
161.4017547535135
 31
0.0
  0
LINE
  5
EC7
330
A
100
AcDbEntity
  8
04
100
AcDbLine
 10
150.2539438041328
 20
161.401833638631
 30
0.0
 11
150.2539496918951
 21
159.8032256216623
 31
0.0
  0
LINE
  5
EC8
330
A
100
AcDbEntity
  8
04
100
AcDbLine
 10
175.7539513718409
 20
159.8018236802265
 30
0.0
 11
175.7539513718409
 21
155.3018236802266
 31
0.0
  0
LINE
  5
EC9
330
A
100
AcDbEntity
  8
04
100
AcDbLine
 10
175.7539513718409
 20
254.3018254267464
 30
0.0
 11
175.7539513718409
 21
162.8018236802265
 31
0.0
  0
LINE
  5
ECA
330
A
100
AcDbEntity
  8
03
100
AcDbLine
 10
145.253951371841
 20
146.3018236802265
 30
0.0
 11
173.253951371841
 21
146.3018236802265
 31
0.0
  0
LINE
  5
ECB
330
A
100
AcDbEntity
  8
04
100
AcDbLine
 10
147.753951371841
 20
159.8018236802265
 30
0.0
 11
147.753951371841
 21
155.3018236802266
 31
0.0
  0
LINE
  5
ECC
330
A
100
AcDbEntity
  8
04
100
AcDbLine
 10
147.753951371841
 20
159.8018236802265
 30
0.0
 11
175.7539513718409
 21
159.8018236802265
 31
0.0
  0
LINE
  5
ECD
330
A
100
AcDbEntity
  8
04
100
AcDbLine
 10
171.253951371841
 20
197.3018236802266
 30
0.0
 11
171.253951371841
 21
162.8018236802265
 31
0.0
  0
LINE
  5
ECE
330
A
100
AcDbEntity
  8
04
100
AcDbLine
 10
175.7539513718409
 20
197.3018236802266
 30
0.0
 11
171.253951371841
 21
197.3018236802266
 31
0.0
  0
LINE
  5
ECF
330
A
100
AcDbEntity
  8
03
100
AcDbLine
 10
173.253951371841
 20
155.3018236802266
 30
0.0
 11
145.253951371841
 21
155.3018236802266
 31
0.0
  0
LINE
  5
ED0
330
A
100
AcDbEntity
  8
04
100
AcDbLine
 10
180.2539513718409
 20
166.3018236802265
 30
0.0
 11
175.7539513718409
 21
166.3018236802265
 31
0.0
  0
LINE
  5
ED1
330
A
100
AcDbEntity
  8
04
100
AcDbLine
 10
180.2539513718409
 20
166.3018236802265
 30
0.0
 11
180.2539513718409
 21
254.3018254267464
 31
0.0
  0
LINE
  5
ED2
330
A
100
AcDbEntity
  8
04
100
AcDbLine
 10
124.253951371841
 20
174.3018236802265
 30
0.0
 11
114.253951371841
 21
174.3018236802265
 31
0.0
  0
LINE
  5
ED3
330
A
100
AcDbEntity
  8
04
100
AcDbLine
 10
139.253951371841
 20
179.3018236802265
 30
0.0
 11
124.253951371841
 21
174.3018236802265
 31
0.0
  0
LINE
  5
ED4
330
A
100
AcDbEntity
  8
04
100
AcDbLine
 10
154.2539513718409
 20
179.3018236802265
 30
0.0
 11
139.253951371841
 21
179.3018236802265
 31
0.0
  0
LINE
  5
ED6
330
A
100
AcDbEntity
  8
04
100
AcDbLine
 10
147.0107528341569
 20
200.3018236802265
 30
0.0
 11
154.2539513718409
 21
200.3018236802265
 31
0.0
  0
LINE
  5
ED7
330
A
100
AcDbEntity
  8
04
100
AcDbLine
 10
134.7703856176321
 20
206.6315635685215
 30
0.0
 11
122.253951371841
 21
224.3018236802265
 31
0.0
  0
LINE
  5
ED8
330
A
100
AcDbEntity
  8
04
100
AcDbLine
 10
122.253951371841
 20
224.3018236802265
 30
0.0
 11
114.253951371841
 21
224.3018236802265
 31
0.0
  0
LINE
  5
ED9
330
A
100
AcDbEntity
  8
02
100
AcDbLine
 10
89.15395137184107
 20
163.3018236802265
 30
0.0
 11
89.15395137184107
 21
157.3018236802266
 31
0.0
  0
LINE
  5
EDA
330
A
100
AcDbEntity
  8
02
100
AcDbLine
 10
89.15395137184107
 20
163.3018236802265
 30
0.0
 11
108.2539513718409
 21
163.3018236802265
 31
0.0
  0
LINE
  5
EDB
330
A
100
AcDbEntity
  8
02
100
AcDbLine
 10
84.25395137184111
 20
223.3018236802265
 30
0.0
 11
108.2539513718409
 21
223.3018236802265
 31
0.0
  0
LINE
  5
EDC
330
A
100
AcDbEntity
  8
02
100
AcDbLine
 10
108.2539513718409
 20
223.3018236802265
 30
0.0
 11
108.2539513718409
 21
163.3018236802265
 31
0.0
  0
LINE
  5
EDD
330
A
100
AcDbEntity
  8
02
100
AcDbLine
 10
84.25395137184111
 20
229.3018236802265
 30
0.0
 11
108.2539513718409
 21
229.3018236802265
 31
0.0
  0
LINE
  5
EDE
330
A
100
AcDbEntity
  8
02
100
AcDbLine
 10
114.253951371841
 20
223.3018236802265
 30
0.0
 11
114.253951371841
 21
163.3018236802265
 31
0.0
  0
LINE
  5
EDF
330
A
100
AcDbEntity
  8
03
100
AcDbLine
 10
145.253951371841
 20
136.3018236802265
 30
0.0
 11
173.253951371841
 21
136.3018236802265
 31
0.0
  0
LINE
  5
EE0
330
A
100
AcDbEntity
  8
03
100
AcDbLine
 10
234.2539513718409
 20
161.3018236802265
 30
0.0
 11
229.753951371841
 21
161.3018236802265
 31
0.0
  0
LINE
  5
EE2
330
A
100
AcDbEntity
  8
03
100
AcDbLine
 10
234.2539513718409
 20
376.2018236802266
 30
0.0
 11
234.2539513718409
 21
161.3018236802265
 31
0.0
  0
LINE
  5
EE9
330
A
100
AcDbEntity
  8
03
100
AcDbLine
 10
179.2539513718409
 20
139.3018236802265
 30
0.0
 11
244.253951371841
 21
139.3018236802265
 31
0.0
  0
LINE
  5
EF2
330
A
100
AcDbEntity
  8
03
100
AcDbLine
 10
244.253951371841
 20
151.3018236802265
 30
0.0
 11
244.253951371841
 21
139.3018236802265
 31
0.0
  0
LINE
  5
EF3
330
A
100
AcDbEntity
  8
03
100
AcDbLine
 10
179.2539513718409
 20
151.3018236802265
 30
0.0
 11
244.253951371841
 21
151.3018236802265
 31
0.0
  0
LINE
  5
EF4
330
A
100
AcDbEntity
  8
03
100
AcDbLine
 10
179.2539513718409
 20
151.3018236802265
 30
0.0
 11
179.2539513718409
 21
139.3018236802265
 31
0.0
  0
LINE
  5
EF5
330
A
100
AcDbEntity
  8
03
100
AcDbLine
 10
173.253951371841
 20
155.3018236802266
 30
0.0
 11
173.253951371841
 21
98.47458674216738
 31
0.0
  0
LINE
  5
EF6
330
A
100
AcDbEntity
  8
03
100
AcDbLine
 10
145.253951371841
 20
155.3018236802266
 30
0.0
 11
145.253951371841
 21
98.47458674216738
 31
0.0
  0
LINE
  5
EF7
330
A
100
AcDbEntity
  8
02
100
AcDbLine
 10
84.25395137184111
 20
171.3018236802265
 30
0.0
 11
78.25395137184109
 21
171.3018236802265
 31
0.0
  0
LINE
  5
EF8
330
A
100
AcDbEntity
  8
02
100
AcDbLine
 10
84.25395137184111
 20
366.2018236802266
 30
0.0
 11
78.25395137184111
 21
366.2018236802266
 31
0.0
  0
LINE
  5
EF9
330
A
100
AcDbEntity
  8
02
100
AcDbLine
 10
84.25395137184111
 20
366.2018236802266
 30
0.0
 11
84.25395137184111
 21
171.3018236802265
 31
0.0
  0
LINE
  5
EFA
330
A
100
AcDbEntity
  8
02
100
AcDbLine
 10
73.75395137184111
 20
201.3018236802265
 30
0.0
 11
72.25395137184111
 21
201.3018236802265
 31
0.0
  0
LINE
  5
EFC
330
A
100
AcDbEntity
  8
02
100
AcDbLine
 10
122.253951371841
 20
152.8018236802265
 30
0.0
 11
122.253951371841
 21
151.3018236802265
 31
0.0
  0
LINE
  5
EFD
330
A
100
AcDbEntity
  8
02
100
AcDbLine
 10
73.75395137184111
 20
337.3018236802266
 30
0.0
 11
72.25395137184111
 21
337.3018236802266
 31
0.0
  0
LINE
  5
EFE
330
A
100
AcDbEntity
  8
02
100
AcDbLine
 10
117.7539513718409
 20
381.3018236802266
 30
0.0
 11
84.75395137184111
 21
381.3018236802266
 31
0.0
  0
LINE
  5
EFF
330
A
100
AcDbEntity
  8
02
100
AcDbLine
 10
122.253951371841
 20
385.8018236802266
 30
0.0
 11
122.253951371841
 21
387.3018236802266
 31
0.0
  0
LINE
  5
F00
330
A
100
AcDbEntity
  8
02
100
AcDbLine
 10
78.25395137184111
 20
366.2018236802266
 30
0.0
 11
78.25395137184109
 21
171.3018236802265
 31
0.0
  0
LINE
  5
F05
330
A
100
AcDbEntity
  8
03
100
AcDbLine
 10
229.753951371841
 20
376.2018236802266
 30
0.0
 11
229.753951371841
 21
161.3018236802265
 31
0.0
  0
LINE
  5
F11
330
A
100
AcDbEntity
  8
03
100
AcDbLine
 10
114.2539513718409
 20
98.45517444550155
 30
0.0
 11
114.2539513718409
 21
139.3018236802265
 31
0.0
  0
LINE
  5
F15
330
A
100
AcDbEntity
  8
03
100
AcDbLine
 10
96.25395137184099
 20
98.45517444550155
 30
0.0
 11
96.25395137184099
 21
139.3018236802265
 31
0.0
  0
LINE
  5
F18
330
A
100
AcDbEntity
  8
03
100
AcDbLine
 10
84.25395137184109
 20
387.3018236802266
 30
0.0
 11
219.253951371841
 21
387.3018236802266
 31
0.0
  0
LINE
  5
F1A
330
A
100
AcDbEntity
  8
03
100
AcDbLine
 10
72.25395137184111
 20
146.3018236802265
 30
0.0
 11
72.25395137184111
 21
392.2018236802266
 31
0.0
  0
LINE
  5
F1E
330
A
100
AcDbEntity
  8
03
100
AcDbLine
 10
69.25395137184108
 20
146.3018236802265
 30
0.0
 11
69.25395137184108
 21
392.2018236802266
 31
0.0
  0
LINE
  5
FB0
330
A
100
AcDbEntity
  8
KAKURE
100
AcDbLine
 10
117.4539513718409
 20
208.0518236802265
 30
0.0
 11
119.053951371841
 21
208.0518236802265
 31
0.0
  0
LINE
  5
FB2
330
A
100
AcDbEntity
  8
KAKURE
100
AcDbLine
 10
117.4539513718409
 20
220.5518236802265
 30
0.0
 11
119.053951371841
 21
220.5518236802265
 31
0.0
  0
LINE
  5
FB6
330
A
100
AcDbEntity
  8
KAKURE
100
AcDbLine
 10
119.053951371841
 20
208.2018236802265
 30
0.0
 11
120.5539513718409
 21
208.2018236802265
 31
0.0
  0
LINE
  5
FB7
330
A
100
AcDbEntity
  8
KAKURE
100
AcDbLine
 10
119.053951371841
 20
220.4018236802265
 30
0.0
 11
120.5539513718409
 21
220.4018236802265
 31
0.0
  0
LINE
  5
FB9
330
A
100
AcDbEntity
  8
KAKURE
100
AcDbLine
 10
120.5539513718409
 20
220.0518236802265
 30
0.0
 11
124.0632036430298
 21
220.0518236802265
 31
0.0
  0
LINE
  5
FBA
330
A
100
AcDbEntity
  8
KAKURE
100
AcDbLine
 10
124.5539513718409
 20
209.9951993532006
 30
0.0
 11
124.5539513718409
 21
218.6084480072525
 31
0.0
  0
LINE
  5
FBC
330
A
100
AcDbEntity
  8
KAKURE
100
AcDbLine
 10
120.5539513718409
 20
208.5518236802265
 30
0.0
 11
124.0632036430298
 21
208.5518236802265
 31
0.0
  0
POLYLINE
  5
11D9
330
A
100
AcDbEntity
  8
DEFPOINTS
100
AcDb2dPolyline
 66
     1
 10
0.0
 20
0.0
 30
0.0
 70
     1
  0
VERTEX
  5
3E81
330
11D9
100
AcDbEntity
  8
DEFPOINTS
100
AcDbVertex
100
AcDb2dVertex
 10
0.0
 20
0.0
 30
0.0
  0
VERTEX
  5
3E82
330
11D9
100
AcDbEntity
  8
DEFPOINTS
100
AcDbVertex
100
AcDb2dVertex
 10
297.0
 20
0.0
 30
0.0
  0
VERTEX
  5
3E83
330
11D9
100
AcDbEntity
  8
DEFPOINTS
100
AcDbVertex
100
AcDb2dVertex
 10
297.0
 20
420.0
 30
0.0
  0
VERTEX
  5
3E84
330
11D9
100
AcDbEntity
  8
DEFPOINTS
100
AcDbVertex
100
AcDb2dVertex
 10
0.0
 20
420.0
 30
0.0
  0
SEQEND
  5
3E85
330
11D9
100
AcDbEntity
  8
DEFPOINTS
  0
DIMENSION
  5
1237
330
A
100
AcDbEntity
  8
SUNPOU
100
AcDbDimension
  2
*D1
 10
48.87335670923811
 20
291.3019247707577
 30
0.0
 11
45.49835670923807
 21
303.8019247707576
 31
0.0
 70
    32
  3
SUNPOU_1_5
100
AcDbAlignedDimension
 13
70.73792622759248
 23
316.3019247707576
 33
0.0
 14
70.40807186980302
 24
291.3019247707577
 34
0.0
 50
90.0
100
AcDbRotatedDimension
  0
DIMENSION
  5
1244
330
A
100
AcDbEntity
  8
SUNPOU
100
AcDbDimension
  2
*D2
 10
48.8733567092381
 20
214.3018236802266
 30
0.0
 11
45.49835670923807
 21
252.8018742254921
 31
0.0
 70
    32
  3
SUNPOU_1_5
100
AcDbAlignedDimension
 13
70.40807186980302
 23
291.3019247707577
 33
0.0
 14
105.6145575415434
 24
214.3018236802265
 34
0.0
 50
90.0
100
AcDbRotatedDimension
  0
DIMENSION
  5
1251
330
A
100
AcDbEntity
  8
SUNPOU
100
AcDbDimension
  2
*D3
 10
48.8733567092381
 20
139.3018236802265
 30
0.0
 11
45.49835670923807
 21
176.8018236802265
 31
0.0
 70
    32
  3
SUNPOU_1_5
100
AcDbAlignedDimension
 13
105.6145575415434
 23
214.3018236802265
 33
0.0
 14
59.25395137184093
 24
139.3018236802265
 34
0.0
 50
90.0
100
AcDbRotatedDimension
  0
DIMENSION
  5
1267
330
A
100
AcDbEntity
  8
SUNPOU
100
AcDbDimension
  2
*D4
 10
84.25395137184111
 20
273.8136394142951
 30
0.0
 11
75.22435908379884
 21
278.1157182719089
 31
0.0
 70
   160
  3
SUNPOU_1_5
100
AcDbAlignedDimension
 13
69.25395137184108
 23
273.8136394142951
 33
0.0
 14
84.25395137184111
 24
273.8136394142951
 34
0.0
100
AcDbRotatedDimension
1001
ACAD
1000
DSTYLE
1002
{
1070
   287
1070
     5
1070
   279
1070
     2
1002
}
  0
DIMENSION
  5
1274
330
A
100
AcDbEntity
  8
SUNPOU
100
AcDbDimension
  2
*D5
 10
121.253951371841
 20
273.8136394142951
 30
0.0
 11
102.753951371841
 21
277.1886394142951
 31
0.0
 70
    32
  3
SUNPOU_1_5
100
AcDbAlignedDimension
 13
84.25395137184111
 23
273.8136394142951
 33
0.0
 14
121.253951371841
 24
280.3575036378361
 34
0.0
100
AcDbRotatedDimension
  0
DIMENSION
  5
1281
330
A
100
AcDbEntity
  8
SUNPOU
100
AcDbDimension
  2
*D6
 10
201.253951371841
 20
273.8136394142951
 30
0.0
 11
151.0308204472048
 21
278.3136394142949
 31
0.0
 70
   160
  3
SUNPOU_1_5
100
AcDbAlignedDimension
 13
121.253951371841
 23
280.3575036378361
 33
0.0
 14
201.253951371841
 24
279.4075036378358
 34
0.0
100
AcDbRotatedDimension
  0
LINE
  5
128E
330
A
100
AcDbEntity
  8
02
100
AcDbLine
 10
114.253951371841
 20
224.3018236802265
 30
0.0
 11
114.253951371841
 21
174.3018236802265
 31
0.0
  0
DIMENSION
  5
128F
330
A
100
AcDbEntity
  8
SUNPOU
100
AcDbDimension
  2
*D7
 10
114.253951371841
 20
247.1811961493363
 30
0.0
 11
96.25395137184108
 21
250.5561961493363
 31
0.0
 70
    32
  3
SUNPOU_1_5
100
AcDbAlignedDimension
 13
78.25395137184111
 23
247.1811961493363
 33
0.0
 14
114.253951371841
 24
224.3018236802266
 34
0.0
100
AcDbRotatedDimension
  0
DIMENSION
  5
12A5
330
A
100
AcDbEntity
  8
SUNPOU
100
AcDbDimension
  2
*D8
 10
159.2539513718409
 20
247.1811961493363
 30
0.0
 11
136.753951371841
 21
250.5561961493363
 31
0.0
 70
    32
  3
SUNPOU_1_5
100
AcDbAlignedDimension
 13
114.253951371841
 23
224.3018236802266
 33
0.0
 14
159.2539513718409
 24
247.1811961493363
 34
0.0
100
AcDbRotatedDimension
  0
DIMENSION
  5
12C9
330
A
100
AcDbEntity
  8
SUNPOU
100
AcDbDimension
  2
*D9
 10
263.9737335755345
 20
311.3019247707577
 30
0.0
 11
260.5987335755344
 21
318.3019247707578
 31
0.0
 70
    32
  3
SUNPOU_1_5
100
AcDbAlignedDimension
 13
209.253951371841
 23
325.3019247707577
 33
0.0
 14
218.253951371841
 24
311.3019247707577
 34
0.0
 50
90.0
100
AcDbRotatedDimension
  0
DIMENSION
  5
12D8
330
A
100
AcDbEntity
  8
SUNPOU
100
AcDbDimension
  2
*D10
 10
263.9737335755345
 20
279.3019247707576
 30
0.0
 11
260.5987335755344
 21
295.3019247707578
 31
0.0
 70
    32
  3
SUNPOU_1_5
100
AcDbAlignedDimension
 13
218.253951371841
 23
311.3019247707577
 33
0.0
 14
218.253951371841
 24
279.3019247707576
 34
0.0
 50
90.0
100
AcDbRotatedDimension
  0
DIMENSION
  5
12E5
330
A
100
AcDbEntity
  8
SUNPOU
100
AcDbDimension
  2
*D11
 10
275.1258516941823
 20
139.3018236802267
 30
0.0
 11
271.7508516941821
 21
269.3018236802266
 31
0.0
 70
    32
  3
SUNPOU_1_5
100
AcDbAlignedDimension
 13
249.253951371841
 23
399.3018236802266
 33
0.0
 14
244.253951371841
 24
139.3018236802267
 34
0.0
 50
90.0
100
AcDbRotatedDimension
  0
DIMENSION
  5
12F2
330
A
100
AcDbEntity
  8
SUNPOU
100
AcDbDimension
  2
*D12
 10
64.25395137184094
 20
114.3018236802265
 30
0.0
 11
48.48005518810669
 21
118.6256614648546
 31
0.0
 70
   160
  3
SUNPOU_1_5
100
AcDbAlignedDimension
 13
59.25395137184107
 23
114.3018236802265
 33
0.0
 14
64.25395137184094
 24
139.3018236802265
 34
0.0
100
AcDbRotatedDimension
  0
DIMENSION
  5
1301
330
A
100
AcDbEntity
  8
SUNPOU
100
AcDbDimension
  2
*D13
 10
244.253951371841
 20
114.3018236802265
 30
0.0
 11
159.3490636761606
 21
118.8018236802266
 31
0.0
 70
   160
  3
SUNPOU_1_5
100
AcDbAlignedDimension
 13
64.25395137184094
 23
139.3018236802265
 33
0.0
 14
244.253951371841
 24
136.3018236802265
 34
0.0
100
AcDbRotatedDimension
  0
DIMENSION
  5
130E
330
A
100
AcDbEntity
  8
SUNPOU
100
AcDbDimension
  2
*D14
 10
249.2539513718409
 20
114.3018236802265
 30
0.0
 11
246.7400018306051
 21
119.7183695333341
 31
0.0
 70
   160
  3
SUNPOU_1_5
100
AcDbAlignedDimension
 13
244.253951371841
 23
136.3018236802265
 33
0.0
 14
249.2539513718409
 24
114.3018236802265
 34
0.0
100
AcDbRotatedDimension
  0
DIMENSION
  5
131D
330
A
100
AcDbEntity
  8
SUNPOU
100
AcDbDimension
  2
*D15
 10
139.253951371841
 20
122.1425104179052
 30
0.0
 11
91.93218097828504
 21
125.975387323764
 31
0.0
 70
   160
  3
SUNPOU_1_5
100
AcDbAlignedDimension
 13
64.25395137184094
 23
139.3018236802265
 33
0.0
 14
139.253951371841
 24
124.3018236802265
 34
0.0
100
AcDbRotatedDimension
  0
DIMENSION
  5
132A
330
A
100
AcDbEntity
  8
SUNPOU
100
AcDbDimension
  2
*D16
 10
145.253951371841
 20
122.1425104179052
 30
0.0
 11
142.1150817865898
 21
126.556750049392
 31
0.0
 70
   160
  3
SUNPOU_1_5
100
AcDbAlignedDimension
 13
139.253951371841
 23
122.1425104179052
 33
0.0
 14
145.253951371841
 24
122.1425104179052
 34
0.0
100
AcDbRotatedDimension
  0
DIMENSION
  5
1339
330
A
100
AcDbEntity
  8
SUNPOU
100
AcDbDimension
  2
*D17
 10
173.253951371841
 20
122.1425104179052
 30
0.0
 11
159.6684231304704
 21
126.3715989528237
 31
0.0
 70
   160
  3
SUNPOU_1_5
100
AcDbAlignedDimension
 13
145.253951371841
 23
122.1425104179052
 33
0.0
 14
173.253951371841
 24
124.3018236802265
 34
0.0
100
AcDbRotatedDimension
  0
DIMENSION
  5
1346
330
A
100
AcDbEntity
  8
SUNPOU
100
AcDbDimension
  2
*D18
 10
179.2539513718409
 20
122.1425104179052
 30
0.0
 11
176.5532456457426
 21
126.3715989528237
 31
0.0
 70
   160
  3
SUNPOU_1_5
100
AcDbAlignedDimension
 13
173.253951371841
 23
124.3018236802265
 33
0.0
 14
179.2539513718409
 24
136.3018236802265
 34
0.0
100
AcDbRotatedDimension
  0
DIMENSION
  5
1355
330
A
100
AcDbEntity
  8
SUNPOU
100
AcDbDimension
  2
*D19
 10
244.253951371841
 20
122.1425104179052
 30
0.0
 11
211.7539513718409
 21
125.5175104179051
 31
0.0
 70
    32
  3
SUNPOU_1_5
100
AcDbAlignedDimension
 13
179.2539513718409
 23
136.3018236802265
 33
0.0
 14
244.253951371841
 24
136.3018236802265
 34
0.0
100
AcDbRotatedDimension
  0
DIMENSION
  5
13C1
330
A
100
AcDbEntity
  8
SUNPOU
100
AcDbDimension
  2
*D20
 10
249.2539513718409
 20
102.4268236802264
 30
0.0
 11
159.8281037053216
 21
106.4073339729309
 31
0.0
 70
   160
  3
SUNPOU_1_5
100
AcDbAlignedDimension
 13
59.25395137184114
 23
102.4268236802265
 33
0.0
 14
249.2539513718409
 24
104.3018236802266
 34
0.0
100
AcDbRotatedDimension
  0
LEADER
  5
14D1
330
A
100
AcDbEntity
  8
HIKIDASI
100
AcDbLeader
  3
SUNPOU_1_5
 73
     0
 75
     1
 40
4.0
 41
28.48
 76
     3
 10
90.54030678699154
 20
226.0938825406783
 30
0.0
 10
45.71952137223377
 20
264.8908315106485
 30
0.0
 10
41.96952137223377
 20
264.8908315106485
 30
0.0
340
14D2
1001
ACAD
1000
DSTYLE
1002
{
1070
     5
1000
OPEN30
1070
    77
1070
     1
1070
   147
1040
1.0
1070
   342
1005
11DD
1002
}
1000
LEANOF
1010
0.0
1020
0.0
1030
0.0
1000
LEANOF
1010
0.0
1020
0.0
1030
0.0
  0
MTEXT
  5
14D2
330
A
100
AcDbEntity
  8
HIKIDASI
100
AcDbMText
 10
11.98952137223376
 20
266.3908315106485
 30
0.0
 40
4.0
 41
0.0
 71
     7
 72
     1
  1
B　FB-50×6
  7
SUNPOU
1001
ACAD
1000
MTEXTBEGIN
1070
    73
1070
     1
1070
    44
1040
1.0
1070
    74
1070
     0
1000
MTEXTEND
1000
MTEXTBEGIN
1070
    73
1070
     1
1070
    44
1040
1.0
1070
    74
1070
     0
1000
MTEXTEND
  0
CIRCLE
  5
14DA
330
A
100
AcDbEntity
  8
SAISEN
100
AcDbCircle
 10
13.10016286752966
 20
268.7414166041662
 30
0.0
 40
3.720341695781723
  0
LEADER
  5
14DD
330
A
100
AcDbEntity
  8
HIKIDASI
100
AcDbLeader
  3
SUNPOU_1_5
 73
     0
 75
     1
 40
4.0
 41
27.94666666666667
 76
     3
 10
74.80778276662295
 20
185.8177252856816
 30
0.0
 10
44.61651378785263
 20
203.3097981381961
 30
0.0
 10
40.86651378785263
 20
203.3097981381961
 30
0.0
340
14DE
1001
ACAD
1000
DSTYLE
1002
{
1070
     5
1000
OPEN30
1070
    77
1070
     1
1070
   147
1040
1.0
1070
   342
1005
11DD
1002
}
1000
LEANOF
1010
0.0
1020
0.0
1030
0.0
1000
LEANOF
1010
0.0
1020
0.0
1030
0.0
  0
MTEXT
  5
14DE
330
A
100
AcDbEntity
  8
HIKIDASI
100
AcDbMText
 10
11.41984712118596
 20
204.809798138196
 30
0.0
 40
4.0
 41
0.0
 71
     7
 72
     1
  1
L-50×50×6
  7
SUNPOU
1001
ACAD
1000
MTEXTBEGIN
1070
    73
1070
     1
1070
    44
1040
1.0
1070
    74
1070
     0
1000
MTEXTEND
1000
MTEXTBEGIN
1070
    73
1070
     1
1070
    44
1040
1.0
1070
    74
1070
     0
1000
MTEXTEND
  0
MTEXT
  5
14E1
330
A
100
AcDbEntity
  8
HIKIDASI
100
AcDbMText
 10
19.88637089434472
 20
365.6612671315611
 30
0.0
 40
4.0
 41
0.0
 71
     7
 72
     1
  1
L-50×50×6
  7
SUNPOU
1001
ACAD
1000
MTEXTBEGIN
1070
    73
1070
     1
1070
    44
1040
1.0
1070
    74
1070
     0
1000
MTEXTEND
1000
MTEXTBEGIN
1070
    73
1070
     1
1070
    44
1040
1.0
1070
    74
1070
     0
1000
MTEXTEND
  0
LEADER
  5
14E2
330
A
100
AcDbEntity
  8
HIKIDASI
100
AcDbLeader
  3
SUNPOU_1_5
 73
     0
 75
     1
 40
4.0
 41
27.94666666666667
 76
     3
 10
74.68239136275021
 20
346.6691942790466
 30
0.0
 10
53.08303756101139
 20
364.1612671315611
 30
0.0
 10
49.33303756101139
 20
364.1612671315611
 30
0.0
340
14E1
1001
ACAD
1000
DSTYLE
1002
{
1070
     5
1000
OPEN30
1070
    77
1070
     1
1070
   147
1040
1.0
1070
   342
1005
11DD
1002
}
1000
LEANOF
1010
0.0
1020
0.0
1030
0.0
1000
LEANOF
1010
0.0
1020
0.0
1030
0.0
  0
LEADER
  5
14E4
330
A
100
AcDbEntity
  8
HIKIDASI
100
AcDbLeader
  3
SUNPOU_1_5
 73
     0
 75
     1
 40
4.0
 41
28.48
 76
     3
 10
80.77018083864231
 20
325.6336810175135
 30
0.0
 10
53.06950948445967
 20
346.4107864575848
 30
0.0
 10
49.31950948445967
 20
346.4107864575848
 30
0.0
340
14E5
1001
ACAD
1000
DSTYLE
1002
{
1070
     5
1000
OPEN30
1070
    77
1070
     1
1070
   147
1040
1.0
1070
   342
1005
11DD
1002
}
1000
LEANOF
1010
0.0
1020
0.0
1030
0.0
1000
LEANOF
1010
0.0
1020
0.0
1030
0.0
  0
MTEXT
  5
14E5
330
A
100
AcDbEntity
  8
HIKIDASI
100
AcDbMText
 10
19.33950948445967
 20
347.9107864575848
 30
0.0
 40
4.0
 41
0.0
 71
     7
 72
     1
  1
A　FB-50×6
  7
SUNPOU
1001
ACAD
1000
MTEXTBEGIN
1070
    73
1070
     1
1070
    44
1040
1.0
1070
    74
1070
     0
1000
MTEXTEND
1000
MTEXTBEGIN
1070
    73
1070
     1
1070
    44
1040
1.0
1070
    74
1070
     0
1000
MTEXTEND
  0
CIRCLE
  5
14E6
330
A
100
AcDbEntity
  8
SAISEN
100
AcDbCircle
 10
20.41612956472021
 20
350.2613715511023
 30
0.0
 40
3.720341695781723
  0
LEADER
  5
14E7
330
A
100
AcDbEntity
  8
HIKIDASI
100
AcDbLeader
  3
SUNPOU_1_5
 73
     0
 75
     1
 40
10.66666666666666
 41
23.25333333333334
 76
     3
 10
78.25395137184111
 20
316.3019247707576
 30
0.0
 10
47.12775782207267
 20
331.6825593738357
 30
0.0
 10
43.37775782207267
 20
331.6825593738357
 30
0.0
340
14E8
213
-0.1905623126224469
223
6.625053402700133
233
0.0
1001
ACAD
1000
DSTYLE
1002
{
1070
     5
1000
OPEN30
1070
    77
1070
     1
1070
   147
1040
1.0
1070
   342
1005
11DD
1002
}
1000
LEANOF
1010
-0.1905623126224469
1020
6.625053402700133
1030
0.0
1000
LEANOF
1010
-0.1905623126224469
1020
6.625053402700133
1030
0.0
  0
MTEXT
  5
14E8
330
A
100
AcDbEntity
  8
HIKIDASI
100
AcDbMText
 10
18.81498680136178
 20
326.5575059711356
 30
0.0
 40
4.0
 41
0.0
 71
     7
 72
     1
  1
4-M6タップ\P(サッシ工事)
  7
SUNPOU
1001
ACAD
1000
MTEXTBEGIN
1070
    73
1070
     1
1070
    44
1040
1.0
1070
    74
1070
     0
1000
MTEXTEND
1000
MTEXTBEGIN
1070
    73
1070
     1
1070
    44
1040
1.0
1070
    74
1070
     0
1000
MTEXTEND
  0
LINE
  5
1637
330
A
100
AcDbEntity
  8
06
100
AcDbLine
 10
175.118954378073
 20
284.5019247707576
 30
0.0
 11
161.2957569133419
 21
284.5019247707578
 31
0.0
  0
LINE
  5
1639
330
A
100
AcDbEntity
  8
06
100
AcDbLine
 10
176.2539513718408
 20
356.6019247707578
 30
0.0
 11
184.2539513718408
 21
356.6019247707578
 31
0.0
  0
LINE
  5
163C
330
A
100
AcDbEntity
  8
06
100
AcDbLine
 10
189.253951371841
 20
366.1019247707578
 30
0.0
 11
119.253951371841
 21
366.1019247707578
 31
0.0
  0
LINE
  5
163D
330
A
100
AcDbEntity
  8
06
100
AcDbLine
 10
189.253951371841
 20
370.1019247707578
 30
0.0
 11
119.253951371841
 21
370.1019247707578
 31
0.0
  0
LINE
  5
163F
330
A
100
AcDbEntity
  8
03
100
AcDbLine
 10
189.2539800180576
 20
370.3017482455456
 30
0.0
 11
119.253951371841
 21
370.3017482455456
 31
0.0
  0
LINE
  5
1641
330
A
100
AcDbEntity
  8
03
100
AcDbLine
 10
190.2539800180576
 20
375.3018236802266
 30
0.0
 11
118.253951371841
 21
375.3018236802266
 31
0.0
  0
LINE
  5
1645
330
A
100
AcDbEntity
  8
02
100
AcDbLine
 10
89.74617977600425
 20
381.3018236802266
 30
0.0
 11
227.8330950062808
 21
381.3018236802266
 31
0.0
  0
LINE
  5
1646
330
A
100
AcDbEntity
  8
02
100
AcDbLine
 10
89.74617977600425
 20
375.3018236802266
 30
0.0
 11
227.8330950062808
 21
375.3018236802266
 31
0.0
  0
LINE
  5
1647
330
A
100
AcDbEntity
  8
06
100
AcDbLine
 10
130.753951371841
 20
333.8915754012119
 30
0.0
 11
130.753951371841
 21
336.8364623328043
 31
0.0
  0
LINE
  5
1648
330
A
100
AcDbEntity
  8
CHUSIN
100
AcDbLine
 10
161.2539513718409
 20
381.8544039949723
 30
0.0
 11
161.2539513718409
 21
308.6939220024318
 31
0.0
  0
LINE
  5
167E
330
A
100
AcDbEntity
  8
06
100
AcDbLine
 10
130.753951371841
 20
336.8364623328043
 30
0.0
 11
128.753951371841
 21
336.8364623328043
 31
0.0
  0
LINE
  5
1680
330
A
100
AcDbEntity
  8
06
100
AcDbLine
 10
124.253951371841
 20
356.6019247707578
 30
0.0
 11
132.253951371841
 21
356.6019247707578
 31
0.0
  0
LINE
  5
1685
330
A
100
AcDbEntity
  8
06
100
AcDbLine
 10
121.5539513718411
 20
356.8364623328045
 30
0.0
 11
121.5539513718411
 21
350.3651135162768
 31
0.0
  0
LINE
  5
168E
330
A
100
AcDbEntity
  8
02
100
AcDbLine
 10
89.74617977600425
 20
375.3018236802266
 30
0.0
 11
89.74617977600425
 21
381.3018236802266
 31
0.0
  0
LINE
  5
1693
330
A
100
AcDbEntity
  8
06
100
AcDbLine
 10
125.753951371841
 20
360.3019247707578
 30
0.0
 11
125.753951371841
 21
366.1019247707578
 31
0.0
  0
LINE
  5
1695
330
A
100
AcDbEntity
  8
CHUSIN
 48
0.3
100
AcDbLine
 10
128.253951371841
 20
368.6188975788388
 30
0.0
 11
128.253951371841
 21
354.3201477836112
 31
0.0
  0
LINE
  5
1696
330
A
100
AcDbEntity
  8
03
100
AcDbLine
 10
116.253951371841
 20
363.8018236802266
 30
0.0
 11
116.253951371841
 21
373.3018236802266
 31
0.0
  0
LINE
  5
1697
330
A
100
AcDbEntity
  8
03
100
AcDbLine
 10
121.7539513780258
 20
364.8018565774471
 30
0.0
 11
119.7539513717394
 21
363.8018236802266
 31
0.0
  0
LINE
  5
1698
330
A
100
AcDbEntity
  8
06
100
AcDbLine
 10
124.253951371841
 20
356.8364623328045
 30
0.0
 11
121.5539513718411
 21
356.8364623328045
 31
0.0
  0
LINE
  5
1699
330
A
100
AcDbEntity
  8
03
100
AcDbLine
 10
116.253951371841
 20
363.8018236802266
 30
0.0
 11
119.7539513717392
 21
363.8018236802266
 31
0.0
  0
LINE
  5
169A
330
A
100
AcDbEntity
  8
06
100
AcDbLine
 10
128.253951371841
 20
360.1019247707578
 30
0.0
 11
128.253951371841
 21
357.7566253091369
 31
0.0
  0
LINE
  5
169B
330
A
100
AcDbEntity
  8
06
100
AcDbLine
 10
124.253951371841
 20
360.1019247707578
 30
0.0
 11
124.253951371841
 21
356.6019247707578
 31
0.0
  0
ARC
  5
169E
330
A
100
AcDbEntity
  8
06
100
AcDbCircle
 10
125.553951371841
 20
360.3019247707578
 30
0.0
 40
0.1999999999999886
100
AcDbArc
 50
270.0
 51
0.0
  0
ARC
  5
16A2
330
A
100
AcDbEntity
  8
03
100
AcDbCircle
 10
118.253951371841
 20
373.3018236802266
 30
0.0
 40
2.0
100
AcDbArc
 50
90.0
 51
180.0
  0
LINE
  5
16A3
330
A
100
AcDbEntity
  8
06
100
AcDbLine
 10
119.253951371841
 20
370.1019247707578
 30
0.0
 11
119.253951371841
 21
366.1019247707578
 31
0.0
  0
LINE
  5
16A4
330
A
100
AcDbEntity
  8
03
100
AcDbLine
 10
121.7539513717394
 20
366.1019410934841
 30
0.0
 11
121.7539513717394
 21
364.8018565743038
 31
0.0
  0
LINE
  5
16A5
330
A
100
AcDbEntity
  8
03
100
AcDbLine
 10
119.253951371841
 20
370.3017482455456
 30
0.0
 11
119.253951371841
 21
366.1019411294168
 31
0.0
  0
LINE
  5
16A6
330
A
100
AcDbEntity
  8
03
100
AcDbLine
 10
121.7539513717394
 20
366.1019410934841
 30
0.0
 11
119.253951371841
 21
366.1019410934841
 31
0.0
  0
LINE
  5
16C2
330
A
100
AcDbEntity
  8
KAKURE
100
AcDbLine
 10
139.253951371841
 20
362.9019247707578
 30
0.0
 11
169.253951371841
 21
362.9019247707578
 31
0.0
  0
LINE
  5
16C5
330
A
100
AcDbEntity
  8
06
100
AcDbLine
 10
130.753951371841
 20
360.3019247707578
 30
0.0
 11
130.753951371841
 21
366.1019247707578
 31
0.0
  0
LINE
  5
16CB
330
A
100
AcDbEntity
  8
06
100
AcDbLine
 10
135.753951371841
 20
357.2072475222189
 30
0.0
 11
132.253951371841
 21
357.2072475222189
 31
0.0
  0
LINE
  5
16CD
330
A
100
AcDbEntity
  8
06
100
AcDbLine
 10
132.253951371841
 20
356.6019247707578
 30
0.0
 11
132.253951371841
 21
360.1019247707578
 31
0.0
  0
ARC
  5
16CF
330
A
100
AcDbEntity
  8
06
100
AcDbCircle
 10
130.953951371841
 20
360.3019247707578
 30
0.0
 40
0.1999999999999886
100
AcDbArc
 50
180.0
 51
270.0
  0
LINE
  5
16D2
330
A
100
AcDbEntity
  8
06
100
AcDbLine
 10
135.753951371841
 20
357.2072475222189
 30
0.0
 11
135.753951371841
 21
362.1108720134642
 31
0.0
  0
LINE
  5
16D3
330
A
100
AcDbEntity
  8
06
100
AcDbLine
 10
136.2539513718417
 20
362.1019247707578
 30
0.0
 11
135.753951371841
 21
362.1019247707578
 31
0.0
  0
LINE
  5
16D5
330
A
100
AcDbEntity
  8
06
100
AcDbLine
 10
139.253951371841
 20
362.9019247707578
 30
0.0
 11
136.2539513718417
 21
362.9019247707578
 31
0.0
  0
LINE
  5
16E5
330
A
100
AcDbEntity
  8
06
100
AcDbLine
 10
177.7539513718408
 20
360.3019247707578
 30
0.0
 11
177.7539513718408
 21
366.1019247707578
 31
0.0
  0
LINE
  5
16E7
330
A
100
AcDbEntity
  8
06
100
AcDbLine
 10
177.7539513718408
 20
360.3019247707578
 30
0.0
 11
177.7539513718408
 21
366.1019247707578
 31
0.0
  0
LINE
  5
16EB
330
A
100
AcDbEntity
  8
CHUSIN
 48
0.3
100
AcDbLine
 10
180.2539513718408
 20
367.6156965089724
 30
0.0
 11
180.2539513718408
 21
354.3201477836112
 31
0.0
  0
LINE
  5
16FB
330
A
100
AcDbEntity
  8
06
100
AcDbLine
 10
177.7506043020389
 20
362.9019247707578
 30
0.0
 11
169.253951371841
 21
362.9019247707578
 31
0.0
  0
LINE
  5
1709
330
A
100
AcDbEntity
  8
06
100
AcDbLine
 10
176.2539513718408
 20
360.1019247707578
 30
0.0
 11
176.2539513718408
 21
356.6019247707578
 31
0.0
  0
LINE
  5
170A
330
A
100
AcDbEntity
  8
06
100
AcDbLine
 10
180.2539513718408
 20
360.1019247707578
 30
0.0
 11
180.2539513718408
 21
357.7566253091369
 31
0.0
  0
LINE
  5
170B
330
A
100
AcDbEntity
  8
06
100
AcDbLine
 10
176.2539513718408
 20
360.1019247707578
 30
0.0
 11
176.2539513718408
 21
356.6019247707578
 31
0.0
  0
LINE
  5
170C
330
A
100
AcDbEntity
  8
06
100
AcDbLine
 10
180.2539513718408
 20
360.1019247707578
 30
0.0
 11
180.2539513718408
 21
357.7566253091369
 31
0.0
  0
ARC
  5
170F
330
A
100
AcDbEntity
  8
06
100
AcDbCircle
 10
177.5539513718408
 20
360.3019247707578
 30
0.0
 40
0.1999999999999886
100
AcDbArc
 50
270.0
 51
0.0
  0
ARC
  5
1711
330
A
100
AcDbEntity
  8
06
100
AcDbCircle
 10
177.5539513718408
 20
360.3019247707578
 30
0.0
 40
0.1999999999999886
100
AcDbArc
 50
270.0
 51
0.0
  0
LINE
  5
1719
330
A
100
AcDbEntity
  8
06
100
AcDbLine
 10
191.753951371841
 20
343.1506126985484
 30
0.0
 11
191.7539513718409
 21
357.2072475222189
 31
0.0
  0
LINE
  5
173A
330
A
100
AcDbEntity
  8
06
100
AcDbLine
 10
182.7539513718408
 20
360.3019247707578
 30
0.0
 11
182.7539513718408
 21
366.1019247707578
 31
0.0
  0
LINE
  5
173D
330
A
100
AcDbEntity
  8
03
100
AcDbLine
 10
192.2539800180576
 20
363.8018236802266
 30
0.0
 11
192.2539800180576
 21
373.3018236802266
 31
0.0
  0
LINE
  5
173E
330
A
100
AcDbEntity
  8
03
100
AcDbLine
 10
186.7539800118729
 20
364.8018565774471
 30
0.0
 11
188.7539800181593
 21
363.8018236802266
 31
0.0
  0
LINE
  5
1740
330
A
100
AcDbEntity
  8
06
100
AcDbLine
 10
191.753951371841
 20
357.2072475222189
 30
0.0
 11
186.753951371841
 21
357.2072475222189
 31
0.0
  0
LINE
  5
1741
330
A
100
AcDbEntity
  8
06
100
AcDbLine
 10
184.2539513718408
 20
356.6019247707578
 30
0.0
 11
184.2539513718408
 21
360.1019247707578
 31
0.0
  0
LINE
  5
1743
330
A
100
AcDbEntity
  8
06
100
AcDbLine
 10
186.753951371841
 20
362.1019247707578
 30
0.0
 11
186.753951371841
 21
357.2072475222189
 31
0.0
  0
LINE
  5
1744
330
A
100
AcDbEntity
  8
06
100
AcDbLine
 10
186.753951371841
 20
362.1019247707578
 30
0.0
 11
183.7539513718416
 21
362.1019247707578
 31
0.0
  0
LINE
  5
1745
330
A
100
AcDbEntity
  8
06
100
AcDbLine
 10
183.7539513718416
 20
362.9019247707578
 30
0.0
 11
182.7539513718408
 21
362.9019247707578
 31
0.0
  0
ARC
  5
1746
330
A
100
AcDbEntity
  8
06
100
AcDbCircle
 10
182.9539513718408
 20
360.3019247707578
 30
0.0
 40
0.1999999999999886
100
AcDbArc
 50
180.0
 51
270.0
  0
LINE
  5
1747
330
A
100
AcDbEntity
  8
03
100
AcDbLine
 10
192.2539800180576
 20
363.8018236802266
 30
0.0
 11
188.7539800181593
 21
363.8018236802266
 31
0.0
  0
ARC
  5
174B
330
A
100
AcDbEntity
  8
03
100
AcDbCircle
 10
190.2539800180576
 20
373.3018236802266
 30
0.0
 40
2.0
100
AcDbArc
 50
0.0
 51
90.0
  0
LINE
  5
174C
330
A
100
AcDbEntity
  8
03
100
AcDbLine
 10
189.2535877276285
 20
366.1019410523673
 30
0.0
 11
186.7539800181593
 21
366.1019410523673
 31
0.0
  0
LINE
  5
174D
330
A
100
AcDbEntity
  8
03
100
AcDbLine
 10
189.2543228485363
 20
366.1019411294168
 30
0.0
 11
186.7540189360951
 21
366.101679067357
 31
0.0
  0
LINE
  5
174E
330
A
100
AcDbEntity
  8
03
100
AcDbLine
 10
186.7539800181593
 20
366.1019410934841
 30
0.0
 11
186.7539800181593
 21
364.8018565743038
 31
0.0
  0
LINE
  5
1750
330
A
100
AcDbEntity
  8
06
100
AcDbLine
 10
189.253951371841
 20
370.1019247707578
 30
0.0
 11
189.253951371841
 21
366.1019247707578
 31
0.0
  0
LINE
  5
1751
330
A
100
AcDbEntity
  8
03
100
AcDbLine
 10
189.2539800180576
 20
370.3017482455456
 30
0.0
 11
189.2539800180576
 21
366.1019411294168
 31
0.0
  0
LINE
  5
1758
330
A
100
AcDbEntity
  8
02
100
AcDbLine
 10
227.8330950062808
 20
375.3018236802266
 30
0.0
 11
227.8330950062808
 21
382.3018236802266
 31
0.0
  0
DIMENSION
  5
17C4
330
A
100
AcDbEntity
  8
SUNPOU
100
AcDbDimension
  2
*D21
 10
161.2539513718409
 20
402.5682370907582
 30
0.0
 11
112.753951371841
 21
405.9432370907583
 31
0.0
 70
    32
  3
SUNPOU_1_5
100
AcDbAlignedDimension
 13
64.25395137184108
 23
399.3018236802268
 33
0.0
 14
161.2539513718409
 24
380.8544039949723
 34
0.0
100
AcDbRotatedDimension
  0
DIMENSION
  5
17D1
330
A
100
AcDbEntity
  8
SUNPOU
100
AcDbDimension
  2
*D22
 10
244.253951371841
 20
402.5682370907582
 30
0.0
 11
202.753951371841
 21
405.9432370907583
 31
0.0
 70
    32
  3
SUNPOU_1_5
100
AcDbAlignedDimension
 13
161.2539513718409
 23
380.8544039949723
 33
0.0
 14
244.253951371841
 24
399.3018236802266
 34
0.0
100
AcDbRotatedDimension
  0
LEADER
  5
1993
330
A
100
AcDbEntity
  8
HIKIDASI
100
AcDbLeader
  3
SUNPOU_1_5
 73
     0
 75
     1
 40
10.66666666666666
 41
29.01333333333333
 76
     3
 10
89.74617977600425
 20
378.3018236802266
 30
0.0
 10
54.89096436805439
 20
390.0635193730112
 30
0.0
 10
51.14096436805439
 20
390.0635193730112
 30
0.0
340
1994
213
0.0099492385966187
223
7.730758816790967
233
0.0
1001
ACAD
1000
DSTYLE
1002
{
1070
     5
1000
OPEN30
1070
    77
1070
     1
1070
   147
1040
1.0
1070
   342
1005
11DD
1002
}
1000
LEANOF
1010
0.0099492385966187
1020
7.730758816790967
1030
0.0
1000
LEANOF
1010
0.0099492385966187
1020
7.730758816790967
1030
0.0
  0
MTEXT
  5
1994
330
A
100
AcDbEntity
  8
HIKIDASI
100
AcDbMText
 10
20.61768179612444
 20
383.8327605562203
 30
0.0
 40
4.0
 41
0.0
 71
     7
 72
     1
  1
FB-50×6\PC　 D　 E   F
  7
SUNPOU
1001
ACAD
1000
MTEXTBEGIN
1070
    73
1070
     1
1070
    44
1040
1.0
1070
    74
1070
     0
1000
MTEXTEND
1000
MTEXTBEGIN
1070
    73
1070
     1
1070
    44
1040
1.0
1070
    74
1070
     0
1000
MTEXTEND
  0
CIRCLE
  5
1995
330
A
100
AcDbEntity
  8
SAISEN
100
AcDbCircle
 10
22.0812397729386
 20
386.1833456497378
 30
0.0
 40
3.720341695781723
  0
CIRCLE
  5
1996
330
A
100
AcDbEntity
  8
SAISEN
100
AcDbCircle
 10
30.44457696611061
 20
386.0131640478251
 30
0.0
 40
3.720341695781723
  0
CIRCLE
  5
1997
330
A
100
AcDbEntity
  8
SAISEN
100
AcDbCircle
 10
39.51062773307739
 20
386.0131640478251
 30
0.0
 40
3.720341695781723
  0
LEADER
  5
1998
330
A
100
AcDbEntity
  8
HIKIDASI
100
AcDbLeader
  3
SUNPOU_1_5
 73
     0
 75
     1
 40
10.66666666666666
 41
23.25333333333334
 76
     3
 10
129.2542775466216
 20
375.3018236802266
 30
0.0
 10
118.3629135158451
 20
359.1604575854884
 30
0.0
 10
114.6129135158451
 20
359.1604575854884
 30
0.0
340
1999
213
0.0
223
6.381413073500083
233
0.0
1001
ACAD
1000
DSTYLE
1002
{
1070
     5
1000
OPEN30
1070
    77
1070
     1
1070
   147
1040
1.0
1070
   342
1005
11DD
1002
}
1000
LEANOF
1010
0.0
1020
6.381413073500083
1030
0.0
1000
LEANOF
1010
0.0
1020
6.381413073500083
1030
0.0
  0
MTEXT
  5
1999
330
A
100
AcDbEntity
  8
HIKIDASI
100
AcDbMText
 10
89.85958018251176
 20
354.2790445119884
 30
0.0
 40
4.0
 41
0.0
 71
     7
 72
     1
  1
4-M6タップ\P(サッシ工事)
  7
SUNPOU
1001
ACAD
1000
MTEXTBEGIN
1070
    73
1070
     1
1070
    44
1040
1.0
1070
    74
1070
     0
1000
MTEXTEND
1000
MTEXTBEGIN
1070
    73
1070
     1
1070
    44
1040
1.0
1070
    74
1070
     0
1000
MTEXTEND
  0
LINE
  5
199A
330
A
100
AcDbEntity
  8
CHUSIN
 48
0.3
100
AcDbLine
 10
129.2542775466216
 20
384.5705964675453
 30
0.0
 11
129.2542775466216
 21
368.4400255374213
 31
0.0
  0
LINE
  5
199B
330
A
100
AcDbEntity
  8
CHUSIN
 48
0.3
100
AcDbLine
 10
179.2542775466216
 20
384.5705964675453
 30
0.0
 11
179.2542775466216
 21
368.4400255374213
 31
0.0
  0
DIMENSION
  5
199C
330
A
100
AcDbEntity
  8
SUNPOU
  6
CONTINUOUS
100
AcDbDimension
  2
*D23
 10
161.2539513718409
 20
388.7612369046742
 30
0.0
 11
145.2541144592314
 21
392.1362369046742
 31
0.0
 70
    32
  3
SUNPOU_1_5
100
AcDbAlignedDimension
 13
129.2542775466216
 23
383.4705964675454
 33
0.0
 14
161.2539513718409
 24
380.8544039949723
 34
0.0
100
AcDbRotatedDimension
  0
DIMENSION
  5
19A9
330
A
100
AcDbEntity
  8
SUNPOU
  6
CONTINUOUS
100
AcDbDimension
  2
*D24
 10
179.2542775466216
 20
388.7612369046742
 30
0.0
 11
170.2541144592314
 21
392.1362369046742
 31
0.0
 70
    32
  3
SUNPOU_1_5
100
AcDbAlignedDimension
 13
161.2539513718409
 23
380.8544039949723
 33
0.0
 14
179.2542775466216
 24
383.4705964675454
 34
0.0
100
AcDbRotatedDimension
  0
LINE
  5
19B7
330
A
100
AcDbEntity
  8
SUNPOU
  6
CONTINUOUS
100
AcDbLine
 10
161.2539513718409
 20
283.1734335226844
 30
0.0
 11
161.2539513718409
 21
268.1535484193434
 31
0.0
  0
LINE
  5
19B8
330
A
100
AcDbEntity
  8
02
  6
CONTINUOUS
100
AcDbLine
 10
78.25395137184111
 20
196.8018236802265
 30
0.0
 11
78.25395137184111
 21
163.8018236802265
 31
0.0
  0
LINE
  5
19B9
330
A
100
AcDbEntity
  8
02
  6
CONTINUOUS
100
AcDbLine
 10
117.7539513718409
 20
157.3018236802266
 30
0.0
 11
84.75395137184111
 21
157.3018236802266
 31
0.0
  0
LINE
  5
19BA
330
A
100
AcDbEntity
  8
02
  6
CONTINUOUS
100
AcDbLine
 10
78.25395137184111
 20
374.8018236802266
 30
0.0
 11
78.25395137184111
 21
341.8018236802266
 31
0.0
  0
LINE
  5
19BB
330
A
100
AcDbEntity
  8
06
  6
CONTINUOUS
100
AcDbLine
 10
146.2020294636708
 20
284.5019247707576
 30
0.0
 11
152.5967632644161
 21
284.5019247707576
 31
0.0
  0
LINE
  5
1A68
330
A
100
AcDbEntity
  8
03
100
AcDbLine
 10
164.5039513718406
 20
58.93068857240883
 30
0.0
 11
167.0039513718408
 21
58.93068857240871
 31
0.0
  0
DIMENSION
  5
1A69
330
A
100
AcDbEntity
  8
SUNPOU
100
AcDbDimension
  2
*D25
 10
169.7539513718409
 20
33.44080688202939
 30
0.0
 11
159.2539513718409
 21
36.81580688202939
 31
0.0
 70
    32
  3
SUNPOU_1_5
100
AcDbAlignedDimension
 13
148.7539513718409
 23
49.13068857240862
 33
0.0
 14
169.7539513718409
 24
49.13068857240862
 34
0.0
100
AcDbRotatedDimension
  0
LINE
  5
1A6A
330
A
100
AcDbEntity
  8
KAKURE
100
AcDbLine
 10
59.25395137184104
 20
41.13068857240874
 30
0.0
 11
249.2539513718408
 21
41.13068857240871
 31
0.0
  0
LINE
  5
1A6B
330
A
100
AcDbEntity
  8
SAISEN
100
AcDbLine
 10
51.25395137184093
 20
93.47458674216737
 30
0.0
 11
257.3673978093065
 21
93.48670762265646
 31
0.0
  0
LINE
  5
1A6C
330
A
100
AcDbEntity
  8
03
100
AcDbLine
 10
145.7539513718409
 20
49.13068857240864
 30
0.0
 11
172.753951371841
 21
49.13068857240864
 31
0.0
  0
LINE
  5
1A6F
330
A
100
AcDbEntity
  8
03
100
AcDbLine
 10
149.7539513718409
 20
75.53068857240873
 30
0.0
 11
168.7539513718409
 21
75.53068857240873
 31
0.0
  0
LINE
  5
1A70
330
A
100
AcDbEntity
  8
03
100
AcDbLine
 10
151.5539513718409
 20
79.13068857240864
 30
0.0
 11
166.9539513718408
 21
79.13068857240864
 31
0.0
  0
LINE
  5
1A71
330
A
100
AcDbEntity
  8
03
100
AcDbLine
 10
151.5539513718409
 20
81.13068857240866
 30
0.0
 11
166.9539513718408
 21
81.13068857240866
 31
0.0
  0
LINE
  5
1A72
330
A
100
AcDbEntity
  8
03
100
AcDbLine
 10
145.253951371841
 20
81.13068857240866
 30
0.0
 11
173.253951371841
 21
81.13068857240866
 31
0.0
  0
LINE
  5
1A73
330
A
100
AcDbEntity
  8
KAKURE
100
AcDbLine
 10
148.081856990977
 20
45.33068857240868
 30
0.0
 11
170.4260457527048
 21
45.33068857240868
 31
0.0
  0
LINE
  5
1A74
330
A
100
AcDbEntity
  8
03
100
AcDbLine
 10
173.253951371841
 20
47.63068857240877
 30
0.0
 11
145.253951371841
 21
47.63068857240877
 31
0.0
  0
LINE
  5
1A75
330
A
100
AcDbEntity
  8
03
100
AcDbLine
 10
172.753951371841
 20
49.13068857240864
 30
0.0
 11
145.7539513718409
 21
49.13068857240864
 31
0.0
  0
LINE
  5
1A76
330
A
100
AcDbEntity
  8
03
100
AcDbLine
 10
65.25395137184094
 20
93.47458674216737
 30
0.0
 11
65.25395137184091
 21
71.1306885724087
 31
0.0
  0
LINE
  5
1A77
330
A
100
AcDbEntity
  8
03
100
AcDbLine
 10
59.25395137184107
 20
93.47458674216737
 30
0.0
 11
59.25395137184104
 21
71.1306885724087
 31
0.0
  0
LINE
  5
1A78
330
A
100
AcDbEntity
  8
03
100
AcDbLine
 10
139.253951371841
 20
71.13068857240875
 30
0.0
 11
139.253951371841
 21
93.47458674216737
 31
0.0
  0
LINE
  5
1A7A
330
A
100
AcDbEntity
  8
03
100
AcDbLine
 10
151.5539513718409
 20
81.13068857240866
 30
0.0
 11
151.5539513718409
 21
79.13068857240864
 31
0.0
  0
LINE
  5
1A7B
330
A
100
AcDbEntity
  8
03
100
AcDbLine
 10
145.7539513718409
 20
71.13068857240866
 30
0.0
 11
44.34328191818235
 21
71.13068857240875
 31
0.0
  0
LINE
  5
1A7C
330
A
100
AcDbEntity
  8
KAKURE
100
AcDbLine
 10
59.25395137184104
 20
71.13068857240875
 30
0.0
 11
59.25395137184104
 21
41.13068857240874
 31
0.0
  0
LINE
  5
1A7D
330
A
100
AcDbEntity
  8
KAKURE
100
AcDbLine
 10
65.25395137184085
 20
71.1306885724087
 30
0.0
 11
65.25395137184085
 21
41.13068857240871
 31
0.0
  0
LINE
  5
1A7E
330
A
100
AcDbEntity
  8
KAKURE
100
AcDbLine
 10
148.081856990977
 20
45.3306885724088
 30
0.0
 11
138.745809800545
 21
29.16018049671992
 31
0.0
  0
LINE
  5
1A7F
330
A
100
AcDbEntity
  8
KAKURE
100
AcDbLine
 10
136.7539513718408
 20
30.3101804967199
 30
0.0
 11
145.8301909411374
 21
46.03068857240862
 31
0.0
  0
LINE
  5
1A80
330
A
100
AcDbEntity
  8
KAKURE
100
AcDbLine
 10
136.7539513718408
 20
30.3101804967199
 30
0.0
 11
138.745809800545
 21
29.16018049671992
 31
0.0
  0
LINE
  5
1A81
330
A
100
AcDbEntity
  8
KAKURE
100
AcDbLine
 10
139.253951371841
 20
71.13068857240866
 30
0.0
 11
139.253951371841
 21
41.13068857240864
 31
0.0
  0
LINE
  5
1A82
330
A
100
AcDbEntity
  8
03
100
AcDbLine
 10
145.7539513718409
 20
74.13068857240864
 30
0.0
 11
145.7539513718409
 21
49.13068857240864
 31
0.0
  0
LINE
  5
1A83
330
A
100
AcDbEntity
  8
03
100
AcDbLine
 10
148.7539513718409
 20
74.13068857240864
 30
0.0
 11
148.7539513718409
 21
49.13068857240864
 31
0.0
  0
LINE
  5
1A84
330
A
100
AcDbEntity
  8
03
100
AcDbLine
 10
144.253951371841
 20
48.63068857240875
 30
0.0
 11
144.253951371841
 21
62.63068857240863
 31
0.0
  0
ARC
  5
1A85
330
A
100
AcDbEntity
  8
03
100
AcDbCircle
 10
145.253951371841
 20
48.63068857240875
 30
0.0
 40
1.0
100
AcDbArc
 50
179.9999999999479
 51
270.0
  0
ARC
  5
1A86
330
A
100
AcDbEntity
  8
KAKURE
100
AcDbCircle
 10
148.6014722332476
 20
44.43068857240871
 30
0.0
 40
3.2
100
AcDbArc
 50
90.0
 51
149.9999999999993
  0
LINE
  5
1A87
330
A
100
AcDbEntity
  8
03
100
AcDbLine
 10
145.7539513718409
 20
62.63068857240863
 30
0.0
 11
144.253951371841
 21
62.63068857240863
 31
0.0
  0
LINE
  5
1A88
330
A
100
AcDbEntity
  8
03
100
AcDbLine
 10
145.7539513718409
 20
74.13068857240864
 30
0.0
 11
148.7539513718409
 21
74.13068857240864
 31
0.0
  0
ARC
  5
1A89
330
A
100
AcDbEntity
  8
03
100
AcDbCircle
 10
162.9207976429078
 20
57.06098206890988
 30
0.0
 40
1.483131194015234
100
AcDbArc
 50
290.1015819661938
 51
357.0000000000008
  0
ARC
  5
1A8A
330
A
100
AcDbEntity
  8
03
100
AcDbCircle
 10
155.587105100774
 20
57.06098206890988
 30
0.0
 40
1.483131194015234
100
AcDbArc
 50
182.9999999999991
 51
249.8984180338061
  0
ARC
  5
1A8B
330
A
100
AcDbEntity
  8
03
100
AcDbCircle
 10
159.2539513718406
 20
69.03068857240874
 30
0.0
 40
14.0
100
AcDbArc
 50
252.6428571428557
 51
287.3571428571441
  0
LINE
  5
1A92
330
A
100
AcDbEntity
  8
03
100
AcDbLine
 10
163.5605756988669
 20
75.53068857240873
 30
0.0
 11
154.9473270448151
 21
75.53068857240873
 31
0.0
  0
LINE
  5
1A93
330
A
100
AcDbEntity
  8
03
100
AcDbLine
 10
163.5605756988669
 20
79.13068857240864
 30
0.0
 11
154.9473270448151
 21
79.13068857240864
 31
0.0
  0
LINE
  5
1A94
330
A
100
AcDbEntity
  8
03
100
AcDbLine
 10
149.7539513718409
 20
60.53068857240872
 30
0.0
 11
149.7539513718409
 21
75.53068857240873
 31
0.0
  0
LINE
  5
1A95
330
A
100
AcDbEntity
  8
03
100
AcDbLine
 10
154.0039513718406
 20
58.93068857240883
 30
0.0
 11
151.5039513718408
 21
58.93068857240871
 31
0.0
  0
LINE
  5
1A96
330
A
100
AcDbEntity
  8
03
100
AcDbLine
 10
149.7539513718409
 20
60.53068857240872
 30
0.0
 11
151.5039513718408
 21
60.53068857240872
 31
0.0
  0
LINE
  5
1A97
330
A
100
AcDbEntity
  8
03
100
AcDbLine
 10
151.5039513718408
 20
60.53068857240872
 30
0.0
 11
151.5039513718408
 21
58.93068857240871
 31
0.0
  0
LINE
  5
1A98
330
A
100
AcDbEntity
  8
03
100
AcDbLine
 10
154.0039513718406
 20
58.93068857240883
 30
0.0
 11
154.1060064865146
 21
56.98336097963738
 31
0.0
  0
LINE
  5
1A9E
330
A
100
AcDbEntity
  8
03
100
AcDbLine
 10
153.503951371841
 20
78.63994084359752
 30
0.0
 11
153.503951371841
 21
76.02143630121986
 31
0.0
  0
LINE
  5
1A9F
330
A
100
AcDbEntity
  8
03
100
AcDbLine
 10
164.5039513718406
 20
58.93068857240883
 30
0.0
 11
164.4018962571671
 21
56.98336097963738
 31
0.0
  0
LINE
  5
1AA5
330
A
100
AcDbEntity
  8
03
100
AcDbLine
 10
165.003951371841
 20
78.63994084359752
 30
0.0
 11
165.003951371841
 21
76.02143630121986
 31
0.0
  0
LINE
  5
1AA6
330
A
100
AcDbEntity
  8
03
100
AcDbLine
 10
145.253951371841
 20
93.47458674216737
 30
0.0
 11
145.253951371841
 21
81.13068857240866
 31
0.0
  0
DIMENSION
  5
1AA7
330
A
100
AcDbEntity
  8
SUNPOU
100
AcDbDimension
  2
*D26
 10
224.3548697651438
 20
71.13068857240866
 30
0.0
 11
218.6412922210112
 21
68.69857314951946
 31
0.0
 70
   160
  3
SUNPOU_1_5
100
AcDbAlignedDimension
 13
172.753951371841
 23
74.13068857240867
 33
0.0
 14
172.753951371841
 24
71.13068857240867
 34
0.0
 50
90.0
100
AcDbRotatedDimension
  0
DIMENSION
  5
1AA8
330
A
100
AcDbEntity
  8
SUNPOU
100
AcDbDimension
  2
*D27
 10
263.9737335755344
 20
71.13068857240866
 30
0.0
 11
259.9490317173124
 21
76.04581343565723
 31
0.0
 70
   160
  3
SUNPOU_1_5
100
AcDbAlignedDimension
 13
173.2539513718408
 23
81.13068857240866
 33
0.0
 14
275.1258516941821
 24
71.13068857240866
 34
0.0
 50
90.0
100
AcDbRotatedDimension
  0
LINE
  5
1AA9
330
A
100
AcDbEntity
  8
03
100
AcDbLine
 10
249.2539513718409
 20
93.47458674216737
 30
0.0
 11
249.2539513718409
 21
71.13068857240875
 31
0.0
  0
LINE
  5
1AAA
330
A
100
AcDbEntity
  8
03
100
AcDbLine
 10
166.9539513718408
 20
81.13068857240866
 30
0.0
 11
166.9539513718408
 21
79.13068857240864
 31
0.0
  0
DIMENSION
  5
1AAB
330
A
100
AcDbEntity
  8
SUNPOU
100
AcDbDimension
  2
*D28
 10
235.5728699168706
 20
49.13068857240858
 30
0.0
 11
232.1978699168706
 21
61.63068857240865
 31
0.0
 70
    32
  3
SUNPOU_1_5
100
AcDbAlignedDimension
 13
172.753951371841
 23
74.13068857240867
 33
0.0
 14
172.753951371841
 24
49.13068857240862
 34
0.0
 50
90.0
100
AcDbRotatedDimension
  0
LINE
  5
1AAC
330
A
100
AcDbEntity
  8
03
100
AcDbLine
 10
281.5252046268978
 20
71.13068857240866
 30
0.0
 11
172.753951371841
 21
71.13068857240866
 31
0.0
  0
MTEXT
  5
1AAD
330
A
100
AcDbEntity
  8
HIKIDASI
100
AcDbMText
 10
181.3951300212049
 20
56.80642724041735
 30
0.0
 40
4.0
 41
0.0
 71
     7
 72
     1
  1
FB-25×3
  7
SUNPOU
1001
ACAD
1000
MTEXTBEGIN
1070
    73
1070
     1
1070
    44
1040
1.0
1070
    74
1070
     0
1000
MTEXTEND
1000
MTEXTBEGIN
1070
    73
1070
     1
1070
    44
1040
1.0
1070
    74
1070
     0
1000
MTEXTEND
  0
LEADER
  5
1AAE
330
A
100
AcDbEntity
  8
HIKIDASI
100
AcDbLeader
  3
SUNPOU_1_5
 73
     0
 74
     0
 75
     1
 40
4.0
 41
21.97333333333332
 76
     3
 10
172.753951371841
 20
66.84377523472313
 30
0.0
 10
182.0143554318424
 20
55.30642724041735
 30
0.0
 10
185.7643554318424
 20
55.30642724041735
 30
0.0
340
1AAD
213
5.869225410637369
223
0.0
233
0.0
1001
ACAD
1000
DSTYLE
1002
{
1070
     5
1000
OPEN30
1070
    77
1070
     1
1070
   147
1040
1.0
1070
   342
1005
11DD
1002
}
1000
LEANOF
1010
5.869225410637369
1020
0.0
1030
0.0
1000
LEANOF
1010
5.869225410637369
1020
0.0
1030
0.0
  0
LINE
  5
1AB0
330
A
100
AcDbEntity
  8
KAKURE
100
AcDbLine
 10
170.4260457527045
 20
45.3306885724088
 30
0.0
 11
179.7620929431366
 21
29.16018049671992
 31
0.0
  0
LINE
  5
1AB1
330
A
100
AcDbEntity
  8
KAKURE
100
AcDbLine
 10
181.753951371841
 20
30.3101804967199
 30
0.0
 11
172.6777118025443
 21
46.03068857240862
 31
0.0
  0
LINE
  5
1AB2
330
A
100
AcDbEntity
  8
KAKURE
100
AcDbLine
 10
181.753951371841
 20
30.3101804967199
 30
0.0
 11
179.7620929431366
 21
29.16018049671992
 31
0.0
  0
LINE
  5
1AB3
330
A
100
AcDbEntity
  8
03
100
AcDbLine
 10
172.753951371841
 20
74.13068857240864
 30
0.0
 11
172.753951371841
 21
49.13068857240864
 31
0.0
  0
LINE
  5
1AB4
330
A
100
AcDbEntity
  8
03
100
AcDbLine
 10
169.7539513718409
 20
74.13068857240864
 30
0.0
 11
169.7539513718409
 21
49.13068857240864
 31
0.0
  0
LINE
  5
1AB5
330
A
100
AcDbEntity
  8
03
100
AcDbLine
 10
174.253951371841
 20
48.63068857240875
 30
0.0
 11
174.253951371841
 21
62.63068857240863
 31
0.0
  0
ARC
  5
1AB6
330
A
100
AcDbEntity
  8
03
100
AcDbCircle
 10
173.253951371841
 20
48.63068857240875
 30
0.0
 40
1.0
100
AcDbArc
 50
270.0
 51
359.9999999999837
  0
ARC
  5
1AB7
330
A
100
AcDbEntity
  8
KAKURE
100
AcDbCircle
 10
169.9064305104341
 20
44.43068857240871
 30
0.0
 40
3.2
100
AcDbArc
 50
29.99999999999972
 51
90.0
  0
LINE
  5
1AB8
330
A
100
AcDbEntity
  8
03
100
AcDbLine
 10
174.253951371841
 20
62.63068857240863
 30
0.0
 11
172.753951371841
 21
62.63068857240863
 31
0.0
  0
LINE
  5
1AB9
330
A
100
AcDbEntity
  8
03
100
AcDbLine
 10
168.7539513718409
 20
60.53068857240872
 30
0.0
 11
168.7539513718409
 21
75.53068857240873
 31
0.0
  0
LINE
  5
1ABA
330
A
100
AcDbEntity
  8
03
100
AcDbLine
 10
168.7539513718409
 20
60.53068857240872
 30
0.0
 11
167.0039513718408
 21
60.53068857240872
 31
0.0
  0
LINE
  5
1ABB
330
A
100
AcDbEntity
  8
03
100
AcDbLine
 10
167.0039513718408
 20
60.53068857240872
 30
0.0
 11
167.0039513718408
 21
58.93068857240871
 31
0.0
  0
LINE
  5
1ABC
330
A
100
AcDbEntity
  8
03
100
AcDbLine
 10
169.7539513718409
 20
74.13068857240864
 30
0.0
 11
172.753951371841
 21
74.13068857240864
 31
0.0
  0
LINE
  5
1ABD
330
A
100
AcDbEntity
  8
KAKURE
100
AcDbLine
 10
249.2539513718409
 20
71.13068857240866
 30
0.0
 11
249.2539513718408
 21
41.13068857240871
 31
0.0
  0
LINE
  5
1ABE
330
A
100
AcDbEntity
  8
03
100
AcDbLine
 10
173.253951371841
 20
81.13068857240866
 30
0.0
 11
173.253951371841
 21
93.47458674216737
 31
0.0
  0
DIMENSION
  5
1ABF
330
A
100
AcDbEntity
  8
SUNPOU
100
AcDbDimension
  2
*D29
 10
275.1258516941821
 20
71.13068857240866
 30
0.0
 11
271.4055570591107
 21
106.5958974761805
 31
0.0
 70
   160
  1
H
  3
SUNPOU_1_5
100
AcDbAlignedDimension
 13
244.253951371841
 23
139.3018236802265
 33
0.0
 14
233.2170237499797
 24
71.13068857240866
 34
0.0
 50
90.0
100
AcDbRotatedDimension
  0
DIMENSION
  5
1AC0
330
A
100
AcDbEntity
  8
SUNPOU
100
AcDbDimension
  2
*D30
 10
263.9737335755344
 20
81.13068857240863
 30
0.0
 11
259.715225525645
 21
105.6611160527631
 31
0.0
 70
   160
  1
DH
  3
SUNPOU_1_5
100
AcDbAlignedDimension
 13
173.253951371841
 23
136.3018236802265
 33
0.0
 14
173.2539513718408
 24
81.13068857240866
 34
0.0
 50
90.0
100
AcDbRotatedDimension
  0
LEADER
  5
1AC1
330
A
100
AcDbEntity
  8
HIKIDASI
100
AcDbLeader
  3
SUNPOU_1_5
 73
     0
 74
     0
 40
10.66666666666666
 41
12.8
 76
     2
 10
159.2694876765571
 20
87.27092186748278
 30
0.0
 10
204.9566762081428
 20
87.32262064696943
 30
0.0
340
1AC2
211
1.0
221
0.0000000000000016
231
0.0
213
-0.0000000000000197
223
6.885032112819898
233
0.0
1001
ACAD
1000
DSTYLE
1002
{
1070
     5
1000
OPEN30
1070
    77
1070
     1
1070
   147
1040
1.0
1070
   342
1005
11DD
1002
}
1000
LEANOF
1010
-0.0000000000000197
1020
6.885032112819898
1030
0.0
1000
LEANOF
1010
-0.0000000000000197
1020
6.885032112819898
1030
0.0
  0
MTEXT
  5
1AC2
330
A
100
AcDbEntity
  8
HIKIDASI
100
AcDbMText
 10
206.4566762081428
 20
87.27092186748285
 30
0.0
 40
4.0
 41
0.0
 71
     4
 72
     1
  1
1200R\P1500R
  7
SUNPOU
1001
ACAD
1000
MTEXTBEGIN
1070
    73
1070
     1
1070
    44
1040
1.0
1070
    74
1070
     0
1000
MTEXTEND
1000
MTEXTBEGIN
1070
    73
1070
     1
1070
    44
1040
1.0
1070
    74
1070
     0
1000
MTEXTEND
  0
LINE
  5
1AC3
330
A
100
AcDbEntity
  8
SAISEN
100
AcDbLine
 10
51.25395137184093
 20
98.47458674216738
 30
0.0
 11
257.3673978093065
 21
98.47458674216738
 31
0.0
  0
ARC
  5
1D37
330
A
100
AcDbEntity
  8
04
100
AcDbCircle
 10
149.6219365200319
 20
237.6084497537723
 30
0.0
 40
2.367985148190983
100
AcDbArc
 50
142.443933555109
 51
142.4439335551095
  0
ARC
  5
1D39
330
A
100
AcDbEntity
  8
04
100
AcDbCircle
 10
149.6219365200319
 20
228.9952010997206
 30
0.0
 40
2.367985148190983
100
AcDbArc
 50
180.0
 51
217.5560664448908
  0
ARC
  5
1D3B
330
A
100
AcDbEntity
  8
04
100
AcDbCircle
 10
149.6219365200319
 20
228.9952010997206
 30
0.0
 40
2.367985148190983
100
AcDbArc
 50
217.5560664448901
 51
217.5560664448908
  0
LINE
  5
1D70
330
A
100
AcDbEntity
  8
04
  6
CONTINUOUS
100
AcDbLine
 10
182.2539513718409
 20
168.7962736802266
 30
0.0
 11
182.2539513718409
 21
168.6018236802266
 31
0.0
  0
LINE
  5
1D71
330
A
100
AcDbEntity
  8
04
  6
CONTINUOUS
100
AcDbLine
 10
182.2539513718409
 20
197.001823679156
 30
0.0
 11
182.2539513718409
 21
196.8073736791559
 31
0.0
  0
LINE
  5
1D7B
330
A
100
AcDbEntity
  8
04
  6
CONTINUOUS
100
AcDbLine
 10
147.753951371841
 20
155.3018236802266
 30
0.0
 11
175.7539513718409
 21
155.3018236802266
 31
0.0
  0
LINE
  5
1D87
330
A
100
AcDbEntity
  8
04
  6
CONTINUOUS
100
AcDbLine
 10
155.753951371841
 20
173.8018236802265
 30
0.0
 11
154.2539513718409
 21
173.8018236802265
 31
0.0
  0
LINE
  5
1DA4
330
A
100
AcDbEntity
  8
CHUSIN
100
AcDbLine
 10
159.2539513718409
 20
100.6188543511375
 30
0.0
 11
159.2539513718409
 21
43.07863988036888
 31
0.0
  0
LINE
  5
207C
330
A
100
AcDbEntity
  8
04
  6
CONTINUOUS
100
AcDbLine
 10
160.8539613302454
 20
201.3018329944549
 30
0.0
 11
160.8540413869377
 21
199.8073921796416
 31
0.0
  0
LINE
  5
207D
330
A
100
AcDbEntity
  8
04
  6
CONTINUOUS
100
AcDbLine
 10
160.8538824451278
 20
183.3018190813021
 30
0.0
 11
160.8538991328716
 21
184.7962043506381
 31
0.0
  0
LINE
  5
207E
330
A
100
AcDbEntity
  8
04
  6
CONTINUOUS
100
AcDbLine
 10
184.5539513718408
 20
222.8018254267466
 30
0.0
 11
184.5539513718413
 21
224.3018254267465
 31
0.0
  0
LINE
  5
207F
330
A
100
AcDbEntity
  8
04
  6
CONTINUOUS
100
AcDbLine
 10
182.753951371841
 20
221.3018254267461
 30
0.0
 11
182.753951371841
 21
222.8018254267466
 31
0.0
  0
LINE
  5
2080
330
A
100
AcDbEntity
  8
04
  6
CONTINUOUS
100
AcDbLine
 10
182.7539513718408
 20
243.8018254267466
 30
0.0
 11
182.7539513718408
 21
245.3018254267465
 31
0.0
  0
ARC
  5
2083
330
A
100
AcDbEntity
  8
KAKURE
100
AcDbCircle
 10
122.18596622365
 20
218.6084480072525
 30
0.0
 40
2.367985148190982
100
AcDbArc
 50
0.0
 51
37.55606644489123
  0
LINE
  5
2086
330
A
100
AcDbEntity
  8
KAKURE
  6
CONTINUOUS
100
AcDbLine
 10
119.053951371841
 20
208.0518236802265
 30
0.0
 11
119.053951371841
 21
208.2018236802265
 31
0.0
  0
LINE
  5
2087
330
A
100
AcDbEntity
  8
KAKURE
  6
CONTINUOUS
100
AcDbLine
 10
120.5539513718409
 20
208.2018236802265
 30
0.0
 11
120.5539513718409
 21
208.5518236802265
 31
0.0
  0
LINE
  5
2089
330
A
100
AcDbEntity
  8
KAKURE
  6
CONTINUOUS
100
AcDbLine
 10
119.053951371841
 20
220.4018236802265
 30
0.0
 11
119.053951371841
 21
220.5518236802265
 31
0.0
  0
LINE
  5
208A
330
A
100
AcDbEntity
  8
KAKURE
  6
CONTINUOUS
100
AcDbLine
 10
120.5539513718409
 20
220.0518236802265
 30
0.0
 11
120.5539513718409
 21
220.4018236802265
 31
0.0
  0
LINE
  5
225F
330
A
100
AcDbEntity
  8
04
  6
CONTINUOUS
100
AcDbLine
 10
150.2539438041328
 20
161.401833638631
 30
0.0
 11
151.7539478648712
 21
161.4019030257435
 31
0.0
  0
LINE
  5
2260
330
A
100
AcDbEntity
  8
04
  6
CONTINUOUS
100
AcDbLine
 10
166.7539478637177
 20
161.4017714905791
 30
0.0
 11
168.2539577173199
 21
161.4017588291824
 31
0.0
  0
CIRCLE
  5
2294
330
A
100
AcDbEntity
  8
SAISEN
100
AcDbCircle
 10
48.32897554979786
 20
386.0131640478251
 30
0.0
 40
3.720341695781723
  0
ARC
  5
2305
330
A
100
AcDbEntity
  8
03
100
AcDbCircle
 10
163.5605756988669
 20
76.76270342421776
 30
0.0
 40
2.367985148190961
100
AcDbArc
 50
52.44393355510965
 51
90.0
  0
ARC
  5
2306
330
A
100
AcDbEntity
  8
03
100
AcDbCircle
 10
163.5605756988669
 20
77.89867372059962
 30
0.0
 40
2.36798514819097
100
AcDbArc
 50
270.0000000000061
 51
307.5560664448903
  0
ARC
  5
2307
330
A
100
AcDbEntity
  8
03
100
AcDbCircle
 10
154.9473270448151
 20
76.76270342421776
 30
0.0
 40
2.36798514819097
100
AcDbArc
 50
90.0
 51
127.5560664448903
  0
ARC
  5
2308
330
A
100
AcDbEntity
  8
03
100
AcDbCircle
 10
154.9473270448151
 20
77.89867372059962
 30
0.0
 40
2.367985148190961
100
AcDbArc
 50
232.4439335551096
 51
270.0
  0
LINE
  5
2333
330
A
100
AcDbEntity
  8
06
  6
CONTINUOUS
100
AcDbLine
 10
183.7539513718416
 20
362.1019247707578
 30
0.0
 11
183.7539513718416
 21
362.9019247707578
 31
0.0
  0
LINE
  5
2334
330
A
100
AcDbEntity
  8
06
  6
CONTINUOUS
100
AcDbLine
 10
136.2539513718417
 20
362.9019247707578
 30
0.0
 11
136.2539513718417
 21
362.1019247707578
 31
0.0
  0
LINE
  5
2335
330
A
100
AcDbEntity
  8
06
  6
CONTINUOUS
100
AcDbLine
 10
125.553951371841
 20
360.1019247707578
 30
0.0
 11
124.253951371841
 21
360.1019247707578
 31
0.0
  0
LINE
  5
2336
330
A
100
AcDbEntity
  8
06
  6
CONTINUOUS
100
AcDbLine
 10
130.953951371841
 20
360.1019247707578
 30
0.0
 11
132.253951371841
 21
360.1019247707578
 31
0.0
  0
LINE
  5
2337
330
A
100
AcDbEntity
  8
06
  6
CONTINUOUS
100
AcDbLine
 10
177.5539513718408
 20
360.1019247707578
 30
0.0
 11
176.2539513718408
 21
360.1019247707578
 31
0.0
  0
LINE
  5
2338
330
A
100
AcDbEntity
  8
06
  6
CONTINUOUS
100
AcDbLine
 10
182.9539513718408
 20
360.1019247707578
 30
0.0
 11
184.2539513718408
 21
360.1019247707578
 31
0.0
  0
LINE
  5
2E44
330
A
100
AcDbEntity
  8
02
  6
CONTINUOUS
100
AcDbLine
 10
72.25395137184111
 20
201.3018236802265
 30
0.0
 11
72.25395137184111
 21
151.3018236802265
 31
0.0
  0
LINE
  5
2E45
330
A
100
AcDbEntity
  8
02
  6
CONTINUOUS
100
AcDbLine
 10
72.25395137184111
 20
151.3018236802265
 30
0.0
 11
122.253951371841
 21
151.3018236802265
 31
0.0
  0
LINE
  5
2E46
330
A
100
AcDbEntity
  8
03
100
AcDbLine
 10
139.2539513718409
 20
151.3018236802266
 30
0.0
 11
139.253951371841
 21
139.3018236802267
 31
0.0
  0
LINE
  5
2E47
330
A
100
AcDbEntity
  8
03
100
AcDbLine
 10
114.2539513718409
 20
139.3018236802265
 30
0.0
 11
139.253951371841
 21
139.3018236802267
 31
0.0
  0
LINE
  5
2E48
330
A
100
AcDbEntity
  8
03
  6
CONTINUOUS
100
AcDbLine
 10
139.2539513718409
 20
151.3018236802266
 30
0.0
 11
114.2539513718409
 21
151.3018236802265
 31
0.0
  0
LINE
  5
2E4B
330
A
100
AcDbEntity
  8
03
  6
CONTINUOUS
100
AcDbLine
 10
96.25395137184099
 20
139.3018236802265
 30
0.0
 11
64.25395137184094
 21
139.3018236802265
 31
0.0
  0
LINE
  5
2E4C
330
A
100
AcDbEntity
  8
03
  6
CONTINUOUS
100
AcDbLine
 10
64.25395137184094
 20
139.3018236802265
 30
0.0
 11
64.25395137184094
 21
151.3018236802265
 31
0.0
  0
LINE
  5
2E4D
330
A
100
AcDbEntity
  8
03
  6
CONTINUOUS
100
AcDbLine
 10
64.25395137184094
 20
151.3018236802265
 30
0.0
 11
69.25395137184108
 21
151.3018236802265
 31
0.0
  0
LINE
  5
2E4E
330
A
100
AcDbEntity
  8
03
  6
CONTINUOUS
100
AcDbLine
 10
96.25395137184094
 20
151.3018236802265
 30
0.0
 11
96.25395137184099
 21
139.3018236802265
 31
0.0
  0
LINE
  5
2E4F
330
A
100
AcDbEntity
  8
03
  6
CONTINUOUS
100
AcDbLine
 10
69.25395137184108
 20
151.3018236802265
 30
0.0
 11
69.25395137184108
 21
146.3018236802265
 31
0.0
  0
LINE
  5
2E50
330
A
100
AcDbEntity
  8
03
  6
CONTINUOUS
100
AcDbLine
 10
69.25395137184108
 20
146.3018236802265
 30
0.0
 11
72.25395137184111
 21
146.3018236802265
 31
0.0
  0
LINE
  5
2E51
330
A
100
AcDbEntity
  8
02
  6
CONTINUOUS
100
AcDbLine
 10
72.25395137184111
 20
151.3018236802265
 30
0.0
 11
96.25395137184094
 21
151.3018236802265
 31
0.0
  0
LINE
  5
2E5B
330
A
100
AcDbEntity
  8
03
100
AcDbLine
 10
70.75395137184108
 20
146.3018236802265
 30
0.0
 11
70.75395137184108
 21
392.2018236802266
 31
0.0
  0
LINE
  5
2E5E
330
A
100
AcDbEntity
  8
03
  6
CONTINUOUS
100
AcDbLine
 10
69.25395137184108
 20
392.2018236802266
 30
0.0
 11
72.25395137184108
 21
392.2018236802266
 31
0.0
  0
LINE
  5
2E70
330
A
100
AcDbEntity
  8
02
100
AcDbLine
 10
239.253951371841
 20
151.3018236802265
 30
0.0
 11
209.2539513718409
 21
151.3018236802265
 31
0.0
  0
ARC
  5
2E71
330
A
100
AcDbEntity
  8
02
100
AcDbCircle
 10
212.253951371841
 20
153.3018236802266
 30
0.0
 40
3.0
100
AcDbArc
 50
90.0
 51
180.0
  0
LINE
  5
2E72
330
A
100
AcDbEntity
  8
02
100
AcDbLine
 10
209.2539513718409
 20
151.3018236802265
 30
0.0
 11
209.2539513718409
 21
153.3018236802266
 31
0.0
  0
LINE
  5
2E74
330
A
100
AcDbEntity
  8
02
100
AcDbLine
 10
212.253951371841
 20
156.3018236802266
 30
0.0
 11
230.2539513718409
 21
156.3018236802266
 31
0.0
  0
ARC
  5
2E76
330
A
100
AcDbEntity
  8
02
100
AcDbCircle
 10
230.2539513718409
 20
160.3018236802265
 30
0.0
 40
4.0
100
AcDbArc
 50
270.0
 51
0.0
  0
LINE
  5
2E77
330
A
100
AcDbEntity
  8
02
100
AcDbLine
 10
234.2539513718409
 20
160.3018236802265
 30
0.0
 11
234.2539513718409
 21
178.3018236802266
 31
0.0
  0
ARC
  5
2E7B
330
A
100
AcDbEntity
  8
02
100
AcDbCircle
 10
237.253951371841
 20
178.3018236802266
 30
0.0
 40
3.0
100
AcDbArc
 50
90.0
 51
180.0
  0
LINE
  5
2E7C
330
A
100
AcDbEntity
  8
02
100
AcDbLine
 10
237.253951371841
 20
181.3018236802266
 30
0.0
 11
239.253951371841
 21
181.3018236802266
 31
0.0
  0
LINE
  5
2E7D
330
A
100
AcDbEntity
  8
02
100
AcDbLine
 10
239.253951371841
 20
181.3018236802266
 30
0.0
 11
239.253951371841
 21
151.3018236802265
 31
0.0
  0
LINE
  5
2E8C
330
A
100
AcDbEntity
  8
02
100
AcDbLine
 10
209.2539513718409
 20
387.3018236802266
 30
0.0
 11
209.2539513718409
 21
385.3018236802266
 31
0.0
  0
LINE
  5
2E8E
330
A
100
AcDbEntity
  8
02
100
AcDbLine
 10
239.253951371841
 20
357.3018236802266
 30
0.0
 11
239.253951371841
 21
387.3018236802266
 31
0.0
  0
LINE
  5
2E8F
330
A
100
AcDbEntity
  8
02
100
AcDbLine
 10
239.253951371841
 20
387.3018236802266
 30
0.0
 11
209.2539513718409
 21
387.3018236802266
 31
0.0
  0
ARC
  5
2E90
330
A
100
AcDbEntity
  8
02
100
AcDbCircle
 10
230.2539513718409
 20
378.3018236802266
 30
0.0
 40
4.0
100
AcDbArc
 50
0.0
 51
90.00000000000005
  0
LINE
  5
2E91
330
A
100
AcDbEntity
  8
02
100
AcDbLine
 10
212.253951371841
 20
382.3018236802266
 30
0.0
 11
230.2539513718409
 21
382.3018236802266
 31
0.0
  0
ARC
  5
2E92
330
A
100
AcDbEntity
  8
02
100
AcDbCircle
 10
212.253951371841
 20
385.3018236802266
 30
0.0
 40
3.0
100
AcDbArc
 50
180.0
 51
270.0
  0
LINE
  5
2E94
330
A
100
AcDbEntity
  8
02
100
AcDbLine
 10
234.2539513718409
 20
378.3018236802266
 30
0.0
 11
234.2539513718409
 21
360.3018236802266
 31
0.0
  0
ARC
  5
2E96
330
A
100
AcDbEntity
  8
02
100
AcDbCircle
 10
237.253951371841
 20
360.3018236802266
 30
0.0
 40
3.0
100
AcDbArc
 50
180.0
 51
270.0
  0
LINE
  5
2E97
330
A
100
AcDbEntity
  8
02
100
AcDbLine
 10
237.253951371841
 20
357.3018236802266
 30
0.0
 11
239.253951371841
 21
357.3018236802266
 31
0.0
  0
LINE
  5
2E98
330
A
100
AcDbEntity
  8
03
  6
CONTINUOUS
100
AcDbLine
 10
234.2539513718409
 20
376.2018236802266
 30
0.0
 11
229.753951371841
 21
376.2018236802266
 31
0.0
  0
LINE
  5
2E99
330
A
100
AcDbEntity
  8
03
100
AcDbLine
 10
239.253951371841
 20
152.3018236802266
 30
0.0
 11
241.553951371841
 21
152.3018236802266
 31
0.0
  0
LINE
  5
2E9A
330
A
100
AcDbEntity
  8
02
  6
CONTINUOUS
100
AcDbLine
 10
239.253951371841
 20
152.3018236802266
 30
0.0
 11
239.253951371841
 21
152.3018236802266
 31
0.0
  0
LINE
  5
2E9B
330
A
100
AcDbEntity
  8
03
  6
CONTINUOUS
100
AcDbLine
 10
239.253951371841
 20
152.3018236802266
 30
0.0
 11
239.253951371841
 21
386.3018236802266
 31
0.0
  0
LINE
  5
2E9C
330
A
100
AcDbEntity
  8
03
  6
CONTINUOUS
100
AcDbLine
 10
239.253951371841
 20
386.3018236802266
 30
0.0
 11
241.553951371841
 21
386.3018236802266
 31
0.0
  0
LINE
  5
2E9D
330
A
100
AcDbEntity
  8
03
  6
CONTINUOUS
100
AcDbLine
 10
241.553951371841
 20
386.3018236802266
 30
0.0
 11
241.553951371841
 21
152.3018236802266
 31
0.0
  0
LINE
  5
2EA0
330
A
100
AcDbEntity
  8
03
  6
CONTINUOUS
100
AcDbLine
 10
64.25395137184108
 20
387.3018236802266
 30
0.0
 11
69.25395137184108
 21
387.3018236802266
 31
0.0
  0
LINE
  5
2EA1
330
A
100
AcDbEntity
  8
03
  6
CONTINUOUS
100
AcDbLine
 10
89.25395137184109
 20
387.3018236802266
 30
0.0
 11
89.25395137184109
 21
399.3018236802266
 31
0.0
  0
LINE
  5
2EA2
330
A
100
AcDbEntity
  8
03
  6
CONTINUOUS
100
AcDbLine
 10
89.25395137184109
 20
399.3018236802266
 30
0.0
 11
59.25395137184114
 21
399.3018236802268
 31
0.0
  0
LINE
  5
2EA3
330
A
100
AcDbEntity
  8
03
  6
CONTINUOUS
100
AcDbLine
 10
64.25395137184108
 20
399.3018236802266
 30
0.0
 11
64.25395137184108
 21
387.3018236802266
 31
0.0
  0
LINE
  5
2EA4
330
A
100
AcDbEntity
  8
03
  6
CONTINUOUS
100
AcDbLine
 10
72.25395137184111
 20
387.3018236802266
 30
0.0
 11
89.25395137184109
 21
387.3018236802266
 31
0.0
  0
LINE
  5
2EA5
330
A
100
AcDbEntity
  8
03
  6
CONTINUOUS
100
AcDbLine
 10
114.2539513718409
 20
151.3018236802265
 30
0.0
 11
114.2539513718409
 21
139.3018236802265
 31
0.0
  0
LINE
  5
2EA6
330
A
100
AcDbEntity
  8
03
  6
CONTINUOUS
100
AcDbLine
 10
219.253951371841
 20
387.3018236802266
 30
0.0
 11
244.253951371841
 21
387.3018236802266
 31
0.0
  0
LINE
  5
2EA7
330
A
100
AcDbEntity
  8
03
  6
CONTINUOUS
100
AcDbLine
 10
244.253951371841
 20
387.3018236802266
 30
0.0
 11
244.253951371841
 21
399.3018236802266
 31
0.0
  0
LINE
  5
2EA8
330
A
100
AcDbEntity
  8
03
  6
CONTINUOUS
100
AcDbLine
 10
249.253951371841
 20
399.3018236802266
 30
0.0
 11
219.253951371841
 21
399.3018236802266
 31
0.0
  0
LINE
  5
2EA9
330
A
100
AcDbEntity
  8
03
  6
CONTINUOUS
100
AcDbLine
 10
219.253951371841
 20
399.3018236802266
 30
0.0
 11
219.253951371841
 21
387.3018236802266
 31
0.0
  0
POLYLINE
  5
2EAA
330
A
100
AcDbEntity
  8
03
  6
CONTINUOUS
100
AcDb2dPolyline
 66
     1
 10
0.0
 20
0.0
 30
0.0
 70
     1
  0
VERTEX
  5
3E90
330
2EAA
100
AcDbEntity
  8
03
  6
CONTINUOUS
100
AcDbVertex
100
AcDb2dVertex
 10
219.253951371841
 20
387.3018236802266
 30
0.0
  0
VERTEX
  5
3E91
330
2EAA
100
AcDbEntity
  8
03
  6
CONTINUOUS
100
AcDbVertex
100
AcDb2dVertex
 10
209.253951371841
 20
387.3018236802266
 30
0.0
  0
VERTEX
  5
3E92
330
2EAA
100
AcDbEntity
  8
03
  6
CONTINUOUS
100
AcDbVertex
100
AcDb2dVertex
 10
209.253951371841
 20
397.3018236802266
 30
0.0
  0
VERTEX
  5
3E93
330
2EAA
100
AcDbEntity
  8
03
  6
CONTINUOUS
100
AcDbVertex
100
AcDb2dVertex
 10
219.253951371841
 20
397.3018236802266
 30
0.0
  0
SEQEND
  5
3E94
330
2EAA
100
AcDbEntity
  8
03
  6
CONTINUOUS
  0
LINE
  5
2EAB
330
A
100
AcDbEntity
  8
03
  6
CONTINUOUS
100
AcDbLine
 10
209.253951371841
 20
397.3018236802266
 30
0.0
 11
219.253951371841
 21
387.3018236802266
 31
0.0
  0
LINE
  5
2EAC
330
A
100
AcDbEntity
  8
03
  6
CONTINUOUS
100
AcDbLine
 10
209.253951371841
 20
387.3018236802266
 30
0.0
 11
219.253951371841
 21
397.3018236802266
 31
0.0
  0
LINE
  5
2EAD
330
A
100
AcDbEntity
  8
03
  6
CONTINUOUS
100
AcDbLine
 10
89.25395137184109
 20
397.3018236802266
 30
0.0
 11
99.25395137184109
 21
387.3018236802266
 31
0.0
  0
LINE
  5
2EAE
330
A
100
AcDbEntity
  8
03
  6
CONTINUOUS
100
AcDbLine
 10
89.25395137184109
 20
387.3018236802266
 30
0.0
 11
99.25395137184109
 21
397.3018236802266
 31
0.0
  0
POLYLINE
  5
2EAF
330
A
100
AcDbEntity
  8
03
  6
CONTINUOUS
100
AcDb2dPolyline
 66
     1
 10
0.0
 20
0.0
 30
0.0
 70
     1
  0
VERTEX
  5
3E95
330
2EAF
100
AcDbEntity
  8
03
  6
CONTINUOUS
100
AcDbVertex
100
AcDb2dVertex
 10
99.25395137184109
 20
387.3018236802266
 30
0.0
  0
VERTEX
  5
3E96
330
2EAF
100
AcDbEntity
  8
03
  6
CONTINUOUS
100
AcDbVertex
100
AcDb2dVertex
 10
89.25395137184109
 20
387.3018236802266
 30
0.0
  0
VERTEX
  5
3E97
330
2EAF
100
AcDbEntity
  8
03
  6
CONTINUOUS
100
AcDbVertex
100
AcDb2dVertex
 10
89.25395137184109
 20
397.3018236802266
 30
0.0
  0
VERTEX
  5
3E98
330
2EAF
100
AcDbEntity
  8
03
  6
CONTINUOUS
100
AcDbVertex
100
AcDb2dVertex
 10
99.25395137184109
 20
397.3018236802266
 30
0.0
  0
SEQEND
  5
3E99
330
2EAF
100
AcDbEntity
  8
03
  6
CONTINUOUS
  0
LINE
  5
2EB0
330
A
100
AcDbEntity
  8
03
  6
CONTINUOUS
100
AcDbLine
 10
89.25395137184109
 20
397.3018236802266
 30
0.0
 11
219.253951371841
 21
397.3018236802266
 31
0.0
  0
LINE
  5
2EB1
330
A
100
AcDbEntity
  8
03
  6
CONTINUOUS
100
AcDbLine
 10
84.25395137184109
 20
399.3018236802266
 30
0.0
 11
219.253951371841
 21
399.3018236802266
 31
0.0
  0
DIMENSION
  5
2F13
330
A
100
AcDbEntity
  8
SUNPOU
  6
CONTINUOUS
100
AcDbDimension
  2
*D31
 10
96.25395137184096
 20
131.0413344767969
 30
0.0
 11
80.25395137184094
 21
134.4163344767969
 31
0.0
 70
    32
  3
SUNPOU_1_5
100
AcDbAlignedDimension
 13
64.25395137184094
 23
139.3018236802265
 33
0.0
 14
96.25395137184096
 24
139.4615775845298
 34
0.0
100
AcDbRotatedDimension
  0
DIMENSION
  5
2F20
330
A
100
AcDbEntity
  8
SUNPOU
  6
CONTINUOUS
100
AcDbDimension
  2
*D32
 10
114.2539513718409
 20
131.0413344767969
 30
0.0
 11
105.2539513718409
 21
134.4163344767969
 31
0.0
 70
    32
  3
SUNPOU_1_5
100
AcDbAlignedDimension
 13
96.25395137184096
 23
139.4615775845298
 33
0.0
 14
114.2539513718409
 24
139.3018236802265
 34
0.0
100
AcDbRotatedDimension
  0
DIMENSION
  5
2F2D
330
A
100
AcDbEntity
  8
SUNPOU
  6
CONTINUOUS
100
AcDbDimension
  2
*D33
 10
139.253951371841
 20
131.0413344767969
 30
0.0
 11
126.753951371841
 21
134.4163344767969
 31
0.0
 70
    32
  3
SUNPOU_1_5
100
AcDbAlignedDimension
 13
114.2539513718409
 23
139.3018236802265
 33
0.0
 14
139.253951371841
 24
139.3018236802268
 34
0.0
100
AcDbRotatedDimension
  0
DIMENSION
  5
30D9
330
A
100
AcDbEntity
  8
SUNPOU
  6
CONTINUOUS
100
AcDbDimension
  2
*D34
 10
263.9737335755345
 20
151.3018236802265
 30
0.0
 11
260.5987335755344
 21
145.3018236802266
 31
0.0
 70
    32
  3
SUNPOU_1_5
100
AcDbAlignedDimension
 13
244.253951371841
 23
139.3018236802267
 33
0.0
 14
244.253951371841
 24
151.3018236802265
 34
0.0
 50
90.0
100
AcDbRotatedDimension
  0
DIMENSION
  5
30E6
330
A
100
AcDbEntity
  8
SUNPOU
  6
CONTINUOUS
100
AcDbDimension
  2
*D35
 10
263.9737335755345
 20
152.3018236802266
 30
0.0
 11
259.9969643729691
 21
156.5596106473655
 31
0.0
 70
   160
  3
SUNPOU_1_5
100
AcDbAlignedDimension
 13
244.253951371841
 23
151.3018236802265
 33
0.0
 14
241.553951371841
 24
152.3018236802266
 34
0.0
 50
90.0
100
AcDbRotatedDimension
  0
DIMENSION
  5
3100
330
A
100
AcDbEntity
  8
SUNPOU
  6
CONTINUOUS
100
AcDbDimension
  2
*D36
 10
263.9737335755345
 20
139.3018236802265
 30
0.0
 11
260.3882767577987
 21
137.8018236802267
 31
0.0
 70
   160
  3
SUNPOU_1_5
100
AcDbAlignedDimension
 13
263.9737335755345
 23
136.3018236802265
 33
0.0
 14
263.9737335755345
 24
139.3018236802265
 34
0.0
 50
90.0
100
AcDbRotatedDimension
  0
LINE
  5
311A
330
A
100
AcDbEntity
  8
CHUSIN
 48
0.5
100
AcDbLine
 10
105.2539513718409
 20
149.0309812358598
 30
0.0
 11
105.2539513718409
 21
98.47458674216738
 31
0.0
  0
DIMENSION
  5
3175
330
A
100
AcDbEntity
  8
SUNPOU
  6
CONTINUOUS
100
AcDbDimension
  2
*D37
 10
139.253951371841
 20
106.7202294505505
 30
0.0
 11
91.93218097828504
 21
110.0952294505505
 31
0.0
 70
   160
  3
SUNPOU_1_5
100
AcDbAlignedDimension
 13
65.25395137184094
 23
106.7202294505505
 33
0.0
 14
139.253951371841
 24
106.7202294505505
 34
0.0
100
AcDbRotatedDimension
  0
LINE
  5
372F
330
A
100
AcDbEntity
  8
02
  6
CONTINUOUS
100
AcDbLine
 10
89.15395137184107
 20
157.3025698950846
 30
0.0
 11
108.2539513718409
 21
157.3018236802266
 31
0.0
  0
LINE
  5
39C8
330
A
100
AcDbEntity
  8
CHUSIN
 48
0.3
100
AcDbLine
 10
154.2539513718595
 20
358.61302866937
 30
0.0
 11
154.2539513718595
 21
331.7825936123571
 31
0.0
  0
LINE
  5
3C8A
330
A
100
AcDbEntity
  8
02
100
AcDbLine
 10
212.3330950062809
 20
381.3018236802266
 30
0.0
 11
212.3330950062809
 21
382.3018236802266
 31
0.0
  0
LINE
  5
3C8B
330
A
100
AcDbEntity
  8
02
  6
CONTINUOUS
100
AcDbLine
 10
212.3330950062809
 20
381.3018236802266
 30
0.0
 11
227.8330950062808
 21
382.3018236802266
 31
0.0
  0
LEADER
  5
3C8C
330
A
100
AcDbEntity
  8
HIKIDASI
100
AcDbLeader
  3
SUNPOU_1_5
 73
     0
 74
     0
 75
     1
 40
4.0
 41
26.24
 76
     3
 10
232.4766202149491
 20
337.7512840493277
 30
0.0
 10
251.4382458973996
 20
353.6495799053408
 30
0.0
 10
255.1882458973996
 20
353.6495799053408
 30
0.0
340
3C8D
1001
ACAD
1000
DSTYLE
1002
{
1070
     5
1000
OPEN30
1070
    77
1070
     1
1070
   147
1040
1.0
1070
   342
1005
11DD
1002
}
1000
LEANOF
1010
0.0
1020
0.0
1030
0.0
1000
LEANOF
1010
0.0
1020
0.0
1030
0.0
  0
MTEXT
  5
3C8D
330
A
100
AcDbEntity
  8
HIKIDASI
100
AcDbMText
 10
256.6882458973996
 20
357.1495799053408
 30
0.0
 40
4.0
 41
0.0
 71
     4
 72
     1
  1
FB-38×4.5
  7
SUNPOU
1001
ACAD
1000
MTEXTBEGIN
1070
    73
1070
     1
1070
    44
1040
1.0
1070
    74
1070
     0
1000
MTEXTEND
1000
MTEXTBEGIN
1070
    73
1070
     1
1070
    44
1040
1.0
1070
    74
1070
     0
1000
MTEXTEND
  0
LEADER
  5
3C8E
330
A
100
AcDbEntity
  8
HIKIDASI
100
AcDbLeader
  3
SUNPOU_1_5
 73
     0
 74
     0
 75
     1
 40
4.0
 41
27.94666666666666
 76
     3
 10
237.1117994382748
 20
378.6724946526152
 30
0.0
 10
248.4710443310789
 20
386.3109810494173
 30
0.0
 10
252.2210443310789
 20
386.3109810494173
 30
0.0
340
3C8F
1001
ACAD
1000
DSTYLE
1002
{
1070
     5
1000
OPEN30
1070
    77
1070
     1
1070
   147
1040
1.0
1070
   342
1005
11DD
1002
}
1000
LEANOF
1010
0.0
1020
0.0
1030
0.0
1000
LEANOF
1010
0.0
1020
0.0
1030
0.0
  0
MTEXT
  5
3C8F
330
A
100
AcDbEntity
  8
HIKIDASI
100
AcDbMText
 10
253.7210443310788
 20
389.8109810494173
 30
0.0
 40
4.0
 41
0.0
 71
     4
 72
     1
  1
L-30×30×5
  7
SUNPOU
1001
ACAD
1000
MTEXTBEGIN
1070
    73
1070
     1
1070
    44
1040
1.0
1070
    74
1070
     0
1000
MTEXTEND
1000
MTEXTBEGIN
1070
    73
1070
     1
1070
    44
1040
1.0
1070
    74
1070
     0
1000
MTEXTEND
  0
LEADER
  5
3C90
330
A
100
AcDbEntity
  8
HIKIDASI
100
AcDbLeader
  3
SUNPOU_1_5
 73
     0
 74
     0
 75
     1
 40
4.0
 41
27.94666666666666
 76
     3
 10
235.7118545667513
 20
155.3964202159259
 30
0.0
 10
247.8415195456098
 20
174.0491951383678
 30
0.0
 10
251.5915195456098
 20
174.0491951383678
 30
0.0
340
3C91
1001
ACAD
1000
DSTYLE
1002
{
1070
     5
1000
OPEN30
1070
    77
1070
     1
1070
   147
1040
1.0
1070
   342
1005
11DD
1002
}
1000
LEANOF
1010
0.0
1020
0.0
1030
0.0
1000
LEANOF
1010
0.0
1020
0.0
1030
0.0
  0
MTEXT
  5
3C91
330
A
100
AcDbEntity
  8
HIKIDASI
100
AcDbMText
 10
253.0915195456098
 20
177.5491951383678
 30
0.0
 40
4.0
 41
0.0
 71
     4
 72
     1
  1
L-30×30×5
  7
SUNPOU
1001
ACAD
1000
MTEXTBEGIN
1070
    73
1070
     1
1070
    44
1040
1.0
1070
    74
1070
     0
1000
MTEXTEND
1000
MTEXTBEGIN
1070
    73
1070
     1
1070
    44
1040
1.0
1070
    74
1070
     0
1000
MTEXTEND
  0
LEADER
  5
3C9C
330
A
100
AcDbEntity
  8
HIKIDASI
  6
CONTINUOUS
100
AcDbLeader
  3
SUNPOU_1_5
 76
     2
 10
78.25395137184111
 20
291.3019247707577
 30
0.0
 10
47.12775782207268
 20
331.6825593738358
 30
0.0
1001
ACAD
1000
DSTYLE
1002
{
1070
     5
1000
OPEN30
1070
   342
1005
11DD
1002
}
1000
LEANOF
1010
0.0
1020
0.0
1030
0.0
1000
LEANOF
1010
0.0
1020
0.0
1030
0.0
  0
LEADER
  5
3CA0
330
A
100
AcDbEntity
  8
HIKIDASI
  6
CONTINUOUS
100
AcDbLeader
  3
SUNPOU_1_5
 73
     0
 75
     1
 40
10.0
 41
21.0
 76
     3
 10
113.1143970494564
 20
211.3018236802266
 30
0.0
 10
110.8471926663205
 20
196.8228204323058
 30
0.0
 10
107.0971926663204
 20
196.8228204323058
 30
0.0
340
3CA1
213
-1.058288048865505
223
6.409157081730427
233
0.0
1001
ACAD
1000
DSTYLE
1002
{
1070
     5
1000
OPEN30
1070
    77
1070
     1
1070
   147
1040
1.0
1070
   342
1005
11DD
1002
}
1000
LEANOF
1010
-1.058288048865505
1020
6.409157081730427
1030
0.0
1000
LEANOF
1010
-1.058288048865505
1020
6.409157081730427
1030
0.0
  0
MTEXT
  5
3CA1
330
A
100
AcDbEntity
  8
HIKIDASI
  6
CONTINUOUS
 62
     6
100
AcDbMText
 10
85.65548071518604
 20
191.9136633505754
 30
0.0
 40
3.75
 41
0.0
 71
     7
 72
     1
  1
M6タップ\P(サッシ工事)
  7
SUNPOU
1001
ACAD
1000
MTEXTBEGIN
1070
    73
1070
     1
1070
    44
1040
1.0
1070
    74
1070
     0
1000
MTEXTEND
1000
MTEXTBEGIN
1070
    73
1070
     1
1070
    44
1040
1.0
1070
    74
1070
     0
1000
MTEXTEND
  0
LINE
  5
3CA8
330
A
100
AcDbEntity
  8
02
  6
CONTINUOUS
100
AcDbLine
 10
72.25395137184111
 20
337.3018236802266
 30
0.0
 11
72.25395137184112
 21
387.3018236802266
 31
0.0
  0
LINE
  5
3CA9
330
A
100
AcDbEntity
  8
02
  6
CONTINUOUS
100
AcDbLine
 10
122.253951371841
 20
387.3018236802266
 30
0.0
 11
72.25395137184112
 21
387.3018236802266
 31
0.0
  0
LINE
  5
3CAA
330
A
100
AcDbEntity
  8
CHUSIN
100
AcDbLine
 10
222.7973792068927
 20
295.0019247707576
 30
0.0
 11
92.93544592126531
 21
295.0019247707576
 31
0.0
  0
LINE
  5
3CAB
330
A
100
AcDbEntity
  8
CHUSIN
100
AcDbLine
 10
201.253951371841
 20
347.9995051623747
 30
0.0
 11
201.253951371841
 21
276.5432742502874
 31
0.0
  0
LINE
  5
3CAE
330
A
100
AcDbEntity
  8
04
100
AcDbLine
 10
179.253951371841
 20
311.3019247707577
 30
0.0
 11
207.253951371841
 21
311.3019247707577
 31
0.0
  0
LINE
  5
3CB0
330
A
100
AcDbEntity
  8
04
100
AcDbLine
 10
179.253951371841
 20
279.3019247707576
 30
0.0
 11
223.253951371841
 21
279.3019247707576
 31
0.0
  0
LINE
  5
3CB2
330
A
100
AcDbEntity
  8
04
100
AcDbLine
 10
223.253951371841
 20
308.7125406164255
 30
0.0
 11
215.253951371841
 21
307.3019247707577
 31
0.0
  0
LINE
  5
3CB3
330
A
100
AcDbEntity
  8
04
100
AcDbLine
 10
215.253951371841
 20
283.3019247707576
 30
0.0
 11
223.253951371841
 21
281.89130892509
 31
0.0
  0
LINE
  5
3CB4
330
A
100
AcDbEntity
  8
04
100
AcDbLine
 10
207.253951371841
 20
311.3019247707577
 30
0.0
 11
223.253951371841
 21
311.3019247707577
 31
0.0
  0
LINE
  5
3CB5
330
A
100
AcDbEntity
  8
04
100
AcDbLine
 10
215.253951371841
 20
307.3019247707577
 30
0.0
 11
215.253951371841
 21
283.3019247707576
 31
0.0
  0
LINE
  5
3CB6
330
A
100
AcDbEntity
  8
04
100
AcDbLine
 10
207.253951371841
 20
311.3019247707577
 30
0.0
 11
207.253951371841
 21
325.3019247707577
 31
0.0
  0
LINE
  5
3CB7
330
A
100
AcDbEntity
  8
04
100
AcDbLine
 10
223.253951371841
 20
281.89130892509
 30
0.0
 11
223.253951371841
 21
279.3019247707576
 31
0.0
  0
LINE
  5
3CB8
330
A
100
AcDbEntity
  8
04
100
AcDbLine
 10
223.253951371841
 20
311.3019247707577
 30
0.0
 11
223.253951371841
 21
308.7125406164255
 31
0.0
  0
LINE
  5
3CB9
330
A
100
AcDbEntity
  8
04
100
AcDbLine
 10
187.2539513718413
 20
283.3019247707576
 30
0.0
 11
179.253951371841
 21
281.89130892509
 31
0.0
  0
LINE
  5
3CBA
330
A
100
AcDbEntity
  8
06
100
AcDbLine
 10
182.0039513718413
 20
301.0019247707572
 30
0.0
 11
187.253951371842
 21
301.0019247707571
 31
0.0
  0
LINE
  5
3CBB
330
A
100
AcDbEntity
  8
06
100
AcDbLine
 10
182.0039513718413
 20
289.0019247707574
 30
0.0
 11
187.2539513718411
 21
289.001924770757
 31
0.0
  0
LINE
  5
3CBC
330
A
100
AcDbEntity
  8
06
100
AcDbLine
 10
182.0039513718413
 20
300.0019247707577
 30
0.0
 11
182.0039513718413
 21
290.0019247707577
 31
0.0
  0
LINE
  5
3CBD
330
A
100
AcDbEntity
  8
06
100
AcDbLine
 10
182.0039513718413
 20
289.0019247707574
 30
0.0
 11
182.0039513718413
 21
290.0019247707577
 31
0.0
  0
LINE
  5
3CBE
330
A
100
AcDbEntity
  8
06
100
AcDbLine
 10
182.0039513718413
 20
301.0019247707572
 30
0.0
 11
182.0039513718413
 21
300.0019247707577
 31
0.0
  0
LINE
  5
3CBF
330
A
100
AcDbEntity
  8
06
100
AcDbLine
 10
185.0039513718424
 20
301.0019247707575
 30
0.0
 11
185.0039513718413
 21
289.0019247707572
 31
0.0
  0
LINE
  5
3CC0
330
A
100
AcDbEntity
  8
06
100
AcDbLine
 10
187.253951371841
 20
301.0019247707571
 30
0.0
 11
187.253951371841
 21
289.001924770757
 31
0.0
  0
LINE
  5
3CC1
330
A
100
AcDbEntity
  8
04
100
AcDbLine
 10
187.253951371841
 20
307.3019247707577
 30
0.0
 11
187.253951371841
 21
283.3019247707576
 31
0.0
  0
LINE
  5
3CC2
330
A
100
AcDbEntity
  8
04
100
AcDbLine
 10
195.253951371841
 20
311.3019247707577
 30
0.0
 11
195.253951371841
 21
325.3019247707577
 31
0.0
  0
LINE
  5
3CC3
330
A
100
AcDbEntity
  8
04
100
AcDbLine
 10
197.2539513718411
 20
339.8019247707576
 30
0.0
 11
197.2539513718411
 21
344.1019247707576
 31
0.0
  0
LINE
  5
3CC4
330
A
100
AcDbEntity
  8
04
100
AcDbLine
 10
205.253951371841
 20
339.8019247707576
 30
0.0
 11
205.253951371841
 21
344.1019247707576
 31
0.0
  0
ARC
  5
3CC7
330
A
100
AcDbEntity
  8
04
100
AcDbCircle
 10
195.6303397467074
 20
337.0017759651882
 30
0.0
 40
2.800148805569515
100
AcDbArc
 50
90.0
 51
132.0750220508466
  0
LINE
  5
3CC8
330
A
100
AcDbEntity
  8
04
100
AcDbLine
 10
208.9539513718412
 20
331.3019247707576
 30
0.0
 11
193.5539513718412
 21
331.3019247707576
 31
0.0
  0
LINE
  5
3CCA
330
A
100
AcDbEntity
  8
04
100
AcDbLine
 10
193.5539513718412
 20
331.3019247707576
 30
0.0
 11
193.5539513718412
 21
333.3019247707576
 31
0.0
  0
LINE
  5
3CCB
330
A
100
AcDbEntity
  8
04
  6
CONTINUOUS
100
AcDbLine
 10
193.5539513718412
 20
333.3019247707576
 30
0.0
 11
193.753951371841
 21
333.3019247707576
 31
0.0
  0
LINE
  5
3CCC
330
A
100
AcDbEntity
  8
04
100
AcDbLine
 10
193.753951371841
 20
333.3019247707576
 30
0.0
 11
193.753951371841
 21
339.0802369342707
 31
0.0
  0
ARC
  5
3CCD
330
A
100
AcDbEntity
  8
04
100
AcDbCircle
 10
206.8775629969749
 20
337.0017759651879
 30
0.0
 40
2.800148805569683
100
AcDbArc
 50
47.9249779491579
 51
90.0
  0
LINE
  5
3CCF
330
A
100
AcDbEntity
  8
04
100
AcDbLine
 10
195.6303397467074
 20
339.8019247707576
 30
0.0
 11
206.8775629969749
 21
339.8019247707576
 31
0.0
  0
LINE
  5
3CD5
330
A
100
AcDbEntity
  8
04
100
AcDbLine
 10
208.9539513718412
 20
333.3019247707576
 30
0.0
 11
208.9539513718412
 21
331.3019247707576
 31
0.0
  0
LINE
  5
3CD6
330
A
100
AcDbEntity
  8
04
  6
CONTINUOUS
100
AcDbLine
 10
208.9539513718412
 20
333.3019247707576
 30
0.0
 11
208.753951371841
 21
333.3019247707576
 31
0.0
  0
LINE
  5
3CD7
330
A
100
AcDbEntity
  8
04
100
AcDbLine
 10
208.753951371841
 20
333.3019247707576
 30
0.0
 11
208.753951371841
 21
339.0802369342707
 31
0.0
  0
LINE
  5
3CD9
330
A
100
AcDbEntity
  8
04
100
AcDbLine
 10
198.453951371841
 20
345.3019247707576
 30
0.0
 11
204.0539513718409
 21
345.3019247707576
 31
0.0
  0
LINE
  5
3CDA
330
A
100
AcDbEntity
  8
04
100
AcDbLine
 10
197.2539513718411
 20
344.1019247707576
 30
0.0
 11
198.453951371841
 21
345.3019247707576
 31
0.0
  0
LINE
  5
3CDB
330
A
100
AcDbEntity
  8
04
100
AcDbLine
 10
205.253951371841
 20
344.1019247707576
 30
0.0
 11
204.0539513718409
 21
345.3019247707576
 31
0.0
  0
LINE
  5
3CDC
330
A
100
AcDbEntity
  8
04
100
AcDbLine
 10
214.253951371841
 20
331.3019247707576
 30
0.0
 11
90.25395137184109
 21
331.3019247707576
 31
0.0
  0
LINE
  5
3CDD
330
A
100
AcDbEntity
  8
04
100
AcDbLine
 10
90.25395137184109
 20
325.3019247707577
 30
0.0
 11
214.253951371841
 21
325.3019247707577
 31
0.0
  0
LINE
  5
3CE0
330
A
100
AcDbEntity
  8
06
100
AcDbLine
 10
94.22295137184109
 20
301.0019247707578
 30
0.0
 11
94.22295137184109
 21
289.0019247707578
 31
0.0
  0
LINE
  5
3CE1
330
A
100
AcDbEntity
  8
CHUSIN
 48
0.3
100
AcDbLine
 10
95.78795137184114
 20
284.3181116247501
 30
0.0
 11
95.78795137184114
 21
305.5019247707578
 31
0.0
  0
LINE
  5
3CE2
330
A
100
AcDbEntity
  8
04
100
AcDbLine
 10
96.47395137184112
 20
284.5019247707578
 30
0.0
 11
96.47395137184105
 21
305.5019247707578
 31
0.0
  0
LINE
  5
3CE4
330
A
100
AcDbEntity
  8
04
100
AcDbLine
 10
94.25395137184114
 20
283.9070775635608
 30
0.0
 11
94.25395137184109
 21
282.5019247707578
 31
0.0
  0
LINE
  5
3CE5
330
A
100
AcDbEntity
  8
06
100
AcDbLine
 10
96.48399034116208
 20
289.0019247707578
 30
0.0
 11
94.22295137184109
 21
289.0019247707578
 31
0.0
  0
LINE
  5
3CE6
330
A
100
AcDbEntity
  8
04
100
AcDbLine
 10
96.47395137184112
 20
284.5019247707578
 30
0.0
 11
94.25395137184102
 21
283.9070775635608
 31
0.0
  0
LINE
  5
3CE7
330
A
100
AcDbEntity
  8
06
100
AcDbLine
 10
96.47295137184109
 20
301.0019247707578
 30
0.0
 11
94.22295137184109
 21
301.0019247707578
 31
0.0
  0
LINE
  5
3CE8
330
A
100
AcDbEntity
  8
04
100
AcDbLine
 10
96.47395137184117
 20
305.501924770758
 30
0.0
 11
94.25395137184114
 21
306.2307465741706
 31
0.0
  0
LINE
  5
3CE9
330
A
100
AcDbEntity
  8
04
100
AcDbLine
 10
94.56453422596416
 20
307.3898575657175
 30
0.0
 11
94.25395137184114
 21
306.2307465741706
 31
0.0
  0
LINE
  5
3CF0
330
A
100
AcDbEntity
  8
04
100
AcDbLine
 10
94.56453422596416
 20
307.5019247707578
 30
0.0
 11
147.943368517718
 21
307.5019247707578
 31
0.0
  0
LINE
  5
3CF3
330
A
100
AcDbEntity
  8
04
100
AcDbLine
 10
94.25395137184109
 20
282.5019247707578
 30
0.0
 11
148.253951371841
 21
282.501924770758
 31
0.0
  0
LINE
  5
3CF6
330
A
100
AcDbEntity
  8
04
100
AcDbLine
 10
104.2539513718407
 20
307.5019247707578
 30
0.0
 11
104.2539513718407
 21
319.0019247707578
 31
0.0
  0
LINE
  5
3CF8
330
A
100
AcDbEntity
  8
CHUSIN
100
AcDbLine
 10
121.253951371841
 20
349.0944216216708
 30
0.0
 11
121.253951371841
 21
280.3575036378361
 31
0.0
  0
LINE
  5
3CF9
330
A
100
AcDbEntity
  8
04
100
AcDbLine
 10
137.7539513718408
 20
319.5019247707578
 30
0.0
 11
115.253951371841
 21
319.5019247707578
 31
0.0
  0
LINE
  5
3D00
330
A
100
AcDbEntity
  8
04
100
AcDbLine
 10
115.253951371841
 20
319.5019247707578
 30
0.0
 11
104.7539513718408
 21
319.5019247707578
 31
0.0
  0
LINE
  5
3D01
330
A
100
AcDbEntity
  8
CHUSIN
 48
0.3
100
AcDbLine
 10
107.253951371841
 20
309.8965555304813
 30
0.0
 11
107.253951371841
 21
321.0772544675792
 31
0.0
  0
LINE
  5
3D02
330
A
100
AcDbEntity
  8
04
100
AcDbLine
 10
115.253951371841
 20
325.3019247707577
 30
0.0
 11
115.253951371841
 21
319.5019247707578
 31
0.0
  0
LINE
  5
3D03
330
A
100
AcDbEntity
  8
04
100
AcDbLine
 10
138.2539513718407
 20
307.5019247707578
 30
0.0
 11
138.2539513718407
 21
319.0019247707578
 31
0.0
  0
LINE
  5
3D11
330
A
100
AcDbEntity
  8
04
100
AcDbLine
 10
146.0339513718411
 20
284.5019247707578
 30
0.0
 11
146.033951371841
 21
305.501924770758
 31
0.0
  0
LINE
  5
3D12
330
A
100
AcDbEntity
  8
04
100
AcDbLine
 10
148.253951371841
 20
283.9070775635608
 30
0.0
 11
148.253951371841
 21
282.501924770758
 31
0.0
  0
LINE
  5
3D13
330
A
100
AcDbEntity
  8
04
100
AcDbLine
 10
146.033951371841
 20
284.5019247707578
 30
0.0
 11
148.2539513718412
 21
283.9070775635608
 31
0.0
  0
LINE
  5
3D14
330
A
100
AcDbEntity
  8
04
100
AcDbLine
 10
148.253951371841
 20
306.2307465741706
 30
0.0
 11
146.033951371841
 21
305.501924770758
 31
0.0
  0
LINE
  5
3D15
330
A
100
AcDbEntity
  8
04
100
AcDbLine
 10
147.943368517718
 20
307.3898575657175
 30
0.0
 11
148.253951371841
 21
306.2307465741706
 31
0.0
  0
LINE
  5
3D16
330
A
100
AcDbEntity
  8
04
100
AcDbLine
 10
127.253951371841
 20
325.3019247707577
 30
0.0
 11
127.253951371841
 21
319.5019247707578
 31
0.0
  0
LINE
  5
3D17
330
A
100
AcDbEntity
  8
CHUSIN
 48
0.3
100
AcDbLine
 10
135.253951371841
 20
309.8965555304813
 30
0.0
 11
135.253951371841
 21
321.0772544675792
 31
0.0
  0
LINE
  5
3D18
330
A
100
AcDbEntity
  8
04
100
AcDbLine
 10
137.7539513718408
 20
319.5019247707578
 30
0.0
 11
138.2539513718407
 21
319.0019247707578
 31
0.0
  0
LINE
  5
3D19
330
A
100
AcDbEntity
  8
04
100
AcDbLine
 10
104.2539513718407
 20
319.0019247707578
 30
0.0
 11
104.7539513718408
 21
319.5019247707578
 31
0.0
  0
LINE
  5
3D1A
330
A
100
AcDbEntity
  8
04
100
AcDbLine
 10
90.25395137184109
 20
325.3019247707577
 30
0.0
 11
90.25395137184109
 21
281.3019247707576
 31
0.0
  0
ARC
  5
3D1C
330
A
100
AcDbEntity
  8
04
100
AcDbCircle
 10
90.25395137184109
 20
325.3019247707577
 30
0.0
 40
6.0
100
AcDbArc
 50
90.0
 51
180.0
  0
LINE
  5
3D1D
330
A
100
AcDbEntity
  8
04
100
AcDbLine
 10
84.25395137184111
 20
325.3019247707577
 30
0.0
 11
84.25395137184111
 21
281.3019247707576
 31
0.0
  0
LINE
  5
3D1F
330
A
100
AcDbEntity
  8
04
100
AcDbLine
 10
84.25395137184111
 20
281.3019247707576
 30
0.0
 11
90.25395137184109
 21
281.3019247707576
 31
0.0
  0
LINE
  5
3D24
330
A
100
AcDbEntity
  8
CHUSIN
 48
0.3
100
AcDbLine
 10
75.73792622759248
 20
316.3019247707576
 30
0.0
 11
91.79013452913563
 21
316.3019247707576
 31
0.0
  0
LINE
  5
3D25
330
A
100
AcDbEntity
  8
CHUSIN
 48
0.3
100
AcDbLine
 10
75.40807186980302
 20
291.3019247707577
 30
0.0
 11
92.70701000423377
 21
291.3019247707577
 31
0.0
  0
LINE
  5
3D30
330
A
100
AcDbEntity
  8
04
100
AcDbLine
 10
187.2539513718415
 20
307.3019247707576
 30
0.0
 11
179.253951371841
 21
308.7125406164255
 31
0.0
  0
LINE
  5
3D31
330
A
100
AcDbEntity
  8
04
100
AcDbLine
 10
179.253951371841
 20
311.3019247707577
 30
0.0
 11
179.253951371841
 21
308.7125406164255
 31
0.0
  0
LINE
  5
3D32
330
A
100
AcDbEntity
  8
04
100
AcDbLine
 10
214.253951371841
 20
325.3019247707577
 30
0.0
 11
214.253951371841
 21
331.3019247707576
 31
0.0
  0
LINE
  5
3D33
330
A
100
AcDbEntity
  8
04
100
AcDbLine
 10
117.253951371841
 20
339.8019247707576
 30
0.0
 11
117.253951371841
 21
344.3019247707577
 31
0.0
  0
LINE
  5
3D34
330
A
100
AcDbEntity
  8
04
100
AcDbLine
 10
125.253951371841
 20
339.8019247707576
 30
0.0
 11
125.253951371841
 21
344.3019247707577
 31
0.0
  0
LINE
  5
3D38
330
A
100
AcDbEntity
  8
04
100
AcDbLine
 10
115.6303397467074
 20
339.8019247707576
 30
0.0
 11
126.8775629969747
 21
339.8019247707576
 31
0.0
  0
LINE
  5
3D39
330
A
100
AcDbEntity
  8
04
100
AcDbLine
 10
128.9539513718411
 20
331.3019247707576
 30
0.0
 11
113.553951371841
 21
331.3019247707576
 31
0.0
  0
ARC
  5
3D3B
330
A
100
AcDbEntity
  8
04
100
AcDbCircle
 10
115.6303397467074
 20
337.0017759651882
 30
0.0
 40
2.800148805569515
100
AcDbArc
 50
90.0
 51
132.0750220508466
  0
LINE
  5
3D3C
330
A
100
AcDbEntity
  8
04
100
AcDbLine
 10
113.553951371841
 20
331.3019247707576
 30
0.0
 11
113.553951371841
 21
333.3019247707576
 31
0.0
  0
LINE
  5
3D3D
330
A
100
AcDbEntity
  8
04
  6
CONTINUOUS
100
AcDbLine
 10
113.553951371841
 20
333.3019247707576
 30
0.0
 11
113.753951371841
 21
333.3019247707576
 31
0.0
  0
LINE
  5
3D3E
330
A
100
AcDbEntity
  8
04
100
AcDbLine
 10
113.753951371841
 20
333.3019247707576
 30
0.0
 11
113.753951371841
 21
339.0802369342707
 31
0.0
  0
LINE
  5
3D45
330
A
100
AcDbEntity
  8
04
100
AcDbLine
 10
128.9539513718411
 20
333.3019247707576
 30
0.0
 11
128.9539513718411
 21
331.3019247707576
 31
0.0
  0
ARC
  5
3D46
330
A
100
AcDbEntity
  8
04
100
AcDbCircle
 10
126.8775629969747
 20
337.0017759651879
 30
0.0
 40
2.800148805569683
100
AcDbArc
 50
47.9249779491579
 51
90.0
  0
LINE
  5
3D47
330
A
100
AcDbEntity
  8
04
  6
CONTINUOUS
100
AcDbLine
 10
128.753951371841
 20
333.3019247707576
 30
0.0
 11
128.9539513718411
 21
333.3019247707576
 31
0.0
  0
LINE
  5
3D48
330
A
100
AcDbEntity
  8
04
100
AcDbLine
 10
128.753951371841
 20
333.3019247707576
 30
0.0
 11
128.753951371841
 21
339.0802369342707
 31
0.0
  0
LINE
  5
3D4A
330
A
100
AcDbEntity
  8
04
100
AcDbLine
 10
118.453951371841
 20
345.5019247707578
 30
0.0
 11
124.053951371841
 21
345.5019247707578
 31
0.0
  0
LINE
  5
3D4B
330
A
100
AcDbEntity
  8
04
100
AcDbLine
 10
117.253951371841
 20
344.3019247707577
 30
0.0
 11
118.453951371841
 21
345.5019247707578
 31
0.0
  0
LINE
  5
3D4C
330
A
100
AcDbEntity
  8
04
100
AcDbLine
 10
125.253951371841
 20
344.3019247707577
 30
0.0
 11
124.053951371841
 21
345.5019247707578
 31
0.0
  0
LINE
  5
3D4D
330
A
100
AcDbEntity
  8
KAKURE
  6
CONTINUOUS
100
AcDbLine
 10
84.25395137184111
 20
319.3019247707577
 30
0.0
 11
78.25395137184111
 21
319.3019247707577
 31
0.0
  0
LINE
  5
3D4E
330
A
100
AcDbEntity
  8
KAKURE
  6
CONTINUOUS
100
AcDbLine
 10
84.25395137184111
 20
318.9519247707576
 30
0.0
 11
78.25395137184111
 21
318.9519247707576
 31
0.0
  0
LINE
  5
3D4F
330
A
100
AcDbEntity
  8
KAKURE
  6
CONTINUOUS
100
AcDbLine
 10
84.25395137184111
 20
313.6519247707576
 30
0.0
 11
78.25395137184111
 21
313.6519247707576
 31
0.0
  0
LINE
  5
3D50
330
A
100
AcDbEntity
  8
KAKURE
  6
CONTINUOUS
100
AcDbLine
 10
84.25395137184111
 20
313.3019247707577
 30
0.0
 11
78.25395137184111
 21
313.3019247707577
 31
0.0
  0
LINE
  5
3D51
330
A
100
AcDbEntity
  8
KAKURE
  6
CONTINUOUS
100
AcDbLine
 10
84.25395137184111
 20
294.3019247707577
 30
0.0
 11
78.25395137184111
 21
294.3019247707577
 31
0.0
  0
LINE
  5
3D52
330
A
100
AcDbEntity
  8
KAKURE
  6
CONTINUOUS
100
AcDbLine
 10
84.25395137184111
 20
293.9519247707576
 30
0.0
 11
78.25395137184111
 21
293.9519247707576
 31
0.0
  0
LINE
  5
3D53
330
A
100
AcDbEntity
  8
KAKURE
  6
CONTINUOUS
100
AcDbLine
 10
84.25395137184111
 20
288.6519247707576
 30
0.0
 11
78.25395137184111
 21
288.6519247707576
 31
0.0
  0
LINE
  5
3D54
330
A
100
AcDbEntity
  8
KAKURE
  6
CONTINUOUS
100
AcDbLine
 10
84.25395137184111
 20
288.3019247707577
 30
0.0
 11
78.25395137184111
 21
288.3019247707577
 31
0.0
  0
LINE
  5
3D55
330
A
100
AcDbEntity
  8
KAKURE
  6
CONTINUOUS
100
AcDbLine
 10
114.253951371841
 20
217.3018236802267
 30
0.0
 11
108.2539513718409
 21
217.3018236802267
 31
0.0
  0
LINE
  5
3D56
330
A
100
AcDbEntity
  8
KAKURE
  6
CONTINUOUS
100
AcDbLine
 10
114.253951371841
 20
216.8018236802266
 30
0.0
 11
108.2539513718409
 21
216.8018236802266
 31
0.0
  0
LINE
  5
3D57
330
A
100
AcDbEntity
  8
KAKURE
  6
CONTINUOUS
100
AcDbLine
 10
114.253951371841
 20
211.8018236802265
 30
0.0
 11
108.2539513718409
 21
211.8018236802265
 31
0.0
  0
LINE
  5
3D58
330
A
100
AcDbEntity
  8
KAKURE
  6
CONTINUOUS
100
AcDbLine
 10
114.253951371841
 20
211.3018236802266
 30
0.0
 11
108.2539513718409
 21
211.3018236802266
 31
0.0
  0
LINE
  5
3D59
330
A
100
AcDbEntity
  8
KAKURE
  6
CONTINUOUS
100
AcDbLine
 10
176.7542775466217
 20
375.3018236802266
 30
0.0
 11
176.7542775466217
 21
381.3018236802266
 31
0.0
  0
LINE
  5
3D5A
330
A
100
AcDbEntity
  8
KAKURE
  6
CONTINUOUS
100
AcDbLine
 10
177.0542775466217
 20
375.3018236802266
 30
0.0
 11
177.0542775466217
 21
381.3018236802266
 31
0.0
  0
LINE
  5
3D5B
330
A
100
AcDbEntity
  8
KAKURE
  6
CONTINUOUS
100
AcDbLine
 10
181.4542775466217
 20
375.3018236802266
 30
0.0
 11
181.4542775466217
 21
381.3018236802266
 31
0.0
  0
LINE
  5
3D5C
330
A
100
AcDbEntity
  8
KAKURE
  6
CONTINUOUS
100
AcDbLine
 10
181.7542775466217
 20
375.3018236802266
 30
0.0
 11
181.7542775466217
 21
381.3018236802266
 31
0.0
  0
LINE
  5
3D60
330
A
100
AcDbEntity
  8
KAKURE
  6
CONTINUOUS
100
AcDbLine
 10
126.7542775466217
 20
375.3018236802266
 30
0.0
 11
126.7542775466217
 21
381.3018236802266
 31
0.0
  0
LINE
  5
3D61
330
A
100
AcDbEntity
  8
KAKURE
  6
CONTINUOUS
100
AcDbLine
 10
127.0542775466217
 20
375.3018236802266
 30
0.0
 11
127.0542775466217
 21
381.3018236802266
 31
0.0
  0
LINE
  5
3D62
330
A
100
AcDbEntity
  8
KAKURE
  6
CONTINUOUS
100
AcDbLine
 10
131.4542775466217
 20
375.3018236802266
 30
0.0
 11
131.4542775466217
 21
381.3018236802266
 31
0.0
  0
LINE
  5
3D63
330
A
100
AcDbEntity
  8
KAKURE
  6
CONTINUOUS
100
AcDbLine
 10
131.7542775466217
 20
375.3018236802266
 30
0.0
 11
131.7542775466217
 21
381.3018236802266
 31
0.0
  0
LINE
  5
3DAF
330
A
100
AcDbEntity
  8
KAKURE
  6
CONTINUOUS
100
AcDbLine
 10
229.753951371841
 20
369.2018236802265
 30
0.0
 11
239.253951371841
 21
369.2018236802265
 31
0.0
  0
LINE
  5
3DB0
330
A
100
AcDbEntity
  8
KAKURE
  6
CONTINUOUS
100
AcDbLine
 10
229.753951371841
 20
368.9518236802265
 30
0.0
 11
239.2539513718408
 21
368.9518236802265
 31
0.0
  0
LINE
  5
3DB1
330
A
100
AcDbEntity
  8
KAKURE
  6
CONTINUOUS
100
AcDbLine
 10
229.753951371841
 20
365.4518236802266
 30
0.0
 11
239.2539513718408
 21
365.4518236802266
 31
0.0
  0
LINE
  5
3DB2
330
A
100
AcDbEntity
  8
KAKURE
  6
CONTINUOUS
100
AcDbLine
 10
229.753951371841
 20
365.2018236802266
 30
0.0
 11
239.2539513718408
 21
365.2018236802266
 31
0.0
  0
LINE
  5
3DB3
330
A
100
AcDbEntity
  8
KAKURE
  6
CONTINUOUS
100
AcDbLine
 10
229.753951371841
 20
173.3018236802266
 30
0.0
 11
239.253951371841
 21
173.3018236802266
 31
0.0
  0
LINE
  5
3DB4
330
A
100
AcDbEntity
  8
KAKURE
  6
CONTINUOUS
100
AcDbLine
 10
229.753951371841
 20
173.0518236802265
 30
0.0
 11
239.253951371841
 21
173.0518236802265
 31
0.0
  0
LINE
  5
3DB5
330
A
100
AcDbEntity
  8
KAKURE
  6
CONTINUOUS
100
AcDbLine
 10
229.753951371841
 20
169.5518236802265
 30
0.0
 11
239.253951371841
 21
169.5518236802265
 31
0.0
  0
LINE
  5
3DB6
330
A
100
AcDbEntity
  8
KAKURE
  6
CONTINUOUS
100
AcDbLine
 10
229.753951371841
 20
169.3018236802265
 30
0.0
 11
239.253951371841
 21
169.3018236802265
 31
0.0
  0
MTEXT
  5
3E27
330
A
100
AcDbEntity
  8
MOJI
100
AcDbMText
 10
253.4999999999998
 20
20.05000000000018
 30
0.0
 40
4.899999999999995
 41
34.99999999999992
 71
     5
 72
     1
  1
たて断面図　
  7
0_80
1001
ACAD
1000
MTEXTBEGIN
1070
    73
1070
     1
1070
    44
1040
1.0
1070
    74
1070
     0
1000
MTEXTEND
1000
MTEXTBEGIN
1070
    73
1070
     1
1070
    44
1040
1.0
1070
    74
1070
     0
1000
MTEXTEND
  0
MTEXT
  5
3E28
330
A
100
AcDbEntity
  8
MOJI
100
AcDbMText
 10
218.5000000000008
 20
20.40000000000009
 30
0.0
 40
4.900000000000004
 41
35.00000000000003
 71
     5
 72
     1
  1
図番８－２
  7
0_80
1001
ACAD
1000
MTEXTBEGIN
1070
    73
1070
     1
1070
    44
1040
1.0
1070
    74
1070
     0
1000
MTEXTEND
1000
MTEXTBEGIN
1070
    73
1070
     1
1070
    44
1040
1.0
1070
    74
1070
     0
1000
MTEXTEND
  0
POLYLINE
  5
3E29
330
A
100
AcDbEntity
  8
SAISEN
100
AcDb2dPolyline
 66
     1
 10
0.0
 20
0.0
 30
0.0
 70
     1
  0
VERTEX
  5
3E9A
330
3E29
100
AcDbEntity
  8
SAISEN
100
AcDbVertex
100
AcDb2dVertex
 10
26.0
 20
12.0
 30
0.0
  0
VERTEX
  5
3E9B
330
3E29
100
AcDbEntity
  8
SAISEN
100
AcDbVertex
100
AcDb2dVertex
 10
271.0000000000003
 20
12.0
 30
0.0
  0
VERTEX
  5
3E9C
330
3E29
100
AcDbEntity
  8
SAISEN
100
AcDbVertex
100
AcDb2dVertex
 10
271.0000000000003
 20
28.80000000000018
 30
0.0
  0
VERTEX
  5
3E9D
330
3E29
100
AcDbEntity
  8
SAISEN
100
AcDbVertex
100
AcDb2dVertex
 10
26.0
 20
28.80000000000018
 30
0.0
  0
SEQEND
  5
3E9E
330
3E29
100
AcDbEntity
  8
SAISEN
  0
MTEXT
  5
3E2A
330
A
100
AcDbEntity
  8
MOJI
100
AcDbMText
 10
131.0000000000006
 20
20.40000000000009
 30
0.0
 40
4.900000000000004
 41
56.00000000000036
 71
     5
 72
     1
  1
ＳＯＴ－Ｒ２００
  7
0_8
1001
ACAD
1000
MTEXTBEGIN
1070
    73
1070
     1
1070
    44
1040
1.0
1070
    74
1070
     0
1000
MTEXTEND
1000
MTEXTBEGIN
1070
    73
1070
     1
1070
    44
1040
1.0
1070
    74
1070
     0
1000
MTEXTEND
  0
LINE
  5
3E2B
330
A
100
AcDbEntity
  8
SAISEN
100
AcDbLine
 10
103.0000000000005
 20
28.80000000000029
 30
0.0
 11
103.0000000000005
 21
12.00000000000011
 31
0.0
  0
LINE
  5
3E2C
330
A
100
AcDbEntity
  8
SAISEN
100
AcDbLine
 10
159.0000000000009
 20
28.80000000000029
 30
0.0
 11
159.0000000000009
 21
12.00000000000011
 31
0.0
  0
MTEXT
  5
3E2D
330
A
100
AcDbEntity
  8
MOJI
100
AcDbMText
 10
180.0000000000029
 20
20.40000000000009
 30
0.0
 40
4.900000000000004
 41
42.00000000000027
 71
     5
 72
     1
  1
両引き
  7
0_8
1001
ACAD
1000
MTEXTBEGIN
1070
    73
1070
     1
1070
    44
1040
1.0
1070
    74
1070
     0
1000
MTEXTEND
1000
MTEXTBEGIN
1070
    73
1070
     1
1070
    44
1040
1.0
1070
    74
1070
     0
1000
MTEXTEND
  0
LINE
  5
3E2E
330
A
100
AcDbEntity
  8
SAISEN
100
AcDbLine
 10
201.0000000000011
 20
28.80000000000029
 30
0.0
 11
201.0000000000011
 21
12.00000000000011
 31
0.0
  0
MTEXT
  5
3E2F
330
A
100
AcDbEntity
  8
MOJI
100
AcDbMText
 10
63.807811078319
 20
20.40000000000009
 30
0.0
 40
4.900000000000007
 41
77.00000000000052
 71
     5
 72
     1
  1
円形ドア納り　1200R･1500R
  7
0_8
1001
ACAD
1000
MTEXTBEGIN
1070
    73
1070
     1
1070
    44
1040
1.0
1070
    74
1070
     0
1000
MTEXTEND
1000
MTEXTBEGIN
1070
    73
1070
     1
1070
    44
1040
1.0
1070
    74
1070
     0
1000
MTEXTEND
  0
CIRCLE
  5
3E42
330
A
100
AcDbEntity
  8
SAISEN
100
AcDbCircle
 10
275.2683466549041
 20
34.78011848856238
 30
0.0
 40
3.500000000000021
  0
TEXT
  5
3E43
330
A
100
AcDbEntity
  8
MOJI
100
AcDbText
 10
273.1341733274527
 20
31.79005924428132
 30
0.0
 40
5.600000000000034
  1
Ｓ
 41
0.8
  7
0_8
 11
273.1341733274527
 21
37.39005924428136
 31
0.0
100
AcDbText
 73
     3
  0
VIEWPORT
  5
1DB9
102
{ACAD_XDICTIONARY
360
3E71
102
}
330
B
100
AcDbEntity
 67
     1
  8
0
  6
CONTINUOUS
100
AcDbViewport
 10
139.6384852890853
 20
201.052896092267
 30
0.0
 40
810.1857571073624
 41
471.2215538635254
 68
     1
 69
     1
1001
ACAD
1000
MVIEW
1002
{
1070
    16
1010
0.0
1020
0.0
1030
0.0
1010
0.0
1020
0.0
1030
1.0
1040
0.0
1040
471.2215538635254
1040
139.6384852890853
1040
201.052896092267
1040
50.0
1040
0.0
1040
0.0
1070
     0
1070
   100
1070
     1
1070
     1
1070
     0
1070
     0
1070
     0
1070
     0
1040
0.0
1040
0.0
1040
0.0
1040
10.0
1040
10.0
1040
10.0
1040
10.0
1070
     0
1002
{
1002
}
1002
}
  0
VIEWPORT
  5
3E5A
102
{ACAD_XDICTIONARY
360
3E77
102
}
330
B
100
AcDbEntity
 67
     1
  8
DEFPOINTS
  6
CONTINUOUS
100
AcDbViewport
 10
139.6299875501562
 20
201.0615924043112
 30
0.0
 40
297.338743686676
 41
427.7677474021912
 68
     2
 69
     2
1001
ACAD
1000
MVIEW
1002
{
1070
    16
1010
0.0
1020
0.0
1030
0.0
1010
0.0
1020
0.0
1030
1.0
1040
0.0
1040
427.7677474021912
1040
148.5
1040
210.0
1040
50.0
1040
0.0
1040
0.0
1070
     0
1070
   100
1070
     1
1070
     1
1070
     0
1070
     0
1070
     0
1070
     0
1040
0.0
1040
0.0
1040
0.0
1040
1.0
1040
1.0
1040
0.0
1040
0.0
1070
     0
1002
{
1002
}
1002
}
  0
ENDSEC
  0
SECTION
  2
OBJECTS
  0
DICTIONARY
  5
19
330
0
100
AcDbDictionary
  3
ACAD_COLOR
350
3E0B
  3
ACAD_GROUP
350
1A
  3
ACAD_LAYOUT
350
855
  3
ACAD_MATERIAL
350
3E0A
  3
ACAD_MLINESTYLE
350
1B
  3
ACAD_PLOTSETTINGS
350
856
  3
ACADDIM
350
3C9F
  3
ASE_INDEX_DICTIONARY
350
3E12
1001
ACAD
1000
TREAT_AS_HARD
1070
     0
1000
TREAT_AS_HARD
1070
     0
  0
DICTIONARY
  5
11DA
330
2
100
AcDbDictionary
  3
ACAD_LAYERFILTERS
350
11DB
  3
ACAD_LAYERSTATES
350
11E9
1001
ACAD
1000
TREAT_AS_HARD
1070
     1
1000
TREAT_AS_HARD
1070
     1
  0
DICTIONARY
  5
3DE8
330
A
100
AcDbDictionary
  3
ACAD_LAYOUTSELFREF
350
3E7F
1001
ACAD
1000
TREAT_AS_HARD
1070
     1
  0
DICTIONARY
  5
3DEA
330
B
100
AcDbDictionary
  3
ACAD_LAYOUTSELFREF
350
3E80
1001
ACAD
1000
TREAT_AS_HARD
1070
     1
  0
DICTIONARY
  5
3E71
330
1DB9
100
AcDbDictionary
  3
ACAD_XREC_ROUNDTRIP
350
3E72
1001
ACAD
1000
TREAT_AS_HARD
1070
     1
  0
DICTIONARY
  5
3E77
330
3E5A
100
AcDbDictionary
  3
ACAD_XREC_ROUNDTRIP
350
3E78
1001
ACAD
1000
TREAT_AS_HARD
1070
     1
  0
DICTIONARY
  5
3E0B
102
{ACAD_REACTORS
330
19
102
}
330
19
100
AcDbDictionary
1001
ACAD
1000
TREAT_AS_HARD
1070
     0
  0
DICTIONARY
  5
1A
102
{ACAD_REACTORS
330
19
102
}
330
19
100
AcDbDictionary
1001
ACAD
1000
TREAT_AS_HARD
1070
     0
1000
TREAT_AS_HARD
1070
     0
  0
DICTIONARY
  5
855
102
{ACAD_REACTORS
330
19
102
}
330
19
100
AcDbDictionary
1001
ACAD
1000
TREAT_AS_HARD
1070
     0
1000
TREAT_AS_HARD
1070
     0
  0
DICTIONARY
  5
3E0A
102
{ACAD_REACTORS
330
19
102
}
330
19
100
AcDbDictionary
1001
ACAD
1000
TREAT_AS_HARD
1070
     0
  0
DICTIONARY
  5
1B
102
{ACAD_REACTORS
330
19
102
}
330
19
100
AcDbDictionary
  3
STANDARD
350
1C
1001
ACAD
1000
TREAT_AS_HARD
1070
     0
1000
TREAT_AS_HARD
1070
     0
  0
DICTIONARY
  5
856
102
{ACAD_REACTORS
330
19
102
}
330
19
100
AcDbDictionary
1001
ACAD
1000
TREAT_AS_HARD
1070
     0
1000
TREAT_AS_HARD
1070
     0
  0
XRECORD
  5
3C9F
102
{ACAD_REACTORS
330
19
102
}
330
19
100
AcDbXrecord
 90
   990106
  3

 60
     0
 61
     0
 62
     4
 63
     4
 64
     1
 65
     0
 66
     0
 67
     3
 68
     0
 69
     1
 70
     0
 71
     0
 72
     0
 40
0.0
170
     2
340
3CA1
  0
DICTIONARY
  5
3E12
102
{ACAD_REACTORS
330
19
102
}
330
19
100
AcDbDictionary
  3
ASEBLOCKHIERARCHYINDEXRECORD
350
3E14
1001
DCO15
1040
1508673253.796
1001
ACAD
1000
TREAT_AS_HARD
1070
     0
  0
DICTIONARY
  5
11DB
102
{ACAD_REACTORS
330
11DA
102
}
330
11DA
100
AcDbDictionary
  3
HIHYOJI
350
11DC
1001
ACAD
1000
TREAT_AS_HARD
1070
     1
1000
TREAT_AS_HARD
1070
     0
  0
DICTIONARY
  5
11E9
102
{ACAD_REACTORS
330
11DA
102
}
330
11DA
100
AcDbDictionary
1001
ACAD
1000
TREAT_AS_HARD
1070
     0
1000
TREAT_AS_HARD
1070
     0
  0
XRECORD
  5
3E7F
102
{ACAD_REACTORS
330
3DE8
102
}
330
3DE8
100
AcDbXrecord
340
A
  0
XRECORD
  5
3E80
102
{ACAD_REACTORS
330
3DEA
102
}
330
3DEA
100
AcDbXrecord
340
B
  0
XRECORD
  5
3E72
102
{ACAD_REACTORS
330
3E71
102
}
330
3E71
100
AcDbXrecord
102
SHADEPLOT
 70
     0
  0
XRECORD
  5
3E78
102
{ACAD_REACTORS
330
3E77
102
}
330
3E77
100
AcDbXrecord
102
SHADEPLOT
 70
     0
  0
MLINESTYLE
  5
1C
102
{ACAD_REACTORS
330
1B
102
}
330
1B
100
AcDbMlineStyle
  2
STANDARD
 70
     0
  3

 62
     0
 51
90.0
 52
90.0
 71
     2
 49
0.5
 62
   256
  6
BYLAYER
 49
-0.5
 62
   256
  6
BYLAYER
  0
XRECORD
  5
3E14
102
{ACAD_REACTORS
330
3E12
102
}
330
3E12
100
AcDbXrecord
330
3B77
330
3B78
330
3D82
330
3D83
330
3D79
330
3D7A
330
3DAA
330
3DAB
330
3B80
330
3B81
330
3AE4
330
3AE5
330
3B89
330
3B8A
330
3AEC
330
3AED
330
3C38
330
3C39
330
3C30
330
3C2F
330
3B9C
330
3B9D
330
3B39
330
3B3A
330
3AFF
330
3B00
330
3C1E
330
3C1F
330
3B4B
330
3B4C
330
3B0A
330
3B0B
330
3BE9
330
3BEA
330
3BF4
330
3BF5
330
3BAE
330
3BAF
330
3AF6
330
3AF7
330
3C4A
330
3C4B
330
3C53
330
3C54
330
3B12
330
3B13
330
3C41
330
3C42
330
3BE0
330
3BDF
330
3BD8
330
3BD7
330
3BCC
330
3BCD
330
3BA5
330
3BA6
330
3BC1
330
3BC2
330
3BB8
330
3BB9
330
3B5C
330
3B5D
330
3B53
330
3B54
330
3B65
330
3B66
330
3BFC
330
3BFD
330
3C08
330
3C09
330
3C13
330
3C14
330
3B42
330
3B43
  0
XRECORD
  5
11DC
102
{ACAD_REACTORS
330
11DB
102
}
330
11DB
100
AcDbXrecord
  1
hihyoji
  1
08,09,*_h
  1
*
  1
*
 70
     0
  1
*
  1
*
  0
ENDSEC
  0
EOF
