  0
SECTION
  2
HEADER
  9
$ACADVER
  1
AC1012
  9
$DWGCODEPAGE
  3
dos932
  9
$INSBASE
 10
0.0
 20
0.0
 30
0.0
  9
$EXTMIN
 10
0.0
 20
0.0
 30
0.0
  9
$EXTMAX
 10
420.0
 20
594.0
 30
0.0
  9
$LIMMIN
 10
0.0
 20
0.0
  9
$LIMMAX
 10
420.0
 20
594.0
  9
$ORTHOMODE
 70
     1
  9
$REGENMODE
 70
     1
  9
$FILLMODE
 70
     1
  9
$QTEXTMODE
 70
     0
  9
$MIRRTEXT
 70
     1
  9
$DRAGMODE
 70
     2
  9
$LTSCALE
 40
1.0
  9
$OSMODE
 70
    37
  9
$ATTMODE
 70
     1
  9
$TEXTSIZE
 40
6.0
  9
$TRACEWID
 40
0.05
  9
$TEXTSTYLE
  7
STANDARD
  9
$CLAYER
  8
DEFPOINTS
  9
$CELTYPE
  6
BYLAYER
  9
$CECOLOR
 62
   256
  9
$CELTSCALE
 40
1.0
  9
$DELOBJ
 70
     1
  9
$DISPSILH
 70
     0
  9
$DIMSCALE
 40
2.0
  9
$DIMASZ
 40
2.5
  9
$DIMEXO
 40
1.5
  9
$DIMDLI
 40
0.0
  9
$DIMRND
 40
0.0
  9
$DIMDLE
 40
0.0
  9
$DIMEXE
 40
1.0
  9
$DIMTP
 40
0.0
  9
$DIMTM
 40
0.0
  9
$DIMTXT
 40
2.5
  9
$DIMCEN
 40
0.0
  9
$DIMTSZ
 40
0.0
  9
$DIMTOL
 70
     0
  9
$DIMLIM
 70
     0
  9
$DIMTIH
 70
     0
  9
$DIMTOH
 70
     0
  9
$DIMSE1
 70
     0
  9
$DIMSE2
 70
     0
  9
$DIMTAD
 70
     1
  9
$DIMZIN
 70
     8
  9
$DIMBLK
  1
OPEN30
  9
$DIMASO
 70
     1
  9
$DIMSHO
 70
     1
  9
$DIMPOST
  1

  9
$DIMAPOST
  1

  9
$DIMALT
 70
     0
  9
$DIMALTD
 70
     2
  9
$DIMALTF
 40
25.4
  9
$DIMLFAC
 40
1.0
  9
$DIMTOFL
 70
     1
  9
$DIMTVP
 40
0.0
  9
$DIMTIX
 70
     0
  9
$DIMSOXD
 70
     0
  9
$DIMSAH
 70
     0
  9
$DIMBLK1
  1

  9
$DIMBLK2
  1

  9
$DIMSTYLE
  2
SUNPOU_2
  9
$DIMCLRD
 70
   256
  9
$DIMCLRE
 70
   256
  9
$DIMCLRT
 70
     6
  9
$DIMTFAC
 40
1.0
  9
$DIMGAP
 40
1.0
  9
$DIMJUST
 70
     0
  9
$DIMSD1
 70
     0
  9
$DIMSD2
 70
     0
  9
$DIMTOLJ
 70
     1
  9
$DIMTZIN
 70
     0
  9
$DIMALTZ
 70
     0
  9
$DIMALTTZ
 70
     0
  9
$DIMFIT
 70
     3
  9
$DIMUPT
 70
     0
  9
$DIMUNIT
 70
     2
  9
$DIMDEC
 70
     1
  9
$DIMTDEC
 70
     1
  9
$DIMALTU
 70
     2
  9
$DIMALTTD
 70
     2
  9
$DIMTXSTY
  7
SUNPOU
  9
$DIMAUNIT
 70
     0
  9
$LUNITS
 70
     2
  9
$LUPREC
 70
     4
  9
$SKETCHINC
 40
0.1
  9
$FILLETRAD
 40
0.0
  9
$AUNITS
 70
     0
  9
$AUPREC
 70
     0
  9
$MENU
  1
acad
  9
$ELEVATION
 40
0.0
  9
$PELEVATION
 40
0.0
  9
$THICKNESS
 40
0.0
  9
$LIMCHECK
 70
     0
  9
$BLIPMODE
 70
     0
  9
$CHAMFERA
 40
0.0
  9
$CHAMFERB
 40
0.0
  9
$CHAMFERC
 40
0.0
  9
$CHAMFERD
 40
0.0
  9
$SKPOLY
 70
     0
  9
$TDCREATE
 40
2444972.375000000
  9
$TDUPDATE
 40
2453266.400694618
  9
$TDINDWG
 40
1.0021379398
  9
$TDUSRTIMER
 40
1.0021379398
  9
$USRTIMER
 70
     1
  9
$ANGBASE
 50
0.0
  9
$ANGDIR
 70
     0
  9
$PDMODE
 70
     0
  9
$PDSIZE
 40
1.0
  9
$PLINEWID
 40
0.0
  9
$COORDS
 70
     1
  9
$SPLFRAME
 70
     0
  9
$SPLINETYPE
 70
     6
  9
$SPLINESEGS
 70
     8
  9
$ATTDIA
 70
     0
  9
$ATTREQ
 70
     1
  9
$HANDLING
 70
-16383
  9
$HANDSEED
  5
18B3
  9
$SURFTAB1
 70
     6
  9
$SURFTAB2
 70
     6
  9
$SURFTYPE
 70
     6
  9
$SURFU
 70
     6
  9
$SURFV
 70
     6
  9
$UCSNAME
  2

  9
$UCSORG
 10
0.0
 20
0.0
 30
0.0
  9
$UCSXDIR
 10
1.0
 20
0.0
 30
0.0
  9
$UCSYDIR
 10
0.0
 20
1.0
 30
0.0
  9
$PUCSNAME
  2

  9
$PUCSORG
 10
0.0
 20
0.0
 30
0.0
  9
$PUCSXDIR
 10
1.0
 20
0.0
 30
0.0
  9
$PUCSYDIR
 10
0.0
 20
1.0
 30
0.0
  9
$USERI1
 70
     0
  9
$USERI2
 70
     0
  9
$USERI3
 70
     0
  9
$USERI4
 70
     0
  9
$USERI5
 70
     0
  9
$USERR1
 40
0.0
  9
$USERR2
 40
0.0
  9
$USERR3
 40
0.0
  9
$USERR4
 40
0.0
  9
$USERR5
 40
0.0
  9
$WORLDVIEW
 70
     1
  9
$SHADEDGE
 70
     3
  9
$SHADEDIF
 70
    70
  9
$TILEMODE
 70
     1
  9
$MAXACTVP
 70
    16
  9
$PINSBASE
 10
0.0
 20
0.0
 30
0.0
  9
$PLIMCHECK
 70
     0
  9
$PEXTMIN
 10
-0.1933276983398855
 20
-0.0174202791267817
 30
-0.0000000349181948
  9
$PEXTMAX
 10
396.2949895136353
 20
570.3923158424973
 30
0.0000000814935747
  9
$PLIMMIN
 10
-11.94191342824454
 20
-11.76600219398141
  9
$PLIMMAX
 10
408.0435733360149
 20
582.1408996648768
  9
$UNITMODE
 70
     0
  9
$VISRETAIN
 70
     0
  9
$PLINEGEN
 70
     1
  9
$PSLTSCALE
 70
     0
  9
$TREEDEPTH
 70
  3020
  9
$PICKSTYLE
 70
     1
  9
$CMLSTYLE
  2
STANDARD
  9
$CMLJUST
 70
     0
  9
$CMLSCALE
 40
1.0
  9
$SAVEIMAGES
 70
     1
  0
ENDSEC
  0
SECTION
  2
CLASSES
  0
CLASS
  1
LWPOLYLINE
  2
AcDbPolyline
  3
AutoCAD 2000
 90
    32768
280
     0
281
     1
  0
CLASS
  1
IMAGE
  2
AcDbRasterImage
  3
ISM
 90
    32895
280
     0
281
     1
  0
CLASS
  1
OLE2FRAME
  2
AcDbOle2Frame
  3
AutoCAD 2000
 90
    32768
280
     0
281
     1
  0
CLASS
  1
HATCH
  2
AcDbHatch
  3
AutoCAD 2000
 90
    32768
280
     0
281
     1
  0
CLASS
  1
DICTIONARYVAR
  2
AcDbDictionaryVar
  3
AutoCAD 2000
 90
    32768
280
     0
281
     0
  0
CLASS
  1
RASTERVARIABLES
  2
AcDbRasterVariables
  3
ISM
 90
    32768
280
     0
281
     0
  0
CLASS
  1
IMAGEDEF
  2
AcDbRasterImageDef
  3
ISM
 90
    32768
280
     0
281
     0
  0
CLASS
  1
IMAGEDEF_REACTOR
  2
AcDbRasterImageDefReactor
  3
ISM
 90
    32769
280
     0
281
     0
  0
CLASS
  1
IDBUFFER
  2
AcDbIdBuffer
  3
AutoCAD 2000
 90
    32768
280
     0
281
     0
  0
CLASS
  1
SPATIAL_FILTER
  2
AcDbSpatialFilter
  3
AutoCAD 2000
 90
    32768
280
     0
281
     0
  0
CLASS
  1
XRECORD
  2
AcDbXrecord
  3
AutoCAD 2000
 90
    32768
280
     0
281
     0
  0
CLASS
  1
SORTENTSTABLE
  2
AcDbSortentsTable
  3
AutoCAD 2000
 90
    32768
280
     0
281
     0
  0
CLASS
  1
LAYER_INDEX
  2
AcDbLayerIndex
  3
AutoCAD 2000
 90
    32768
280
     0
281
     0
  0
CLASS
  1
SPATIAL_INDEX
  2
AcDbSpatialIndex
  3
AutoCAD 2000
 90
    32768
280
     0
281
     0
  0
CLASS
  1
OBJECT_PTR
  2
CAseDLPNTableRecord
  3
ASE-LPNTableRecord
 90
    32769
280
     0
281
     0
  0
CLASS
  1
ACDBDICTIONARYWDFLT
  2
AcDbDictionaryWithDefault
  3
AutoCAD 2000
 90
    32768
280
     0
281
     0
  0
CLASS
  1
ACDBPLACEHOLDER
  2
AcDbPlaceHolder
  3
AutoCAD 2000
 90
    32768
280
     0
281
     0
  0
CLASS
  1
LAYOUT
  2
AcDbLayout
  3
AutoCAD 2000
 90
    32768
280
     0
281
     0
  0
CLASS
  1
LONG_TRANSACTION
  2
AcDbLongTransaction
  3
AutoCAD 2000
 90
    32768
280
     0
281
     0
  0
CLASS
  1
LWPOLYLINE
  2
AcDbPolyline
  3
AutoCAD 2000
 90
    32768
280
     0
281
     1
  0
CLASS
  1
HATCH
  2
AcDbHatch
  3
AutoCAD 2000
 90
    32768
280
     0
281
     1
  0
CLASS
  1
XRECORD
  2
AcDbXrecord
  3
AutoCAD 2000
 90
    32768
280
     0
281
     0
  0
CLASS
  1
LONG_TRANSACTION
  2
AcDbLongTransaction
  3
AutoCAD 2000
 90
    32768
280
     0
281
     0
  0
CLASS
  1
LWPOLYLINE
  2
AcDbPolyline
  3
AutoCAD 2000
 90
    32768
280
     0
281
     1
  0
CLASS
  1
HATCH
  2
AcDbHatch
  3
AutoCAD 2000
 90
    32768
280
     0
281
     1
  0
CLASS
  1
XRECORD
  2
AcDbXrecord
  3
AutoCAD 2000
 90
    32768
280
     0
281
     0
  0
ENDSEC
  0
SECTION
  2
TABLES
  0
TABLE
  2
VPORT
  5
7
330
0
100
AcDbSymbolTable
 70
     2
  0
VPORT
  5
1898
330
7
100
AcDbSymbolTableRecord
100
AcDbViewportTableRecord
  2
*ACTIVE
 70
     0
 10
0.0
 20
0.0
 11
1.0
 21
1.0
 12
229.3372054834867
 22
297.000001383014
 13
0.0
 23
0.0
 14
1.0
 24
1.0
 15
0.0
 25
0.0
 16
0.0
 26
0.0
 36
1.0
 17
0.0
 27
0.0
 37
0.0
 40
601.7833440070819
 41
1.780442804428044
 42
50.0
 43
0.0
 44
0.0
 50
0.0
 51
0.0
 71
     0
 72
   100
 73
     1
 74
     1
 75
     0
 76
     0
 77
     0
 78
     0
  0
ENDTAB
  0
TABLE
  2
LTYPE
  5
4
330
0
100
AcDbSymbolTable
 70
     4
  0
LTYPE
  5
11
330
4
100
AcDbSymbolTableRecord
100
AcDbLinetypeTableRecord
  2
BYBLOCK
 70
     0
  3

 72
    65
 73
     0
 40
0.0
  0
LTYPE
  5
12
330
4
100
AcDbSymbolTableRecord
100
AcDbLinetypeTableRecord
  2
BYLAYER
 70
     0
  3

 72
    65
 73
     0
 40
0.0
  0
LTYPE
  5
13
330
4
100
AcDbSymbolTableRecord
100
AcDbLinetypeTableRecord
  2
CONTINUOUS
 70
     0
  3
Solid line
 72
    65
 73
     0
 40
0.0
  0
LTYPE
  5
7DF
330
4
100
AcDbSymbolTableRecord
100
AcDbLinetypeTableRecord
  2
CENTER2
 70
     0
  3
Center (.5x) ___ _ ___ _ ___ _ ___ _ ___ _ ___
 72
    65
 73
     4
 40
28.57499999999999
 49
19.05
 74
     0
 49
-3.174999999999998
 74
     0
 49
3.174999999999998
 74
     0
 49
-3.174999999999998
 74
     0
  0
LTYPE
  5
7E2
330
4
100
AcDbSymbolTableRecord
100
AcDbLinetypeTableRecord
  2
DASHED2
 70
     0
  3
Dashed (.5x) _ _ _ _ _ _ _ _ _ _ _ _ _ _ _ _ _
 72
    65
 73
     2
 40
9.524999999999996
 49
6.349999999999998
 74
     0
 49
-3.174999999999998
 74
     0
  0
LTYPE
  5
7E5
330
4
100
AcDbSymbolTableRecord
100
AcDbLinetypeTableRecord
  2
PHANTOM2
 70
     0
  3
Phantom (.5x) ___ _ _ ___ _ _ ___ _ _ ___ _ _
 72
    65
 73
     6
 40
31.75
 49
15.875
 74
     0
 49
-3.174999999999998
 74
     0
 49
3.174999999999998
 74
     0
 49
-3.174999999999998
 74
     0
 49
3.174999999999998
 74
     0
 49
-3.174999999999998
 74
     0
  0
ENDTAB
  0
TABLE
  2
LAYER
  5
2
102
{ACAD_XDICTIONARY
360
15EA
102
}
330
0
100
AcDbSymbolTable
 70
    13
  0
LAYER
  5
14
330
2
100
AcDbSymbolTableRecord
100
AcDbLayerTableRecord
  2
0
 70
     0
 62
     7
  6
CONTINUOUS
  0
LAYER
  5
7D6
330
2
100
AcDbSymbolTableRecord
100
AcDbLayerTableRecord
  2
DEFPOINTS
 70
     0
 62
     7
  6
CONTINUOUS
  0
LAYER
  5
7D8
330
2
100
AcDbSymbolTableRecord
100
AcDbLayerTableRecord
  2
02
 70
     0
 62
     2
  6
CONTINUOUS
  0
LAYER
  5
7D9
330
2
100
AcDbSymbolTableRecord
100
AcDbLayerTableRecord
  2
03
 70
     0
 62
     3
  6
CONTINUOUS
  0
LAYER
  5
7DA
330
2
100
AcDbSymbolTableRecord
100
AcDbLayerTableRecord
  2
04
 70
     0
 62
     4
  6
CONTINUOUS
  0
LAYER
  5
7DC
330
2
100
AcDbSymbolTableRecord
100
AcDbLayerTableRecord
  2
06
 70
     0
 62
     6
  6
CONTINUOUS
  0
LAYER
  5
7DE
330
2
100
AcDbSymbolTableRecord
100
AcDbLayerTableRecord
  2
CHUSIN
 70
     0
 62
     6
  6
CENTER2
  0
LAYER
  5
7E1
330
2
100
AcDbSymbolTableRecord
100
AcDbLayerTableRecord
  2
KAKURE
 70
     0
 62
     6
  6
DASHED2
  0
LAYER
  5
7E3
330
2
100
AcDbSymbolTableRecord
100
AcDbLayerTableRecord
  2
MOJI
 70
     0
 62
     3
  6
CONTINUOUS
  0
LAYER
  5
7E4
330
2
100
AcDbSymbolTableRecord
100
AcDbLayerTableRecord
  2
SOUZOU
 70
     0
 62
     6
  6
PHANTOM2
  0
LAYER
  5
7E6
330
2
100
AcDbSymbolTableRecord
100
AcDbLayerTableRecord
  2
SUNPOU
 70
     0
 62
     6
  6
CONTINUOUS
  0
LAYER
  5
15CD
330
2
100
AcDbSymbolTableRecord
100
AcDbLayerTableRecord
  2
HIKIDASI
 70
     0
 62
     6
  6
CONTINUOUS
  0
LAYER
  5
1665
330
2
100
AcDbSymbolTableRecord
100
AcDbLayerTableRecord
  2
SAISEN
 70
     0
 62
     3
  6
CONTINUOUS
  0
ENDTAB
  0
TABLE
  2
STYLE
  5
3
330
0
100
AcDbSymbolTable
 70
     4
  0
STYLE
  5
17
330
3
100
AcDbSymbolTableRecord
100
AcDbTextStyleTableRecord
  2
STANDARD
 70
     0
 40
0.0
 41
0.8
 50
0.0
 71
     0
 42
6.0
  3
txt.shx
  4
bigfont.shx
  0
STYLE
  5
7E8
330
3
100
AcDbSymbolTableRecord
100
AcDbTextStyleTableRecord
  2
SUNPOU
 70
     0
 40
0.0
 41
0.8
 50
0.0
 71
     0
 42
0.2
  3
txt.shx
  4
extfont.shx
  0
STYLE
  5
7F0
330
3
100
AcDbSymbolTableRecord
100
AcDbTextStyleTableRecord
  2
0_8
 70
     0
 40
0.0
 41
0.8
 50
0.0
 71
     0
 42
2.5
  3
txt.shx
  4
extfont.shx
  0
STYLE
  5
1838
330
3
100
AcDbSymbolTableRecord
100
AcDbTextStyleTableRecord
  2
0_80
 70
     0
 40
0.0
 41
0.8
 50
0.0
 71
     0
 42
7.0
  3
txt.shx
  4
extfont.shx
  0
ENDTAB
  0
TABLE
  2
VIEW
  5
5
330
0
100
AcDbSymbolTable
 70
     1
  0
VIEW
  5
136
330
5
100
AcDbSymbolTableRecord
100
AcDbViewTableRecord
  2
QQQQ
 70
     0
 40
599.460650895924
 10
0.8405569825604715
 20
4.249163301323108
 41
399.7642319859401
 11
0.0
 21
0.0
 31
1.0
 12
100.0
 22
100.0
 32
0.0
 42
50.0
 43
0.0
 44
0.0
 50
0.0
 71
     0
  0
ENDTAB
  0
TABLE
  2
UCS
  5
6
330
0
100
AcDbSymbolTable
 70
     0
  0
ENDTAB
  0
TABLE
  2
APPID
  5
8
330
0
100
AcDbSymbolTable
 70
     3
  0
APPID
  5
16
330
8
100
AcDbSymbolTableRecord
100
AcDbRegAppTableRecord
  2
ACAD
 70
     0
  0
APPID
  5
17FA
330
8
100
AcDbSymbolTableRecord
100
AcDbRegAppTableRecord
  2
CONTENTBLOCKICON
 70
     0
  0
APPID
  5
185D
330
8
100
AcDbSymbolTableRecord
100
AcDbRegAppTableRecord
  2
DCO15
 70
     0
  0
ENDTAB
  0
TABLE
  2
DIMSTYLE
  5
9
330
0
100
AcDbSymbolTable
 70
     2
  0
DIMSTYLE
105
18
330
9
100
AcDbSymbolTableRecord
100
AcDbDimStyleTableRecord
  2
STANDARD
 70
     0
  3

  4

  5

  6

  7

 40
1.0
 41
0.18
 42
0.0625
 43
0.38
 44
0.18
 45
0.0
 46
0.0
 47
0.0
 48
0.0
140
0.18
141
0.09
142
0.0
143
25.4
144
1.0
145
0.0
146
1.0
147
0.09
 71
     0
 72
     0
 73
     1
 74
     1
 75
     0
 76
     0
 77
     0
 78
     0
170
     0
171
     2
172
     0
173
     0
174
     0
175
     0
176
     0
177
     0
178
     0
270
     2
271
     4
272
     4
273
     2
274
     2
340
17
275
     0
280
     0
281
     0
282
     0
283
     1
284
     0
285
     0
286
     0
287
     3
288
     0
  0
DIMSTYLE
105
7E7
102
{ACAD_REACTORS
330
819
330
828
330
835
330
88F
330
89C
330
8B6
330
8C3
330
8D0
330
8DD
330
8EA
330
8F9
330
906
330
913
330
922
330
931
330
93E
330
94D
330
95A
330
969
330
976
330
985
330
992
330
9A1
330
9AE
330
9C8
330
9D7
330
9E4
330
9F1
330
9FF
330
C08
330
153D
330
1686
330
16B7
102
}
330
9
100
AcDbSymbolTableRecord
100
AcDbDimStyleTableRecord
  2
SUNPOU_2
 70
     0
  3

  4

  5
OPEN30
  6

  7

 40
2.0
 41
2.5
 42
1.5
 43
0.0
 44
1.0
 45
0.0
 46
0.0
 47
0.0
 48
0.0
140
2.5
141
0.0
142
0.0
143
25.4
144
1.0
145
0.0
146
1.0
147
1.0
 71
     0
 72
     0
 73
     0
 74
     0
 75
     0
 76
     0
 77
     1
 78
     8
170
     0
171
     2
172
     1
173
     0
174
     0
175
     0
176
   256
177
   256
178
     6
270
     2
271
     1
272
     1
273
     2
274
     2
340
7E8
275
     0
280
     0
281
     0
282
     0
283
     1
284
     0
285
     0
286
     0
287
     3
288
     0
  0
ENDTAB
  0
TABLE
  2
BLOCK_RECORD
  5
1
330
0
100
AcDbSymbolTable
 70
    35
  0
BLOCK_RECORD
  5
A
102
{ACAD_XDICTIONARY
360
17F6
102
}
330
1
100
AcDbSymbolTableRecord
100
AcDbBlockTableRecord
  2
*MODEL_SPACE
  0
BLOCK_RECORD
  5
B
102
{ACAD_XDICTIONARY
360
17F8
102
}
330
1
100
AcDbSymbolTableRecord
100
AcDbBlockTableRecord
  2
*PAPER_SPACE
  0
BLOCK_RECORD
  5
7E9
330
1
100
AcDbSymbolTableRecord
100
AcDbBlockTableRecord
  2
_OPEN30
1001
CONTENTBLOCKICON
1071
        0
1004
2800000020000000200000000100080000000000000400000000000000000000000000000000000000000000000080000080000000808000800000008000800080800000C0C0C000C0DCC000F0CAA6000020400000206000002080000020A0000020C0000020E00000400000004020000040400000406000004080000040A0
1004
000040C0000040E00000600000006020000060400000606000006080000060A0000060C0000060E00000800000008020000080400000806000008080000080A0000080C0000080E00000A0000000A0200000A0400000A0600000A0800000A0A00000A0C00000A0E00000C0000000C0200000C0400000C0600000C0800000C0
1004
A00000C0C00000C0E00000E0000000E0200000E0400000E0600000E0800000E0A00000E0C00000E0E00040000000400020004000400040006000400080004000A0004000C0004000E00040200000402020004020400040206000402080004020A0004020C0004020E000404000004040200040404000404060004040800040
1004
40A0004040C0004040E00040600000406020004060400040606000406080004060A0004060C0004060E00040800000408020004080400040806000408080004080A0004080C0004080E00040A0000040A0200040A0400040A0600040A0800040A0A00040A0C00040A0E00040C0000040C0200040C0400040C0600040C08000
1004
40C0A00040C0C00040C0E00040E0000040E0200040E0400040E0600040E0800040E0A00040E0C00040E0E00080000000800020008000400080006000800080008000A0008000C0008000E00080200000802020008020400080206000802080008020A0008020C0008020E00080400000804020008040400080406000804080
1004
008040A0008040C0008040E00080600000806020008060400080606000806080008060A0008060C0008060E00080800000808020008080400080806000808080008080A0008080C0008080E00080A0000080A0200080A0400080A0600080A0800080A0A00080A0C00080A0E00080C0000080C0200080C0400080C0600080C0
1004
800080C0A00080C0C00080C0E00080E0000080E0200080E0400080E0600080E0800080E0A00080E0C00080E0E000C0000000C0002000C0004000C0006000C0008000C000A000C000C000C000E000C0200000C0202000C0204000C0206000C0208000C020A000C020C000C020E000C0400000C0402000C0404000C0406000C0
1004
408000C040A000C040C000C040E000C0600000C0602000C0604000C0606000C0608000C060A000C060C000C060E000C0800000C0802000C0804000C0806000C0808000C080A000C080C000C080E000C0A00000C0A02000C0A04000C0A06000C0A08000C0A0A000C0A0C000C0A0E000C0C00000C0C02000C0C04000C0C06000
1004
C0C08000C0C0A000F0FBFF00A4A0A000808080000000FF0000FF000000FFFF00FF000000FF00FF00FFFF0000FFFFFF0000000000000000000000000000000000000000000000000000000000000000000000000000000000000000000000000000000000000000000000000000000000000000000000000000000000000000
1004
00000000000000000000000000000000000000000000000000000000000000000000000000000000000000000000000000000000000000000000000000000000000000000000000000000000000000000000000000000000000000000000000000000000000000000000000000000000000000000000000000000000000000
1004
000000000000000000000000000000000000000000000000000000000000000000000000000000000000000000000000000000FFFF0000000000000000000000000000000000000000000000000000000000000000FFFFFFFF0000000000000000000000000000000000000000000000000000000000000000FFFFFFFF0000
1004
000000000000000000000000000000000000000000000000000000000000FFFFFF0000000000000000000000000000000000000000000000000000000000000000FFFFFFFF0000000000000000000000000000000000000000000000000000000000000000FFFFFF0000000000000000000000000000000000000000000000
1004
000000000000000000FFFFFFFF0000000000000000000000000000000000000000000000000000000000000000FFFFFFFF00000000FFFFFFFFFFFFFFFFFFFFFFFFFFFFFFFFFFFFFFFFFFFFFFFFFFFFFFFFFFFF00000000000000000000000000000000000000000000000000FFFFFFFF000000000000000000000000000000
1004
000000000000000000FFFFFFFF000000000000000000000000000000000000000000000000FFFFFFFF000000000000000000000000000000000000000000000000FFFFFFFF000000000000000000000000000000000000000000000000FFFFFFFF000000000000000000000000000000000000000000000000FFFFFFFF0000
1004
0000000000000000000000000000000000000000000000FFFFFF0000000000000000000000000000000000000000000000000000000000000000000000000000000000000000000000000000000000000000000000000000000000000000000000000000000000000000000000000000000000000000000000000000000000
1004
00000000000000000000000000000000000000000000000000000000000000000000000000000000000000000000000000000000000000000000000000000000000000000000000000000000000000000000000000000000000000000000000000000000000000000000000000000000000000000000000000000000000000
1004
0000000000000000000000000000000000000000000000000000000000000000000000000000000000000000000000000000000000000000
  0
BLOCK_RECORD
  5
81A
330
1
100
AcDbSymbolTableRecord
100
AcDbBlockTableRecord
  2
*D1
  0
BLOCK_RECORD
  5
829
330
1
100
AcDbSymbolTableRecord
100
AcDbBlockTableRecord
  2
*D2
  0
BLOCK_RECORD
  5
836
330
1
100
AcDbSymbolTableRecord
100
AcDbBlockTableRecord
  2
*D3
  0
BLOCK_RECORD
  5
890
330
1
100
AcDbSymbolTableRecord
100
AcDbBlockTableRecord
  2
*D4
  0
BLOCK_RECORD
  5
89D
330
1
100
AcDbSymbolTableRecord
100
AcDbBlockTableRecord
  2
*D5
  0
BLOCK_RECORD
  5
8B7
330
1
100
AcDbSymbolTableRecord
100
AcDbBlockTableRecord
  2
*D6
  0
BLOCK_RECORD
  5
8C4
330
1
100
AcDbSymbolTableRecord
100
AcDbBlockTableRecord
  2
*D7
  0
BLOCK_RECORD
  5
8D1
330
1
100
AcDbSymbolTableRecord
100
AcDbBlockTableRecord
  2
*D8
  0
BLOCK_RECORD
  5
8DE
330
1
100
AcDbSymbolTableRecord
100
AcDbBlockTableRecord
  2
*D9
  0
BLOCK_RECORD
  5
8EB
330
1
100
AcDbSymbolTableRecord
100
AcDbBlockTableRecord
  2
*D10
  0
BLOCK_RECORD
  5
8FA
330
1
100
AcDbSymbolTableRecord
100
AcDbBlockTableRecord
  2
*D11
  0
BLOCK_RECORD
  5
907
330
1
100
AcDbSymbolTableRecord
100
AcDbBlockTableRecord
  2
*D12
  0
BLOCK_RECORD
  5
914
330
1
100
AcDbSymbolTableRecord
100
AcDbBlockTableRecord
  2
*D13
  0
BLOCK_RECORD
  5
923
330
1
100
AcDbSymbolTableRecord
100
AcDbBlockTableRecord
  2
*D14
  0
BLOCK_RECORD
  5
932
330
1
100
AcDbSymbolTableRecord
100
AcDbBlockTableRecord
  2
*D15
  0
BLOCK_RECORD
  5
93F
330
1
100
AcDbSymbolTableRecord
100
AcDbBlockTableRecord
  2
*D16
  0
BLOCK_RECORD
  5
94E
330
1
100
AcDbSymbolTableRecord
100
AcDbBlockTableRecord
  2
*D17
  0
BLOCK_RECORD
  5
95B
330
1
100
AcDbSymbolTableRecord
100
AcDbBlockTableRecord
  2
*D18
  0
BLOCK_RECORD
  5
96A
330
1
100
AcDbSymbolTableRecord
100
AcDbBlockTableRecord
  2
*D19
  0
BLOCK_RECORD
  5
977
330
1
100
AcDbSymbolTableRecord
100
AcDbBlockTableRecord
  2
*D20
  0
BLOCK_RECORD
  5
986
330
1
100
AcDbSymbolTableRecord
100
AcDbBlockTableRecord
  2
*D21
  0
BLOCK_RECORD
  5
993
330
1
100
AcDbSymbolTableRecord
100
AcDbBlockTableRecord
  2
*D22
  0
BLOCK_RECORD
  5
9A2
330
1
100
AcDbSymbolTableRecord
100
AcDbBlockTableRecord
  2
*D23
  0
BLOCK_RECORD
  5
9AF
330
1
100
AcDbSymbolTableRecord
100
AcDbBlockTableRecord
  2
*D24
  0
BLOCK_RECORD
  5
9C9
330
1
100
AcDbSymbolTableRecord
100
AcDbBlockTableRecord
  2
*D25
  0
BLOCK_RECORD
  5
9D8
330
1
100
AcDbSymbolTableRecord
100
AcDbBlockTableRecord
  2
*D26
  0
BLOCK_RECORD
  5
9E5
330
1
100
AcDbSymbolTableRecord
100
AcDbBlockTableRecord
  2
*D27
  0
BLOCK_RECORD
  5
9F2
330
1
100
AcDbSymbolTableRecord
100
AcDbBlockTableRecord
  2
*D28
  0
BLOCK_RECORD
  5
A00
330
1
100
AcDbSymbolTableRecord
100
AcDbBlockTableRecord
  2
*D29
  0
BLOCK_RECORD
  5
C09
330
1
100
AcDbSymbolTableRecord
100
AcDbBlockTableRecord
  2
*D30
  0
BLOCK_RECORD
  5
1086
330
1
100
AcDbSymbolTableRecord
100
AcDbBlockTableRecord
  2
_DOTSMALL
  0
BLOCK_RECORD
  5
153F
330
1
100
AcDbSymbolTableRecord
100
AcDbBlockTableRecord
  2
*D32
  0
BLOCK_RECORD
  5
1687
330
1
100
AcDbSymbolTableRecord
100
AcDbBlockTableRecord
  2
*D33
  0
BLOCK_RECORD
  5
16B8
330
1
100
AcDbSymbolTableRecord
100
AcDbBlockTableRecord
  2
*D34
  0
ENDTAB
  0
ENDSEC
  0
SECTION
  2
BLOCKS
  0
BLOCK
  5
D
330
A
100
AcDbEntity
  8
0
100
AcDbBlockBegin
  2
*MODEL_SPACE
 70
     0
 10
0.0
 20
0.0
 30
0.0
  3
*MODEL_SPACE
  1

  0
ENDBLK
  5
E
330
A
100
AcDbEntity
  8
0
100
AcDbBlockEnd
  0
BLOCK
  5
F
330
B
100
AcDbEntity
 67
     1
  8
0
100
AcDbBlockBegin
  2
*PAPER_SPACE
 70
     0
 10
0.0
 20
0.0
 30
0.0
  3
*PAPER_SPACE
  1

  0
ENDBLK
  5
10
330
B
100
AcDbEntity
 67
     1
  8
0
100
AcDbBlockEnd
  0
BLOCK
  5
7ED
330
7E9
100
AcDbEntity
  8
0
100
AcDbBlockBegin
  2
_OPEN30
 70
     0
 10
0.0
 20
0.0
 30
0.0
  3
_OPEN30
  1

  0
LINE
  5
7EA
330
7E9
100
AcDbEntity
  8
0
  6
BYBLOCK
 62
     0
100
AcDbLine
 10
-1.0
 20
0.26794919
 30
0.0
 11
0.0
 21
0.0
 31
0.0
  0
LINE
  5
7EB
330
7E9
100
AcDbEntity
  8
0
  6
BYBLOCK
 62
     0
100
AcDbLine
 10
0.0
 20
0.0
 30
0.0
 11
-1.0
 21
-0.26794919
 31
0.0
  0
LINE
  5
7EC
330
7E9
100
AcDbEntity
  8
0
  6
BYBLOCK
 62
     0
100
AcDbLine
 10
0.0
 20
0.0
 30
0.0
 11
-1.0
 21
0.0
 31
0.0
  0
ENDBLK
  5
7EE
330
7E9
100
AcDbEntity
  8
0
100
AcDbBlockEnd
  0
BLOCK
  5
826
330
81A
100
AcDbEntity
  8
0
100
AcDbBlockBegin
  2
*D1
 70
     1
 10
0.0
 20
0.0
 30
0.0
  3
*D1
  1

  0
LINE
  5
13CC
330
81A
100
AcDbEntity
  8
SUNPOU
100
AcDbLine
 10
143.5989431465218
 20
518.9836720933433
 30
0.0
 11
143.5989431465218
 21
517.9836720933433
 31
0.0
  0
LINE
  5
13CD
330
81A
100
AcDbEntity
  8
SUNPOU
100
AcDbLine
 10
146.5989431465216
 20
534.9983266026462
 30
0.0
 11
146.5989431465216
 21
513.9836720933433
 31
0.0
  0
LINE
  5
13CE
330
81A
100
AcDbEntity
  8
SUNPOU
100
AcDbLine
 10
138.5989431465218
 20
515.9836720933433
 30
0.0
 11
133.5989431465218
 21
515.9836720933433
 31
0.0
  0
LINE
  5
13CF
330
81A
100
AcDbEntity
  8
SUNPOU
100
AcDbLine
 10
151.5989431465218
 20
515.9836720933433
 30
0.0
 11
156.5989431465218
 21
515.9836720933433
 31
0.0
  0
MTEXT
  5
13D0
330
81A
100
AcDbEntity
  8
SUNPOU
 62
     6
100
AcDbMText
 10
141.121740952408
 20
520.3980257029743
 30
0.0
 40
5.0
 41
0.0
 71
     5
 72
     1
  1
\A1;3
  7
SUNPOU
1001
ACAD
1000
MTEXTBEGIN
1070
    73
1070
     1
1070
    44
1040
1.0
1070
    74
1070
     0
1000
MTEXTEND
1000
MTEXTBEGIN
1070
    73
1070
     1
1070
    44
1040
1.0
1070
    74
1070
     0
1000
MTEXTEND
  0
LINE
  5
13D1
330
81A
100
AcDbEntity
  8
SUNPOU
100
AcDbLine
 10
143.5989431465218
 20
515.9836720933433
 30
0.0
 11
146.5989431465216
 21
515.9836720933433
 31
0.0
  0
INSERT
  5
13D2
330
81A
100
AcDbEntity
  8
SUNPOU
100
AcDbBlockReference
  2
_OPEN30
 10
143.5989431465218
 20
515.9836720933433
 30
0.0
 41
5.0
 42
5.0
 43
5.0
  0
INSERT
  5
13D3
330
81A
100
AcDbEntity
  8
SUNPOU
100
AcDbBlockReference
  2
_OPEN30
 10
146.5989431465216
 20
515.9836720933433
 30
0.0
 41
5.0
 42
5.0
 43
5.0
 50
180.0
  0
POINT
  5
13D4
330
81A
100
AcDbEntity
  8
DEFPOINTS
 62
     0
100
AcDbPoint
 10
143.5989431465218
 20
515.9836720933433
 30
0.0
  0
POINT
  5
13D5
330
81A
100
AcDbEntity
  8
DEFPOINTS
 62
     0
100
AcDbPoint
 10
146.5989431465216
 20
537.9983266026462
 30
0.0
  0
POINT
  5
13D6
330
81A
100
AcDbEntity
  8
DEFPOINTS
 62
     0
100
AcDbPoint
 10
146.5989431465216
 20
515.9836720933433
 30
0.0
  0
ENDBLK
  5
827
330
81A
100
AcDbEntity
  8
0
100
AcDbBlockEnd
  0
BLOCK
  5
833
330
829
100
AcDbEntity
  8
0
100
AcDbBlockBegin
  2
*D2
 70
     1
 10
0.0
 20
0.0
 30
0.0
  3
*D2
  1

  0
LINE
  5
13E0
330
829
100
AcDbEntity
  8
SUNPOU
100
AcDbLine
 10
146.5989431465216
 20
534.9983266026462
 30
0.0
 11
146.5989431465216
 21
513.9836720933433
 31
0.0
  0
LINE
  5
13E1
330
829
100
AcDbEntity
  8
SUNPOU
100
AcDbLine
 10
260.5989431465216
 20
534.9983266026462
 30
0.0
 11
260.5989431465216
 21
513.9836720933433
 31
0.0
  0
LINE
  5
13E2
330
829
100
AcDbEntity
  8
SUNPOU
100
AcDbLine
 10
151.5989431465218
 20
515.9836720933433
 30
0.0
 11
255.5989431465217
 21
515.9836720933433
 31
0.0
  0
INSERT
  5
13E3
330
829
100
AcDbEntity
  8
SUNPOU
100
AcDbBlockReference
  2
_OPEN30
 10
146.5989431465216
 20
515.9836720933433
 30
0.0
 41
5.0
 42
5.0
 43
5.0
 50
180.0
  0
INSERT
  5
13E4
330
829
100
AcDbEntity
  8
SUNPOU
100
AcDbBlockReference
  2
_OPEN30
 10
260.5989431465216
 20
515.9836720933433
 30
0.0
 41
5.0
 42
5.0
 43
5.0
  0
MTEXT
  5
13E5
330
829
100
AcDbEntity
  8
SUNPOU
 62
     6
100
AcDbMText
 10
203.5989431465217
 20
520.4836720933433
 30
0.0
 40
5.0
 41
0.0
 71
     5
 72
     1
  1
\A1;114
  7
SUNPOU
1001
ACAD
1000
MTEXTBEGIN
1070
    73
1070
     1
1070
    44
1040
1.0
1070
    74
1070
     0
1000
MTEXTEND
1000
MTEXTBEGIN
1070
    73
1070
     1
1070
    44
1040
1.0
1070
    74
1070
     0
1000
MTEXTEND
  0
POINT
  5
13E6
330
829
100
AcDbEntity
  8
DEFPOINTS
 62
     0
100
AcDbPoint
 10
146.5989431465216
 20
537.9983266026462
 30
0.0
  0
POINT
  5
13E7
330
829
100
AcDbEntity
  8
DEFPOINTS
 62
     0
100
AcDbPoint
 10
260.5989431465216
 20
537.9983266026462
 30
0.0
  0
POINT
  5
13E8
330
829
100
AcDbEntity
  8
DEFPOINTS
 62
     0
100
AcDbPoint
 10
260.5989431465216
 20
515.9836720933433
 30
0.0
  0
ENDBLK
  5
834
330
829
100
AcDbEntity
  8
0
100
AcDbBlockEnd
  0
BLOCK
  5
842
330
836
100
AcDbEntity
  8
0
100
AcDbBlockBegin
  2
*D3
 70
     1
 10
0.0
 20
0.0
 30
0.0
  3
*D3
  1

  0
LINE
  5
13E9
330
836
100
AcDbEntity
  8
SUNPOU
100
AcDbLine
 10
260.5989431465216
 20
534.9983266026462
 30
0.0
 11
260.5989431465216
 21
513.9836720933433
 31
0.0
  0
LINE
  5
13EA
330
836
100
AcDbEntity
  8
SUNPOU
100
AcDbLine
 10
263.5989431465216
 20
518.9836720933433
 30
0.0
 11
263.5989431465216
 21
517.9836720933433
 31
0.0
  0
LINE
  5
13EB
330
836
100
AcDbEntity
  8
SUNPOU
100
AcDbLine
 10
255.5989431465217
 20
515.9836720933433
 30
0.0
 11
250.5989431465216
 21
515.9836720933433
 31
0.0
  0
LINE
  5
13EC
330
836
100
AcDbEntity
  8
SUNPOU
100
AcDbLine
 10
268.5989431465216
 20
515.9836720933433
 30
0.0
 11
273.5989431465216
 21
515.9836720933433
 31
0.0
  0
MTEXT
  5
13ED
330
836
100
AcDbEntity
  8
SUNPOU
 62
     6
100
AcDbMText
 10
266.4094685523516
 20
520.4193799893018
 30
0.0
 40
5.0
 41
0.0
 71
     5
 72
     1
  1
\A1;3
  7
SUNPOU
1001
ACAD
1000
MTEXTBEGIN
1070
    73
1070
     1
1070
    44
1040
1.0
1070
    74
1070
     0
1000
MTEXTEND
1000
MTEXTBEGIN
1070
    73
1070
     1
1070
    44
1040
1.0
1070
    74
1070
     0
1000
MTEXTEND
  0
LINE
  5
13EE
330
836
100
AcDbEntity
  8
SUNPOU
100
AcDbLine
 10
260.5989431465216
 20
515.9836720933433
 30
0.0
 11
263.5989431465216
 21
515.9836720933433
 31
0.0
  0
INSERT
  5
13EF
330
836
100
AcDbEntity
  8
SUNPOU
100
AcDbBlockReference
  2
_OPEN30
 10
260.5989431465216
 20
515.9836720933433
 30
0.0
 41
5.0
 42
5.0
 43
5.0
  0
INSERT
  5
13F0
330
836
100
AcDbEntity
  8
SUNPOU
100
AcDbBlockReference
  2
_OPEN30
 10
263.5989431465216
 20
515.9836720933433
 30
0.0
 41
5.0
 42
5.0
 43
5.0
 50
180.0
  0
POINT
  5
13F1
330
836
100
AcDbEntity
  8
DEFPOINTS
 62
     0
100
AcDbPoint
 10
260.5989431465216
 20
537.9983266026462
 30
0.0
  0
POINT
  5
13F2
330
836
100
AcDbEntity
  8
DEFPOINTS
 62
     0
100
AcDbPoint
 10
263.5989431465216
 20
515.9836720933433
 30
0.0
  0
POINT
  5
13F3
330
836
100
AcDbEntity
  8
DEFPOINTS
 62
     0
100
AcDbPoint
 10
263.5989431465216
 20
515.9836720933433
 30
0.0
  0
ENDBLK
  5
843
330
836
100
AcDbEntity
  8
0
100
AcDbBlockEnd
  0
BLOCK
  5
89A
330
890
100
AcDbEntity
  8
0
100
AcDbBlockBegin
  2
*D4
 70
     1
 10
0.0
 20
0.0
 30
0.0
  3
*D4
  1

  0
LINE
  5
17B4
330
890
100
AcDbEntity
  8
SUNPOU
100
AcDbLine
 10
168.5989431465216
 20
463.8380694876302
 30
0.0
 11
168.5989431465216
 21
462.8380694876301
 31
0.0
  0
LINE
  5
17B5
330
890
100
AcDbEntity
  8
SUNPOU
100
AcDbLine
 10
302.5989431465216
 20
458.498326602647
 30
0.0
 11
302.5989431465216
 21
462.8380694876301
 31
0.0
  0
LINE
  5
17B6
330
890
100
AcDbEntity
  8
SUNPOU
100
AcDbLine
 10
173.5989431465216
 20
460.8380694876301
 30
0.0
 11
297.5989431465216
 21
460.8380694876301
 31
0.0
  0
INSERT
  5
17B7
330
890
100
AcDbEntity
  8
SUNPOU
100
AcDbBlockReference
  2
_OPEN30
 10
168.5989431465216
 20
460.8380694876301
 30
0.0
 41
5.0
 42
5.0
 43
5.0
 50
180.0
  0
INSERT
  5
17B8
330
890
100
AcDbEntity
  8
SUNPOU
100
AcDbBlockReference
  2
_OPEN30
 10
302.5989431465216
 20
460.8380694876301
 30
0.0
 41
5.0
 42
5.0
 43
5.0
  0
MTEXT
  5
17B9
330
890
100
AcDbEntity
  8
SUNPOU
 62
     6
100
AcDbMText
 10
235.5989431465216
 20
465.3380694876301
 30
0.0
 40
5.0
 41
0.0
 71
     5
 72
     1
  1
\A1;134
  7
SUNPOU
1001
ACAD
1000
MTEXTBEGIN
1070
    73
1070
     1
1070
    44
1040
1.0
1070
    74
1070
     0
1000
MTEXTEND
1000
MTEXTBEGIN
1070
    73
1070
     1
1070
    44
1040
1.0
1070
    74
1070
     0
1000
MTEXTEND
  0
POINT
  5
17BA
330
890
100
AcDbEntity
  8
DEFPOINTS
 62
     0
100
AcDbPoint
 10
168.5989431465216
 20
460.8380694876301
 30
0.0
  0
POINT
  5
17BB
330
890
100
AcDbEntity
  8
DEFPOINTS
 62
     0
100
AcDbPoint
 10
302.5989431465216
 20
455.498326602647
 30
0.0
  0
POINT
  5
17BC
330
890
100
AcDbEntity
  8
DEFPOINTS
 62
     0
100
AcDbPoint
 10
302.5989431465216
 20
460.8380694876301
 30
0.0
  0
ENDBLK
  5
89B
330
890
100
AcDbEntity
  8
0
100
AcDbBlockEnd
  0
BLOCK
  5
8A7
330
89D
100
AcDbEntity
  8
0
100
AcDbBlockBegin
  2
*D5
 70
     1
 10
0.0
 20
0.0
 30
0.0
  3
*D5
  1

  0
LINE
  5
17A1
330
89D
100
AcDbEntity
  8
SUNPOU
100
AcDbLine
 10
146.5989431465216
 20
415.746845533359
 30
0.0
 11
146.5989431465216
 21
409.8087674921025
 31
0.0
  0
LINE
  5
17A2
330
89D
100
AcDbEntity
  8
SUNPOU
100
AcDbLine
 10
168.5989431465218
 20
414.8087674921026
 30
0.0
 11
168.5989431465218
 21
413.8087674921025
 31
0.0
  0
LINE
  5
17A3
330
89D
100
AcDbEntity
  8
SUNPOU
100
AcDbLine
 10
151.5989431465216
 20
411.8087674921024
 30
0.0
 11
163.5989431465218
 21
411.8087674921024
 31
0.0
  0
INSERT
  5
17A4
330
89D
100
AcDbEntity
  8
SUNPOU
100
AcDbBlockReference
  2
_OPEN30
 10
146.5989431465216
 20
411.8087674921024
 30
0.0
 41
5.0
 42
5.0
 43
5.0
 50
180.0
  0
INSERT
  5
17A5
330
89D
100
AcDbEntity
  8
SUNPOU
100
AcDbBlockReference
  2
_OPEN30
 10
168.5989431465218
 20
411.8087674921024
 30
0.0
 41
5.0
 42
5.0
 43
5.0
  0
MTEXT
  5
17A6
330
89D
100
AcDbEntity
  8
SUNPOU
 62
     6
100
AcDbMText
 10
157.5989431465217
 20
416.3087674921024
 30
0.0
 40
5.0
 41
0.0
 71
     5
 72
     1
  1
\A1;22
  7
SUNPOU
1001
ACAD
1000
MTEXTBEGIN
1070
    73
1070
     1
1070
    44
1040
1.0
1070
    74
1070
     0
1000
MTEXTEND
1000
MTEXTBEGIN
1070
    73
1070
     1
1070
    44
1040
1.0
1070
    74
1070
     0
1000
MTEXTEND
  0
POINT
  5
17A7
330
89D
100
AcDbEntity
  8
DEFPOINTS
 62
     0
100
AcDbPoint
 10
146.5989431465216
 20
418.7468455333588
 30
0.0
  0
POINT
  5
17A8
330
89D
100
AcDbEntity
  8
DEFPOINTS
 62
     0
100
AcDbPoint
 10
168.5989431465218
 20
411.8087674921024
 30
0.0
  0
POINT
  5
17A9
330
89D
100
AcDbEntity
  8
DEFPOINTS
 62
     0
100
AcDbPoint
 10
168.5989431465218
 20
411.8087674921024
 30
0.0
  0
ENDBLK
  5
8A8
330
89D
100
AcDbEntity
  8
0
100
AcDbBlockEnd
  0
BLOCK
  5
8C1
330
8B7
100
AcDbEntity
  8
0
100
AcDbBlockBegin
  2
*D6
 70
     1
 10
0.0
 20
0.0
 30
0.0
  3
*D6
  1

  0
LINE
  5
16A5
330
8B7
100
AcDbEntity
  8
SUNPOU
100
AcDbLine
 10
200.5989431465216
 20
414.8087674921026
 30
0.0
 11
200.5989431465216
 21
413.8087674921025
 31
0.0
  0
LINE
  5
16A6
330
8B7
100
AcDbEntity
  8
SUNPOU
100
AcDbLine
 10
227.5989431465216
 20
405.3751627907997
 30
0.0
 11
227.5989431465216
 21
413.8087674921025
 31
0.0
  0
LINE
  5
16A7
330
8B7
100
AcDbEntity
  8
SUNPOU
100
AcDbLine
 10
205.5989431465216
 20
411.8087674921024
 30
0.0
 11
222.5989431465217
 21
411.8087674921024
 31
0.0
  0
INSERT
  5
16A8
330
8B7
100
AcDbEntity
  8
SUNPOU
100
AcDbBlockReference
  2
_OPEN30
 10
200.5989431465216
 20
411.8087674921024
 30
0.0
 41
5.0
 42
5.0
 43
5.0
 50
180.0
  0
INSERT
  5
16A9
330
8B7
100
AcDbEntity
  8
SUNPOU
100
AcDbBlockReference
  2
_OPEN30
 10
227.5989431465216
 20
411.8087674921024
 30
0.0
 41
5.0
 42
5.0
 43
5.0
  0
MTEXT
  5
16AA
330
8B7
100
AcDbEntity
  8
SUNPOU
 62
     6
100
AcDbMText
 10
214.0989431465218
 20
416.3087674921024
 30
0.0
 40
5.0
 41
0.0
 71
     5
 72
     1
  1
\A1;27
  7
SUNPOU
1001
ACAD
1000
MTEXTBEGIN
1070
    73
1070
     1
1070
    44
1040
1.0
1070
    74
1070
     0
1000
MTEXTEND
1000
MTEXTBEGIN
1070
    73
1070
     1
1070
    44
1040
1.0
1070
    74
1070
     0
1000
MTEXTEND
  0
POINT
  5
16AB
330
8B7
100
AcDbEntity
  8
DEFPOINTS
 62
     0
100
AcDbPoint
 10
200.5989431465216
 20
411.8087674921024
 30
0.0
  0
POINT
  5
16AC
330
8B7
100
AcDbEntity
  8
DEFPOINTS
 62
     0
100
AcDbPoint
 10
227.5989431465216
 20
402.3751627907999
 30
0.0
  0
POINT
  5
16AD
330
8B7
100
AcDbEntity
  8
DEFPOINTS
 62
     0
100
AcDbPoint
 10
227.5989431465216
 20
411.8087674921024
 30
0.0
  0
ENDBLK
  5
8C2
330
8B7
100
AcDbEntity
  8
0
100
AcDbBlockEnd
  0
BLOCK
  5
8CE
330
8C4
100
AcDbEntity
  8
0
100
AcDbBlockBegin
  2
*D7
 70
     1
 10
0.0
 20
0.0
 30
0.0
  3
*D7
  1

  0
LINE
  5
167D
330
8C4
100
AcDbEntity
  8
SUNPOU
100
AcDbLine
 10
153.3013399153878
 20
396.498326602647
 30
0.0
 11
120.8499966921379
 21
396.498326602647
 31
0.0
  0
LINE
  5
167E
330
8C4
100
AcDbEntity
  8
SUNPOU
100
AcDbLine
 10
157.5989431465218
 20
351.498326602647
 30
0.0
 11
120.8499966921379
 21
351.498326602647
 31
0.0
  0
LINE
  5
167F
330
8C4
100
AcDbEntity
  8
SUNPOU
100
AcDbLine
 10
122.8499966921379
 20
391.4983266026471
 30
0.0
 11
122.8499966921379
 21
356.4983266026469
 31
0.0
  0
MTEXT
  5
1680
330
8C4
100
AcDbEntity
  8
SUNPOU
 62
     6
100
AcDbMText
 10
118.3499966921379
 20
371.6935921291053
 30
0.0
 40
5.0
 41
0.0
 71
     5
 72
     1
  1
\A1;45
  7
SUNPOU
 11
0.0000000000000001
 21
1.0
 31
0.0
1001
ACAD
1000
MTEXTBEGIN
1070
    73
1070
     1
1070
    44
1040
1.0
1070
    74
1070
     0
1000
MTEXTEND
1000
MTEXTBEGIN
1070
    73
1070
     1
1070
    44
1040
1.0
1070
    74
1070
     0
1000
MTEXTEND
  0
INSERT
  5
1681
330
8C4
100
AcDbEntity
  8
SUNPOU
100
AcDbBlockReference
  2
_OPEN30
 10
122.8499966921379
 20
396.498326602647
 30
0.0
 41
5.0
 42
5.0
 43
5.0
 50
90.0
  0
INSERT
  5
1682
330
8C4
100
AcDbEntity
  8
SUNPOU
100
AcDbBlockReference
  2
_OPEN30
 10
122.8499966921379
 20
351.498326602647
 30
0.0
 41
5.0
 42
5.0
 43
5.0
 50
270.0
  0
POINT
  5
1683
330
8C4
100
AcDbEntity
  8
DEFPOINTS
 62
     0
100
AcDbPoint
 10
156.3013399153878
 20
396.498326602647
 30
0.0
  0
POINT
  5
1684
330
8C4
100
AcDbEntity
  8
DEFPOINTS
 62
     0
100
AcDbPoint
 10
160.5989431465218
 20
351.498326602647
 30
0.0
  0
POINT
  5
1685
330
8C4
100
AcDbEntity
  8
DEFPOINTS
 62
     0
100
AcDbPoint
 10
122.8499966921379
 20
351.498326602647
 30
0.0
  0
ENDBLK
  5
8CF
330
8C4
100
AcDbEntity
  8
0
100
AcDbBlockEnd
  0
BLOCK
  5
8DB
330
8D1
100
AcDbEntity
  8
0
100
AcDbBlockBegin
  2
*D8
 70
     1
 10
0.0
 20
0.0
 30
0.0
  3
*D8
  1

  0
LINE
  5
146A
330
8D1
100
AcDbEntity
  8
SUNPOU
100
AcDbLine
 10
127.5989431465217
 20
396.498326602647
 30
0.0
 11
105.3511670210655
 21
396.498326602647
 31
0.0
  0
LINE
  5
146B
330
8D1
100
AcDbEntity
  8
SUNPOU
100
AcDbLine
 10
145.1989431465216
 20
296.4983266026468
 30
0.0
 11
105.3511670210655
 21
296.498326602647
 31
0.0
  0
LINE
  5
146C
330
8D1
100
AcDbEntity
  8
SUNPOU
100
AcDbLine
 10
107.3511670210655
 20
391.4983266026471
 30
0.0
 11
107.3511670210655
 21
301.498326602647
 31
0.0
  0
INSERT
  5
146D
330
8D1
100
AcDbEntity
  8
SUNPOU
100
AcDbBlockReference
  2
_OPEN30
 10
107.3511670210655
 20
396.498326602647
 30
0.0
 41
5.0
 42
5.0
 43
5.0
 50
90.0
  0
INSERT
  5
146E
330
8D1
100
AcDbEntity
  8
SUNPOU
100
AcDbBlockReference
  2
_OPEN30
 10
107.3511670210655
 20
296.498326602647
 30
0.0
 41
5.0
 42
5.0
 43
5.0
 50
270.0
  0
MTEXT
  5
146F
330
8D1
100
AcDbEntity
  8
SUNPOU
 62
     6
100
AcDbMText
 10
102.8511670210654
 20
346.498326602647
 30
0.0
 40
5.0
 41
0.0
 71
     5
 72
     1
  1
\A1;100
  7
SUNPOU
 11
0.0000000000000001
 21
1.0
 31
0.0
1001
ACAD
1000
MTEXTBEGIN
1070
    73
1070
     1
1070
    44
1040
1.0
1070
    74
1070
     0
1000
MTEXTEND
1000
MTEXTBEGIN
1070
    73
1070
     1
1070
    44
1040
1.0
1070
    74
1070
     0
1000
MTEXTEND
  0
POINT
  5
1470
330
8D1
100
AcDbEntity
  8
DEFPOINTS
 62
     0
100
AcDbPoint
 10
130.5989431465216
 20
396.498326602647
 30
0.0
  0
POINT
  5
1471
330
8D1
100
AcDbEntity
  8
DEFPOINTS
 62
     0
100
AcDbPoint
 10
148.1989431465216
 20
296.4983266026468
 30
0.0
  0
POINT
  5
1472
330
8D1
100
AcDbEntity
  8
DEFPOINTS
 62
     0
100
AcDbPoint
 10
107.3511670210655
 20
296.498326602647
 30
0.0
  0
ENDBLK
  5
8DC
330
8D1
100
AcDbEntity
  8
0
100
AcDbBlockEnd
  0
BLOCK
  5
8E8
330
8DE
100
AcDbEntity
  8
0
100
AcDbBlockBegin
  2
*D9
 70
     1
 10
0.0
 20
0.0
 30
0.0
  3
*D9
  1

  0
LINE
  5
1461
330
8DE
100
AcDbEntity
  8
SUNPOU
100
AcDbLine
 10
182.6514069221509
 20
356.4983266026468
 30
0.0
 11
127.7190729288659
 21
356.4983266026469
 31
0.0
  0
LINE
  5
1462
330
8DE
100
AcDbEntity
  8
SUNPOU
100
AcDbLine
 10
145.1989431465216
 20
296.498326602647
 30
0.0
 11
127.7190729288659
 21
296.498326602647
 31
0.0
  0
LINE
  5
1463
330
8DE
100
AcDbEntity
  8
SUNPOU
100
AcDbLine
 10
129.719072928866
 20
351.498326602647
 30
0.0
 11
129.7190729288659
 21
301.498326602647
 31
0.0
  0
INSERT
  5
1464
330
8DE
100
AcDbEntity
  8
SUNPOU
100
AcDbBlockReference
  2
_OPEN30
 10
129.719072928866
 20
356.4983266026468
 30
0.0
 41
5.0
 42
5.0
 43
5.0
 50
90.0
  0
INSERT
  5
1465
330
8DE
100
AcDbEntity
  8
SUNPOU
100
AcDbBlockReference
  2
_OPEN30
 10
129.7190729288659
 20
296.498326602647
 30
0.0
 41
5.0
 42
5.0
 43
5.0
 50
270.0
  0
MTEXT
  5
1466
330
8DE
100
AcDbEntity
  8
SUNPOU
 62
     6
100
AcDbMText
 10
125.2190729288659
 20
326.498326602647
 30
0.0
 40
5.0
 41
0.0
 71
     5
 72
     1
  1
\A1;60
  7
SUNPOU
 11
0.0000000000000001
 21
1.0
 31
0.0
1001
ACAD
1000
MTEXTBEGIN
1070
    73
1070
     1
1070
    44
1040
1.0
1070
    74
1070
     0
1000
MTEXTEND
1000
MTEXTBEGIN
1070
    73
1070
     1
1070
    44
1040
1.0
1070
    74
1070
     0
1000
MTEXTEND
  0
POINT
  5
1467
330
8DE
100
AcDbEntity
  8
DEFPOINTS
 62
     0
100
AcDbPoint
 10
185.6514069221509
 20
356.4983266026468
 30
0.0
  0
POINT
  5
1468
330
8DE
100
AcDbEntity
  8
DEFPOINTS
 62
     0
100
AcDbPoint
 10
148.1989431465216
 20
296.498326602647
 30
0.0
  0
POINT
  5
1469
330
8DE
100
AcDbEntity
  8
DEFPOINTS
 62
     0
100
AcDbPoint
 10
129.7190729288659
 20
296.498326602647
 30
0.0
  0
ENDBLK
  5
8E9
330
8DE
100
AcDbEntity
  8
0
100
AcDbBlockEnd
  0
BLOCK
  5
8F7
330
8EB
100
AcDbEntity
  8
0
100
AcDbBlockBegin
  2
*D10
 70
     1
 10
0.0
 20
0.0
 30
0.0
  3
*D10
  1

  0
LINE
  5
1456
330
8EB
100
AcDbEntity
  8
SUNPOU
100
AcDbLine
 10
171.5989431465216
 20
293.498326602647
 30
0.0
 11
127.7190729288659
 21
293.498326602647
 31
0.0
  0
LINE
  5
1457
330
8EB
100
AcDbEntity
  8
SUNPOU
100
AcDbLine
 10
126.7190729288659
 20
296.498326602647
 30
0.0
 11
127.7190729288659
 21
296.498326602647
 31
0.0
  0
LINE
  5
1458
330
8EB
100
AcDbEntity
  8
SUNPOU
100
AcDbLine
 10
129.7190729288659
 20
288.498326602647
 30
0.0
 11
129.7190729288659
 21
283.4983266026468
 31
0.0
  0
LINE
  5
1459
330
8EB
100
AcDbEntity
  8
SUNPOU
100
AcDbLine
 10
129.7190729288659
 20
301.4983266026468
 30
0.0
 11
129.7190729288659
 21
306.4983266026468
 31
0.0
  0
MTEXT
  5
145A
330
8EB
100
AcDbEntity
  8
SUNPOU
 62
     6
100
AcDbMText
 10
124.1238590238104
 20
300.071004078324
 30
0.0
 40
5.0
 41
0.0
 71
     5
 72
     1
  1
\A1;3
  7
SUNPOU
 11
0.0000000000000001
 21
1.0
 31
0.0
1001
ACAD
1000
MTEXTBEGIN
1070
    73
1070
     1
1070
    44
1040
1.0
1070
    74
1070
     0
1000
MTEXTEND
1000
MTEXTBEGIN
1070
    73
1070
     1
1070
    44
1040
1.0
1070
    74
1070
     0
1000
MTEXTEND
  0
LINE
  5
145B
330
8EB
100
AcDbEntity
  8
SUNPOU
100
AcDbLine
 10
129.7190729288659
 20
293.498326602647
 30
0.0
 11
129.7190729288659
 21
296.4983266026468
 31
0.0
  0
INSERT
  5
145C
330
8EB
100
AcDbEntity
  8
SUNPOU
100
AcDbBlockReference
  2
_OPEN30
 10
129.7190729288659
 20
293.498326602647
 30
0.0
 41
5.0
 42
5.0
 43
5.0
 50
90.0
  0
INSERT
  5
145D
330
8EB
100
AcDbEntity
  8
SUNPOU
100
AcDbBlockReference
  2
_OPEN30
 10
129.7190729288659
 20
296.4983266026468
 30
0.0
 41
5.0
 42
5.0
 43
5.0
 50
270.0
  0
POINT
  5
145E
330
8EB
100
AcDbEntity
  8
DEFPOINTS
 62
     0
100
AcDbPoint
 10
174.5989431465216
 20
293.498326602647
 30
0.0
  0
POINT
  5
145F
330
8EB
100
AcDbEntity
  8
DEFPOINTS
 62
     0
100
AcDbPoint
 10
129.719072928866
 20
296.4983266026468
 30
0.0
  0
POINT
  5
1460
330
8EB
100
AcDbEntity
  8
DEFPOINTS
 62
     0
100
AcDbPoint
 10
129.7190729288659
 20
296.4983266026468
 30
0.0
  0
ENDBLK
  5
8F8
330
8EB
100
AcDbEntity
  8
0
100
AcDbBlockEnd
  0
BLOCK
  5
904
330
8FA
100
AcDbEntity
  8
0
100
AcDbBlockBegin
  2
*D11
 70
     1
 10
0.0
 20
0.0
 30
0.0
  3
*D11
  1

  0
LINE
  5
147C
330
8FA
100
AcDbEntity
  8
SUNPOU
100
AcDbLine
 10
171.5989431465216
 20
293.498326602647
 30
0.0
 11
127.7190729288659
 21
293.498326602647
 31
0.0
  0
LINE
  5
147D
330
8FA
100
AcDbEntity
  8
SUNPOU
100
AcDbLine
 10
171.5989431465216
 20
114.498326602647
 30
0.0
 11
127.7190729288659
 21
114.498326602647
 31
0.0
  0
LINE
  5
147E
330
8FA
100
AcDbEntity
  8
SUNPOU
100
AcDbLine
 10
129.719072928866
 20
288.498326602647
 30
0.0
 11
129.7190729288659
 21
119.498326602647
 31
0.0
  0
MTEXT
  5
147F
330
8FA
100
AcDbEntity
  8
SUNPOU
 62
     6
100
AcDbMText
 10
123.9508119717904
 20
174.4473491187435
 30
0.0
 40
5.0
 41
0.0
 71
     5
 72
     1
  1
\A1;FixDH=H-16
  7
SUNPOU
 11
0.0000000000000001
 21
1.0
 31
0.0
1001
ACAD
1000
MTEXTBEGIN
1070
    73
1070
     1
1070
    44
1040
1.0
1070
    74
1070
     0
1000
MTEXTEND
1000
MTEXTBEGIN
1070
    73
1070
     1
1070
    44
1040
1.0
1070
    74
1070
     0
1000
MTEXTEND
  0
INSERT
  5
1480
330
8FA
100
AcDbEntity
  8
SUNPOU
100
AcDbBlockReference
  2
_OPEN30
 10
129.719072928866
 20
293.498326602647
 30
0.0
 41
5.0
 42
5.0
 43
5.0
 50
90.0
  0
INSERT
  5
1481
330
8FA
100
AcDbEntity
  8
SUNPOU
100
AcDbBlockReference
  2
_OPEN30
 10
129.7190729288659
 20
114.498326602647
 30
0.0
 41
5.0
 42
5.0
 43
5.0
 50
270.0
  0
POINT
  5
1482
330
8FA
100
AcDbEntity
  8
DEFPOINTS
 62
     0
100
AcDbPoint
 10
174.5989431465216
 20
293.498326602647
 30
0.0
  0
POINT
  5
1483
330
8FA
100
AcDbEntity
  8
DEFPOINTS
 62
     0
100
AcDbPoint
 10
174.5989431465216
 20
114.498326602647
 30
0.0
  0
POINT
  5
1484
330
8FA
100
AcDbEntity
  8
DEFPOINTS
 62
     0
100
AcDbPoint
 10
129.7190729288659
 20
114.498326602647
 30
0.0
  0
ENDBLK
  5
905
330
8FA
100
AcDbEntity
  8
0
100
AcDbBlockEnd
  0
BLOCK
  5
911
330
907
100
AcDbEntity
  8
0
100
AcDbBlockBegin
  2
*D12
 70
     1
 10
0.0
 20
0.0
 30
0.0
  3
*D12
  1

  0
LINE
  5
1473
330
907
100
AcDbEntity
  8
SUNPOU
100
AcDbLine
 10
109.7296718203083
 20
101.4983266026469
 30
0.0
 11
110.7296718203083
 21
101.4983266026469
 31
0.0
  0
LINE
  5
1474
330
907
100
AcDbEntity
  8
SUNPOU
100
AcDbLine
 10
147.5989431465216
 20
197.7887033544476
 30
0.0
 11
110.7296718203083
 21
197.7887033544476
 31
0.0
  0
LINE
  5
1475
330
907
100
AcDbEntity
  8
SUNPOU
100
AcDbLine
 10
112.7296718203083
 20
106.4983266026469
 30
0.0
 11
112.7296718203083
 21
192.7887033544475
 31
0.0
  0
INSERT
  5
1476
330
907
100
AcDbEntity
  8
SUNPOU
100
AcDbBlockReference
  2
_OPEN30
 10
112.7296718203083
 20
101.4983266026469
 30
0.0
 41
5.0
 42
5.0
 43
5.0
 50
270.0
  0
INSERT
  5
1477
330
907
100
AcDbEntity
  8
SUNPOU
100
AcDbBlockReference
  2
_OPEN30
 10
112.7296718203083
 20
197.7887033544476
 30
0.0
 41
5.0
 42
5.0
 43
5.0
 50
90.0
  0
MTEXT
  5
1478
330
907
100
AcDbEntity
  8
SUNPOU
 62
     6
100
AcDbMText
 10
108.2296718203084
 20
149.6435149785473
 30
0.0
 40
5.0
 41
0.0
 71
     5
 72
     1
  1
\A1;600
  7
SUNPOU
 11
0.0000000000000001
 21
1.0
 31
0.0
1001
ACAD
1000
MTEXTBEGIN
1070
    73
1070
     1
1070
    44
1040
1.0
1070
    74
1070
     0
1000
MTEXTEND
1000
MTEXTBEGIN
1070
    73
1070
     1
1070
    44
1040
1.0
1070
    74
1070
     0
1000
MTEXTEND
  0
POINT
  5
1479
330
907
100
AcDbEntity
  8
DEFPOINTS
 62
     0
100
AcDbPoint
 10
112.7296718203083
 20
101.4983266026469
 30
0.0
  0
POINT
  5
147A
330
907
100
AcDbEntity
  8
DEFPOINTS
 62
     0
100
AcDbPoint
 10
150.5989431465216
 20
197.7887033544476
 30
0.0
  0
POINT
  5
147B
330
907
100
AcDbEntity
  8
DEFPOINTS
 62
     0
100
AcDbPoint
 10
112.7296718203083
 20
197.7887033544476
 30
0.0
  0
ENDBLK
  5
912
330
907
100
AcDbEntity
  8
0
100
AcDbBlockEnd
  0
BLOCK
  5
920
330
914
100
AcDbEntity
  8
0
100
AcDbBlockBegin
  2
*D13
 70
     1
 10
0.0
 20
0.0
 30
0.0
  3
*D13
  1

  0
LINE
  5
1800
330
914
100
AcDbEntity
  8
SUNPOU
100
AcDbLine
 10
246.5989431465216
 20
114.4983266026484
 30
0.0
 11
275.9623918674463
 21
114.4983266026484
 31
0.0
  0
LINE
  5
1801
330
914
100
AcDbEntity
  8
SUNPOU
100
AcDbLine
 10
254.6989431447268
 20
104.5016786059115
 30
0.0
 11
275.9623918674463
 21
104.5016786059115
 31
0.0
  0
LINE
  5
1802
330
914
100
AcDbEntity
  8
SUNPOU
100
AcDbLine
 10
273.9623918674463
 20
119.4983266026484
 30
0.0
 11
273.9623918674463
 21
124.4983266026484
 31
0.0
  0
LINE
  5
1803
330
914
100
AcDbEntity
  8
SUNPOU
100
AcDbLine
 10
273.9623918674463
 20
104.5016786059115
 30
0.0
 11
273.9623918674463
 21
99.50167860591159
 31
0.0
  0
MTEXT
  5
1804
330
914
100
AcDbEntity
  8
SUNPOU
 62
     6
100
AcDbMText
 10
270.0942213543426
 20
109.3638352301112
 30
0.0
 40
5.0
 41
0.0
 71
     5
 72
     1
  1
\A1;10
  7
SUNPOU
 11
0.0000000000000001
 21
1.0
 31
0.0
1001
ACAD
1000
MTEXTBEGIN
1070
    73
1070
     1
1070
    44
1040
1.0
1070
    74
1070
     0
1000
MTEXTEND
1000
MTEXTBEGIN
1070
    73
1070
     1
1070
    44
1040
1.0
1070
    74
1070
     0
1000
MTEXTEND
  0
LINE
  5
1805
330
914
100
AcDbEntity
  8
SUNPOU
100
AcDbLine
 10
273.9623918674463
 20
114.4983266026484
 30
0.0
 11
273.9623918674463
 21
104.5016786059115
 31
0.0
  0
INSERT
  5
1806
330
914
100
AcDbEntity
  8
SUNPOU
100
AcDbBlockReference
  2
_OPEN30
 10
273.9623918674463
 20
114.4983266026484
 30
0.0
 41
5.0
 42
5.0
 43
5.0
 50
270.0
  0
INSERT
  5
1807
330
914
100
AcDbEntity
  8
SUNPOU
100
AcDbBlockReference
  2
_DOTSMALL
 10
273.9623918674463
 20
104.5016786059115
 30
0.0
 41
5.0
 42
5.0
 43
5.0
 50
90.0
  0
POINT
  5
1808
330
914
100
AcDbEntity
  8
DEFPOINTS
 62
     0
100
AcDbPoint
 10
243.5989431465217
 20
114.4983266026484
 30
0.0
  0
POINT
  5
1809
330
914
100
AcDbEntity
  8
DEFPOINTS
 62
     0
100
AcDbPoint
 10
251.6989431447269
 20
104.5016786059115
 30
0.0
  0
POINT
  5
180A
330
914
100
AcDbEntity
  8
DEFPOINTS
 62
     0
100
AcDbPoint
 10
273.9623918674463
 20
104.5016786059115
 30
0.0
  0
ENDBLK
  5
921
330
914
100
AcDbEntity
  8
0
100
AcDbBlockEnd
  0
BLOCK
  5
92F
330
923
100
AcDbEntity
  8
0
100
AcDbBlockBegin
  2
*D14
 70
     1
 10
0.0
 20
0.0
 30
0.0
  3
*D14
  1

  0
LINE
  5
180B
330
923
100
AcDbEntity
  8
SUNPOU
100
AcDbLine
 10
254.6989431447268
 20
104.5016786059115
 30
0.0
 11
275.9623918674463
 21
104.5016786059115
 31
0.0
  0
LINE
  5
180C
330
923
100
AcDbEntity
  8
SUNPOU
100
AcDbLine
 10
255.4489431447269
 20
101.4983266026469
 30
0.0
 11
275.9623918674463
 21
101.4983266026469
 31
0.0
  0
LINE
  5
180D
330
923
100
AcDbEntity
  8
SUNPOU
100
AcDbLine
 10
273.9623918674463
 20
104.5016786059115
 30
0.0
 11
273.9623918674463
 21
109.5016786059116
 31
0.0
  0
LINE
  5
180E
330
923
100
AcDbEntity
  8
SUNPOU
100
AcDbLine
 10
273.9623918674463
 20
96.49832660264699
 30
0.0
 11
273.9623918674463
 21
91.49832660264699
 31
0.0
  0
MTEXT
  5
180F
330
923
100
AcDbEntity
  8
SUNPOU
 62
     6
100
AcDbMText
 10
269.8746715477896
 20
97.82166638069
 30
0.0
 40
5.0
 41
0.0
 71
     5
 72
     1
  1
\A1;3
  7
SUNPOU
 11
0.0000000000000001
 21
1.0
 31
0.0
1001
ACAD
1000
MTEXTBEGIN
1070
    73
1070
     1
1070
    44
1040
1.0
1070
    74
1070
     0
1000
MTEXTEND
1000
MTEXTBEGIN
1070
    73
1070
     1
1070
    44
1040
1.0
1070
    74
1070
     0
1000
MTEXTEND
  0
LINE
  5
1810
330
923
100
AcDbEntity
  8
SUNPOU
100
AcDbLine
 10
273.9623918674463
 20
104.5016786059115
 30
0.0
 11
273.9623918674463
 21
101.4983266026469
 31
0.0
  0
INSERT
  5
1811
330
923
100
AcDbEntity
  8
SUNPOU
100
AcDbBlockReference
  2
_DOTSMALL
 10
273.9623918674463
 20
104.5016786059115
 30
0.0
 41
5.0
 42
5.0
 43
5.0
 50
270.0
  0
INSERT
  5
1812
330
923
100
AcDbEntity
  8
SUNPOU
100
AcDbBlockReference
  2
_OPEN30
 10
273.9623918674463
 20
101.4983266026469
 30
0.0
 41
5.0
 42
5.0
 43
5.0
 50
90.0
  0
POINT
  5
1813
330
923
100
AcDbEntity
  8
DEFPOINTS
 62
     0
100
AcDbPoint
 10
251.6989431447269
 20
104.5016786059115
 30
0.0
  0
POINT
  5
1814
330
923
100
AcDbEntity
  8
DEFPOINTS
 62
     0
100
AcDbPoint
 10
252.4489431447269
 20
101.4983266026469
 30
0.0
  0
POINT
  5
1815
330
923
100
AcDbEntity
  8
DEFPOINTS
 62
     0
100
AcDbPoint
 10
273.9623918674463
 20
101.4983266026469
 30
0.0
  0
ENDBLK
  5
930
330
923
100
AcDbEntity
  8
0
100
AcDbBlockEnd
  0
BLOCK
  5
93C
330
932
100
AcDbEntity
  8
0
100
AcDbBlockBegin
  2
*D15
 70
     1
 10
0.0
 20
0.0
 30
0.0
  3
*D15
  1

  0
LINE
  5
14F9
330
932
100
AcDbEntity
  8
SUNPOU
100
AcDbLine
 10
254.6989431447268
 20
104.5016786059115
 30
0.0
 11
284.2709945978802
 21
104.5016786059115
 31
0.0
  0
LINE
  5
14FA
330
932
100
AcDbEntity
  8
SUNPOU
100
AcDbLine
 10
238.9489431447269
 20
79.50167860591155
 30
0.0
 11
284.2709945978802
 21
79.50167860591155
 31
0.0
  0
LINE
  5
14FB
330
932
100
AcDbEntity
  8
SUNPOU
100
AcDbLine
 10
282.2709945978802
 20
99.50167860591159
 30
0.0
 11
282.2709945978802
 21
84.50167860591156
 31
0.0
  0
INSERT
  5
14FC
330
932
100
AcDbEntity
  8
SUNPOU
100
AcDbBlockReference
  2
_OPEN30
 10
282.2709945978802
 20
104.5016786059115
 30
0.0
 41
5.0
 42
5.0
 43
5.0
 50
90.0
  0
INSERT
  5
14FD
330
932
100
AcDbEntity
  8
SUNPOU
100
AcDbBlockReference
  2
_OPEN30
 10
282.2709945978802
 20
79.50167860591155
 30
0.0
 41
5.0
 42
5.0
 43
5.0
 50
270.0
  0
MTEXT
  5
14FE
330
932
100
AcDbEntity
  8
SUNPOU
 62
     6
100
AcDbMText
 10
277.7709945978802
 20
92.00167860591159
 30
0.0
 40
5.0
 41
0.0
 71
     5
 72
     1
  1
\A1;25
  7
SUNPOU
 11
0.0000000000000001
 21
1.0
 31
0.0
1001
ACAD
1000
MTEXTBEGIN
1070
    73
1070
     1
1070
    44
1040
1.0
1070
    74
1070
     0
1000
MTEXTEND
1000
MTEXTBEGIN
1070
    73
1070
     1
1070
    44
1040
1.0
1070
    74
1070
     0
1000
MTEXTEND
  0
POINT
  5
14FF
330
932
100
AcDbEntity
  8
DEFPOINTS
 62
     0
100
AcDbPoint
 10
251.6989431447269
 20
104.5016786059115
 30
0.0
  0
POINT
  5
1500
330
932
100
AcDbEntity
  8
DEFPOINTS
 62
     0
100
AcDbPoint
 10
235.9489431447268
 20
79.50167860591155
 30
0.0
  0
POINT
  5
1501
330
932
100
AcDbEntity
  8
DEFPOINTS
 62
     0
100
AcDbPoint
 10
282.2709945978802
 20
79.50167860591155
 30
0.0
  0
ENDBLK
  5
93D
330
932
100
AcDbEntity
  8
0
100
AcDbBlockEnd
  0
BLOCK
  5
94B
330
93F
100
AcDbEntity
  8
0
100
AcDbBlockBegin
  2
*D16
 70
     1
 10
0.0
 20
0.0
 30
0.0
  3
*D16
  1

  0
LINE
  5
14E3
330
93F
100
AcDbEntity
  8
SUNPOU
100
AcDbLine
 10
329.7469220568908
 20
101.4983266026469
 30
0.0
 11
330.7469220568908
 21
101.4983266026469
 31
0.0
  0
LINE
  5
14E4
330
93F
100
AcDbEntity
  8
SUNPOU
100
AcDbLine
 10
245.0989431465216
 20
114.498326602648
 30
0.0
 11
334.7469220568908
 21
114.498326602648
 31
0.0
  0
LINE
  5
14E5
330
93F
100
AcDbEntity
  8
SUNPOU
100
AcDbLine
 10
332.7469220568908
 20
96.49832660264699
 30
0.0
 11
332.7469220568908
 21
91.49832660264699
 31
0.0
  0
LINE
  5
14E6
330
93F
100
AcDbEntity
  8
SUNPOU
100
AcDbLine
 10
332.7469220568908
 20
119.498326602648
 30
0.0
 11
332.7469220568908
 21
124.4983266026481
 31
0.0
  0
LINE
  5
14E7
330
93F
100
AcDbEntity
  8
SUNPOU
100
AcDbLine
 10
332.7469220568908
 20
101.4983266026469
 30
0.0
 11
332.7469220568908
 21
114.498326602648
 31
0.0
  0
INSERT
  5
14E8
330
93F
100
AcDbEntity
  8
SUNPOU
100
AcDbBlockReference
  2
_OPEN30
 10
332.7469220568908
 20
101.4983266026469
 30
0.0
 41
5.0
 42
5.0
 43
5.0
 50
90.0
  0
INSERT
  5
14E9
330
93F
100
AcDbEntity
  8
SUNPOU
100
AcDbBlockReference
  2
_OPEN30
 10
332.7469220568908
 20
114.498326602648
 30
0.0
 41
5.0
 42
5.0
 43
5.0
 50
270.0
  0
MTEXT
  5
14EA
330
93F
100
AcDbEntity
  8
SUNPOU
 62
     6
100
AcDbMText
 10
328.2469220568908
 20
107.9983266026475
 30
0.0
 40
5.0
 41
0.0
 71
     5
 72
     1
  1
\A1;13
  7
SUNPOU
 11
0.0000000000000001
 21
1.0
 31
0.0
1001
ACAD
1000
MTEXTBEGIN
1070
    73
1070
     1
1070
    44
1040
1.0
1070
    74
1070
     0
1000
MTEXTEND
1000
MTEXTBEGIN
1070
    73
1070
     1
1070
    44
1040
1.0
1070
    74
1070
     0
1000
MTEXTEND
  0
POINT
  5
14EB
330
93F
100
AcDbEntity
  8
DEFPOINTS
 62
     0
100
AcDbPoint
 10
332.7469220568908
 20
101.4983266026469
 30
0.0
  0
POINT
  5
14EC
330
93F
100
AcDbEntity
  8
DEFPOINTS
 62
     0
100
AcDbPoint
 10
242.0989431465216
 20
114.498326602648
 30
0.0
  0
POINT
  5
14ED
330
93F
100
AcDbEntity
  8
DEFPOINTS
 62
     0
100
AcDbPoint
 10
332.7469220568908
 20
114.498326602648
 30
0.0
  0
ENDBLK
  5
94C
330
93F
100
AcDbEntity
  8
0
100
AcDbBlockEnd
  0
BLOCK
  5
958
330
94E
100
AcDbEntity
  8
0
100
AcDbBlockBegin
  2
*D17
 70
     1
 10
0.0
 20
0.0
 30
0.0
  3
*D17
  1

  0
LINE
  5
14D1
330
94E
100
AcDbEntity
  8
SUNPOU
100
AcDbLine
 10
245.0989431465216
 20
114.498326602648
 30
0.0
 11
334.7469220568908
 21
114.498326602648
 31
0.0
  0
LINE
  5
14D2
330
94E
100
AcDbEntity
  8
SUNPOU
100
AcDbLine
 10
243.5989431465217
 20
303.9983266026468
 30
0.0
 11
334.7469220568908
 21
303.9983266026468
 31
0.0
  0
LINE
  5
14D3
330
94E
100
AcDbEntity
  8
SUNPOU
100
AcDbLine
 10
332.7469220568908
 20
119.498326602648
 30
0.0
 11
332.7469220568908
 21
298.9983266026468
 31
0.0
  0
INSERT
  5
14D4
330
94E
100
AcDbEntity
  8
SUNPOU
100
AcDbBlockReference
  2
_OPEN30
 10
332.7469220568908
 20
114.498326602648
 30
0.0
 41
5.0
 42
5.0
 43
5.0
 50
270.0
  0
INSERT
  5
14D5
330
94E
100
AcDbEntity
  8
SUNPOU
100
AcDbBlockReference
  2
_OPEN30
 10
332.7469220568908
 20
303.9983266026468
 30
0.0
 41
5.0
 42
5.0
 43
5.0
 50
90.0
  0
MTEXT
  5
14D6
330
94E
100
AcDbEntity
  8
SUNPOU
 62
     6
100
AcDbMText
 10
328.2469220568908
 20
209.2483266026476
 30
0.0
 40
5.0
 41
0.0
 71
     5
 72
     1
  1
\A1;DH
  7
SUNPOU
 11
0.0000000000000001
 21
1.0
 31
0.0
1001
ACAD
1000
MTEXTBEGIN
1070
    73
1070
     1
1070
    44
1040
1.0
1070
    74
1070
     0
1000
MTEXTEND
1000
MTEXTBEGIN
1070
    73
1070
     1
1070
    44
1040
1.0
1070
    74
1070
     0
1000
MTEXTEND
  0
POINT
  5
14D7
330
94E
100
AcDbEntity
  8
DEFPOINTS
 62
     0
100
AcDbPoint
 10
242.0989431465216
 20
114.498326602648
 30
0.0
  0
POINT
  5
14D8
330
94E
100
AcDbEntity
  8
DEFPOINTS
 62
     0
100
AcDbPoint
 10
240.5989431465219
 20
303.9983266026468
 30
0.0
  0
POINT
  5
14D9
330
94E
100
AcDbEntity
  8
DEFPOINTS
 62
     0
100
AcDbPoint
 10
332.7469220568908
 20
303.9983266026468
 30
0.0
  0
ENDBLK
  5
959
330
94E
100
AcDbEntity
  8
0
100
AcDbBlockEnd
  0
BLOCK
  5
967
330
95B
100
AcDbEntity
  8
0
100
AcDbBlockBegin
  2
*D18
 70
     1
 10
0.0
 20
0.0
 30
0.0
  3
*D18
  1

  0
LINE
  5
14C6
330
95B
100
AcDbEntity
  8
SUNPOU
100
AcDbLine
 10
243.5989431465217
 20
303.9983266026468
 30
0.0
 11
280.3337275185644
 21
303.9983266026468
 31
0.0
  0
LINE
  5
14C7
330
95B
100
AcDbEntity
  8
SUNPOU
100
AcDbLine
 10
275.3337275185645
 20
296.498326602647
 30
0.0
 11
276.3337275185643
 21
296.498326602647
 31
0.0
  0
LINE
  5
14C8
330
95B
100
AcDbEntity
  8
SUNPOU
100
AcDbLine
 10
278.3337275185643
 20
308.9983266026468
 30
0.0
 11
278.3337275185643
 21
313.9983266026468
 31
0.0
  0
LINE
  5
14C9
330
95B
100
AcDbEntity
  8
SUNPOU
100
AcDbLine
 10
278.3337275185643
 20
291.4983266026468
 30
0.0
 11
278.3337275185643
 21
286.498326602647
 31
0.0
  0
MTEXT
  5
14CA
330
95B
100
AcDbEntity
  8
SUNPOU
 62
     6
100
AcDbMText
 10
272.5600019649216
 20
307.8613185034352
 30
0.0
 40
5.0
 41
0.0
 71
     5
 72
     1
  1
\A1;7
  7
SUNPOU
 11
0.0000000000000001
 21
1.0
 31
0.0
1001
ACAD
1000
MTEXTBEGIN
1070
    73
1070
     1
1070
    44
1040
1.0
1070
    74
1070
     0
1000
MTEXTEND
1000
MTEXTBEGIN
1070
    73
1070
     1
1070
    44
1040
1.0
1070
    74
1070
     0
1000
MTEXTEND
  0
LINE
  5
14CB
330
95B
100
AcDbEntity
  8
SUNPOU
100
AcDbLine
 10
278.3337275185643
 20
303.9983266026468
 30
0.0
 11
278.3337275185643
 21
296.498326602647
 31
0.0
  0
INSERT
  5
14CC
330
95B
100
AcDbEntity
  8
SUNPOU
100
AcDbBlockReference
  2
_OPEN30
 10
278.3337275185643
 20
303.9983266026468
 30
0.0
 41
5.0
 42
5.0
 43
5.0
 50
270.0
  0
INSERT
  5
14CD
330
95B
100
AcDbEntity
  8
SUNPOU
100
AcDbBlockReference
  2
_OPEN30
 10
278.3337275185643
 20
296.498326602647
 30
0.0
 41
5.0
 42
5.0
 43
5.0
 50
90.0
  0
POINT
  5
14CE
330
95B
100
AcDbEntity
  8
DEFPOINTS
 62
     0
100
AcDbPoint
 10
240.5989431465219
 20
303.9983266026468
 30
0.0
  0
POINT
  5
14CF
330
95B
100
AcDbEntity
  8
DEFPOINTS
 62
     0
100
AcDbPoint
 10
278.3337275185643
 20
296.498326602647
 30
0.0
  0
POINT
  5
14D0
330
95B
100
AcDbEntity
  8
DEFPOINTS
 62
     0
100
AcDbPoint
 10
278.3337275185643
 20
296.498326602647
 30
0.0
  0
ENDBLK
  5
968
330
95B
100
AcDbEntity
  8
0
100
AcDbBlockEnd
  0
BLOCK
  5
974
330
96A
100
AcDbEntity
  8
0
100
AcDbBlockBegin
  2
*D19
 70
     1
 10
0.0
 20
0.0
 30
0.0
  3
*D19
  1

  0
LINE
  5
14BD
330
96A
100
AcDbEntity
  8
SUNPOU
100
AcDbLine
 10
309.5989431465217
 20
295.098326602647
 30
0.0
 11
309.5989431465217
 21
262.8831158603309
 31
0.0
  0
LINE
  5
14BE
330
96A
100
AcDbEntity
  8
SUNPOU
100
AcDbLine
 10
248.5989431465216
 20
295.098326602647
 30
0.0
 11
248.5989431465216
 21
262.8831158603309
 31
0.0
  0
LINE
  5
14BF
330
96A
100
AcDbEntity
  8
SUNPOU
100
AcDbLine
 10
304.5989431465217
 20
264.8831158603309
 30
0.0
 11
253.5989431465217
 21
264.8831158603309
 31
0.0
  0
INSERT
  5
14C0
330
96A
100
AcDbEntity
  8
SUNPOU
100
AcDbBlockReference
  2
_OPEN30
 10
309.5989431465217
 20
264.8831158603309
 30
0.0
 41
5.0
 42
5.0
 43
5.0
  0
INSERT
  5
14C1
330
96A
100
AcDbEntity
  8
SUNPOU
100
AcDbBlockReference
  2
_OPEN30
 10
248.5989431465216
 20
264.8831158603309
 30
0.0
 41
5.0
 42
5.0
 43
5.0
 50
180.0
  0
MTEXT
  5
14C2
330
96A
100
AcDbEntity
  8
SUNPOU
 62
     6
100
AcDbMText
 10
279.0989431465217
 20
269.3831158603309
 30
0.0
 40
5.0
 41
0.0
 71
     5
 72
     1
  1
\A1;61
  7
SUNPOU
1001
ACAD
1000
MTEXTBEGIN
1070
    73
1070
     1
1070
    44
1040
1.0
1070
    74
1070
     0
1000
MTEXTEND
1000
MTEXTBEGIN
1070
    73
1070
     1
1070
    44
1040
1.0
1070
    74
1070
     0
1000
MTEXTEND
  0
POINT
  5
14C3
330
96A
100
AcDbEntity
  8
DEFPOINTS
 62
     0
100
AcDbPoint
 10
309.5989431465217
 20
298.098326602647
 30
0.0
  0
POINT
  5
14C4
330
96A
100
AcDbEntity
  8
DEFPOINTS
 62
     0
100
AcDbPoint
 10
248.5989431465216
 20
298.098326602647
 30
0.0
  0
POINT
  5
14C5
330
96A
100
AcDbEntity
  8
DEFPOINTS
 62
     0
100
AcDbPoint
 10
248.5989431465216
 20
264.8831158603309
 30
0.0
  0
ENDBLK
  5
975
330
96A
100
AcDbEntity
  8
0
100
AcDbBlockEnd
  0
BLOCK
  5
983
330
977
100
AcDbEntity
  8
0
100
AcDbBlockBegin
  2
*D20
 70
     1
 10
0.0
 20
0.0
 30
0.0
  3
*D20
  1

  0
LINE
  5
14B2
330
977
100
AcDbEntity
  8
SUNPOU
100
AcDbLine
 10
248.5989431465216
 20
295.098326602647
 30
0.0
 11
248.5989431465216
 21
262.8831158603309
 31
0.0
  0
LINE
  5
14B3
330
977
100
AcDbEntity
  8
SUNPOU
100
AcDbLine
 10
243.5989431465217
 20
267.8831158603309
 30
0.0
 11
243.5989431465217
 21
266.8831158603309
 31
0.0
  0
LINE
  5
14B4
330
977
100
AcDbEntity
  8
SUNPOU
100
AcDbLine
 10
253.5989431465217
 20
264.8831158603309
 30
0.0
 11
258.5989431465216
 21
264.8831158603309
 31
0.0
  0
LINE
  5
14B5
330
977
100
AcDbEntity
  8
SUNPOU
100
AcDbLine
 10
238.5989431465219
 20
264.8831158603309
 30
0.0
 11
233.5989431465218
 21
264.8831158603309
 31
0.0
  0
MTEXT
  5
14B6
330
977
100
AcDbEntity
  8
SUNPOU
 62
     6
100
AcDbMText
 10
246.1298422677625
 20
270.3143257772623
 30
0.0
 40
5.0
 41
0.0
 71
     5
 72
     1
  1
\A1;5
  7
SUNPOU
1001
ACAD
1000
MTEXTBEGIN
1070
    73
1070
     1
1070
    44
1040
1.0
1070
    74
1070
     0
1000
MTEXTEND
1000
MTEXTBEGIN
1070
    73
1070
     1
1070
    44
1040
1.0
1070
    74
1070
     0
1000
MTEXTEND
  0
LINE
  5
14B7
330
977
100
AcDbEntity
  8
SUNPOU
100
AcDbLine
 10
248.5989431465216
 20
264.8831158603309
 30
0.0
 11
243.5989431465217
 21
264.8831158603309
 31
0.0
  0
INSERT
  5
14B8
330
977
100
AcDbEntity
  8
SUNPOU
100
AcDbBlockReference
  2
_OPEN30
 10
248.5989431465216
 20
264.8831158603309
 30
0.0
 41
5.0
 42
5.0
 43
5.0
 50
180.0
  0
INSERT
  5
14B9
330
977
100
AcDbEntity
  8
SUNPOU
100
AcDbBlockReference
  2
_OPEN30
 10
243.5989431465217
 20
264.8831158603309
 30
0.0
 41
5.0
 42
5.0
 43
5.0
  0
POINT
  5
14BA
330
977
100
AcDbEntity
  8
DEFPOINTS
 62
     0
100
AcDbPoint
 10
248.5989431465216
 20
298.098326602647
 30
0.0
  0
POINT
  5
14BB
330
977
100
AcDbEntity
  8
DEFPOINTS
 62
     0
100
AcDbPoint
 10
243.5989431465217
 20
264.8831158603309
 30
0.0
  0
POINT
  5
14BC
330
977
100
AcDbEntity
  8
DEFPOINTS
 62
     0
100
AcDbPoint
 10
243.5989431465217
 20
264.8831158603309
 30
0.0
  0
ENDBLK
  5
984
330
977
100
AcDbEntity
  8
0
100
AcDbBlockEnd
  0
BLOCK
  5
990
330
986
100
AcDbEntity
  8
0
100
AcDbBlockBegin
  2
*D21
 70
     1
 10
0.0
 20
0.0
 30
0.0
  3
*D21
  1

  0
LINE
  5
150D
330
986
100
AcDbEntity
  8
SUNPOU
100
AcDbLine
 10
243.5989431465217
 20
267.8831158603309
 30
0.0
 11
243.5989431465217
 21
266.8831158603309
 31
0.0
  0
LINE
  5
150E
330
986
100
AcDbEntity
  8
SUNPOU
100
AcDbLine
 10
211.5989431465218
 20
267.8831158603309
 30
0.0
 11
211.5989431465218
 21
266.8831158603309
 31
0.0
  0
LINE
  5
150F
330
986
100
AcDbEntity
  8
SUNPOU
100
AcDbLine
 10
238.5989431465219
 20
264.8831158603309
 30
0.0
 11
216.5989431465217
 21
264.8831158603309
 31
0.0
  0
INSERT
  5
1510
330
986
100
AcDbEntity
  8
SUNPOU
100
AcDbBlockReference
  2
_OPEN30
 10
243.5989431465217
 20
264.8831158603309
 30
0.0
 41
5.0
 42
5.0
 43
5.0
  0
INSERT
  5
1511
330
986
100
AcDbEntity
  8
SUNPOU
100
AcDbBlockReference
  2
_OPEN30
 10
211.5989431465218
 20
264.8831158603309
 30
0.0
 41
5.0
 42
5.0
 43
5.0
 50
180.0
  0
MTEXT
  5
1512
330
986
100
AcDbEntity
  8
SUNPOU
 62
     6
100
AcDbMText
 10
227.5989431465218
 20
269.3831158603309
 30
0.0
 40
5.0
 41
0.0
 71
     5
 72
     1
  1
\A1;32
  7
SUNPOU
1001
ACAD
1000
MTEXTBEGIN
1070
    73
1070
     1
1070
    44
1040
1.0
1070
    74
1070
     0
1000
MTEXTEND
1000
MTEXTBEGIN
1070
    73
1070
     1
1070
    44
1040
1.0
1070
    74
1070
     0
1000
MTEXTEND
  0
POINT
  5
1513
330
986
100
AcDbEntity
  8
DEFPOINTS
 62
     0
100
AcDbPoint
 10
243.5989431465217
 20
264.8831158603309
 30
0.0
  0
POINT
  5
1514
330
986
100
AcDbEntity
  8
DEFPOINTS
 62
     0
100
AcDbPoint
 10
211.5989431465218
 20
264.8831158603309
 30
0.0
  0
POINT
  5
1515
330
986
100
AcDbEntity
  8
DEFPOINTS
 62
     0
100
AcDbPoint
 10
211.5989431465218
 20
264.8831158603309
 30
0.0
  0
ENDBLK
  5
991
330
986
100
AcDbEntity
  8
0
100
AcDbBlockEnd
  0
BLOCK
  5
99F
330
993
100
AcDbEntity
  8
0
100
AcDbBlockBegin
  2
*D22
 70
     1
 10
0.0
 20
0.0
 30
0.0
  3
*D22
  1

  0
LINE
  5
1425
330
993
100
AcDbEntity
  8
SUNPOU
100
AcDbLine
 10
211.5989431465218
 20
267.8831158603309
 30
0.0
 11
211.5989431465218
 21
266.8831158603309
 31
0.0
  0
LINE
  5
1426
330
993
100
AcDbEntity
  8
SUNPOU
100
AcDbLine
 10
206.5989431465216
 20
267.8831158603309
 30
0.0
 11
206.5989431465216
 21
266.8831158603309
 31
0.0
  0
LINE
  5
1427
330
993
100
AcDbEntity
  8
SUNPOU
100
AcDbLine
 10
216.5989431465217
 20
264.8831158603309
 30
0.0
 11
221.5989431465218
 21
264.8831158603309
 31
0.0
  0
LINE
  5
1428
330
993
100
AcDbEntity
  8
SUNPOU
100
AcDbLine
 10
201.5989431465217
 20
264.8831158603309
 30
0.0
 11
196.5989431465216
 21
264.8831158603309
 31
0.0
  0
MTEXT
  5
1429
330
993
100
AcDbEntity
  8
SUNPOU
 62
     6
100
AcDbMText
 10
209.2296065830418
 20
270.662218846286
 30
0.0
 40
5.0
 41
0.0
 71
     5
 72
     1
  1
\A1;5
  7
SUNPOU
1001
ACAD
1000
MTEXTBEGIN
1070
    73
1070
     1
1070
    44
1040
1.0
1070
    74
1070
     0
1000
MTEXTEND
1000
MTEXTBEGIN
1070
    73
1070
     1
1070
    44
1040
1.0
1070
    74
1070
     0
1000
MTEXTEND
  0
LINE
  5
142A
330
993
100
AcDbEntity
  8
SUNPOU
100
AcDbLine
 10
211.5989431465218
 20
264.8831158603309
 30
0.0
 11
206.5989431465216
 21
264.8831158603309
 31
0.0
  0
INSERT
  5
142B
330
993
100
AcDbEntity
  8
SUNPOU
100
AcDbBlockReference
  2
_OPEN30
 10
211.5989431465218
 20
264.8831158603309
 30
0.0
 41
5.0
 42
5.0
 43
5.0
 50
180.0
  0
INSERT
  5
142C
330
993
100
AcDbEntity
  8
SUNPOU
100
AcDbBlockReference
  2
_OPEN30
 10
206.5989431465216
 20
264.8831158603309
 30
0.0
 41
5.0
 42
5.0
 43
5.0
  0
POINT
  5
142D
330
993
100
AcDbEntity
  8
DEFPOINTS
 62
     0
100
AcDbPoint
 10
211.5989431465218
 20
264.8831158603309
 30
0.0
  0
POINT
  5
142E
330
993
100
AcDbEntity
  8
DEFPOINTS
 62
     0
100
AcDbPoint
 10
206.5989431465216
 20
264.8831158603309
 30
0.0
  0
POINT
  5
142F
330
993
100
AcDbEntity
  8
DEFPOINTS
 62
     0
100
AcDbPoint
 10
206.5989431465216
 20
264.8831158603309
 30
0.0
  0
ENDBLK
  5
9A0
330
993
100
AcDbEntity
  8
0
100
AcDbBlockEnd
  0
BLOCK
  5
9AC
330
9A2
100
AcDbEntity
  8
0
100
AcDbBlockBegin
  2
*D23
 70
     1
 10
0.0
 20
0.0
 30
0.0
  3
*D23
  1

  0
LINE
  5
1485
330
9A2
100
AcDbEntity
  8
SUNPOU
100
AcDbLine
 10
206.5989431465216
 20
267.8831158603309
 30
0.0
 11
206.5989431465216
 21
266.8831158603309
 31
0.0
  0
LINE
  5
1486
330
9A2
100
AcDbEntity
  8
SUNPOU
100
AcDbLine
 10
174.5989431465216
 20
267.8831158603309
 30
0.0
 11
174.5989431465216
 21
266.8831158603309
 31
0.0
  0
LINE
  5
1487
330
9A2
100
AcDbEntity
  8
SUNPOU
100
AcDbLine
 10
201.5989431465217
 20
264.8831158603309
 30
0.0
 11
179.5989431465216
 21
264.8831158603309
 31
0.0
  0
INSERT
  5
1488
330
9A2
100
AcDbEntity
  8
SUNPOU
100
AcDbBlockReference
  2
_OPEN30
 10
206.5989431465216
 20
264.8831158603309
 30
0.0
 41
5.0
 42
5.0
 43
5.0
  0
INSERT
  5
1489
330
9A2
100
AcDbEntity
  8
SUNPOU
100
AcDbBlockReference
  2
_OPEN30
 10
174.5989431465216
 20
264.8831158603309
 30
0.0
 41
5.0
 42
5.0
 43
5.0
 50
180.0
  0
MTEXT
  5
148A
330
9A2
100
AcDbEntity
  8
SUNPOU
 62
     6
100
AcDbMText
 10
190.5989431465217
 20
269.3831158603309
 30
0.0
 40
5.0
 41
0.0
 71
     5
 72
     1
  1
\A1;32
  7
SUNPOU
1001
ACAD
1000
MTEXTBEGIN
1070
    73
1070
     1
1070
    44
1040
1.0
1070
    74
1070
     0
1000
MTEXTEND
1000
MTEXTBEGIN
1070
    73
1070
     1
1070
    44
1040
1.0
1070
    74
1070
     0
1000
MTEXTEND
  0
POINT
  5
148B
330
9A2
100
AcDbEntity
  8
DEFPOINTS
 62
     0
100
AcDbPoint
 10
206.5989431465216
 20
264.8831158603309
 30
0.0
  0
POINT
  5
148C
330
9A2
100
AcDbEntity
  8
DEFPOINTS
 62
     0
100
AcDbPoint
 10
174.5989431465216
 20
264.8831158603309
 30
0.0
  0
POINT
  5
148D
330
9A2
100
AcDbEntity
  8
DEFPOINTS
 62
     0
100
AcDbPoint
 10
174.5989431465216
 20
264.8831158603309
 30
0.0
  0
ENDBLK
  5
9AD
330
9A2
100
AcDbEntity
  8
0
100
AcDbBlockEnd
  0
BLOCK
  5
9B9
330
9AF
100
AcDbEntity
  8
0
100
AcDbBlockBegin
  2
*D24
 70
     1
 10
0.0
 20
0.0
 30
0.0
  3
*D24
  1

  0
LINE
  5
144D
330
9AF
100
AcDbEntity
  8
SUNPOU
100
AcDbLine
 10
146.5989431465216
 20
295.0983266026468
 30
0.0
 11
146.5989431465216
 21
280.6465332373142
 31
0.0
  0
LINE
  5
144E
330
9AF
100
AcDbEntity
  8
SUNPOU
100
AcDbLine
 10
206.5989431465216
 20
285.6465332373142
 30
0.0
 11
206.5989431465216
 21
284.6465332373142
 31
0.0
  0
LINE
  5
144F
330
9AF
100
AcDbEntity
  8
SUNPOU
100
AcDbLine
 10
151.5989431465216
 20
282.6465332373142
 30
0.0
 11
201.5989431465217
 21
282.6465332373142
 31
0.0
  0
MTEXT
  5
1450
330
9AF
100
AcDbEntity
  8
SUNPOU
 62
     6
100
AcDbMText
 10
178.9938496429251
 20
287.1465332373142
 30
0.0
 40
5.0
 41
0.0
 71
     5
 72
     1
  1
\A1;60
  7
SUNPOU
1001
ACAD
1000
MTEXTBEGIN
1070
    73
1070
     1
1070
    44
1040
1.0
1070
    74
1070
     0
1000
MTEXTEND
1000
MTEXTBEGIN
1070
    73
1070
     1
1070
    44
1040
1.0
1070
    74
1070
     0
1000
MTEXTEND
  0
INSERT
  5
1451
330
9AF
100
AcDbEntity
  8
SUNPOU
100
AcDbBlockReference
  2
_OPEN30
 10
146.5989431465216
 20
282.6465332373142
 30
0.0
 41
5.0
 42
5.0
 43
5.0
 50
180.0
  0
INSERT
  5
1452
330
9AF
100
AcDbEntity
  8
SUNPOU
100
AcDbBlockReference
  2
_OPEN30
 10
206.5989431465216
 20
282.6465332373142
 30
0.0
 41
5.0
 42
5.0
 43
5.0
  0
POINT
  5
1453
330
9AF
100
AcDbEntity
  8
DEFPOINTS
 62
     0
100
AcDbPoint
 10
146.5989431465216
 20
298.0983266026468
 30
0.0
  0
POINT
  5
1454
330
9AF
100
AcDbEntity
  8
DEFPOINTS
 62
     0
100
AcDbPoint
 10
206.5989431465216
 20
282.6465332373142
 30
0.0
  0
POINT
  5
1455
330
9AF
100
AcDbEntity
  8
DEFPOINTS
 62
     0
100
AcDbPoint
 10
206.5989431465216
 20
282.6465332373142
 30
0.0
  0
ENDBLK
  5
9BA
330
9AF
100
AcDbEntity
  8
0
100
AcDbBlockEnd
  0
BLOCK
  5
9D5
330
9C9
100
AcDbEntity
  8
0
100
AcDbBlockBegin
  2
*D25
 70
     1
 10
0.0
 20
0.0
 30
0.0
  3
*D25
  1

  0
LINE
  5
15F5
330
9C9
100
AcDbEntity
  8
SUNPOU
100
AcDbLine
 10
143.5989431465216
 20
255.3464479648893
 30
0.0
 11
143.5989431465216
 21
254.596447962925
 31
0.0
  0
LINE
  5
15F6
330
9C9
100
AcDbEntity
  8
SUNPOU
100
AcDbLine
 10
146.5989431465216
 20
295.0983266026468
 30
0.0
 11
146.5989431465216
 21
250.596447962925
 31
0.0
  0
LINE
  5
15F7
330
9C9
100
AcDbEntity
  8
SUNPOU
100
AcDbLine
 10
138.5989431465217
 20
252.596447962925
 30
0.0
 11
133.5989431465216
 21
252.596447962925
 31
0.0
  0
LINE
  5
15F8
330
9C9
100
AcDbEntity
  8
SUNPOU
100
AcDbLine
 10
151.5989431465216
 20
252.596447962925
 30
0.0
 11
156.5989431465216
 21
252.596447962925
 31
0.0
  0
MTEXT
  5
15F9
330
9C9
100
AcDbEntity
  8
SUNPOU
 62
     6
100
AcDbMText
 10
141.5914037783088
 20
257.896338399581
 30
0.0
 40
5.0
 41
0.0
 71
     5
 72
     1
  1
\A1;3
  7
SUNPOU
1001
ACAD
1000
MTEXTBEGIN
1070
    73
1070
     1
1070
    44
1040
1.0
1070
    74
1070
     0
1000
MTEXTEND
1000
MTEXTBEGIN
1070
    73
1070
     1
1070
    44
1040
1.0
1070
    74
1070
     0
1000
MTEXTEND
  0
LINE
  5
15FA
330
9C9
100
AcDbEntity
  8
SUNPOU
100
AcDbLine
 10
143.5989431465216
 20
252.596447962925
 30
0.0
 11
146.5989431465216
 21
252.596447962925
 31
0.0
  0
INSERT
  5
15FB
330
9C9
100
AcDbEntity
  8
SUNPOU
100
AcDbBlockReference
  2
_OPEN30
 10
143.5989431465216
 20
252.596447962925
 30
0.0
 41
5.0
 42
5.0
 43
5.0
  0
INSERT
  5
15FC
330
9C9
100
AcDbEntity
  8
SUNPOU
100
AcDbBlockReference
  2
_OPEN30
 10
146.5989431465216
 20
252.596447962925
 30
0.0
 41
5.0
 42
5.0
 43
5.0
 50
180.0
  0
POINT
  5
15FD
330
9C9
100
AcDbEntity
  8
DEFPOINTS
 62
     0
100
AcDbPoint
 10
143.5989431465216
 20
252.3464479648894
 30
0.0
  0
POINT
  5
15FE
330
9C9
100
AcDbEntity
  8
DEFPOINTS
 62
     0
100
AcDbPoint
 10
146.5989431465216
 20
298.0983266026468
 30
0.0
  0
POINT
  5
15FF
330
9C9
100
AcDbEntity
  8
DEFPOINTS
 62
     0
100
AcDbPoint
 10
146.5989431465216
 20
252.596447962925
 30
0.0
  0
ENDBLK
  5
9D6
330
9C9
100
AcDbEntity
  8
0
100
AcDbBlockEnd
  0
BLOCK
  5
9E2
330
9D8
100
AcDbEntity
  8
0
100
AcDbBlockBegin
  2
*D26
 70
     1
 10
0.0
 20
0.0
 30
0.0
  3
*D26
  1

  0
LINE
  5
141C
330
9D8
100
AcDbEntity
  8
SUNPOU
100
AcDbLine
 10
146.5989431465216
 20
295.0983266026468
 30
0.0
 11
146.5989431465216
 21
250.6143971548894
 31
0.0
  0
LINE
  5
141D
330
9D8
100
AcDbEntity
  8
SUNPOU
100
AcDbLine
 10
309.5989431465217
 20
295.098326602647
 30
0.0
 11
309.5989431465217
 21
250.6143971548894
 31
0.0
  0
LINE
  5
141E
330
9D8
100
AcDbEntity
  8
SUNPOU
100
AcDbLine
 10
151.5989431465216
 20
252.6143971548894
 30
0.0
 11
304.5989431465217
 21
252.6143971548894
 31
0.0
  0
MTEXT
  5
141F
330
9D8
100
AcDbEntity
  8
SUNPOU
 62
     6
100
AcDbMText
 10
228.166449112735
 20
258.9330966922427
 30
0.0
 40
5.0
 41
0.0
 71
     5
 72
     1
  1
\A1;163
  7
SUNPOU
1001
ACAD
1000
MTEXTBEGIN
1070
    73
1070
     1
1070
    44
1040
1.0
1070
    74
1070
     0
1000
MTEXTEND
1000
MTEXTBEGIN
1070
    73
1070
     1
1070
    44
1040
1.0
1070
    74
1070
     0
1000
MTEXTEND
  0
INSERT
  5
1420
330
9D8
100
AcDbEntity
  8
SUNPOU
100
AcDbBlockReference
  2
_OPEN30
 10
146.5989431465216
 20
252.6143971548894
 30
0.0
 41
5.0
 42
5.0
 43
5.0
 50
180.0
  0
INSERT
  5
1421
330
9D8
100
AcDbEntity
  8
SUNPOU
100
AcDbBlockReference
  2
_OPEN30
 10
309.5989431465217
 20
252.6143971548894
 30
0.0
 41
5.0
 42
5.0
 43
5.0
  0
POINT
  5
1422
330
9D8
100
AcDbEntity
  8
DEFPOINTS
 62
     0
100
AcDbPoint
 10
146.5989431465216
 20
298.0983266026468
 30
0.0
  0
POINT
  5
1423
330
9D8
100
AcDbEntity
  8
DEFPOINTS
 62
     0
100
AcDbPoint
 10
309.5989431465217
 20
298.098326602647
 30
0.0
  0
POINT
  5
1424
330
9D8
100
AcDbEntity
  8
DEFPOINTS
 62
     0
100
AcDbPoint
 10
309.5989431465217
 20
252.6143971548894
 30
0.0
  0
ENDBLK
  5
9E3
330
9D8
100
AcDbEntity
  8
0
100
AcDbBlockEnd
  0
BLOCK
  5
9EF
330
9E5
100
AcDbEntity
  8
0
100
AcDbBlockBegin
  2
*D27
 70
     1
 10
0.0
 20
0.0
 30
0.0
  3
*D27
  1

  0
LINE
  5
1516
330
9E5
100
AcDbEntity
  8
SUNPOU
100
AcDbLine
 10
143.5989431465216
 20
243.3456784494478
 30
0.0
 11
143.5989431465216
 21
242.3456784494478
 31
0.0
  0
LINE
  5
1517
330
9E5
100
AcDbEntity
  8
SUNPOU
100
AcDbLine
 10
263.5989431465216
 20
243.3456784494478
 30
0.0
 11
263.5989431465216
 21
242.3456784494478
 31
0.0
  0
LINE
  5
1518
330
9E5
100
AcDbEntity
  8
SUNPOU
100
AcDbLine
 10
148.5989431465216
 20
240.3456784494478
 30
0.0
 11
258.5989431465216
 21
240.3456784494478
 31
0.0
  0
MTEXT
  5
1519
330
9E5
100
AcDbEntity
  8
SUNPOU
 62
     6
100
AcDbMText
 10
200.6214129254653
 20
246.1479246685964
 30
0.0
 40
5.0
 41
0.0
 71
     5
 72
     1
  1
\A1;120
  7
SUNPOU
1001
ACAD
1000
MTEXTBEGIN
1070
    73
1070
     1
1070
    44
1040
1.0
1070
    74
1070
     0
1000
MTEXTEND
1000
MTEXTBEGIN
1070
    73
1070
     1
1070
    44
1040
1.0
1070
    74
1070
     0
1000
MTEXTEND
  0
INSERT
  5
151A
330
9E5
100
AcDbEntity
  8
SUNPOU
100
AcDbBlockReference
  2
_OPEN30
 10
143.5989431465216
 20
240.3456784494478
 30
0.0
 41
5.0
 42
5.0
 43
5.0
 50
180.0
  0
INSERT
  5
151B
330
9E5
100
AcDbEntity
  8
SUNPOU
100
AcDbBlockReference
  2
_OPEN30
 10
263.5989431465216
 20
240.3456784494478
 30
0.0
 41
5.0
 42
5.0
 43
5.0
  0
POINT
  5
151C
330
9E5
100
AcDbEntity
  8
DEFPOINTS
 62
     0
100
AcDbPoint
 10
143.5989431465216
 20
240.3456784494478
 30
0.0
  0
POINT
  5
151D
330
9E5
100
AcDbEntity
  8
DEFPOINTS
 62
     0
100
AcDbPoint
 10
263.5989431465216
 20
240.3456784494478
 30
0.0
  0
POINT
  5
151E
330
9E5
100
AcDbEntity
  8
DEFPOINTS
 62
     0
100
AcDbPoint
 10
263.5989431465216
 20
240.3456784494478
 30
0.0
  0
ENDBLK
  5
9F0
330
9E5
100
AcDbEntity
  8
0
100
AcDbBlockEnd
  0
BLOCK
  5
9FC
330
9F2
100
AcDbEntity
  8
0
100
AcDbBlockBegin
  2
*D28
 70
     1
 10
0.0
 20
0.0
 30
0.0
  3
*D28
  1

  0
LINE
  5
14A9
330
9F2
100
AcDbEntity
  8
SUNPOU
100
AcDbLine
 10
310.9989431465218
 20
496.4983266026468
 30
0.0
 11
355.7184510551333
 21
496.4983266026468
 31
0.0
  0
LINE
  5
14AA
330
9F2
100
AcDbEntity
  8
SUNPOU
100
AcDbLine
 10
310.9989431465218
 20
296.498326602647
 30
0.0
 11
355.7184510551333
 21
296.498326602647
 31
0.0
  0
LINE
  5
14AB
330
9F2
100
AcDbEntity
  8
SUNPOU
100
AcDbLine
 10
353.7184510551333
 20
491.4983266026467
 30
0.0
 11
353.7184510551333
 21
301.498326602647
 31
0.0
  0
INSERT
  5
14AC
330
9F2
100
AcDbEntity
  8
SUNPOU
100
AcDbBlockReference
  2
_OPEN30
 10
353.7184510551333
 20
496.4983266026468
 30
0.0
 41
5.0
 42
5.0
 43
5.0
 50
90.0
  0
INSERT
  5
14AD
330
9F2
100
AcDbEntity
  8
SUNPOU
100
AcDbBlockReference
  2
_OPEN30
 10
353.7184510551333
 20
296.498326602647
 30
0.0
 41
5.0
 42
5.0
 43
5.0
 50
270.0
  0
MTEXT
  5
14AE
330
9F2
100
AcDbEntity
  8
SUNPOU
 62
     6
100
AcDbMText
 10
349.2184510551333
 20
396.498326602647
 30
0.0
 40
5.0
 41
0.0
 71
     5
 72
     1
  1
\A1;200
  7
SUNPOU
 11
0.0000000000000001
 21
1.0
 31
0.0
1001
ACAD
1000
MTEXTBEGIN
1070
    73
1070
     1
1070
    44
1040
1.0
1070
    74
1070
     0
1000
MTEXTEND
1000
MTEXTBEGIN
1070
    73
1070
     1
1070
    44
1040
1.0
1070
    74
1070
     0
1000
MTEXTEND
  0
POINT
  5
14AF
330
9F2
100
AcDbEntity
  8
DEFPOINTS
 62
     0
100
AcDbPoint
 10
307.9989431465218
 20
496.4983266026468
 30
0.0
  0
POINT
  5
14B0
330
9F2
100
AcDbEntity
  8
DEFPOINTS
 62
     0
100
AcDbPoint
 10
307.9989431465218
 20
296.498326602647
 30
0.0
  0
POINT
  5
14B1
330
9F2
100
AcDbEntity
  8
DEFPOINTS
 62
     0
100
AcDbPoint
 10
353.7184510551333
 20
296.498326602647
 30
0.0
  0
ENDBLK
  5
9FD
330
9F2
100
AcDbEntity
  8
0
100
AcDbBlockEnd
  0
BLOCK
  5
A0A
330
A00
100
AcDbEntity
  8
0
100
AcDbBlockBegin
  2
*D29
 70
     1
 10
0.0
 20
0.0
 30
0.0
  3
*D29
  1

  0
LINE
  5
14DA
330
A00
100
AcDbEntity
  8
SUNPOU
100
AcDbLine
 10
310.9989431465218
 20
296.498326602647
 30
0.0
 11
355.7184510551333
 21
296.498326602647
 31
0.0
  0
LINE
  5
14DB
330
A00
100
AcDbEntity
  8
SUNPOU
100
AcDbLine
 10
350.7184510551333
 20
101.4983266026469
 30
0.0
 11
351.7184510551333
 21
101.4983266026469
 31
0.0
  0
LINE
  5
14DC
330
A00
100
AcDbEntity
  8
SUNPOU
100
AcDbLine
 10
353.7184510551333
 20
291.4983266026468
 30
0.0
 11
353.7184510551333
 21
106.4983266026469
 31
0.0
  0
MTEXT
  5
14DD
330
A00
100
AcDbEntity
  8
SUNPOU
 62
     6
100
AcDbMText
 10
348.9583740469716
 20
189.0376690146863
 30
0.0
 40
5.0
 41
0.0
 71
     5
 72
     1
  1
\A1;H
  7
SUNPOU
 11
0.0000000000000001
 21
1.0
 31
0.0
1001
ACAD
1000
MTEXTBEGIN
1070
    73
1070
     1
1070
    44
1040
1.0
1070
    74
1070
     0
1000
MTEXTEND
1000
MTEXTBEGIN
1070
    73
1070
     1
1070
    44
1040
1.0
1070
    74
1070
     0
1000
MTEXTEND
  0
INSERT
  5
14DE
330
A00
100
AcDbEntity
  8
SUNPOU
100
AcDbBlockReference
  2
_OPEN30
 10
353.7184510551333
 20
296.498326602647
 30
0.0
 41
5.0
 42
5.0
 43
5.0
 50
90.0
  0
INSERT
  5
14DF
330
A00
100
AcDbEntity
  8
SUNPOU
100
AcDbBlockReference
  2
_OPEN30
 10
353.7184510551333
 20
101.4983266026469
 30
0.0
 41
5.0
 42
5.0
 43
5.0
 50
270.0
  0
POINT
  5
14E0
330
A00
100
AcDbEntity
  8
DEFPOINTS
 62
     0
100
AcDbPoint
 10
307.9989431465218
 20
296.498326602647
 30
0.0
  0
POINT
  5
14E1
330
A00
100
AcDbEntity
  8
DEFPOINTS
 62
     0
100
AcDbPoint
 10
353.7184510551333
 20
101.4983266026469
 30
0.0
  0
POINT
  5
14E2
330
A00
100
AcDbEntity
  8
DEFPOINTS
 62
     0
100
AcDbPoint
 10
353.7184510551333
 20
101.4983266026469
 30
0.0
  0
ENDBLK
  5
A0B
330
A00
100
AcDbEntity
  8
0
100
AcDbBlockEnd
  0
BLOCK
  5
C13
330
C09
100
AcDbEntity
  8
0
100
AcDbBlockBegin
  2
*D30
 70
     1
 10
0.0
 20
0.0
 30
0.0
  3
*D30
  1

  0
LINE
  5
1408
330
C09
100
AcDbEntity
  8
SUNPOU
100
AcDbLine
 10
218.9489431447269
 20
76.50167860591153
 30
0.0
 11
218.9489431447269
 21
66.45988641282776
 31
0.0
  0
LINE
  5
1409
330
C09
100
AcDbEntity
  8
SUNPOU
100
AcDbLine
 10
235.9489431447268
 20
76.50167860591158
 30
0.0
 11
235.9489431447268
 21
66.45988641282776
 31
0.0
  0
LINE
  5
140A
330
C09
100
AcDbEntity
  8
SUNPOU
100
AcDbLine
 10
213.9489431447269
 20
68.45988641282776
 30
0.0
 11
208.9489431447268
 21
68.45988641282776
 31
0.0
  0
LINE
  5
140B
330
C09
100
AcDbEntity
  8
SUNPOU
100
AcDbLine
 10
240.9489431447269
 20
68.45988641282776
 30
0.0
 11
245.9489431447269
 21
68.45988641282776
 31
0.0
  0
MTEXT
  5
140C
330
C09
100
AcDbEntity
  8
SUNPOU
 62
     6
100
AcDbMText
 10
227.4489431447269
 20
72.34602233364284
 30
0.0
 40
5.0
 41
0.0
 71
     5
 72
     1
  1
\A1;17
  7
SUNPOU
1001
ACAD
1000
MTEXTBEGIN
1070
    73
1070
     1
1070
    44
1040
1.0
1070
    74
1070
     0
1000
MTEXTEND
1000
MTEXTBEGIN
1070
    73
1070
     1
1070
    44
1040
1.0
1070
    74
1070
     0
1000
MTEXTEND
  0
LINE
  5
140D
330
C09
100
AcDbEntity
  8
SUNPOU
100
AcDbLine
 10
218.9489431447269
 20
68.45988641282776
 30
0.0
 11
235.9489431447268
 21
68.45988641282776
 31
0.0
  0
INSERT
  5
140E
330
C09
100
AcDbEntity
  8
SUNPOU
100
AcDbBlockReference
  2
_OPEN30
 10
218.9489431447269
 20
68.45988641282776
 30
0.0
 41
5.0
 42
5.0
 43
5.0
  0
INSERT
  5
140F
330
C09
100
AcDbEntity
  8
SUNPOU
100
AcDbBlockReference
  2
_OPEN30
 10
235.9489431447268
 20
68.45988641282776
 30
0.0
 41
5.0
 42
5.0
 43
5.0
 50
180.0
  0
POINT
  5
1410
330
C09
100
AcDbEntity
  8
DEFPOINTS
 62
     0
100
AcDbPoint
 10
218.9489431447269
 20
79.50167860591155
 30
0.0
  0
POINT
  5
1411
330
C09
100
AcDbEntity
  8
DEFPOINTS
 62
     0
100
AcDbPoint
 10
235.9489431447268
 20
79.50167860591156
 30
0.0
  0
POINT
  5
1412
330
C09
100
AcDbEntity
  8
DEFPOINTS
 62
     0
100
AcDbPoint
 10
235.9489431447268
 20
68.45988641282776
 30
0.0
  0
ENDBLK
  5
C14
330
C09
100
AcDbEntity
  8
0
100
AcDbBlockEnd
  0
BLOCK
  5
1088
330
1086
100
AcDbEntity
  8
0
100
AcDbBlockBegin
  2
_DOTSMALL
 70
     0
 10
0.0
 20
0.0
 30
0.0
  3
_DOTSMALL
  1

  0
POLYLINE
  5
1087
330
1086
100
AcDbEntity
  8
0
  6
BYBLOCK
 62
     0
100
AcDb2dPolyline
 66
     1
 10
0.0
 20
0.0
 30
0.0
 70
     1
 40
0.5
 41
0.5
  0
VERTEX
  5
18A1
330
1087
100
AcDbEntity
  8
0
  6
BYBLOCK
 62
     0
100
AcDbVertex
100
AcDb2dVertex
 10
-0.0625
 20
0.0
 30
0.0
 42
1.0
  0
VERTEX
  5
18A2
330
1087
100
AcDbEntity
  8
0
  6
BYBLOCK
 62
     0
100
AcDbVertex
100
AcDb2dVertex
 10
0.0625
 20
0.0
 30
0.0
 42
1.0
  0
SEQEND
  5
18A3
330
1087
100
AcDbEntity
  8
0
  6
BYBLOCK
 62
     0
  0
ENDBLK
  5
1089
330
1086
100
AcDbEntity
  8
0
100
AcDbBlockEnd
  0
BLOCK
  5
1548
330
153F
100
AcDbEntity
  8
0
100
AcDbBlockBegin
  2
*D32
 70
     1
 10
0.0
 20
0.0
 30
0.0
  3
*D32
  1

  0
LINE
  5
16F6
330
153F
100
AcDbEntity
  8
SUNPOU
100
AcDbLine
 10
194.3962044416625
 20
442.443475551095
 30
0.0
 11
199.0371896235494
 21
444.3039208046582
 31
0.0
  0
LINE
  5
16F7
330
153F
100
AcDbEntity
  8
SUNPOU
100
AcDbLine
 10
157.2683229865668
 20
427.5599135225887
 30
0.0
 11
152.6273378046798
 21
425.6994682690256
 31
0.0
  0
MTEXT
  5
16F8
330
153F
100
AcDbEntity
  8
SUNPOU
 62
     6
100
AcDbMText
 10
178.2131309821611
 20
428.2179407275514
 30
0.0
 40
5.0
 41
0.0
 71
     5
 72
     1
  1
\A1;φ30通線穴\P(両端)
  7
SUNPOU
 11
0.928197036377384
 21
0.3720890507126502
 31
0.0
1001
ACAD
1000
MTEXTBEGIN
1070
    73
1070
     1
1070
    44
1040
1.0
1070
    74
1070
     0
1000
MTEXTEND
1000
MTEXTBEGIN
1070
    73
1070
     1
1070
    44
1040
1.0
1070
    74
1070
     0
1000
MTEXTEND
  0
LINE
  5
16F9
330
153F
100
AcDbEntity
  8
SUNPOU
100
AcDbLine
 10
189.7552192597755
 20
440.5830302975316
 30
0.0
 11
161.9093081684536
 21
429.4203587761519
 31
0.0
  0
INSERT
  5
16FA
330
153F
100
AcDbEntity
  8
SUNPOU
100
AcDbBlockReference
  2
_OPEN30
 10
189.7552192597755
 20
440.5830302975316
 30
0.0
 41
5.0
 42
5.0
 43
5.0
 50
201.8445122682678
  0
INSERT
  5
16FB
330
153F
100
AcDbEntity
  8
SUNPOU
100
AcDbBlockReference
  2
_OPEN30
 10
161.9093081684536
 20
429.4203587761519
 30
0.0
 41
5.0
 42
5.0
 43
5.0
 50
21.84451226826789
  0
POINT
  5
16FC
330
153F
100
AcDbEntity
  8
DEFPOINTS
 62
     0
100
AcDbPoint
 10
161.9093081684536
 20
429.4203587761519
 30
0.0
  0
POINT
  5
16FD
330
153F
100
AcDbEntity
  8
DEFPOINTS
 62
     0
100
AcDbPoint
 10
189.7552192597755
 20
440.5830302975316
 30
0.0
  0
ENDBLK
  5
1549
330
153F
100
AcDbEntity
  8
0
100
AcDbBlockEnd
  0
BLOCK
  5
1691
330
1687
100
AcDbEntity
  8
0
100
AcDbBlockBegin
  2
*D33
 70
     1
 10
0.0
 20
0.0
 30
0.0
  3
*D33
  1

  0
LINE
  5
16CD
330
1687
100
AcDbEntity
  8
SUNPOU
100
AcDbLine
 10
153.3013399153878
 20
396.498326602647
 30
0.0
 11
120.8499966921379
 21
396.498326602647
 31
0.0
  0
LINE
  5
16CE
330
1687
100
AcDbEntity
  8
SUNPOU
100
AcDbLine
 10
157.5989431465218
 20
441.498326602647
 30
0.0
 11
120.849996692138
 21
441.498326602647
 31
0.0
  0
LINE
  5
16CF
330
1687
100
AcDbEntity
  8
SUNPOU
100
AcDbLine
 10
122.8499966921379
 20
401.4983266026471
 30
0.0
 11
122.849996692138
 21
436.4983266026469
 31
0.0
  0
INSERT
  5
16D0
330
1687
100
AcDbEntity
  8
SUNPOU
100
AcDbBlockReference
  2
_OPEN30
 10
122.8499966921379
 20
396.498326602647
 30
0.0
 41
5.0
 42
5.0
 43
5.0
 50
270.0
  0
INSERT
  5
16D1
330
1687
100
AcDbEntity
  8
SUNPOU
100
AcDbBlockReference
  2
_OPEN30
 10
122.849996692138
 20
441.498326602647
 30
0.0
 41
5.0
 42
5.0
 43
5.0
 50
90.0
  0
MTEXT
  5
16D2
330
1687
100
AcDbEntity
  8
SUNPOU
 62
     6
100
AcDbMText
 10
118.3499966921379
 20
418.9983266026469
 30
0.0
 40
5.0
 41
0.0
 71
     5
 72
     1
  1
\A1;45
  7
SUNPOU
 11
0.0000000000000001
 21
1.0
 31
0.0
1001
ACAD
1000
MTEXTBEGIN
1070
    73
1070
     1
1070
    44
1040
1.0
1070
    74
1070
     0
1000
MTEXTEND
1000
MTEXTBEGIN
1070
    73
1070
     1
1070
    44
1040
1.0
1070
    74
1070
     0
1000
MTEXTEND
  0
POINT
  5
16D3
330
1687
100
AcDbEntity
  8
DEFPOINTS
 62
     0
100
AcDbPoint
 10
156.3013399153878
 20
396.498326602647
 30
0.0
  0
POINT
  5
16D4
330
1687
100
AcDbEntity
  8
DEFPOINTS
 62
     0
100
AcDbPoint
 10
160.5989431465218
 20
441.498326602647
 30
0.0
  0
POINT
  5
16D5
330
1687
100
AcDbEntity
  8
DEFPOINTS
 62
     0
100
AcDbPoint
 10
122.849996692138
 20
441.498326602647
 30
0.0
  0
ENDBLK
  5
1692
330
1687
100
AcDbEntity
  8
0
100
AcDbBlockEnd
  0
BLOCK
  5
16C2
330
16B8
100
AcDbEntity
  8
0
100
AcDbBlockBegin
  2
*D34
 70
     1
 10
0.0
 20
0.0
 30
0.0
  3
*D34
  1

  0
LINE
  5
17AA
330
16B8
100
AcDbEntity
  8
SUNPOU
100
AcDbLine
 10
168.5989431465218
 20
414.8087674921026
 30
0.0
 11
168.5989431465218
 21
413.8087674921025
 31
0.0
  0
LINE
  5
17AB
330
16B8
100
AcDbEntity
  8
SUNPOU
100
AcDbLine
 10
200.5989431465218
 20
372.498326602647
 30
0.0
 11
200.5989431465218
 21
413.8087674921025
 31
0.0
  0
LINE
  5
17AC
330
16B8
100
AcDbEntity
  8
SUNPOU
100
AcDbLine
 10
173.5989431465218
 20
411.8087674921024
 30
0.0
 11
195.5989431465218
 21
411.8087674921024
 31
0.0
  0
INSERT
  5
17AD
330
16B8
100
AcDbEntity
  8
SUNPOU
100
AcDbBlockReference
  2
_OPEN30
 10
168.5989431465218
 20
411.8087674921024
 30
0.0
 41
5.0
 42
5.0
 43
5.0
 50
180.0
  0
INSERT
  5
17AE
330
16B8
100
AcDbEntity
  8
SUNPOU
100
AcDbBlockReference
  2
_OPEN30
 10
200.5989431465218
 20
411.8087674921024
 30
0.0
 41
5.0
 42
5.0
 43
5.0
  0
MTEXT
  5
17AF
330
16B8
100
AcDbEntity
  8
SUNPOU
 62
     6
100
AcDbMText
 10
184.5989431465218
 20
416.3087674921024
 30
0.0
 40
5.0
 41
0.0
 71
     5
 72
     1
  1
\A1;32
  7
SUNPOU
1001
ACAD
1000
MTEXTBEGIN
1070
    73
1070
     1
1070
    44
1040
1.0
1070
    74
1070
     0
1000
MTEXTEND
1000
MTEXTBEGIN
1070
    73
1070
     1
1070
    44
1040
1.0
1070
    74
1070
     0
1000
MTEXTEND
  0
POINT
  5
17B0
330
16B8
100
AcDbEntity
  8
DEFPOINTS
 62
     0
100
AcDbPoint
 10
168.5989431465218
 20
411.8087674921024
 30
0.0
  0
POINT
  5
17B1
330
16B8
100
AcDbEntity
  8
DEFPOINTS
 62
     0
100
AcDbPoint
 10
200.5989431465218
 20
369.498326602647
 30
0.0
  0
POINT
  5
17B2
330
16B8
100
AcDbEntity
  8
DEFPOINTS
 62
     0
100
AcDbPoint
 10
200.5989431465218
 20
411.8087674921024
 30
0.0
  0
ENDBLK
  5
16C3
330
16B8
100
AcDbEntity
  8
0
100
AcDbBlockEnd
  0
ENDSEC
  0
SECTION
  2
ENTITIES
  0
LINE
  5
2B5
330
A
100
AcDbEntity
  8
03
100
AcDbLine
 10
309.5989431465216
 20
298.098326602647
 30
0.0
 11
309.5989431465216
 21
494.8983266026467
 31
0.0
  0
LINE
  5
2B6
330
A
100
AcDbEntity
  8
03
100
AcDbLine
 10
146.5989431465216
 20
476.8983266026468
 30
0.0
 11
146.5989431465216
 21
298.0983266026468
 31
0.0
  0
LINE
  5
2B7
330
A
100
AcDbEntity
  8
03
100
AcDbLine
 10
283.5989431465216
 20
494.8983266026462
 30
0.0
 11
283.5989431465216
 21
478.4983266026461
 31
0.0
  0
LINE
  5
2B8
330
A
100
AcDbEntity
  8
03
100
AcDbLine
 10
294.5989431465216
 20
478.4983266026461
 30
0.0
 11
283.5989431465216
 21
478.4983266026461
 31
0.0
  0
LINE
  5
2B9
330
A
100
AcDbEntity
  8
03
100
AcDbLine
 10
285.5989431465216
 20
494.8983266026462
 30
0.0
 11
285.5989431465216
 21
479.4983266026461
 31
0.0
  0
LINE
  5
2BA
330
A
100
AcDbEntity
  8
03
100
AcDbLine
 10
285.5989431465216
 20
479.4983266026461
 30
0.0
 11
287.0989431465218
 21
479.4983266026461
 31
0.0
  0
LINE
  5
2BB
330
A
100
AcDbEntity
  8
03
100
AcDbLine
 10
287.0989431465218
 20
494.9983266026461
 30
0.0
 11
307.9989431465218
 21
494.9983266026467
 31
0.0
  0
LINE
  5
2BC
330
A
100
AcDbEntity
  8
03
100
AcDbLine
 10
287.0989431465218
 20
494.9983266026461
 30
0.0
 11
287.0989431465218
 21
479.4983266026461
 31
0.0
  0
LINE
  5
2BD
330
A
100
AcDbEntity
  8
03
100
AcDbLine
 10
308.0989431465216
 20
494.998326602647
 30
0.0
 11
308.0989431465216
 21
297.998326602647
 31
0.0
  0
LINE
  5
2BE
330
A
100
AcDbEntity
  8
03
100
AcDbLine
 10
307.9989431465218
 20
496.4983266026467
 30
0.0
 11
287.1989431465216
 21
496.4983266026467
 31
0.0
  0
LINE
  5
2BF
330
A
100
AcDbEntity
  8
03
100
AcDbLine
 10
281.9989431465218
 20
496.4983266026461
 30
0.0
 11
188.1989431465218
 21
496.4983266026461
 31
0.0
  0
LINE
  5
2C0
330
A
100
AcDbEntity
  8
03
100
AcDbLine
 10
250.0989431465217
 20
297.998326602647
 30
0.0
 11
308.0989431465216
 21
297.998326602647
 31
0.0
  0
LINE
  5
2C1
330
A
100
AcDbEntity
  8
03
100
AcDbLine
 10
248.5989431465216
 20
298.098326602647
 30
0.0
 11
248.5989431465216
 21
306.4983266026468
 31
0.0
  0
LINE
  5
2C2
330
A
100
AcDbEntity
  8
03
100
AcDbLine
 10
250.0989431465217
 20
306.4983266026468
 30
0.0
 11
250.0989431465217
 21
297.998326602647
 31
0.0
  0
LINE
  5
2C3
330
A
100
AcDbEntity
  8
03
100
AcDbLine
 10
248.5989431465216
 20
306.4983266026468
 30
0.0
 11
250.0989431465217
 21
306.4983266026468
 31
0.0
  0
LINE
  5
2C4
330
A
100
AcDbEntity
  8
03
100
AcDbLine
 10
250.1989431465218
 20
296.498326602647
 30
0.0
 11
307.9989431465218
 21
296.498326602647
 31
0.0
  0
LINE
  5
2C5
330
A
100
AcDbEntity
  8
03
100
AcDbLine
 10
282.0989431465216
 20
494.9983266026461
 30
0.0
 11
188.0989431465216
 21
494.9983266026461
 31
0.0
  0
LINE
  5
2C6
330
A
100
AcDbEntity
  8
03
100
AcDbLine
 10
283.6989431465218
 20
476.9983266026462
 30
0.0
 11
294.5989431465216
 21
476.9983266026462
 31
0.0
  0
LINE
  5
2C7
330
A
100
AcDbEntity
  8
03
100
AcDbLine
 10
294.5989431465216
 20
478.4983266026461
 30
0.0
 11
294.5989431465216
 21
476.9983266026462
 31
0.0
  0
LINE
  5
2C8
330
A
100
AcDbEntity
  8
03
100
AcDbLine
 10
282.0989431465216
 20
494.9983266026461
 30
0.0
 11
282.0989431465216
 21
478.5983266026462
 31
0.0
  0
LINE
  5
2C9
330
A
100
AcDbEntity
  8
03
100
AcDbLine
 10
186.5989431465217
 20
537.9983266026462
 30
0.0
 11
186.5989431465217
 21
478.5983266026463
 31
0.0
  0
LINE
  5
2CA
330
A
100
AcDbEntity
  8
03
100
AcDbLine
 10
188.0989431465216
 20
494.9983266026461
 30
0.0
 11
188.0989431465216
 21
478.5983266026463
 31
0.0
  0
LINE
  5
2CB
330
A
100
AcDbEntity
  8
03
100
AcDbLine
 10
186.5989431465217
 20
478.4983266026461
 30
0.0
 11
148.1989431465216
 21
478.498326602647
 31
0.0
  0
LINE
  5
2CC
330
A
100
AcDbEntity
  8
03
100
AcDbLine
 10
148.0989431465216
 20
476.998326602647
 30
0.0
 11
280.4989431465218
 21
476.998326602645
 31
0.0
  0
LINE
  5
2CD
330
A
100
AcDbEntity
  8
03
100
AcDbLine
 10
148.0989431465216
 20
476.8983266026468
 30
0.0
 11
148.0989431465216
 21
297.998326602647
 31
0.0
  0
LINE
  5
2CE
330
A
100
AcDbEntity
  8
03
100
AcDbLine
 10
205.0989431465216
 20
312.898326602647
 30
0.0
 11
205.0989431465216
 21
297.998326602647
 31
0.0
  0
LINE
  5
2CF
330
A
100
AcDbEntity
  8
03
100
AcDbLine
 10
205.0989431465216
 20
306.4983266026468
 30
0.0
 11
206.5989431465216
 21
306.4983266026468
 31
0.0
  0
LINE
  5
2D0
330
A
100
AcDbEntity
  8
03
100
AcDbLine
 10
170.5989431465216
 20
478.4983266026465
 30
0.0
 11
170.5989431465216
 21
537.9983266026462
 31
0.0
  0
LINE
  5
2D1
330
A
100
AcDbEntity
  8
03
100
AcDbLine
 10
151.5989431465216
 20
478.4983266026465
 30
0.0
 11
151.5989431465216
 21
494.8983266026462
 31
0.0
  0
LINE
  5
2D2
330
A
100
AcDbEntity
  8
03
100
AcDbLine
 10
153.1989431465218
 20
496.4983266026461
 30
0.0
 11
168.9989431465217
 21
496.4983266026461
 31
0.0
  0
LINE
  5
2D3
330
A
100
AcDbEntity
  8
03
100
AcDbLine
 10
153.0989431465217
 20
478.4983266026467
 30
0.0
 11
153.0989431465217
 21
494.9983266026461
 31
0.0
  0
LINE
  5
2D4
330
A
100
AcDbEntity
  8
03
100
AcDbLine
 10
169.0989431465216
 20
494.9983266026461
 30
0.0
 11
169.0989431465216
 21
478.4983266026465
 31
0.0
  0
LINE
  5
2D5
330
A
100
AcDbEntity
  8
03
100
AcDbLine
 10
153.0989431465217
 20
494.9983266026461
 30
0.0
 11
169.0989431465216
 21
494.9983266026461
 31
0.0
  0
LINE
  5
2D6
330
A
100
AcDbEntity
  8
03
100
AcDbLine
 10
171.5989431465216
 20
298.0983266026468
 30
0.0
 11
171.5989431465216
 21
311.3983266026469
 31
0.0
  0
LINE
  5
2D7
330
A
100
AcDbEntity
  8
03
100
AcDbLine
 10
187.5989431465217
 20
298.0983266026468
 30
0.0
 11
187.5989431465217
 21
311.3983266026469
 31
0.0
  0
LINE
  5
2D8
330
A
100
AcDbEntity
  8
03
100
AcDbLine
 10
149.6989431465218
 20
314.498326602647
 30
0.0
 11
203.4989431465218
 21
314.498326602647
 31
0.0
  0
LINE
  5
2D9
330
A
100
AcDbEntity
  8
03
100
AcDbLine
 10
203.4989431465218
 20
312.898326602647
 30
0.0
 11
149.6989431465218
 21
312.898326602647
 31
0.0
  0
LINE
  5
2DA
330
A
100
AcDbEntity
  8
03
100
AcDbLine
 10
203.4989431465218
 20
312.898326602647
 30
0.0
 11
203.4989431465218
 21
297.998326602647
 31
0.0
  0
LINE
  5
2DB
330
A
100
AcDbEntity
  8
03
100
AcDbLine
 10
149.6989431465218
 20
475.398326602647
 30
0.0
 11
149.6989431465218
 21
314.498326602647
 31
0.0
  0
LINE
  5
2DC
330
A
100
AcDbEntity
  8
03
100
AcDbLine
 10
171.5989431465216
 20
311.3983266026469
 30
0.0
 11
187.5989431465217
 21
311.3983266026469
 31
0.0
  0
LINE
  5
2DD
330
A
100
AcDbEntity
  8
03
100
AcDbLine
 10
189.0989431465216
 20
311.298326602647
 30
0.0
 11
189.0989431465216
 21
297.998326602647
 31
0.0
  0
LINE
  5
2DE
330
A
100
AcDbEntity
  8
03
100
AcDbLine
 10
170.0989431465217
 20
311.298326602647
 30
0.0
 11
170.0989431465217
 21
297.998326602647
 31
0.0
  0
LINE
  5
2DF
330
A
100
AcDbEntity
  8
03
100
AcDbLine
 10
148.0989431465216
 20
297.998326602647
 30
0.0
 11
170.0989431465217
 21
297.998326602647
 31
0.0
  0
LINE
  5
2E0
330
A
100
AcDbEntity
  8
03
100
AcDbLine
 10
189.0989431465216
 20
297.998326602647
 30
0.0
 11
205.0989431465216
 21
297.998326602647
 31
0.0
  0
LINE
  5
2E1
330
A
100
AcDbEntity
  8
03
100
AcDbLine
 10
149.6989431465218
 20
475.398326602647
 30
0.0
 11
280.4989431465218
 21
475.398326602647
 31
0.0
  0
LINE
  5
2E2
330
A
100
AcDbEntity
  8
03
100
AcDbLine
 10
280.4989431465218
 20
494.9983266026461
 30
0.0
 11
280.4989431465218
 21
476.998326602645
 31
0.0
  0
CIRCLE
  5
2E3
330
A
100
AcDbEntity
  8
03
100
AcDbCircle
 10
284.5989431465216
 20
501.4983266026461
 30
0.0
 40
4.0
  0
ARC
  5
2E4
330
A
100
AcDbEntity
  8
03
100
AcDbCircle
 10
280.4989431465218
 20
476.998326602647
 30
0.0
 40
1.6
100
AcDbArc
 50
270.0
 51
0.0
  0
ARC
  5
2E5
330
A
100
AcDbEntity
  8
03
100
AcDbCircle
 10
149.6989431465218
 20
475.398326602647
 30
0.0
 40
1.6
100
AcDbArc
 50
90.0
 51
180.0
  0
ARC
  5
2E6
330
A
100
AcDbEntity
  8
03
100
AcDbCircle
 10
149.6989431465218
 20
314.498326602647
 30
0.0
 40
1.6
100
AcDbArc
 50
180.0
 51
270.0
  0
ARC
  5
2E7
330
A
100
AcDbEntity
  8
03
100
AcDbCircle
 10
203.4989431465218
 20
312.898326602647
 30
0.0
 40
1.6
100
AcDbArc
 50
0.0
 51
90.0
  0
LINE
  5
2E8
330
A
100
AcDbEntity
  8
03
100
AcDbLine
 10
148.1989431465216
 20
296.498326602647
 30
0.0
 11
169.9989431465217
 21
296.498326602647
 31
0.0
  0
LINE
  5
2E9
330
A
100
AcDbEntity
  8
03
100
AcDbLine
 10
189.1989431465216
 20
296.498326602647
 30
0.0
 11
204.9989431465216
 21
296.498326602647
 31
0.0
  0
LINE
  5
2F8
330
A
100
AcDbEntity
  8
02
100
AcDbLine
 10
200.5989431465216
 20
369.498326602647
 30
0.0
 11
200.5989431465216
 21
320.498326602647
 31
0.0
  0
LINE
  5
2F9
330
A
100
AcDbEntity
  8
02
100
AcDbLine
 10
194.5989431465216
 20
369.498326602647
 30
0.0
 11
194.5989431465216
 21
320.498326602647
 31
0.0
  0
LINE
  5
2FA
330
A
100
AcDbEntity
  8
02
100
AcDbLine
 10
168.5989431465216
 20
320.498326602647
 30
0.0
 11
194.5989431465216
 21
320.498326602647
 31
0.0
  0
ARC
  5
2FB
330
A
100
AcDbEntity
  8
02
100
AcDbCircle
 10
194.5989431465216
 20
320.498326602647
 30
0.0
 40
6.0
100
AcDbArc
 50
270.0
 51
0.0
  0
LINE
  5
2FC
330
A
100
AcDbEntity
  8
02
100
AcDbLine
 10
194.5989431465218
 20
369.498326602647
 30
0.0
 11
168.5989431465216
 21
369.498326602647
 31
0.0
  0
ARC
  5
2FD
330
A
100
AcDbEntity
  8
02
100
AcDbCircle
 10
194.5989431465218
 20
369.498326602647
 30
0.0
 40
6.0
100
AcDbArc
 50
0.0
 51
90.0
  0
LINE
  5
2FE
330
A
100
AcDbEntity
  8
03
100
AcDbLine
 10
175.5989431465216
 20
544.498326602646
 30
0.0
 11
175.5989431465216
 21
487.9983266026463
 31
0.0
  0
LINE
  5
2FF
330
A
100
AcDbEntity
  8
03
100
AcDbLine
 10
181.5989431465217
 20
544.498326602646
 30
0.0
 11
181.5989431465217
 21
487.9983266026463
 31
0.0
  0
LINE
  5
300
330
A
100
AcDbEntity
  8
03
100
AcDbLine
 10
171.5989431465216
 20
487.9983266026463
 30
0.0
 11
185.5989431465216
 21
487.9983266026463
 31
0.0
  0
LINE
  5
301
330
A
100
AcDbEntity
  8
03
100
AcDbLine
 10
185.5989431465216
 20
487.9983266026463
 30
0.0
 11
185.5989431465216
 21
478.4983266026461
 31
0.0
  0
LINE
  5
302
330
A
100
AcDbEntity
  8
03
100
AcDbLine
 10
171.5989431465216
 20
478.4983266026465
 30
0.0
 11
171.5989431465216
 21
487.9983266026463
 31
0.0
  0
LINE
  5
303
330
A
100
AcDbEntity
  8
03
100
AcDbLine
 10
170.5989431465216
 20
496.4983266026461
 30
0.0
 11
175.5989431465216
 21
498.4983266026461
 31
0.0
  0
LINE
  5
304
330
A
100
AcDbEntity
  8
03
100
AcDbLine
 10
186.5989431465217
 20
496.4983266026461
 30
0.0
 11
181.5989431465217
 21
498.4983266026461
 31
0.0
  0
LINE
  5
305
330
A
100
AcDbEntity
  8
04
100
AcDbLine
 10
200.5989431465216
 20
332.498326602647
 30
0.0
 11
231.5989431465216
 21
332.498326602647
 31
0.0
  0
LINE
  5
306
330
A
100
AcDbEntity
  8
04
100
AcDbLine
 10
200.5989431465216
 20
366.498326602647
 30
0.0
 11
205.5989431465216
 21
366.498326602647
 31
0.0
  0
LINE
  5
307
330
A
100
AcDbEntity
  8
04
100
AcDbLine
 10
206.5989431465216
 20
365.498326602647
 30
0.0
 11
206.5989431465216
 21
344.498326602647
 31
0.0
  0
LINE
  5
308
330
A
100
AcDbEntity
  8
04
100
AcDbLine
 10
212.5989431465217
 20
338.498326602647
 30
0.0
 11
219.5989431465216
 21
338.498326602647
 31
0.0
  0
LINE
  5
309
330
A
100
AcDbEntity
  8
04
100
AcDbLine
 10
223.5989431465216
 20
346.498326602647
 30
0.0
 11
231.5989431465216
 21
346.498326602647
 31
0.0
  0
LINE
  5
30A
330
A
100
AcDbEntity
  8
04
100
AcDbLine
 10
222.5989431465217
 20
345.498326602647
 30
0.0
 11
222.5989431465217
 21
341.498326602647
 31
0.0
  0
LINE
  5
30B
330
A
100
AcDbEntity
  8
04
100
AcDbLine
 10
231.5989431465216
 20
341.498326602647
 30
0.0
 11
229.5989431465216
 21
341.498326602647
 31
0.0
  0
LINE
  5
30C
330
A
100
AcDbEntity
  8
04
100
AcDbLine
 10
229.5989431465216
 20
336.498326602647
 30
0.0
 11
232.5989431465216
 21
336.498326602647
 31
0.0
  0
LINE
  5
30D
330
A
100
AcDbEntity
  8
04
100
AcDbLine
 10
228.5989431465217
 20
340.498326602647
 30
0.0
 11
228.5989431465217
 21
337.498326602647
 31
0.0
  0
LINE
  5
30E
330
A
100
AcDbEntity
  8
04
100
AcDbLine
 10
232.5989431465216
 20
345.498326602647
 30
0.0
 11
232.5989431465216
 21
342.498326602647
 31
0.0
  0
LINE
  5
30F
330
A
100
AcDbEntity
  8
04
100
AcDbLine
 10
232.5989431465216
 20
336.498326602647
 30
0.0
 11
232.5989431465216
 21
333.4983266026468
 31
0.0
  0
ARC
  5
310
330
A
100
AcDbEntity
  8
04
100
AcDbCircle
 10
223.5989431465216
 20
345.498326602647
 30
0.0
 40
1.0
100
AcDbArc
 50
90.0
 51
180.0
  0
ARC
  5
311
330
A
100
AcDbEntity
  8
04
100
AcDbCircle
 10
231.5989431465216
 20
345.498326602647
 30
0.0
 40
1.0
100
AcDbArc
 50
0.0
 51
90.0
  0
ARC
  5
312
330
A
100
AcDbEntity
  8
04
100
AcDbCircle
 10
231.5989431465216
 20
333.4983266026468
 30
0.0
 40
1.0
100
AcDbArc
 50
270.0
 51
0.0
  0
ARC
  5
313
330
A
100
AcDbEntity
  8
04
100
AcDbCircle
 10
229.5989431465216
 20
337.498326602647
 30
0.0
 40
1.0
100
AcDbArc
 50
180.0
 51
270.0
  0
ARC
  5
314
330
A
100
AcDbEntity
  8
04
100
AcDbCircle
 10
229.5989431465216
 20
340.498326602647
 30
0.0
 40
1.0
100
AcDbArc
 50
90.0
 51
180.0
  0
ARC
  5
315
330
A
100
AcDbEntity
  8
04
100
AcDbCircle
 10
231.5989431465216
 20
342.498326602647
 30
0.0
 40
1.0
100
AcDbArc
 50
270.0
 51
0.0
  0
ARC
  5
316
330
A
100
AcDbEntity
  8
04
100
AcDbCircle
 10
205.5989431465216
 20
365.498326602647
 30
0.0
 40
1.0
100
AcDbArc
 50
0.0
 51
90.0
  0
ARC
  5
317
330
A
100
AcDbEntity
  8
04
100
AcDbCircle
 10
212.5989431465217
 20
344.498326602647
 30
0.0
 40
6.0
100
AcDbArc
 50
180.0
 51
270.0
  0
ARC
  5
318
330
A
100
AcDbEntity
  8
04
100
AcDbCircle
 10
219.5989431465216
 20
341.498326602647
 30
0.0
 40
3.0
100
AcDbArc
 50
270.0
 51
0.0
  0
LINE
  5
319
330
A
100
AcDbEntity
  8
04
100
AcDbLine
 10
208.1989531049261
 20
365.4983341703552
 30
0.0
 11
206.6003450879573
 21
365.4983282825927
 31
0.0
  0
LINE
  5
31A
330
A
100
AcDbEntity
  8
04
100
AcDbLine
 10
206.6003901804874
 20
347.4983337498076
 30
0.0
 11
208.1988742198085
 21
347.4983202572025
 31
0.0
  0
LINE
  5
31D
330
A
100
AcDbEntity
  8
04
100
AcDbLine
 10
209.7988945639868
 20
364.0038793262643
 30
0.0
 11
214.6038932360521
 21
364.0038827098304
 31
0.0
  0
LINE
  5
31E
330
A
100
AcDbEntity
  8
04
100
AcDbLine
 10
209.7988810846481
 20
348.9926914962072
 30
0.0
 11
214.6039400355628
 21
348.9928255742296
 31
0.0
  0
LINE
  5
31F
330
A
100
AcDbEntity
  8
04
100
AcDbLine
 10
214.6040053690729
 20
364.0039385550841
 30
0.0
 11
215.2998258566515
 21
362.7983503517956
 31
0.0
  0
LINE
  5
320
330
A
100
AcDbEntity
  8
04
100
AcDbLine
 10
214.6038724874903
 20
348.9927780115083
 30
0.0
 11
215.2999003063233
 21
350.1983420296081
 31
0.0
  0
LINE
  5
321
330
A
100
AcDbEntity
  8
04
100
AcDbLine
 10
215.2999308239339
 20
350.1983307825036
 30
0.0
 11
215.2999613410495
 21
362.7983371403995
 31
0.0
  0
LINE
  5
327
330
A
100
AcDbEntity
  8
04
100
AcDbLine
 10
209.7988392730443
 20
364.1983321488861
 30
0.0
 11
208.1989098319103
 21
364.198334819063
 31
0.0
  0
LINE
  5
328
330
A
100
AcDbEntity
  8
04
100
AcDbLine
 10
209.7989769704521
 20
348.7983315778469
 30
0.0
 11
208.1989382504743
 21
348.7983343214796
 31
0.0
  0
LINE
  5
337
330
A
100
AcDbEntity
  8
04
100
AcDbLine
 10
213.5989431465216
 20
310.498326602647
 30
0.0
 11
244.0989431465218
 21
310.498326602647
 31
0.0
  0
LINE
  5
338
330
A
100
AcDbEntity
  8
04
100
AcDbLine
 10
248.5989431465218
 20
402.4983266026468
 30
0.0
 11
248.5989431465218
 21
321.498326602647
 31
0.0
  0
LINE
  5
339
330
A
100
AcDbEntity
  8
04
100
AcDbLine
 10
244.0989431465218
 20
314.998326602647
 30
0.0
 11
216.0989431465217
 21
314.998326602647
 31
0.0
  0
LINE
  5
33A
330
A
100
AcDbEntity
  8
04
100
AcDbLine
 10
216.0989431465217
 20
314.998326602647
 30
0.0
 11
216.0989431465217
 21
310.498326602647
 31
0.0
  0
LINE
  5
33B
330
A
100
AcDbEntity
  8
04
100
AcDbLine
 10
248.5989431465218
 20
402.4983266026468
 30
0.0
 11
244.0989431465218
 21
402.4983266026468
 31
0.0
  0
LINE
  5
33C
330
A
100
AcDbEntity
  8
04
100
AcDbLine
 10
244.0989431465218
 20
402.4983266026468
 30
0.0
 11
244.0989431465218
 21
310.498326602647
 31
0.0
  0
LINE
  5
33D
330
A
100
AcDbEntity
  8
04
100
AcDbLine
 10
244.5989431465218
 20
321.498326602647
 30
0.0
 11
248.5989431465218
 21
321.498326602647
 31
0.0
  0
LINE
  5
33E
330
A
100
AcDbEntity
  8
04
100
AcDbLine
 10
244.0989431465218
 20
358.998326602647
 30
0.0
 11
239.5989431465217
 21
358.998326602647
 31
0.0
  0
LINE
  5
33F
330
A
100
AcDbEntity
  8
04
100
AcDbLine
 10
239.5989431465217
 20
315.498326602647
 30
0.0
 11
236.5989446331618
 21
315.4983266028575
 31
0.0
  0
LINE
  5
340
330
A
100
AcDbEntity
  8
04
100
AcDbLine
 10
231.5989431465218
 20
330.498326602647
 30
0.0
 11
239.5989431465217
 21
330.498326602647
 31
0.0
  0
LINE
  5
341
330
A
100
AcDbEntity
  8
04
100
AcDbLine
 10
231.5989431465218
 20
331.998326602647
 30
0.0
 11
221.0989431465218
 21
331.998326602647
 31
0.0
  0
LINE
  5
343
330
A
100
AcDbEntity
  8
04
100
AcDbLine
 10
220.0989431465218
 20
329.9868886943349
 30
0.0
 11
221.0989431465218
 21
329.9868886943349
 31
0.0
  0
LINE
  5
344
330
A
100
AcDbEntity
  8
04
100
AcDbLine
 10
219.8989416825996
 20
317.9983266051858
 30
0.0
 11
218.5989431465217
 21
317.998326602647
 31
0.0
  0
LINE
  5
345
330
A
100
AcDbEntity
  8
04
100
AcDbLine
 10
218.5989431465217
 20
317.998326602647
 30
0.0
 11
218.5989431465217
 21
327.998326602647
 31
0.0
  0
LINE
  5
346
330
A
100
AcDbEntity
  8
04
100
AcDbLine
 10
218.5989431465217
 20
327.998326602647
 30
0.0
 11
220.0989431465218
 21
327.998326602647
 31
0.0
  0
LINE
  5
347
330
A
100
AcDbEntity
  8
04
100
AcDbLine
 10
244.0989431465218
 20
315.998326602647
 30
0.0
 11
244.5989431465218
 21
315.998326602647
 31
0.0
  0
LINE
  5
348
330
A
100
AcDbEntity
  8
04
100
AcDbLine
 10
244.5989431465218
 20
315.998326602647
 30
0.0
 11
244.5989431465218
 21
321.498326602647
 31
0.0
  0
LINE
  5
34A
330
A
100
AcDbEntity
  8
04
100
AcDbLine
 10
244.0989431465218
 20
382.4679817172499
 30
0.0
 11
237.5989431465217
 21
382.4679817172499
 31
0.0
  0
LINE
  5
34B
330
A
100
AcDbEntity
  8
04
100
AcDbLine
 10
237.5989431465217
 20
360.5286714880441
 30
0.0
 11
244.0989431465218
 21
360.5286714880441
 31
0.0
  0
LINE
  5
34E
330
A
100
AcDbEntity
  8
04
100
AcDbLine
 10
237.5989431465217
 20
401.498326602647
 30
0.0
 11
237.5989431465217
 21
341.498326602647
 31
0.0
  0
LINE
  5
34F
330
A
100
AcDbEntity
  8
04
100
AcDbLine
 10
222.5989431465217
 20
396.498326602647
 30
0.0
 11
232.5989431465216
 21
396.498326602647
 31
0.0
  0
LINE
  5
350
330
A
100
AcDbEntity
  8
04
100
AcDbLine
 10
232.5989431465216
 20
396.498326602647
 30
0.0
 11
233.9386891086773
 21
401.498326602647
 31
0.0
  0
LINE
  5
351
330
A
100
AcDbEntity
  8
04
100
AcDbLine
 10
233.9386891086773
 20
401.498326602647
 30
0.0
 11
237.5989431465217
 21
401.498326602647
 31
0.0
  0
LINE
  5
352
330
A
100
AcDbEntity
  8
04
100
AcDbLine
 10
222.5989431465217
 20
396.498326602647
 30
0.0
 11
221.2591971843662
 21
401.498326602647
 31
0.0
  0
LINE
  5
353
330
A
100
AcDbEntity
  8
04
100
AcDbLine
 10
221.2591971843662
 20
401.498326602647
 30
0.0
 11
217.5989431465216
 21
401.498326602647
 31
0.0
  0
LINE
  5
354
330
A
100
AcDbEntity
  8
04
100
AcDbLine
 10
217.5989431465216
 20
401.498326602647
 30
0.0
 11
217.5989431465216
 21
341.498326602647
 31
0.0
  0
LINE
  5
355
330
A
100
AcDbEntity
  8
04
100
AcDbLine
 10
222.5989431465217
 20
346.498326602647
 30
0.0
 11
232.5989431465216
 21
346.498326602647
 31
0.0
  0
LINE
  5
356
330
A
100
AcDbEntity
  8
04
100
AcDbLine
 10
232.5989431465216
 20
346.498326602647
 30
0.0
 11
233.9386891086773
 21
341.498326602647
 31
0.0
  0
LINE
  5
357
330
A
100
AcDbEntity
  8
04
100
AcDbLine
 10
233.9386891086773
 20
341.498326602647
 30
0.0
 11
237.5989431465217
 21
341.498326602647
 31
0.0
  0
LINE
  5
358
330
A
100
AcDbEntity
  8
04
100
AcDbLine
 10
222.5989431465217
 20
346.498326602647
 30
0.0
 11
221.2591971843662
 21
341.498326602647
 31
0.0
  0
LINE
  5
359
330
A
100
AcDbEntity
  8
04
100
AcDbLine
 10
221.2591971843662
 20
341.498326602647
 30
0.0
 11
217.5989431465216
 21
341.498326602647
 31
0.0
  0
LINE
  5
35E
330
A
100
AcDbEntity
  8
04
100
AcDbLine
 10
217.5989431465216
 20
378.998326602647
 30
0.0
 11
217.0989431465216
 21
378.998326602647
 31
0.0
  0
LINE
  5
35F
330
A
100
AcDbEntity
  8
04
100
AcDbLine
 10
217.0989431465216
 20
378.998326602647
 30
0.0
 11
217.0989431465216
 21
363.998326602647
 31
0.0
  0
LINE
  5
360
330
A
100
AcDbEntity
  8
04
100
AcDbLine
 10
217.0989431465216
 20
363.998326602647
 30
0.0
 11
217.5989431465216
 21
363.998326602647
 31
0.0
  0
LINE
  5
361
330
A
100
AcDbEntity
  8
04
100
AcDbLine
 10
248.5989431465218
 20
379.998326602647
 30
0.0
 11
249.5989431465218
 21
379.998326602647
 31
0.0
  0
LINE
  5
362
330
A
100
AcDbEntity
  8
04
100
AcDbLine
 10
249.5989431465218
 20
379.998326602647
 30
0.0
 11
249.5989431465218
 21
362.998326602647
 31
0.0
  0
LINE
  5
363
330
A
100
AcDbEntity
  8
04
100
AcDbLine
 10
249.5989431465218
 20
362.998326602647
 30
0.0
 11
248.5989431465218
 21
362.998326602647
 31
0.0
  0
LINE
  5
364
330
A
100
AcDbEntity
  8
04
100
AcDbLine
 10
248.5989431465218
 20
357.248326602647
 30
0.0
 11
250.1989431465218
 21
357.248326602647
 31
0.0
  0
LINE
  5
366
330
A
100
AcDbEntity
  8
04
100
AcDbLine
 10
250.1989431465218
 20
344.748326602647
 30
0.0
 11
248.5989431465218
 21
344.748326602647
 31
0.0
  0
LINE
  5
367
330
A
100
AcDbEntity
  8
04
100
AcDbLine
 10
250.1989431465216
 20
344.8983266026468
 30
0.0
 11
251.6989431465217
 21
344.8983266026468
 31
0.0
  0
LINE
  5
369
330
A
100
AcDbEntity
  8
04
100
AcDbLine
 10
251.6989431465217
 20
357.098326602647
 30
0.0
 11
250.1989431465216
 21
357.098326602647
 31
0.0
  0
LINE
  5
36A
330
A
100
AcDbEntity
  8
04
100
AcDbLine
 10
251.6989431465217
 20
356.771826602647
 30
0.0
 11
255.1946279215218
 21
356.771826602647
 31
0.0
  0
LINE
  5
36B
330
A
100
AcDbEntity
  8
04
100
AcDbLine
 10
251.6989431465217
 20
345.224826602647
 30
0.0
 11
255.1946279215216
 21
345.224826602647
 31
0.0
  0
LINE
  5
36C
330
A
100
AcDbEntity
  8
04
100
AcDbLine
 10
255.1946279215218
 20
356.771826602647
 30
0.0
 11
255.6989431465217
 21
355.8983266026468
 31
0.0
  0
LINE
  5
36D
330
A
100
AcDbEntity
  8
04
100
AcDbLine
 10
255.1946279215216
 20
345.224826602647
 30
0.0
 11
255.6989431465217
 21
346.0983266026468
 31
0.0
  0
LINE
  5
36E
330
A
100
AcDbEntity
  8
04
100
AcDbLine
 10
255.6989431465217
 20
346.0983266026468
 30
0.0
 11
255.6989431465217
 21
355.8983266026468
 31
0.0
  0
LINE
  5
377
330
A
100
AcDbEntity
  8
04
100
AcDbLine
 10
250.1989431465216
 20
334.748326602647
 30
0.0
 11
248.5989431465216
 21
334.748326602647
 31
0.0
  0
LINE
  5
378
330
A
100
AcDbEntity
  8
04
100
AcDbLine
 10
250.1989431465216
 20
334.8983266026468
 30
0.0
 11
251.6989431465217
 21
334.8983266026468
 31
0.0
  0
LINE
  5
37A
330
A
100
AcDbEntity
  8
04
100
AcDbLine
 10
251.6989431465217
 20
335.224826602647
 30
0.0
 11
255.1946279215216
 21
335.224826602647
 31
0.0
  0
LINE
  5
37B
330
A
100
AcDbEntity
  8
04
100
AcDbLine
 10
255.1946279215216
 20
335.224826602647
 30
0.0
 11
255.6989431465217
 21
336.098326602647
 31
0.0
  0
LINE
  5
37C
330
A
100
AcDbEntity
  8
04
100
AcDbLine
 10
255.6989431465217
 20
336.098326602647
 30
0.0
 11
255.6989431465217
 21
343.898326602647
 31
0.0
  0
LINE
  5
384
330
A
100
AcDbEntity
  8
04
100
AcDbLine
 10
239.5989431465217
 20
358.998326602647
 30
0.0
 11
239.5989431465217
 21
314.998326602647
 31
0.0
  0
LINE
  5
385
330
A
100
AcDbEntity
  8
04
100
AcDbLine
 10
248.5989431465218
 20
400.498326602647
 30
0.0
 11
248.5989431465218
 21
386.498326602647
 31
0.0
  0
LINE
  5
386
330
A
100
AcDbEntity
  8
04
100
AcDbLine
 10
250.1070632896869
 20
399.2718266013833
 30
0.0
 11
254.0946279215217
 21
399.271826602647
 31
0.0
  0
LINE
  5
387
330
A
100
AcDbEntity
  8
04
100
AcDbLine
 10
250.1070632524124
 20
387.7248266013833
 30
0.0
 11
254.0946279215217
 21
387.7248266026469
 31
0.0
  0
LINE
  5
388
330
A
100
AcDbEntity
  8
04
100
AcDbLine
 10
254.0946279215217
 20
399.271826602647
 30
0.0
 11
254.5989431465218
 21
398.398326602647
 31
0.0
  0
LINE
  5
389
330
A
100
AcDbEntity
  8
04
100
AcDbLine
 10
254.0946279215217
 20
387.7248266026469
 30
0.0
 11
254.5989431465218
 21
388.598326602647
 31
0.0
  0
LINE
  5
390
330
A
100
AcDbEntity
  8
04
100
AcDbLine
 10
249.3989431465217
 20
400.498326602647
 30
0.0
 11
248.5989431465218
 21
400.498326602647
 31
0.0
  0
LINE
  5
391
330
A
100
AcDbEntity
  8
04
100
AcDbLine
 10
249.3989431465217
 20
386.498326602647
 30
0.0
 11
248.5989431465218
 21
386.498326602647
 31
0.0
  0
LINE
  5
393
330
A
100
AcDbEntity
  8
04
100
AcDbLine
 10
249.3989431465217
 20
386.498326602647
 30
0.0
 11
250.1070632524124
 21
387.7248266013833
 31
0.0
  0
LINE
  5
394
330
A
100
AcDbEntity
  8
04
100
AcDbLine
 10
249.3989431465217
 20
400.498326602647
 30
0.0
 11
250.1070632524124
 21
399.2718266013832
 31
0.0
  0
LINE
  5
398
330
A
100
AcDbEntity
  8
04
100
AcDbLine
 10
254.5989431465218
 20
390.498326602647
 30
0.0
 11
255.5989431465218
 21
390.498326602647
 31
0.0
  0
LINE
  5
399
330
A
100
AcDbEntity
  8
04
100
AcDbLine
 10
254.5989431465218
 20
396.498326602647
 30
0.0
 11
255.5989431465218
 21
396.498326602647
 31
0.0
  0
LINE
  5
39A
330
A
100
AcDbEntity
  8
04
100
AcDbLine
 10
255.5989431465218
 20
390.498326602647
 30
0.0
 11
256.5989431465217
 21
391.4983266026471
 31
0.0
  0
LINE
  5
39B
330
A
100
AcDbEntity
  8
04
100
AcDbLine
 10
255.5989431465218
 20
396.498326602647
 30
0.0
 11
256.5989431465217
 21
395.498326602647
 31
0.0
  0
LINE
  5
39C
330
A
100
AcDbEntity
  8
04
100
AcDbLine
 10
256.5989431465217
 20
395.498326602647
 30
0.0
 11
256.5989431465217
 21
391.4983266026471
 31
0.0
  0
LINE
  5
3AC
330
A
100
AcDbEntity
  8
04
100
AcDbLine
 10
213.5989431465216
 20
310.498326602647
 30
0.0
 11
213.5989431465216
 21
306.4983266026468
 31
0.0
  0
LINE
  5
3AD
330
A
100
AcDbEntity
  8
04
100
AcDbLine
 10
237.5989431465217
 20
306.4983266026468
 30
0.0
 11
237.5989431465217
 21
310.498326602647
 31
0.0
  0
LINE
  5
3AE
330
A
100
AcDbEntity
  8
04
100
AcDbLine
 10
218.5989399923666
 20
316.5969120733508
 30
0.0
 11
218.5989458801293
 21
314.998304056382
 31
0.0
  0
LINE
  5
3AF
330
A
100
AcDbEntity
  8
04
100
AcDbLine
 10
236.5989404129143
 20
314.9983491489119
 30
0.0
 11
236.5989539055194
 21
316.5968331882331
 31
0.0
  0
LINE
  5
3B2
330
A
100
AcDbEntity
  8
04
100
AcDbLine
 10
220.0933948364574
 20
318.1968535324114
 30
0.0
 11
220.0933914528913
 21
323.0018522044768
 31
0.0
  0
LINE
  5
3B3
330
A
100
AcDbEntity
  8
04
100
AcDbLine
 10
235.1045826665145
 20
318.1968400530727
 30
0.0
 11
235.1044485884921
 21
323.0018990039873
 31
0.0
  0
LINE
  5
3B4
330
A
100
AcDbEntity
  8
04
100
AcDbLine
 10
220.0933356076378
 20
323.0019643374975
 30
0.0
 11
221.2989238109264
 21
323.6977848250761
 31
0.0
  0
LINE
  5
3B5
330
A
100
AcDbEntity
  8
04
100
AcDbLine
 10
235.1044961512136
 20
323.0018314559149
 30
0.0
 11
233.8989321331137
 21
323.6978592747478
 31
0.0
  0
LINE
  5
3B6
330
A
100
AcDbEntity
  8
04
100
AcDbLine
 10
233.8989433802182
 20
323.6978897923585
 30
0.0
 11
221.2989370223223
 21
323.6979203094743
 31
0.0
  0
LINE
  5
3BC
330
A
100
AcDbEntity
  8
04
100
AcDbLine
 10
219.8989420138356
 20
318.1967982414689
 30
0.0
 11
219.8989393436589
 21
316.5968688003349
 31
0.0
  0
LINE
  5
3BD
330
A
100
AcDbEntity
  8
04
100
AcDbLine
 10
235.2989425848749
 20
318.1969359388766
 30
0.0
 11
235.2989398412423
 21
316.5968972188989
 31
0.0
  0
LINE
  5
3C8
330
A
100
AcDbEntity
  8
02
100
AcDbLine
 10
168.5989431465216
 20
314.498326602647
 30
0.0
 11
168.5989431465216
 21
475.398326602647
 31
0.0
  0
LINE
  5
3C9
330
A
100
AcDbEntity
  8
02
100
AcDbLine
 10
162.5989431465217
 20
475.398326602647
 30
0.0
 11
162.5989431465217
 21
314.498326602647
 31
0.0
  0
LINE
  5
3CA
330
A
100
AcDbEntity
  8
03
100
AcDbLine
 10
263.5989431465216
 20
496.4983266026461
 30
0.0
 11
263.5989431465216
 21
566.4983266026462
 31
0.0
  0
ARC
  5
3CB
330
A
100
AcDbEntity
  8
03
100
AcDbCircle
 10
189.1989431465216
 20
298.0983266026468
 30
0.0
 40
1.6
100
AcDbArc
 50
180.0
 51
270.0
  0
ARC
  5
3CC
330
A
100
AcDbEntity
  8
03
100
AcDbCircle
 10
169.9989431465217
 20
298.0983266026468
 30
0.0
 40
1.6
100
AcDbArc
 50
270.0
 51
0.0
  0
ARC
  5
3CD
330
A
100
AcDbEntity
  8
03
100
AcDbCircle
 10
148.1989431465216
 20
298.0983266026468
 30
0.0
 40
1.6
100
AcDbArc
 50
180.0
 51
270.0
  0
ARC
  5
3CE
330
A
100
AcDbEntity
  8
03
100
AcDbCircle
 10
307.9989431465218
 20
494.8983266026467
 30
0.0
 40
1.6
100
AcDbArc
 50
0.0
 51
90.0
  0
ARC
  5
3CF
330
A
100
AcDbEntity
  8
03
100
AcDbCircle
 10
287.1989431465216
 20
494.8983266026462
 30
0.0
 40
1.6
100
AcDbArc
 50
90.0
 51
180.0
  0
ARC
  5
3D0
330
A
100
AcDbEntity
  8
03
100
AcDbCircle
 10
281.9989431465218
 20
494.8983266026462
 30
0.0
 40
1.6
100
AcDbArc
 50
0.0
 51
90.0
  0
ARC
  5
3D1
330
A
100
AcDbEntity
  8
03
100
AcDbCircle
 10
283.6989431465218
 20
478.5983266026462
 30
0.0
 40
1.6
100
AcDbArc
 50
180.0
 51
270.0
  0
ARC
  5
3D2
330
A
100
AcDbEntity
  8
03
100
AcDbCircle
 10
153.1989431465218
 20
494.8983266026462
 30
0.0
 40
1.6
100
AcDbArc
 50
90.0
 51
180.0
  0
ARC
  5
3D3
330
A
100
AcDbEntity
  8
03
100
AcDbCircle
 10
148.1989431465216
 20
476.8983266026468
 30
0.0
 40
1.6
100
AcDbArc
 50
90.0
 51
180.0
  0
ARC
  5
3D4
330
A
100
AcDbEntity
  8
03
100
AcDbCircle
 10
307.9989431465218
 20
298.098326602647
 30
0.0
 40
1.6
100
AcDbArc
 50
270.0
 51
0.0
  0
ARC
  5
3D5
330
A
100
AcDbEntity
  8
03
100
AcDbCircle
 10
250.1989431465218
 20
298.098326602647
 30
0.0
 40
1.6
100
AcDbArc
 50
180.0
 51
270.0
  0
LINE
  5
3D6
330
A
100
AcDbEntity
  8
03
100
AcDbLine
 10
170.5989431465216
 20
536.4983266026462
 30
0.0
 11
175.5989431465216
 21
534.4983266026462
 31
0.0
  0
LINE
  5
3D7
330
A
100
AcDbEntity
  8
03
100
AcDbLine
 10
186.5989431465217
 20
536.4983266026462
 30
0.0
 11
181.5989431465217
 21
534.4983266026462
 31
0.0
  0
LINE
  5
3D8
330
A
100
AcDbEntity
  8
03
100
AcDbLine
 10
206.5989431465216
 20
210.2887033544476
 30
0.0
 11
206.5989431465216
 21
306.4983266026468
 31
0.0
  0
LINE
  5
3DA
330
A
100
AcDbEntity
  8
03
100
AcDbLine
 10
143.5989431465216
 20
210.2887033544476
 30
0.0
 11
143.5989431465218
 21
566.4983266026462
 31
0.0
  0
LINE
  5
3DB
330
A
100
AcDbEntity
  8
03
100
AcDbLine
 10
143.5989431465216
 20
101.4983266026469
 30
0.0
 11
143.5989431465216
 21
185.2887033544476
 31
0.0
  0
LINE
  5
3DC
330
A
100
AcDbEntity
  8
03
100
AcDbLine
 10
143.5989431465216
 20
190.2887033544475
 30
0.0
 11
143.5989431465216
 21
205.2887033544475
 31
0.0
  0
LINE
  5
3DF
330
A
100
AcDbEntity
  8
03
100
AcDbLine
 10
206.5989431465216
 20
104.5016786059112
 30
0.0
 11
206.5989431465216
 21
185.2887033544476
 31
0.0
  0
LINE
  5
3E0
330
A
100
AcDbEntity
  8
03
100
AcDbLine
 10
206.5989431465216
 20
190.2887033544476
 30
0.0
 11
206.5989431465216
 21
205.2887033544476
 31
0.0
  0
LINE
  5
3E1
330
A
100
AcDbEntity
  8
CHUSIN
 48
0.3
100
AcDbLine
 10
284.5989431465216
 20
507.457903541622
 30
0.0
 11
284.5989431465216
 21
489.7527209128436
 31
0.0
  0
LINE
  5
3E2
330
A
100
AcDbEntity
  8
CHUSIN
 48
0.3
100
AcDbLine
 10
280.0578803762856
 20
501.4983266026461
 30
0.0
 11
288.414726577069
 21
501.4983266026461
 31
0.0
  0
LINE
  5
3E3
330
A
100
AcDbEntity
  8
CHUSIN
100
AcDbLine
 10
178.5989431465216
 20
561.9983266026462
 30
0.0
 11
178.5989431465216
 21
472.3529496974252
 31
0.0
  0
LINE
  5
3E4
330
A
100
AcDbEntity
  8
CHUSIN
100
AcDbLine
 10
185.6514069221509
 20
356.4983266026468
 30
0.0
 11
217.8580478407854
 21
356.4983266026468
 31
0.0
  0
LINE
  5
3E6
330
A
100
AcDbEntity
  8
CHUSIN
100
AcDbLine
 10
213.0989431465216
 20
371.498326602647
 30
0.0
 11
253.5989431465218
 21
371.498326602647
 31
0.0
  0
LINE
  5
3EA
330
A
100
AcDbEntity
  8
03
100
AcDbLine
 10
185.5989431465216
 20
487.9983266026463
 30
0.0
 11
171.5989431465216
 21
478.4983266026465
 31
0.0
  0
LINE
  5
409
330
A
100
AcDbEntity
  8
CHUSIN
100
AcDbLine
 10
227.5989431465216
 20
402.3751627907999
 30
0.0
 11
227.5989431465218
 21
274.3720935738521
 31
0.0
  0
LINE
  5
40C
330
A
100
AcDbEntity
  8
03
100
AcDbLine
 10
173.428057666763
 20
296.498326602647
 30
0.0
 11
185.7698286262804
 21
296.498326602647
 31
0.0
  0
LINE
  5
40D
330
A
100
AcDbEntity
  8
03
100
AcDbLine
 10
173.5989431465216
 20
311.3983266026469
 30
0.0
 11
171.842279539075
 21
298.3111827271688
 31
0.0
  0
LINE
  5
40E
330
A
100
AcDbEntity
  8
03
100
AcDbLine
 10
185.5989431465216
 20
311.3983266026469
 30
0.0
 11
187.3556067539685
 21
298.3111827271688
 31
0.0
  0
LINE
  5
40F
330
A
100
AcDbEntity
  8
03
100
AcDbLine
 10
184.0131650188338
 20
311.1854704781251
 30
0.0
 11
185.7698286262804
 21
298.0983266026468
 31
0.0
  0
LINE
  5
410
330
A
100
AcDbEntity
  8
03
100
AcDbLine
 10
185.7698286262804
 20
298.0983266026468
 30
0.0
 11
173.428057666763
 21
298.0983266026468
 31
0.0
  0
LINE
  5
411
330
A
100
AcDbEntity
  8
03
100
AcDbLine
 10
173.428057666763
 20
298.0983266026468
 30
0.0
 11
175.1847212742096
 21
311.1854704781251
 31
0.0
  0
ARC
  5
412
330
A
100
AcDbEntity
  8
03
100
AcDbCircle
 10
185.7698286262804
 20
298.0983266026468
 30
0.0
 40
1.6
100
AcDbArc
 50
270.0
 51
7.645013271669327
  0
ARC
  5
413
330
A
100
AcDbEntity
  8
03
100
AcDbCircle
 10
173.428057666763
 20
298.0983266026468
 30
0.0
 40
1.6
100
AcDbArc
 50
172.3549867283285
 51
270.0
  0
LINE
  5
414
330
A
100
AcDbEntity
  8
03
100
AcDbLine
 10
173.5989431465216
 20
311.3983266026469
 30
0.0
 11
175.1847212742096
 21
311.1854704781251
 31
0.0
  0
LINE
  5
415
330
A
100
AcDbEntity
  8
03
100
AcDbLine
 10
185.5989431465216
 20
311.3983266026469
 30
0.0
 11
184.0131650188338
 21
311.1854704781251
 31
0.0
  0
LINE
  5
416
330
A
100
AcDbEntity
  8
03
100
AcDbLine
 10
206.5989431465216
 20
306.4983266026468
 30
0.0
 11
206.5989431465216
 21
298.0983266026468
 31
0.0
  0
ARC
  5
417
330
A
100
AcDbEntity
  8
03
100
AcDbCircle
 10
204.9989431465216
 20
298.0983266026468
 30
0.0
 40
1.6
100
AcDbArc
 50
270.0
 51
0.0
  0
LINE
  5
418
330
A
100
AcDbEntity
  8
03
100
AcDbLine
 10
171.6989431465218
 20
312.898326602647
 30
0.0
 11
187.4989431465216
 21
312.898326602647
 31
0.0
  0
ARC
  5
419
330
A
100
AcDbEntity
  8
03
100
AcDbCircle
 10
187.4989431465216
 20
311.298326602647
 30
0.0
 40
1.6
100
AcDbArc
 50
0.0
 51
90.0
  0
ARC
  5
41A
330
A
100
AcDbEntity
  8
03
100
AcDbCircle
 10
171.6989431465218
 20
311.298326602647
 30
0.0
 40
1.6
100
AcDbArc
 50
90.0
 51
180.0
  0
LINE
  5
41B
330
A
100
AcDbEntity
  8
03
100
AcDbLine
 10
282.0989431465216
 20
494.9983266026461
 30
0.0
 11
282.0989431465216
 21
476.998326602647
 31
0.0
  0
LINE
  5
41C
330
A
100
AcDbEntity
  8
03
100
AcDbLine
 10
170.5989431465216
 20
494.8983266026462
 30
0.0
 11
170.5989431465216
 21
478.4983266026465
 31
0.0
  0
LINE
  5
41D
330
A
100
AcDbEntity
  8
03
100
AcDbLine
 10
186.5989431465217
 20
494.8983266026462
 30
0.0
 11
186.5989431465217
 21
478.4983266026461
 31
0.0
  0
LINE
  5
41E
330
A
100
AcDbEntity
  8
03
100
AcDbLine
 10
186.4989431465216
 20
476.9983266026463
 30
0.0
 11
148.0989431465216
 21
476.998326602647
 31
0.0
  0
ARC
  5
41F
330
A
100
AcDbEntity
  8
03
100
AcDbCircle
 10
188.1989431465218
 20
494.8983266026462
 30
0.0
 40
1.6
100
AcDbArc
 50
90.0
 51
180.0
  0
ARC
  5
420
330
A
100
AcDbEntity
  8
03
100
AcDbCircle
 10
168.9989431465217
 20
494.8983266026462
 30
0.0
 40
1.6
100
AcDbArc
 50
0.0
 51
90.0
  0
ARC
  5
421
330
A
100
AcDbEntity
  8
03
100
AcDbCircle
 10
186.4989431465216
 20
478.5983266026463
 30
0.0
 40
1.6
100
AcDbArc
 50
270.0
 51
0.0
  0
LINE
  5
422
330
A
100
AcDbEntity
  8
03
100
AcDbLine
 10
84.59894314652178
 20
101.4983266026469
 30
0.0
 11
164.5989431465217
 21
101.4983266026469
 31
0.0
  0
LINE
  5
423
330
A
100
AcDbEntity
  8
03
100
AcDbLine
 10
252.4489431447269
 20
101.4983266026469
 30
0.0
 11
384.5989431465216
 21
101.4983266026469
 31
0.0
  0
LINE
  5
424
330
A
100
AcDbEntity
  8
03
100
AcDbLine
 10
146.5989431465216
 20
537.9983266026462
 30
0.0
 11
146.5989431465216
 21
564.9983266026461
 31
0.0
  0
LINE
  5
425
330
A
100
AcDbEntity
  8
03
100
AcDbLine
 10
260.5989431465216
 20
564.9983266026461
 30
0.0
 11
260.5989431465216
 21
537.9983266026462
 31
0.0
  0
LINE
  5
426
330
A
100
AcDbEntity
  8
03
100
AcDbLine
 10
259.0989431465216
 20
564.9983266026461
 30
0.0
 11
259.0989431465216
 21
537.9983266026462
 31
0.0
  0
LINE
  5
427
330
A
100
AcDbEntity
  8
03
100
AcDbLine
 10
148.0989431465218
 20
537.9983266026462
 30
0.0
 11
148.0989431465218
 21
564.9983266026461
 31
0.0
  0
LINE
  5
428
330
A
100
AcDbEntity
  8
03
100
AcDbLine
 10
245.5989431465217
 20
566.4983266026462
 30
0.0
 11
245.5989431465217
 21
564.9983266026461
 31
0.0
  0
LINE
  5
429
330
A
100
AcDbEntity
  8
03
100
AcDbLine
 10
161.5989431465218
 20
566.4983266026462
 30
0.0
 11
161.5989431465218
 21
564.9983266026461
 31
0.0
  0
LINE
  5
42A
330
A
100
AcDbEntity
  8
03
100
AcDbLine
 10
148.0989431465218
 20
566.4983266026462
 30
0.0
 11
161.5989431465218
 21
566.4983266026462
 31
0.0
  0
LINE
  5
42B
330
A
100
AcDbEntity
  8
03
100
AcDbLine
 10
245.5989431465217
 20
566.4983266026462
 30
0.0
 11
259.0989431465216
 21
566.4983266026462
 31
0.0
  0
LINE
  5
42C
330
A
100
AcDbEntity
  8
03
100
AcDbLine
 10
148.0989431465218
 20
564.9983266026461
 30
0.0
 11
161.5989431465218
 21
564.9983266026461
 31
0.0
  0
LINE
  5
42D
330
A
100
AcDbEntity
  8
03
100
AcDbLine
 10
245.5989431465217
 20
564.9983266026461
 30
0.0
 11
259.0989431465216
 21
564.9983266026461
 31
0.0
  0
ARC
  5
42E
330
A
100
AcDbEntity
  8
03
100
AcDbCircle
 10
259.0989431465216
 20
564.9983266026461
 30
0.0
 40
1.5
100
AcDbArc
 50
0.0
 51
90.0
  0
ARC
  5
42F
330
A
100
AcDbEntity
  8
03
100
AcDbCircle
 10
259.0989431465216
 20
537.9983266026462
 30
0.0
 40
1.5
100
AcDbArc
 50
270.0
 51
0.0
  0
ARC
  5
430
330
A
100
AcDbEntity
  8
03
100
AcDbCircle
 10
148.0989431465218
 20
537.9983266026462
 30
0.0
 40
1.5
100
AcDbArc
 50
180.0
 51
270.0
  0
ARC
  5
431
330
A
100
AcDbEntity
  8
03
100
AcDbCircle
 10
148.0989431465218
 20
564.9983266026461
 30
0.0
 40
1.5
100
AcDbArc
 50
90.0
 51
180.0
  0
LINE
  5
432
330
A
100
AcDbEntity
  8
03
100
AcDbLine
 10
263.5989431465216
 20
566.4983266026462
 30
0.0
 11
259.0989431465216
 21
566.4983266026462
 31
0.0
  0
LINE
  5
433
330
A
100
AcDbEntity
  8
03
100
AcDbLine
 10
143.5989431465218
 20
566.4983266026462
 30
0.0
 11
148.0989431465218
 21
566.4983266026462
 31
0.0
  0
LINE
  5
434
330
A
100
AcDbEntity
  8
03
100
AcDbLine
 10
170.5989431465216
 20
537.9983266026462
 30
0.0
 11
170.5989431465216
 21
556.4983266026461
 31
0.0
  0
LINE
  5
435
330
A
100
AcDbEntity
  8
03
100
AcDbLine
 10
186.5989431465217
 20
537.9983266026462
 30
0.0
 11
186.5989431465217
 21
556.4983266026461
 31
0.0
  0
LINE
  5
436
330
A
100
AcDbEntity
  8
03
100
AcDbLine
 10
170.5989431465216
 20
556.4983266026461
 30
0.0
 11
186.5989431465217
 21
556.4983266026461
 31
0.0
  0
LINE
  5
437
330
A
100
AcDbEntity
  8
03
100
AcDbLine
 10
259.0989431465216
 20
536.4983266026462
 30
0.0
 11
188.0989431465216
 21
536.4983266026462
 31
0.0
  0
LINE
  5
438
330
A
100
AcDbEntity
  8
03
100
AcDbLine
 10
169.0989431465216
 20
536.4983266026462
 30
0.0
 11
148.0989431465218
 21
536.4983266026462
 31
0.0
  0
LINE
  5
439
330
A
100
AcDbEntity
  8
03
100
AcDbLine
 10
259.0989431465216
 20
537.9983266026462
 30
0.0
 11
188.0989431465216
 21
537.9983266026462
 31
0.0
  0
LINE
  5
43A
330
A
100
AcDbEntity
  8
03
100
AcDbLine
 10
169.0989431465216
 20
537.9983266026462
 30
0.0
 11
148.0989431465218
 21
537.9983266026462
 31
0.0
  0
LINE
  5
43B
330
A
100
AcDbEntity
  8
03
100
AcDbLine
 10
169.0989431465216
 20
537.9983266026462
 30
0.0
 11
169.0989431465216
 21
556.4983266026461
 31
0.0
  0
LINE
  5
43C
330
A
100
AcDbEntity
  8
03
100
AcDbLine
 10
188.0989431465216
 20
537.9983266026462
 30
0.0
 11
188.0989431465216
 21
556.4983266026461
 31
0.0
  0
LINE
  5
43D
330
A
100
AcDbEntity
  8
03
100
AcDbLine
 10
170.5989431465216
 20
557.9983266026462
 30
0.0
 11
186.5989431465217
 21
557.9983266026462
 31
0.0
  0
ARC
  5
43E
330
A
100
AcDbEntity
  8
03
100
AcDbCircle
 10
186.5989431465217
 20
556.4983266026461
 30
0.0
 40
1.5
100
AcDbArc
 50
0.0
 51
90.0
  0
ARC
  5
43F
330
A
100
AcDbEntity
  8
03
100
AcDbCircle
 10
170.5989431465216
 20
556.4983266026461
 30
0.0
 40
1.5
100
AcDbArc
 50
90.0
 51
180.0
  0
ARC
  5
440
330
A
100
AcDbEntity
  8
03
100
AcDbCircle
 10
169.0989431465216
 20
537.9983266026462
 30
0.0
 40
1.5
100
AcDbArc
 50
270.0
 51
0.0
  0
ARC
  5
441
330
A
100
AcDbEntity
  8
03
100
AcDbCircle
 10
188.0989431465216
 20
537.9983266026462
 30
0.0
 40
1.5
100
AcDbArc
 50
180.0
 51
270.0
  0
LINE
  5
442
330
A
100
AcDbEntity
  8
03
100
AcDbLine
 10
175.5989431465216
 20
544.498326602646
 30
0.0
 11
181.5989431465217
 21
544.498326602646
 31
0.0
  0
LINE
  5
443
330
A
100
AcDbEntity
  8
04
100
AcDbLine
 10
213.5989431465216
 20
306.4983266026468
 30
0.0
 11
237.5989431465217
 21
306.4983266026468
 31
0.0
  0
LINE
  5
444
330
A
100
AcDbEntity
  8
03
100
AcDbLine
 10
263.5989431465216
 20
296.498326602647
 30
0.0
 11
263.5989431465216
 21
210.2887033544478
 31
0.0
  0
LINE
  5
445
330
A
100
AcDbEntity
  8
03
100
AcDbLine
 10
263.5989431465216
 20
205.2887033544476
 30
0.0
 11
263.5989431465216
 21
101.4983266026469
 31
0.0
  0
LINE
  5
446
330
A
100
AcDbEntity
  8
KAKURE
100
AcDbLine
 10
263.5989431465216
 20
496.4983266026461
 30
0.0
 11
263.5989431465216
 21
296.498326602647
 31
0.0
  0
LINE
  5
447
330
A
100
AcDbEntity
  8
KAKURE
100
AcDbLine
 10
153.5989431465218
 20
564.9983266026461
 30
0.0
 11
253.5989431465217
 21
564.9983266026461
 31
0.0
  0
LINE
  5
448
330
A
100
AcDbEntity
  8
KAKURE
100
AcDbLine
 10
253.5989431465217
 20
561.9983266026462
 30
0.0
 11
153.5989431465218
 21
561.9983266026462
 31
0.0
  0
LINE
  5
449
330
A
100
AcDbEntity
  8
KAKURE
100
AcDbLine
 10
153.5989431465218
 20
561.9983266026462
 30
0.0
 11
153.5989431465218
 21
564.9983266026461
 31
0.0
  0
LINE
  5
44A
330
A
100
AcDbEntity
  8
KAKURE
100
AcDbLine
 10
253.5989431465217
 20
564.9983266026461
 30
0.0
 11
253.5989431465217
 21
561.9983266026462
 31
0.0
  0
LINE
  5
451
330
A
100
AcDbEntity
  8
KAKURE
100
AcDbLine
 10
143.5989431465216
 20
101.4983266026469
 30
0.0
 11
143.5989431465216
 21
81.49832660264701
 31
0.0
  0
LINE
  5
452
330
A
100
AcDbEntity
  8
KAKURE
100
AcDbLine
 10
263.5989431465216
 20
101.4983266026469
 30
0.0
 11
263.5989431465216
 21
81.49832660264701
 31
0.0
  0
LINE
  5
453
330
A
100
AcDbEntity
  8
KAKURE
100
AcDbLine
 10
143.5989431465216
 20
81.49832660264701
 30
0.0
 11
263.5989431465216
 21
81.49832660264701
 31
0.0
  0
LINE
  5
470
330
A
100
AcDbEntity
  8
03
100
AcDbLine
 10
223.5989431465216
 20
244.498326602647
 30
0.0
 11
231.5989431465216
 21
244.498326602647
 31
0.0
  0
LINE
  5
471
330
A
100
AcDbEntity
  8
03
100
AcDbLine
 10
231.5989431465216
 20
244.498326602647
 30
0.0
 11
231.5989431465216
 21
210.2887033544476
 31
0.0
  0
LINE
  5
472
330
A
100
AcDbEntity
  8
03
100
AcDbLine
 10
231.5989431465212
 20
205.2887033544476
 30
0.0
 11
231.5989431465216
 21
172.9587400980944
 31
0.0
  0
LINE
  5
473
330
A
100
AcDbEntity
  8
03
100
AcDbLine
 10
223.5989431465216
 20
172.9587400980944
 30
0.0
 11
223.5989431465216
 21
205.2887033544476
 31
0.0
  0
LINE
  5
474
330
A
100
AcDbEntity
  8
03
100
AcDbLine
 10
223.5989431465219
 20
210.2887033544476
 30
0.0
 11
223.5989431465216
 21
244.498326602647
 31
0.0
  0
LINE
  5
475
330
A
100
AcDbEntity
  8
03
100
AcDbLine
 10
224.0989431465216
 20
244.498326602647
 30
0.0
 11
224.0989431465216
 21
210.2887033544476
 31
0.0
  0
LINE
  5
476
330
A
100
AcDbEntity
  8
03
100
AcDbLine
 10
224.0989431465212
 20
205.2887033544476
 30
0.0
 11
224.0989431465215
 21
172.9587400980944
 31
0.0
  0
LINE
  5
477
330
A
100
AcDbEntity
  8
03
100
AcDbLine
 10
231.0989431465216
 20
172.9587400980944
 30
0.0
 11
231.0989431465216
 21
205.2887033544476
 31
0.0
  0
LINE
  5
478
330
A
100
AcDbEntity
  8
03
100
AcDbLine
 10
231.0989431465217
 20
210.2887033544476
 30
0.0
 11
231.0989431465217
 21
244.498326602647
 31
0.0
  0
LINE
  5
4BA
330
A
100
AcDbEntity
  8
03
100
AcDbLine
 10
235.4754874309533
 20
196.4558835187508
 30
0.0
 11
235.5989431465216
 21
196.3324278031823
 31
0.0
  0
LINE
  5
4BB
330
A
100
AcDbEntity
  8
03
100
AcDbLine
 10
223.5989431465216
 20
172.9587400980944
 30
0.0
 11
231.5989431465216
 21
172.9587400980944
 31
0.0
  0
ARC
  5
4BC
330
A
100
AcDbEntity
  8
03
100
AcDbCircle
 10
233.5989431465216
 20
204.2442932950626
 30
0.0
 40
8.0
100
AcDbArc
 50
255.5224875671104
 51
284.4775124328898
  0
ARC
  5
4BD
330
A
100
AcDbEntity
  8
03
100
AcDbCircle
 10
221.5989431465215
 20
204.2442932950626
 30
0.0
 40
8.0
100
AcDbArc
 50
255.5224875671114
 51
284.4775124328905
  0
LINE
  5
4BE
330
A
100
AcDbEntity
  8
04
100
AcDbLine
 10
209.5107796561674
 20
306.4983266026468
 30
0.0
 11
227.0989431465217
 21
306.4983266026468
 31
0.0
  0
LINE
  5
4BF
330
A
100
AcDbEntity
  8
04
100
AcDbLine
 10
228.0989431465219
 20
306.4983266026468
 30
0.0
 11
240.5989431465219
 21
306.4983266026468
 31
0.0
  0
LINE
  5
4C0
330
A
100
AcDbEntity
  8
04
100
AcDbLine
 10
240.5989431465219
 20
306.4983266026468
 30
0.0
 11
240.5989431465219
 21
303.9983266026468
 31
0.0
  0
LINE
  5
4C1
330
A
100
AcDbEntity
  8
04
100
AcDbLine
 10
240.5989431465219
 20
303.9983266026468
 30
0.0
 11
214.5989431465217
 21
303.9983266026468
 31
0.0
  0
LINE
  5
4C2
330
A
100
AcDbEntity
  8
04
100
AcDbLine
 10
214.5989431465217
 20
303.9983266026468
 30
0.0
 11
214.5989431465217
 21
306.4983266026468
 31
0.0
  0
LINE
  5
4C3
330
A
100
AcDbEntity
  8
04
100
AcDbLine
 10
214.5989431465217
 20
305.9983266026468
 30
0.0
 11
209.5989431465218
 21
305.9983266026468
 31
0.0
  0
LINE
  5
4C4
330
A
100
AcDbEntity
  8
04
100
AcDbLine
 10
209.5107796561674
 20
306.4983266026468
 30
0.0
 11
205.5989431465216
 21
305.0745345518202
 31
0.0
  0
LINE
  5
4C5
330
A
100
AcDbEntity
  8
04
100
AcDbLine
 10
209.5989431465218
 20
305.9983266026468
 30
0.0
 11
205.7699532181845
 21
304.6046882414269
 31
0.0
  0
LINE
  5
4C6
330
A
100
AcDbEntity
  8
04
100
AcDbLine
 10
205.5989431465216
 20
305.0745345518202
 30
0.0
 11
205.769953218185
 21
304.6046882414271
 31
0.0
  0
LINE
  5
4C7
330
A
100
AcDbEntity
  8
04
100
AcDbLine
 10
228.0989431465219
 20
306.4983266026468
 30
0.0
 11
227.5989431465216
 21
305.9983266026468
 31
0.0
  0
LINE
  5
4C8
330
A
100
AcDbEntity
  8
04
100
AcDbLine
 10
227.5989431465216
 20
305.9983266026468
 30
0.0
 11
227.0989431465217
 21
306.4983266026468
 31
0.0
  0
LINE
  5
4C9
330
A
100
AcDbEntity
  8
03
100
AcDbLine
 10
240.5989431465216
 20
114.4983266026479
 30
0.0
 11
240.5989431465219
 21
112.4983266026479
 31
0.0
  0
LINE
  5
4CA
330
A
100
AcDbEntity
  8
03
100
AcDbLine
 10
239.0838059518626
 20
104.4983266026525
 30
0.0
 11
239.1140803411788
 21
104.4983266026495
 31
0.0
  0
LINE
  5
4CB
330
A
100
AcDbEntity
  8
03
100
AcDbLine
 10
216.1140803411814
 20
104.4983266026501
 30
0.0
 11
216.0838059518678
 21
104.4983266026467
 31
0.0
  0
LINE
  5
4CC
330
A
100
AcDbEntity
  8
03
100
AcDbLine
 10
214.5989431465217
 20
112.4983266026479
 30
0.0
 11
214.5989431465217
 21
114.4983266026479
 31
0.0
  0
LINE
  5
4CD
330
A
100
AcDbEntity
  8
03
100
AcDbLine
 10
240.5989431465219
 20
112.4983266026479
 30
0.0
 11
239.8489431465216
 21
112.4983266026479
 31
0.0
  0
LINE
  5
4CE
330
A
100
AcDbEntity
  8
03
100
AcDbLine
 10
238.3489431465219
 20
112.4983266026479
 30
0.0
 11
216.8489431465219
 21
112.4983266026479
 31
0.0
  0
LINE
  5
4CF
330
A
100
AcDbEntity
  8
03
100
AcDbLine
 10
215.3489431465219
 20
112.4983266026479
 30
0.0
 11
214.5989431465217
 21
112.4983266026479
 31
0.0
  0
LINE
  5
4D1
330
A
100
AcDbEntity
  8
03
100
AcDbLine
 10
240.5989431465218
 20
114.4983266026479
 30
0.0
 11
214.5989431465217
 21
114.4983266026479
 31
0.0
  0
LINE
  5
4D9
330
A
100
AcDbEntity
  8
03
100
AcDbLine
 10
239.8489431465216
 20
112.4983266026479
 30
0.0
 11
239.3635934858
 21
104.7327320311107
 31
0.0
  0
ARC
  5
4DA
330
A
100
AcDbEntity
  8
03
100
AcDbCircle
 10
239.1140803411792
 20
104.7483266026494
 30
0.0
 40
0.25
100
AcDbArc
 50
269.9999999999071
 51
356.4236670992253
  0
LINE
  5
4DB
330
A
100
AcDbEntity
  8
03
100
AcDbLine
 10
238.8342928072423
 20
104.7327320311137
 30
0.0
 11
238.3489431465219
 21
112.4983266026479
 31
0.0
  0
ARC
  5
4DC
330
A
100
AcDbEntity
  8
03
100
AcDbCircle
 10
239.083805951863
 20
104.7483266026524
 30
0.0
 40
0.25
100
AcDbArc
 50
183.5763329007638
 51
269.9999999998894
  0
LINE
  5
4DD
330
A
100
AcDbEntity
  8
03
100
AcDbLine
 10
216.3635934858015
 20
104.7327320311114
 30
0.0
 11
216.8489431465219
 21
112.4983266026479
 31
0.0
  0
ARC
  5
4DE
330
A
100
AcDbEntity
  8
03
100
AcDbCircle
 10
216.1140803411809
 20
104.74832660265
 30
0.0
 40
0.25
100
AcDbArc
 50
270.0000000001447
 51
356.4236670992365
  0
LINE
  5
4DF
330
A
100
AcDbEntity
  8
03
100
AcDbLine
 10
215.8342928072431
 20
104.7327320311079
 30
0.0
 11
215.3489431465219
 21
112.4983266026479
 31
0.0
  0
ARC
  5
4E0
330
A
100
AcDbEntity
  8
03
100
AcDbCircle
 10
216.0838059518638
 20
104.7483266026467
 30
0.0
 40
0.25
100
AcDbArc
 50
183.5763329007675
 51
270.0000000009334
  0
LINE
  5
4E3
330
A
100
AcDbEntity
  8
KAKURE
100
AcDbLine
 10
168.5989431465216
 20
393.998326602647
 30
0.0
 11
162.5989431465217
 21
393.998326602647
 31
0.0
  0
LINE
  5
4E4
330
A
100
AcDbEntity
  8
KAKURE
100
AcDbLine
 10
168.5989431465216
 20
398.998326602647
 30
0.0
 11
162.5989431465217
 21
398.998326602647
 31
0.0
  0
LINE
  5
4E5
330
A
100
AcDbEntity
  8
KAKURE
100
AcDbLine
 10
168.5989431465216
 20
438.998326602647
 30
0.0
 11
162.5989431465217
 21
438.998326602647
 31
0.0
  0
LINE
  5
4E6
330
A
100
AcDbEntity
  8
KAKURE
100
AcDbLine
 10
168.5989431465216
 20
443.9983266026468
 30
0.0
 11
162.5989431465217
 21
443.9983266026468
 31
0.0
  0
LINE
  5
4E7
330
A
100
AcDbEntity
  8
KAKURE
100
AcDbLine
 10
168.5989431465216
 20
348.998326602647
 30
0.0
 11
162.5989431465217
 21
348.998326602647
 31
0.0
  0
LINE
  5
4E8
330
A
100
AcDbEntity
  8
KAKURE
100
AcDbLine
 10
168.5989431465216
 20
353.998326602647
 30
0.0
 11
162.5989431465217
 21
353.998326602647
 31
0.0
  0
LINE
  5
4EC
330
A
100
AcDbEntity
  8
CHUSIN
100
AcDbLine
 10
190.5989431465195
 20
73.53688191841428
 30
0.0
 11
190.5989431465214
 21
263.1217763634014
 31
0.0
  0
LINE
  5
4ED
330
A
100
AcDbEntity
  8
CHUSIN
 48
0.3
100
AcDbLine
 10
180.5989431465216
 20
441.498326602647
 30
0.0
 11
160.5989431465218
 21
441.498326602647
 31
0.0
  0
LINE
  5
4EE
330
A
100
AcDbEntity
  8
CHUSIN
 48
0.3
100
AcDbLine
 10
160.5989431465218
 20
351.498326602647
 30
0.0
 11
180.5989431465216
 21
351.498326602647
 31
0.0
  0
LINE
  5
4EF
330
A
100
AcDbEntity
  8
CHUSIN
 48
0.3
100
AcDbLine
 10
175.5619113067666
 20
197.7887033544476
 30
0.0
 11
149.6359749862768
 21
197.7887033544476
 31
0.0
  0
LINE
  5
4F0
330
A
100
AcDbEntity
  8
CHUSIN
 48
0.3
100
AcDbLine
 10
162.5989431465217
 20
210.7516715146926
 30
0.0
 11
162.5989431465217
 21
184.8257351942026
 31
0.0
  0
LINE
  5
4F1
330
A
100
AcDbEntity
  8
CHUSIN
100
AcDbLine
 10
275.5989431465216
 20
340.498326602647
 30
0.0
 11
275.5989431465216
 21
457.6963945983486
 31
0.0
  0
LINE
  5
4F2
330
A
100
AcDbEntity
  8
CHUSIN
100
AcDbLine
 10
156.3013399153878
 20
396.498326602647
 30
0.0
 11
305.502509529992
 21
396.498326602647
 31
0.0
  0
LINE
  5
4FA
330
A
100
AcDbEntity
  8
03
100
AcDbLine
 10
243.5989431465217
 20
114.4983266026484
 30
0.0
 11
240.5989431465216
 21
114.4983266026479
 31
0.0
  0
LINE
  5
4FB
330
A
100
AcDbEntity
  8
03
100
AcDbLine
 10
211.5989431465216
 20
114.498326602647
 30
0.0
 11
214.5989431465217
 21
114.4983266026479
 31
0.0
  0
ARC
  5
4FC
330
A
100
AcDbEntity
  8
03
100
AcDbCircle
 10
222.0989431465219
 20
213.9272587907814
 30
0.0
 40
7.5
100
AcDbArc
 50
78.46304384085474
 51
109.4712178961644
  0
ARC
  5
4FD
330
A
100
AcDbEntity
  8
03
100
AcDbCircle
 10
233.0989431465219
 20
213.9272587907814
 30
0.0
 40
7.5
100
AcDbArc
 50
70.5287821038356
 51
101.5369561591455
  0
LINE
  5
4FE
330
A
100
AcDbEntity
  8
03
100
AcDbLine
 10
211.5989431465218
 20
303.9983266026468
 30
0.0
 11
211.5989431465218
 21
210.2887033544476
 31
0.0
  0
LINE
  5
4FF
330
A
100
AcDbEntity
  8
03
100
AcDbLine
 10
211.5989431465212
 20
205.2887033544476
 30
0.0
 11
211.5989431465216
 21
114.498326602647
 31
0.0
  0
LINE
  5
500
330
A
100
AcDbEntity
  8
03
100
AcDbLine
 10
243.5989431465217
 20
303.998326602647
 30
0.0
 11
243.5989431465217
 21
210.2887033544476
 31
0.0
  0
LINE
  5
501
330
A
100
AcDbEntity
  8
03
100
AcDbLine
 10
243.5989431465213
 20
205.2887033544476
 30
0.0
 11
243.5989431465217
 21
114.4983266026484
 31
0.0
  0
LINE
  5
502
330
A
100
AcDbEntity
  8
03
100
AcDbLine
 10
211.5989431465218
 20
303.9983266026471
 30
0.0
 11
243.5989431465217
 21
303.9983266026468
 31
0.0
  0
LINE
  5
504
330
A
100
AcDbEntity
  8
03
100
AcDbLine
 10
240.5989431465219
 20
303.9983266026468
 30
0.0
 11
240.5989431465219
 21
223.998326602647
 31
0.0
  0
LINE
  5
505
330
A
100
AcDbEntity
  8
03
100
AcDbLine
 10
237.5989431465217
 20
220.9983266026469
 30
0.0
 11
235.5989431465217
 21
220.9983266026469
 31
0.0
  0
ARC
  5
506
330
A
100
AcDbEntity
  8
03
100
AcDbCircle
 10
237.5989431465217
 20
223.998326602647
 30
0.0
 40
3.0
100
AcDbArc
 50
270.0
 51
0.0000015352347393
  0
LINE
  5
507
330
A
100
AcDbEntity
  8
03
100
AcDbLine
 10
219.5989431465219
 20
220.9983266026469
 30
0.0
 11
217.5989431465219
 21
220.9983266026469
 31
0.0
  0
LINE
  5
508
330
A
100
AcDbEntity
  8
03
100
AcDbLine
 10
214.5989431465217
 20
223.998326602647
 30
0.0
 11
214.5989431465217
 21
303.998326602647
 31
0.0
  0
ARC
  5
509
330
A
100
AcDbEntity
  8
03
100
AcDbCircle
 10
217.5989431465219
 20
223.998326602647
 30
0.0
 40
3.0
100
AcDbArc
 50
179.9999984647652
 51
269.9999999999998
  0
LINE
  5
50D
330
A
100
AcDbEntity
  8
03
100
AcDbLine
 10
235.5989431465217
 20
247.998326602647
 30
0.0
 11
235.5989431465217
 21
220.9983266026469
 31
0.0
  0
LINE
  5
511
330
A
100
AcDbEntity
  8
03
100
AcDbLine
 10
219.5989431465219
 20
247.998326602647
 30
0.0
 11
219.5989431465219
 21
220.9983266026469
 31
0.0
  0
LINE
  5
512
330
A
100
AcDbEntity
  8
03
100
AcDbLine
 10
235.5989431465217
 20
247.998326602647
 30
0.0
 11
219.5989431465219
 21
247.998326602647
 31
0.0
  0
LINE
  5
550
330
A
100
AcDbEntity
  8
03
100
AcDbLine
 10
217.5989431465216
 20
196.4983266026478
 30
0.0
 11
219.5989431465216
 21
196.4983266026479
 31
0.0
  0
LINE
  5
551
330
A
100
AcDbEntity
  8
03
100
AcDbLine
 10
235.5989431465216
 20
196.4983266026479
 30
0.0
 11
237.5989431465216
 21
196.4983266026479
 31
0.0
  0
LINE
  5
552
330
A
100
AcDbEntity
  8
03
100
AcDbLine
 10
240.5989431465216
 20
193.4983266026478
 30
0.0
 11
240.5989431465216
 21
114.4983266026479
 31
0.0
  0
ARC
  5
553
330
A
100
AcDbEntity
  8
03
100
AcDbCircle
 10
237.5989431465217
 20
193.4983266026478
 30
0.0
 40
3.0
100
AcDbArc
 50
0.0000015352347505
 51
89.99999692953121
  0
LINE
  5
556
330
A
100
AcDbEntity
  8
03
100
AcDbLine
 10
214.5989431465217
 20
114.4983266026479
 30
0.0
 11
214.5989431465217
 21
193.4983266026478
 31
0.0
  0
ARC
  5
557
330
A
100
AcDbEntity
  8
03
100
AcDbCircle
 10
217.5989431465216
 20
193.4983266026478
 30
0.0
 40
3.0
100
AcDbArc
 50
90.00000307046844
 51
179.9999984647652
  0
LINE
  5
55C
330
A
100
AcDbEntity
  8
03
100
AcDbLine
 10
235.5989431465216
 20
169.4983266026478
 30
0.0
 11
219.5989431465216
 21
169.4983266026479
 31
0.0
  0
LINE
  5
566
330
A
100
AcDbEntity
  8
03
100
AcDbLine
 10
219.5989431465216
 20
196.4983266026479
 30
0.0
 11
219.5989431465216
 21
169.4983266026479
 31
0.0
  0
LINE
  5
569
330
A
100
AcDbEntity
  8
03
100
AcDbLine
 10
235.5989431465216
 20
196.4983266026479
 30
0.0
 11
235.5989431465216
 21
169.4983266026478
 31
0.0
  0
LINE
  5
57C
330
A
100
AcDbEntity
  8
SAISEN
100
AcDbLine
 10
140.5864475339383
 20
210.2887033544476
 30
0.0
 11
267.6445291949198
 21
210.2887033544478
 31
0.0
  0
LINE
  5
57D
330
A
100
AcDbEntity
  8
SAISEN
100
AcDbLine
 10
267.6445291949198
 20
205.2887033544476
 30
0.0
 11
140.5864475339383
 21
205.2887033544475
 31
0.0
  0
LINE
  5
57E
330
A
100
AcDbEntity
  8
03
100
AcDbLine
 10
166.0989431465216
 20
104.50167860591
 30
0.0
 11
218.1989431447269
 21
104.5016786059117
 31
0.0
  0
LINE
  5
57F
330
A
100
AcDbEntity
  8
03
100
AcDbLine
 10
166.0989431465216
 20
103.0016786059112
 30
0.0
 11
217.4489431447269
 21
103.0016786059115
 31
0.0
  0
LINE
  5
581
330
A
100
AcDbEntity
  8
03
100
AcDbLine
 10
217.4489431447269
 20
103.0016786059115
 30
0.0
 11
217.4489431447269
 21
78.75167860591165
 31
0.0
  0
LINE
  5
582
330
A
100
AcDbEntity
  8
03
100
AcDbLine
 10
218.9489431447269
 20
103.7516786059117
 30
0.0
 11
218.9489431447269
 21
79.50167860591155
 31
0.0
  0
ARC
  5
583
330
A
100
AcDbEntity
  8
03
100
AcDbCircle
 10
218.1989431447269
 20
103.7516786059117
 30
0.0
 40
0.75
100
AcDbArc
 50
0.0000000000000325
 51
90.00000000000119
  0
ARC
  5
585
330
A
100
AcDbEntity
  8
03
100
AcDbCircle
 10
236.6989431447269
 20
78.75167860591155
 30
0.0
 40
0.75
100
AcDbArc
 50
269.9999999999998
 51
0.0000000000000799
  0
ARC
  5
586
330
A
100
AcDbEntity
  8
KAKURE
100
AcDbCircle
 10
249.9489431447269
 20
76.70167860591162
 30
0.0
 40
1.0
100
AcDbArc
 50
269.9999999999999
 51
0.0000000000000799
  0
LINE
  5
589
330
A
100
AcDbEntity
  8
03
100
AcDbLine
 10
218.9489431447269
 20
79.50167860591155
 30
0.0
 11
235.9489431447269
 21
79.50167860591155
 31
0.0
  0
LINE
  5
58A
330
A
100
AcDbEntity
  8
KAKURE
100
AcDbLine
 10
168.3989431465216
 20
78.00167860591165
 30
0.0
 11
248.648943144727
 21
78.00167860591153
 31
0.0
  0
ARC
  5
58B
330
A
100
AcDbEntity
  8
03
100
AcDbCircle
 10
218.1989431447269
 20
78.75167860591165
 30
0.0
 40
0.75
100
AcDbArc
 50
180.0
 51
269.9999999999997
  0
LINE
  5
58C
330
A
100
AcDbEntity
  8
KAKURE
100
AcDbLine
 10
168.3989431465216
 20
75.70167860591151
 30
0.0
 11
249.9489431447269
 21
75.70167860591164
 31
0.0
  0
LINE
  5
590
330
A
100
AcDbEntity
  8
03
100
AcDbLine
 10
252.4489431447269
 20
103.7516786059115
 30
0.0
 11
252.4489431447269
 21
94.50167860591159
 31
0.0
  0
ARC
  5
591
330
A
100
AcDbEntity
  8
03
100
AcDbCircle
 10
251.6989431447269
 20
103.7516786059115
 30
0.0
 40
0.75
100
AcDbArc
 50
0.0000000000000325
 51
90.00000000000005
  0
LINE
  5
592
330
A
100
AcDbEntity
  8
KAKURE
100
AcDbLine
 10
250.9489431447269
 20
103.0016786059115
 30
0.0
 11
250.9489431447269
 21
76.70167860591162
 31
0.0
  0
LINE
  5
593
330
A
100
AcDbEntity
  8
03
100
AcDbLine
 10
250.9489431447269
 20
94.50167860591159
 30
0.0
 11
252.4489431447269
 21
94.50167860591159
 31
0.0
  0
LINE
  5
594
330
A
100
AcDbEntity
  8
KAKURE
100
AcDbLine
 10
248.6489431447269
 20
103.0016786059115
 30
0.0
 11
248.648943144727
 21
78.00167860591153
 31
0.0
  0
LINE
  5
598
330
A
100
AcDbEntity
  8
03
100
AcDbLine
 10
236.6989431447269
 20
104.5016786059115
 30
0.0
 11
251.6989431447269
 21
104.5016786059115
 31
0.0
  0
LINE
  5
599
330
A
100
AcDbEntity
  8
03
100
AcDbLine
 10
237.4489431447269
 20
103.0016786059115
 30
0.0
 11
250.9489431447269
 21
103.0016786059115
 31
0.0
  0
ARC
  5
59B
330
A
100
AcDbEntity
  8
03
100
AcDbCircle
 10
236.6989431447269
 20
103.7516786059115
 30
0.0
 40
0.75
100
AcDbArc
 50
90.00000000000005
 51
180.0
  0
LINE
  5
59C
330
A
100
AcDbEntity
  8
03
100
AcDbLine
 10
235.9489431447268
 20
103.7516786059115
 30
0.0
 11
235.9489431447268
 21
79.50167860591155
 31
0.0
  0
LINE
  5
59D
330
A
100
AcDbEntity
  8
03
100
AcDbLine
 10
237.4489431447269
 20
103.0016786059115
 30
0.0
 11
237.4489431447269
 21
78.75167860591155
 31
0.0
  0
LINE
  5
59F
330
A
100
AcDbEntity
  8
03
100
AcDbLine
 10
220.0989431465213
 20
87.49832660264791
 30
0.0
 11
235.0989431465213
 21
87.49832660264791
 31
0.0
  0
LINE
  5
5A0
330
A
100
AcDbEntity
  8
03
100
AcDbLine
 10
220.0989431465213
 20
112.4983266026479
 30
0.0
 11
235.0989431465213
 21
87.49832660264791
 31
0.0
  0
LINE
  5
5A1
330
A
100
AcDbEntity
  8
03
100
AcDbLine
 10
235.0989431465213
 20
112.4983266026479
 30
0.0
 11
220.0989431465213
 21
87.49832660264791
 31
0.0
  0
LINE
  5
5A2
330
A
100
AcDbEntity
  8
03
100
AcDbLine
 10
220.0989431465213
 20
112.4983266026479
 30
0.0
 11
220.0989431465213
 21
87.49832660264791
 31
0.0
  0
LINE
  5
5A3
330
A
100
AcDbEntity
  8
03
100
AcDbLine
 10
235.0989431465213
 20
112.4983266026479
 30
0.0
 11
235.0989431465213
 21
87.49832660264791
 31
0.0
  0
LINE
  5
5A4
330
A
100
AcDbEntity
  8
03
100
AcDbLine
 10
220.0989431465213
 20
112.4983266026479
 30
0.0
 11
235.0989431465213
 21
112.4983266026479
 31
0.0
  0
LINE
  5
5A5
330
A
100
AcDbEntity
  8
03
100
AcDbLine
 10
206.5989431465216
 20
114.498326602647
 30
0.0
 11
174.5989431465216
 21
114.498326602647
 31
0.0
  0
LINE
  5
5A6
330
A
100
AcDbEntity
  8
03
100
AcDbLine
 10
164.5989431465217
 20
103.00167860591
 30
0.0
 11
164.5989431465217
 21
94.50167860591159
 31
0.0
  0
LINE
  5
5A7
330
A
100
AcDbEntity
  8
03
100
AcDbLine
 10
166.0989431465216
 20
103.0016786059112
 30
0.0
 11
166.0989431465216
 21
94.50167860591159
 31
0.0
  0
LINE
  5
5A8
330
A
100
AcDbEntity
  8
03
100
AcDbLine
 10
164.5989431465217
 20
94.50167860591159
 30
0.0
 11
166.0989431465216
 21
94.50167860591159
 31
0.0
  0
ARC
  5
5A9
330
A
100
AcDbEntity
  8
03
100
AcDbCircle
 10
166.0989431465216
 20
103.00167860591
 30
0.0
 40
1.5
100
AcDbArc
 50
90.0
 51
180.0
  0
LINE
  5
5AA
330
A
100
AcDbEntity
  8
KAKURE
100
AcDbLine
 10
166.0989431465216
 20
78.00167860591153
 30
0.0
 11
166.0989431465216
 21
103.0016786059112
 31
0.0
  0
LINE
  5
5AB
330
A
100
AcDbEntity
  8
KAKURE
100
AcDbLine
 10
168.3989431465216
 20
78.00167860591153
 30
0.0
 11
168.3989431465216
 21
103.0016786059112
 31
0.0
  0
ARC
  5
5AC
330
A
100
AcDbEntity
  8
KAKURE
100
AcDbCircle
 10
168.3989431465216
 20
78.00167860591153
 30
0.0
 40
2.299999999999998
100
AcDbArc
 50
180.0
 51
270.0
  0
CIRCLE
  5
5B5
330
A
100
AcDbEntity
  8
03
100
AcDbCircle
 10
162.5989431465217
 20
197.7887033544476
 30
0.0
 40
6.0
  0
LINE
  5
5B6
330
A
100
AcDbEntity
  8
SAISEN
100
AcDbLine
 10
140.5864475339383
 20
190.2887033544475
 30
0.0
 11
209.2556924008955
 21
190.2887033544476
 31
0.0
  0
LINE
  5
5B7
330
A
100
AcDbEntity
  8
SAISEN
100
AcDbLine
 10
209.2556924008955
 20
185.2887033544476
 30
0.0
 11
140.5864475339383
 21
185.2887033544476
 31
0.0
  0
LINE
  5
5B8
330
A
100
AcDbEntity
  8
03
100
AcDbLine
 10
174.5989431465216
 20
296.498326602647
 30
0.0
 11
174.5989431465216
 21
210.2887033544476
 31
0.0
  0
LINE
  5
5B9
330
A
100
AcDbEntity
  8
03
100
AcDbLine
 10
174.5989431465216
 20
205.2887033544475
 30
0.0
 11
174.5989431465216
 21
190.2887033544475
 31
0.0
  0
LINE
  5
5BA
330
A
100
AcDbEntity
  8
03
100
AcDbLine
 10
174.5989431465216
 20
185.2887033544476
 30
0.0
 11
174.5989431465216
 21
104.5016786059103
 31
0.0
  0
LINE
  5
5BB
330
A
100
AcDbEntity
  8
03
100
AcDbLine
 10
206.5989431465216
 20
293.498326602647
 30
0.0
 11
206.5989431465216
 21
210.2887033544476
 31
0.0
  0
LINE
  5
5BC
330
A
100
AcDbEntity
  8
03
100
AcDbLine
 10
206.5989431465216
 20
205.2887033544476
 30
0.0
 11
206.5989431465216
 21
190.2887033544476
 31
0.0
  0
LINE
  5
5BD
330
A
100
AcDbEntity
  8
03
100
AcDbLine
 10
206.5989431465216
 20
185.2887033544476
 30
0.0
 11
206.5989431465216
 21
104.5016786059112
 31
0.0
  0
CIRCLE
  5
5BE
330
A
100
AcDbEntity
  8
SAISEN
100
AcDbCircle
 10
60.72846129400198
 20
307.878336279886
 30
0.0
 40
4.0
  0
CIRCLE
  5
5BF
330
A
100
AcDbEntity
  8
SAISEN
100
AcDbCircle
 10
59.79131265270091
 20
396.1622263273684
 30
0.0
 40
4.0
  0
LINE
  5
5C2
330
A
100
AcDbEntity
  8
03
100
AcDbLine
 10
174.5989431465216
 20
296.498326602647
 30
0.0
 11
206.5989431465216
 21
296.498326602647
 31
0.0
  0
LINE
  5
5C3
330
A
100
AcDbEntity
  8
03
100
AcDbLine
 10
174.5989431465216
 20
296.498326602647
 30
0.0
 11
174.5989431465216
 21
293.498326602647
 31
0.0
  0
LINE
  5
5C4
330
A
100
AcDbEntity
  8
03
100
AcDbLine
 10
174.5989431465216
 20
293.498326602647
 30
0.0
 11
206.5989431465216
 21
293.498326602647
 31
0.0
  0
LINE
  5
5C5
330
A
100
AcDbEntity
  8
03
100
AcDbLine
 10
206.5989431465216
 20
293.498326602647
 30
0.0
 11
206.5989431465216
 21
296.498326602647
 31
0.0
  0
LINE
  5
5C6
330
A
100
AcDbEntity
  8
03
100
AcDbLine
 10
206.5989431465216
 20
296.498326602647
 30
0.0
 11
174.5989431465216
 21
293.498326602647
 31
0.0
  0
LINE
  5
5C7
330
A
100
AcDbEntity
  8
03
100
AcDbLine
 10
206.5989431465216
 20
111.498326602647
 30
0.0
 11
206.5989431465216
 21
104.4983266026469
 31
0.0
  0
LINE
  5
5C8
330
A
100
AcDbEntity
  8
03
100
AcDbLine
 10
206.5989431465216
 20
104.4983266026469
 30
0.0
 11
174.5989431465216
 21
104.4983266026469
 31
0.0
  0
LINE
  5
5C9
330
A
100
AcDbEntity
  8
03
100
AcDbLine
 10
174.5989431465216
 20
104.4983266026469
 30
0.0
 11
174.5989431465216
 21
111.498326602647
 31
0.0
  0
LINE
  5
5CA
330
A
100
AcDbEntity
  8
03
100
AcDbLine
 10
174.5989431465216
 20
114.498326602647
 30
0.0
 11
206.5989431465216
 21
114.498326602647
 31
0.0
  0
LINE
  5
5D2
330
A
100
AcDbEntity
  8
03
100
AcDbLine
 10
174.5989431465216
 20
104.5016786059103
 30
0.0
 11
206.5989431465216
 21
114.498326602647
 31
0.0
  0
LINE
  5
5D3
330
A
100
AcDbEntity
  8
03
100
AcDbLine
 10
174.5989431465216
 20
114.498326602647
 30
0.0
 11
206.5989431465216
 21
104.5016786059112
 31
0.0
  0
LINE
  5
5DC
330
A
100
AcDbEntity
  8
06
100
AcDbLine
 10
266.5989431465216
 20
441.498326602647
 30
0.0
 11
284.5989431465216
 21
441.498326602647
 31
0.0
  0
LINE
  5
5DD
330
A
100
AcDbEntity
  8
06
100
AcDbLine
 10
270.5989431465216
 20
430.498326602647
 30
0.0
 11
280.5989431465216
 21
430.498326602647
 31
0.0
  0
LINE
  5
5DE
330
A
100
AcDbEntity
  8
06
100
AcDbLine
 10
284.5989431465216
 20
441.498326602647
 30
0.0
 11
280.5989431465216
 21
430.498326602647
 31
0.0
  0
LINE
  5
5DF
330
A
100
AcDbEntity
  8
06
100
AcDbLine
 10
266.5989431465216
 20
441.498326602647
 30
0.0
 11
270.5989431465216
 21
430.498326602647
 31
0.0
  0
LINE
  5
5E0
330
A
100
AcDbEntity
  8
06
100
AcDbLine
 10
266.5989431465216
 20
351.498326602647
 30
0.0
 11
284.5989431465216
 21
351.498326602647
 31
0.0
  0
LINE
  5
5E1
330
A
100
AcDbEntity
  8
06
100
AcDbLine
 10
270.5989431465216
 20
362.498326602647
 30
0.0
 11
280.5989431465216
 21
362.498326602647
 31
0.0
  0
LINE
  5
5E2
330
A
100
AcDbEntity
  8
06
100
AcDbLine
 10
284.5989431465216
 20
351.498326602647
 30
0.0
 11
280.5989431465216
 21
362.498326602647
 31
0.0
  0
LINE
  5
5E3
330
A
100
AcDbEntity
  8
06
100
AcDbLine
 10
266.5989431465216
 20
351.498326602647
 30
0.0
 11
270.5989431465216
 21
362.498326602647
 31
0.0
  0
LINE
  5
5E4
330
A
100
AcDbEntity
  8
KAKURE
100
AcDbLine
 10
168.5989431465216
 20
394.3983266026468
 30
0.0
 11
162.5989431465217
 21
394.3983266026468
 31
0.0
  0
LINE
  5
5E5
330
A
100
AcDbEntity
  8
KAKURE
100
AcDbLine
 10
168.5989431465216
 20
398.5983266026468
 30
0.0
 11
162.5989431465217
 21
398.5983266026468
 31
0.0
  0
LINE
  5
5E7
330
A
100
AcDbEntity
  8
KAKURE
100
AcDbLine
 10
168.5989431465216
 20
439.3983266026468
 30
0.0
 11
162.5989431465217
 21
439.3983266026468
 31
0.0
  0
LINE
  5
5E8
330
A
100
AcDbEntity
  8
KAKURE
100
AcDbLine
 10
168.5989431465216
 20
443.5983266026468
 30
0.0
 11
162.5989431465217
 21
443.5983266026468
 31
0.0
  0
LINE
  5
5EA
330
A
100
AcDbEntity
  8
KAKURE
100
AcDbLine
 10
168.5989431465216
 20
349.3983266026468
 30
0.0
 11
162.5989431465217
 21
349.3983266026468
 31
0.0
  0
LINE
  5
5EB
330
A
100
AcDbEntity
  8
KAKURE
100
AcDbLine
 10
168.5989431465216
 20
353.598326602647
 30
0.0
 11
162.5989431465217
 21
353.598326602647
 31
0.0
  0
LINE
  5
714
330
A
100
AcDbEntity
  8
06
100
AcDbLine
 10
284.2410787702526
 20
441.498326602647
 30
0.0
 11
284.5035126461833
 21
441.2358927267161
 31
0.0
  0
LINE
  5
718
330
A
100
AcDbEntity
  8
SOUZOU
100
AcDbLine
 10
168.5989431465218
 20
454.998326602647
 30
0.0
 11
206.5989431465218
 21
454.998326602647
 31
0.0
  0
LINE
  5
719
330
A
100
AcDbEntity
  8
SOUZOU
100
AcDbLine
 10
206.5989431465218
 20
454.998326602647
 30
0.0
 11
206.5989431465218
 21
367.5657691231173
 31
0.0
  0
LINE
  5
71A
330
A
100
AcDbEntity
  8
SOUZOU
 48
0.3
100
AcDbLine
 10
194.5989431465216
 20
337.998326602647
 30
0.0
 11
168.5989431465218
 21
337.998326602647
 31
0.0
  0
LINE
  5
71B
330
A
100
AcDbEntity
  8
SOUZOU
100
AcDbLine
 10
168.5989431465218
 20
337.998326602647
 30
0.0
 11
168.5989431465218
 21
431.2550492955321
 31
0.0
  0
LINE
  5
71C
330
A
100
AcDbEntity
  8
SOUZOU
100
AcDbLine
 10
206.5989431465218
 20
455.498326602647
 30
0.0
 11
302.5989431465217
 21
455.498326602647
 31
0.0
  0
LINE
  5
71D
330
A
100
AcDbEntity
  8
SOUZOU
100
AcDbLine
 10
302.5989431465216
 20
455.498326602647
 30
0.0
 11
302.5989431465216
 21
337.498326602647
 31
0.0
  0
LINE
  5
71E
330
A
100
AcDbEntity
  8
SOUZOU
100
AcDbLine
 10
302.5989431465217
 20
337.498326602647
 30
0.0
 11
255.6989431465217
 21
337.498326602647
 31
0.0
  0
POLYLINE
  5
7FD
330
A
100
AcDbEntity
  8
DEFPOINTS
100
AcDb2dPolyline
 66
     1
 10
0.0
 20
0.0
 30
0.0
 70
     1
  0
VERTEX
  5
189C
330
7FD
100
AcDbEntity
  8
DEFPOINTS
100
AcDbVertex
100
AcDb2dVertex
 10
0.0
 20
0.0
 30
0.0
  0
VERTEX
  5
189D
330
7FD
100
AcDbEntity
  8
DEFPOINTS
100
AcDbVertex
100
AcDb2dVertex
 10
420.0
 20
0.0
 30
0.0
  0
VERTEX
  5
189E
330
7FD
100
AcDbEntity
  8
DEFPOINTS
100
AcDbVertex
100
AcDb2dVertex
 10
420.0
 20
594.0
 30
0.0
  0
VERTEX
  5
189F
330
7FD
100
AcDbEntity
  8
DEFPOINTS
100
AcDbVertex
100
AcDb2dVertex
 10
0.0
 20
594.0
 30
0.0
  0
SEQEND
  5
18A0
330
7FD
100
AcDbEntity
  8
DEFPOINTS
  0
LEADER
  5
809
330
A
100
AcDbEntity
  8
HIKIDASI
100
AcDbLeader
  3
SUNPOU_2
 73
     0
 75
     1
 40
13.33333333333333
 41
28.0
 76
     3
 10
162.5989431465217
 20
441.498326602647
 30
0.0
 10
107.4375724827631
 20
497.8796632807693
 30
0.0
 10
102.4375724827631
 20
497.8796632807693
 30
0.0
340
80A
213
0.0
223
8.410670709242367
233
0.0
1001
ACAD
1000
DSTYLE
1002
{
1070
     5
1000
OPEN30
1070
    77
1070
     1
1070
   147
1040
1.0
1070
   342
1005
7E9
1002
}
1000
LEANOF
1010
0.0
1020
8.410670709242367
1030
0.0
1000
LEANOF
1010
0.0
1020
8.410670709242367
1030
0.0
  0
MTEXT
  5
80A
330
A
100
AcDbEntity
  8
HIKIDASI
100
AcDbMText
 10
72.43757248276323
 20
491.4689925715268
 30
0.0
 40
5.0
 41
0.0
 71
     7
 72
     1
  1
M5タップ\P(サッシ工事)
  7
SUNPOU
1001
ACAD
1000
MTEXTBEGIN
1070
    73
1070
     1
1070
    44
1040
1.0
1070
    74
1070
     0
1000
MTEXTEND
1000
MTEXTBEGIN
1070
    73
1070
     1
1070
    44
1040
1.0
1070
    74
1070
     0
1000
MTEXTEND
  0
LEADER
  5
80D
330
A
100
AcDbEntity
  8
HIKIDASI
100
AcDbLeader
  3
SUNPOU_2
 73
     0
 75
     1
 40
5.0
 41
35.6
 76
     3
 10
197.3913886952864
 20
336.6902667039751
 30
0.0
 10
98.23393453163902
 20
303.1381226595356
 30
0.0
 10
93.23393453163902
 20
303.1381226595356
 30
0.0
340
80E
213
-4.188000432102938
223
-0.2302435951451116
233
0.0
1001
ACAD
1000
DSTYLE
1002
{
1070
     5
1000
OPEN30
1070
    77
1070
     1
1070
   147
1040
1.0
1070
   342
1005
7E9
1002
}
1000
LEANOF
1010
-4.188000432102938
1020
-0.2302435951451116
1030
0.0
1000
LEANOF
1010
-4.188000432102938
1020
-0.2302435951451116
1030
0.0
  0
MTEXT
  5
80E
330
A
100
AcDbEntity
  8
HIKIDASI
100
AcDbMText
 10
59.82193496374196
 20
305.3683662546806
 30
0.0
 40
5.0
 41
0.0
 71
     7
 72
     1
  1
R　FB-50×6
  7
SUNPOU
1001
ACAD
1000
MTEXTBEGIN
1070
    73
1070
     1
1070
    44
1040
1.0
1070
    74
1070
     0
1000
MTEXTEND
1000
MTEXTBEGIN
1070
    73
1070
     1
1070
    44
1040
1.0
1070
    74
1070
     0
1000
MTEXTEND
  0
LEADER
  5
810
330
A
100
AcDbEntity
  8
HIKIDASI
100
AcDbLeader
  3
SUNPOU_2
 73
     0
 75
     1
 40
5.0
 41
35.6
 76
     3
 10
162.5989431465217
 20
366.6854882143895
 30
0.0
 10
96.23393453163902
 20
391.6285093265701
 30
0.0
 10
91.23393453163902
 20
391.6285093265701
 30
0.0
340
811
213
-4.742323742637266
223
-0.2158150360246509
233
0.0
1001
ACAD
1000
DSTYLE
1002
{
1070
     5
1000
OPEN30
1070
    77
1070
     1
1070
   147
1040
1.0
1070
   342
1005
7E9
1002
}
1000
LEANOF
1010
-4.742323742637266
1020
-0.2158150360246509
1030
0.0
1000
LEANOF
1010
-4.742323742637266
1020
-0.2158150360246509
1030
0.0
  0
MTEXT
  5
811
330
A
100
AcDbEntity
  8
HIKIDASI
100
AcDbMText
 10
58.37625827427628
 20
393.8443243625947
 30
0.0
 40
5.0
 41
0.0
 71
     7
 72
     1
  1
E　FB-50×6
  7
SUNPOU
1001
ACAD
1000
MTEXTBEGIN
1070
    73
1070
     1
1070
    44
1040
1.0
1070
    74
1070
     0
1000
MTEXTEND
1000
MTEXTBEGIN
1070
    73
1070
     1
1070
    44
1040
1.0
1070
    74
1070
     0
1000
MTEXTEND
  0
LEADER
  5
813
330
A
100
AcDbEntity
  8
HIKIDASI
100
AcDbLeader
  3
SUNPOU_2
 73
     0
 75
     1
 40
13.33333333333333
 41
62.93333333333333
 76
     3
 10
157.7037153514696
 20
201.4489657969447
 30
0.0
 10
94.93574167221884
 20
249.4312970206333
 30
0.0
 10
89.93574167221884
 20
249.4312970206333
 30
0.0
340
814
213
-4.555414360864205
223
8.666666666666657
233
0.0
1001
ACAD
1000
DSTYLE
1002
{
1070
     5
1000
OPEN30
1070
    77
1070
     1
1070
   147
1040
1.0
1070
   342
1005
7E9
1002
}
1000
LEANOF
1010
-4.555414360864205
1020
8.666666666666657
1030
0.0
1000
LEANOF
1010
-4.555414360864205
1020
8.666666666666657
1030
0.0
  0
MTEXT
  5
814
330
A
100
AcDbEntity
  8
HIKIDASI
100
AcDbMText
 10
61.02448936641639
 20
249.4312970206333
 30
0.0
 40
5.0
 41
0.0
 71
     5
 72
     1
  1
補助光電スイッチ取付穴φ12\P(サッシ工事)
  7
SUNPOU
1001
ACAD
1000
MTEXTBEGIN
1070
    73
1070
     1
1070
    44
1040
1.0
1070
    74
1070
     0
1000
MTEXTEND
1000
MTEXTBEGIN
1070
    73
1070
     1
1070
    44
1040
1.0
1070
    74
1070
     0
1000
MTEXTEND
  0
LEADER
  5
815
330
A
100
AcDbEntity
  8
HIKIDASI
100
AcDbLeader
  3
SUNPOU_2
 73
     0
 74
     0
 75
     1
 40
13.33333333333333
 41
52.26666666666666
 76
     3
 10
252.4489431447269
 20
94.50167860591159
 30
0.0
 10
269.5270719732823
 20
65.95513468570809
 30
0.0
 10
274.5270719732823
 20
65.95513468570809
 30
0.0
340
816
213
5.182785661937201
223
8.301246859850039
233
0.0
1001
ACAD
1000
DSTYLE
1002
{
1070
     5
1000
OPEN30
1070
    77
1070
     1
1070
   147
1040
1.0
1070
   342
1005
7E9
1002
}
1000
LEANOF
1010
5.182785661937201
1020
8.301246859850039
1030
0.0
1000
LEANOF
1010
5.182785661937201
1020
8.301246859850039
1030
0.0
  0
MTEXT
  5
816
330
A
100
AcDbEntity
  8
HIKIDASI
100
AcDbMText
 10
297.4776196446784
 20
66.32055449252471
 30
0.0
 40
5.0
 41
0.0
 71
     5
 72
     1
  1
ステンレスガイドレール\P(サッシ工事)
  7
SUNPOU
1001
ACAD
1000
MTEXTBEGIN
1070
    73
1070
     1
1070
    44
1040
1.0
1070
    74
1070
     0
1000
MTEXTEND
1000
MTEXTBEGIN
1070
    73
1070
     1
1070
    44
1040
1.0
1070
    74
1070
     0
1000
MTEXTEND
  0
LEADER
  5
817
330
A
100
AcDbEntity
  8
HIKIDASI
100
AcDbLeader
  3
SUNPOU_2
 73
     0
 74
     0
 75
     1
 40
13.33333333333333
 41
50.93333333333336
 76
     3
 10
240.5989431465216
 20
193.4983266026478
 30
0.0
 10
268.5604885761449
 20
225.9461304394255
 30
0.0
 10
273.5604885761449
 20
225.9461304394255
 30
0.0
340
818
213
5.00217893202921
223
9.21326508449647
233
0.0
1001
ACAD
1000
DSTYLE
1002
{
1070
     5
1000
OPEN30
1070
    77
1070
     1
1070
   147
1040
1.0
1070
   342
1005
7E9
1002
}
1000
LEANOF
1010
5.00217893202921
1020
9.21326508449647
1030
0.0
1000
LEANOF
1010
5.00217893202921
1020
9.21326508449647
1030
0.0
  0
MTEXT
  5
818
330
A
100
AcDbEntity
  8
HIKIDASI
100
AcDbMText
 10
270.5583096441157
 20
218.7328653549291
 30
0.0
 40
5.0
 41
0.0
 71
     7
 72
     1
  1
スリムセナージ･ドアI型\P(強化ガラス)
  7
SUNPOU
1001
ACAD
1000
MTEXTBEGIN
1070
    73
1070
     1
1070
    44
1040
1.0
1070
    74
1070
     0
1000
MTEXTEND
1000
MTEXTBEGIN
1070
    73
1070
     1
1070
    44
1040
1.0
1070
    74
1070
     0
1000
MTEXTEND
  0
DIMENSION
  5
819
330
A
100
AcDbEntity
  8
SUNPOU
100
AcDbDimension
  2
*D1
 10
146.5989431465216
 20
515.9836720933433
 30
0.0
 11
141.121740952408
 21
520.3980257029743
 31
0.0
 70
   160
  3
SUNPOU_2
100
AcDbAlignedDimension
 13
143.5989431465218
 23
515.9836720933433
 33
0.0
 14
146.5989431465216
 24
537.9983266026462
 34
0.0
100
AcDbRotatedDimension
  0
DIMENSION
  5
828
330
A
100
AcDbEntity
  8
SUNPOU
100
AcDbDimension
  2
*D2
 10
260.5989431465216
 20
515.9836720933433
 30
0.0
 11
203.5989431465217
 21
520.4836720933433
 31
0.0
 70
    32
  3
SUNPOU_2
100
AcDbAlignedDimension
 13
146.5989431465216
 23
537.9983266026462
 33
0.0
 14
260.5989431465216
 24
537.9983266026462
 34
0.0
100
AcDbRotatedDimension
  0
DIMENSION
  5
835
330
A
100
AcDbEntity
  8
SUNPOU
100
AcDbDimension
  2
*D3
 10
263.5989431465216
 20
515.9836720933433
 30
0.0
 11
266.4094685523516
 21
520.4193799893018
 31
0.0
 70
   160
  3
SUNPOU_2
100
AcDbAlignedDimension
 13
260.5989431465216
 23
537.9983266026462
 33
0.0
 14
263.5989431465216
 24
515.9836720933433
 34
0.0
100
AcDbRotatedDimension
  0
DIMENSION
  5
88F
330
A
100
AcDbEntity
  8
SUNPOU
100
AcDbDimension
  2
*D4
 10
302.5989431465216
 20
460.8380694876301
 30
0.0
 11
235.5989431465216
 21
465.3380694876301
 31
0.0
 70
    32
  3
SUNPOU_2
100
AcDbAlignedDimension
 13
168.5989431465216
 23
460.8380694876301
 33
0.0
 14
302.5989431465216
 24
455.498326602647
 34
0.0
100
AcDbRotatedDimension
  0
DIMENSION
  5
89C
330
A
100
AcDbEntity
  8
SUNPOU
100
AcDbDimension
  2
*D5
 10
168.5989431465218
 20
411.8087674921024
 30
0.0
 11
157.5989431465217
 21
416.3087674921024
 31
0.0
 70
    32
  3
SUNPOU_2
100
AcDbAlignedDimension
 13
146.5989431465216
 23
418.7468455333588
 33
0.0
 14
168.5989431465218
 24
411.8087674921024
 34
0.0
100
AcDbRotatedDimension
  0
DIMENSION
  5
8B6
330
A
100
AcDbEntity
  8
SUNPOU
100
AcDbDimension
  2
*D6
 10
227.5989431465216
 20
411.8087674921024
 30
0.0
 11
214.0989431465218
 21
416.3087674921024
 31
0.0
 70
    32
  3
SUNPOU_2
100
AcDbAlignedDimension
 13
200.5989431465216
 23
411.8087674921024
 33
0.0
 14
227.5989431465216
 24
402.3751627907999
 34
0.0
100
AcDbRotatedDimension
  0
DIMENSION
  5
8C3
330
A
100
AcDbEntity
  8
SUNPOU
100
AcDbDimension
  2
*D7
 10
122.8499966921379
 20
351.498326602647
 30
0.0
 11
118.3499966921379
 21
371.6935921291053
 31
0.0
 70
   160
  3
SUNPOU_2
100
AcDbAlignedDimension
 13
156.3013399153878
 23
396.498326602647
 33
0.0
 14
160.5989431465218
 24
351.498326602647
 34
0.0
 50
90.0
100
AcDbRotatedDimension
  0
DIMENSION
  5
8D0
330
A
100
AcDbEntity
  8
SUNPOU
100
AcDbDimension
  2
*D8
 10
107.3511670210655
 20
296.498326602647
 30
0.0
 11
102.8511670210654
 21
346.498326602647
 31
0.0
 70
    32
  3
SUNPOU_2
100
AcDbAlignedDimension
 13
130.5989431465216
 23
396.498326602647
 33
0.0
 14
148.1989431465216
 24
296.4983266026468
 34
0.0
 50
90.0
100
AcDbRotatedDimension
  0
DIMENSION
  5
8DD
330
A
100
AcDbEntity
  8
SUNPOU
100
AcDbDimension
  2
*D9
 10
129.7190729288659
 20
296.498326602647
 30
0.0
 11
125.2190729288659
 21
326.498326602647
 31
0.0
 70
    32
  3
SUNPOU_2
100
AcDbAlignedDimension
 13
185.6514069221509
 23
356.4983266026468
 33
0.0
 14
148.1989431465216
 24
296.498326602647
 34
0.0
 50
90.0
100
AcDbRotatedDimension
  0
DIMENSION
  5
8EA
330
A
100
AcDbEntity
  8
SUNPOU
100
AcDbDimension
  2
*D10
 10
129.7190729288659
 20
296.4983266026468
 30
0.0
 11
124.1238590238104
 21
300.071004078324
 31
0.0
 70
   160
  3
SUNPOU_2
100
AcDbAlignedDimension
 13
174.5989431465216
 23
293.498326602647
 33
0.0
 14
129.719072928866
 24
296.4983266026468
 34
0.0
 50
90.0
100
AcDbRotatedDimension
  0
DIMENSION
  5
8F9
330
A
100
AcDbEntity
  8
SUNPOU
100
AcDbDimension
  2
*D11
 10
129.7190729288659
 20
114.498326602647
 30
0.0
 11
123.9508119717904
 21
174.4473491187435
 31
0.0
 70
   160
  1
FixDH=H-16
  3
SUNPOU_2
100
AcDbAlignedDimension
 13
174.5989431465216
 23
293.498326602647
 33
0.0
 14
174.5989431465216
 24
114.498326602647
 34
0.0
 50
90.0
100
AcDbRotatedDimension
  0
DIMENSION
  5
906
330
A
100
AcDbEntity
  8
SUNPOU
100
AcDbDimension
  2
*D12
 10
112.7296718203083
 20
197.7887033544476
 30
0.0
 11
108.2296718203084
 21
149.6435149785473
 31
0.0
 70
    32
  1
600
  3
SUNPOU_2
100
AcDbAlignedDimension
 13
112.7296718203083
 23
101.4983266026469
 33
0.0
 14
150.5989431465216
 24
197.7887033544476
 34
0.0
 50
90.0
100
AcDbRotatedDimension
  0
DIMENSION
  5
913
330
A
100
AcDbEntity
  8
SUNPOU
100
AcDbDimension
  2
*D13
 10
273.9623918674463
 20
104.5016786059115
 30
0.0
 11
270.0942213543426
 21
109.3638352301112
 31
0.0
 70
   160
  3
SUNPOU_2
100
AcDbAlignedDimension
 13
243.5989431465217
 23
114.4983266026484
 33
0.0
 14
251.6989431447269
 24
104.5016786059115
 34
0.0
 50
90.0
100
AcDbRotatedDimension
1001
ACAD
1000
DSTYLE
1002
{
1070
     7
1000
DOTSMALL
1070
     5
1000

1070
   173
1070
     1
1070
     6
1000
OPEN30
1002
}
  0
DIMENSION
  5
922
330
A
100
AcDbEntity
  8
SUNPOU
100
AcDbDimension
  2
*D14
 10
273.9623918674463
 20
101.4983266026469
 30
0.0
 11
269.8746715477896
 21
97.82166638069
 31
0.0
 70
   160
  3
SUNPOU_2
100
AcDbAlignedDimension
 13
251.6989431447269
 23
104.5016786059115
 33
0.0
 14
252.4489431447269
 24
101.4983266026469
 34
0.0
 50
90.0
100
AcDbRotatedDimension
1001
ACAD
1000
DSTYLE
1002
{
1070
     6
1000
DOTSMALL
1070
     5
1000

1070
   173
1070
     1
1070
     7
1000
OPEN30
1002
}
  0
DIMENSION
  5
931
330
A
100
AcDbEntity
  8
SUNPOU
100
AcDbDimension
  2
*D15
 10
282.2709945978802
 20
79.50167860591155
 30
0.0
 11
277.7709945978802
 21
92.00167860591159
 31
0.0
 70
    32
  3
SUNPOU_2
100
AcDbAlignedDimension
 13
251.6989431447269
 23
104.5016786059115
 33
0.0
 14
235.9489431447268
 24
79.50167860591155
 34
0.0
 50
90.0
100
AcDbRotatedDimension
  0
DIMENSION
  5
93E
330
A
100
AcDbEntity
  8
SUNPOU
100
AcDbDimension
  2
*D16
 10
332.7469220568908
 20
114.498326602648
 30
0.0
 11
328.2469220568908
 21
107.9983266026475
 31
0.0
 70
    32
  3
SUNPOU_2
100
AcDbAlignedDimension
 13
332.7469220568908
 23
101.4983266026469
 33
0.0
 14
242.0989431465216
 24
114.498326602648
 34
0.0
 50
90.0
100
AcDbRotatedDimension
  0
DIMENSION
  5
94D
330
A
100
AcDbEntity
  8
SUNPOU
100
AcDbDimension
  2
*D17
 10
332.7469220568908
 20
303.9983266026468
 30
0.0
 11
328.2469220568908
 21
209.2483266026476
 31
0.0
 70
    32
  1
DH
  3
SUNPOU_2
100
AcDbAlignedDimension
 13
242.0989431465216
 23
114.498326602648
 33
0.0
 14
240.5989431465219
 24
303.9983266026468
 34
0.0
 50
90.0
100
AcDbRotatedDimension
  0
DIMENSION
  5
95A
330
A
100
AcDbEntity
  8
SUNPOU
100
AcDbDimension
  2
*D18
 10
278.3337275185643
 20
296.498326602647
 30
0.0
 11
272.5600019649216
 21
307.8613185034352
 31
0.0
 70
   160
  3
SUNPOU_2
100
AcDbAlignedDimension
 13
240.5989431465219
 23
303.9983266026468
 33
0.0
 14
278.3337275185643
 24
296.498326602647
 34
0.0
 50
90.0
100
AcDbRotatedDimension
1001
ACAD
1000
DSTYLE
1002
{
1070
   271
1070
     0
1002
}
  0
DIMENSION
  5
969
330
A
100
AcDbEntity
  8
SUNPOU
100
AcDbDimension
  2
*D19
 10
248.5989431465216
 20
264.8831158603309
 30
0.0
 11
279.0989431465217
 21
269.3831158603309
 31
0.0
 70
    32
  3
SUNPOU_2
100
AcDbAlignedDimension
 13
309.5989431465217
 23
298.098326602647
 33
0.0
 14
248.5989431465216
 24
298.098326602647
 34
0.0
100
AcDbRotatedDimension
  0
DIMENSION
  5
976
330
A
100
AcDbEntity
  8
SUNPOU
100
AcDbDimension
  2
*D20
 10
243.5989431465217
 20
264.8831158603309
 30
0.0
 11
246.1298422677625
 21
270.3143257772623
 31
0.0
 70
   160
  3
SUNPOU_2
100
AcDbAlignedDimension
 13
248.5989431465216
 23
298.098326602647
 33
0.0
 14
243.5989431465217
 24
264.8831158603309
 34
0.0
100
AcDbRotatedDimension
  0
DIMENSION
  5
985
330
A
100
AcDbEntity
  8
SUNPOU
100
AcDbDimension
  2
*D21
 10
211.5989431465218
 20
264.8831158603309
 30
0.0
 11
227.5989431465218
 21
269.3831158603309
 31
0.0
 70
    32
  3
SUNPOU_2
100
AcDbAlignedDimension
 13
243.5989431465217
 23
264.8831158603309
 33
0.0
 14
211.5989431465218
 24
264.8831158603309
 34
0.0
100
AcDbRotatedDimension
  0
DIMENSION
  5
992
330
A
100
AcDbEntity
  8
SUNPOU
100
AcDbDimension
  2
*D22
 10
206.5989431465216
 20
264.8831158603309
 30
0.0
 11
209.2296065830418
 21
270.662218846286
 31
0.0
 70
   160
  3
SUNPOU_2
100
AcDbAlignedDimension
 13
211.5989431465218
 23
264.8831158603309
 33
0.0
 14
206.5989431465216
 24
264.8831158603309
 34
0.0
100
AcDbRotatedDimension
  0
DIMENSION
  5
9A1
330
A
100
AcDbEntity
  8
SUNPOU
100
AcDbDimension
  2
*D23
 10
174.5989431465216
 20
264.8831158603309
 30
0.0
 11
190.5989431465217
 21
269.3831158603309
 31
0.0
 70
    32
  3
SUNPOU_2
100
AcDbAlignedDimension
 13
206.5989431465216
 23
264.8831158603309
 33
0.0
 14
174.5989431465216
 24
264.8831158603309
 34
0.0
100
AcDbRotatedDimension
  0
DIMENSION
  5
9AE
330
A
100
AcDbEntity
  8
SUNPOU
100
AcDbDimension
  2
*D24
 10
206.5989431465216
 20
282.6465332373142
 30
0.0
 11
178.9938496429251
 21
287.1465332373142
 31
0.0
 70
   160
  3
SUNPOU_2
100
AcDbAlignedDimension
 13
146.5989431465216
 23
298.0983266026468
 33
0.0
 14
206.5989431465216
 24
282.6465332373142
 34
0.0
100
AcDbRotatedDimension
  0
DIMENSION
  5
9C8
330
A
100
AcDbEntity
  8
SUNPOU
100
AcDbDimension
  2
*D25
 10
146.5989431465216
 20
252.596447962925
 30
0.0
 11
141.5914037783088
 21
257.896338399581
 31
0.0
 70
   160
  3
SUNPOU_2
100
AcDbAlignedDimension
 13
143.5989431465216
 23
252.3464479648894
 33
0.0
 14
146.5989431465216
 24
298.0983266026468
 34
0.0
100
AcDbRotatedDimension
  0
DIMENSION
  5
9D7
330
A
100
AcDbEntity
  8
SUNPOU
100
AcDbDimension
  2
*D26
 10
309.5989431465217
 20
252.6143971548894
 30
0.0
 11
228.166449112735
 21
258.9330966922427
 31
0.0
 70
   160
  3
SUNPOU_2
100
AcDbAlignedDimension
 13
146.5989431465216
 23
298.0983266026468
 33
0.0
 14
309.5989431465217
 24
298.098326602647
 34
0.0
100
AcDbRotatedDimension
  0
DIMENSION
  5
9E4
330
A
100
AcDbEntity
  8
SUNPOU
100
AcDbDimension
  2
*D27
 10
263.5989431465216
 20
240.3456784494478
 30
0.0
 11
200.6214129254653
 21
246.1479246685964
 31
0.0
 70
   160
  3
SUNPOU_2
100
AcDbAlignedDimension
 13
143.5989431465216
 23
240.3456784494478
 33
0.0
 14
263.5989431465216
 24
240.3456784494478
 34
0.0
100
AcDbRotatedDimension
  0
DIMENSION
  5
9F1
330
A
100
AcDbEntity
  8
SUNPOU
100
AcDbDimension
  2
*D28
 10
353.7184510551333
 20
296.498326602647
 30
0.0
 11
349.2184510551333
 21
396.498326602647
 31
0.0
 70
    32
  3
SUNPOU_2
100
AcDbAlignedDimension
 13
307.9989431465218
 23
496.4983266026468
 33
0.0
 14
307.9989431465218
 24
296.498326602647
 34
0.0
 50
90.0
100
AcDbRotatedDimension
  0
DIMENSION
  5
9FF
330
A
100
AcDbEntity
  8
SUNPOU
100
AcDbDimension
  2
*D29
 10
353.7184510551333
 20
101.4983266026469
 30
0.0
 11
348.9583740469716
 21
189.0376690146863
 31
0.0
 70
   160
  1
H
  3
SUNPOU_2
100
AcDbAlignedDimension
 13
307.9989431465218
 23
296.498326602647
 33
0.0
 14
353.7184510551333
 24
101.4983266026469
 34
0.0
 50
90.0
100
AcDbRotatedDimension
  0
DIMENSION
  5
C08
330
A
100
AcDbEntity
  8
SUNPOU
100
AcDbDimension
  2
*D30
 10
235.9489431447268
 20
68.45988641282776
 30
0.0
 11
227.4489431447269
 21
72.34602233364284
 31
0.0
 70
   160
  3
SUNPOU_2
100
AcDbAlignedDimension
 13
218.9489431447269
 23
79.50167860591155
 33
0.0
 14
235.9489431447268
 24
79.50167860591156
 34
0.0
100
AcDbRotatedDimension
  0
LINE
  5
10EC
330
A
100
AcDbEntity
  8
CHUSIN
100
AcDbLine
 10
227.5989431465218
 20
255.3481562564201
 30
0.0
 11
227.5989431465218
 21
77.39125178554764
 31
0.0
  0
LINE
  5
10ED
330
A
100
AcDbEntity
  8
CHUSIN
100
AcDbLine
 10
190.5989431465215
 20
273.2053782019765
 30
0.0
 11
190.5989431465219
 21
306.3347729553211
 31
0.0
  0
LINE
  5
10EF
330
A
100
AcDbEntity
  8
CHUSIN
 48
0.3
100
AcDbLine
 10
227.5989431465218
 20
66.39103944690214
 30
0.0
 11
227.5989431465218
 21
57.61705918912139
 31
0.0
  0
DIMENSION
  5
153D
330
A
100
AcDbEntity
  8
SUNPOU
100
AcDbDimension
  2
*D32
 10
189.7552192597755
 20
440.5830302975316
 30
0.0
 11
178.2131309821611
 21
428.2179407275514
 31
0.0
 70
   163
  1
φ30通線穴\P(両端)
  3
SUNPOU_2
100
AcDbDiametricDimension
 15
161.9093081684536
 25
429.4203587761519
 35
0.0
 40
0.0
1001
ACAD
1000
DSTYLE
1002
{
1070
   288
1070
     1
1002
}
  0
CIRCLE
  5
153E
330
A
100
AcDbEntity
  8
KAKURE
100
AcDbCircle
 10
175.8322637141146
 20
435.0016945368421
 30
0.0
 40
15.0
  0
LINE
  5
1553
330
A
100
AcDbEntity
  8
04
100
AcDbLine
 10
250.1989431465218
 20
344.748326602647
 30
0.0
 11
250.1989431465218
 21
344.8983266026468
 31
0.0
  0
LINE
  5
1554
330
A
100
AcDbEntity
  8
04
100
AcDbLine
 10
251.6989431465217
 20
344.8983266026468
 30
0.0
 11
251.6989431465217
 21
345.224826602647
 31
0.0
  0
LINE
  5
1555
330
A
100
AcDbEntity
  8
04
100
AcDbLine
 10
250.1989431465218
 20
357.248326602647
 30
0.0
 11
250.1989431465218
 21
357.098326602647
 31
0.0
  0
LINE
  5
1556
330
A
100
AcDbEntity
  8
04
100
AcDbLine
 10
251.6989431465217
 20
357.098326602647
 30
0.0
 11
251.6989431465217
 21
356.771826602647
 31
0.0
  0
LINE
  5
1557
330
A
100
AcDbEntity
  8
04
100
AcDbLine
 10
250.1989431465216
 20
334.8983266026468
 30
0.0
 11
250.1989431465216
 21
334.748326602647
 31
0.0
  0
LINE
  5
1558
330
A
100
AcDbEntity
  8
04
100
AcDbLine
 10
251.6989431465217
 20
334.8983266026468
 30
0.0
 11
251.6989431465217
 21
335.2248266026468
 31
0.0
  0
LINE
  5
1565
330
A
100
AcDbEntity
  8
04
100
AcDbLine
 10
219.8989420138356
 20
318.1967982414689
 30
0.0
 11
220.0933948364574
 21
318.1968535324114
 31
0.0
  0
LINE
  5
1566
330
A
100
AcDbEntity
  8
04
100
AcDbLine
 10
218.5989399923666
 20
316.5969120733508
 30
0.0
 11
219.8989393437275
 21
316.5969099037376
 31
0.0
  0
LINE
  5
1567
330
A
100
AcDbEntity
  8
04
100
AcDbLine
 10
235.1045826665145
 20
318.1968400530727
 30
0.0
 11
235.2989425848749
 21
318.1969359388766
 31
0.0
  0
LINE
  5
1568
330
A
100
AcDbEntity
  8
04
100
AcDbLine
 10
235.2989398412423
 20
316.5968972188989
 30
0.0
 11
236.5989539059671
 21
316.5968862456416
 31
0.0
  0
LINE
  5
1569
330
A
100
AcDbEntity
  8
04
100
AcDbLine
 10
220.0989431465218
 20
329.9868886943349
 30
0.0
 11
220.0989431465218
 21
327.998326602647
 31
0.0
  0
LINE
  5
156A
330
A
100
AcDbEntity
  8
04
100
AcDbLine
 10
221.0989431465218
 20
331.998326602647
 30
0.0
 11
221.0989431465218
 21
329.9868886943349
 31
0.0
  0
LINE
  5
156B
330
A
100
AcDbEntity
  8
04
100
AcDbLine
 10
231.5989431465218
 20
331.998326602647
 30
0.0
 11
231.5989431465218
 21
330.498326602647
 31
0.0
  0
LINE
  5
156C
330
A
100
AcDbEntity
  8
04
100
AcDbLine
 10
208.1989531049261
 20
365.4983341703552
 30
0.0
 11
208.1989098319103
 21
364.198334819063
 31
0.0
  0
LINE
  5
156D
330
A
100
AcDbEntity
  8
04
100
AcDbLine
 10
209.7988392730443
 20
364.1983321488861
 30
0.0
 11
209.7988392730443
 21
364.1983321488861
 31
0.0
  0
LINE
  5
156E
330
A
100
AcDbEntity
  8
04
100
AcDbLine
 10
209.7988392730443
 20
364.1983321488861
 30
0.0
 11
209.7988945639868
 21
364.0038793262643
 31
0.0
  0
LINE
  5
156F
330
A
100
AcDbEntity
  8
04
100
AcDbLine
 10
209.7989769704521
 20
348.7983315778469
 30
0.0
 11
209.7989715471276
 21
348.9926914987315
 31
0.0
  0
LINE
  5
1570
330
A
100
AcDbEntity
  8
04
100
AcDbLine
 10
208.1988742198085
 20
347.4983202572025
 30
0.0
 11
208.1988764489801
 21
348.7983343215854
 31
0.0
  0
MTEXT
  5
1576
330
A
100
AcDbEntity
  8
MOJI
  6
CONTINUOUS
100
AcDbMText
 10
30.16326600269917
 20
74.66767205051827
 30
0.0
 40
6.0
 41
0.0
 71
     4
 72
     1
  1
\U+203B扉１枚質量１００kg以内\P（１００kgを超える場合\P　は係員にご相談下さい。）
  7
0_8
1001
ACAD
1000
MTEXTBEGIN
1070
    73
1070
     1
1070
    44
1040
1.0
1070
    74
1070
     0
1000
MTEXTEND
1000
MTEXTBEGIN
1070
    73
1070
     1
1070
    44
1040
1.0
1070
    74
1070
     0
1000
MTEXTEND
  0
LINE
  5
1577
330
A
100
AcDbEntity
  8
04
100
AcDbLine
 10
254.5989431465218
 20
398.398326602647
 30
0.0
 11
254.5989431465218
 21
396.498326602647
 31
0.0
  0
LINE
  5
1578
330
A
100
AcDbEntity
  8
04
100
AcDbLine
 10
254.5989431465218
 20
390.498326602647
 30
0.0
 11
254.5989431465218
 21
388.598326602647
 31
0.0
  0
LINE
  5
15C4
330
A
100
AcDbEntity
  8
SOUZOU
100
AcDbLine
 10
168.5989431465218
 20
438.1913874099673
 30
0.0
 11
168.5989431465218
 21
454.998326602647
 31
0.0
  0
MTEXT
  5
15D7
330
A
100
AcDbEntity
  8
MOJI
  6
CONTINUOUS
100
AcDbMText
 10
30.16326600269917
 20
74.66767205051827
 30
0.0
 40
6.0
 41
0.0
 71
     4
 72
     1
  1
\U+203B扉１枚質量１００kg以内\P（１００kgを超える場合\P　は係員にご相談下さい。）
  7
0_8
1001
ACAD
1000
MTEXTBEGIN
1070
    73
1070
     1
1070
    44
1040
1.0
1070
    74
1070
     0
1000
MTEXTEND
1000
MTEXTBEGIN
1070
    73
1070
     1
1070
    44
1040
1.0
1070
    74
1070
     0
1000
MTEXTEND
  0
MTEXT
  5
15D8
330
A
100
AcDbEntity
  8
MOJI
100
AcDbMText
 10
88.72629688066989
 20
172.7803355889526
 30
0.0
 40
6.0
 41
10.0
 71
     5
 72
     1
  1
外\P\P部
  7
0_8
1001
ACAD
1000
MTEXTBEGIN
1070
    73
1070
     1
1070
    44
1040
1.0
1070
    74
1070
     0
1000
MTEXTEND
1000
MTEXTBEGIN
1070
    73
1070
     1
1070
    44
1040
1.0
1070
    74
1070
     0
1000
MTEXTEND
  0
POLYLINE
  5
15D9
330
A
100
AcDbEntity
  8
SAISEN
100
AcDb2dPolyline
 66
     1
 10
0.0
 20
0.0
 30
0.0
 70
     1
  0
VERTEX
  5
18A4
330
15D9
100
AcDbEntity
  8
SAISEN
100
AcDbVertex
100
AcDb2dVertex
 10
83.72629688066991
 20
157.7803355889525
 30
0.0
  0
VERTEX
  5
18A5
330
15D9
100
AcDbEntity
  8
SAISEN
100
AcDbVertex
100
AcDb2dVertex
 10
93.72629688066991
 20
157.7803355889525
 30
0.0
  0
VERTEX
  5
18A6
330
15D9
100
AcDbEntity
  8
SAISEN
100
AcDbVertex
100
AcDb2dVertex
 10
93.72629688066991
 20
187.7803355889525
 30
0.0
  0
VERTEX
  5
18A7
330
15D9
100
AcDbEntity
  8
SAISEN
100
AcDbVertex
100
AcDb2dVertex
 10
83.72629688066991
 20
187.7803355889525
 30
0.0
  0
SEQEND
  5
18A8
330
15D9
100
AcDbEntity
  8
SAISEN
  0
MTEXT
  5
15DA
330
A
100
AcDbEntity
  8
MOJI
100
AcDbMText
 10
375.2853340870416
 20
172.7803355889526
 30
0.0
 40
6.0
 41
10.0
 71
     5
 72
     1
  1
内\P\P部
  7
0_8
1001
ACAD
1000
MTEXTBEGIN
1070
    73
1070
     1
1070
    44
1040
1.0
1070
    74
1070
     0
1000
MTEXTEND
1000
MTEXTBEGIN
1070
    73
1070
     1
1070
    44
1040
1.0
1070
    74
1070
     0
1000
MTEXTEND
  0
POLYLINE
  5
15DB
330
A
100
AcDbEntity
  8
SAISEN
100
AcDb2dPolyline
 66
     1
 10
0.0
 20
0.0
 30
0.0
 70
     1
  0
VERTEX
  5
18A9
330
15DB
100
AcDbEntity
  8
SAISEN
100
AcDbVertex
100
AcDb2dVertex
 10
370.2853340870416
 20
157.7803355889525
 30
0.0
  0
VERTEX
  5
18AA
330
15DB
100
AcDbEntity
  8
SAISEN
100
AcDbVertex
100
AcDb2dVertex
 10
380.2853340870417
 20
157.7803355889525
 30
0.0
  0
VERTEX
  5
18AB
330
15DB
100
AcDbEntity
  8
SAISEN
100
AcDbVertex
100
AcDb2dVertex
 10
380.2853340870417
 20
187.7803355889525
 30
0.0
  0
VERTEX
  5
18AC
330
15DB
100
AcDbEntity
  8
SAISEN
100
AcDbVertex
100
AcDb2dVertex
 10
370.2853340870416
 20
187.7803355889525
 30
0.0
  0
SEQEND
  5
18AD
330
15DB
100
AcDbEntity
  8
SAISEN
  0
LEADER
  5
1602
330
A
100
AcDbEntity
  8
HIKIDASI
100
AcDbLeader
  3
SUNPOU_2
 73
     0
 75
     1
 40
13.33333333333333
 41
28.0
 76
     3
 10
162.5989431465217
 20
396.498326602647
 30
0.0
 10
107.4896634325665
 20
452.2964921388923
 30
0.0
 10
102.4896634325665
 20
452.2964921388923
 30
0.0
340
1603
213
0.0
223
8.474100784824941
233
0.0
1001
ACAD
1000
DSTYLE
1002
{
1070
     5
1000
OPEN30
1070
    77
1070
     1
1070
   147
1040
1.0
1070
   342
1005
7E9
1002
}
1000
LEANOF
1010
0.0
1020
8.474100784824941
1030
0.0
1000
LEANOF
1010
0.0
1020
8.474100784824941
1030
0.0
  0
MTEXT
  5
1603
330
A
100
AcDbEntity
  8
HIKIDASI
100
AcDbMText
 10
72.48966343256658
 20
445.8223913540672
 30
0.0
 40
5.0
 41
0.0
 71
     7
 72
     1
  1
M5タップ\P(サッシ工事)
  7
SUNPOU
1001
ACAD
1000
MTEXTBEGIN
1070
    73
1070
     1
1070
    44
1040
1.0
1070
    74
1070
     0
1000
MTEXTEND
1000
MTEXTBEGIN
1070
    73
1070
     1
1070
    44
1040
1.0
1070
    74
1070
     0
1000
MTEXTEND
  0
LEADER
  5
1605
330
A
100
AcDbEntity
  8
HIKIDASI
100
AcDbLeader
  3
SUNPOU_2
 73
     0
 75
     1
 40
13.33333333333333
 41
28.0
 76
     3
 10
162.5989431465217
 20
351.498326602647
 30
0.0
 10
107.4375724827631
 20
370.0755125664181
 30
0.0
 10
102.4375724827631
 20
370.0755125664181
 30
0.0
340
1606
213
0.0
223
8.077756432107435
233
0.0
1001
ACAD
1000
DSTYLE
1002
{
1070
     5
1000
OPEN30
1070
    77
1070
     1
1070
   147
1040
1.0
1070
   342
1005
7E9
1002
}
1000
LEANOF
1010
0.0
1020
8.077756432107435
1030
0.0
1000
LEANOF
1010
0.0
1020
8.077756432107435
1030
0.0
  0
MTEXT
  5
1606
330
A
100
AcDbEntity
  8
HIKIDASI
100
AcDbMText
 10
72.43757248276323
 20
363.9977561343107
 30
0.0
 40
5.0
 41
0.0
 71
     7
 72
     1
  1
M5タップ\P(サッシ工事)
  7
SUNPOU
1001
ACAD
1000
MTEXTBEGIN
1070
    73
1070
     1
1070
    44
1040
1.0
1070
    74
1070
     0
1000
MTEXTEND
1000
MTEXTBEGIN
1070
    73
1070
     1
1070
    44
1040
1.0
1070
    74
1070
     0
1000
MTEXTEND
  0
LINE
  5
163C
330
A
100
AcDbEntity
  8
02
100
AcDbLine
 10
168.5989431465216
 20
314.498326602647
 30
0.0
 11
194.5989431465216
 21
314.498326602647
 31
0.0
  0
LINE
  5
163D
330
A
100
AcDbEntity
  8
02
100
AcDbLine
 10
194.5989431465216
 20
375.498326602647
 30
0.0
 11
168.5989431465218
 21
375.498326602647
 31
0.0
  0
MTEXT
  5
1644
330
A
100
AcDbEntity
  8
HIKIDASI
100
AcDbMText
 10
73.50867655319053
 20
421.2825282884191
 30
0.0
 40
5.0
 41
0.0
 71
     7
 72
     1
  1
M8タップ\P(サッシ工事)
  7
SUNPOU
1001
ACAD
1000
MTEXTBEGIN
1070
    73
1070
     1
1070
    44
1040
1.0
1070
    74
1070
     0
1000
MTEXTEND
1000
MTEXTBEGIN
1070
    73
1070
     1
1070
    44
1040
1.0
1070
    74
1070
     0
1000
MTEXTEND
  0
LEADER
  5
1645
330
A
100
AcDbEntity
  8
HIKIDASI
100
AcDbLeader
  3
SUNPOU_2
 73
     0
 75
     1
 40
13.33333333333333
 41
28.0
 76
     3
 10
194.5989431465216
 20
356.4983266026468
 30
0.0
 10
108.5086765531904
 20
427.7092053268923
 30
0.0
 10
103.5086765531904
 20
427.7092053268923
 30
0.0
340
1644
213
0.0
223
8.426677038473144
233
0.0
1001
ACAD
1000
DSTYLE
1002
{
1070
     5
1000
OPEN30
1070
    77
1070
     1
1070
   147
1040
1.0
1070
   342
1005
7E9
1002
}
1000
LEANOF
1010
0.0
1020
8.426677038473144
1030
0.0
1000
LEANOF
1010
0.0
1020
8.426677038473144
1030
0.0
  0
DIMENSION
  5
1686
330
A
100
AcDbEntity
  8
SUNPOU
100
AcDbDimension
  2
*D33
 10
122.849996692138
 20
441.498326602647
 30
0.0
 11
118.3499966921379
 21
418.9983266026469
 31
0.0
 70
    32
  3
SUNPOU_2
100
AcDbAlignedDimension
 13
156.3013399153878
 23
396.498326602647
 33
0.0
 14
160.5989431465218
 24
441.498326602647
 34
0.0
 50
90.0
100
AcDbRotatedDimension
  0
DIMENSION
  5
16B7
330
A
100
AcDbEntity
  8
SUNPOU
100
AcDbDimension
  2
*D34
 10
200.5989431465218
 20
411.8087674921024
 30
0.0
 11
184.5989431465218
 21
416.3087674921024
 31
0.0
 70
    32
  3
SUNPOU_2
100
AcDbAlignedDimension
 13
168.5989431465218
 23
411.8087674921024
 33
0.0
 14
200.5989431465218
 24
369.498326602647
 34
0.0
100
AcDbRotatedDimension
  0
MTEXT
  5
172C
330
A
100
AcDbEntity
  8
MOJI
100
AcDbMText
 10
380.7706335066124
 20
108.4379381676553
 30
0.0
 40
5.0
 41
0.0
 71
     5
 72
     1
  1
F.L
  7
0_8
1001
ACAD
1000
MTEXTBEGIN
1070
    73
1070
     1
1070
    44
1040
1.0
1070
    74
1070
     0
1000
MTEXTEND
1000
MTEXTBEGIN
1070
    73
1070
     1
1070
    44
1040
1.0
1070
    74
1070
     0
1000
MTEXTEND
  0
LINE
  5
1786
330
A
100
AcDbEntity
  8
KAKURE
100
AcDbLine
 10
194.5989431465216
 20
360.498326602647
 30
0.0
 11
200.5989431465216
 21
360.498326602647
 31
0.0
  0
LINE
  5
1787
330
A
100
AcDbEntity
  8
KAKURE
100
AcDbLine
 10
194.5989431465216
 20
359.748326602647
 30
0.0
 11
200.5989431465216
 21
359.748326602647
 31
0.0
  0
LINE
  5
1788
330
A
100
AcDbEntity
  8
KAKURE
100
AcDbLine
 10
200.5989431465216
 20
353.248326602647
 30
0.0
 11
194.5989431465216
 21
353.248326602647
 31
0.0
  0
LINE
  5
1789
330
A
100
AcDbEntity
  8
KAKURE
100
AcDbLine
 10
194.5989431465216
 20
352.498326602647
 30
0.0
 11
200.5989431465216
 21
352.498326602647
 31
0.0
  0
MTEXT
  5
1848
330
A
100
AcDbEntity
  8
MOJI
100
AcDbMText
 10
360.999999999997
 20
29.00000000000005
 30
0.0
 40
7.0
 41
49.99999999999994
 71
     5
 72
     1
  1
たて断面図　
  7
0_80
1001
ACAD
1000
MTEXTBEGIN
1070
    73
1070
     1
1070
    44
1040
1.0
1070
    74
1070
     0
1000
MTEXTEND
1000
MTEXTBEGIN
1070
    73
1070
     1
1070
    44
1040
1.0
1070
    74
1070
     0
1000
MTEXTEND
  0
MTEXT
  5
1849
330
A
100
AcDbEntity
  8
MOJI
100
AcDbMText
 10
310.999999999997
 20
29.00000000000005
 30
0.0
 40
7.0
 41
50.0
 71
     5
 72
     1
  1
図番４－７
  7
0_80
1001
ACAD
1000
MTEXTBEGIN
1070
    73
1070
     1
1070
    44
1040
1.0
1070
    74
1070
     0
1000
MTEXTEND
1000
MTEXTBEGIN
1070
    73
1070
     1
1070
    44
1040
1.0
1070
    74
1070
     0
1000
MTEXTEND
  0
MTEXT
  5
184A
330
A
100
AcDbEntity
  8
MOJI
100
AcDbMText
 10
255.9999999999998
 20
29.00000000000005
 30
0.0
 40
7.0
 41
60.0
 71
     5
 72
     1
  1
片引き又は両引き
  7
0_80
1001
ACAD
1000
MTEXTBEGIN
1070
    73
1070
     1
1070
    44
1040
1.0
1070
    74
1070
     0
1000
MTEXTEND
1000
MTEXTBEGIN
1070
    73
1070
     1
1070
    44
1040
1.0
1070
    74
1070
     0
1000
MTEXTEND
  0
MTEXT
  5
184B
330
A
100
AcDbEntity
  8
MOJI
100
AcDbMText
 10
185.9999999999969
 20
29.00000000000008
 30
0.0
 40
7.0
 41
80.0
 71
     5
 72
     1
  1
ＳＯＶ－２００ＫＤＣ
  7
0_8
1001
ACAD
1000
MTEXTBEGIN
1070
    73
1070
     1
1070
    44
1040
1.0
1070
    74
1070
     0
1000
MTEXTEND
1000
MTEXTBEGIN
1070
    73
1070
     1
1070
    44
1040
1.0
1070
    74
1070
     0
1000
MTEXTEND
  0
POLYLINE
  5
184C
330
A
100
AcDbEntity
  8
SAISEN
100
AcDb2dPolyline
 66
     1
 10
0.0
 20
0.0
 30
0.0
 70
     1
  0
VERTEX
  5
18AE
330
184C
100
AcDbEntity
  8
SAISEN
100
AcDbVertex
100
AcDb2dVertex
 10
35.99999999999693
 20
17.0
 30
0.0
  0
VERTEX
  5
18AF
330
184C
100
AcDbEntity
  8
SAISEN
100
AcDbVertex
100
AcDb2dVertex
 10
385.9999999999968
 20
17.0
 30
0.0
  0
VERTEX
  5
18B0
330
184C
100
AcDbEntity
  8
SAISEN
100
AcDbVertex
100
AcDb2dVertex
 10
385.9999999999968
 20
41.00000000000017
 30
0.0
  0
VERTEX
  5
18B1
330
184C
100
AcDbEntity
  8
SAISEN
100
AcDbVertex
100
AcDb2dVertex
 10
35.99999999999693
 20
41.00000000000017
 30
0.0
  0
SEQEND
  5
18B2
330
184C
100
AcDbEntity
  8
SAISEN
  0
MTEXT
  5
184D
330
A
100
AcDbEntity
  8
MOJI
100
AcDbMText
 10
90.99999999999694
 20
29.00000000000008
 30
0.0
 40
6.0
 41
110.0
 71
     5
 72
     1
  1
ステンレスサッシ　エンジンＢＯＸ通し\Pドア･Fix共スリムセナージ･ドアＩ型納り
  7
0_8
1001
ACAD
1000
MTEXTBEGIN
1070
    73
1070
     1
1070
    44
1040
1.0
1070
    74
1070
     0
1000
MTEXTEND
1000
MTEXTBEGIN
1070
    73
1070
     1
1070
    44
1040
1.0
1070
    74
1070
     0
1000
MTEXTEND
  0
LINE
  5
184E
330
A
100
AcDbEntity
  8
SAISEN
100
AcDbLine
 10
145.9999999999969
 20
41.00000000000017
 30
0.0
 11
145.9999999999969
 21
17.0
 31
0.0
  0
LINE
  5
184F
330
A
100
AcDbEntity
  8
SAISEN
100
AcDbLine
 10
225.9999999999969
 20
41.00000000000017
 30
0.0
 11
225.9999999999969
 21
17.0
 31
0.0
  0
LINE
  5
1850
330
A
100
AcDbEntity
  8
SAISEN
100
AcDbLine
 10
285.9999999999968
 20
41.00000000000017
 30
0.0
 11
285.9999999999968
 21
17.0
 31
0.0
  0
CIRCLE
  5
1859
330
A
100
AcDbEntity
  8
SAISEN
100
AcDbCircle
 10
392.0976380784291
 20
49.5430264122316
 30
0.0
 40
5.0
  0
TEXT
  5
185A
330
A
100
AcDbEntity
  8
MOJI
100
AcDbText
 10
389.0488190392129
 20
45.27151320611589
 30
0.0
 40
8.0
  1
Ｓ
 41
0.8
  7
0_8
 11
389.0488190392129
 21
53.2715132061159
 31
0.0
100
AcDbText
 73
     3
  0
VIEWPORT
  5
801
102
{ACAD_XDICTIONARY
360
188B
102
}
330
B
100
AcDbEntity
 67
     1
  8
0
100
AcDbViewport
 10
198.0508299538852
 20
285.1874487354477
 30
0.0
 40
1078.343208727591
 41
628.3535021666721
 68
     1
 69
     1
1001
ACAD
1000
MVIEW
1002
{
1070
    16
1010
0.0
1020
0.0
1030
0.0
1010
0.0
1020
0.0
1030
1.0
1040
0.0
1040
628.3535021666721
1040
198.0508299538852
1040
285.1874487354477
1040
50.0
1040
0.0
1040
0.0
1070
     0
1070
   100
1070
     1
1070
     1
1070
     0
1070
     0
1070
     0
1070
     0
1040
0.0
1040
0.0
1040
0.0
1040
10.0
1040
10.0
1040
10.0
1040
10.0
1070
     0
1002
{
1002
}
1002
}
  0
VIEWPORT
  5
1875
102
{ACAD_XDICTIONARY
360
1891
102
}
330
B
100
AcDbEntity
 67
     1
  8
DEFPOINTS
100
AcDbViewport
 10
198.0508309076477
 20
285.1874477816852
 30
0.0
 40
396.4883172119752
 41
570.409736121624
 68
     2
 69
     2
1001
ACAD
1000
MVIEW
1002
{
1070
    16
1010
0.0
1020
0.0
1030
0.0
1010
0.0
1020
0.0
1030
1.0
1040
0.0
1040
570.409736121624
1040
210.0
1040
297.0
1040
50.0
1040
0.0
1040
0.0
1070
     0
1070
   100
1070
     1
1070
     1
1070
     0
1070
     0
1070
     0
1070
     0
1040
0.0
1040
0.0
1040
0.0
1040
1.0
1040
1.0
1040
0.0
1040
0.0
1070
     0
1002
{
1002
}
1002
}
  0
ENDSEC
  0
SECTION
  2
OBJECTS
  0
DICTIONARY
  5
19
330
0
100
AcDbDictionary
  3
ACAD_COLOR
350
1832
  3
ACAD_GROUP
350
1A
  3
ACAD_LAYOUT
350
60A
  3
ACAD_MATERIAL
350
1831
  3
ACAD_MLINESTYLE
350
1B
  3
ACAD_PLOTSETTINGS
350
60B
  3
ACADDIM
350
9FE
  3
ASE_INDEX_DICTIONARY
350
185C
1001
ACAD
1000
TREAT_AS_HARD
1070
     0
1000
TREAT_AS_HARD
1070
     0
  0
DICTIONARY
  5
15EA
330
2
100
AcDbDictionary
  3
ACAD_LAYERFILTERS
350
15EB
  3
ACAD_LAYERSTATES
350
16FF
1001
ACAD
1000
TREAT_AS_HARD
1070
     1
1000
TREAT_AS_HARD
1070
     1
  0
DICTIONARY
  5
17F6
330
A
100
AcDbDictionary
  3
ACAD_LAYOUTSELFREF
350
1899
1001
ACAD
1000
TREAT_AS_HARD
1070
     1
  0
DICTIONARY
  5
17F8
330
B
100
AcDbDictionary
  3
ACAD_LAYOUTSELFREF
350
189A
1001
ACAD
1000
TREAT_AS_HARD
1070
     1
  0
DICTIONARY
  5
188B
330
801
100
AcDbDictionary
  3
ACAD_XREC_ROUNDTRIP
350
188C
1001
ACAD
1000
TREAT_AS_HARD
1070
     1
  0
DICTIONARY
  5
1891
330
1875
100
AcDbDictionary
  3
ACAD_XREC_ROUNDTRIP
350
1892
1001
ACAD
1000
TREAT_AS_HARD
1070
     1
  0
DICTIONARY
  5
1832
102
{ACAD_REACTORS
330
19
102
}
330
19
100
AcDbDictionary
1001
ACAD
1000
TREAT_AS_HARD
1070
     0
  0
DICTIONARY
  5
1A
102
{ACAD_REACTORS
330
19
102
}
330
19
100
AcDbDictionary
  3
DAGROUP4F6
350
4F6
  3
DAGROUP4F9
350
4F9
1001
ACAD
1000
TREAT_AS_HARD
1070
     0
1000
TREAT_AS_HARD
1070
     0
  0
DICTIONARY
  5
60A
102
{ACAD_REACTORS
330
19
102
}
330
19
100
AcDbDictionary
1001
ACAD
1000
TREAT_AS_HARD
1070
     0
1000
TREAT_AS_HARD
1070
     0
  0
DICTIONARY
  5
1831
102
{ACAD_REACTORS
330
19
102
}
330
19
100
AcDbDictionary
1001
ACAD
1000
TREAT_AS_HARD
1070
     0
  0
DICTIONARY
  5
1B
102
{ACAD_REACTORS
330
19
102
}
330
19
100
AcDbDictionary
  3
STANDARD
350
1C
1001
ACAD
1000
TREAT_AS_HARD
1070
     0
1000
TREAT_AS_HARD
1070
     0
  0
DICTIONARY
  5
60B
102
{ACAD_REACTORS
330
19
102
}
330
19
100
AcDbDictionary
1001
ACAD
1000
TREAT_AS_HARD
1070
     0
1000
TREAT_AS_HARD
1070
     0
  0
XRECORD
  5
9FE
102
{ACAD_REACTORS
330
19
102
}
330
19
100
AcDbXrecord
 90
   990106
  3

 60
     0
 61
     0
 62
     4
 63
     4
 64
     1
 65
     0
 66
     0
 67
     3
 68
     0
 69
     1
 70
     0
 71
     0
 72
     0
 40
0.0
170
     2
340
818
  0
DICTIONARY
  5
185C
102
{ACAD_REACTORS
330
19
102
}
330
19
100
AcDbDictionary
  3
ASEBLOCKHIERARCHYINDEXRECORD
350
185E
1001
DCO15
1040
1508666682.812
1001
ACAD
1000
TREAT_AS_HARD
1070
     0
  0
DICTIONARY
  5
15EB
102
{ACAD_REACTORS
330
15EA
102
}
330
15EA
100
AcDbDictionary
  3
HIHYOJI
350
162A
1001
ACAD
1000
TREAT_AS_HARD
1070
     1
1000
TREAT_AS_HARD
1070
     0
  0
DICTIONARY
  5
16FF
102
{ACAD_REACTORS
330
15EA
102
}
330
15EA
100
AcDbDictionary
1001
ACAD
1000
TREAT_AS_HARD
1070
     0
1000
TREAT_AS_HARD
1070
     0
  0
XRECORD
  5
1899
102
{ACAD_REACTORS
330
17F6
102
}
330
17F6
100
AcDbXrecord
340
A
  0
XRECORD
  5
189A
102
{ACAD_REACTORS
330
17F8
102
}
330
17F8
100
AcDbXrecord
340
B
  0
XRECORD
  5
188C
102
{ACAD_REACTORS
330
188B
102
}
330
188B
100
AcDbXrecord
102
SHADEPLOT
 70
     0
  0
XRECORD
  5
1892
102
{ACAD_REACTORS
330
1891
102
}
330
1891
100
AcDbXrecord
102
SHADEPLOT
 70
     0
  0
GROUP
  5
4F6
102
{ACAD_REACTORS
330
1A
102
}
330
1A
100
AcDbGroup
300

 70
     0
 71
     1
  0
GROUP
  5
4F9
102
{ACAD_REACTORS
330
1A
102
}
330
1A
100
AcDbGroup
300

 70
     0
 71
     1
  0
MLINESTYLE
  5
1C
102
{ACAD_REACTORS
330
1B
102
}
330
1B
100
AcDbMlineStyle
  2
STANDARD
 70
     0
  3

 62
     0
 51
90.00000000000019
 52
90.00000000000019
 71
     2
 49
0.5
 62
   256
  6
BYLAYER
 49
-0.5
 62
   256
  6
BYLAYER
  0
XRECORD
  5
185E
102
{ACAD_REACTORS
330
185C
102
}
330
185C
100
AcDbXrecord
330
13D2
330
13D3
330
13E3
330
13E4
330
13EF
330
13F0
330
17B7
330
17B8
330
17A4
330
17A5
330
16A8
330
16A9
330
1681
330
1682
330
146D
330
146E
330
1464
330
1465
330
145C
330
145D
330
1480
330
1481
330
1476
330
1477
330
1806
330
1807
330
1811
330
1812
330
14FC
330
14FD
330
14E8
330
14E9
330
14D4
330
14D5
330
14CC
330
14CD
330
14C0
330
14C1
330
14B8
330
14B9
330
1510
330
1511
330
142B
330
142C
330
1488
330
1489
330
1451
330
1452
330
15FB
330
15FC
330
1420
330
1421
330
151A
330
151B
330
14AC
330
14AD
330
14DE
330
14DF
330
140E
330
140F
330
16FA
330
16FB
330
16D0
330
16D1
330
17AD
330
17AE
  0
XRECORD
  5
162A
102
{ACAD_REACTORS
330
15EB
102
}
330
15EB
100
AcDbXrecord
  1
hihyoji
  1
08,09,*_h
  1
*
  1
*
 70
     0
  1
*
  1
*
  0
ENDSEC
  0
EOF
