  0
SECTION
  2
HEADER
  9
$ACADVER
  1
AC1012
  9
$DWGCODEPAGE
  3
dos932
  9
$INSBASE
 10
0.0
 20
0.0
 30
0.0
  9
$EXTMIN
 10
0.0
 20
0.0
 30
0.0
  9
$EXTMAX
 10
420.0
 20
594.0
 30
0.0
  9
$LIMMIN
 10
0.0
 20
0.0
  9
$LIMMAX
 10
420.0
 20
594.0
  9
$ORTHOMODE
 70
     1
  9
$REGENMODE
 70
     1
  9
$FILLMODE
 70
     1
  9
$QTEXTMODE
 70
     0
  9
$MIRRTEXT
 70
     1
  9
$DRAGMODE
 70
     2
  9
$LTSCALE
 40
1.0
  9
$OSMODE
 70
    37
  9
$ATTMODE
 70
     1
  9
$TEXTSIZE
 40
2.5
  9
$TRACEWID
 40
0.05
  9
$TEXTSTYLE
  7
0_8_TATE
  9
$CLAYER
  8
DEFPOINTS
  9
$CELTYPE
  6
BYLAYER
  9
$CECOLOR
 62
   256
  9
$CELTSCALE
 40
1.0
  9
$DELOBJ
 70
     1
  9
$DISPSILH
 70
     0
  9
$DIMSCALE
 40
2.0
  9
$DIMASZ
 40
2.5
  9
$DIMEXO
 40
1.5
  9
$DIMDLI
 40
0.0
  9
$DIMRND
 40
0.0
  9
$DIMDLE
 40
0.0
  9
$DIMEXE
 40
1.0
  9
$DIMTP
 40
0.0
  9
$DIMTM
 40
0.0
  9
$DIMTXT
 40
2.5
  9
$DIMCEN
 40
0.0
  9
$DIMTSZ
 40
0.0
  9
$DIMTOL
 70
     0
  9
$DIMLIM
 70
     0
  9
$DIMTIH
 70
     0
  9
$DIMTOH
 70
     0
  9
$DIMSE1
 70
     0
  9
$DIMSE2
 70
     0
  9
$DIMTAD
 70
     1
  9
$DIMZIN
 70
     8
  9
$DIMBLK
  1
OPEN30
  9
$DIMASO
 70
     1
  9
$DIMSHO
 70
     1
  9
$DIMPOST
  1

  9
$DIMAPOST
  1

  9
$DIMALT
 70
     0
  9
$DIMALTD
 70
     2
  9
$DIMALTF
 40
25.4
  9
$DIMLFAC
 40
1.0
  9
$DIMTOFL
 70
     1
  9
$DIMTVP
 40
0.0
  9
$DIMTIX
 70
     0
  9
$DIMSOXD
 70
     0
  9
$DIMSAH
 70
     0
  9
$DIMBLK1
  1

  9
$DIMBLK2
  1

  9
$DIMSTYLE
  2
SUNPOU_2
  9
$DIMCLRD
 70
   256
  9
$DIMCLRE
 70
   256
  9
$DIMCLRT
 70
     6
  9
$DIMTFAC
 40
1.0
  9
$DIMGAP
 40
1.0
  9
$DIMJUST
 70
     0
  9
$DIMSD1
 70
     0
  9
$DIMSD2
 70
     0
  9
$DIMTOLJ
 70
     1
  9
$DIMTZIN
 70
     0
  9
$DIMALTZ
 70
     0
  9
$DIMALTTZ
 70
     0
  9
$DIMFIT
 70
     3
  9
$DIMUPT
 70
     0
  9
$DIMUNIT
 70
     2
  9
$DIMDEC
 70
     1
  9
$DIMTDEC
 70
     1
  9
$DIMALTU
 70
     2
  9
$DIMALTTD
 70
     2
  9
$DIMTXSTY
  7
SUNPOU
  9
$DIMAUNIT
 70
     0
  9
$LUNITS
 70
     2
  9
$LUPREC
 70
     4
  9
$SKETCHINC
 40
0.1
  9
$FILLETRAD
 40
0.0
  9
$AUNITS
 70
     0
  9
$AUPREC
 70
     0
  9
$MENU
  1
acad
  9
$ELEVATION
 40
0.0
  9
$PELEVATION
 40
0.0
  9
$THICKNESS
 40
0.0
  9
$LIMCHECK
 70
     0
  9
$BLIPMODE
 70
     0
  9
$CHAMFERA
 40
0.0
  9
$CHAMFERB
 40
0.0
  9
$CHAMFERC
 40
0.0
  9
$CHAMFERD
 40
0.0
  9
$SKPOLY
 70
     0
  9
$TDCREATE
 40
2444972.375000000
  9
$TDUPDATE
 40
2453266.401198634
  9
$TDINDWG
 40
1.8556120370
  9
$TDUSRTIMER
 40
1.8556120370
  9
$USRTIMER
 70
     1
  9
$ANGBASE
 50
0.0
  9
$ANGDIR
 70
     0
  9
$PDMODE
 70
     0
  9
$PDSIZE
 40
1.0
  9
$PLINEWID
 40
0.0
  9
$COORDS
 70
     1
  9
$SPLFRAME
 70
     0
  9
$SPLINETYPE
 70
     6
  9
$SPLINESEGS
 70
     8
  9
$ATTDIA
 70
     0
  9
$ATTREQ
 70
     1
  9
$HANDLING
 70
-16383
  9
$HANDSEED
  5
1CE2
  9
$SURFTAB1
 70
     6
  9
$SURFTAB2
 70
     6
  9
$SURFTYPE
 70
     6
  9
$SURFU
 70
     6
  9
$SURFV
 70
     6
  9
$UCSNAME
  2

  9
$UCSORG
 10
0.0
 20
0.0
 30
0.0
  9
$UCSXDIR
 10
1.0
 20
0.0
 30
0.0
  9
$UCSYDIR
 10
0.0
 20
1.0
 30
0.0
  9
$PUCSNAME
  2

  9
$PUCSORG
 10
0.0
 20
0.0
 30
0.0
  9
$PUCSXDIR
 10
1.0
 20
0.0
 30
0.0
  9
$PUCSYDIR
 10
0.0
 20
1.0
 30
0.0
  9
$USERI1
 70
     0
  9
$USERI2
 70
     0
  9
$USERI3
 70
     0
  9
$USERI4
 70
     0
  9
$USERI5
 70
     0
  9
$USERR1
 40
0.0
  9
$USERR2
 40
0.0
  9
$USERR3
 40
0.0
  9
$USERR4
 40
0.0
  9
$USERR5
 40
0.0
  9
$WORLDVIEW
 70
     1
  9
$SHADEDGE
 70
     3
  9
$SHADEDIF
 70
    70
  9
$TILEMODE
 70
     1
  9
$MAXACTVP
 70
    16
  9
$PINSBASE
 10
0.0
 20
0.0
 30
0.0
  9
$PLIMCHECK
 70
     0
  9
$PEXTMIN
 10
-0.2055473772918503
 20
-0.0174202791267817
 30
-0.0015258207003583
  9
$PEXTMAX
 10
396.3139079836237
 20
570.3923158424973
 30
0.0000000349246037
  9
$PLIMMIN
 10
-11.94191342824454
 20
-11.76600219398141
  9
$PLIMMAX
 10
408.0435733360149
 20
582.1408996648768
  9
$UNITMODE
 70
     0
  9
$VISRETAIN
 70
     0
  9
$PLINEGEN
 70
     1
  9
$PSLTSCALE
 70
     0
  9
$TREEDEPTH
 70
  3020
  9
$PICKSTYLE
 70
     1
  9
$CMLSTYLE
  2
STANDARD
  9
$CMLJUST
 70
     0
  9
$CMLSCALE
 40
1.0
  9
$SAVEIMAGES
 70
     1
  0
ENDSEC
  0
SECTION
  2
CLASSES
  0
CLASS
  1
LWPOLYLINE
  2
AcDbPolyline
  3
AutoCAD 2000
 90
    32768
280
     0
281
     1
  0
CLASS
  1
IMAGE
  2
AcDbRasterImage
  3
ISM
 90
    32895
280
     0
281
     1
  0
CLASS
  1
OLE2FRAME
  2
AcDbOle2Frame
  3
AutoCAD 2000
 90
    32768
280
     0
281
     1
  0
CLASS
  1
HATCH
  2
AcDbHatch
  3
AutoCAD 2000
 90
    32768
280
     0
281
     1
  0
CLASS
  1
DICTIONARYVAR
  2
AcDbDictionaryVar
  3
AutoCAD 2000
 90
    32768
280
     0
281
     0
  0
CLASS
  1
RASTERVARIABLES
  2
AcDbRasterVariables
  3
ISM
 90
    32768
280
     0
281
     0
  0
CLASS
  1
IMAGEDEF
  2
AcDbRasterImageDef
  3
ISM
 90
    32768
280
     0
281
     0
  0
CLASS
  1
IMAGEDEF_REACTOR
  2
AcDbRasterImageDefReactor
  3
ISM
 90
    32769
280
     0
281
     0
  0
CLASS
  1
IDBUFFER
  2
AcDbIdBuffer
  3
AutoCAD 2000
 90
    32768
280
     0
281
     0
  0
CLASS
  1
SPATIAL_FILTER
  2
AcDbSpatialFilter
  3
AutoCAD 2000
 90
    32768
280
     0
281
     0
  0
CLASS
  1
XRECORD
  2
AcDbXrecord
  3
AutoCAD 2000
 90
    32768
280
     0
281
     0
  0
CLASS
  1
SORTENTSTABLE
  2
AcDbSortentsTable
  3
AutoCAD 2000
 90
    32768
280
     0
281
     0
  0
CLASS
  1
LAYER_INDEX
  2
AcDbLayerIndex
  3
AutoCAD 2000
 90
    32768
280
     0
281
     0
  0
CLASS
  1
SPATIAL_INDEX
  2
AcDbSpatialIndex
  3
AutoCAD 2000
 90
    32768
280
     0
281
     0
  0
CLASS
  1
OBJECT_PTR
  2
CAseDLPNTableRecord
  3
ASE-LPNTableRecord
 90
    32769
280
     0
281
     0
  0
CLASS
  1
ACDBDICTIONARYWDFLT
  2
AcDbDictionaryWithDefault
  3
AutoCAD 2000
 90
    32768
280
     0
281
     0
  0
CLASS
  1
ACDBPLACEHOLDER
  2
AcDbPlaceHolder
  3
AutoCAD 2000
 90
    32768
280
     0
281
     0
  0
CLASS
  1
LAYOUT
  2
AcDbLayout
  3
AutoCAD 2000
 90
    32768
280
     0
281
     0
  0
CLASS
  1
LONG_TRANSACTION
  2
AcDbLongTransaction
  3
AutoCAD 2000
 90
    32768
280
     0
281
     0
  0
CLASS
  1
LWPOLYLINE
  2
AcDbPolyline
  3
AutoCAD 2000
 90
    32768
280
     0
281
     1
  0
CLASS
  1
HATCH
  2
AcDbHatch
  3
AutoCAD 2000
 90
    32768
280
     0
281
     1
  0
CLASS
  1
XRECORD
  2
AcDbXrecord
  3
AutoCAD 2000
 90
    32768
280
     0
281
     0
  0
CLASS
  1
LONG_TRANSACTION
  2
AcDbLongTransaction
  3
AutoCAD 2000
 90
    32768
280
     0
281
     0
  0
CLASS
  1
LWPOLYLINE
  2
AcDbPolyline
  3
AutoCAD 2000
 90
    32768
280
     0
281
     1
  0
CLASS
  1
HATCH
  2
AcDbHatch
  3
AutoCAD 2000
 90
    32768
280
     0
281
     1
  0
CLASS
  1
XRECORD
  2
AcDbXrecord
  3
AutoCAD 2000
 90
    32768
280
     0
281
     0
  0
ENDSEC
  0
SECTION
  2
TABLES
  0
TABLE
  2
VPORT
  5
7
330
0
100
AcDbSymbolTable
 70
     2
  0
VPORT
  5
1CC7
330
7
100
AcDbSymbolTableRecord
100
AcDbViewportTableRecord
  2
*ACTIVE
 70
     0
 10
0.0
 20
0.0
 11
1.0
 21
1.0
 12
229.318929529926
 22
297.000001383014
 13
0.0
 23
0.0
 14
10.0
 24
10.0
 15
10.0
 25
10.0
 16
0.0
 26
0.0
 36
1.0
 17
0.0
 27
0.0
 37
0.0
 40
600.9582794387514
 41
1.780442804428044
 42
50.0
 43
0.0
 44
0.0
 50
0.0
 51
0.0
 71
     0
 72
   100
 73
     1
 74
     1
 75
     0
 76
     0
 77
     0
 78
     0
  0
ENDTAB
  0
TABLE
  2
LTYPE
  5
4
330
0
100
AcDbSymbolTable
 70
     4
  0
LTYPE
  5
11
330
4
100
AcDbSymbolTableRecord
100
AcDbLinetypeTableRecord
  2
BYBLOCK
 70
     0
  3

 72
    65
 73
     0
 40
0.0
  0
LTYPE
  5
12
330
4
100
AcDbSymbolTableRecord
100
AcDbLinetypeTableRecord
  2
BYLAYER
 70
     0
  3

 72
    65
 73
     0
 40
0.0
  0
LTYPE
  5
13
330
4
100
AcDbSymbolTableRecord
100
AcDbLinetypeTableRecord
  2
CONTINUOUS
 70
     0
  3
Solid line
 72
    65
 73
     0
 40
0.0
  0
LTYPE
  5
21
330
4
100
AcDbSymbolTableRecord
100
AcDbLinetypeTableRecord
  2
DASHED2
 70
     0
  3
CADPAC FUSION LINETYPE
 72
    65
 73
     2
 40
13.365
 49
8.91
 74
     0
 49
-4.455
 74
     0
  0
LTYPE
  5
712
330
4
100
AcDbSymbolTableRecord
100
AcDbLinetypeTableRecord
  2
CENTER2
 70
     0
  3
Center (.5x) ___ _ ___ _ ___ _ ___ _ ___ _ ___
 72
    65
 73
     4
 40
28.57499999999999
 49
19.05
 74
     0
 49
-3.174999999999998
 74
     0
 49
3.174999999999998
 74
     0
 49
-3.174999999999998
 74
     0
  0
LTYPE
  5
713
330
4
100
AcDbSymbolTableRecord
100
AcDbLinetypeTableRecord
  2
PHANTOM2
 70
     0
  3
Phantom (.5x) ___ _ _ ___ _ _ ___ _ _ ___ _ _
 72
    65
 73
     6
 40
31.75
 49
15.875
 74
     0
 49
-3.174999999999998
 74
     0
 49
3.174999999999998
 74
     0
 49
-3.174999999999998
 74
     0
 49
3.174999999999998
 74
     0
 49
-3.174999999999998
 74
     0
  0
ENDTAB
  0
TABLE
  2
LAYER
  5
2
102
{ACAD_XDICTIONARY
360
1659
102
}
330
0
100
AcDbSymbolTable
 70
    13
  0
LAYER
  5
14
330
2
100
AcDbSymbolTableRecord
100
AcDbLayerTableRecord
  2
0
 70
     0
 62
     7
  6
CONTINUOUS
  0
LAYER
  5
714
330
2
100
AcDbSymbolTableRecord
100
AcDbLayerTableRecord
  2
DEFPOINTS
 70
     0
 62
     7
  6
CONTINUOUS
  0
LAYER
  5
717
330
2
100
AcDbSymbolTableRecord
100
AcDbLayerTableRecord
  2
03
 70
     0
 62
     3
  6
CONTINUOUS
  0
LAYER
  5
718
330
2
100
AcDbSymbolTableRecord
100
AcDbLayerTableRecord
  2
04
 70
     0
 62
     4
  6
CONTINUOUS
  0
LAYER
  5
71A
330
2
100
AcDbSymbolTableRecord
100
AcDbLayerTableRecord
  2
06
 70
     0
 62
     6
  6
CONTINUOUS
  0
LAYER
  5
71C
330
2
100
AcDbSymbolTableRecord
100
AcDbLayerTableRecord
  2
CHUSIN
 70
     0
 62
     6
  6
CENTER2
  0
LAYER
  5
71D
330
2
100
AcDbSymbolTableRecord
100
AcDbLayerTableRecord
  2
HIKIDASI
 70
     0
 62
     6
  6
CONTINUOUS
  0
LAYER
  5
71F
330
2
100
AcDbSymbolTableRecord
100
AcDbLayerTableRecord
  2
MOJI
 70
     0
 62
     3
  6
CONTINUOUS
  0
LAYER
  5
720
330
2
100
AcDbSymbolTableRecord
100
AcDbLayerTableRecord
  2
SOUZOU
 70
     0
 62
     6
  6
PHANTOM2
  0
LAYER
  5
721
330
2
100
AcDbSymbolTableRecord
100
AcDbLayerTableRecord
  2
SUNPOU
 70
     0
 62
     6
  6
CONTINUOUS
  0
LAYER
  5
15E5
330
2
100
AcDbSymbolTableRecord
100
AcDbLayerTableRecord
  2
KAKURE
 70
     0
 62
     6
  6
DASHED2
  0
LAYER
  5
1896
330
2
100
AcDbSymbolTableRecord
100
AcDbLayerTableRecord
  2
SAISEN
 70
     0
 62
     3
  6
CONTINUOUS
  0
LAYER
  5
189D
330
2
100
AcDbSymbolTableRecord
100
AcDbLayerTableRecord
  2
02
 70
     0
 62
     2
  6
CONTINUOUS
  0
ENDTAB
  0
TABLE
  2
STYLE
  5
3
330
0
100
AcDbSymbolTable
 70
     5
  0
STYLE
  5
17
330
3
100
AcDbSymbolTableRecord
100
AcDbTextStyleTableRecord
  2
STANDARD
 70
     0
 40
0.0
 41
0.8
 50
0.0
 71
     0
 42
6.0
  3
txt.shx
  4
bigfont.shx
  0
STYLE
  5
72C
330
3
100
AcDbSymbolTableRecord
100
AcDbTextStyleTableRecord
  2
SUNPOU
 70
     0
 40
0.0
 41
0.8
 50
0.0
 71
     0
 42
0.2
  3
txt.shx
  4
extfont.shx
  0
STYLE
  5
737
330
3
100
AcDbSymbolTableRecord
100
AcDbTextStyleTableRecord
  2
0_8_TATE
 70
     4
 40
0.0
 41
0.8
 50
0.0
 71
     0
 42
2.5
  3
txt.shx
  4
extfont.shx
  0
STYLE
  5
1340
330
3
100
AcDbSymbolTableRecord
100
AcDbTextStyleTableRecord
  2
0_8
 70
     0
 40
0.0
 41
0.8
 50
0.0
 71
     0
 42
2.5
  3
txt.shx
  4
extfont.shx
  0
STYLE
  5
1C67
330
3
100
AcDbSymbolTableRecord
100
AcDbTextStyleTableRecord
  2
0_80
 70
     0
 40
0.0
 41
0.8
 50
0.0
 71
     0
 42
7.0
  3
txt.shx
  4
extfont.shx
  0
ENDTAB
  0
TABLE
  2
VIEW
  5
5
330
0
100
AcDbSymbolTable
 70
     1
  0
VIEW
  5
136
330
5
100
AcDbSymbolTableRecord
100
AcDbViewTableRecord
  2
QQQQ
 70
     0
 40
597.250650895924
 10
-3.100215124183435
 20
-2.750836698676891
 41
408.4733383418441
 11
0.0
 21
0.0
 31
1.0
 12
100.0
 22
100.0
 32
0.0
 42
50.0
 43
0.0
 44
0.0
 50
0.0
 71
     0
  0
ENDTAB
  0
TABLE
  2
UCS
  5
6
330
0
100
AcDbSymbolTable
 70
     0
  0
ENDTAB
  0
TABLE
  2
APPID
  5
8
330
0
100
AcDbSymbolTable
 70
     3
  0
APPID
  5
16
330
8
100
AcDbSymbolTableRecord
100
AcDbRegAppTableRecord
  2
ACAD
 70
     0
  0
APPID
  5
1BFE
330
8
100
AcDbSymbolTableRecord
100
AcDbRegAppTableRecord
  2
CONTENTBLOCKICON
 70
     0
  0
APPID
  5
1C8C
330
8
100
AcDbSymbolTableRecord
100
AcDbRegAppTableRecord
  2
DCO15
 70
     0
  0
ENDTAB
  0
TABLE
  2
DIMSTYLE
  5
9
330
0
100
AcDbSymbolTable
 70
     2
  0
DIMSTYLE
105
18
330
9
100
AcDbSymbolTableRecord
100
AcDbDimStyleTableRecord
  2
STANDARD
 70
     0
  3

  4

  5

  6

  7

 40
1.0
 41
0.18
 42
0.0625
 43
0.38
 44
0.18
 45
0.0
 46
0.0
 47
0.0
 48
0.0
140
0.18
141
0.09
142
0.0
143
25.4
144
1.0
145
0.0
146
1.0
147
0.09
 71
     0
 72
     0
 73
     1
 74
     1
 75
     0
 76
     0
 77
     0
 78
     0
170
     0
171
     2
172
     0
173
     0
174
     0
175
     0
176
     0
177
     0
178
     0
270
     2
271
     4
272
     4
273
     2
274
     2
340
17
275
     0
280
     0
281
     0
282
     0
283
     1
284
     0
285
     0
286
     0
287
     3
288
     0
  0
DIMSTYLE
105
72D
102
{ACAD_REACTORS
330
7A7
330
7B6
330
7FE
330
814
330
821
330
83B
330
877
330
891
330
89E
330
8AB
330
8B8
330
8E3
330
8F0
330
8FF
330
97C
330
9A5
330
9B2
330
9BF
330
A6E
330
A7B
330
AE2
330
AF1
330
AFE
330
B0B
330
B18
330
B27
330
B34
330
B43
330
BB3
330
BDF
330
C02
330
85D
330
BF5
330
19F6
330
1A30
330
1BBD
102
}
330
9
100
AcDbSymbolTableRecord
100
AcDbDimStyleTableRecord
  2
SUNPOU_2
 70
     0
  3

  4

  5
OPEN30
  6

  7

 40
2.0
 41
2.5
 42
1.5
 43
0.0
 44
1.0
 45
0.0
 46
0.0
 47
0.0
 48
0.0
140
2.5
141
0.0
142
0.0
143
25.4
144
1.0
145
0.0
146
1.0
147
1.0
 71
     0
 72
     0
 73
     0
 74
     0
 75
     0
 76
     0
 77
     1
 78
     8
170
     0
171
     2
172
     1
173
     0
174
     0
175
     0
176
   256
177
   256
178
     6
270
     2
271
     1
272
     1
273
     2
274
     2
340
72C
275
     0
280
     0
281
     0
282
     0
283
     1
284
     0
285
     0
286
     0
287
     3
288
     0
  0
ENDTAB
  0
TABLE
  2
BLOCK_RECORD
  5
1
330
0
100
AcDbSymbolTable
 70
    40
  0
BLOCK_RECORD
  5
A
102
{ACAD_XDICTIONARY
360
1BFA
102
}
330
1
100
AcDbSymbolTableRecord
100
AcDbBlockTableRecord
  2
*MODEL_SPACE
  0
BLOCK_RECORD
  5
B
102
{ACAD_XDICTIONARY
360
1BFC
102
}
330
1
100
AcDbSymbolTableRecord
100
AcDbBlockTableRecord
  2
*PAPER_SPACE
  0
BLOCK_RECORD
  5
726
330
1
100
AcDbSymbolTableRecord
100
AcDbBlockTableRecord
  2
_OPEN30
1001
CONTENTBLOCKICON
1071
        0
1004
2800000020000000200000000100080000000000000400000000000000000000000000000000000000000000000080000080000000808000800000008000800080800000C0C0C000C0DCC000F0CAA6000020400000206000002080000020A0000020C0000020E00000400000004020000040400000406000004080000040A0
1004
000040C0000040E00000600000006020000060400000606000006080000060A0000060C0000060E00000800000008020000080400000806000008080000080A0000080C0000080E00000A0000000A0200000A0400000A0600000A0800000A0A00000A0C00000A0E00000C0000000C0200000C0400000C0600000C0800000C0
1004
A00000C0C00000C0E00000E0000000E0200000E0400000E0600000E0800000E0A00000E0C00000E0E00040000000400020004000400040006000400080004000A0004000C0004000E00040200000402020004020400040206000402080004020A0004020C0004020E000404000004040200040404000404060004040800040
1004
40A0004040C0004040E00040600000406020004060400040606000406080004060A0004060C0004060E00040800000408020004080400040806000408080004080A0004080C0004080E00040A0000040A0200040A0400040A0600040A0800040A0A00040A0C00040A0E00040C0000040C0200040C0400040C0600040C08000
1004
40C0A00040C0C00040C0E00040E0000040E0200040E0400040E0600040E0800040E0A00040E0C00040E0E00080000000800020008000400080006000800080008000A0008000C0008000E00080200000802020008020400080206000802080008020A0008020C0008020E00080400000804020008040400080406000804080
1004
008040A0008040C0008040E00080600000806020008060400080606000806080008060A0008060C0008060E00080800000808020008080400080806000808080008080A0008080C0008080E00080A0000080A0200080A0400080A0600080A0800080A0A00080A0C00080A0E00080C0000080C0200080C0400080C0600080C0
1004
800080C0A00080C0C00080C0E00080E0000080E0200080E0400080E0600080E0800080E0A00080E0C00080E0E000C0000000C0002000C0004000C0006000C0008000C000A000C000C000C000E000C0200000C0202000C0204000C0206000C0208000C020A000C020C000C020E000C0400000C0402000C0404000C0406000C0
1004
408000C040A000C040C000C040E000C0600000C0602000C0604000C0606000C0608000C060A000C060C000C060E000C0800000C0802000C0804000C0806000C0808000C080A000C080C000C080E000C0A00000C0A02000C0A04000C0A06000C0A08000C0A0A000C0A0C000C0A0E000C0C00000C0C02000C0C04000C0C06000
1004
C0C08000C0C0A000F0FBFF00A4A0A000808080000000FF0000FF000000FFFF00FF000000FF00FF00FFFF0000FFFFFF0000000000000000000000000000000000000000000000000000000000000000000000000000000000000000000000000000000000000000000000000000000000000000000000000000000000000000
1004
00000000000000000000000000000000000000000000000000000000000000000000000000000000000000000000000000000000000000000000000000000000000000000000000000000000000000000000000000000000000000000000000000000000000000000000000000000000000000000000000000000000000000
1004
000000000000000000000000000000000000000000000000000000000000000000000000000000000000000000000000000000FFFF0000000000000000000000000000000000000000000000000000000000000000FFFFFFFF0000000000000000000000000000000000000000000000000000000000000000FFFFFFFF0000
1004
000000000000000000000000000000000000000000000000000000000000FFFFFF0000000000000000000000000000000000000000000000000000000000000000FFFFFFFF0000000000000000000000000000000000000000000000000000000000000000FFFFFF0000000000000000000000000000000000000000000000
1004
000000000000000000FFFFFFFF0000000000000000000000000000000000000000000000000000000000000000FFFFFFFF00000000FFFFFFFFFFFFFFFFFFFFFFFFFFFFFFFFFFFFFFFFFFFFFFFFFFFFFFFFFFFF00000000000000000000000000000000000000000000000000FFFFFFFF000000000000000000000000000000
1004
000000000000000000FFFFFFFF000000000000000000000000000000000000000000000000FFFFFFFF000000000000000000000000000000000000000000000000FFFFFFFF000000000000000000000000000000000000000000000000FFFFFFFF000000000000000000000000000000000000000000000000FFFFFFFF0000
1004
0000000000000000000000000000000000000000000000FFFFFF0000000000000000000000000000000000000000000000000000000000000000000000000000000000000000000000000000000000000000000000000000000000000000000000000000000000000000000000000000000000000000000000000000000000
1004
00000000000000000000000000000000000000000000000000000000000000000000000000000000000000000000000000000000000000000000000000000000000000000000000000000000000000000000000000000000000000000000000000000000000000000000000000000000000000000000000000000000000000
1004
0000000000000000000000000000000000000000000000000000000000000000000000000000000000000000000000000000000000000000
  0
BLOCK_RECORD
  5
7A8
330
1
100
AcDbSymbolTableRecord
100
AcDbBlockTableRecord
  2
*D1
  0
BLOCK_RECORD
  5
7B7
330
1
100
AcDbSymbolTableRecord
100
AcDbBlockTableRecord
  2
*D2
  0
BLOCK_RECORD
  5
7FF
330
1
100
AcDbSymbolTableRecord
100
AcDbBlockTableRecord
  2
*D3
  0
BLOCK_RECORD
  5
815
330
1
100
AcDbSymbolTableRecord
100
AcDbBlockTableRecord
  2
*D4
  0
BLOCK_RECORD
  5
822
330
1
100
AcDbSymbolTableRecord
100
AcDbBlockTableRecord
  2
*D5
  0
BLOCK_RECORD
  5
83C
330
1
100
AcDbSymbolTableRecord
100
AcDbBlockTableRecord
  2
*D6
  0
BLOCK_RECORD
  5
85E
330
1
100
AcDbSymbolTableRecord
100
AcDbBlockTableRecord
  2
*D7
  0
BLOCK_RECORD
  5
878
330
1
100
AcDbSymbolTableRecord
100
AcDbBlockTableRecord
  2
*D8
  0
BLOCK_RECORD
  5
892
330
1
100
AcDbSymbolTableRecord
100
AcDbBlockTableRecord
  2
*D9
  0
BLOCK_RECORD
  5
89F
330
1
100
AcDbSymbolTableRecord
100
AcDbBlockTableRecord
  2
*D10
  0
BLOCK_RECORD
  5
8AC
330
1
100
AcDbSymbolTableRecord
100
AcDbBlockTableRecord
  2
*D11
  0
BLOCK_RECORD
  5
8B9
330
1
100
AcDbSymbolTableRecord
100
AcDbBlockTableRecord
  2
*D12
  0
BLOCK_RECORD
  5
8E4
330
1
100
AcDbSymbolTableRecord
100
AcDbBlockTableRecord
  2
*D13
  0
BLOCK_RECORD
  5
8F1
330
1
100
AcDbSymbolTableRecord
100
AcDbBlockTableRecord
  2
*D14
  0
BLOCK_RECORD
  5
900
330
1
100
AcDbSymbolTableRecord
100
AcDbBlockTableRecord
  2
*D15
  0
BLOCK_RECORD
  5
97D
330
1
100
AcDbSymbolTableRecord
100
AcDbBlockTableRecord
  2
*D16
  0
BLOCK_RECORD
  5
9A6
330
1
100
AcDbSymbolTableRecord
100
AcDbBlockTableRecord
  2
*D17
  0
BLOCK_RECORD
  5
9B3
330
1
100
AcDbSymbolTableRecord
100
AcDbBlockTableRecord
  2
*D18
  0
BLOCK_RECORD
  5
9C0
330
1
100
AcDbSymbolTableRecord
100
AcDbBlockTableRecord
  2
*D19
  0
BLOCK_RECORD
  5
A6F
330
1
100
AcDbSymbolTableRecord
100
AcDbBlockTableRecord
  2
*D20
  0
BLOCK_RECORD
  5
A7C
330
1
100
AcDbSymbolTableRecord
100
AcDbBlockTableRecord
  2
*D21
  0
BLOCK_RECORD
  5
AE3
330
1
100
AcDbSymbolTableRecord
100
AcDbBlockTableRecord
  2
*D22
  0
BLOCK_RECORD
  5
AF2
330
1
100
AcDbSymbolTableRecord
100
AcDbBlockTableRecord
  2
*D23
  0
BLOCK_RECORD
  5
AFF
330
1
100
AcDbSymbolTableRecord
100
AcDbBlockTableRecord
  2
*D24
  0
BLOCK_RECORD
  5
B0C
330
1
100
AcDbSymbolTableRecord
100
AcDbBlockTableRecord
  2
*D25
  0
BLOCK_RECORD
  5
B19
330
1
100
AcDbSymbolTableRecord
100
AcDbBlockTableRecord
  2
*D26
  0
BLOCK_RECORD
  5
B28
330
1
100
AcDbSymbolTableRecord
100
AcDbBlockTableRecord
  2
*D27
  0
BLOCK_RECORD
  5
B35
330
1
100
AcDbSymbolTableRecord
100
AcDbBlockTableRecord
  2
*D28
  0
BLOCK_RECORD
  5
B44
330
1
100
AcDbSymbolTableRecord
100
AcDbBlockTableRecord
  2
*D29
  0
BLOCK_RECORD
  5
BB4
330
1
100
AcDbSymbolTableRecord
100
AcDbBlockTableRecord
  2
*D30
  0
BLOCK_RECORD
  5
BE0
330
1
100
AcDbSymbolTableRecord
100
AcDbBlockTableRecord
  2
*D31
  0
BLOCK_RECORD
  5
BF6
330
1
100
AcDbSymbolTableRecord
100
AcDbBlockTableRecord
  2
*D32
  0
BLOCK_RECORD
  5
C03
330
1
100
AcDbSymbolTableRecord
100
AcDbBlockTableRecord
  2
*D33
  0
BLOCK_RECORD
  5
C3D
330
1
100
AcDbSymbolTableRecord
100
AcDbBlockTableRecord
  2
_DOTSMALL
  0
BLOCK_RECORD
  5
12DA
330
1
100
AcDbSymbolTableRecord
100
AcDbBlockTableRecord
  2
_NONE
  0
BLOCK_RECORD
  5
19F7
330
1
100
AcDbSymbolTableRecord
100
AcDbBlockTableRecord
  2
*D36
  0
BLOCK_RECORD
  5
1A31
330
1
100
AcDbSymbolTableRecord
100
AcDbBlockTableRecord
  2
*D37
  0
BLOCK_RECORD
  5
1BBE
330
1
100
AcDbSymbolTableRecord
100
AcDbBlockTableRecord
  2
*D38
  0
BLOCK_RECORD
  5
1C2B
330
1
100
AcDbSymbolTableRecord
100
AcDbBlockTableRecord
  2
*X39
  0
ENDTAB
  0
ENDSEC
  0
SECTION
  2
BLOCKS
  0
BLOCK
  5
D
330
A
100
AcDbEntity
  8
0
100
AcDbBlockBegin
  2
*MODEL_SPACE
 70
     0
 10
0.0
 20
0.0
 30
0.0
  3
*MODEL_SPACE
  1

  0
ENDBLK
  5
E
330
A
100
AcDbEntity
  8
0
100
AcDbBlockEnd
  0
BLOCK
  5
F
330
B
100
AcDbEntity
 67
     1
  8
0
100
AcDbBlockBegin
  2
*PAPER_SPACE
 70
     0
 10
0.0
 20
0.0
 30
0.0
  3
*PAPER_SPACE
  1

  0
ENDBLK
  5
10
330
B
100
AcDbEntity
 67
     1
  8
0
100
AcDbBlockEnd
  0
BLOCK
  5
72A
330
726
100
AcDbEntity
  8
0
100
AcDbBlockBegin
  2
_OPEN30
 70
     0
 10
0.0
 20
0.0
 30
0.0
  3
_OPEN30
  1

  0
LINE
  5
727
330
726
100
AcDbEntity
  8
0
  6
BYBLOCK
 62
     0
100
AcDbLine
 10
-1.0
 20
0.26794919
 30
0.0
 11
0.0
 21
0.0
 31
0.0
  0
LINE
  5
728
330
726
100
AcDbEntity
  8
0
  6
BYBLOCK
 62
     0
100
AcDbLine
 10
0.0
 20
0.0
 30
0.0
 11
-1.0
 21
-0.26794919
 31
0.0
  0
LINE
  5
729
330
726
100
AcDbEntity
  8
0
  6
BYBLOCK
 62
     0
100
AcDbLine
 10
0.0
 20
0.0
 30
0.0
 11
-1.0
 21
0.0
 31
0.0
  0
ENDBLK
  5
72B
330
726
100
AcDbEntity
  8
0
100
AcDbBlockEnd
  0
BLOCK
  5
7B4
330
7A8
100
AcDbEntity
  8
0
100
AcDbBlockBegin
  2
*D1
 70
     1
 10
0.0
 20
0.0
 30
0.0
  3
*D1
  1

  0
LINE
  5
174E
330
7A8
100
AcDbEntity
  8
SUNPOU
100
AcDbLine
 10
264.7677428827012
 20
532.9983266026462
 30
0.0
 11
264.7677428827012
 21
521.2345575874626
 31
0.0
  0
LINE
  5
174F
330
7A8
100
AcDbEntity
  8
SUNPOU
100
AcDbLine
 10
261.7677428827012
 20
532.9983266026462
 30
0.0
 11
261.7677428827012
 21
521.2345575874626
 31
0.0
  0
LINE
  5
1750
330
7A8
100
AcDbEntity
  8
SUNPOU
100
AcDbLine
 10
269.7677428827012
 20
523.2345575874626
 30
0.0
 11
274.7677428827012
 21
523.2345575874626
 31
0.0
  0
LINE
  5
1751
330
7A8
100
AcDbEntity
  8
SUNPOU
100
AcDbLine
 10
256.7677428827012
 20
523.2345575874626
 30
0.0
 11
251.7677428827012
 21
523.2345575874626
 31
0.0
  0
MTEXT
  5
1752
330
7A8
100
AcDbEntity
  8
SUNPOU
 62
     6
100
AcDbMText
 10
272.2412755295374
 20
527.4119547127801
 30
0.0
 40
5.0
 41
0.0
 71
     5
 72
     1
  1
\A1;3
  7
SUNPOU
1001
ACAD
1000
MTEXTBEGIN
1070
    73
1070
     1
1070
    44
1040
1.0
1070
    74
1070
     0
1000
MTEXTEND
1000
MTEXTBEGIN
1070
    73
1070
     1
1070
    44
1040
1.0
1070
    74
1070
     0
1000
MTEXTEND
  0
LINE
  5
1753
330
7A8
100
AcDbEntity
  8
SUNPOU
100
AcDbLine
 10
264.7677428827012
 20
523.2345575874626
 30
0.0
 11
261.7677428827012
 21
523.2345575874626
 31
0.0
  0
INSERT
  5
1754
330
7A8
100
AcDbEntity
  8
SUNPOU
100
AcDbBlockReference
  2
_OPEN30
 10
264.7677428827012
 20
523.2345575874626
 30
0.0
 41
5.0
 42
5.0
 43
5.0
 50
180.0
  0
INSERT
  5
1755
330
7A8
100
AcDbEntity
  8
SUNPOU
100
AcDbBlockReference
  2
_OPEN30
 10
261.7677428827012
 20
523.2345575874626
 30
0.0
 41
5.0
 42
5.0
 43
5.0
  0
POINT
  5
1756
330
7A8
100
AcDbEntity
  8
DEFPOINTS
 62
     0
100
AcDbPoint
 10
264.7677428827012
 20
535.9983266026461
 30
0.0
  0
POINT
  5
1757
330
7A8
100
AcDbEntity
  8
DEFPOINTS
 62
     0
100
AcDbPoint
 10
261.7677428827012
 20
535.9983266026461
 30
0.0
  0
POINT
  5
1758
330
7A8
100
AcDbEntity
  8
DEFPOINTS
 62
     0
100
AcDbPoint
 10
261.7677428827012
 20
523.2345575874626
 30
0.0
  0
ENDBLK
  5
7B5
330
7A8
100
AcDbEntity
  8
0
100
AcDbBlockEnd
  0
BLOCK
  5
7C1
330
7B7
100
AcDbEntity
  8
0
100
AcDbBlockBegin
  2
*D2
 70
     1
 10
0.0
 20
0.0
 30
0.0
  3
*D2
  1

  0
LINE
  5
1762
330
7B7
100
AcDbEntity
  8
SUNPOU
100
AcDbLine
 10
261.7677428827012
 20
532.9983266026462
 30
0.0
 11
261.7677428827012
 21
521.2345575874626
 31
0.0
  0
LINE
  5
1763
330
7B7
100
AcDbEntity
  8
SUNPOU
100
AcDbLine
 10
147.7677428827011
 20
526.2345575874626
 30
0.0
 11
147.7677428827011
 21
525.2345575874626
 31
0.0
  0
LINE
  5
1764
330
7B7
100
AcDbEntity
  8
SUNPOU
100
AcDbLine
 10
256.7677428827012
 20
523.2345575874626
 30
0.0
 11
152.7677428827011
 21
523.2345575874626
 31
0.0
  0
INSERT
  5
1765
330
7B7
100
AcDbEntity
  8
SUNPOU
100
AcDbBlockReference
  2
_OPEN30
 10
261.7677428827012
 20
523.2345575874626
 30
0.0
 41
5.0
 42
5.0
 43
5.0
  0
INSERT
  5
1766
330
7B7
100
AcDbEntity
  8
SUNPOU
100
AcDbBlockReference
  2
_OPEN30
 10
147.7677428827011
 20
523.2345575874626
 30
0.0
 41
5.0
 42
5.0
 43
5.0
 50
180.0
  0
MTEXT
  5
1767
330
7B7
100
AcDbEntity
  8
SUNPOU
 62
     6
100
AcDbMText
 10
204.7677428827011
 20
527.7345575874626
 30
0.0
 40
5.0
 41
0.0
 71
     5
 72
     1
  1
\A1;114
  7
SUNPOU
1001
ACAD
1000
MTEXTBEGIN
1070
    73
1070
     1
1070
    44
1040
1.0
1070
    74
1070
     0
1000
MTEXTEND
1000
MTEXTBEGIN
1070
    73
1070
     1
1070
    44
1040
1.0
1070
    74
1070
     0
1000
MTEXTEND
  0
POINT
  5
1768
330
7B7
100
AcDbEntity
  8
DEFPOINTS
 62
     0
100
AcDbPoint
 10
261.7677428827012
 20
535.9983266026461
 30
0.0
  0
POINT
  5
1769
330
7B7
100
AcDbEntity
  8
DEFPOINTS
 62
     0
100
AcDbPoint
 10
147.7677428827011
 20
523.2345575874626
 30
0.0
  0
POINT
  5
176A
330
7B7
100
AcDbEntity
  8
DEFPOINTS
 62
     0
100
AcDbPoint
 10
147.7677428827011
 20
523.2345575874626
 30
0.0
  0
ENDBLK
  5
7C2
330
7B7
100
AcDbEntity
  8
0
100
AcDbBlockEnd
  0
BLOCK
  5
809
330
7FF
100
AcDbEntity
  8
0
100
AcDbBlockBegin
  2
*D3
 70
     1
 10
0.0
 20
0.0
 30
0.0
  3
*D3
  1

  0
LINE
  5
1B7C
330
7FF
100
AcDbEntity
  8
SUNPOU
100
AcDbLine
 10
174.7677428827011
 20
464.266275792647
 30
0.0
 11
174.7677428827011
 21
470.7135893143749
 31
0.0
  0
LINE
  5
1B7D
330
7FF
100
AcDbEntity
  8
SUNPOU
100
AcDbLine
 10
308.7677428827012
 20
464.266275792647
 30
0.0
 11
308.7677428827012
 21
470.7135893143749
 31
0.0
  0
LINE
  5
1B7E
330
7FF
100
AcDbEntity
  8
SUNPOU
100
AcDbLine
 10
179.7677428827011
 20
468.7135893143747
 30
0.0
 11
303.7677428827012
 21
468.7135893143747
 31
0.0
  0
INSERT
  5
1B7F
330
7FF
100
AcDbEntity
  8
SUNPOU
100
AcDbBlockReference
  2
_OPEN30
 10
174.7677428827011
 20
468.7135893143747
 30
0.0
 41
5.0
 42
5.0
 43
5.0
 50
180.0
  0
INSERT
  5
1B80
330
7FF
100
AcDbEntity
  8
SUNPOU
100
AcDbBlockReference
  2
_OPEN30
 10
308.7677428827012
 20
468.7135893143747
 30
0.0
 41
5.0
 42
5.0
 43
5.0
  0
MTEXT
  5
1B81
330
7FF
100
AcDbEntity
  8
SUNPOU
 62
     6
100
AcDbMText
 10
241.7677428827011
 20
473.2135893143746
 30
0.0
 40
5.0
 41
0.0
 71
     5
 72
     1
  1
\A1;134
  7
SUNPOU
1001
ACAD
1000
MTEXTBEGIN
1070
    73
1070
     1
1070
    44
1040
1.0
1070
    74
1070
     0
1000
MTEXTEND
1000
MTEXTBEGIN
1070
    73
1070
     1
1070
    44
1040
1.0
1070
    74
1070
     0
1000
MTEXTEND
  0
POINT
  5
1B82
330
7FF
100
AcDbEntity
  8
DEFPOINTS
 62
     0
100
AcDbPoint
 10
174.7677428827011
 20
461.266275792647
 30
0.0
  0
POINT
  5
1B83
330
7FF
100
AcDbEntity
  8
DEFPOINTS
 62
     0
100
AcDbPoint
 10
308.7677428827012
 20
461.266275792647
 30
0.0
  0
POINT
  5
1B84
330
7FF
100
AcDbEntity
  8
DEFPOINTS
 62
     0
100
AcDbPoint
 10
308.7677428827012
 20
468.7135893143747
 30
0.0
  0
ENDBLK
  5
80A
330
7FF
100
AcDbEntity
  8
0
100
AcDbBlockEnd
  0
BLOCK
  5
81F
330
815
100
AcDbEntity
  8
0
100
AcDbBlockBegin
  2
*D4
 70
     1
 10
0.0
 20
0.0
 30
0.0
  3
*D4
  1

  0
LINE
  5
1A6D
330
815
100
AcDbEntity
  8
SUNPOU
100
AcDbLine
 10
147.7677428827011
 20
405.498326602647
 30
0.0
 11
147.7677428827011
 21
419.1146470294794
 31
0.0
  0
LINE
  5
1A6E
330
815
100
AcDbEntity
  8
SUNPOU
100
AcDbLine
 10
174.7677428827011
 20
405.498326602647
 30
0.0
 11
174.7677428827011
 21
419.1146470294794
 31
0.0
  0
LINE
  5
1A6F
330
815
100
AcDbEntity
  8
SUNPOU
100
AcDbLine
 10
152.7677428827011
 20
417.1146470294795
 30
0.0
 11
169.7677428827011
 21
417.1146470294795
 31
0.0
  0
INSERT
  5
1A70
330
815
100
AcDbEntity
  8
SUNPOU
100
AcDbBlockReference
  2
_OPEN30
 10
147.7677428827011
 20
417.1146470294795
 30
0.0
 41
5.0
 42
5.0
 43
5.0
 50
180.0
  0
INSERT
  5
1A71
330
815
100
AcDbEntity
  8
SUNPOU
100
AcDbBlockReference
  2
_OPEN30
 10
174.7677428827011
 20
417.1146470294795
 30
0.0
 41
5.0
 42
5.0
 43
5.0
  0
MTEXT
  5
1A72
330
815
100
AcDbEntity
  8
SUNPOU
 62
     6
100
AcDbMText
 10
161.2677428827011
 20
421.6146470294795
 30
0.0
 40
5.0
 41
0.0
 71
     5
 72
     1
  1
\A1;27
  7
SUNPOU
1001
ACAD
1000
MTEXTBEGIN
1070
    73
1070
     1
1070
    44
1040
1.0
1070
    74
1070
     0
1000
MTEXTEND
1000
MTEXTBEGIN
1070
    73
1070
     1
1070
    44
1040
1.0
1070
    74
1070
     0
1000
MTEXTEND
  0
POINT
  5
1A73
330
815
100
AcDbEntity
  8
DEFPOINTS
 62
     0
100
AcDbPoint
 10
147.7677428827011
 20
402.4983266026468
 30
0.0
  0
POINT
  5
1A74
330
815
100
AcDbEntity
  8
DEFPOINTS
 62
     0
100
AcDbPoint
 10
174.7677428827011
 20
402.4983266026468
 30
0.0
  0
POINT
  5
1A75
330
815
100
AcDbEntity
  8
DEFPOINTS
 62
     0
100
AcDbPoint
 10
174.7677428827011
 20
417.1146470294795
 30
0.0
  0
ENDBLK
  5
820
330
815
100
AcDbEntity
  8
0
100
AcDbBlockEnd
  0
BLOCK
  5
82C
330
822
100
AcDbEntity
  8
0
100
AcDbBlockBegin
  2
*D5
 70
     1
 10
0.0
 20
0.0
 30
0.0
  3
*D5
  1

  0
LINE
  5
1A76
330
822
100
AcDbEntity
  8
SUNPOU
100
AcDbLine
 10
174.7677428827011
 20
405.498326602647
 30
0.0
 11
174.7677428827011
 21
419.1146470294794
 31
0.0
  0
LINE
  5
1A77
330
822
100
AcDbEntity
  8
SUNPOU
100
AcDbLine
 10
199.7677428827011
 20
420.1146470294794
 30
0.0
 11
199.7677428827011
 21
419.1146470294794
 31
0.0
  0
LINE
  5
1A78
330
822
100
AcDbEntity
  8
SUNPOU
100
AcDbLine
 10
179.7677428827011
 20
417.1146470294795
 30
0.0
 11
194.7677428827011
 21
417.1146470294795
 31
0.0
  0
INSERT
  5
1A79
330
822
100
AcDbEntity
  8
SUNPOU
100
AcDbBlockReference
  2
_OPEN30
 10
174.7677428827011
 20
417.1146470294795
 30
0.0
 41
5.0
 42
5.0
 43
5.0
 50
180.0
  0
INSERT
  5
1A7A
330
822
100
AcDbEntity
  8
SUNPOU
100
AcDbBlockReference
  2
_OPEN30
 10
199.7677428827011
 20
417.1146470294795
 30
0.0
 41
5.0
 42
5.0
 43
5.0
  0
MTEXT
  5
1A7B
330
822
100
AcDbEntity
  8
SUNPOU
 62
     6
100
AcDbMText
 10
187.2677428827011
 20
421.6146470294795
 30
0.0
 40
5.0
 41
0.0
 71
     5
 72
     1
  1
\A1;25
  7
SUNPOU
1001
ACAD
1000
MTEXTBEGIN
1070
    73
1070
     1
1070
    44
1040
1.0
1070
    74
1070
     0
1000
MTEXTEND
1000
MTEXTBEGIN
1070
    73
1070
     1
1070
    44
1040
1.0
1070
    74
1070
     0
1000
MTEXTEND
  0
POINT
  5
1A7C
330
822
100
AcDbEntity
  8
DEFPOINTS
 62
     0
100
AcDbPoint
 10
174.7677428827011
 20
402.4983266026468
 30
0.0
  0
POINT
  5
1A7D
330
822
100
AcDbEntity
  8
DEFPOINTS
 62
     0
100
AcDbPoint
 10
199.7677428827011
 20
417.1146470294795
 30
0.0
  0
POINT
  5
1A7E
330
822
100
AcDbEntity
  8
DEFPOINTS
 62
     0
100
AcDbPoint
 10
199.7677428827011
 20
417.1146470294795
 30
0.0
  0
ENDBLK
  5
82D
330
822
100
AcDbEntity
  8
0
100
AcDbBlockEnd
  0
BLOCK
  5
843
330
83C
100
AcDbEntity
  8
0
100
AcDbBlockBegin
  2
*D6
 70
     1
 10
0.0
 20
0.0
 30
0.0
  3
*D6
  1

  0
LINE
  5
176B
330
83C
100
AcDbEntity
  8
SUNPOU
100
AcDbLine
 10
236.8455653366661
 20
454.5936262474048
 30
0.0
 11
241.0783912354083
 21
457.2550516006579
 31
0.0
  0
LINE
  5
176C
330
83C
100
AcDbEntity
  8
SUNPOU
100
AcDbLine
 10
202.9829581467298
 20
433.3022234213798
 30
0.0
 11
198.7501322479876
 21
430.6407980681266
 31
0.0
  0
MTEXT
  5
176D
330
83C
100
AcDbEntity
  8
SUNPOU
 62
     6
100
AcDbMText
 10
219.667177417733
 20
443.7317469959003
 30
0.0
 40
5.0
 41
0.0
 71
     5
 72
     1
  1
\A1;φ30通線穴\P両端
  7
SUNPOU
 11
0.846565179748411
 21
0.5322850706506249
 31
0.0
1001
ACAD
1000
MTEXTBEGIN
1070
    73
1070
     1
1070
    44
1040
1.0
1070
    74
1070
     0
1000
MTEXTEND
1000
MTEXTBEGIN
1070
    73
1070
     1
1070
    44
1040
1.0
1070
    74
1070
     0
1000
MTEXTEND
  0
LINE
  5
176E
330
83C
100
AcDbEntity
  8
SUNPOU
100
AcDbLine
 10
232.6127394379243
 20
451.9322008941516
 30
0.0
 11
207.2157840454718
 21
435.9636487746328
 31
0.0
  0
INSERT
  5
176F
330
83C
100
AcDbEntity
  8
SUNPOU
100
AcDbBlockReference
  2
_OPEN30
 10
232.6127394379243
 20
451.9322008941516
 30
0.0
 41
5.0
 42
5.0
 43
5.0
 50
212.159978251943
  0
INSERT
  5
1770
330
83C
100
AcDbEntity
  8
SUNPOU
100
AcDbBlockReference
  2
_OPEN30
 10
207.2157840454718
 20
435.9636487746328
 30
0.0
 41
5.0
 42
5.0
 43
5.0
 50
32.15997825194302
  0
POINT
  5
1771
330
83C
100
AcDbEntity
  8
DEFPOINTS
 62
     0
100
AcDbPoint
 10
207.2157840454718
 20
435.9636487746328
 30
0.0
  0
POINT
  5
1772
330
83C
100
AcDbEntity
  8
DEFPOINTS
 62
     0
100
AcDbPoint
 10
232.6127394379243
 20
451.9322008941516
 30
0.0
  0
ENDBLK
  5
844
330
83C
100
AcDbEntity
  8
0
100
AcDbBlockEnd
  0
BLOCK
  5
868
330
85E
100
AcDbEntity
  8
0
100
AcDbBlockBegin
  2
*D7
 70
     1
 10
0.0
 20
0.0
 30
0.0
  3
*D7
  1

  0
LINE
  5
143F
330
85E
100
AcDbEntity
  8
SUNPOU
100
AcDbLine
 10
151.3677428827011
 20
502.4983266026461
 30
0.0
 11
83.01465379252951
 21
502.4983266026461
 31
0.0
  0
LINE
  5
1440
330
85E
100
AcDbEntity
  8
SUNPOU
100
AcDbLine
 10
145.3677428827011
 20
484.498326602647
 30
0.0
 11
83.01465379252951
 21
484.4983266026471
 31
0.0
  0
LINE
  5
1441
330
85E
100
AcDbEntity
  8
SUNPOU
100
AcDbLine
 10
85.0146537925295
 20
497.4983266026463
 30
0.0
 11
85.0146537925295
 21
489.498326602647
 31
0.0
  0
INSERT
  5
1442
330
85E
100
AcDbEntity
  8
SUNPOU
100
AcDbBlockReference
  2
_OPEN30
 10
85.0146537925295
 20
502.4983266026461
 30
0.0
 41
5.0
 42
5.0
 43
5.0
 50
90.0
  0
INSERT
  5
1443
330
85E
100
AcDbEntity
  8
SUNPOU
100
AcDbBlockReference
  2
_OPEN30
 10
85.0146537925295
 20
484.4983266026471
 30
0.0
 41
5.0
 42
5.0
 43
5.0
 50
270.0
  0
MTEXT
  5
1444
330
85E
100
AcDbEntity
  8
SUNPOU
 62
     6
100
AcDbMText
 10
80.51465379252942
 20
493.4983266026466
 30
0.0
 40
5.0
 41
0.0
 71
     5
 72
     1
  1
\A1;18
  7
SUNPOU
 11
0.0000000000000001
 21
1.0
 31
0.0
1001
ACAD
1000
MTEXTBEGIN
1070
    73
1070
     1
1070
    44
1040
1.0
1070
    74
1070
     0
1000
MTEXTEND
1000
MTEXTBEGIN
1070
    73
1070
     1
1070
    44
1040
1.0
1070
    74
1070
     0
1000
MTEXTEND
  0
POINT
  5
1445
330
85E
100
AcDbEntity
  8
DEFPOINTS
 62
     0
100
AcDbPoint
 10
154.3677428827011
 20
502.4983266026461
 30
0.0
  0
POINT
  5
1446
330
85E
100
AcDbEntity
  8
DEFPOINTS
 62
     0
100
AcDbPoint
 10
148.3677428827011
 20
484.498326602647
 30
0.0
  0
POINT
  5
1447
330
85E
100
AcDbEntity
  8
DEFPOINTS
 62
     0
100
AcDbPoint
 10
85.0146537925295
 20
484.4983266026471
 30
0.0
  0
ENDBLK
  5
869
330
85E
100
AcDbEntity
  8
0
100
AcDbBlockEnd
  0
BLOCK
  5
882
330
878
100
AcDbEntity
  8
0
100
AcDbBlockBegin
  2
*D8
 70
     1
 10
0.0
 20
0.0
 30
0.0
  3
*D8
  1

  0
LINE
  5
194C
330
878
100
AcDbEntity
  8
SUNPOU
100
AcDbLine
 10
161.7677428827011
 20
402.4983266026468
 30
0.0
 11
98.7641606222801
 21
402.4983266026468
 31
0.0
  0
LINE
  5
194D
330
878
100
AcDbEntity
  8
SUNPOU
100
AcDbLine
 10
146.367742882701
 20
302.4983266026468
 30
0.0
 11
98.7641606222801
 21
302.498326602647
 31
0.0
  0
LINE
  5
194E
330
878
100
AcDbEntity
  8
SUNPOU
100
AcDbLine
 10
100.7641606222801
 20
397.498326602647
 30
0.0
 11
100.7641606222799
 21
307.498326602647
 31
0.0
  0
MTEXT
  5
194F
330
878
100
AcDbEntity
  8
SUNPOU
 62
     6
100
AcDbMText
 10
94.09214845217295
 20
345.4527168608235
 30
0.0
 40
5.0
 41
0.0
 71
     5
 72
     1
  1
\A1;100(モータ芯)
  7
SUNPOU
 11
0.0000000000000001
 21
1.0
 31
0.0
1001
ACAD
1000
MTEXTBEGIN
1070
    73
1070
     1
1070
    44
1040
1.0
1070
    74
1070
     0
1000
MTEXTEND
1000
MTEXTBEGIN
1070
    73
1070
     1
1070
    44
1040
1.0
1070
    74
1070
     0
1000
MTEXTEND
  0
INSERT
  5
1950
330
878
100
AcDbEntity
  8
SUNPOU
100
AcDbBlockReference
  2
_OPEN30
 10
100.7641606222801
 20
402.4983266026468
 30
0.0
 41
5.0
 42
5.0
 43
5.0
 50
90.0
  0
INSERT
  5
1951
330
878
100
AcDbEntity
  8
SUNPOU
100
AcDbBlockReference
  2
_OPEN30
 10
100.7641606222799
 20
302.498326602647
 30
0.0
 41
5.0
 42
5.0
 43
5.0
 50
270.0
  0
POINT
  5
1952
330
878
100
AcDbEntity
  8
DEFPOINTS
 62
     0
100
AcDbPoint
 10
164.7677428827011
 20
402.4983266026468
 30
0.0
  0
POINT
  5
1953
330
878
100
AcDbEntity
  8
DEFPOINTS
 62
     0
100
AcDbPoint
 10
149.3677428827011
 20
302.4983266026468
 30
0.0
  0
POINT
  5
1954
330
878
100
AcDbEntity
  8
DEFPOINTS
 62
     0
100
AcDbPoint
 10
100.7641606222799
 20
302.498326602647
 30
0.0
  0
ENDBLK
  5
883
330
878
100
AcDbEntity
  8
0
100
AcDbBlockEnd
  0
BLOCK
  5
89C
330
892
100
AcDbEntity
  8
0
100
AcDbBlockBegin
  2
*D9
 70
     1
 10
0.0
 20
0.0
 30
0.0
  3
*D9
  1

  0
LINE
  5
19AC
330
892
100
AcDbEntity
  8
SUNPOU
100
AcDbLine
 10
181.9677498637646
 20
362.498326602647
 30
0.0
 11
112.8406089764239
 21
362.498326602647
 31
0.0
  0
LINE
  5
19AD
330
892
100
AcDbEntity
  8
SUNPOU
100
AcDbLine
 10
146.367742882701
 20
302.4983266026468
 30
0.0
 11
112.8406089764239
 21
302.498326602647
 31
0.0
  0
LINE
  5
19AE
330
892
100
AcDbEntity
  8
SUNPOU
100
AcDbLine
 10
114.8406089764239
 20
357.498326602647
 30
0.0
 11
114.8406089764239
 21
307.498326602647
 31
0.0
  0
INSERT
  5
19AF
330
892
100
AcDbEntity
  8
SUNPOU
100
AcDbBlockReference
  2
_OPEN30
 10
114.8406089764239
 20
362.498326602647
 30
0.0
 41
5.0
 42
5.0
 43
5.0
 50
90.0
  0
INSERT
  5
19B0
330
892
100
AcDbEntity
  8
SUNPOU
100
AcDbBlockReference
  2
_OPEN30
 10
114.8406089764239
 20
302.498326602647
 30
0.0
 41
5.0
 42
5.0
 43
5.0
 50
270.0
  0
MTEXT
  5
19B1
330
892
100
AcDbEntity
  8
SUNPOU
 62
     6
100
AcDbMText
 10
110.3406089764239
 20
332.498326602647
 30
0.0
 40
5.0
 41
0.0
 71
     5
 72
     1
  1
\A1;60
  7
SUNPOU
 11
0.0000000000000001
 21
1.0
 31
0.0
1001
ACAD
1000
MTEXTBEGIN
1070
    73
1070
     1
1070
    44
1040
1.0
1070
    74
1070
     0
1000
MTEXTEND
1000
MTEXTBEGIN
1070
    73
1070
     1
1070
    44
1040
1.0
1070
    74
1070
     0
1000
MTEXTEND
  0
POINT
  5
19B2
330
892
100
AcDbEntity
  8
DEFPOINTS
 62
     0
100
AcDbPoint
 10
184.9677498637646
 20
362.498326602647
 30
0.0
  0
POINT
  5
19B3
330
892
100
AcDbEntity
  8
DEFPOINTS
 62
     0
100
AcDbPoint
 10
149.3677428827011
 20
302.4983266026468
 30
0.0
  0
POINT
  5
19B4
330
892
100
AcDbEntity
  8
DEFPOINTS
 62
     0
100
AcDbPoint
 10
114.8406089764239
 20
302.498326602647
 30
0.0
  0
ENDBLK
  5
89D
330
892
100
AcDbEntity
  8
0
100
AcDbBlockEnd
  0
BLOCK
  5
8A9
330
89F
100
AcDbEntity
  8
0
100
AcDbBlockBegin
  2
*D10
 70
     1
 10
0.0
 20
0.0
 30
0.0
  3
*D10
  1

  0
LINE
  5
14C9
330
89F
100
AcDbEntity
  8
SUNPOU
100
AcDbLine
 10
318.1677428827011
 20
502.4983266026468
 30
0.0
 11
355.8872507913128
 21
502.4983266026468
 31
0.0
  0
LINE
  5
14CA
330
89F
100
AcDbEntity
  8
SUNPOU
100
AcDbLine
 10
318.1677428827011
 20
302.498326602647
 30
0.0
 11
355.8872507913128
 21
302.498326602647
 31
0.0
  0
LINE
  5
14CB
330
89F
100
AcDbEntity
  8
SUNPOU
100
AcDbLine
 10
353.8872507913128
 20
497.4983266026468
 30
0.0
 11
353.8872507913128
 21
307.498326602647
 31
0.0
  0
INSERT
  5
14CC
330
89F
100
AcDbEntity
  8
SUNPOU
100
AcDbBlockReference
  2
_OPEN30
 10
353.8872507913128
 20
502.4983266026468
 30
0.0
 41
5.0
 42
5.0
 43
5.0
 50
90.0
  0
INSERT
  5
14CD
330
89F
100
AcDbEntity
  8
SUNPOU
100
AcDbBlockReference
  2
_OPEN30
 10
353.8872507913128
 20
302.498326602647
 30
0.0
 41
5.0
 42
5.0
 43
5.0
 50
270.0
  0
MTEXT
  5
14CE
330
89F
100
AcDbEntity
  8
SUNPOU
 62
     6
100
AcDbMText
 10
349.3872507913127
 20
402.4983266026468
 30
0.0
 40
5.0
 41
0.0
 71
     5
 72
     1
  1
\A1;200
  7
SUNPOU
 11
0.0000000000000001
 21
1.0
 31
0.0
1001
ACAD
1000
MTEXTBEGIN
1070
    73
1070
     1
1070
    44
1040
1.0
1070
    74
1070
     0
1000
MTEXTEND
1000
MTEXTBEGIN
1070
    73
1070
     1
1070
    44
1040
1.0
1070
    74
1070
     0
1000
MTEXTEND
  0
POINT
  5
14CF
330
89F
100
AcDbEntity
  8
DEFPOINTS
 62
     0
100
AcDbPoint
 10
315.1677428827011
 20
502.4983266026468
 30
0.0
  0
POINT
  5
14D0
330
89F
100
AcDbEntity
  8
DEFPOINTS
 62
     0
100
AcDbPoint
 10
315.1677428827011
 20
302.498326602647
 30
0.0
  0
POINT
  5
14D1
330
89F
100
AcDbEntity
  8
DEFPOINTS
 62
     0
100
AcDbPoint
 10
353.8872507913128
 20
302.498326602647
 30
0.0
  0
ENDBLK
  5
8AA
330
89F
100
AcDbEntity
  8
0
100
AcDbBlockEnd
  0
BLOCK
  5
8B6
330
8AC
100
AcDbEntity
  8
0
100
AcDbBlockBegin
  2
*D11
 70
     1
 10
0.0
 20
0.0
 30
0.0
  3
*D11
  1

  0
LINE
  5
148F
330
8AC
100
AcDbEntity
  8
SUNPOU
100
AcDbLine
 10
318.1677428827011
 20
302.498326602647
 30
0.0
 11
355.8872507913128
 21
302.498326602647
 31
0.0
  0
LINE
  5
1490
330
8AC
100
AcDbEntity
  8
SUNPOU
100
AcDbLine
 10
350.8872507913128
 20
107.4983266026469
 30
0.0
 11
351.8872507913127
 21
107.4983266026469
 31
0.0
  0
LINE
  5
1491
330
8AC
100
AcDbEntity
  8
SUNPOU
100
AcDbLine
 10
353.8872507913128
 20
297.498326602647
 30
0.0
 11
353.8872507913127
 21
112.498326602647
 31
0.0
  0
MTEXT
  5
1492
330
8AC
100
AcDbEntity
  8
SUNPOU
 62
     6
100
AcDbMText
 10
348.5508870535453
 20
194.6972376231077
 30
0.0
 40
5.0
 41
0.0
 71
     5
 72
     1
  1
\A1;H
  7
SUNPOU
 11
0.0000000000000001
 21
1.0
 31
0.0
1001
ACAD
1000
MTEXTBEGIN
1070
    73
1070
     1
1070
    44
1040
1.0
1070
    74
1070
     0
1000
MTEXTEND
1000
MTEXTBEGIN
1070
    73
1070
     1
1070
    44
1040
1.0
1070
    74
1070
     0
1000
MTEXTEND
  0
INSERT
  5
1493
330
8AC
100
AcDbEntity
  8
SUNPOU
100
AcDbBlockReference
  2
_OPEN30
 10
353.8872507913128
 20
302.498326602647
 30
0.0
 41
5.0
 42
5.0
 43
5.0
 50
90.0
  0
INSERT
  5
1494
330
8AC
100
AcDbEntity
  8
SUNPOU
100
AcDbBlockReference
  2
_OPEN30
 10
353.8872507913127
 20
107.4983266026469
 30
0.0
 41
5.0
 42
5.0
 43
5.0
 50
270.0
  0
POINT
  5
1495
330
8AC
100
AcDbEntity
  8
DEFPOINTS
 62
     0
100
AcDbPoint
 10
315.1677428827011
 20
302.498326602647
 30
0.0
  0
POINT
  5
1496
330
8AC
100
AcDbEntity
  8
DEFPOINTS
 62
     0
100
AcDbPoint
 10
353.8872507913128
 20
107.4983266026469
 30
0.0
  0
POINT
  5
1497
330
8AC
100
AcDbEntity
  8
DEFPOINTS
 62
     0
100
AcDbPoint
 10
353.8872507913127
 20
107.4983266026469
 30
0.0
  0
ENDBLK
  5
8B7
330
8AC
100
AcDbEntity
  8
0
100
AcDbBlockEnd
  0
BLOCK
  5
8C5
330
8B9
100
AcDbEntity
  8
0
100
AcDbBlockBegin
  2
*D12
 70
     1
 10
0.0
 20
0.0
 30
0.0
  3
*D12
  1

  0
LINE
  5
195E
330
8B9
100
AcDbEntity
  8
SUNPOU
100
AcDbLine
 10
253.7677428827012
 20
107.4983266026469
 30
0.0
 11
341.2721365558118
 21
107.4983266026469
 31
0.0
  0
LINE
  5
195F
330
8B9
100
AcDbEntity
  8
SUNPOU
100
AcDbLine
 10
243.7677428827011
 20
117.4983266026468
 30
0.0
 11
341.2721365558118
 21
117.4983266026468
 31
0.0
  0
LINE
  5
1960
330
8B9
100
AcDbEntity
  8
SUNPOU
100
AcDbLine
 10
339.2721365558118
 20
102.4983266026469
 30
0.0
 11
339.2721365558118
 21
97.49832660264694
 31
0.0
  0
LINE
  5
1961
330
8B9
100
AcDbEntity
  8
SUNPOU
100
AcDbLine
 10
339.2721365558118
 20
122.4983266026469
 30
0.0
 11
339.2721365558118
 21
127.4983266026469
 31
0.0
  0
LINE
  5
1962
330
8B9
100
AcDbEntity
  8
SUNPOU
100
AcDbLine
 10
339.2721365558118
 20
107.4983266026469
 30
0.0
 11
339.2721365558118
 21
117.4983266026468
 31
0.0
  0
INSERT
  5
1963
330
8B9
100
AcDbEntity
  8
SUNPOU
100
AcDbBlockReference
  2
_OPEN30
 10
339.2721365558118
 20
107.4983266026469
 30
0.0
 41
5.0
 42
5.0
 43
5.0
 50
90.0
  0
INSERT
  5
1964
330
8B9
100
AcDbEntity
  8
SUNPOU
100
AcDbBlockReference
  2
_OPEN30
 10
339.2721365558118
 20
117.4983266026468
 30
0.0
 41
5.0
 42
5.0
 43
5.0
 50
270.0
  0
MTEXT
  5
1965
330
8B9
100
AcDbEntity
  8
SUNPOU
 62
     6
100
AcDbMText
 10
334.7721365558118
 20
112.4983266026468
 30
0.0
 40
5.0
 41
0.0
 71
     5
 72
     1
  1
\A1;10
  7
SUNPOU
 11
0.0000000000000001
 21
1.0
 31
0.0
1001
ACAD
1000
MTEXTBEGIN
1070
    73
1070
     1
1070
    44
1040
1.0
1070
    74
1070
     0
1000
MTEXTEND
1000
MTEXTBEGIN
1070
    73
1070
     1
1070
    44
1040
1.0
1070
    74
1070
     0
1000
MTEXTEND
  0
POINT
  5
1966
330
8B9
100
AcDbEntity
  8
DEFPOINTS
 62
     0
100
AcDbPoint
 10
250.7677428827011
 20
107.4983266026469
 30
0.0
  0
POINT
  5
1967
330
8B9
100
AcDbEntity
  8
DEFPOINTS
 62
     0
100
AcDbPoint
 10
240.7677428827011
 20
117.4983266026468
 30
0.0
  0
POINT
  5
1968
330
8B9
100
AcDbEntity
  8
DEFPOINTS
 62
     0
100
AcDbPoint
 10
339.2721365558118
 20
117.4983266026468
 30
0.0
  0
ENDBLK
  5
8C6
330
8B9
100
AcDbEntity
  8
0
100
AcDbBlockEnd
  0
BLOCK
  5
8EE
330
8E4
100
AcDbEntity
  8
0
100
AcDbBlockBegin
  2
*D13
 70
     1
 10
0.0
 20
0.0
 30
0.0
  3
*D13
  1

  0
LINE
  5
1486
330
8E4
100
AcDbEntity
  8
SUNPOU
100
AcDbLine
 10
267.7677428827012
 20
117.498326602647
 30
0.0
 11
341.2721365558118
 21
117.498326602647
 31
0.0
  0
LINE
  5
1487
330
8E4
100
AcDbEntity
  8
SUNPOU
100
AcDbLine
 10
267.7677428827012
 20
312.498326602647
 30
0.0
 11
341.2721365558118
 21
312.498326602647
 31
0.0
  0
LINE
  5
1488
330
8E4
100
AcDbEntity
  8
SUNPOU
100
AcDbLine
 10
339.2721365558118
 20
122.4983266026469
 30
0.0
 11
339.2721365558118
 21
307.498326602647
 31
0.0
  0
MTEXT
  5
1489
330
8E4
100
AcDbEntity
  8
SUNPOU
 62
     6
100
AcDbMText
 10
334.6148167366596
 20
205.0465722135701
 30
0.0
 40
5.0
 41
0.0
 71
     5
 72
     1
  1
\A1;DH
  7
SUNPOU
 11
0.0000000000000001
 21
1.0
 31
0.0
1001
ACAD
1000
MTEXTBEGIN
1070
    73
1070
     1
1070
    44
1040
1.0
1070
    74
1070
     0
1000
MTEXTEND
1000
MTEXTBEGIN
1070
    73
1070
     1
1070
    44
1040
1.0
1070
    74
1070
     0
1000
MTEXTEND
  0
INSERT
  5
148A
330
8E4
100
AcDbEntity
  8
SUNPOU
100
AcDbBlockReference
  2
_OPEN30
 10
339.2721365558118
 20
117.498326602647
 30
0.0
 41
5.0
 42
5.0
 43
5.0
 50
270.0
  0
INSERT
  5
148B
330
8E4
100
AcDbEntity
  8
SUNPOU
100
AcDbBlockReference
  2
_OPEN30
 10
339.2721365558118
 20
312.498326602647
 30
0.0
 41
5.0
 42
5.0
 43
5.0
 50
90.0
  0
POINT
  5
148C
330
8E4
100
AcDbEntity
  8
DEFPOINTS
 62
     0
100
AcDbPoint
 10
264.7677428827012
 20
117.498326602647
 30
0.0
  0
POINT
  5
148D
330
8E4
100
AcDbEntity
  8
DEFPOINTS
 62
     0
100
AcDbPoint
 10
264.7677428827012
 20
312.498326602647
 30
0.0
  0
POINT
  5
148E
330
8E4
100
AcDbEntity
  8
DEFPOINTS
 62
     0
100
AcDbPoint
 10
339.2721365558118
 20
312.498326602647
 30
0.0
  0
ENDBLK
  5
8EF
330
8E4
100
AcDbEntity
  8
0
100
AcDbBlockEnd
  0
BLOCK
  5
8FD
330
8F1
100
AcDbEntity
  8
0
100
AcDbBlockBegin
  2
*D14
 70
     1
 10
0.0
 20
0.0
 30
0.0
  3
*D14
  1

  0
LINE
  5
147B
330
8F1
100
AcDbEntity
  8
SUNPOU
100
AcDbLine
 10
318.1677428827011
 20
302.498326602647
 30
0.0
 11
330.7071650523478
 21
302.498326602647
 31
0.0
  0
LINE
  5
147C
330
8F1
100
AcDbEntity
  8
SUNPOU
100
AcDbLine
 10
242.2677428827011
 20
312.498326602647
 30
0.0
 11
330.7071650523478
 21
312.498326602647
 31
0.0
  0
LINE
  5
147D
330
8F1
100
AcDbEntity
  8
SUNPOU
100
AcDbLine
 10
328.7071650523478
 20
297.498326602647
 30
0.0
 11
328.7071650523478
 21
292.498326602647
 31
0.0
  0
LINE
  5
147E
330
8F1
100
AcDbEntity
  8
SUNPOU
100
AcDbLine
 10
328.7071650523478
 20
317.498326602647
 30
0.0
 11
328.7071650523478
 21
322.498326602647
 31
0.0
  0
LINE
  5
147F
330
8F1
100
AcDbEntity
  8
SUNPOU
100
AcDbLine
 10
328.7071650523478
 20
302.498326602647
 30
0.0
 11
328.7071650523478
 21
312.498326602647
 31
0.0
  0
INSERT
  5
1480
330
8F1
100
AcDbEntity
  8
SUNPOU
100
AcDbBlockReference
  2
_OPEN30
 10
328.7071650523478
 20
302.498326602647
 30
0.0
 41
5.0
 42
5.0
 43
5.0
 50
90.0
  0
INSERT
  5
1481
330
8F1
100
AcDbEntity
  8
SUNPOU
100
AcDbBlockReference
  2
_OPEN30
 10
328.7071650523478
 20
312.498326602647
 30
0.0
 41
5.0
 42
5.0
 43
5.0
 50
270.0
  0
MTEXT
  5
1482
330
8F1
100
AcDbEntity
  8
SUNPOU
 62
     6
100
AcDbMText
 10
324.2071650523478
 20
307.498326602647
 30
0.0
 40
5.0
 41
0.0
 71
     5
 72
     1
  1
\A1;10
  7
SUNPOU
 11
0.0000000000000001
 21
1.0
 31
0.0
1001
ACAD
1000
MTEXTBEGIN
1070
    73
1070
     1
1070
    44
1040
1.0
1070
    74
1070
     0
1000
MTEXTEND
1000
MTEXTBEGIN
1070
    73
1070
     1
1070
    44
1040
1.0
1070
    74
1070
     0
1000
MTEXTEND
  0
POINT
  5
1483
330
8F1
100
AcDbEntity
  8
DEFPOINTS
 62
     0
100
AcDbPoint
 10
315.1677428827011
 20
302.498326602647
 30
0.0
  0
POINT
  5
1484
330
8F1
100
AcDbEntity
  8
DEFPOINTS
 62
     0
100
AcDbPoint
 10
239.2677428827012
 20
312.498326602647
 30
0.0
  0
POINT
  5
1485
330
8F1
100
AcDbEntity
  8
DEFPOINTS
 62
     0
100
AcDbPoint
 10
328.7071650523478
 20
312.498326602647
 30
0.0
  0
ENDBLK
  5
8FE
330
8F1
100
AcDbEntity
  8
0
100
AcDbBlockEnd
  0
BLOCK
  5
90C
330
900
100
AcDbEntity
  8
0
100
AcDbBlockBegin
  2
*D15
 70
     1
 10
0.0
 20
0.0
 30
0.0
  3
*D15
  1

  0
LINE
  5
1C04
330
900
100
AcDbEntity
  8
SUNPOU
100
AcDbLine
 10
144.7677428827011
 20
299.4983266026468
 30
0.0
 11
144.7677428827011
 21
269.0868558709419
 31
0.0
  0
LINE
  5
1C05
330
900
100
AcDbEntity
  8
SUNPOU
100
AcDbLine
 10
147.7677428827011
 20
301.0983266026468
 30
0.0
 11
147.7677428827011
 21
269.0868558709419
 31
0.0
  0
LINE
  5
1C06
330
900
100
AcDbEntity
  8
SUNPOU
100
AcDbLine
 10
139.7677428827011
 20
271.0868558709421
 30
0.0
 11
134.7677428827011
 21
271.0868558709421
 31
0.0
  0
LINE
  5
1C07
330
900
100
AcDbEntity
  8
SUNPOU
100
AcDbLine
 10
147.7677428827011
 20
271.0868558709421
 30
0.0
 11
152.7677428827011
 21
271.0868558709421
 31
0.0
  0
MTEXT
  5
1C08
330
900
100
AcDbEntity
  8
SUNPOU
 62
     6
100
AcDbMText
 10
141.000602562512
 20
276.3751383924548
 30
0.0
 40
5.0
 41
0.0
 71
     5
 72
     1
  1
\A1;3
  7
SUNPOU
1001
ACAD
1000
MTEXTBEGIN
1070
    73
1070
     1
1070
    44
1040
1.0
1070
    74
1070
     0
1000
MTEXTEND
1000
MTEXTBEGIN
1070
    73
1070
     1
1070
    44
1040
1.0
1070
    74
1070
     0
1000
MTEXTEND
  0
LINE
  5
1C09
330
900
100
AcDbEntity
  8
SUNPOU
100
AcDbLine
 10
144.7677428827011
 20
271.0868558709421
 30
0.0
 11
147.7677428827011
 21
271.0868558709421
 31
0.0
  0
INSERT
  5
1C0A
330
900
100
AcDbEntity
  8
SUNPOU
100
AcDbBlockReference
  2
_OPEN30
 10
144.7677428827011
 20
271.0868558709421
 30
0.0
 41
5.0
 42
5.0
 43
5.0
  0
INSERT
  5
1C0B
330
900
100
AcDbEntity
  8
SUNPOU
100
AcDbBlockReference
  2
_DOTSMALL
 10
147.7677428827011
 20
271.0868558709421
 30
0.0
 41
5.0
 42
5.0
 43
5.0
 50
180.0
  0
POINT
  5
1C0C
330
900
100
AcDbEntity
  8
DEFPOINTS
 62
     0
100
AcDbPoint
 10
144.7677428827011
 20
302.4983266026468
 30
0.0
  0
POINT
  5
1C0D
330
900
100
AcDbEntity
  8
DEFPOINTS
 62
     0
100
AcDbPoint
 10
147.7677428827011
 20
304.0983266026468
 30
0.0
  0
POINT
  5
1C0E
330
900
100
AcDbEntity
  8
DEFPOINTS
 62
     0
100
AcDbPoint
 10
147.7677428827011
 20
271.0868558709421
 30
0.0
  0
ENDBLK
  5
90D
330
900
100
AcDbEntity
  8
0
100
AcDbBlockEnd
  0
BLOCK
  5
987
330
97D
100
AcDbEntity
  8
0
100
AcDbBlockBegin
  2
*D16
 70
     1
 10
0.0
 20
0.0
 30
0.0
  3
*D16
  1

  0
LINE
  5
1412
330
97D
100
AcDbEntity
  8
SUNPOU
100
AcDbLine
 10
159.7631568750393
 20
215.498326602647
 30
0.0
 11
118.5083006304878
 21
215.498326602647
 31
0.0
  0
LINE
  5
1413
330
97D
100
AcDbEntity
  8
SUNPOU
100
AcDbLine
 10
159.7631568750393
 20
107.4983266026469
 30
0.0
 11
118.5083006304877
 21
107.4983266026469
 31
0.0
  0
LINE
  5
1414
330
97D
100
AcDbEntity
  8
SUNPOU
100
AcDbLine
 10
120.5083006304878
 20
210.498326602647
 30
0.0
 11
120.5083006304877
 21
112.498326602647
 31
0.0
  0
INSERT
  5
1415
330
97D
100
AcDbEntity
  8
SUNPOU
100
AcDbBlockReference
  2
_OPEN30
 10
120.5083006304878
 20
215.498326602647
 30
0.0
 41
5.0
 42
5.0
 43
5.0
 50
90.0
  0
INSERT
  5
1416
330
97D
100
AcDbEntity
  8
SUNPOU
100
AcDbBlockReference
  2
_OPEN30
 10
120.5083006304877
 20
107.4983266026469
 30
0.0
 41
5.0
 42
5.0
 43
5.0
 50
270.0
  0
MTEXT
  5
1417
330
97D
100
AcDbEntity
  8
SUNPOU
 62
     6
100
AcDbMText
 10
116.0083006304877
 20
161.498326602647
 30
0.0
 40
5.0
 41
0.0
 71
     5
 72
     1
  1
\A1;600
  7
SUNPOU
 11
0.0000000000000001
 21
1.0
 31
0.0
1001
ACAD
1000
MTEXTBEGIN
1070
    73
1070
     1
1070
    44
1040
1.0
1070
    74
1070
     0
1000
MTEXTEND
1000
MTEXTBEGIN
1070
    73
1070
     1
1070
    44
1040
1.0
1070
    74
1070
     0
1000
MTEXTEND
  0
POINT
  5
1418
330
97D
100
AcDbEntity
  8
DEFPOINTS
 62
     0
100
AcDbPoint
 10
162.7631568750393
 20
215.498326602647
 30
0.0
  0
POINT
  5
1419
330
97D
100
AcDbEntity
  8
DEFPOINTS
 62
     0
100
AcDbPoint
 10
162.7631568750393
 20
107.4983266026469
 30
0.0
  0
POINT
  5
141A
330
97D
100
AcDbEntity
  8
DEFPOINTS
 62
     0
100
AcDbPoint
 10
120.5083006304877
 20
107.4983266026469
 30
0.0
  0
ENDBLK
  5
988
330
97D
100
AcDbEntity
  8
0
100
AcDbBlockEnd
  0
BLOCK
  5
9B0
330
9A6
100
AcDbEntity
  8
0
100
AcDbBlockBegin
  2
*D17
 70
     1
 10
0.0
 20
0.0
 30
0.0
  3
*D17
  1

  0
LINE
  5
1472
330
9A6
100
AcDbEntity
  8
SUNPOU
100
AcDbLine
 10
242.2677428827011
 20
312.498326602647
 30
0.0
 11
292.450859572027
 21
312.498326602647
 31
0.0
  0
LINE
  5
1473
330
9A6
100
AcDbEntity
  8
SUNPOU
100
AcDbLine
 10
234.9874859339896
 20
227.4983266026469
 30
0.0
 11
292.450859572027
 21
227.4983266026469
 31
0.0
  0
LINE
  5
1474
330
9A6
100
AcDbEntity
  8
SUNPOU
100
AcDbLine
 10
290.450859572027
 20
307.498326602647
 30
0.0
 11
290.450859572027
 21
232.4983266026468
 31
0.0
  0
MTEXT
  5
1475
330
9A6
100
AcDbEntity
  8
SUNPOU
 62
     6
100
AcDbMText
 10
284.7258408710072
 20
255.0695906379907
 30
0.0
 40
5.0
 41
0.0
 71
     5
 72
     1
  1
\A1;85
  7
SUNPOU
 11
0.0000000000000001
 21
1.0
 31
0.0
1001
ACAD
1000
MTEXTBEGIN
1070
    73
1070
     1
1070
    44
1040
1.0
1070
    74
1070
     0
1000
MTEXTEND
1000
MTEXTBEGIN
1070
    73
1070
     1
1070
    44
1040
1.0
1070
    74
1070
     0
1000
MTEXTEND
  0
INSERT
  5
1476
330
9A6
100
AcDbEntity
  8
SUNPOU
100
AcDbBlockReference
  2
_OPEN30
 10
290.450859572027
 20
312.498326602647
 30
0.0
 41
5.0
 42
5.0
 43
5.0
 50
90.0
  0
INSERT
  5
1477
330
9A6
100
AcDbEntity
  8
SUNPOU
100
AcDbBlockReference
  2
_OPEN30
 10
290.450859572027
 20
227.4983266026469
 30
0.0
 41
5.0
 42
5.0
 43
5.0
 50
270.0
  0
POINT
  5
1478
330
9A6
100
AcDbEntity
  8
DEFPOINTS
 62
     0
100
AcDbPoint
 10
239.2677428827012
 20
312.498326602647
 30
0.0
  0
POINT
  5
1479
330
9A6
100
AcDbEntity
  8
DEFPOINTS
 62
     0
100
AcDbPoint
 10
231.9874859339897
 20
227.4983266026469
 30
0.0
  0
POINT
  5
147A
330
9A6
100
AcDbEntity
  8
DEFPOINTS
 62
     0
100
AcDbPoint
 10
290.450859572027
 20
227.4983266026469
 30
0.0
  0
ENDBLK
  5
9B1
330
9A6
100
AcDbEntity
  8
0
100
AcDbBlockEnd
  0
BLOCK
  5
9BD
330
9B3
100
AcDbEntity
  8
0
100
AcDbBlockBegin
  2
*D18
 70
     1
 10
0.0
 20
0.0
 30
0.0
  3
*D18
  1

  0
LINE
  5
13C9
330
9B3
100
AcDbEntity
  8
SUNPOU
100
AcDbLine
 10
144.7677428827011
 20
261.4155813741419
 30
0.0
 11
144.7677428827011
 21
260.415581374142
 31
0.0
  0
LINE
  5
13CA
330
9B3
100
AcDbEntity
  8
SUNPOU
100
AcDbLine
 10
264.7677428827012
 20
261.4155813741419
 30
0.0
 11
264.7677428827012
 21
260.415581374142
 31
0.0
  0
LINE
  5
13CB
330
9B3
100
AcDbEntity
  8
SUNPOU
100
AcDbLine
 10
149.767742882701
 20
258.415581374142
 30
0.0
 11
259.7677428827012
 21
258.415581374142
 31
0.0
  0
MTEXT
  5
13CC
330
9B3
100
AcDbEntity
  8
SUNPOU
 62
     6
100
AcDbMText
 10
191.5016526410659
 20
263.8384596745841
 30
0.0
 40
5.0
 41
0.0
 71
     5
 72
     1
  1
\A1;120
  7
SUNPOU
1001
ACAD
1000
MTEXTBEGIN
1070
    73
1070
     1
1070
    44
1040
1.0
1070
    74
1070
     0
1000
MTEXTEND
1000
MTEXTBEGIN
1070
    73
1070
     1
1070
    44
1040
1.0
1070
    74
1070
     0
1000
MTEXTEND
  0
INSERT
  5
13CD
330
9B3
100
AcDbEntity
  8
SUNPOU
100
AcDbBlockReference
  2
_OPEN30
 10
144.7677428827011
 20
258.415581374142
 30
0.0
 41
5.0
 42
5.0
 43
5.0
 50
180.0
  0
INSERT
  5
13CE
330
9B3
100
AcDbEntity
  8
SUNPOU
100
AcDbBlockReference
  2
_OPEN30
 10
264.7677428827012
 20
258.415581374142
 30
0.0
 41
5.0
 42
5.0
 43
5.0
  0
POINT
  5
13CF
330
9B3
100
AcDbEntity
  8
DEFPOINTS
 62
     0
100
AcDbPoint
 10
144.7677428827011
 20
258.415581374142
 30
0.0
  0
POINT
  5
13D0
330
9B3
100
AcDbEntity
  8
DEFPOINTS
 62
     0
100
AcDbPoint
 10
264.7677428827012
 20
258.415581374142
 30
0.0
  0
POINT
  5
13D1
330
9B3
100
AcDbEntity
  8
DEFPOINTS
 62
     0
100
AcDbPoint
 10
264.7677428827012
 20
258.415581374142
 30
0.0
  0
ENDBLK
  5
9BE
330
9B3
100
AcDbEntity
  8
0
100
AcDbBlockEnd
  0
BLOCK
  5
9CA
330
9C0
100
AcDbEntity
  8
0
100
AcDbBlockBegin
  2
*D19
 70
     1
 10
0.0
 20
0.0
 30
0.0
  3
*D19
  1

  0
LINE
  5
1885
330
9C0
100
AcDbEntity
  8
SUNPOU
100
AcDbLine
 10
147.7677428827011
 20
301.0983266026468
 30
0.0
 11
147.7677428827011
 21
244.2835100474185
 31
0.0
  0
LINE
  5
1886
330
9C0
100
AcDbEntity
  8
SUNPOU
100
AcDbLine
 10
317.7677428827012
 20
301.098326602647
 30
0.0
 11
317.7677428827012
 21
244.2835100474185
 31
0.0
  0
LINE
  5
1887
330
9C0
100
AcDbEntity
  8
SUNPOU
100
AcDbLine
 10
152.7677428827011
 20
246.2835100474185
 30
0.0
 11
312.7677428827012
 21
246.2835100474185
 31
0.0
  0
MTEXT
  5
1888
330
9C0
100
AcDbEntity
  8
SUNPOU
 62
     6
100
AcDbMText
 10
225.767742882701
 20
251.6379511311071
 30
0.0
 40
5.0
 41
0.0
 71
     5
 72
     1
  1
\A1;170
  7
SUNPOU
1001
ACAD
1000
MTEXTBEGIN
1070
    73
1070
     1
1070
    44
1040
1.0
1070
    74
1070
     0
1000
MTEXTEND
1000
MTEXTBEGIN
1070
    73
1070
     1
1070
    44
1040
1.0
1070
    74
1070
     0
1000
MTEXTEND
  0
INSERT
  5
1889
330
9C0
100
AcDbEntity
  8
SUNPOU
100
AcDbBlockReference
  2
_OPEN30
 10
147.7677428827011
 20
246.2835100474185
 30
0.0
 41
5.0
 42
5.0
 43
5.0
 50
180.0
  0
INSERT
  5
188A
330
9C0
100
AcDbEntity
  8
SUNPOU
100
AcDbBlockReference
  2
_OPEN30
 10
317.7677428827012
 20
246.2835100474185
 30
0.0
 41
5.0
 42
5.0
 43
5.0
  0
POINT
  5
188B
330
9C0
100
AcDbEntity
  8
DEFPOINTS
 62
     0
100
AcDbPoint
 10
147.7677428827011
 20
304.0983266026468
 30
0.0
  0
POINT
  5
188C
330
9C0
100
AcDbEntity
  8
DEFPOINTS
 62
     0
100
AcDbPoint
 10
317.7677428827012
 20
304.098326602647
 30
0.0
  0
POINT
  5
188D
330
9C0
100
AcDbEntity
  8
DEFPOINTS
 62
     0
100
AcDbPoint
 10
317.7677428827012
 20
246.2835100474185
 30
0.0
  0
ENDBLK
  5
9CB
330
9C0
100
AcDbEntity
  8
0
100
AcDbBlockEnd
  0
BLOCK
  5
A79
330
A6F
100
AcDbEntity
  8
0
100
AcDbBlockBegin
  2
*D20
 70
     1
 10
0.0
 20
0.0
 30
0.0
  3
*D20
  1

  0
LINE
  5
14AE
330
A6F
100
AcDbEntity
  8
SUNPOU
100
AcDbLine
 10
252.2677428827012
 20
85.4983266026471
 30
0.0
 11
300.202430258646
 21
85.4983266026471
 31
0.0
  0
LINE
  5
14AF
330
A6F
100
AcDbEntity
  8
SUNPOU
100
AcDbLine
 10
252.2677428827011
 20
110.498326602647
 30
0.0
 11
300.202430258646
 21
110.498326602647
 31
0.0
  0
LINE
  5
14B0
330
A6F
100
AcDbEntity
  8
SUNPOU
100
AcDbLine
 10
298.202430258646
 20
90.4983266026471
 30
0.0
 11
298.202430258646
 21
105.4983266026471
 31
0.0
  0
MTEXT
  5
14B1
330
A6F
100
AcDbEntity
  8
SUNPOU
 62
     6
100
AcDbMText
 10
302.7620676199798
 20
97.97830654911535
 30
0.0
 40
5.0
 41
0.0
 71
     5
 72
     1
  1
\A1;25
  7
SUNPOU
 11
0.0000000000000001
 21
1.0
 31
0.0
1001
ACAD
1000
MTEXTBEGIN
1070
    73
1070
     1
1070
    44
1040
1.0
1070
    74
1070
     0
1000
MTEXTEND
1000
MTEXTBEGIN
1070
    73
1070
     1
1070
    44
1040
1.0
1070
    74
1070
     0
1000
MTEXTEND
  0
INSERT
  5
14B2
330
A6F
100
AcDbEntity
  8
SUNPOU
100
AcDbBlockReference
  2
_OPEN30
 10
298.202430258646
 20
85.4983266026471
 30
0.0
 41
5.0
 42
5.0
 43
5.0
 50
270.0
  0
INSERT
  5
14B3
330
A6F
100
AcDbEntity
  8
SUNPOU
100
AcDbBlockReference
  2
_OPEN30
 10
298.202430258646
 20
110.498326602647
 30
0.0
 41
5.0
 42
5.0
 43
5.0
 50
90.0
  0
POINT
  5
14B4
330
A6F
100
AcDbEntity
  8
DEFPOINTS
 62
     0
100
AcDbPoint
 10
249.2677428827013
 20
85.4983266026471
 30
0.0
  0
POINT
  5
14B5
330
A6F
100
AcDbEntity
  8
DEFPOINTS
 62
     0
100
AcDbPoint
 10
249.2677428827011
 20
110.498326602647
 30
0.0
  0
POINT
  5
14B6
330
A6F
100
AcDbEntity
  8
DEFPOINTS
 62
     0
100
AcDbPoint
 10
298.202430258646
 20
110.498326602647
 30
0.0
  0
ENDBLK
  5
A7A
330
A6F
100
AcDbEntity
  8
0
100
AcDbBlockEnd
  0
BLOCK
  5
A86
330
A7C
100
AcDbEntity
  8
0
100
AcDbBlockBegin
  2
*D21
 70
     1
 10
0.0
 20
0.0
 30
0.0
  3
*D21
  1

  0
LINE
  5
184E
330
A7C
100
AcDbEntity
  8
SUNPOU
100
AcDbLine
 10
218.2677428827012
 20
81.49832660264712
 30
0.0
 11
218.2677428827012
 21
69.44538579541938
 31
0.0
  0
LINE
  5
184F
330
A7C
100
AcDbEntity
  8
SUNPOU
100
AcDbLine
 10
235.2677428827012
 20
81.49832660264712
 30
0.0
 11
235.2677428827012
 21
69.44538579541938
 31
0.0
  0
LINE
  5
1850
330
A7C
100
AcDbEntity
  8
SUNPOU
100
AcDbLine
 10
223.2677428827011
 20
71.44538579541938
 30
0.0
 11
230.2677428827011
 21
71.44538579541938
 31
0.0
  0
INSERT
  5
1851
330
A7C
100
AcDbEntity
  8
SUNPOU
100
AcDbBlockReference
  2
_OPEN30
 10
218.2677428827012
 20
71.44538579541938
 30
0.0
 41
5.0
 42
5.0
 43
5.0
 50
180.0
  0
INSERT
  5
1852
330
A7C
100
AcDbEntity
  8
SUNPOU
100
AcDbBlockReference
  2
_OPEN30
 10
235.2677428827012
 20
71.44538579541938
 30
0.0
 41
5.0
 42
5.0
 43
5.0
  0
MTEXT
  5
1853
330
A7C
100
AcDbEntity
  8
SUNPOU
 62
     6
100
AcDbMText
 10
226.7677428827012
 20
75.94538579541938
 30
0.0
 40
5.0
 41
0.0
 71
     5
 72
     1
  1
\A1;17
  7
SUNPOU
1001
ACAD
1000
MTEXTBEGIN
1070
    73
1070
     1
1070
    44
1040
1.0
1070
    74
1070
     0
1000
MTEXTEND
1000
MTEXTBEGIN
1070
    73
1070
     1
1070
    44
1040
1.0
1070
    74
1070
     0
1000
MTEXTEND
  0
POINT
  5
1854
330
A7C
100
AcDbEntity
  8
DEFPOINTS
 62
     0
100
AcDbPoint
 10
218.2677428827012
 20
84.49832660264712
 30
0.0
  0
POINT
  5
1855
330
A7C
100
AcDbEntity
  8
DEFPOINTS
 62
     0
100
AcDbPoint
 10
235.2677428827012
 20
84.49832660264712
 30
0.0
  0
POINT
  5
1856
330
A7C
100
AcDbEntity
  8
DEFPOINTS
 62
     0
100
AcDbPoint
 10
235.2677428827012
 20
71.44538579541938
 30
0.0
  0
ENDBLK
  5
A87
330
A7C
100
AcDbEntity
  8
0
100
AcDbBlockEnd
  0
BLOCK
  5
AEF
330
AE3
100
AcDbEntity
  8
0
100
AcDbBlockBegin
  2
*D22
 70
     1
 10
0.0
 20
0.0
 30
0.0
  3
*D22
  1

  0
LINE
  5
1C0F
330
AE3
100
AcDbEntity
  8
SUNPOU
100
AcDbLine
 10
147.7677428827011
 20
301.0983266026468
 30
0.0
 11
147.7677428827011
 21
269.0868558709419
 31
0.0
  0
LINE
  5
1C10
330
AE3
100
AcDbEntity
  8
SUNPOU
100
AcDbLine
 10
150.7677428827011
 20
299.4983266026468
 30
0.0
 11
150.7677428827011
 21
269.0868558709419
 31
0.0
  0
LINE
  5
1C11
330
AE3
100
AcDbEntity
  8
SUNPOU
100
AcDbLine
 10
147.7677428827011
 20
271.0868558709421
 30
0.0
 11
137.7677428827012
 21
271.0868558709421
 31
0.0
  0
LINE
  5
1C12
330
AE3
100
AcDbEntity
  8
SUNPOU
100
AcDbLine
 10
150.7677428827011
 20
271.0868558709421
 30
0.0
 11
160.7677428827011
 21
271.0868558709421
 31
0.0
  0
MTEXT
  5
1C13
330
AE3
100
AcDbEntity
  8
SUNPOU
 62
     6
100
AcDbMText
 10
153.2977092055362
 20
266.2897068167008
 30
0.0
 40
5.0
 41
0.0
 71
     5
 72
     1
  1
\A1;3
  7
SUNPOU
1001
ACAD
1000
MTEXTBEGIN
1070
    73
1070
     1
1070
    44
1040
1.0
1070
    74
1070
     0
1000
MTEXTEND
1000
MTEXTBEGIN
1070
    73
1070
     1
1070
    44
1040
1.0
1070
    74
1070
     0
1000
MTEXTEND
  0
LINE
  5
1C14
330
AE3
100
AcDbEntity
  8
SUNPOU
100
AcDbLine
 10
147.7677428827011
 20
271.0868558709421
 30
0.0
 11
150.7677428827011
 21
271.0868558709421
 31
0.0
  0
INSERT
  5
1C15
330
AE3
100
AcDbEntity
  8
SUNPOU
100
AcDbBlockReference
  2
_DOTSMALL
 10
147.7677428827011
 20
271.0868558709421
 30
0.0
 41
10.0
 42
10.0
 43
10.0
  0
POINT
  5
1C16
330
AE3
100
AcDbEntity
  8
DEFPOINTS
 62
     0
100
AcDbPoint
 10
147.7677428827011
 20
304.0983266026468
 30
0.0
  0
POINT
  5
1C17
330
AE3
100
AcDbEntity
  8
DEFPOINTS
 62
     0
100
AcDbPoint
 10
150.7677428827011
 20
302.4983266026468
 30
0.0
  0
POINT
  5
1C18
330
AE3
100
AcDbEntity
  8
DEFPOINTS
 62
     0
100
AcDbPoint
 10
150.7677428827011
 20
271.0868558709421
 30
0.0
  0
ENDBLK
  5
AF0
330
AE3
100
AcDbEntity
  8
0
100
AcDbBlockEnd
  0
BLOCK
  5
AFC
330
AF2
100
AcDbEntity
  8
0
100
AcDbBlockBegin
  2
*D23
 70
     1
 10
0.0
 20
0.0
 30
0.0
  3
*D23
  1

  0
LINE
  5
17AC
330
AF2
100
AcDbEntity
  8
SUNPOU
100
AcDbLine
 10
150.7677428827011
 20
299.4983266026468
 30
0.0
 11
150.7677428827011
 21
269.0868558709419
 31
0.0
  0
LINE
  5
17AD
330
AF2
100
AcDbEntity
  8
SUNPOU
100
AcDbLine
 10
172.7677428827011
 20
301.0983266026468
 30
0.0
 11
172.7677428827011
 21
269.0868558709419
 31
0.0
  0
LINE
  5
17AE
330
AF2
100
AcDbEntity
  8
SUNPOU
100
AcDbLine
 10
155.7677428827011
 20
271.0868558709421
 30
0.0
 11
167.7677428827012
 21
271.0868558709421
 31
0.0
  0
INSERT
  5
17AF
330
AF2
100
AcDbEntity
  8
SUNPOU
100
AcDbBlockReference
  2
_OPEN30
 10
150.7677428827011
 20
271.0868558709421
 30
0.0
 41
5.0
 42
5.0
 43
5.0
 50
180.0
  0
INSERT
  5
17B0
330
AF2
100
AcDbEntity
  8
SUNPOU
100
AcDbBlockReference
  2
_OPEN30
 10
172.7677428827011
 20
271.0868558709421
 30
0.0
 41
5.0
 42
5.0
 43
5.0
  0
MTEXT
  5
17B1
330
AF2
100
AcDbEntity
  8
SUNPOU
 62
     6
100
AcDbMText
 10
161.7677428827011
 20
275.5868558709419
 30
0.0
 40
5.0
 41
0.0
 71
     5
 72
     1
  1
\A1;22
  7
SUNPOU
1001
ACAD
1000
MTEXTBEGIN
1070
    73
1070
     1
1070
    44
1040
1.0
1070
    74
1070
     0
1000
MTEXTEND
1000
MTEXTBEGIN
1070
    73
1070
     1
1070
    44
1040
1.0
1070
    74
1070
     0
1000
MTEXTEND
  0
POINT
  5
17B2
330
AF2
100
AcDbEntity
  8
DEFPOINTS
 62
     0
100
AcDbPoint
 10
150.7677428827011
 20
302.4983266026468
 30
0.0
  0
POINT
  5
17B3
330
AF2
100
AcDbEntity
  8
DEFPOINTS
 62
     0
100
AcDbPoint
 10
172.7677428827011
 20
304.0983266026468
 30
0.0
  0
POINT
  5
17B4
330
AF2
100
AcDbEntity
  8
DEFPOINTS
 62
     0
100
AcDbPoint
 10
172.7677428827011
 20
271.0868558709421
 30
0.0
  0
ENDBLK
  5
AFD
330
AF2
100
AcDbEntity
  8
0
100
AcDbBlockEnd
  0
BLOCK
  5
B09
330
AFF
100
AcDbEntity
  8
0
100
AcDbBlockBegin
  2
*D24
 70
     1
 10
0.0
 20
0.0
 30
0.0
  3
*D24
  1

  0
LINE
  5
17B5
330
AFF
100
AcDbEntity
  8
SUNPOU
100
AcDbLine
 10
172.7677428827011
 20
301.0983266026468
 30
0.0
 11
172.7677428827011
 21
269.0868558709419
 31
0.0
  0
LINE
  5
17B6
330
AFF
100
AcDbEntity
  8
SUNPOU
100
AcDbLine
 10
188.7677428827011
 20
301.0983266026468
 30
0.0
 11
188.7677428827011
 21
269.0868558709419
 31
0.0
  0
LINE
  5
17B7
330
AFF
100
AcDbEntity
  8
SUNPOU
100
AcDbLine
 10
177.767742882701
 20
271.0868558709421
 30
0.0
 11
183.7677428827011
 21
271.0868558709421
 31
0.0
  0
INSERT
  5
17B8
330
AFF
100
AcDbEntity
  8
SUNPOU
100
AcDbBlockReference
  2
_OPEN30
 10
172.7677428827011
 20
271.0868558709421
 30
0.0
 41
5.0
 42
5.0
 43
5.0
 50
180.0
  0
INSERT
  5
17B9
330
AFF
100
AcDbEntity
  8
SUNPOU
100
AcDbBlockReference
  2
_OPEN30
 10
188.7677428827011
 20
271.0868558709421
 30
0.0
 41
5.0
 42
5.0
 43
5.0
  0
MTEXT
  5
17BA
330
AFF
100
AcDbEntity
  8
SUNPOU
 62
     6
100
AcDbMText
 10
180.7677428827011
 20
275.5868558709419
 30
0.0
 40
5.0
 41
0.0
 71
     5
 72
     1
  1
\A1;16
  7
SUNPOU
1001
ACAD
1000
MTEXTBEGIN
1070
    73
1070
     1
1070
    44
1040
1.0
1070
    74
1070
     0
1000
MTEXTEND
1000
MTEXTBEGIN
1070
    73
1070
     1
1070
    44
1040
1.0
1070
    74
1070
     0
1000
MTEXTEND
  0
POINT
  5
17BB
330
AFF
100
AcDbEntity
  8
DEFPOINTS
 62
     0
100
AcDbPoint
 10
172.7677428827011
 20
304.0983266026468
 30
0.0
  0
POINT
  5
17BC
330
AFF
100
AcDbEntity
  8
DEFPOINTS
 62
     0
100
AcDbPoint
 10
188.7677428827011
 20
304.0983266026468
 30
0.0
  0
POINT
  5
17BD
330
AFF
100
AcDbEntity
  8
DEFPOINTS
 62
     0
100
AcDbPoint
 10
188.7677428827011
 20
271.0868558709421
 30
0.0
  0
ENDBLK
  5
B0A
330
AFF
100
AcDbEntity
  8
0
100
AcDbBlockEnd
  0
BLOCK
  5
B16
330
B0C
100
AcDbEntity
  8
0
100
AcDbBlockBegin
  2
*D25
 70
     1
 10
0.0
 20
0.0
 30
0.0
  3
*D25
  1

  0
LINE
  5
17C7
330
B0C
100
AcDbEntity
  8
SUNPOU
100
AcDbLine
 10
188.7677428827011
 20
301.0983266026468
 30
0.0
 11
188.7677428827011
 21
269.0868558709419
 31
0.0
  0
LINE
  5
17C8
330
B0C
100
AcDbEntity
  8
SUNPOU
100
AcDbLine
 10
207.7677428827011
 20
309.498326602647
 30
0.0
 11
207.7677428827011
 21
269.0868558709419
 31
0.0
  0
LINE
  5
17C9
330
B0C
100
AcDbEntity
  8
SUNPOU
100
AcDbLine
 10
193.7677428827011
 20
271.0868558709421
 30
0.0
 11
202.7677428827011
 21
271.0868558709421
 31
0.0
  0
INSERT
  5
17CA
330
B0C
100
AcDbEntity
  8
SUNPOU
100
AcDbBlockReference
  2
_OPEN30
 10
188.7677428827011
 20
271.0868558709421
 30
0.0
 41
5.0
 42
5.0
 43
5.0
 50
180.0
  0
INSERT
  5
17CB
330
B0C
100
AcDbEntity
  8
SUNPOU
100
AcDbBlockReference
  2
_OPEN30
 10
207.7677428827011
 20
271.0868558709421
 30
0.0
 41
5.0
 42
5.0
 43
5.0
  0
MTEXT
  5
17CC
330
B0C
100
AcDbEntity
  8
SUNPOU
 62
     6
100
AcDbMText
 10
198.2677428827011
 20
275.5868558709419
 30
0.0
 40
5.0
 41
0.0
 71
     5
 72
     1
  1
\A1;19
  7
SUNPOU
1001
ACAD
1000
MTEXTBEGIN
1070
    73
1070
     1
1070
    44
1040
1.0
1070
    74
1070
     0
1000
MTEXTEND
1000
MTEXTBEGIN
1070
    73
1070
     1
1070
    44
1040
1.0
1070
    74
1070
     0
1000
MTEXTEND
  0
POINT
  5
17CD
330
B0C
100
AcDbEntity
  8
DEFPOINTS
 62
     0
100
AcDbPoint
 10
188.7677428827011
 20
304.0983266026468
 30
0.0
  0
POINT
  5
17CE
330
B0C
100
AcDbEntity
  8
DEFPOINTS
 62
     0
100
AcDbPoint
 10
207.7677428827011
 20
312.498326602647
 30
0.0
  0
POINT
  5
17CF
330
B0C
100
AcDbEntity
  8
DEFPOINTS
 62
     0
100
AcDbPoint
 10
207.7677428827011
 20
271.0868558709421
 30
0.0
  0
ENDBLK
  5
B17
330
B0C
100
AcDbEntity
  8
0
100
AcDbBlockEnd
  0
BLOCK
  5
B25
330
B19
100
AcDbEntity
  8
0
100
AcDbBlockBegin
  2
*D26
 70
     1
 10
0.0
 20
0.0
 30
0.0
  3
*D26
  1

  0
LINE
  5
19C0
330
B19
100
AcDbEntity
  8
SUNPOU
100
AcDbLine
 10
207.7677428827011
 20
309.498326602647
 30
0.0
 11
207.7677428827011
 21
269.0868558709419
 31
0.0
  0
LINE
  5
19C1
330
B19
100
AcDbEntity
  8
SUNPOU
100
AcDbLine
 10
212.7677428827011
 20
274.0868558709419
 30
0.0
 11
212.7677428827011
 21
273.0868558709421
 31
0.0
  0
LINE
  5
19C2
330
B19
100
AcDbEntity
  8
SUNPOU
100
AcDbLine
 10
202.7677428827011
 20
271.0868558709421
 30
0.0
 11
197.7677428827011
 21
271.0868558709421
 31
0.0
  0
LINE
  5
19C3
330
B19
100
AcDbEntity
  8
SUNPOU
100
AcDbLine
 10
217.7677428827011
 20
271.0868558709421
 30
0.0
 11
222.7677428827012
 21
271.0868558709421
 31
0.0
  0
MTEXT
  5
19C4
330
B19
100
AcDbEntity
  8
SUNPOU
 62
     6
100
AcDbMText
 10
210.0998072367568
 20
276.5372308297428
 30
0.0
 40
5.0
 41
0.0
 71
     5
 72
     1
  1
\A1;5
  7
SUNPOU
1001
ACAD
1000
MTEXTBEGIN
1070
    73
1070
     1
1070
    44
1040
1.0
1070
    74
1070
     0
1000
MTEXTEND
1000
MTEXTBEGIN
1070
    73
1070
     1
1070
    44
1040
1.0
1070
    74
1070
     0
1000
MTEXTEND
  0
LINE
  5
19C5
330
B19
100
AcDbEntity
  8
SUNPOU
100
AcDbLine
 10
207.7677428827011
 20
271.0868558709421
 30
0.0
 11
212.7677428827011
 21
271.0868558709421
 31
0.0
  0
INSERT
  5
19C6
330
B19
100
AcDbEntity
  8
SUNPOU
100
AcDbBlockReference
  2
_OPEN30
 10
207.7677428827011
 20
271.0868558709421
 30
0.0
 41
5.0
 42
5.0
 43
5.0
  0
INSERT
  5
19C7
330
B19
100
AcDbEntity
  8
SUNPOU
100
AcDbBlockReference
  2
_OPEN30
 10
212.7677428827011
 20
271.0868558709421
 30
0.0
 41
5.0
 42
5.0
 43
5.0
 50
180.0
  0
POINT
  5
19C8
330
B19
100
AcDbEntity
  8
DEFPOINTS
 62
     0
100
AcDbPoint
 10
207.7677428827011
 20
312.498326602647
 30
0.0
  0
POINT
  5
19C9
330
B19
100
AcDbEntity
  8
DEFPOINTS
 62
     0
100
AcDbPoint
 10
212.7677428827011
 20
271.0868558709421
 30
0.0
  0
POINT
  5
19CA
330
B19
100
AcDbEntity
  8
DEFPOINTS
 62
     0
100
AcDbPoint
 10
212.7677428827011
 20
271.0868558709421
 30
0.0
  0
ENDBLK
  5
B26
330
B19
100
AcDbEntity
  8
0
100
AcDbBlockEnd
  0
BLOCK
  5
B32
330
B28
100
AcDbEntity
  8
0
100
AcDbBlockBegin
  2
*D27
 70
     1
 10
0.0
 20
0.0
 30
0.0
  3
*D27
  1

  0
LINE
  5
1868
330
B28
100
AcDbEntity
  8
SUNPOU
100
AcDbLine
 10
212.7677428827011
 20
274.0868558709419
 30
0.0
 11
212.7677428827011
 21
273.0868558709421
 31
0.0
  0
LINE
  5
1869
330
B28
100
AcDbEntity
  8
SUNPOU
100
AcDbLine
 10
240.7677428827011
 20
274.0868558709419
 30
0.0
 11
240.7677428827011
 21
273.0868558709421
 31
0.0
  0
LINE
  5
186A
330
B28
100
AcDbEntity
  8
SUNPOU
100
AcDbLine
 10
217.7677428827011
 20
271.0868558709421
 30
0.0
 11
235.7677428827011
 21
271.0868558709421
 31
0.0
  0
INSERT
  5
186B
330
B28
100
AcDbEntity
  8
SUNPOU
100
AcDbBlockReference
  2
_OPEN30
 10
212.7677428827011
 20
271.0868558709421
 30
0.0
 41
5.0
 42
5.0
 43
5.0
 50
180.0
  0
INSERT
  5
186C
330
B28
100
AcDbEntity
  8
SUNPOU
100
AcDbBlockReference
  2
_OPEN30
 10
240.7677428827011
 20
271.0868558709421
 30
0.0
 41
5.0
 42
5.0
 43
5.0
  0
MTEXT
  5
186D
330
B28
100
AcDbEntity
  8
SUNPOU
 62
     6
100
AcDbMText
 10
226.7677428827012
 20
275.5868558709419
 30
0.0
 40
5.0
 41
0.0
 71
     5
 72
     1
  1
\A1;28
  7
SUNPOU
1001
ACAD
1000
MTEXTBEGIN
1070
    73
1070
     1
1070
    44
1040
1.0
1070
    74
1070
     0
1000
MTEXTEND
1000
MTEXTBEGIN
1070
    73
1070
     1
1070
    44
1040
1.0
1070
    74
1070
     0
1000
MTEXTEND
  0
POINT
  5
186E
330
B28
100
AcDbEntity
  8
DEFPOINTS
 62
     0
100
AcDbPoint
 10
212.7677428827011
 20
271.0868558709421
 30
0.0
  0
POINT
  5
186F
330
B28
100
AcDbEntity
  8
DEFPOINTS
 62
     0
100
AcDbPoint
 10
240.7677428827011
 20
271.0868558709421
 30
0.0
  0
POINT
  5
1870
330
B28
100
AcDbEntity
  8
DEFPOINTS
 62
     0
100
AcDbPoint
 10
240.7677428827011
 20
271.0868558709421
 30
0.0
  0
ENDBLK
  5
B33
330
B28
100
AcDbEntity
  8
0
100
AcDbBlockEnd
  0
BLOCK
  5
B41
330
B35
100
AcDbEntity
  8
0
100
AcDbBlockBegin
  2
*D28
 70
     1
 10
0.0
 20
0.0
 30
0.0
  3
*D28
  1

  0
LINE
  5
19B5
330
B35
100
AcDbEntity
  8
SUNPOU
100
AcDbLine
 10
240.7677428827011
 20
274.0868558709419
 30
0.0
 11
240.7677428827011
 21
273.0868558709421
 31
0.0
  0
LINE
  5
19B6
330
B35
100
AcDbEntity
  8
SUNPOU
100
AcDbLine
 10
245.7677428827012
 20
301.098326602647
 30
0.0
 11
245.7677428827012
 21
269.0868558709419
 31
0.0
  0
LINE
  5
19B7
330
B35
100
AcDbEntity
  8
SUNPOU
100
AcDbLine
 10
235.7677428827011
 20
271.0868558709421
 30
0.0
 11
230.7677428827012
 21
271.0868558709421
 31
0.0
  0
LINE
  5
19B8
330
B35
100
AcDbEntity
  8
SUNPOU
100
AcDbLine
 10
250.7677428827011
 20
271.0868558709421
 30
0.0
 11
255.7677428827012
 21
271.0868558709421
 31
0.0
  0
MTEXT
  5
19B9
330
B35
100
AcDbEntity
  8
SUNPOU
 62
     6
100
AcDbMText
 10
243.258021694129
 20
276.5372308297428
 30
0.0
 40
5.0
 41
0.0
 71
     5
 72
     1
  1
\A1;5
  7
SUNPOU
1001
ACAD
1000
MTEXTBEGIN
1070
    73
1070
     1
1070
    44
1040
1.0
1070
    74
1070
     0
1000
MTEXTEND
1000
MTEXTBEGIN
1070
    73
1070
     1
1070
    44
1040
1.0
1070
    74
1070
     0
1000
MTEXTEND
  0
LINE
  5
19BA
330
B35
100
AcDbEntity
  8
SUNPOU
100
AcDbLine
 10
240.7677428827011
 20
271.0868558709421
 30
0.0
 11
245.7677428827012
 21
271.0868558709421
 31
0.0
  0
INSERT
  5
19BB
330
B35
100
AcDbEntity
  8
SUNPOU
100
AcDbBlockReference
  2
_OPEN30
 10
240.7677428827011
 20
271.0868558709421
 30
0.0
 41
5.0
 42
5.0
 43
5.0
  0
INSERT
  5
19BC
330
B35
100
AcDbEntity
  8
SUNPOU
100
AcDbBlockReference
  2
_OPEN30
 10
245.7677428827012
 20
271.0868558709421
 30
0.0
 41
5.0
 42
5.0
 43
5.0
 50
180.0
  0
POINT
  5
19BD
330
B35
100
AcDbEntity
  8
DEFPOINTS
 62
     0
100
AcDbPoint
 10
240.7677428827011
 20
271.0868558709421
 30
0.0
  0
POINT
  5
19BE
330
B35
100
AcDbEntity
  8
DEFPOINTS
 62
     0
100
AcDbPoint
 10
245.7677428827012
 20
304.098326602647
 30
0.0
  0
POINT
  5
19BF
330
B35
100
AcDbEntity
  8
DEFPOINTS
 62
     0
100
AcDbPoint
 10
245.7677428827012
 20
271.0868558709421
 30
0.0
  0
ENDBLK
  5
B42
330
B35
100
AcDbEntity
  8
0
100
AcDbBlockEnd
  0
BLOCK
  5
B4E
330
B44
100
AcDbEntity
  8
0
100
AcDbBlockBegin
  2
*D29
 70
     1
 10
0.0
 20
0.0
 30
0.0
  3
*D29
  1

  0
LINE
  5
187C
330
B44
100
AcDbEntity
  8
SUNPOU
100
AcDbLine
 10
245.7677428827012
 20
301.098326602647
 30
0.0
 11
245.7677428827012
 21
269.0868558709419
 31
0.0
  0
LINE
  5
187D
330
B44
100
AcDbEntity
  8
SUNPOU
100
AcDbLine
 10
317.7677428827012
 20
301.098326602647
 30
0.0
 11
317.7677428827012
 21
269.0868558709419
 31
0.0
  0
LINE
  5
187E
330
B44
100
AcDbEntity
  8
SUNPOU
100
AcDbLine
 10
250.7677428827011
 20
271.0868558709421
 30
0.0
 11
312.7677428827012
 21
271.0868558709421
 31
0.0
  0
INSERT
  5
187F
330
B44
100
AcDbEntity
  8
SUNPOU
100
AcDbBlockReference
  2
_OPEN30
 10
245.7677428827012
 20
271.0868558709421
 30
0.0
 41
5.0
 42
5.0
 43
5.0
 50
180.0
  0
INSERT
  5
1880
330
B44
100
AcDbEntity
  8
SUNPOU
100
AcDbBlockReference
  2
_OPEN30
 10
317.7677428827012
 20
271.0868558709421
 30
0.0
 41
5.0
 42
5.0
 43
5.0
  0
MTEXT
  5
1881
330
B44
100
AcDbEntity
  8
SUNPOU
 62
     6
100
AcDbMText
 10
281.7677428827012
 20
275.5868558709419
 30
0.0
 40
5.0
 41
0.0
 71
     5
 72
     1
  1
\A1;72
  7
SUNPOU
1001
ACAD
1000
MTEXTBEGIN
1070
    73
1070
     1
1070
    44
1040
1.0
1070
    74
1070
     0
1000
MTEXTEND
1000
MTEXTBEGIN
1070
    73
1070
     1
1070
    44
1040
1.0
1070
    74
1070
     0
1000
MTEXTEND
  0
POINT
  5
1882
330
B44
100
AcDbEntity
  8
DEFPOINTS
 62
     0
100
AcDbPoint
 10
245.7677428827012
 20
304.098326602647
 30
0.0
  0
POINT
  5
1883
330
B44
100
AcDbEntity
  8
DEFPOINTS
 62
     0
100
AcDbPoint
 10
317.7677428827012
 20
304.098326602647
 30
0.0
  0
POINT
  5
1884
330
B44
100
AcDbEntity
  8
DEFPOINTS
 62
     0
100
AcDbPoint
 10
317.7677428827012
 20
271.0868558709421
 30
0.0
  0
ENDBLK
  5
B4F
330
B44
100
AcDbEntity
  8
0
100
AcDbBlockEnd
  0
BLOCK
  5
BC0
330
BB4
100
AcDbEntity
  8
0
100
AcDbBlockBegin
  2
*D30
 70
     1
 10
0.0
 20
0.0
 30
0.0
  3
*D30
  1

  0
LINE
  5
14A3
330
BB4
100
AcDbEntity
  8
SUNPOU
100
AcDbLine
 10
252.2677428827011
 20
110.498326602647
 30
0.0
 11
293.7184100627111
 21
110.498326602647
 31
0.0
  0
LINE
  5
14A4
330
BB4
100
AcDbEntity
  8
SUNPOU
100
AcDbLine
 10
274.0177428827012
 20
107.4983266026469
 30
0.0
 11
293.7184100627111
 21
107.4983266026469
 31
0.0
  0
LINE
  5
14A5
330
BB4
100
AcDbEntity
  8
SUNPOU
100
AcDbLine
 10
291.7184100627111
 20
115.498326602647
 30
0.0
 11
291.7184100627111
 21
120.498326602647
 31
0.0
  0
LINE
  5
14A6
330
BB4
100
AcDbEntity
  8
SUNPOU
100
AcDbLine
 10
291.7184100627111
 20
102.4983266026469
 30
0.0
 11
291.7184100627111
 21
97.49832660264694
 31
0.0
  0
MTEXT
  5
14A7
330
BB4
100
AcDbEntity
  8
SUNPOU
 62
     6
100
AcDbMText
 10
287.2119915100316
 20
102.9503369462713
 30
0.0
 40
5.0
 41
0.0
 71
     5
 72
     1
  1
\A1;3
  7
SUNPOU
 11
0.0000000000000001
 21
1.0
 31
0.0
1001
ACAD
1000
MTEXTBEGIN
1070
    73
1070
     1
1070
    44
1040
1.0
1070
    74
1070
     0
1000
MTEXTEND
1000
MTEXTBEGIN
1070
    73
1070
     1
1070
    44
1040
1.0
1070
    74
1070
     0
1000
MTEXTEND
  0
LINE
  5
14A8
330
BB4
100
AcDbEntity
  8
SUNPOU
100
AcDbLine
 10
291.7184100627111
 20
110.498326602647
 30
0.0
 11
291.7184100627111
 21
107.4983266026469
 31
0.0
  0
INSERT
  5
14A9
330
BB4
100
AcDbEntity
  8
SUNPOU
100
AcDbBlockReference
  2
_OPEN30
 10
291.7184100627111
 20
110.498326602647
 30
0.0
 41
5.0
 42
5.0
 43
5.0
 50
270.0
  0
INSERT
  5
14AA
330
BB4
100
AcDbEntity
  8
SUNPOU
100
AcDbBlockReference
  2
_OPEN30
 10
291.7184100627111
 20
107.4983266026469
 30
0.0
 41
5.0
 42
5.0
 43
5.0
 50
90.0
  0
POINT
  5
14AB
330
BB4
100
AcDbEntity
  8
DEFPOINTS
 62
     0
100
AcDbPoint
 10
249.2677428827011
 20
110.498326602647
 30
0.0
  0
POINT
  5
14AC
330
BB4
100
AcDbEntity
  8
DEFPOINTS
 62
     0
100
AcDbPoint
 10
271.0177428827012
 20
107.4983266026469
 30
0.0
  0
POINT
  5
14AD
330
BB4
100
AcDbEntity
  8
DEFPOINTS
 62
     0
100
AcDbPoint
 10
291.7184100627111
 20
107.4983266026469
 30
0.0
  0
ENDBLK
  5
BC1
330
BB4
100
AcDbEntity
  8
0
100
AcDbBlockEnd
  0
BLOCK
  5
BEA
330
BE0
100
AcDbEntity
  8
0
100
AcDbBlockBegin
  2
*D31
 70
     1
 10
0.0
 20
0.0
 30
0.0
  3
*D31
  1

  0
LINE
  5
1A9D
330
BE0
100
AcDbEntity
  8
SUNPOU
100
AcDbLine
 10
226.7677428827012
 20
411.3751627907999
 30
0.0
 11
226.7677428827012
 21
419.1146470294794
 31
0.0
  0
LINE
  5
1A9E
330
BE0
100
AcDbEntity
  8
SUNPOU
100
AcDbLine
 10
199.7677428827011
 20
381.4983266026469
 30
0.0
 11
199.7677428827011
 21
419.1146470294794
 31
0.0
  0
LINE
  5
1A9F
330
BE0
100
AcDbEntity
  8
SUNPOU
100
AcDbLine
 10
221.7677428827011
 20
417.1146470294795
 30
0.0
 11
204.7677428827011
 21
417.1146470294795
 31
0.0
  0
MTEXT
  5
1AA0
330
BE0
100
AcDbEntity
  8
SUNPOU
 62
     6
100
AcDbMText
 10
215.1938208188568
 20
422.1140950790371
 30
0.0
 40
5.0
 41
0.0
 71
     5
 72
     1
  1
\A1;27
  7
SUNPOU
1001
ACAD
1000
MTEXTBEGIN
1070
    73
1070
     1
1070
    44
1040
1.0
1070
    74
1070
     0
1000
MTEXTEND
1000
MTEXTBEGIN
1070
    73
1070
     1
1070
    44
1040
1.0
1070
    74
1070
     0
1000
MTEXTEND
  0
INSERT
  5
1AA1
330
BE0
100
AcDbEntity
  8
SUNPOU
100
AcDbBlockReference
  2
_OPEN30
 10
226.7677428827012
 20
417.1146470294795
 30
0.0
 41
5.0
 42
5.0
 43
5.0
  0
INSERT
  5
1AA2
330
BE0
100
AcDbEntity
  8
SUNPOU
100
AcDbBlockReference
  2
_OPEN30
 10
199.7677428827011
 20
417.1146470294795
 30
0.0
 41
5.0
 42
5.0
 43
5.0
 50
180.0
  0
POINT
  5
1AA3
330
BE0
100
AcDbEntity
  8
DEFPOINTS
 62
     0
100
AcDbPoint
 10
226.7677428827012
 20
408.3751627907997
 30
0.0
  0
POINT
  5
1AA4
330
BE0
100
AcDbEntity
  8
DEFPOINTS
 62
     0
100
AcDbPoint
 10
199.7677428827011
 20
378.498326602647
 30
0.0
  0
POINT
  5
1AA5
330
BE0
100
AcDbEntity
  8
DEFPOINTS
 62
     0
100
AcDbPoint
 10
199.7677428827011
 20
417.1146470294795
 30
0.0
  0
ENDBLK
  5
BEB
330
BE0
100
AcDbEntity
  8
0
100
AcDbBlockEnd
  0
BLOCK
  5
C00
330
BF6
100
AcDbEntity
  8
0
100
AcDbBlockBegin
  2
*D32
 70
     1
 10
0.0
 20
0.0
 30
0.0
  3
*D32
  1

  0
LINE
  5
1AAF
330
BF6
100
AcDbEntity
  8
SUNPOU
100
AcDbLine
 10
145.3677428827011
 20
484.498326602647
 30
0.0
 11
83.01465379252954
 21
484.4983266026471
 31
0.0
  0
LINE
  5
1AB0
330
BF6
100
AcDbEntity
  8
SUNPOU
100
AcDbLine
 10
146.3677428827011
 20
302.4983266026468
 30
0.0
 11
83.01465379252951
 21
302.498326602647
 31
0.0
  0
LINE
  5
1AB1
330
BF6
100
AcDbEntity
  8
SUNPOU
100
AcDbLine
 10
85.01465379252953
 20
479.498326602647
 30
0.0
 11
85.0146537925295
 21
307.498326602647
 31
0.0
  0
MTEXT
  5
1AB2
330
BF6
100
AcDbEntity
  8
SUNPOU
 62
     6
100
AcDbMText
 10
80.51465379252944
 20
423.269563557405
 30
0.0
 40
5.0
 41
0.0
 71
     5
 72
     1
  1
\A1;182
  7
SUNPOU
 11
0.0000000000000001
 21
1.0
 31
0.0
1001
ACAD
1000
MTEXTBEGIN
1070
    73
1070
     1
1070
    44
1040
1.0
1070
    74
1070
     0
1000
MTEXTEND
1000
MTEXTBEGIN
1070
    73
1070
     1
1070
    44
1040
1.0
1070
    74
1070
     0
1000
MTEXTEND
  0
INSERT
  5
1AB3
330
BF6
100
AcDbEntity
  8
SUNPOU
100
AcDbBlockReference
  2
_OPEN30
 10
85.01465379252953
 20
484.4983266026471
 30
0.0
 41
5.0
 42
5.0
 43
5.0
 50
90.0
  0
INSERT
  5
1AB4
330
BF6
100
AcDbEntity
  8
SUNPOU
100
AcDbBlockReference
  2
_OPEN30
 10
85.0146537925295
 20
302.498326602647
 30
0.0
 41
5.0
 42
5.0
 43
5.0
 50
270.0
  0
POINT
  5
1AB5
330
BF6
100
AcDbEntity
  8
DEFPOINTS
 62
     0
100
AcDbPoint
 10
148.3677428827011
 20
484.498326602647
 30
0.0
  0
POINT
  5
1AB6
330
BF6
100
AcDbEntity
  8
DEFPOINTS
 62
     0
100
AcDbPoint
 10
149.3677428827011
 20
302.4983266026468
 30
0.0
  0
POINT
  5
1AB7
330
BF6
100
AcDbEntity
  8
DEFPOINTS
 62
     0
100
AcDbPoint
 10
85.0146537925295
 20
302.498326602647
 30
0.0
  0
ENDBLK
  5
C01
330
BF6
100
AcDbEntity
  8
0
100
AcDbBlockEnd
  0
BLOCK
  5
C0F
330
C03
100
AcDbEntity
  8
0
100
AcDbBlockBegin
  2
*D33
 70
     1
 10
0.0
 20
0.0
 30
0.0
  3
*D33
  1

  0
LINE
  5
173A
330
C03
100
AcDbEntity
  8
SUNPOU
100
AcDbLine
 10
147.7677428827011
 20
532.9983266026462
 30
0.0
 11
147.7677428827011
 21
521.2345575874626
 31
0.0
  0
LINE
  5
173B
330
C03
100
AcDbEntity
  8
SUNPOU
100
AcDbLine
 10
144.7677428827011
 20
532.9983266026462
 30
0.0
 11
144.7677428827011
 21
521.2345575874626
 31
0.0
  0
LINE
  5
173C
330
C03
100
AcDbEntity
  8
SUNPOU
100
AcDbLine
 10
152.7677428827011
 20
523.2345575874626
 30
0.0
 11
157.7677428827011
 21
523.2345575874626
 31
0.0
  0
LINE
  5
173D
330
C03
100
AcDbEntity
  8
SUNPOU
100
AcDbLine
 10
139.7677428827011
 20
523.2345575874626
 30
0.0
 11
134.7677428827011
 21
523.2345575874626
 31
0.0
  0
MTEXT
  5
173E
330
C03
100
AcDbEntity
  8
SUNPOU
 62
     6
100
AcDbMText
 10
137.7232793560291
 20
527.7986534883256
 30
0.0
 40
5.0
 41
0.0
 71
     5
 72
     1
  1
\A1;3
  7
SUNPOU
1001
ACAD
1000
MTEXTBEGIN
1070
    73
1070
     1
1070
    44
1040
1.0
1070
    74
1070
     0
1000
MTEXTEND
1000
MTEXTBEGIN
1070
    73
1070
     1
1070
    44
1040
1.0
1070
    74
1070
     0
1000
MTEXTEND
  0
LINE
  5
173F
330
C03
100
AcDbEntity
  8
SUNPOU
100
AcDbLine
 10
147.7677428827011
 20
523.2345575874626
 30
0.0
 11
144.7677428827011
 21
523.2345575874626
 31
0.0
  0
INSERT
  5
1740
330
C03
100
AcDbEntity
  8
SUNPOU
100
AcDbBlockReference
  2
_OPEN30
 10
147.7677428827011
 20
523.2345575874626
 30
0.0
 41
5.0
 42
5.0
 43
5.0
 50
180.0
  0
INSERT
  5
1741
330
C03
100
AcDbEntity
  8
SUNPOU
100
AcDbBlockReference
  2
_OPEN30
 10
144.7677428827011
 20
523.2345575874626
 30
0.0
 41
5.0
 42
5.0
 43
5.0
  0
POINT
  5
1742
330
C03
100
AcDbEntity
  8
DEFPOINTS
 62
     0
100
AcDbPoint
 10
147.7677428827011
 20
535.9983266026461
 30
0.0
  0
POINT
  5
1743
330
C03
100
AcDbEntity
  8
DEFPOINTS
 62
     0
100
AcDbPoint
 10
144.7677428827011
 20
535.9983266026461
 30
0.0
  0
POINT
  5
1744
330
C03
100
AcDbEntity
  8
DEFPOINTS
 62
     0
100
AcDbPoint
 10
144.7677428827011
 20
523.2345575874626
 30
0.0
  0
ENDBLK
  5
C10
330
C03
100
AcDbEntity
  8
0
100
AcDbBlockEnd
  0
BLOCK
  5
C3F
330
C3D
100
AcDbEntity
  8
0
100
AcDbBlockBegin
  2
_DOTSMALL
 70
     0
 10
0.0
 20
0.0
 30
0.0
  3
_DOTSMALL
  1

  0
POLYLINE
  5
C3E
330
C3D
100
AcDbEntity
  8
0
  6
BYBLOCK
 62
     0
100
AcDb2dPolyline
 66
     1
 10
0.0
 20
0.0
 30
0.0
 70
     1
 40
0.5
 41
0.5
  0
VERTEX
  5
1CD0
330
C3E
100
AcDbEntity
  8
0
  6
BYBLOCK
 62
     0
100
AcDbVertex
100
AcDb2dVertex
 10
-0.0625
 20
0.0
 30
0.0
 42
1.0
  0
VERTEX
  5
1CD1
330
C3E
100
AcDbEntity
  8
0
  6
BYBLOCK
 62
     0
100
AcDbVertex
100
AcDb2dVertex
 10
0.0625
 20
0.0
 30
0.0
 42
1.0
  0
SEQEND
  5
1CD2
330
C3E
100
AcDbEntity
  8
0
  6
BYBLOCK
 62
     0
  0
ENDBLK
  5
C40
330
C3D
100
AcDbEntity
  8
0
100
AcDbBlockEnd
  0
BLOCK
  5
12DB
330
12DA
100
AcDbEntity
  8
0
100
AcDbBlockBegin
  2
_NONE
 70
     0
 10
0.0
 20
0.0
 30
0.0
  3
_NONE
  1

  0
ENDBLK
  5
12DC
330
12DA
100
AcDbEntity
  8
0
100
AcDbBlockEnd
  0
BLOCK
  5
1A01
330
19F7
100
AcDbEntity
  8
0
100
AcDbBlockBegin
  2
*D36
 70
     1
 10
0.0
 20
0.0
 30
0.0
  3
*D36
  1

  0
LINE
  5
1AA6
330
19F7
100
AcDbEntity
  8
SUNPOU
100
AcDbLine
 10
161.7677428827011
 20
377.498326602647
 30
0.0
 11
127.6171895646593
 21
377.498326602647
 31
0.0
  0
LINE
  5
1AA7
330
19F7
100
AcDbEntity
  8
SUNPOU
100
AcDbLine
 10
161.7677428827011
 20
402.4983266026468
 30
0.0
 11
127.6171895646593
 21
402.4983266026469
 31
0.0
  0
LINE
  5
1AA8
330
19F7
100
AcDbEntity
  8
SUNPOU
100
AcDbLine
 10
129.6171895646594
 20
382.498326602647
 30
0.0
 11
129.6171895646594
 21
397.498326602647
 31
0.0
  0
MTEXT
  5
1AA9
330
19F7
100
AcDbEntity
  8
SUNPOU
 62
     6
100
AcDbMText
 10
125.1171895646592
 20
385.0131487714707
 30
0.0
 40
5.0
 41
0.0
 71
     5
 72
     1
  1
\A1;25
  7
SUNPOU
 11
0.0000000000000001
 21
1.0
 31
0.0
1001
ACAD
1000
MTEXTBEGIN
1070
    73
1070
     1
1070
    44
1040
1.0
1070
    74
1070
     0
1000
MTEXTEND
1000
MTEXTBEGIN
1070
    73
1070
     1
1070
    44
1040
1.0
1070
    74
1070
     0
1000
MTEXTEND
  0
INSERT
  5
1AAA
330
19F7
100
AcDbEntity
  8
SUNPOU
100
AcDbBlockReference
  2
_OPEN30
 10
129.6171895646594
 20
377.498326602647
 30
0.0
 41
5.0
 42
5.0
 43
5.0
 50
270.0
  0
INSERT
  5
1AAB
330
19F7
100
AcDbEntity
  8
SUNPOU
100
AcDbBlockReference
  2
_OPEN30
 10
129.6171895646594
 20
402.4983266026468
 30
0.0
 41
5.0
 42
5.0
 43
5.0
 50
90.0
  0
POINT
  5
1AAC
330
19F7
100
AcDbEntity
  8
DEFPOINTS
 62
     0
100
AcDbPoint
 10
164.7677428827011
 20
377.498326602647
 30
0.0
  0
POINT
  5
1AAD
330
19F7
100
AcDbEntity
  8
DEFPOINTS
 62
     0
100
AcDbPoint
 10
164.7677428827011
 20
402.4983266026468
 30
0.0
  0
POINT
  5
1AAE
330
19F7
100
AcDbEntity
  8
DEFPOINTS
 62
     0
100
AcDbPoint
 10
129.6171895646594
 20
402.4983266026468
 30
0.0
  0
ENDBLK
  5
1A02
330
19F7
100
AcDbEntity
  8
0
100
AcDbBlockEnd
  0
BLOCK
  5
1A3B
330
1A31
100
AcDbEntity
  8
0
100
AcDbBlockBegin
  2
*D37
 70
     1
 10
0.0
 20
0.0
 30
0.0
  3
*D37
  1

  0
LINE
  5
1A46
330
1A31
100
AcDbEntity
  8
SUNPOU
100
AcDbLine
 10
161.7677428827011
 20
402.4983266026468
 30
0.0
 11
127.6171895646593
 21
402.4983266026469
 31
0.0
  0
LINE
  5
1A47
330
1A31
100
AcDbEntity
  8
SUNPOU
100
AcDbLine
 10
161.7677428827011
 20
427.4983266026468
 30
0.0
 11
127.6171895646593
 21
427.4983266026469
 31
0.0
  0
LINE
  5
1A48
330
1A31
100
AcDbEntity
  8
SUNPOU
100
AcDbLine
 10
129.6171895646594
 20
407.4983266026468
 30
0.0
 11
129.6171895646594
 21
422.498326602647
 31
0.0
  0
MTEXT
  5
1A49
330
1A31
100
AcDbEntity
  8
SUNPOU
 62
     6
100
AcDbMText
 10
125.1171895646592
 20
417.5038836655476
 30
0.0
 40
5.0
 41
0.0
 71
     5
 72
     1
  1
\A1;25
  7
SUNPOU
 11
0.0000000000000001
 21
1.0
 31
0.0
1001
ACAD
1000
MTEXTBEGIN
1070
    73
1070
     1
1070
    44
1040
1.0
1070
    74
1070
     0
1000
MTEXTEND
1000
MTEXTBEGIN
1070
    73
1070
     1
1070
    44
1040
1.0
1070
    74
1070
     0
1000
MTEXTEND
  0
INSERT
  5
1A4A
330
1A31
100
AcDbEntity
  8
SUNPOU
100
AcDbBlockReference
  2
_OPEN30
 10
129.6171895646594
 20
402.4983266026468
 30
0.0
 41
5.0
 42
5.0
 43
5.0
 50
270.0
  0
INSERT
  5
1A4B
330
1A31
100
AcDbEntity
  8
SUNPOU
100
AcDbBlockReference
  2
_OPEN30
 10
129.6171895646594
 20
427.4983266026468
 30
0.0
 41
5.0
 42
5.0
 43
5.0
 50
90.0
  0
POINT
  5
1A4C
330
1A31
100
AcDbEntity
  8
DEFPOINTS
 62
     0
100
AcDbPoint
 10
164.7677428827011
 20
402.4983266026468
 30
0.0
  0
POINT
  5
1A4D
330
1A31
100
AcDbEntity
  8
DEFPOINTS
 62
     0
100
AcDbPoint
 10
164.7677428827011
 20
427.4983266026468
 30
0.0
  0
POINT
  5
1A4E
330
1A31
100
AcDbEntity
  8
DEFPOINTS
 62
     0
100
AcDbPoint
 10
129.6171895646594
 20
427.4983266026468
 30
0.0
  0
ENDBLK
  5
1A3C
330
1A31
100
AcDbEntity
  8
0
100
AcDbBlockEnd
  0
BLOCK
  5
1BC8
330
1BBE
100
AcDbEntity
  8
0
100
AcDbBlockBegin
  2
*D38
 70
     1
 10
0.0
 20
0.0
 30
0.0
  3
*D38
  1

  0
LINE
  5
1BCA
330
1BBE
100
AcDbEntity
  8
SUNPOU
100
AcDbLine
 10
243.7677428827011
 20
117.4983266026468
 30
0.0
 11
292.450859572027
 21
117.4983266026468
 31
0.0
  0
LINE
  5
1BCB
330
1BBE
100
AcDbEntity
  8
SUNPOU
100
AcDbLine
 10
235.4874859339897
 20
202.4983266026469
 30
0.0
 11
292.450859572027
 21
202.4983266026469
 31
0.0
  0
LINE
  5
1BCC
330
1BBE
100
AcDbEntity
  8
SUNPOU
100
AcDbLine
 10
290.450859572027
 20
122.4983266026469
 30
0.0
 11
290.450859572027
 21
197.498326602647
 31
0.0
  0
INSERT
  5
1BCD
330
1BBE
100
AcDbEntity
  8
SUNPOU
100
AcDbBlockReference
  2
_OPEN30
 10
290.450859572027
 20
117.4983266026468
 30
0.0
 41
5.0
 42
5.0
 43
5.0
 50
270.0
  0
INSERT
  5
1BCE
330
1BBE
100
AcDbEntity
  8
SUNPOU
100
AcDbBlockReference
  2
_OPEN30
 10
290.450859572027
 20
202.4983266026469
 30
0.0
 41
5.0
 42
5.0
 43
5.0
 50
90.0
  0
MTEXT
  5
1BCF
330
1BBE
100
AcDbEntity
  8
SUNPOU
 62
     6
100
AcDbMText
 10
285.950859572027
 20
159.998326602647
 30
0.0
 40
5.0
 41
0.0
 71
     5
 72
     1
  1
\A1;85
  7
SUNPOU
 11
0.0000000000000001
 21
1.0
 31
0.0
1001
ACAD
1000
MTEXTBEGIN
1070
    73
1070
     1
1070
    44
1040
1.0
1070
    74
1070
     0
1000
MTEXTEND
1000
MTEXTBEGIN
1070
    73
1070
     1
1070
    44
1040
1.0
1070
    74
1070
     0
1000
MTEXTEND
  0
POINT
  5
1BD0
330
1BBE
100
AcDbEntity
  8
DEFPOINTS
 62
     0
100
AcDbPoint
 10
240.7677428827011
 20
117.4983266026468
 30
0.0
  0
POINT
  5
1BD1
330
1BBE
100
AcDbEntity
  8
DEFPOINTS
 62
     0
100
AcDbPoint
 10
232.4874859339896
 20
202.4983266026469
 30
0.0
  0
POINT
  5
1BD2
330
1BBE
100
AcDbEntity
  8
DEFPOINTS
 62
     0
100
AcDbPoint
 10
290.450859572027
 20
202.4983266026469
 30
0.0
  0
ENDBLK
  5
1BC9
330
1BBE
100
AcDbEntity
  8
0
100
AcDbBlockEnd
  0
BLOCK
  5
1C55
330
1C2B
100
AcDbEntity
  8
0
100
AcDbBlockBegin
  2
*X39
 70
     1
 10
0.0
 20
0.0
 30
0.0
  3
*X39
  1

  0
LINE
  5
1C2C
330
1C2B
100
AcDbEntity
  8
0
 62
     0
100
AcDbLine
 10
185.7740572774171
 20
304.0983266026468
 30
0.0
 11
186.7677428827011
 21
305.0920122079309
 31
0.0
  0
LINE
  5
1C2D
330
1C2B
100
AcDbEntity
  8
0
 62
     0
100
AcDbLine
 10
184.1740572774171
 20
302.498326602647
 30
0.0
 11
185.7740572774171
 21
304.0983266026468
 31
0.0
  0
LINE
  5
1C2E
330
1C2B
100
AcDbEntity
  8
0
 62
     0
100
AcDbLine
 10
183.1224068479674
 20
304.0983266026468
 30
0.0
 11
186.4870045145909
 21
307.4629242692703
 31
0.0
  0
LINE
  5
1C2F
330
1C2B
100
AcDbEntity
  8
0
 62
     0
100
AcDbLine
 10
186.4870045145909
 20
307.4629242692703
 30
0.0
 11
186.767742882701
 21
307.7436626373805
 31
0.0
  0
LINE
  5
1C30
330
1C2B
100
AcDbEntity
  8
0
 62
     0
100
AcDbLine
 10
181.5224068479676
 20
302.498326602647
 30
0.0
 11
183.1224068479674
 21
304.0983266026468
 31
0.0
  0
LINE
  5
1C31
330
1C2B
100
AcDbEntity
  8
0
 62
     0
100
AcDbLine
 10
180.7677428827011
 20
304.3953130668301
 30
0.0
 11
186.1731997300408
 21
309.8007699141696
 31
0.0
  0
LINE
  5
1C32
330
1C2B
100
AcDbEntity
  8
0
 62
     0
100
AcDbLine
 10
180.4707564185179
 20
304.098326602647
 30
0.0
 11
180.7677428827011
 21
304.3953130668301
 31
0.0
  0
LINE
  5
1C33
330
1C2B
100
AcDbEntity
  8
0
 62
     0
100
AcDbLine
 10
186.1731997300408
 20
309.8007699141696
 30
0.0
 11
186.767742882701
 21
310.3953130668301
 31
0.0
  0
LINE
  5
1C34
330
1C2B
100
AcDbEntity
  8
0
 62
     0
100
AcDbLine
 10
178.8707564185179
 20
302.498326602647
 30
0.0
 11
180.4707564185179
 21
304.0983266026468
 31
0.0
  0
LINE
  5
1C35
330
1C2B
100
AcDbEntity
  8
0
 62
     0
100
AcDbLine
 10
180.7677428827011
 20
307.0469634962796
 30
0.0
 11
185.8593949454904
 21
312.1386155590689
 31
0.0
  0
LINE
  5
1C36
330
1C2B
100
AcDbEntity
  8
0
 62
     0
100
AcDbLine
 10
177.8191059890684
 20
304.0983266026468
 30
0.0
 11
180.7677428827011
 21
307.0469634962796
 31
0.0
  0
LINE
  5
1C37
330
1C2B
100
AcDbEntity
  8
0
 62
     0
100
AcDbLine
 10
185.8593949454904
 20
312.1386155590689
 30
0.0
 11
186.767742882701
 21
313.0469634962796
 31
0.0
  0
LINE
  5
1C38
330
1C2B
100
AcDbEntity
  8
0
 62
     0
100
AcDbLine
 10
176.2191059890684
 20
302.498326602647
 30
0.0
 11
177.8191059890684
 21
304.0983266026468
 31
0.0
  0
LINE
  5
1C39
330
1C2B
100
AcDbEntity
  8
0
 62
     0
100
AcDbLine
 10
180.7677428827011
 20
309.6986139257292
 30
0.0
 11
185.5455901609403
 21
314.4764612039683
 31
0.0
  0
LINE
  5
1C3A
330
1C2B
100
AcDbEntity
  8
0
 62
     0
100
AcDbLine
 10
175.1674555596189
 20
304.0983266026468
 30
0.0
 11
180.7677428827011
 21
309.6986139257292
 31
0.0
  0
LINE
  5
1C3B
330
1C2B
100
AcDbEntity
  8
0
 62
     0
100
AcDbLine
 10
185.5455901609403
 20
314.4764612039683
 30
0.0
 11
186.767742882701
 21
315.6986139257292
 31
0.0
  0
LINE
  5
1C3C
330
1C2B
100
AcDbEntity
  8
0
 62
     0
100
AcDbLine
 10
174.7677428827011
 20
303.6986139257292
 30
0.0
 11
175.1674555596189
 21
304.0983266026468
 31
0.0
  0
LINE
  5
1C3D
330
1C2B
100
AcDbEntity
  8
0
 62
     0
100
AcDbLine
 10
185.2317853763899
 20
316.8143068488676
 30
0.0
 11
185.6682178817148
 21
317.2507393541923
 31
0.0
  0
LINE
  5
1C3E
330
1C2B
100
AcDbEntity
  8
0
 62
     0
100
AcDbLine
 10
180.7677428827011
 20
312.3502643551787
 30
0.0
 11
185.2317853763899
 21
316.8143068488676
 31
0.0
  0
LINE
  5
1C3F
330
1C2B
100
AcDbEntity
  8
0
 62
     0
100
AcDbLine
 10
185.6682178817148
 20
317.2507393541923
 30
0.0
 11
185.8158051301693
 21
317.3983266026468
 31
0.0
  0
LINE
  5
1C40
330
1C2B
100
AcDbEntity
  8
0
 62
     0
100
AcDbLine
 10
174.9195011661629
 20
306.5020226386406
 30
0.0
 11
180.7677428827011
 21
312.3502643551787
 31
0.0
  0
LINE
  5
1C41
330
1C2B
100
AcDbEntity
  8
0
 62
     0
100
AcDbLine
 10
185.8158051301693
 20
317.3983266026468
 30
0.0
 11
186.7677428827011
 21
318.3502643551788
 31
0.0
  0
LINE
  5
1C42
330
1C2B
100
AcDbEntity
  8
0
 62
     0
100
AcDbLine
 10
174.767742882701
 20
306.3502643551787
 30
0.0
 11
174.9195011661629
 21
306.5020226386406
 31
0.0
  0
LINE
  5
1C43
330
1C2B
100
AcDbEntity
  8
0
 62
     0
100
AcDbLine
 10
180.7677428827011
 20
315.0019147846283
 30
0.0
 11
183.1641547007196
 21
317.3983266026468
 31
0.0
  0
LINE
  5
1C44
330
1C2B
100
AcDbEntity
  8
0
 62
     0
100
AcDbLine
 10
183.1641547007198
 20
317.3983266026468
 30
0.0
 11
184.6641547007197
 21
318.898326602647
 31
0.0
  0
LINE
  5
1C45
330
1C2B
100
AcDbEntity
  8
0
 62
     0
100
AcDbLine
 10
175.3306097598761
 20
309.5647816618033
 30
0.0
 11
180.7677428827011
 21
315.0019147846283
 31
0.0
  0
LINE
  5
1C46
330
1C2B
100
AcDbEntity
  8
0
 62
     0
100
AcDbLine
 10
184.6641547007197
 20
318.898326602647
 30
0.0
 11
186.2641547007197
 21
320.498326602647
 31
0.0
  0
LINE
  5
1C47
330
1C2B
100
AcDbEntity
  8
0
 62
     0
100
AcDbLine
 10
174.767742882701
 20
309.0019147846283
 30
0.0
 11
175.3306097598761
 21
309.5647816618033
 31
0.0
  0
LINE
  5
1C48
330
1C2B
100
AcDbEntity
  8
0
 62
     0
100
AcDbLine
 10
180.5125042712703
 20
317.3983266026468
 30
0.0
 11
182.0125042712701
 21
318.898326602647
 31
0.0
  0
LINE
  5
1C49
330
1C2B
100
AcDbEntity
  8
0
 62
     0
100
AcDbLine
 10
175.7417183535891
 20
312.6275406849658
 30
0.0
 11
180.5125042712701
 21
317.3983266026468
 31
0.0
  0
LINE
  5
1C4A
330
1C2B
100
AcDbEntity
  8
0
 62
     0
100
AcDbLine
 10
182.0125042712703
 20
318.898326602647
 30
0.0
 11
183.6125042712701
 21
320.498326602647
 31
0.0
  0
LINE
  5
1C4B
330
1C2B
100
AcDbEntity
  8
0
 62
     0
100
AcDbLine
 10
174.7677428827011
 20
311.6535652140778
 30
0.0
 11
175.7417183535891
 21
312.6275406849658
 31
0.0
  0
LINE
  5
1C4C
330
1C2B
100
AcDbEntity
  8
0
 62
     0
100
AcDbLine
 10
177.8608538418206
 20
317.3983266026468
 30
0.0
 11
179.3608538418206
 21
318.8983266026468
 31
0.0
  0
LINE
  5
1C4D
330
1C2B
100
AcDbEntity
  8
0
 62
     0
100
AcDbLine
 10
176.1528269473024
 20
315.6902997081286
 30
0.0
 11
177.8608538418206
 21
317.3983266026468
 31
0.0
  0
LINE
  5
1C4E
330
1C2B
100
AcDbEntity
  8
0
 62
     0
100
AcDbLine
 10
179.3608538418206
 20
318.898326602647
 30
0.0
 11
180.9608538418206
 21
320.498326602647
 31
0.0
  0
LINE
  5
1C4F
330
1C2B
100
AcDbEntity
  8
0
 62
     0
100
AcDbLine
 10
174.7677428827011
 20
314.3052156435274
 30
0.0
 11
176.1528269473023
 21
315.6902997081286
 31
0.0
  0
LINE
  5
1C50
330
1C2B
100
AcDbEntity
  8
0
 62
     0
100
AcDbLine
 10
175.209203412371
 20
317.3983266026468
 30
0.0
 11
176.7092034123711
 21
318.898326602647
 31
0.0
  0
LINE
  5
1C51
330
1C2B
100
AcDbEntity
  8
0
 62
     0
100
AcDbLine
 10
175.1569595627061
 20
317.3460827529818
 30
0.0
 11
175.209203412371
 21
317.3983266026468
 31
0.0
  0
LINE
  5
1C52
330
1C2B
100
AcDbEntity
  8
0
 62
     0
100
AcDbLine
 10
176.7092034123711
 20
318.898326602647
 30
0.0
 11
178.3092034123711
 21
320.498326602647
 31
0.0
  0
LINE
  5
1C53
330
1C2B
100
AcDbEntity
  8
0
 62
     0
100
AcDbLine
 10
174.7677428827011
 20
316.9568660729769
 30
0.0
 11
175.1569595627061
 21
317.3460827529818
 31
0.0
  0
LINE
  5
1C54
330
1C2B
100
AcDbEntity
  8
0
 62
     0
100
AcDbLine
 10
174.7677428827011
 20
319.6085165024264
 30
0.0
 11
175.6575529829216
 21
320.4983266026471
 31
0.0
  0
ENDBLK
  5
1C56
330
1C2B
100
AcDbEntity
  8
0
100
AcDbBlockEnd
  0
ENDSEC
  0
SECTION
  2
ENTITIES
  0
LINE
  5
28B
330
A
100
AcDbEntity
  8
03
100
AcDbLine
 10
317.7677428827012
 20
304.098326602647
 30
0.0
 11
317.7677428827012
 21
500.8983266026469
 31
0.0
  0
LINE
  5
28C
330
A
100
AcDbEntity
  8
03
100
AcDbLine
 10
147.7677428827011
 20
482.898326602647
 30
0.0
 11
147.7677428827011
 21
304.0983266026468
 31
0.0
  0
LINE
  5
28D
330
A
100
AcDbEntity
  8
03
100
AcDbLine
 10
262.7677428827012
 20
500.8983266026461
 30
0.0
 11
262.7677428827012
 21
484.4983266026461
 31
0.0
  0
LINE
  5
28E
330
A
100
AcDbEntity
  8
03
100
AcDbLine
 10
273.7677428827012
 20
484.4983266026461
 30
0.0
 11
262.7677428827012
 21
484.4983266026461
 31
0.0
  0
LINE
  5
28F
330
A
100
AcDbEntity
  8
03
100
AcDbLine
 10
264.7677428827012
 20
500.8983266026461
 30
0.0
 11
264.7677428827012
 21
485.4983266026462
 31
0.0
  0
LINE
  5
290
330
A
100
AcDbEntity
  8
03
100
AcDbLine
 10
264.7677428827012
 20
485.4983266026462
 30
0.0
 11
266.2677428827012
 21
485.4983266026462
 31
0.0
  0
LINE
  5
291
330
A
100
AcDbEntity
  8
03
100
AcDbLine
 10
266.3677428827011
 20
500.9983266026456
 30
0.0
 11
316.1677428827012
 21
500.998326602647
 31
0.0
  0
LINE
  5
292
330
A
100
AcDbEntity
  8
03
100
AcDbLine
 10
266.2677428827012
 20
500.9983266026461
 30
0.0
 11
266.2677428827012
 21
485.4983266026462
 31
0.0
  0
LINE
  5
293
330
A
100
AcDbEntity
  8
03
100
AcDbLine
 10
316.2677428827012
 20
500.998326602647
 30
0.0
 11
316.2677428827012
 21
303.998326602647
 31
0.0
  0
LINE
  5
294
330
A
100
AcDbEntity
  8
03
100
AcDbLine
 10
316.1677428827012
 20
502.4983266026468
 30
0.0
 11
266.3677428827011
 21
502.4983266026468
 31
0.0
  0
LINE
  5
295
330
A
100
AcDbEntity
  8
03
100
AcDbLine
 10
261.1677428827011
 20
502.4983266026461
 30
0.0
 11
189.3677428827011
 21
502.4983266026461
 31
0.0
  0
LINE
  5
296
330
A
100
AcDbEntity
  8
03
100
AcDbLine
 10
247.3677428827012
 20
303.998326602647
 30
0.0
 11
316.2677428827012
 21
303.998326602647
 31
0.0
  0
LINE
  5
297
330
A
100
AcDbEntity
  8
03
100
AcDbLine
 10
245.7677428827012
 20
304.098326602647
 30
0.0
 11
245.7677428827012
 21
312.498326602647
 31
0.0
  0
LINE
  5
298
330
A
100
AcDbEntity
  8
03
100
AcDbLine
 10
247.2677428827011
 20
312.498326602647
 30
0.0
 11
247.2677428827011
 21
303.998326602647
 31
0.0
  0
LINE
  5
299
330
A
100
AcDbEntity
  8
03
100
AcDbLine
 10
245.7677428827012
 20
312.498326602647
 30
0.0
 11
247.2677428827011
 21
312.498326602647
 31
0.0
  0
LINE
  5
29A
330
A
100
AcDbEntity
  8
03
100
AcDbLine
 10
247.3677428827012
 20
302.498326602647
 30
0.0
 11
316.1677428827012
 21
302.498326602647
 31
0.0
  0
LINE
  5
29B
330
A
100
AcDbEntity
  8
03
100
AcDbLine
 10
261.1677428827011
 20
500.9983266026461
 30
0.0
 11
189.2677428827011
 21
500.9983266026461
 31
0.0
  0
LINE
  5
29C
330
A
100
AcDbEntity
  8
03
100
AcDbLine
 10
262.8677428827011
 20
482.9983266026461
 30
0.0
 11
273.7677428827012
 21
482.9983266026461
 31
0.0
  0
LINE
  5
29D
330
A
100
AcDbEntity
  8
03
100
AcDbLine
 10
273.7677428827012
 20
484.4983266026461
 30
0.0
 11
273.7677428827012
 21
482.9983266026461
 31
0.0
  0
LINE
  5
29E
330
A
100
AcDbEntity
  8
03
100
AcDbLine
 10
261.2677428827012
 20
500.9983266026461
 30
0.0
 11
261.2677428827012
 21
484.5983266026461
 31
0.0
  0
LINE
  5
29F
330
A
100
AcDbEntity
  8
03
100
AcDbLine
 10
189.2677428827011
 20
500.9983266026461
 30
0.0
 11
189.2677428827011
 21
484.5983266026464
 31
0.0
  0
LINE
  5
2A0
330
A
100
AcDbEntity
  8
03
100
AcDbLine
 10
187.7677428827011
 20
484.4983266026461
 30
0.0
 11
149.3677428827011
 21
484.498326602647
 31
0.0
  0
LINE
  5
2A1
330
A
100
AcDbEntity
  8
03
100
AcDbLine
 10
149.2677428827011
 20
482.998326602647
 30
0.0
 11
259.6677428827011
 21
482.9983266026468
 31
0.0
  0
LINE
  5
2A2
330
A
100
AcDbEntity
  8
03
100
AcDbLine
 10
149.2677428827011
 20
482.898326602647
 30
0.0
 11
149.2677428827011
 21
303.998326602647
 31
0.0
  0
LINE
  5
2A3
330
A
100
AcDbEntity
  8
03
100
AcDbLine
 10
206.2677428827011
 20
318.898326602647
 30
0.0
 11
206.2677428827011
 21
303.998326602647
 31
0.0
  0
LINE
  5
2A4
330
A
100
AcDbEntity
  8
03
100
AcDbLine
 10
206.2677428827011
 20
312.498326602647
 30
0.0
 11
207.7677428827011
 21
312.498326602647
 31
0.0
  0
LINE
  5
2A5
330
A
100
AcDbEntity
  8
03
100
AcDbLine
 10
152.7677428827011
 20
484.4983266026464
 30
0.0
 11
152.7677428827011
 21
500.8983266026461
 31
0.0
  0
LINE
  5
2A6
330
A
100
AcDbEntity
  8
03
100
AcDbLine
 10
154.3677428827011
 20
502.4983266026461
 30
0.0
 11
170.1677428827012
 21
502.4983266026461
 31
0.0
  0
LINE
  5
2A7
330
A
100
AcDbEntity
  8
03
100
AcDbLine
 10
154.2677428827011
 20
484.4983266026468
 30
0.0
 11
154.2677428827011
 21
500.9983266026461
 31
0.0
  0
LINE
  5
2A8
330
A
100
AcDbEntity
  8
03
100
AcDbLine
 10
170.2677428827011
 20
500.9983266026461
 30
0.0
 11
170.2677428827011
 21
484.4983266026464
 31
0.0
  0
LINE
  5
2A9
330
A
100
AcDbEntity
  8
03
100
AcDbLine
 10
154.2677428827011
 20
500.9983266026461
 30
0.0
 11
170.2677428827011
 21
500.9983266026461
 31
0.0
  0
LINE
  5
2AA
330
A
100
AcDbEntity
  8
03
100
AcDbLine
 10
172.7677428827011
 20
304.0983266026468
 30
0.0
 11
172.7677428827011
 21
317.3983266026468
 31
0.0
  0
LINE
  5
2AB
330
A
100
AcDbEntity
  8
03
100
AcDbLine
 10
188.7677428827011
 20
304.0983266026468
 30
0.0
 11
188.7677428827011
 21
317.3983266026468
 31
0.0
  0
LINE
  5
2AC
330
A
100
AcDbEntity
  8
03
100
AcDbLine
 10
150.8677428827011
 20
320.498326602647
 30
0.0
 11
204.6677428827011
 21
320.498326602647
 31
0.0
  0
LINE
  5
2AD
330
A
100
AcDbEntity
  8
03
100
AcDbLine
 10
204.6677428827011
 20
318.898326602647
 30
0.0
 11
150.8677428827011
 21
318.898326602647
 31
0.0
  0
LINE
  5
2AE
330
A
100
AcDbEntity
  8
03
100
AcDbLine
 10
204.6677428827011
 20
318.898326602647
 30
0.0
 11
204.6677428827011
 21
303.998326602647
 31
0.0
  0
LINE
  5
2AF
330
A
100
AcDbEntity
  8
03
100
AcDbLine
 10
150.8677428827011
 20
481.3983266026468
 30
0.0
 11
150.8677428827011
 21
320.498326602647
 31
0.0
  0
LINE
  5
2B0
330
A
100
AcDbEntity
  8
03
100
AcDbLine
 10
172.7677428827011
 20
317.3983266026468
 30
0.0
 11
188.7677428827011
 21
317.3983266026468
 31
0.0
  0
LINE
  5
2B1
330
A
100
AcDbEntity
  8
03
100
AcDbLine
 10
190.2677428827011
 20
317.298326602647
 30
0.0
 11
190.2677428827011
 21
303.998326602647
 31
0.0
  0
LINE
  5
2B2
330
A
100
AcDbEntity
  8
03
100
AcDbLine
 10
171.2677428827011
 20
317.298326602647
 30
0.0
 11
171.2677428827011
 21
303.998326602647
 31
0.0
  0
LINE
  5
2B3
330
A
100
AcDbEntity
  8
03
100
AcDbLine
 10
149.2677428827011
 20
303.998326602647
 30
0.0
 11
171.2677428827011
 21
303.998326602647
 31
0.0
  0
LINE
  5
2B4
330
A
100
AcDbEntity
  8
03
100
AcDbLine
 10
190.2677428827011
 20
303.998326602647
 30
0.0
 11
206.2677428827011
 21
303.998326602647
 31
0.0
  0
LINE
  5
2B5
330
A
100
AcDbEntity
  8
03
100
AcDbLine
 10
150.8677428827011
 20
481.3983266026468
 30
0.0
 11
259.6677428827011
 21
481.3983266026468
 31
0.0
  0
LINE
  5
2B6
330
A
100
AcDbEntity
  8
03
100
AcDbLine
 10
259.6677428827011
 20
500.9983266026461
 30
0.0
 11
259.6677428827011
 21
482.9983266026451
 31
0.0
  0
CIRCLE
  5
2B7
330
A
100
AcDbEntity
  8
03
100
AcDbCircle
 10
263.7677428827012
 20
507.4983266026461
 30
0.0
 40
4.0
  0
ARC
  5
2B8
330
A
100
AcDbEntity
  8
03
100
AcDbCircle
 10
259.6677428827011
 20
482.9983266026468
 30
0.0
 40
1.6
100
AcDbArc
 50
270.0
 51
0.0
  0
ARC
  5
2B9
330
A
100
AcDbEntity
  8
03
100
AcDbCircle
 10
150.8677428827011
 20
481.3983266026468
 30
0.0
 40
1.6
100
AcDbArc
 50
90.0
 51
180.0
  0
ARC
  5
2BA
330
A
100
AcDbEntity
  8
03
100
AcDbCircle
 10
150.8677428827011
 20
320.498326602647
 30
0.0
 40
1.6
100
AcDbArc
 50
180.0
 51
270.0
  0
ARC
  5
2BB
330
A
100
AcDbEntity
  8
03
100
AcDbCircle
 10
204.6677428827011
 20
318.898326602647
 30
0.0
 40
1.6
100
AcDbArc
 50
0.0
 51
90.0
  0
LINE
  5
2BC
330
A
100
AcDbEntity
  8
03
100
AcDbLine
 10
149.3677428827011
 20
302.498326602647
 30
0.0
 11
171.1677428827012
 21
302.498326602647
 31
0.0
  0
LINE
  5
2BD
330
A
100
AcDbEntity
  8
03
100
AcDbLine
 10
190.3677428827011
 20
302.498326602647
 30
0.0
 11
206.1677428827012
 21
302.498326602647
 31
0.0
  0
LINE
  5
2C4
330
A
100
AcDbEntity
  8
02
100
AcDbLine
 10
193.7677428827011
 20
320.498326602647
 30
0.0
 11
174.7677428827011
 21
320.498326602647
 31
0.0
  0
LINE
  5
2CC
330
A
100
AcDbEntity
  8
02
100
AcDbLine
 10
199.7677428827011
 20
378.498326602647
 30
0.0
 11
199.7677428827011
 21
326.498326602647
 31
0.0
  0
LINE
  5
2CD
330
A
100
AcDbEntity
  8
02
100
AcDbLine
 10
193.7677428827011
 20
378.498326602647
 30
0.0
 11
193.7677428827011
 21
326.498326602647
 31
0.0
  0
LINE
  5
2CE
330
A
100
AcDbEntity
  8
02
100
AcDbLine
 10
174.7677428827011
 20
326.498326602647
 30
0.0
 11
193.7677428827011
 21
326.498326602647
 31
0.0
  0
ARC
  5
2CF
330
A
100
AcDbEntity
  8
02
100
AcDbCircle
 10
193.7677428827011
 20
326.498326602647
 30
0.0
 40
6.0
100
AcDbArc
 50
270.0
 51
0.0
  0
LINE
  5
2D0
330
A
100
AcDbEntity
  8
02
100
AcDbLine
 10
193.7677428827011
 20
378.498326602647
 30
0.0
 11
174.7677428827011
 21
378.498326602647
 31
0.0
  0
ARC
  5
2D1
330
A
100
AcDbEntity
  8
02
100
AcDbCircle
 10
193.7677428827011
 20
378.498326602647
 30
0.0
 40
6.0
100
AcDbArc
 50
0.0
 51
90.0
  0
LINE
  5
2D2
330
A
100
AcDbEntity
  8
03
100
AcDbLine
 10
172.7677428827011
 20
493.9983266026463
 30
0.0
 11
186.7677428827011
 21
493.9983266026463
 31
0.0
  0
LINE
  5
2D3
330
A
100
AcDbEntity
  8
03
100
AcDbLine
 10
186.7677428827011
 20
493.9983266026463
 30
0.0
 11
186.7677428827011
 21
484.4983266026461
 31
0.0
  0
LINE
  5
2D4
330
A
100
AcDbEntity
  8
03
100
AcDbLine
 10
172.7677428827011
 20
484.4983266026464
 30
0.0
 11
172.7677428827011
 21
493.9983266026463
 31
0.0
  0
LINE
  5
2D5
330
A
100
AcDbEntity
  8
03
100
AcDbLine
 10
171.7677428827011
 20
502.4983266026461
 30
0.0
 11
176.7677428827011
 21
504.4983266026461
 31
0.0
  0
LINE
  5
2D6
330
A
100
AcDbEntity
  8
03
100
AcDbLine
 10
187.7677428827011
 20
502.4983266026461
 30
0.0
 11
182.7677428827011
 21
504.4983266026461
 31
0.0
  0
LINE
  5
2D7
330
A
100
AcDbEntity
  8
04
100
AcDbLine
 10
199.7677428827011
 20
338.498326602647
 30
0.0
 11
230.7677428827012
 21
338.498326602647
 31
0.0
  0
LINE
  5
2D8
330
A
100
AcDbEntity
  8
04
100
AcDbLine
 10
199.7677428827011
 20
372.498326602647
 30
0.0
 11
204.7677428827011
 21
372.498326602647
 31
0.0
  0
LINE
  5
2D9
330
A
100
AcDbEntity
  8
04
100
AcDbLine
 10
205.7675909469988
 20
353.4983337633043
 30
0.0
 11
205.7677428827012
 21
350.498326602647
 31
0.0
  0
LINE
  5
2DA
330
A
100
AcDbEntity
  8
04
100
AcDbLine
 10
211.7677428827011
 20
344.498326602647
 30
0.0
 11
218.7677428827011
 21
344.498326602647
 31
0.0
  0
LINE
  5
2DB
330
A
100
AcDbEntity
  8
04
100
AcDbLine
 10
222.7677428827012
 20
352.498326602647
 30
0.0
 11
230.7677428827012
 21
352.498326602647
 31
0.0
  0
LINE
  5
2DC
330
A
100
AcDbEntity
  8
04
100
AcDbLine
 10
221.7677428827011
 20
351.498326602647
 30
0.0
 11
221.7677428827011
 21
347.498326602647
 31
0.0
  0
LINE
  5
2DD
330
A
100
AcDbEntity
  8
04
100
AcDbLine
 10
230.7677428827012
 20
347.498326602647
 30
0.0
 11
228.7677428827012
 21
347.498326602647
 31
0.0
  0
LINE
  5
2DE
330
A
100
AcDbEntity
  8
04
100
AcDbLine
 10
228.7677428827012
 20
342.498326602647
 30
0.0
 11
231.7677428827011
 21
342.498326602647
 31
0.0
  0
LINE
  5
2DF
330
A
100
AcDbEntity
  8
04
100
AcDbLine
 10
227.7677428827011
 20
346.498326602647
 30
0.0
 11
227.7677428827011
 21
343.498326602647
 31
0.0
  0
LINE
  5
2E0
330
A
100
AcDbEntity
  8
04
100
AcDbLine
 10
231.7677428827011
 20
351.498326602647
 30
0.0
 11
231.7677428827011
 21
348.498326602647
 31
0.0
  0
LINE
  5
2E1
330
A
100
AcDbEntity
  8
04
100
AcDbLine
 10
231.7677428827011
 20
342.498326602647
 30
0.0
 11
231.7677428827011
 21
339.498326602647
 31
0.0
  0
ARC
  5
2E2
330
A
100
AcDbEntity
  8
04
100
AcDbCircle
 10
222.7677428827012
 20
351.498326602647
 30
0.0
 40
1.0
100
AcDbArc
 50
90.0
 51
180.0
  0
ARC
  5
2E3
330
A
100
AcDbEntity
  8
04
100
AcDbCircle
 10
230.7677428827012
 20
351.498326602647
 30
0.0
 40
1.0
100
AcDbArc
 50
0.0
 51
90.0
  0
ARC
  5
2E4
330
A
100
AcDbEntity
  8
04
100
AcDbCircle
 10
230.7677428827012
 20
339.498326602647
 30
0.0
 40
1.0
100
AcDbArc
 50
270.0
 51
0.0
  0
ARC
  5
2E5
330
A
100
AcDbEntity
  8
04
100
AcDbCircle
 10
228.7677428827012
 20
343.498326602647
 30
0.0
 40
1.0
100
AcDbArc
 50
180.0
 51
270.0
  0
ARC
  5
2E6
330
A
100
AcDbEntity
  8
04
100
AcDbCircle
 10
228.7677428827012
 20
346.498326602647
 30
0.0
 40
1.0
100
AcDbArc
 50
90.0
 51
180.0
  0
ARC
  5
2E7
330
A
100
AcDbEntity
  8
04
100
AcDbCircle
 10
230.7677428827012
 20
348.498326602647
 30
0.0
 40
1.0
100
AcDbArc
 50
270.0
 51
0.0
  0
ARC
  5
2E8
330
A
100
AcDbEntity
  8
04
100
AcDbCircle
 10
204.7677428827011
 20
371.498326602647
 30
0.0
 40
1.0
100
AcDbArc
 50
0.0
 51
90.0
  0
ARC
  5
2E9
330
A
100
AcDbEntity
  8
04
100
AcDbCircle
 10
211.7677428827011
 20
350.498326602647
 30
0.0
 40
6.0
100
AcDbArc
 50
180.0
 51
270.0
  0
ARC
  5
2EA
330
A
100
AcDbEntity
  8
04
100
AcDbCircle
 10
218.7677428827011
 20
347.498326602647
 30
0.0
 40
3.0
100
AcDbArc
 50
270.0
 51
0.0
  0
LINE
  5
2EB
330
A
100
AcDbEntity
  8
04
100
AcDbLine
 10
207.3677528411057
 20
371.4983341703552
 30
0.0
 11
205.7691448241368
 21
371.4983282825926
 31
0.0
  0
LINE
  5
2EC
330
A
100
AcDbEntity
  8
04
100
AcDbLine
 10
205.7691899166669
 20
353.4983337498076
 30
0.0
 11
207.367673955988
 21
353.4983202572025
 31
0.0
  0
LINE
  5
2ED
330
A
100
AcDbEntity
  8
04
100
AcDbLine
 10
207.3676775394611
 20
353.4983214170507
 30
0.0
 11
207.3676889392884
 21
354.7983343251185
 31
0.0
  0
LINE
  5
2EE
330
A
100
AcDbEntity
  8
04
100
AcDbLine
 10
208.9677346049712
 20
354.7983198289741
 30
0.0
 11
208.9677349901497
 21
354.9926915090206
 31
0.0
  0
LINE
  5
2EF
330
A
100
AcDbEntity
  8
04
100
AcDbLine
 10
208.9676943001662
 20
370.0038793262643
 30
0.0
 11
213.7726929722315
 21
370.0038827098304
 31
0.0
  0
LINE
  5
2F0
330
A
100
AcDbEntity
  8
04
100
AcDbLine
 10
208.9676808208274
 20
354.9926914962072
 30
0.0
 11
213.7727397717422
 21
354.9928255742296
 31
0.0
  0
LINE
  5
2F1
330
A
100
AcDbEntity
  8
04
100
AcDbLine
 10
213.7728051052524
 20
370.0039385550841
 30
0.0
 11
214.468625592831
 21
368.7983503517954
 31
0.0
  0
LINE
  5
2F2
330
A
100
AcDbEntity
  8
04
100
AcDbLine
 10
213.7726722236698
 20
354.9927780115083
 30
0.0
 11
214.4687000425026
 21
356.1983420296081
 31
0.0
  0
LINE
  5
2F3
330
A
100
AcDbEntity
  8
04
100
AcDbLine
 10
214.4687305601133
 20
356.1983307825038
 30
0.0
 11
214.468761077229
 21
368.7983371403996
 31
0.0
  0
LINE
  5
2F9
330
A
100
AcDbEntity
  8
04
100
AcDbLine
 10
208.9676390092236
 20
370.1983321488861
 30
0.0
 11
207.3677095680896
 21
370.198334819063
 31
0.0
  0
LINE
  5
2FA
330
A
100
AcDbEntity
  8
04
100
AcDbLine
 10
208.9677767066314
 20
354.7983315778469
 30
0.0
 11
207.3677379866536
 21
354.7983343214796
 31
0.0
  0
LINE
  5
30A
330
A
100
AcDbEntity
  8
04
100
AcDbLine
 10
248.7677428827011
 20
408.498326602647
 30
0.0
 11
248.7677428827011
 21
327.498326602647
 31
0.0
  0
LINE
  5
30B
330
A
100
AcDbEntity
  8
04
100
AcDbLine
 10
243.2677428827012
 20
320.9983266026468
 30
0.0
 11
215.2677428827011
 21
320.9983266026468
 31
0.0
  0
LINE
  5
30C
330
A
100
AcDbEntity
  8
04
100
AcDbLine
 10
215.2677428827011
 20
320.9983266026468
 30
0.0
 11
215.2677428827011
 21
316.498326602647
 31
0.0
  0
LINE
  5
30D
330
A
100
AcDbEntity
  8
04
100
AcDbLine
 10
248.7677428827011
 20
408.498326602647
 30
0.0
 11
243.2677428827012
 21
408.498326602647
 31
0.0
  0
LINE
  5
30E
330
A
100
AcDbEntity
  8
04
100
AcDbLine
 10
243.2677428827012
 20
408.498326602647
 30
0.0
 11
243.2677428827012
 21
316.498326602647
 31
0.0
  0
LINE
  5
30F
330
A
100
AcDbEntity
  8
04
100
AcDbLine
 10
244.7677428827011
 20
327.498326602647
 30
0.0
 11
248.7677428827011
 21
327.498326602647
 31
0.0
  0
LINE
  5
310
330
A
100
AcDbEntity
  8
04
100
AcDbLine
 10
243.2677428827012
 20
364.998326602647
 30
0.0
 11
238.7677428827011
 21
364.998326602647
 31
0.0
  0
LINE
  5
312
330
A
100
AcDbEntity
  8
04
100
AcDbLine
 10
230.7677428827012
 20
336.498326602647
 30
0.0
 11
238.7677428827011
 21
336.498326602647
 31
0.0
  0
LINE
  5
313
330
A
100
AcDbEntity
  8
04
100
AcDbLine
 10
230.7677428827012
 20
337.998326602647
 30
0.0
 11
220.2677428827012
 21
337.998326602647
 31
0.0
  0
LINE
  5
314
330
A
100
AcDbEntity
  8
04
100
AcDbLine
 10
219.2677428827011
 20
335.9868886943349
 30
0.0
 11
219.2677428827011
 21
333.998326602647
 31
0.0
  0
LINE
  5
315
330
A
100
AcDbEntity
  8
04
100
AcDbLine
 10
219.2677428827011
 20
335.9868886943349
 30
0.0
 11
220.2677428827012
 21
335.9868886943349
 31
0.0
  0
LINE
  5
317
330
A
100
AcDbEntity
  8
04
100
AcDbLine
 10
217.7677428827011
 20
330.6245995655238
 30
0.0
 11
217.7677428827011
 21
333.998326602647
 31
0.0
  0
LINE
  5
318
330
A
100
AcDbEntity
  8
04
100
AcDbLine
 10
217.7677428827011
 20
333.998326602647
 30
0.0
 11
219.2677428827011
 21
333.998326602647
 31
0.0
  0
LINE
  5
319
330
A
100
AcDbEntity
  8
04
100
AcDbLine
 10
244.2677428827011
 20
321.998326602647
 30
0.0
 11
244.7677428827011
 21
321.998326602647
 31
0.0
  0
LINE
  5
31C
330
A
100
AcDbEntity
  8
04
100
AcDbLine
 10
243.2677428827012
 20
388.4679817172499
 30
0.0
 11
236.7677428827011
 21
388.4679817172499
 31
0.0
  0
LINE
  5
31D
330
A
100
AcDbEntity
  8
04
100
AcDbLine
 10
236.7677428827011
 20
366.5286714880441
 30
0.0
 11
243.2677428827012
 21
366.5286714880441
 31
0.0
  0
LINE
  5
320
330
A
100
AcDbEntity
  8
04
100
AcDbLine
 10
236.7677428827011
 20
407.4983266026468
 30
0.0
 11
236.7677428827011
 21
347.498326602647
 31
0.0
  0
LINE
  5
321
330
A
100
AcDbEntity
  8
04
100
AcDbLine
 10
221.7677428827011
 20
402.4983266026468
 30
0.0
 11
231.7677428827011
 21
402.4983266026468
 31
0.0
  0
LINE
  5
322
330
A
100
AcDbEntity
  8
04
100
AcDbLine
 10
231.7677428827011
 20
402.4983266026468
 30
0.0
 11
233.1074888448568
 21
407.4983266026468
 31
0.0
  0
LINE
  5
323
330
A
100
AcDbEntity
  8
04
100
AcDbLine
 10
233.1074888448568
 20
407.4983266026468
 30
0.0
 11
236.7677428827011
 21
407.4983266026468
 31
0.0
  0
LINE
  5
324
330
A
100
AcDbEntity
  8
04
100
AcDbLine
 10
221.7677428827011
 20
402.4983266026468
 30
0.0
 11
220.4279969205455
 21
407.4983266026468
 31
0.0
  0
LINE
  5
325
330
A
100
AcDbEntity
  8
04
100
AcDbLine
 10
220.4279969205455
 20
407.4983266026468
 30
0.0
 11
216.7677428827011
 21
407.4983266026468
 31
0.0
  0
LINE
  5
326
330
A
100
AcDbEntity
  8
04
100
AcDbLine
 10
216.7677428827011
 20
407.4983266026468
 30
0.0
 11
216.7677428827011
 21
347.498326602647
 31
0.0
  0
LINE
  5
327
330
A
100
AcDbEntity
  8
04
100
AcDbLine
 10
221.7677428827011
 20
352.498326602647
 30
0.0
 11
231.7677428827011
 21
352.498326602647
 31
0.0
  0
LINE
  5
328
330
A
100
AcDbEntity
  8
04
100
AcDbLine
 10
231.7677428827011
 20
352.498326602647
 30
0.0
 11
233.1074888448568
 21
347.498326602647
 31
0.0
  0
LINE
  5
329
330
A
100
AcDbEntity
  8
04
100
AcDbLine
 10
233.1074888448568
 20
347.498326602647
 30
0.0
 11
236.7677428827011
 21
347.498326602647
 31
0.0
  0
LINE
  5
32A
330
A
100
AcDbEntity
  8
04
100
AcDbLine
 10
221.7677428827011
 20
352.498326602647
 30
0.0
 11
220.4279969205455
 21
347.498326602647
 31
0.0
  0
LINE
  5
32B
330
A
100
AcDbEntity
  8
04
100
AcDbLine
 10
220.4279969205455
 20
347.498326602647
 30
0.0
 11
216.7677428827011
 21
347.498326602647
 31
0.0
  0
LINE
  5
330
330
A
100
AcDbEntity
  8
04
100
AcDbLine
 10
216.7677428827011
 20
384.998326602647
 30
0.0
 11
216.2677428827012
 21
384.998326602647
 31
0.0
  0
LINE
  5
331
330
A
100
AcDbEntity
  8
04
100
AcDbLine
 10
216.2677428827012
 20
384.998326602647
 30
0.0
 11
216.2677428827012
 21
369.998326602647
 31
0.0
  0
LINE
  5
332
330
A
100
AcDbEntity
  8
04
100
AcDbLine
 10
216.2677428827012
 20
369.998326602647
 30
0.0
 11
216.7677428827011
 21
369.998326602647
 31
0.0
  0
LINE
  5
336
330
A
100
AcDbEntity
  8
04
100
AcDbLine
 10
248.7677428827011
 20
363.248326602647
 30
0.0
 11
250.3677428827011
 21
363.248326602647
 31
0.0
  0
LINE
  5
338
330
A
100
AcDbEntity
  8
04
100
AcDbLine
 10
250.3677428827011
 20
350.748326602647
 30
0.0
 11
248.7677428827011
 21
350.748326602647
 31
0.0
  0
LINE
  5
339
330
A
100
AcDbEntity
  8
04
100
AcDbLine
 10
250.3677428827011
 20
350.8983266026469
 30
0.0
 11
251.8677428827011
 21
350.8983266026469
 31
0.0
  0
LINE
  5
33B
330
A
100
AcDbEntity
  8
04
100
AcDbLine
 10
251.8677428827011
 20
363.098326602647
 30
0.0
 11
250.3677428827011
 21
363.098326602647
 31
0.0
  0
LINE
  5
33C
330
A
100
AcDbEntity
  8
04
100
AcDbLine
 10
251.8677428827011
 20
362.771826602647
 30
0.0
 11
255.3634276577011
 21
362.771826602647
 31
0.0
  0
LINE
  5
33D
330
A
100
AcDbEntity
  8
04
100
AcDbLine
 10
251.8677428827011
 20
351.224826602647
 30
0.0
 11
255.3634276577011
 21
351.224826602647
 31
0.0
  0
LINE
  5
33E
330
A
100
AcDbEntity
  8
04
100
AcDbLine
 10
255.3634276577011
 20
362.771826602647
 30
0.0
 11
255.8677428827011
 21
361.8983266026468
 31
0.0
  0
LINE
  5
33F
330
A
100
AcDbEntity
  8
04
100
AcDbLine
 10
255.3634276577011
 20
351.224826602647
 30
0.0
 11
255.8677428827011
 21
352.0983266026468
 31
0.0
  0
LINE
  5
340
330
A
100
AcDbEntity
  8
04
100
AcDbLine
 10
255.8677428827011
 20
352.0983266026468
 30
0.0
 11
255.8677428827011
 21
361.8983266026468
 31
0.0
  0
LINE
  5
349
330
A
100
AcDbEntity
  8
04
100
AcDbLine
 10
250.3677428827011
 20
340.748326602647
 30
0.0
 11
248.7677428827011
 21
340.748326602647
 31
0.0
  0
LINE
  5
34A
330
A
100
AcDbEntity
  8
04
100
AcDbLine
 10
250.3677428827011
 20
340.8983266026468
 30
0.0
 11
251.8677428827011
 21
340.8983266026468
 31
0.0
  0
LINE
  5
34C
330
A
100
AcDbEntity
  8
04
100
AcDbLine
 10
251.8677428827011
 20
341.224826602647
 30
0.0
 11
255.3634276577011
 21
341.224826602647
 31
0.0
  0
LINE
  5
34D
330
A
100
AcDbEntity
  8
04
100
AcDbLine
 10
255.3634276577011
 20
341.224826602647
 30
0.0
 11
255.8677428827011
 21
342.098326602647
 31
0.0
  0
LINE
  5
34E
330
A
100
AcDbEntity
  8
04
100
AcDbLine
 10
255.8677428827011
 20
342.098326602647
 30
0.0
 11
255.8677428827011
 21
349.898326602647
 31
0.0
  0
LINE
  5
354
330
A
100
AcDbEntity
  8
04
100
AcDbLine
 10
220.2677428827012
 20
337.998326602647
 30
0.0
 11
220.2677428827012
 21
335.9868886943349
 31
0.0
  0
LINE
  5
355
330
A
100
AcDbEntity
  8
04
100
AcDbLine
 10
230.7677428827012
 20
336.498326602647
 30
0.0
 11
230.7677428827012
 21
337.998326602647
 31
0.0
  0
LINE
  5
356
330
A
100
AcDbEntity
  8
04
100
AcDbLine
 10
238.7677428827011
 20
364.998326602647
 30
0.0
 11
238.7677428827011
 21
320.9983266026468
 31
0.0
  0
LINE
  5
357
330
A
100
AcDbEntity
  8
04
100
AcDbLine
 10
248.7677428827011
 20
406.4983266026469
 30
0.0
 11
248.7677428827011
 21
392.498326602647
 31
0.0
  0
LINE
  5
358
330
A
100
AcDbEntity
  8
04
100
AcDbLine
 10
250.2758630258663
 20
405.2718266013832
 30
0.0
 11
254.2634276577012
 21
405.271826602647
 31
0.0
  0
LINE
  5
359
330
A
100
AcDbEntity
  8
04
100
AcDbLine
 10
250.2758629885919
 20
393.7248266013833
 30
0.0
 11
254.2634276577012
 21
393.724826602647
 31
0.0
  0
LINE
  5
35A
330
A
100
AcDbEntity
  8
04
100
AcDbLine
 10
254.2634276577012
 20
405.271826602647
 30
0.0
 11
254.7677428827011
 21
404.398326602647
 31
0.0
  0
LINE
  5
35B
330
A
100
AcDbEntity
  8
04
100
AcDbLine
 10
254.2634276577012
 20
393.724826602647
 30
0.0
 11
254.7677428827011
 21
394.598326602647
 31
0.0
  0
LINE
  5
35C
330
A
100
AcDbEntity
  8
04
100
AcDbLine
 10
254.7677428827011
 20
394.598326602647
 30
0.0
 11
254.767742882701
 21
396.498326602647
 31
0.0
  0
LINE
  5
362
330
A
100
AcDbEntity
  8
04
100
AcDbLine
 10
249.5677428827011
 20
406.4983266026469
 30
0.0
 11
248.7677428827011
 21
406.4983266026469
 31
0.0
  0
LINE
  5
363
330
A
100
AcDbEntity
  8
04
100
AcDbLine
 10
249.5677428827011
 20
392.498326602647
 30
0.0
 11
248.7677428827011
 21
392.498326602647
 31
0.0
  0
LINE
  5
365
330
A
100
AcDbEntity
  8
04
100
AcDbLine
 10
249.5677428827011
 20
392.498326602647
 30
0.0
 11
250.2758629885919
 21
393.7248266013833
 31
0.0
  0
LINE
  5
366
330
A
100
AcDbEntity
  8
04
100
AcDbLine
 10
249.5677428827011
 20
406.4983266026469
 30
0.0
 11
250.2758629885919
 21
405.2718266013832
 31
0.0
  0
LINE
  5
36A
330
A
100
AcDbEntity
  8
04
100
AcDbLine
 10
254.7677428827011
 20
396.498326602647
 30
0.0
 11
255.7677428827012
 21
396.498326602647
 31
0.0
  0
LINE
  5
36B
330
A
100
AcDbEntity
  8
04
100
AcDbLine
 10
254.7677428827011
 20
402.4983266026469
 30
0.0
 11
255.7677428827012
 21
402.4983266026469
 31
0.0
  0
LINE
  5
36C
330
A
100
AcDbEntity
  8
04
100
AcDbLine
 10
255.7677428827012
 20
396.498326602647
 30
0.0
 11
256.7677428827012
 21
397.498326602647
 31
0.0
  0
LINE
  5
36D
330
A
100
AcDbEntity
  8
04
100
AcDbLine
 10
255.7677428827012
 20
402.4983266026469
 30
0.0
 11
256.7677428827012
 21
401.4983266026471
 31
0.0
  0
LINE
  5
36E
330
A
100
AcDbEntity
  8
04
100
AcDbLine
 10
256.7677428827012
 20
401.4983266026471
 30
0.0
 11
256.7677428827012
 21
397.498326602647
 31
0.0
  0
LINE
  5
37E
330
A
100
AcDbEntity
  8
04
100
AcDbLine
 10
214.2677428827012
 20
316.498326602647
 30
0.0
 11
214.2677428827012
 21
312.498326602647
 31
0.0
  0
LINE
  5
37F
330
A
100
AcDbEntity
  8
04
100
AcDbLine
 10
239.2677428827012
 20
312.498326602647
 30
0.0
 11
239.2677428827012
 21
316.498326602647
 31
0.0
  0
LINE
  5
380
330
A
100
AcDbEntity
  8
04
100
AcDbLine
 10
215.2677353149929
 20
322.5983365610515
 30
0.0
 11
215.2677412027554
 21
320.9997285440826
 31
0.0
  0
LINE
  5
381
330
A
100
AcDbEntity
  8
04
100
AcDbLine
 10
233.2677357355405
 20
320.9997736366127
 30
0.0
 11
233.2677492281455
 21
322.5982576759339
 31
0.0
  0
LINE
  5
384
330
A
100
AcDbEntity
  8
04
100
AcDbLine
 10
216.7621901590836
 20
324.198278020112
 30
0.0
 11
216.7621867755177
 21
329.0032766921774
 31
0.0
  0
LINE
  5
385
330
A
100
AcDbEntity
  8
04
100
AcDbLine
 10
231.7733779891408
 20
324.1982645407734
 30
0.0
 11
231.7732439111183
 21
329.0033234916879
 31
0.0
  0
LINE
  5
386
330
A
100
AcDbEntity
  8
04
100
AcDbLine
 10
216.7621309302639
 20
329.0033888251981
 30
0.0
 11
217.9677191335525
 21
329.6992093127768
 31
0.0
  0
LINE
  5
387
330
A
100
AcDbEntity
  8
04
100
AcDbLine
 10
231.7732914738399
 20
329.0032559436156
 30
0.0
 11
230.5677274557399
 21
329.6992837624484
 31
0.0
  0
LINE
  5
388
330
A
100
AcDbEntity
  8
04
100
AcDbLine
 10
230.5677387028444
 20
329.6993142800591
 30
0.0
 11
217.9677323449485
 21
329.6993447971749
 31
0.0
  0
LINE
  5
38E
330
A
100
AcDbEntity
  8
04
100
AcDbLine
 10
216.5677373364619
 20
324.1982227291695
 30
0.0
 11
216.567734666285
 21
322.5982932880355
 31
0.0
  0
LINE
  5
38F
330
A
100
AcDbEntity
  8
04
100
AcDbLine
 10
231.9677379075011
 20
324.1983604265773
 30
0.0
 11
231.9677351638684
 21
322.5983217065995
 31
0.0
  0
LINE
  5
39A
330
A
100
AcDbEntity
  8
02
100
AcDbLine
 10
174.7677428827011
 20
320.498326602647
 30
0.0
 11
174.7677428827011
 21
481.3983266026468
 31
0.0
  0
LINE
  5
39B
330
A
100
AcDbEntity
  8
02
100
AcDbLine
 10
168.7677428827011
 20
481.3983266026468
 30
0.0
 11
168.7677428827011
 21
320.498326602647
 31
0.0
  0
ARC
  5
39C
330
A
100
AcDbEntity
  8
03
100
AcDbCircle
 10
190.3677428827011
 20
304.0983266026468
 30
0.0
 40
1.6
100
AcDbArc
 50
180.0
 51
270.0
  0
ARC
  5
39D
330
A
100
AcDbEntity
  8
03
100
AcDbCircle
 10
171.1677428827012
 20
304.0983266026468
 30
0.0
 40
1.6
100
AcDbArc
 50
270.0
 51
0.0
  0
ARC
  5
39E
330
A
100
AcDbEntity
  8
03
100
AcDbCircle
 10
149.3677428827011
 20
304.0983266026468
 30
0.0
 40
1.6
100
AcDbArc
 50
180.0
 51
270.0
  0
ARC
  5
39F
330
A
100
AcDbEntity
  8
03
100
AcDbCircle
 10
316.1677428827012
 20
500.8983266026469
 30
0.0
 40
1.6
100
AcDbArc
 50
0.0
 51
90.0
  0
ARC
  5
3A0
330
A
100
AcDbEntity
  8
03
100
AcDbCircle
 10
266.3677428827011
 20
500.8983266026461
 30
0.0
 40
1.6
100
AcDbArc
 50
90.0
 51
180.0
  0
ARC
  5
3A1
330
A
100
AcDbEntity
  8
03
100
AcDbCircle
 10
261.1677428827011
 20
500.8983266026461
 30
0.0
 40
1.6
100
AcDbArc
 50
0.0
 51
90.0
  0
ARC
  5
3A2
330
A
100
AcDbEntity
  8
03
100
AcDbCircle
 10
262.8677428827011
 20
484.5983266026461
 30
0.0
 40
1.6
100
AcDbArc
 50
180.0
 51
270.0
  0
ARC
  5
3A3
330
A
100
AcDbEntity
  8
03
100
AcDbCircle
 10
154.3677428827011
 20
500.8983266026461
 30
0.0
 40
1.6
100
AcDbArc
 50
90.0
 51
180.0
  0
ARC
  5
3A4
330
A
100
AcDbEntity
  8
03
100
AcDbCircle
 10
149.3677428827011
 20
482.898326602647
 30
0.0
 40
1.6
100
AcDbArc
 50
90.0
 51
180.0
  0
ARC
  5
3A5
330
A
100
AcDbEntity
  8
03
100
AcDbCircle
 10
316.1677428827012
 20
304.098326602647
 30
0.0
 40
1.6
100
AcDbArc
 50
270.0
 51
0.0
  0
ARC
  5
3A6
330
A
100
AcDbEntity
  8
03
100
AcDbCircle
 10
247.3677428827012
 20
304.098326602647
 30
0.0
 40
1.6
100
AcDbArc
 50
180.0
 51
270.0
  0
LINE
  5
3A7
330
A
100
AcDbEntity
  8
03
100
AcDbLine
 10
171.7677428827011
 20
534.4983266026462
 30
0.0
 11
176.7677428827011
 21
532.4983266026462
 31
0.0
  0
LINE
  5
3A8
330
A
100
AcDbEntity
  8
03
100
AcDbLine
 10
187.7677428827011
 20
534.4983266026462
 30
0.0
 11
182.7677428827011
 21
532.4983266026462
 31
0.0
  0
LINE
  5
3A9
330
A
100
AcDbEntity
  8
03
100
AcDbLine
 10
150.7677428827011
 20
302.498326602647
 30
0.0
 11
150.7677428827011
 21
230.498326602647
 31
0.0
  0
LINE
  5
3AA
330
A
100
AcDbEntity
  8
03
100
AcDbLine
 10
150.7677428827011
 20
225.498326602647
 30
0.0
 11
150.7677428827011
 21
205.498326602647
 31
0.0
  0
LINE
  5
3AB
330
A
100
AcDbEntity
  8
03
100
AcDbLine
 10
150.7677428827011
 20
200.498326602647
 30
0.0
 11
150.7677428827011
 21
107.4983266026469
 31
0.0
  0
LINE
  5
3AC
330
A
100
AcDbEntity
  8
03
100
AcDbLine
 10
144.7677428827011
 20
107.4983266026469
 30
0.0
 11
144.7677428827011
 21
200.498326602647
 31
0.0
  0
LINE
  5
3AD
330
A
100
AcDbEntity
  8
03
100
AcDbLine
 10
144.7677428827011
 20
205.498326602647
 30
0.0
 11
144.7677428827011
 21
225.498326602647
 31
0.0
  0
LINE
  5
3AE
330
A
100
AcDbEntity
  8
03
100
AcDbLine
 10
207.7677428827011
 20
230.498326602647
 30
0.0
 11
207.7677428827011
 21
312.498326602647
 31
0.0
  0
LINE
  5
3AF
330
A
100
AcDbEntity
  8
03
100
AcDbLine
 10
207.7677428827011
 20
107.4983266026469
 30
0.0
 11
207.7677428827011
 21
200.498326602647
 31
0.0
  0
LINE
  5
3B0
330
A
100
AcDbEntity
  8
03
100
AcDbLine
 10
207.7677428827011
 20
205.498326602647
 30
0.0
 11
207.7677428827011
 21
225.498326602647
 31
0.0
  0
LINE
  5
3B1
330
A
100
AcDbEntity
  8
03
100
AcDbLine
 10
187.7677428827011
 20
484.4983266026461
 30
0.0
 11
187.7677428827011
 21
514.4983266026462
 31
0.0
  0
LINE
  5
3B2
330
A
100
AcDbEntity
  8
03
100
AcDbLine
 10
187.7677428827011
 20
519.498326602646
 30
0.0
 11
187.7677428827011
 21
535.9983266026461
 31
0.0
  0
LINE
  5
3B3
330
A
100
AcDbEntity
  8
03
100
AcDbLine
 10
171.7677428827011
 20
484.4983266026464
 30
0.0
 11
171.7677428827011
 21
514.4983266026462
 31
0.0
  0
LINE
  5
3B4
330
A
100
AcDbEntity
  8
03
100
AcDbLine
 10
171.7677428827011
 20
519.498326602646
 30
0.0
 11
171.7677428827011
 21
535.9983266026461
 31
0.0
  0
LINE
  5
3B5
330
A
100
AcDbEntity
  8
03
100
AcDbLine
 10
176.7677428827011
 20
493.9983266026463
 30
0.0
 11
176.7677428827011
 21
514.4983266026462
 31
0.0
  0
LINE
  5
3B6
330
A
100
AcDbEntity
  8
03
100
AcDbLine
 10
176.7677428827011
 20
519.498326602646
 30
0.0
 11
176.7677428827011
 21
542.4983266026462
 31
0.0
  0
LINE
  5
3B7
330
A
100
AcDbEntity
  8
03
100
AcDbLine
 10
182.7677428827011
 20
493.9983266026463
 30
0.0
 11
182.7677428827011
 21
514.4983266026462
 31
0.0
  0
LINE
  5
3B8
330
A
100
AcDbEntity
  8
03
100
AcDbLine
 10
182.7677428827011
 20
519.498326602646
 30
0.0
 11
182.7677428827011
 21
542.4983266026462
 31
0.0
  0
LINE
  5
3B9
330
A
100
AcDbEntity
  8
03
100
AcDbLine
 10
264.7677428827012
 20
484.4983266026461
 30
0.0
 11
264.7677428827012
 21
514.4983266026462
 31
0.0
  0
LINE
  5
3BA
330
A
100
AcDbEntity
  8
03
100
AcDbLine
 10
264.7677428827012
 20
519.498326602646
 30
0.0
 11
264.7677428827012
 21
564.4983266026462
 31
0.0
  0
LINE
  5
3BB
330
A
100
AcDbEntity
  8
03
100
AcDbLine
 10
144.7677428827011
 20
230.498326602647
 30
0.0
 11
144.7677428827011
 21
514.4983266026462
 31
0.0
  0
LINE
  5
3BC
330
A
100
AcDbEntity
  8
03
100
AcDbLine
 10
144.7677428827011
 20
519.498326602646
 30
0.0
 11
144.7677428827011
 21
564.4983266026462
 31
0.0
  0
LINE
  5
3BF
330
A
100
AcDbEntity
  8
CHUSIN
 48
0.3
100
AcDbLine
 10
263.7677428827012
 20
513.457903541622
 30
0.0
 11
263.7677428827012
 21
495.7527209128436
 31
0.0
  0
LINE
  5
3C0
330
A
100
AcDbEntity
  8
CHUSIN
 48
0.2
100
AcDbLine
 10
259.2266801124651
 20
507.4983266026461
 30
0.0
 11
267.5835263132484
 21
507.4983266026461
 31
0.0
  0
LINE
  5
3C1
330
A
100
AcDbEntity
  8
CHUSIN
100
AcDbLine
 10
179.7677428827011
 20
484.4983266026463
 30
0.0
 11
179.7677428827011
 21
557.8011087416639
 31
0.0
  0
LINE
  5
3C2
330
A
100
AcDbEntity
  8
03
100
AcDbLine
 10
186.7677428827011
 20
493.9983266026463
 30
0.0
 11
172.7677428827011
 21
484.4983266026464
 31
0.0
  0
LINE
  5
3E1
330
A
100
AcDbEntity
  8
CHUSIN
100
AcDbLine
 10
226.7677428827012
 20
408.3751627907997
 30
0.0
 11
226.7677428827012
 21
279.0234469850574
 31
0.0
  0
LINE
  5
3E2
330
A
100
AcDbEntity
  8
CHUSIN
100
AcDbLine
 10
180.7677428827011
 20
317.3983266026468
 30
0.0
 11
180.7677428827011
 21
280.4065649459746
 31
0.0
  0
LINE
  5
3E3
330
A
100
AcDbEntity
  8
CHUSIN
100
AcDbLine
 10
184.8202066583304
 20
362.498326602647
 30
0.0
 11
217.0268475769649
 21
362.498326602647
 31
0.0
  0
LINE
  5
3E5
330
A
100
AcDbEntity
  8
CHUSIN
100
AcDbLine
 10
207.714478045605
 20
377.498326602647
 30
0.0
 11
252.7677428827011
 21
377.498326602647
 31
0.0
  0
LINE
  5
3EB
330
A
100
AcDbEntity
  8
03
100
AcDbLine
 10
174.5968574029423
 20
302.498326602647
 30
0.0
 11
186.9386283624598
 21
302.498326602647
 31
0.0
  0
LINE
  5
3EC
330
A
100
AcDbEntity
  8
03
100
AcDbLine
 10
174.7677428827011
 20
317.3983266026468
 30
0.0
 11
173.0110792752543
 21
304.3111827271689
 31
0.0
  0
LINE
  5
3ED
330
A
100
AcDbEntity
  8
03
100
AcDbLine
 10
186.7677428827011
 20
317.3983266026468
 30
0.0
 11
188.5244064901478
 21
304.3111827271687
 31
0.0
  0
LINE
  5
3EE
330
A
100
AcDbEntity
  8
03
100
AcDbLine
 10
185.1819647550131
 20
317.1854704781251
 30
0.0
 11
186.9386283624598
 21
304.0983266026468
 31
0.0
  0
LINE
  5
3EF
330
A
100
AcDbEntity
  8
03
100
AcDbLine
 10
186.9386283624598
 20
304.0983266026468
 30
0.0
 11
174.5968574029423
 21
304.0983266026468
 31
0.0
  0
LINE
  5
3F0
330
A
100
AcDbEntity
  8
03
100
AcDbLine
 10
174.5968574029423
 20
304.0983266026468
 30
0.0
 11
176.353521010389
 21
317.1854704781251
 31
0.0
  0
ARC
  5
3F1
330
A
100
AcDbEntity
  8
03
100
AcDbCircle
 10
186.9386283624598
 20
304.0983266026468
 30
0.0
 40
1.6
100
AcDbArc
 50
270.0
 51
7.645013271669327
  0
ARC
  5
3F2
330
A
100
AcDbEntity
  8
03
100
AcDbCircle
 10
174.5968574029423
 20
304.0983266026468
 30
0.0
 40
1.6
100
AcDbArc
 50
172.3549867283285
 51
270.0
  0
LINE
  5
3F3
330
A
100
AcDbEntity
  8
03
100
AcDbLine
 10
174.7677428827011
 20
317.3983266026468
 30
0.0
 11
176.353521010389
 21
317.1854704781251
 31
0.0
  0
LINE
  5
3F4
330
A
100
AcDbEntity
  8
03
100
AcDbLine
 10
186.7677428827011
 20
317.3983266026468
 30
0.0
 11
185.1819647550131
 21
317.1854704781251
 31
0.0
  0
LINE
  5
3F5
330
A
100
AcDbEntity
  8
03
100
AcDbLine
 10
207.7677428827011
 20
312.498326602647
 30
0.0
 11
207.7677428827011
 21
304.0983266026468
 31
0.0
  0
ARC
  5
3F6
330
A
100
AcDbEntity
  8
03
100
AcDbCircle
 10
206.1677428827012
 20
304.0983266026468
 30
0.0
 40
1.6
100
AcDbArc
 50
270.0
 51
0.0
  0
LINE
  5
3F7
330
A
100
AcDbEntity
  8
03
100
AcDbLine
 10
172.8677428827011
 20
318.898326602647
 30
0.0
 11
188.6677428827011
 21
318.898326602647
 31
0.0
  0
ARC
  5
3F8
330
A
100
AcDbEntity
  8
03
100
AcDbCircle
 10
188.6677428827011
 20
317.298326602647
 30
0.0
 40
1.6
100
AcDbArc
 50
0.0
 51
90.0
  0
ARC
  5
3F9
330
A
100
AcDbEntity
  8
03
100
AcDbCircle
 10
172.8677428827011
 20
317.298326602647
 30
0.0
 40
1.6
100
AcDbArc
 50
90.0
 51
180.0
  0
LINE
  5
3FA
330
A
100
AcDbEntity
  8
03
100
AcDbLine
 10
261.2677428827012
 20
500.9983266026461
 30
0.0
 11
261.2677428827012
 21
482.9983266026468
 31
0.0
  0
LINE
  5
3FB
330
A
100
AcDbEntity
  8
03
100
AcDbLine
 10
171.7677428827011
 20
500.8983266026461
 30
0.0
 11
171.7677428827011
 21
484.4983266026464
 31
0.0
  0
LINE
  5
3FC
330
A
100
AcDbEntity
  8
03
100
AcDbLine
 10
187.7677428827011
 20
500.8983266026461
 30
0.0
 11
187.7677428827011
 21
484.4983266026461
 31
0.0
  0
LINE
  5
3FD
330
A
100
AcDbEntity
  8
03
100
AcDbLine
 10
187.6677428827012
 20
482.9983266026464
 30
0.0
 11
150.2677428827011
 21
482.998326602647
 31
0.0
  0
ARC
  5
3FE
330
A
100
AcDbEntity
  8
03
100
AcDbCircle
 10
189.3677428827011
 20
500.8983266026461
 30
0.0
 40
1.6
100
AcDbArc
 50
90.0
 51
180.0
  0
ARC
  5
3FF
330
A
100
AcDbEntity
  8
03
100
AcDbCircle
 10
170.1677428827012
 20
500.8983266026461
 30
0.0
 40
1.6
100
AcDbArc
 50
0.0
 51
90.0
  0
ARC
  5
400
330
A
100
AcDbEntity
  8
03
100
AcDbCircle
 10
187.6677428827012
 20
484.5983266026464
 30
0.0
 40
1.6
100
AcDbArc
 50
270.0
 51
0.0
  0
LINE
  5
401
330
A
100
AcDbEntity
  8
03
100
AcDbLine
 10
84.76774288270119
 20
107.4983266026469
 30
0.0
 11
207.7677428827011
 21
107.4983266026469
 31
0.0
  0
LINE
  5
402
330
A
100
AcDbEntity
  8
03
100
AcDbLine
 10
250.7677428827011
 20
107.4983266026469
 30
0.0
 11
384.7677428827012
 21
107.4983266026469
 31
0.0
  0
LINE
  5
403
330
A
100
AcDbEntity
  8
03
100
AcDbLine
 10
147.7677428827011
 20
535.9983266026461
 30
0.0
 11
147.7677428827011
 21
562.9983266026462
 31
0.0
  0
LINE
  5
404
330
A
100
AcDbEntity
  8
03
100
AcDbLine
 10
261.7677428827012
 20
562.9983266026462
 30
0.0
 11
261.7677428827012
 21
535.9983266026461
 31
0.0
  0
LINE
  5
405
330
A
100
AcDbEntity
  8
03
100
AcDbLine
 10
260.2677428827012
 20
562.9983266026462
 30
0.0
 11
260.2677428827012
 21
535.9983266026461
 31
0.0
  0
LINE
  5
406
330
A
100
AcDbEntity
  8
03
100
AcDbLine
 10
149.2677428827011
 20
535.9983266026461
 30
0.0
 11
149.2677428827011
 21
562.9983266026462
 31
0.0
  0
LINE
  5
407
330
A
100
AcDbEntity
  8
03
100
AcDbLine
 10
246.7677428827011
 20
564.4983266026462
 30
0.0
 11
246.7677428827011
 21
562.9983266026462
 31
0.0
  0
LINE
  5
408
330
A
100
AcDbEntity
  8
03
100
AcDbLine
 10
162.7677428827011
 20
564.4983266026462
 30
0.0
 11
162.7677428827011
 21
562.9983266026462
 31
0.0
  0
LINE
  5
409
330
A
100
AcDbEntity
  8
03
100
AcDbLine
 10
149.2677428827011
 20
564.4983266026462
 30
0.0
 11
162.7677428827011
 21
564.4983266026462
 31
0.0
  0
LINE
  5
40A
330
A
100
AcDbEntity
  8
03
100
AcDbLine
 10
246.7677428827011
 20
564.4983266026462
 30
0.0
 11
260.2677428827012
 21
564.4983266026462
 31
0.0
  0
LINE
  5
40B
330
A
100
AcDbEntity
  8
03
100
AcDbLine
 10
149.2677428827011
 20
562.9983266026462
 30
0.0
 11
162.7677428827011
 21
562.9983266026462
 31
0.0
  0
LINE
  5
40C
330
A
100
AcDbEntity
  8
03
100
AcDbLine
 10
246.7677428827011
 20
562.9983266026462
 30
0.0
 11
260.2677428827012
 21
562.9983266026462
 31
0.0
  0
ARC
  5
40D
330
A
100
AcDbEntity
  8
03
100
AcDbCircle
 10
260.2677428827012
 20
562.9983266026462
 30
0.0
 40
1.5
100
AcDbArc
 50
0.0
 51
90.0
  0
ARC
  5
40E
330
A
100
AcDbEntity
  8
03
100
AcDbCircle
 10
260.2677428827012
 20
535.9983266026461
 30
0.0
 40
1.5
100
AcDbArc
 50
270.0
 51
0.0
  0
ARC
  5
40F
330
A
100
AcDbEntity
  8
03
100
AcDbCircle
 10
149.2677428827011
 20
535.9983266026461
 30
0.0
 40
1.5
100
AcDbArc
 50
180.0
 51
270.0
  0
ARC
  5
410
330
A
100
AcDbEntity
  8
03
100
AcDbCircle
 10
149.2677428827011
 20
562.9983266026462
 30
0.0
 40
1.5
100
AcDbArc
 50
90.0
 51
180.0
  0
LINE
  5
411
330
A
100
AcDbEntity
  8
03
100
AcDbLine
 10
264.7677428827012
 20
564.4983266026462
 30
0.0
 11
259.2677428827012
 21
564.4983266026462
 31
0.0
  0
LINE
  5
412
330
A
100
AcDbEntity
  8
03
100
AcDbLine
 10
144.7677428827011
 20
564.4983266026462
 30
0.0
 11
150.2677428827011
 21
564.4983266026462
 31
0.0
  0
LINE
  5
413
330
A
100
AcDbEntity
  8
03
100
AcDbLine
 10
171.7677428827011
 20
535.9983266026461
 30
0.0
 11
171.7677428827011
 21
554.4983266026462
 31
0.0
  0
LINE
  5
414
330
A
100
AcDbEntity
  8
03
100
AcDbLine
 10
187.7677428827011
 20
535.9983266026461
 30
0.0
 11
187.7677428827011
 21
554.4983266026462
 31
0.0
  0
LINE
  5
415
330
A
100
AcDbEntity
  8
03
100
AcDbLine
 10
171.7677428827011
 20
554.4983266026462
 30
0.0
 11
187.7677428827011
 21
554.4983266026462
 31
0.0
  0
LINE
  5
416
330
A
100
AcDbEntity
  8
03
100
AcDbLine
 10
260.2677428827012
 20
534.4983266026462
 30
0.0
 11
189.2677428827011
 21
534.4983266026462
 31
0.0
  0
LINE
  5
417
330
A
100
AcDbEntity
  8
03
100
AcDbLine
 10
170.2677428827011
 20
534.4983266026462
 30
0.0
 11
149.2677428827011
 21
534.4983266026462
 31
0.0
  0
LINE
  5
418
330
A
100
AcDbEntity
  8
03
100
AcDbLine
 10
260.2677428827012
 20
535.9983266026461
 30
0.0
 11
189.2677428827011
 21
535.9983266026461
 31
0.0
  0
LINE
  5
419
330
A
100
AcDbEntity
  8
03
100
AcDbLine
 10
170.2677428827011
 20
535.9983266026461
 30
0.0
 11
149.2677428827011
 21
535.9983266026461
 31
0.0
  0
LINE
  5
41A
330
A
100
AcDbEntity
  8
03
100
AcDbLine
 10
170.2677428827011
 20
535.9983266026461
 30
0.0
 11
170.2677428827011
 21
554.4983266026462
 31
0.0
  0
LINE
  5
41B
330
A
100
AcDbEntity
  8
03
100
AcDbLine
 10
189.2677428827011
 20
535.9983266026461
 30
0.0
 11
189.2677428827011
 21
554.4983266026462
 31
0.0
  0
LINE
  5
41C
330
A
100
AcDbEntity
  8
03
100
AcDbLine
 10
171.7677428827011
 20
555.9983266026462
 30
0.0
 11
187.7677428827011
 21
555.9983266026462
 31
0.0
  0
ARC
  5
41D
330
A
100
AcDbEntity
  8
03
100
AcDbCircle
 10
187.7677428827011
 20
554.4983266026462
 30
0.0
 40
1.5
100
AcDbArc
 50
0.0
 51
90.0
  0
ARC
  5
41E
330
A
100
AcDbEntity
  8
03
100
AcDbCircle
 10
171.7677428827011
 20
554.4983266026462
 30
0.0
 40
1.5
100
AcDbArc
 50
90.0
 51
180.0
  0
ARC
  5
41F
330
A
100
AcDbEntity
  8
03
100
AcDbCircle
 10
170.2677428827011
 20
535.9983266026461
 30
0.0
 40
1.5
100
AcDbArc
 50
270.0
 51
0.0
  0
ARC
  5
420
330
A
100
AcDbEntity
  8
03
100
AcDbCircle
 10
189.2677428827011
 20
535.9983266026461
 30
0.0
 40
1.5
100
AcDbArc
 50
180.0
 51
270.0
  0
LINE
  5
421
330
A
100
AcDbEntity
  8
03
100
AcDbLine
 10
176.7677428827011
 20
542.4983266026462
 30
0.0
 11
182.7677428827011
 21
542.4983266026462
 31
0.0
  0
LINE
  5
422
330
A
100
AcDbEntity
  8
03
100
AcDbLine
 10
264.7677428827012
 20
302.498326602647
 30
0.0
 11
264.7677428827012
 21
217.998326602647
 31
0.0
  0
LINE
  5
423
330
A
100
AcDbEntity
  8
03
100
AcDbLine
 10
264.7677428827012
 20
212.998326602647
 30
0.0
 11
264.7677428827012
 21
107.4983266026469
 31
0.0
  0
LINE
  5
424
330
A
100
AcDbEntity
  8
KAKURE
100
AcDbLine
 10
264.7677428827012
 20
484.4983266026461
 30
0.0
 11
264.7677428827012
 21
302.498326602647
 31
0.0
  0
LINE
  5
425
330
A
100
AcDbEntity
  8
KAKURE
100
AcDbLine
 10
155.7677428827011
 20
562.9983266026462
 30
0.0
 11
253.7677428827012
 21
562.9983266026462
 31
0.0
  0
LINE
  5
426
330
A
100
AcDbEntity
  8
KAKURE
100
AcDbLine
 10
253.7677428827012
 20
559.9983266026462
 30
0.0
 11
155.7677428827011
 21
559.9983266026462
 31
0.0
  0
LINE
  5
427
330
A
100
AcDbEntity
  8
KAKURE
100
AcDbLine
 10
155.7677428827011
 20
559.9983266026462
 30
0.0
 11
155.7677428827011
 21
562.9983266026462
 31
0.0
  0
LINE
  5
428
330
A
100
AcDbEntity
  8
KAKURE
100
AcDbLine
 10
253.7677428827012
 20
562.9983266026462
 30
0.0
 11
253.7677428827012
 21
559.9983266026462
 31
0.0
  0
LINE
  5
429
330
A
100
AcDbEntity
  8
KAKURE
100
AcDbLine
 10
144.7677428827011
 20
107.4983266026469
 30
0.0
 11
144.7677428827011
 21
82.49832660264701
 31
0.0
  0
LINE
  5
42A
330
A
100
AcDbEntity
  8
KAKURE
100
AcDbLine
 10
264.7677428827012
 20
107.4983266026469
 30
0.0
 11
264.7677428827012
 21
82.49832660264701
 31
0.0
  0
LINE
  5
42B
330
A
100
AcDbEntity
  8
KAKURE
100
AcDbLine
 10
264.7677428827012
 20
82.49832660264701
 30
0.0
 11
144.7677428827011
 21
82.49832660264701
 31
0.0
  0
LINE
  5
42C
330
A
100
AcDbEntity
  8
KAKURE
100
AcDbLine
 10
150.7677428827011
 20
107.4983266026469
 30
0.0
 11
150.7677428827011
 21
82.49832660264701
 31
0.0
  0
LINE
  5
42D
330
A
100
AcDbEntity
  8
KAKURE
100
AcDbLine
 10
207.7677428827011
 20
82.49832660264701
 30
0.0
 11
207.7677428827011
 21
107.4983266026469
 31
0.0
  0
LINE
  5
441
330
A
100
AcDbEntity
  8
03
100
AcDbLine
 10
219.267742882701
 20
116.2983266026469
 30
0.0
 11
219.2677428827011
 21
91.298326602647
 31
0.0
  0
LINE
  5
442
330
A
100
AcDbEntity
  8
03
100
AcDbLine
 10
219.267742882701
 20
116.2983266026469
 30
0.0
 11
234.267742882701
 21
91.298326602647
 31
0.0
  0
LINE
  5
443
330
A
100
AcDbEntity
  8
03
100
AcDbLine
 10
234.267742882701
 20
116.2983266026469
 30
0.0
 11
219.2677428827011
 21
91.298326602647
 31
0.0
  0
LINE
  5
444
330
A
100
AcDbEntity
  8
03
100
AcDbLine
 10
234.267742882701
 20
116.2983266026469
 30
0.0
 11
234.267742882701
 21
91.298326602647
 31
0.0
  0
LINE
  5
445
330
A
100
AcDbEntity
  8
03
100
AcDbLine
 10
219.2677428827011
 20
91.29832660264694
 30
0.0
 11
234.267742882701
 21
91.298326602647
 31
0.0
  0
LINE
  5
446
330
A
100
AcDbEntity
  8
SAISEN
100
AcDbLine
 10
208.2677428827012
 20
217.998326602647
 30
0.0
 11
274.7677428827012
 21
217.998326602647
 31
0.0
  0
LINE
  5
447
330
A
100
AcDbEntity
  8
SAISEN
100
AcDbLine
 10
208.2677428827012
 20
212.998326602647
 30
0.0
 11
274.7677428827012
 21
212.998326602647
 31
0.0
  0
LINE
  5
448
330
A
100
AcDbEntity
  8
03
100
AcDbLine
 10
235.2677428827012
 20
109.7483266026471
 30
0.0
 11
235.2677428827012
 21
85.49832660264712
 31
0.0
  0
LINE
  5
449
330
A
100
AcDbEntity
  8
03
100
AcDbLine
 10
251.7677428827012
 20
109.7483266026471
 30
0.0
 11
251.7677428827012
 21
100.4983266026471
 31
0.0
  0
LINE
  5
44A
330
A
100
AcDbEntity
  8
03
100
AcDbLine
 10
236.0177428827011
 20
110.498326602647
 30
0.0
 11
251.0177428827011
 21
110.498326602647
 31
0.0
  0
ARC
  5
44B
330
A
100
AcDbEntity
  8
03
100
AcDbCircle
 10
236.0177428827011
 20
109.7483266026471
 30
0.0
 40
0.75
100
AcDbArc
 50
90.00000000000005
 51
180.0
  0
ARC
  5
44C
330
A
100
AcDbEntity
  8
03
100
AcDbCircle
 10
251.0177428827011
 20
109.7483266026471
 30
0.0
 40
0.75
100
AcDbArc
 50
0.0000000000000325
 51
90.00000000000005
  0
LINE
  5
44D
330
A
100
AcDbEntity
  8
03
100
AcDbLine
 10
236.7677428827013
 20
108.9983266026471
 30
0.0
 11
236.7677428827013
 21
84.74832660264713
 31
0.0
  0
ARC
  5
44E
330
A
100
AcDbEntity
  8
03
100
AcDbCircle
 10
236.0177428827013
 20
84.74832660264713
 30
0.0
 40
0.75
100
AcDbArc
 50
269.9999999999998
 51
0.0000000000000799
  0
LINE
  5
44F
330
A
100
AcDbEntity
  8
03
100
AcDbLine
 10
250.2677428827012
 20
100.4983266026471
 30
0.0
 11
251.7677428827012
 21
100.4983266026471
 31
0.0
  0
LINE
  5
450
330
A
100
AcDbEntity
  8
03
100
AcDbLine
 10
236.7677428827013
 20
108.9983266026471
 30
0.0
 11
250.2677428827011
 21
108.9983266026471
 31
0.0
  0
ARC
  5
451
330
A
100
AcDbEntity
  8
KAKURE
100
AcDbCircle
 10
249.2677428827013
 20
82.69832660264723
 30
0.0
 40
1.0
100
AcDbArc
 50
269.9999999999999
 51
0.0000000000000799
  0
LINE
  5
459
330
A
100
AcDbEntity
  8
03
100
AcDbLine
 10
218.2677428827012
 20
85.49832660264712
 30
0.0
 11
235.2677428827012
 21
85.49832660264712
 31
0.0
  0
ARC
  5
45A
330
A
100
AcDbEntity
  8
03
100
AcDbCircle
 10
217.5177428827013
 20
84.74832660264723
 30
0.0
 40
0.75
100
AcDbArc
 50
180.0
 51
269.9999999999997
  0
ARC
  5
45B
330
A
100
AcDbEntity
  8
KAKURE
100
AcDbCircle
 10
210.2677428827012
 20
82.69832660264716
 30
0.0
 40
1.0
100
AcDbArc
 50
180.0
 51
269.9999999999999
  0
LINE
  5
45F
330
A
100
AcDbEntity
  8
03
100
AcDbLine
 10
218.2677428827012
 20
109.7483266026472
 30
0.0
 11
218.2677428827012
 21
85.49832660264712
 31
0.0
  0
LINE
  5
460
330
A
100
AcDbEntity
  8
03
100
AcDbLine
 10
207.7677428827011
 20
109.7483266026469
 30
0.0
 11
207.7677428827011
 21
100.4983266026471
 31
0.0
  0
LINE
  5
461
330
A
100
AcDbEntity
  8
03
100
AcDbLine
 10
208.5177428827011
 20
110.498326602647
 30
0.0
 11
217.5177428827011
 21
110.4983266026472
 31
0.0
  0
ARC
  5
462
330
A
100
AcDbEntity
  8
03
100
AcDbCircle
 10
217.5177428827011
 20
109.7483266026472
 30
0.0
 40
0.75
100
AcDbArc
 50
0.0000000000000325
 51
90.00000000000119
  0
ARC
  5
463
330
A
100
AcDbEntity
  8
03
100
AcDbCircle
 10
208.5177428827011
 20
109.7483266026469
 30
0.0
 40
0.75
100
AcDbArc
 50
90.00000000000044
 51
180.0
  0
LINE
  5
464
330
A
100
AcDbEntity
  8
03
100
AcDbLine
 10
216.7677428827011
 20
108.9983266026471
 30
0.0
 11
216.7677428827012
 21
84.74832660264723
 31
0.0
  0
LINE
  5
465
330
A
100
AcDbEntity
  8
03
100
AcDbLine
 10
207.7677428827011
 20
100.4983266026471
 30
0.0
 11
209.2677428827013
 21
100.4983266026471
 31
0.0
  0
LINE
  5
466
330
A
100
AcDbEntity
  8
03
100
AcDbLine
 10
209.2677428827011
 20
108.9983266026471
 30
0.0
 11
216.7677428827011
 21
108.9983266026471
 31
0.0
  0
CIRCLE
  5
46C
330
A
100
AcDbEntity
  8
03
100
AcDbCircle
 10
180.7677428827011
 20
215.498326602647
 30
0.0
 40
6.0
  0
LINE
  5
46D
330
A
100
AcDbEntity
  8
SAISEN
100
AcDbLine
 10
134.7677428827012
 20
205.498326602647
 30
0.0
 11
208.8444933324677
 21
205.498326602647
 31
0.0
  0
LINE
  5
46E
330
A
100
AcDbEntity
  8
SAISEN
100
AcDbLine
 10
134.7677428827012
 20
200.498326602647
 30
0.0
 11
208.8444933324677
 21
200.498326602647
 31
0.0
  0
LINE
  5
46F
330
A
100
AcDbEntity
  8
SAISEN
100
AcDbLine
 10
134.7677428827012
 20
230.498326602647
 30
0.0
 11
208.8444933324677
 21
230.498326602647
 31
0.0
  0
LINE
  5
470
330
A
100
AcDbEntity
  8
SAISEN
100
AcDbLine
 10
134.7677428827012
 20
225.498326602647
 30
0.0
 11
208.8444933324677
 21
225.498326602647
 31
0.0
  0
LINE
  5
471
330
A
100
AcDbEntity
  8
03
100
AcDbLine
 10
121.3168844265702
 20
519.498326602646
 30
0.0
 11
287.9880754499582
 21
519.498326602646
 31
0.0
  0
LINE
  5
472
330
A
100
AcDbEntity
  8
03
100
AcDbLine
 10
121.3168844265702
 20
514.4983266026462
 30
0.0
 11
287.9880754499582
 21
514.4983266026462
 31
0.0
  0
LINE
  5
490
330
A
100
AcDbEntity
  8
03
100
AcDbLine
 10
232.4874859339896
 20
227.4983266026469
 30
0.0
 11
212.7677428827011
 21
227.4983266026469
 31
0.0
  0
LINE
  5
491
330
A
100
AcDbEntity
  8
03
100
AcDbLine
 10
212.7677428827011
 20
312.498326602647
 30
0.0
 11
212.7677428827011
 21
227.4983266026469
 31
0.0
  0
LINE
  5
492
330
A
100
AcDbEntity
  8
03
100
AcDbLine
 10
240.7677428827011
 20
312.498326602647
 30
0.0
 11
240.7677428827011
 21
245.8147565965021
 31
0.0
  0
LINE
  5
493
330
A
100
AcDbEntity
  8
03
100
AcDbLine
 10
240.7677428827011
 20
245.8147565965021
 30
0.0
 11
236.5342611544355
 21
230.5742223747453
 31
0.0
  0
ARC
  5
494
330
A
100
AcDbEntity
  8
03
100
AcDbCircle
 10
232.4874859339896
 20
231.6983266026469
 30
0.0
 40
4.199999999999998
100
AcDbArc
 50
269.9999999999989
 51
344.4758890032456
  0
LINE
  5
495
330
A
100
AcDbEntity
  8
03
100
AcDbLine
 10
212.7677428827011
 20
202.4983266026469
 30
0.0
 11
212.7677428827011
 21
117.4983266026468
 31
0.0
  0
LINE
  5
496
330
A
100
AcDbEntity
  8
03
100
AcDbLine
 10
240.7677428827011
 20
117.4983266026468
 30
0.0
 11
240.7677428827011
 21
184.1818966087917
 31
0.0
  0
LINE
  5
497
330
A
100
AcDbEntity
  8
03
100
AcDbLine
 10
240.7677428827011
 20
184.1818966087917
 30
0.0
 11
236.5342611544355
 21
199.4224308305486
 31
0.0
  0
ARC
  5
498
330
A
100
AcDbEntity
  8
03
100
AcDbCircle
 10
232.4874859339896
 20
198.298326602647
 30
0.0
 40
4.199999999999998
100
AcDbArc
 50
15.52411099675425
 51
89.99999999999969
  0
LINE
  5
499
330
A
100
AcDbEntity
  8
03
100
AcDbLine
 10
239.7677428827011
 20
312.498326602647
 30
0.0
 11
240.7677428827011
 21
312.498326602647
 31
0.0
  0
LINE
  5
49A
330
A
100
AcDbEntity
  8
03
100
AcDbLine
 10
212.7677428827011
 20
312.498326602647
 30
0.0
 11
213.7677428827011
 21
312.498326602647
 31
0.0
  0
LINE
  5
49B
330
A
100
AcDbEntity
  8
03
100
AcDbLine
 10
240.7677428827011
 20
117.4983266026468
 30
0.0
 11
239.7677428827011
 21
117.4983266026468
 31
0.0
  0
LINE
  5
49C
330
A
100
AcDbEntity
  8
03
100
AcDbLine
 10
212.7677428827011
 20
117.4983266026468
 30
0.0
 11
213.7677428827011
 21
117.4983266026468
 31
0.0
  0
LINE
  5
49D
330
A
100
AcDbEntity
  8
03
100
AcDbLine
 10
212.7677428827011
 20
202.4983266026469
 30
0.0
 11
232.4874859339896
 21
202.4983266026469
 31
0.0
  0
CIRCLE
  5
49F
330
A
100
AcDbEntity
  8
SAISEN
100
AcDbCircle
 10
32.93233475552183
 20
530.3128373807331
 30
0.0
 40
4.0
  0
CIRCLE
  5
4A0
330
A
100
AcDbEntity
  8
SAISEN
100
AcDbCircle
 10
32.33206518366978
 20
442.463895120803
 30
0.0
 40
4.0
  0
LINE
  5
4A1
330
A
100
AcDbEntity
  8
KAKURE
100
AcDbLine
 10
250.2677428827011
 20
108.9983266026471
 30
0.0
 11
250.2677428827012
 21
82.69832660264723
 31
0.0
  0
LINE
  5
4A2
330
A
100
AcDbEntity
  8
KAKURE
100
AcDbLine
 10
247.9677428827011
 20
108.9983266026471
 30
0.0
 11
247.9677428827013
 21
83.99832660264712
 31
0.0
  0
LINE
  5
4A3
330
A
100
AcDbEntity
  8
KAKURE
100
AcDbLine
 10
211.5677428827011
 20
83.99832660264719
 30
0.0
 11
247.9677428827013
 21
83.99832660264712
 31
0.0
  0
LINE
  5
4A4
330
A
100
AcDbEntity
  8
KAKURE
100
AcDbLine
 10
210.2677428827012
 20
81.69832660264717
 30
0.0
 11
249.2677428827013
 21
81.69832660264722
 31
0.0
  0
LINE
  5
4A5
330
A
100
AcDbEntity
  8
KAKURE
100
AcDbLine
 10
209.2677428827011
 20
108.9983266026471
 30
0.0
 11
209.2677428827011
 21
82.69832660264716
 31
0.0
  0
LINE
  5
4A6
330
A
100
AcDbEntity
  8
KAKURE
100
AcDbLine
 10
211.5677428827011
 20
108.9983266026471
 30
0.0
 11
211.5677428827011
 21
83.99832660264719
 31
0.0
  0
CIRCLE
  5
4A7
330
A
100
AcDbEntity
  8
CHUSIN
100
AcDbCircle
 10
219.9142617416979
 20
443.9479248343923
 30
0.0
 40
15.0
  0
LINE
  5
4A8
330
A
100
AcDbEntity
  8
03
100
AcDbLine
 10
214.2677428827012
 20
202.4983266026469
 30
0.0
 11
214.2677428827012
 21
212.998326602647
 31
0.0
  0
LINE
  5
4A9
330
A
100
AcDbEntity
  8
03
100
AcDbLine
 10
214.2677428827012
 20
217.998326602647
 30
0.0
 11
214.2677428827012
 21
227.4983266026473
 31
0.0
  0
LINE
  5
4AA
330
A
100
AcDbEntity
  8
03
100
AcDbLine
 10
215.2677428827011
 20
227.4983266026473
 30
0.0
 11
215.2677428827011
 21
217.998326602647
 31
0.0
  0
LINE
  5
4AB
330
A
100
AcDbEntity
  8
03
100
AcDbLine
 10
215.2677428827011
 20
212.998326602647
 30
0.0
 11
215.2677428827011
 21
202.4983266026469
 31
0.0
  0
LINE
  5
4AC
330
A
100
AcDbEntity
  8
03
100
AcDbLine
 10
225.2677428827011
 20
227.498326602647
 30
0.0
 11
225.2677428827011
 21
217.998326602647
 31
0.0
  0
LINE
  5
4AD
330
A
100
AcDbEntity
  8
03
100
AcDbLine
 10
225.2677428827011
 20
212.998326602647
 30
0.0
 11
225.2677428827011
 21
202.4983266026469
 31
0.0
  0
LINE
  5
4AE
330
A
100
AcDbEntity
  8
03
100
AcDbLine
 10
226.2677428827011
 20
227.498326602647
 30
0.0
 11
226.2677428827011
 21
217.998326602647
 31
0.0
  0
LINE
  5
4AF
330
A
100
AcDbEntity
  8
03
100
AcDbLine
 10
226.2677428827011
 20
212.998326602647
 30
0.0
 11
226.2677428827011
 21
202.4983266026469
 31
0.0
  0
LINE
  5
4B0
330
A
100
AcDbEntity
  8
KAKURE
 48
0.3
100
AcDbLine
 10
174.7677428827011
 20
302.498326602647
 30
0.0
 11
174.7677428827011
 21
320.498326602647
 31
0.0
  0
LINE
  5
4B1
330
A
100
AcDbEntity
  8
KAKURE
 48
0.3
100
AcDbLine
 10
186.7677428827011
 20
320.498326602647
 30
0.0
 11
186.7677428827011
 21
302.498326602647
 31
0.0
  0
LINE
  5
4B2
330
A
100
AcDbEntity
  8
KAKURE
100
AcDbLine
 10
174.7677428827011
 20
424.998326602647
 30
0.0
 11
168.7677428827011
 21
424.998326602647
 31
0.0
  0
LINE
  5
4B3
330
A
100
AcDbEntity
  8
KAKURE
100
AcDbLine
 10
174.7677428827011
 20
429.998326602647
 30
0.0
 11
168.7677428827011
 21
429.998326602647
 31
0.0
  0
LINE
  5
4B4
330
A
100
AcDbEntity
  8
KAKURE
100
AcDbLine
 10
174.7677428827011
 20
399.998326602647
 30
0.0
 11
168.7677428827011
 21
399.998326602647
 31
0.0
  0
LINE
  5
4B5
330
A
100
AcDbEntity
  8
KAKURE
100
AcDbLine
 10
174.7677428827011
 20
404.998326602647
 30
0.0
 11
168.7677428827011
 21
404.998326602647
 31
0.0
  0
LINE
  5
4B6
330
A
100
AcDbEntity
  8
KAKURE
100
AcDbLine
 10
174.7677428827011
 20
374.998326602647
 30
0.0
 11
168.7677428827011
 21
374.998326602647
 31
0.0
  0
LINE
  5
4B7
330
A
100
AcDbEntity
  8
KAKURE
100
AcDbLine
 10
174.7677428827011
 20
379.998326602647
 30
0.0
 11
168.7677428827011
 21
379.998326602647
 31
0.0
  0
LINE
  5
4C1
330
A
100
AcDbEntity
  8
03
100
AcDbLine
 10
239.7677428827011
 20
118.298326602647
 30
0.0
 11
239.7677428827011
 21
116.298326602647
 31
0.0
  0
LINE
  5
4C7
330
A
100
AcDbEntity
  8
03
100
AcDbLine
 10
239.7677428827011
 20
118.298326602647
 30
0.0
 11
213.7677428827011
 21
118.298326602647
 31
0.0
  0
LINE
  5
4C8
330
A
100
AcDbEntity
  8
03
100
AcDbLine
 10
213.7677428827011
 20
118.298326602647
 30
0.0
 11
213.7677428827011
 21
116.298326602647
 31
0.0
  0
LINE
  5
4C9
330
A
100
AcDbEntity
  8
03
100
AcDbLine
 10
239.7677428827011
 20
116.298326602647
 30
0.0
 11
238.5177428827011
 21
116.2983266026473
 31
0.0
  0
LINE
  5
4CA
330
A
100
AcDbEntity
  8
03
100
AcDbLine
 10
213.7677428827011
 20
116.298326602647
 30
0.0
 11
215.0177428827011
 21
116.298326602647
 31
0.0
  0
LINE
  5
4CB
330
A
100
AcDbEntity
  8
03
100
AcDbLine
 10
215.3661275628774
 20
110.7241717198244
 30
0.0
 11
215.0177428827011
 21
116.298326602647
 31
0.0
  0
ARC
  5
4CC
330
A
100
AcDbEntity
  8
03
100
AcDbCircle
 10
215.9905363790346
 20
111.3490896781051
 30
0.0
 40
0.8834075074826966
100
AcDbArc
 50
225.0233499304143
 51
254.3754266220283
  0
LINE
  5
4CD
330
A
100
AcDbEntity
  8
03
100
AcDbLine
 10
216.5177428827014
 20
116.298326602647
 30
0.0
 11
216.16989322198
 21
110.7327320311058
 31
0.0
  0
ARC
  5
4D1
330
A
100
AcDbEntity
  8
03
100
AcDbCircle
 10
215.5692533526034
 20
111.2877233808595
 30
0.0
 40
0.8177919362443121
100
AcDbArc
 50
285.1426910452559
 51
317.2620611302563
  0
ARC
  5
4D3
330
A
100
AcDbEntity
  8
03
100
AcDbCircle
 10
237.9905363790582
 20
111.3490896781404
 30
0.0
 40
0.8834075075245625
100
AcDbArc
 50
225.023349930962
 51
254.3754266208871
  0
LINE
  5
4D6
330
A
100
AcDbEntity
  8
03
100
AcDbLine
 10
237.3661275628773
 20
110.7241717198238
 30
0.0
 11
237.0177428827012
 21
116.298326602647
 31
0.0
  0
LINE
  5
4D7
330
A
100
AcDbEntity
  8
03
100
AcDbLine
 10
238.5177428827011
 20
116.298326602647
 30
0.0
 11
238.1693582025249
 21
110.7241717198248
 31
0.0
  0
ARC
  5
4D8
330
A
100
AcDbEntity
  8
03
100
AcDbCircle
 10
237.5449493863651
 20
111.3490896781099
 30
0.0
 40
0.883407507487464
100
AcDbArc
 50
285.6245733780781
 51
314.9766500695126
  0
LINE
  5
4D9
330
A
100
AcDbEntity
  8
03
100
AcDbLine
 10
237.0177428827012
 20
116.298326602647
 30
0.0
 11
216.5177428827014
 21
116.298326602647
 31
0.0
  0
LINE
  5
4E6
330
A
100
AcDbEntity
  8
CHUSIN
100
AcDbLine
 10
197.772328890363
 20
215.498326602647
 30
0.0
 11
163.7631568750393
 21
215.498326602647
 31
0.0
  0
LINE
  5
4E7
330
A
100
AcDbEntity
  8
CHUSIN
 48
0.3
100
AcDbLine
 10
184.7677428827011
 20
427.4983266026468
 30
0.0
 11
164.7677428827011
 21
427.4983266026468
 31
0.0
  0
LINE
  5
4E8
330
A
100
AcDbEntity
  8
CHUSIN
 48
0.3
100
AcDbLine
 10
164.7677428827011
 20
377.498326602647
 30
0.0
 11
184.7677428827011
 21
377.498326602647
 31
0.0
  0
LINE
  5
4E9
330
A
100
AcDbEntity
  8
CHUSIN
100
AcDbLine
 10
164.7677428827011
 20
402.4983266026468
 30
0.0
 11
207.5303633271977
 21
402.4983266026468
 31
0.0
  0
LINE
  5
4EB
330
A
100
AcDbEntity
  8
CHUSIN
100
AcDbLine
 10
310.5468650107382
 20
402.4983266026468
 30
0.0
 11
257.9221845480418
 21
402.4983266026468
 31
0.0
  0
LINE
  5
513
330
A
100
AcDbEntity
  8
KAKURE
100
AcDbLine
 10
174.7677428827011
 20
425.398326602647
 30
0.0
 11
168.7677428827011
 21
425.398326602647
 31
0.0
  0
LINE
  5
514
330
A
100
AcDbEntity
  8
KAKURE
100
AcDbLine
 10
174.7677428827011
 20
429.5983266026468
 30
0.0
 11
168.7677428827011
 21
429.5983266026468
 31
0.0
  0
LINE
  5
516
330
A
100
AcDbEntity
  8
KAKURE
100
AcDbLine
 10
174.7677428827011
 20
400.398326602647
 30
0.0
 11
168.7677428827011
 21
400.398326602647
 31
0.0
  0
LINE
  5
517
330
A
100
AcDbEntity
  8
KAKURE
100
AcDbLine
 10
174.7677428827011
 20
404.5983266026468
 30
0.0
 11
168.7677428827011
 21
404.5983266026468
 31
0.0
  0
LINE
  5
519
330
A
100
AcDbEntity
  8
KAKURE
100
AcDbLine
 10
174.7677428827011
 20
375.398326602647
 30
0.0
 11
168.7677428827011
 21
375.398326602647
 31
0.0
  0
LINE
  5
51A
330
A
100
AcDbEntity
  8
KAKURE
100
AcDbLine
 10
174.7677428827011
 20
379.5983266026468
 30
0.0
 11
168.7677428827011
 21
379.5983266026468
 31
0.0
  0
LINE
  5
54F
330
A
100
AcDbEntity
  8
03
100
AcDbLine
 10
215.7828800773597
 20
110.4983266026447
 30
0.0
 11
215.7526056880469
 21
110.4983266026472
 31
0.0
  0
LINE
  5
550
330
A
100
AcDbEntity
  8
03
100
AcDbLine
 10
237.7526056880424
 20
110.4983266026467
 30
0.0
 11
237.7828800773555
 21
110.4983266026474
 31
0.0
  0
LINE
  5
630
330
A
100
AcDbEntity
  8
SOUZOU
100
AcDbLine
 10
174.7677428827011
 20
460.9983266026468
 30
0.0
 11
212.7677428827011
 21
460.9983266026468
 31
0.0
  0
LINE
  5
631
330
A
100
AcDbEntity
  8
SOUZOU
100
AcDbLine
 10
212.7677428827011
 20
460.9983266026468
 30
0.0
 11
212.7677428827011
 21
461.4983266026468
 31
0.0
  0
LINE
  5
632
330
A
100
AcDbEntity
  8
SOUZOU
 48
0.3
100
AcDbLine
 10
193.7677428827011
 20
343.9983266026468
 30
0.0
 11
174.7677428827011
 21
343.9983266026468
 31
0.0
  0
LINE
  5
633
330
A
100
AcDbEntity
  8
SOUZOU
100
AcDbLine
 10
174.7677428827011
 20
343.9983266026468
 30
0.0
 11
174.7677428827011
 21
460.9983266026468
 31
0.0
  0
LINE
  5
634
330
A
100
AcDbEntity
  8
SOUZOU
100
AcDbLine
 10
212.7677428827011
 20
461.4983266026468
 30
0.0
 11
308.7677428827012
 21
461.4983266026468
 31
0.0
  0
LINE
  5
635
330
A
100
AcDbEntity
  8
SOUZOU
100
AcDbLine
 10
308.7677428827012
 20
461.4983266026468
 30
0.0
 11
308.7677428827012
 21
343.498326602647
 31
0.0
  0
LINE
  5
636
330
A
100
AcDbEntity
  8
SOUZOU
100
AcDbLine
 10
308.7677428827012
 20
343.498326602647
 30
0.0
 11
259.8677428827012
 21
343.498326602647
 31
0.0
  0
POLYLINE
  5
750
330
A
100
AcDbEntity
  8
DEFPOINTS
100
AcDb2dPolyline
 66
     1
 10
0.0
 20
0.0
 30
0.0
 70
     1
  0
VERTEX
  5
1CCB
330
750
100
AcDbEntity
  8
DEFPOINTS
100
AcDbVertex
100
AcDb2dVertex
 10
0.0
 20
0.0
 30
0.0
  0
VERTEX
  5
1CCC
330
750
100
AcDbEntity
  8
DEFPOINTS
100
AcDbVertex
100
AcDb2dVertex
 10
420.0
 20
0.0
 30
0.0
  0
VERTEX
  5
1CCD
330
750
100
AcDbEntity
  8
DEFPOINTS
100
AcDbVertex
100
AcDb2dVertex
 10
420.0
 20
594.0
 30
0.0
  0
VERTEX
  5
1CCE
330
750
100
AcDbEntity
  8
DEFPOINTS
100
AcDbVertex
100
AcDb2dVertex
 10
0.0
 20
594.0
 30
0.0
  0
SEQEND
  5
1CCF
330
750
100
AcDbEntity
  8
DEFPOINTS
  0
LEADER
  5
768
330
A
100
AcDbEntity
  8
HIKIDASI
100
AcDbLeader
  3
SUNPOU_2
 73
     0
 75
     1
 40
5.0
 41
35.6
 76
     3
 10
168.7677428827011
 20
462.5385322535904
 30
0.0
 10
74.31287934615224
 20
524.9341895140867
 30
0.0
 10
69.31287934615224
 20
524.9341895140867
 30
0.0
340
769
213
0.0
223
-0.7314429348668911
233
0.0
1001
ACAD
1000
DSTYLE
1002
{
1070
     5
1000
OPEN30
1070
    77
1070
     1
1070
   147
1040
1.0
1070
   342
1005
726
1002
}
1000
LEANOF
1010
0.0
1020
-0.7314429348668911
1030
0.0
1000
LEANOF
1010
0.0
1020
-0.7314429348668911
1030
0.0
  0
MTEXT
  5
769
330
A
100
AcDbEntity
  8
HIKIDASI
100
AcDbMText
 10
67.31287934615224
 20
527.6656324489534
 30
0.0
 40
5.0
 41
0.0
 71
     9
 72
     1
  1
E　FB-50×6
  7
0_8
1001
ACAD
1000
MTEXTBEGIN
1070
    73
1070
     1
1070
    44
1040
1.0
1070
    74
1070
     0
1000
MTEXTEND
1000
MTEXTBEGIN
1070
    73
1070
     1
1070
    44
1040
1.0
1070
    74
1070
     0
1000
MTEXTEND
  0
LEADER
  5
76A
330
A
100
AcDbEntity
  8
HIKIDASI
100
AcDbLeader
  3
SUNPOU_2
 73
     0
 75
     1
 40
5.0
 41
35.6
 76
     3
 10
180.3536732828305
 20
381.5915251943205
 30
0.0
 10
73.88449291649866
 20
437.1753134443727
 30
0.0
 10
68.88449291649866
 20
437.1753134443727
 30
0.0
340
76B
213
0.0
223
-0.4217690053019397
233
0.0
1001
ACAD
1000
DSTYLE
1002
{
1070
     5
1000
OPEN30
1070
    77
1070
     1
1070
   147
1040
1.0
1070
   342
1005
726
1002
}
1000
LEANOF
1010
0.0
1020
-0.4217690053019397
1030
0.0
1000
LEANOF
1010
0.0
1020
-0.4217690053019397
1030
0.0
  0
MTEXT
  5
76B
330
A
100
AcDbEntity
  8
HIKIDASI
100
AcDbMText
 10
66.88449291649866
 20
439.5970824496745
 30
0.0
 40
5.0
 41
0.0
 71
     9
 72
     1
  1
R　FB-50×6
  7
0_8
1001
ACAD
1000
MTEXTBEGIN
1070
    73
1070
     1
1070
    44
1040
1.0
1070
    74
1070
     0
1000
MTEXTEND
1000
MTEXTBEGIN
1070
    73
1070
     1
1070
    44
1040
1.0
1070
    74
1070
     0
1000
MTEXTEND
  0
LEADER
  5
773
330
A
100
AcDbEntity
  8
HIKIDASI
100
AcDbLeader
  3
SUNPOU_2
 73
     0
 75
     1
 40
13.33333333333333
 41
62.93333333333333
 76
     3
 10
179.7677428827011
 20
215.498326602647
 30
0.0
 10
106.7111898817461
 20
254.5774514396244
 30
0.0
 10
101.7111898817461
 20
254.5774514396244
 30
0.0
340
774
213
1.235107393801029
223
8.734920683912632
233
0.0
1001
ACAD
1000
DSTYLE
1002
{
1070
     5
1000
OPEN30
1070
    77
1070
     1
1070
   147
1040
1.0
1070
   342
1005
726
1002
}
1000
LEANOF
1010
1.235107393801029
1020
8.734920683912632
1030
0.0
1000
LEANOF
1010
1.235107393801029
1020
8.734920683912632
1030
0.0
  0
MTEXT
  5
774
330
A
100
AcDbEntity
  8
HIKIDASI
100
AcDbMText
 10
35.54274915461178
 20
247.8425307557116
 30
0.0
 40
5.0
 41
0.0
 71
     7
 72
     1
  1
補助光電スイッチ取付穴φ12\P　　　(サッシ工事)
  7
0_8
1001
ACAD
1000
MTEXTBEGIN
1070
    73
1070
     1
1070
    44
1040
1.0
1070
    74
1070
     0
1000
MTEXTEND
1000
MTEXTBEGIN
1070
    73
1070
     1
1070
    44
1040
1.0
1070
    74
1070
     0
1000
MTEXTEND
  0
LEADER
  5
775
330
A
100
AcDbEntity
  8
HIKIDASI
100
AcDbLeader
  3
SUNPOU_2
 73
     0
 74
     0
 75
     1
 40
13.33333333333333
 41
27.99999999999998
 76
     3
 10
235.2398261597053
 20
183.4758956333648
 30
0.0
 10
271.1720683670737
 20
210.8017879035248
 30
0.0
 10
276.1720683670736
 20
210.8017879035248
 30
0.0
340
776
213
0.0
223
8.856242412109454
233
0.0
1001
ACAD
1000
DSTYLE
1002
{
1070
     5
1000
OPEN30
1070
    77
1070
     1
1070
   147
1040
1.0
1070
   342
1005
726
1002
}
1000
LEANOF
1010
0.0
1020
8.856242412109454
1030
0.0
1000
LEANOF
1010
0.0
1020
8.856242412109454
1030
0.0
  0
MTEXT
  5
776
330
A
100
AcDbEntity
  8
HIKIDASI
100
AcDbMText
 10
278.1720683670736
 20
203.9455454914154
 30
0.0
 40
5.0
 41
0.0
 71
     7
 72
     1
  1
セナージドア\P(強化ガラス)
  7
0_8
1001
ACAD
1000
MTEXTBEGIN
1070
    73
1070
     1
1070
    44
1040
1.0
1070
    74
1070
     0
1000
MTEXTEND
1000
MTEXTBEGIN
1070
    73
1070
     1
1070
    44
1040
1.0
1070
    74
1070
     0
1000
MTEXTEND
  0
LEADER
  5
777
330
A
100
AcDbEntity
  8
HIKIDASI
100
AcDbLeader
  3
SUNPOU_2
 73
     0
 74
     0
 75
     1
 40
13.33333333333333
 41
52.26666666666666
 76
     3
 10
250.7677428827011
 20
100.4983266026471
 30
0.0
 10
278.0310152275823
 20
77.55130704650444
 30
0.0
 10
283.0310152275823
 20
77.55130704650444
 30
0.0
340
778
213
0.3985131642461965
223
8.861017974637885
233
0.0
1001
ACAD
1000
DSTYLE
1002
{
1070
     5
1000
OPEN30
1070
    77
1070
     1
1070
   147
1040
1.0
1070
   342
1005
726
1002
}
1000
LEANOF
1010
0.3985131642461965
1020
8.861017974637885
1030
0.0
1000
LEANOF
1010
0.3985131642461965
1020
8.861017974637885
1030
0.0
  0
MTEXT
  5
778
330
A
100
AcDbEntity
  8
HIKIDASI
100
AcDbMText
 10
284.6325020633361
 20
70.69028907186655
 30
0.0
 40
5.0
 41
0.0
 71
     7
 72
     1
  1
ステンレスガイドレール\P　　(サッシ工事)
  7
0_8
1001
ACAD
1000
MTEXTBEGIN
1070
    73
1070
     1
1070
    44
1040
1.0
1070
    74
1070
     0
1000
MTEXTEND
1000
MTEXTBEGIN
1070
    73
1070
     1
1070
    44
1040
1.0
1070
    74
1070
     0
1000
MTEXTEND
  0
LEADER
  5
77A
330
A
100
AcDbEntity
  8
HIKIDASI
100
AcDbLeader
  3
SUNPOU_2
 73
     0
 40
13.33333333333333
 41
28.0
 76
     2
 10
188.9677498637644
 20
362.498326602647
 30
0.0
 10
61.71287934615225
 20
387.3566469608908
 30
0.0
340
77B
213
0.0
223
8.563018688155466
233
0.0
1001
ACAD
1000
DSTYLE
1002
{
1070
     5
1000
OPEN30
1070
    77
1070
     1
1070
   147
1040
1.0
1070
   342
1005
726
1002
}
1000
LEANOF
1010
0.0
1020
8.563018688155466
1030
0.0
1000
LEANOF
1010
0.0
1020
8.563018688155466
1030
0.0
  0
MTEXT
  5
77B
330
A
100
AcDbEntity
  8
HIKIDASI
100
AcDbMText
 10
31.71287934615225
 20
380.7936282727353
 30
0.0
 40
5.0
 41
0.0
 71
     7
 72
     1
  1
M8タップ\P(サッシ工事)
  7
0_8
1001
ACAD
1000
MTEXTBEGIN
1070
    73
1070
     1
1070
    44
1040
1.0
1070
    74
1070
     0
1000
MTEXTEND
1000
MTEXTBEGIN
1070
    73
1070
     1
1070
    44
1040
1.0
1070
    74
1070
     0
1000
MTEXTEND
  0
DIMENSION
  5
7A7
330
A
100
AcDbEntity
  8
SUNPOU
100
AcDbDimension
  2
*D1
 10
261.7677428827012
 20
523.2345575874626
 30
0.0
 11
272.2412755295374
 21
527.4119547127801
 31
0.0
 70
   160
  3
SUNPOU_2
100
AcDbAlignedDimension
 13
264.7677428827012
 23
535.9983266026461
 33
0.0
 14
261.7677428827012
 24
535.9983266026461
 34
0.0
100
AcDbRotatedDimension
  0
DIMENSION
  5
7B6
330
A
100
AcDbEntity
  8
SUNPOU
100
AcDbDimension
  2
*D2
 10
147.7677428827011
 20
523.2345575874626
 30
0.0
 11
204.7677428827011
 21
527.7345575874626
 31
0.0
 70
    32
  3
SUNPOU_2
100
AcDbAlignedDimension
 13
261.7677428827012
 23
535.9983266026461
 33
0.0
 14
147.7677428827011
 24
523.2345575874626
 34
0.0
100
AcDbRotatedDimension
  0
DIMENSION
  5
7FE
330
A
100
AcDbEntity
  8
SUNPOU
100
AcDbDimension
  2
*D3
 10
308.7677428827012
 20
468.7135893143747
 30
0.0
 11
241.7677428827011
 21
473.2135893143746
 31
0.0
 70
    32
  3
SUNPOU_2
100
AcDbAlignedDimension
 13
174.7677428827011
 23
461.266275792647
 33
0.0
 14
308.7677428827012
 24
461.266275792647
 34
0.0
100
AcDbRotatedDimension
  0
DIMENSION
  5
814
330
A
100
AcDbEntity
  8
SUNPOU
100
AcDbDimension
  2
*D4
 10
174.7677428827011
 20
417.1146470294795
 30
0.0
 11
161.2677428827011
 21
421.6146470294795
 31
0.0
 70
    32
  3
SUNPOU_2
100
AcDbAlignedDimension
 13
147.7677428827011
 23
402.4983266026468
 33
0.0
 14
174.7677428827011
 24
402.4983266026468
 34
0.0
100
AcDbRotatedDimension
  0
DIMENSION
  5
821
330
A
100
AcDbEntity
  8
SUNPOU
100
AcDbDimension
  2
*D5
 10
199.7677428827011
 20
417.1146470294795
 30
0.0
 11
187.2677428827011
 21
421.6146470294795
 31
0.0
 70
    32
  3
SUNPOU_2
100
AcDbAlignedDimension
 13
174.7677428827011
 23
402.4983266026468
 33
0.0
 14
199.7677428827011
 24
417.1146470294795
 34
0.0
100
AcDbRotatedDimension
  0
DIMENSION
  5
83B
330
A
100
AcDbEntity
  8
SUNPOU
100
AcDbDimension
  2
*D6
 10
232.6127394379243
 20
451.9322008941516
 30
0.0
 11
219.667177417733
 21
443.7317469959003
 31
0.0
 70
   163
  1
φ30通線穴\P両端
  3
SUNPOU_2
100
AcDbDiametricDimension
 15
207.2157840454718
 25
435.9636487746328
 35
0.0
 40
0.0
1001
ACAD
1000
DSTYLE
1002
{
1070
   288
1070
     1
1002
}
  0
DIMENSION
  5
85D
330
A
100
AcDbEntity
  8
SUNPOU
100
AcDbDimension
  2
*D7
 10
85.0146537925295
 20
484.4983266026471
 30
0.0
 11
80.51465379252942
 21
493.4983266026466
 31
0.0
 70
    32
  3
SUNPOU_2
100
AcDbAlignedDimension
 13
154.3677428827011
 23
502.4983266026461
 33
0.0
 14
148.3677428827011
 24
484.498326602647
 34
0.0
 50
90.0
100
AcDbRotatedDimension
  0
DIMENSION
  5
877
330
A
100
AcDbEntity
  8
SUNPOU
100
AcDbDimension
  2
*D8
 10
100.7641606222799
 20
302.498326602647
 30
0.0
 11
94.09214845217295
 21
345.4527168608235
 31
0.0
 70
   160
  1
100(モータ芯)
  3
SUNPOU_2
100
AcDbAlignedDimension
 13
164.7677428827011
 23
402.4983266026468
 33
0.0
 14
149.3677428827011
 24
302.4983266026468
 34
0.0
 50
90.0
100
AcDbRotatedDimension
  0
DIMENSION
  5
891
330
A
100
AcDbEntity
  8
SUNPOU
100
AcDbDimension
  2
*D9
 10
114.8406089764239
 20
302.498326602647
 30
0.0
 11
110.3406089764239
 21
332.498326602647
 31
0.0
 70
    32
  3
SUNPOU_2
100
AcDbAlignedDimension
 13
184.9677498637646
 23
362.498326602647
 33
0.0
 14
149.3677428827011
 24
302.4983266026468
 34
0.0
 50
90.0
100
AcDbRotatedDimension
  0
DIMENSION
  5
89E
330
A
100
AcDbEntity
  8
SUNPOU
100
AcDbDimension
  2
*D10
 10
353.8872507913128
 20
302.498326602647
 30
0.0
 11
349.3872507913127
 21
402.4983266026468
 31
0.0
 70
    32
  3
SUNPOU_2
100
AcDbAlignedDimension
 13
315.1677428827011
 23
502.4983266026468
 33
0.0
 14
315.1677428827011
 24
302.498326602647
 34
0.0
 50
90.0
100
AcDbRotatedDimension
  0
DIMENSION
  5
8AB
330
A
100
AcDbEntity
  8
SUNPOU
100
AcDbDimension
  2
*D11
 10
353.8872507913127
 20
107.4983266026469
 30
0.0
 11
348.5508870535453
 21
194.6972376231077
 31
0.0
 70
   160
  1
H
  3
SUNPOU_2
100
AcDbAlignedDimension
 13
315.1677428827011
 23
302.498326602647
 33
0.0
 14
353.8872507913128
 24
107.4983266026469
 34
0.0
 50
90.0
100
AcDbRotatedDimension
  0
DIMENSION
  5
8B8
330
A
100
AcDbEntity
  8
SUNPOU
100
AcDbDimension
  2
*D12
 10
339.2721365558118
 20
117.4983266026468
 30
0.0
 11
334.7721365558118
 21
112.4983266026468
 31
0.0
 70
    32
  3
SUNPOU_2
100
AcDbAlignedDimension
 13
250.7677428827011
 23
107.4983266026469
 33
0.0
 14
240.7677428827011
 24
117.4983266026468
 34
0.0
 50
90.0
100
AcDbRotatedDimension
  0
DIMENSION
  5
8E3
330
A
100
AcDbEntity
  8
SUNPOU
100
AcDbDimension
  2
*D13
 10
339.2721365558118
 20
312.498326602647
 30
0.0
 11
334.6148167366596
 21
205.0465722135701
 31
0.0
 70
   160
  1
DH
  3
SUNPOU_2
100
AcDbAlignedDimension
 13
264.7677428827012
 23
117.498326602647
 33
0.0
 14
264.7677428827012
 24
312.498326602647
 34
0.0
 50
90.0
100
AcDbRotatedDimension
  0
DIMENSION
  5
8F0
330
A
100
AcDbEntity
  8
SUNPOU
100
AcDbDimension
  2
*D14
 10
328.7071650523478
 20
312.498326602647
 30
0.0
 11
324.2071650523478
 21
307.498326602647
 31
0.0
 70
    32
  3
SUNPOU_2
100
AcDbAlignedDimension
 13
315.1677428827011
 23
302.498326602647
 33
0.0
 14
239.2677428827012
 24
312.498326602647
 34
0.0
 50
90.0
100
AcDbRotatedDimension
  0
DIMENSION
  5
8FF
330
A
100
AcDbEntity
  8
SUNPOU
100
AcDbDimension
  2
*D15
 10
147.7677428827011
 20
271.0868558709421
 30
0.0
 11
141.000602562512
 21
276.3751383924548
 31
0.0
 70
   160
  1
<>
  3
SUNPOU_2
100
AcDbAlignedDimension
 13
144.7677428827011
 23
302.4983266026468
 33
0.0
 14
147.7677428827011
 24
304.0983266026468
 34
0.0
100
AcDbRotatedDimension
1001
ACAD
1000
DSTYLE
1002
{
1070
     7
1000
DOTSMALL
1070
     5
1000

1070
   173
1070
     1
1070
     6
1000
OPEN30
1002
}
  0
DIMENSION
  5
97C
330
A
100
AcDbEntity
  8
SUNPOU
100
AcDbDimension
  2
*D16
 10
120.5083006304877
 20
107.4983266026469
 30
0.0
 11
116.0083006304877
 21
161.498326602647
 31
0.0
 70
    32
  1
600
  3
SUNPOU_2
100
AcDbAlignedDimension
 13
162.7631568750393
 23
215.498326602647
 33
0.0
 14
162.7631568750393
 24
107.4983266026469
 34
0.0
 50
90.0
100
AcDbRotatedDimension
  0
DIMENSION
  5
9A5
330
A
100
AcDbEntity
  8
SUNPOU
100
AcDbDimension
  2
*D17
 10
290.450859572027
 20
227.4983266026469
 30
0.0
 11
284.7258408710072
 21
255.0695906379907
 31
0.0
 70
   160
  3
SUNPOU_2
100
AcDbAlignedDimension
 13
239.2677428827012
 23
312.498326602647
 33
0.0
 14
231.9874859339897
 24
227.4983266026469
 34
0.0
 50
90.0
100
AcDbRotatedDimension
  0
DIMENSION
  5
9B2
330
A
100
AcDbEntity
  8
SUNPOU
100
AcDbDimension
  2
*D18
 10
264.7677428827012
 20
258.415581374142
 30
0.0
 11
191.5016526410659
 21
263.8384596745841
 31
0.0
 70
   160
  3
SUNPOU_2
100
AcDbAlignedDimension
 13
144.7677428827011
 23
258.415581374142
 33
0.0
 14
264.7677428827012
 24
258.415581374142
 34
0.0
100
AcDbRotatedDimension
  0
DIMENSION
  5
9BF
330
A
100
AcDbEntity
  8
SUNPOU
100
AcDbDimension
  2
*D19
 10
317.7677428827012
 20
246.2835100474185
 30
0.0
 11
225.767742882701
 21
251.6379511311071
 31
0.0
 70
   160
  3
SUNPOU_2
100
AcDbAlignedDimension
 13
147.7677428827011
 23
304.0983266026468
 33
0.0
 14
317.7677428827012
 24
304.098326602647
 34
0.0
100
AcDbRotatedDimension
  0
DIMENSION
  5
A6E
330
A
100
AcDbEntity
  8
SUNPOU
100
AcDbDimension
  2
*D20
 10
298.202430258646
 20
110.498326602647
 30
0.0
 11
302.7620676199798
 21
97.97830654911535
 31
0.0
 70
   160
  3
SUNPOU_2
100
AcDbAlignedDimension
 13
249.2677428827013
 23
85.4983266026471
 33
0.0
 14
249.2677428827011
 24
110.498326602647
 34
0.0
 50
90.0
100
AcDbRotatedDimension
  0
DIMENSION
  5
A7B
330
A
100
AcDbEntity
  8
SUNPOU
100
AcDbDimension
  2
*D21
 10
235.2677428827012
 20
71.44538579541938
 30
0.0
 11
226.7677428827012
 21
75.94538579541938
 31
0.0
 70
    32
  3
SUNPOU_2
100
AcDbAlignedDimension
 13
218.2677428827012
 23
84.49832660264712
 33
0.0
 14
235.2677428827012
 24
84.49832660264712
 34
0.0
100
AcDbRotatedDimension
  0
DIMENSION
  5
AE2
330
A
100
AcDbEntity
  8
SUNPOU
100
AcDbDimension
  2
*D22
 10
150.7677428827011
 20
271.0868558709421
 30
0.0
 11
153.2977092055362
 21
266.2897068167008
 31
0.0
 70
   160
  3
SUNPOU_2
100
AcDbAlignedDimension
 13
147.7677428827011
 23
304.0983266026468
 33
0.0
 14
150.7677428827011
 24
302.4983266026468
 34
0.0
100
AcDbRotatedDimension
1001
ACAD
1000
DSTYLE
1002
{
1070
    41
1040
5.0
1070
     6
1000
DOTSMALL
1070
     5
1000

1070
   173
1070
     1
1070
     7
1000
NONE
1002
}
  0
DIMENSION
  5
AF1
330
A
100
AcDbEntity
  8
SUNPOU
100
AcDbDimension
  2
*D23
 10
172.7677428827011
 20
271.0868558709421
 30
0.0
 11
161.7677428827011
 21
275.5868558709419
 31
0.0
 70
    32
  3
SUNPOU_2
100
AcDbAlignedDimension
 13
150.7677428827011
 23
302.4983266026468
 33
0.0
 14
172.7677428827011
 24
304.0983266026468
 34
0.0
100
AcDbRotatedDimension
  0
DIMENSION
  5
AFE
330
A
100
AcDbEntity
  8
SUNPOU
100
AcDbDimension
  2
*D24
 10
188.7677428827011
 20
271.0868558709421
 30
0.0
 11
180.7677428827011
 21
275.5868558709419
 31
0.0
 70
    32
  3
SUNPOU_2
100
AcDbAlignedDimension
 13
172.7677428827011
 23
304.0983266026468
 33
0.0
 14
188.7677428827011
 24
304.0983266026468
 34
0.0
100
AcDbRotatedDimension
  0
DIMENSION
  5
B0B
330
A
100
AcDbEntity
  8
SUNPOU
100
AcDbDimension
  2
*D25
 10
207.7677428827011
 20
271.0868558709421
 30
0.0
 11
198.2677428827011
 21
275.5868558709419
 31
0.0
 70
    32
  3
SUNPOU_2
100
AcDbAlignedDimension
 13
188.7677428827011
 23
304.0983266026468
 33
0.0
 14
207.7677428827011
 24
312.498326602647
 34
0.0
100
AcDbRotatedDimension
  0
DIMENSION
  5
B18
330
A
100
AcDbEntity
  8
SUNPOU
100
AcDbDimension
  2
*D26
 10
212.7677428827011
 20
271.0868558709421
 30
0.0
 11
210.0998072367568
 21
276.5372308297428
 31
0.0
 70
   160
  3
SUNPOU_2
100
AcDbAlignedDimension
 13
207.7677428827011
 23
312.498326602647
 33
0.0
 14
212.7677428827011
 24
271.0868558709421
 34
0.0
100
AcDbRotatedDimension
  0
DIMENSION
  5
B27
330
A
100
AcDbEntity
  8
SUNPOU
100
AcDbDimension
  2
*D27
 10
240.7677428827011
 20
271.0868558709421
 30
0.0
 11
226.7677428827012
 21
275.5868558709419
 31
0.0
 70
    32
  3
SUNPOU_2
100
AcDbAlignedDimension
 13
212.7677428827011
 23
271.0868558709421
 33
0.0
 14
240.7677428827011
 24
271.0868558709421
 34
0.0
100
AcDbRotatedDimension
  0
DIMENSION
  5
B34
330
A
100
AcDbEntity
  8
SUNPOU
100
AcDbDimension
  2
*D28
 10
245.7677428827012
 20
271.0868558709421
 30
0.0
 11
243.258021694129
 21
276.5372308297428
 31
0.0
 70
   160
  3
SUNPOU_2
100
AcDbAlignedDimension
 13
240.7677428827011
 23
271.0868558709421
 33
0.0
 14
245.7677428827012
 24
304.098326602647
 34
0.0
100
AcDbRotatedDimension
  0
DIMENSION
  5
B43
330
A
100
AcDbEntity
  8
SUNPOU
100
AcDbDimension
  2
*D29
 10
317.7677428827012
 20
271.0868558709421
 30
0.0
 11
281.7677428827012
 21
275.5868558709419
 31
0.0
 70
    32
  3
SUNPOU_2
100
AcDbAlignedDimension
 13
245.7677428827012
 23
304.098326602647
 33
0.0
 14
317.7677428827012
 24
304.098326602647
 34
0.0
100
AcDbRotatedDimension
  0
DIMENSION
  5
BB3
330
A
100
AcDbEntity
  8
SUNPOU
100
AcDbDimension
  2
*D30
 10
291.7184100627111
 20
107.4983266026469
 30
0.0
 11
287.2119915100316
 21
102.9503369462713
 31
0.0
 70
   160
  3
SUNPOU_2
100
AcDbAlignedDimension
 13
249.2677428827011
 23
110.498326602647
 33
0.0
 14
271.0177428827012
 24
107.4983266026469
 34
0.0
 50
90.0
100
AcDbRotatedDimension
  0
DIMENSION
  5
BDF
330
A
100
AcDbEntity
  8
SUNPOU
100
AcDbDimension
  2
*D31
 10
199.7677428827011
 20
417.1146470294795
 30
0.0
 11
215.1938208188568
 21
422.1140950790371
 31
0.0
 70
   160
  3
SUNPOU_2
100
AcDbAlignedDimension
 13
226.7677428827012
 23
408.3751627907997
 33
0.0
 14
199.7677428827011
 24
378.498326602647
 34
0.0
100
AcDbRotatedDimension
  0
DIMENSION
  5
BF5
330
A
100
AcDbEntity
  8
SUNPOU
100
AcDbDimension
  2
*D32
 10
85.0146537925295
 20
302.498326602647
 30
0.0
 11
80.51465379252944
 21
423.269563557405
 31
0.0
 70
   160
  3
SUNPOU_2
100
AcDbAlignedDimension
 13
148.3677428827011
 23
484.498326602647
 33
0.0
 14
149.3677428827011
 24
302.4983266026468
 34
0.0
 50
90.0
100
AcDbRotatedDimension
  0
DIMENSION
  5
C02
330
A
100
AcDbEntity
  8
SUNPOU
100
AcDbDimension
  2
*D33
 10
144.7677428827011
 20
523.2345575874626
 30
0.0
 11
137.7232793560291
 21
527.7986534883256
 31
0.0
 70
   160
  3
SUNPOU_2
100
AcDbAlignedDimension
 13
147.7677428827011
 23
535.9983266026461
 33
0.0
 14
144.7677428827011
 24
535.9983266026461
 34
0.0
100
AcDbRotatedDimension
  0
LINE
  5
11F8
330
A
100
AcDbEntity
  8
CHUSIN
100
AcDbLine
 10
226.7677428827012
 20
68.62878261333389
 30
0.0
 11
226.7677428827012
 21
56.34965526564821
 31
0.0
  0
LINE
  5
126D
330
A
100
AcDbEntity
  8
02
  6
CONTINUOUS
100
AcDbLine
 10
193.7677428827011
 20
384.498326602647
 30
0.0
 11
174.7677428827011
 21
384.498326602647
 31
0.0
  0
LEADER
  5
12C3
330
A
100
AcDbEntity
  8
HIKIDASI
  6
CONTINUOUS
100
AcDbLeader
  3
SUNPOU_2
 73
     0
 75
     1
 40
13.33333333333333
 41
28.0
 76
     3
 10
168.7677428827011
 20
377.498326602647
 30
0.0
 10
66.71287934615225
 20
418.6877364873951
 30
0.0
 10
61.71287934615225
 20
418.6877364873951
 30
0.0
340
12C4
213
0.0
223
8.528561212579687
233
0.0
1001
ACAD
1000
DSTYLE
1002
{
1070
     5
1000
OPEN30
1070
    77
1070
     1
1070
   147
1040
1.0
1070
   342
1005
726
1002
}
1000
LEANOF
1010
0.0
1020
8.528561212579687
1030
0.0
1000
LEANOF
1010
0.0
1020
8.528561212579687
1030
0.0
  0
MTEXT
  5
12C4
330
A
100
AcDbEntity
  8
HIKIDASI
  6
CONTINUOUS
 62
     6
100
AcDbMText
 10
31.71287934615225
 20
412.1591752748154
 30
0.0
 40
5.0
 41
0.0
 71
     7
 72
     1
  1
M5タップ\P(サッシ工事)
  7
0_8
1001
ACAD
1000
MTEXTBEGIN
1070
    73
1070
     1
1070
    44
1040
1.0
1070
    74
1070
     0
1000
MTEXTEND
1000
MTEXTBEGIN
1070
    73
1070
     1
1070
    44
1040
1.0
1070
    74
1070
     0
1000
MTEXTEND
  0
LEADER
  5
12C6
330
A
100
AcDbEntity
  8
HIKIDASI
  6
CONTINUOUS
100
AcDbLeader
  3
SUNPOU_2
 73
     0
 75
     1
 40
13.33333333333333
 41
28.0
 76
     3
 10
168.7677428827011
 20
427.4983266026468
 30
0.0
 10
66.71287934615225
 20
481.8465594249515
 30
0.0
 10
61.71287934615225
 20
481.8465594249515
 30
0.0
340
12C7
213
0.0
223
8.522057870768094
233
0.0
1001
ACAD
1000
DSTYLE
1002
{
1070
     5
1000
OPEN30
1070
    77
1070
     1
1070
   147
1040
1.0
1070
   342
1005
726
1002
}
1000
LEANOF
1010
0.0
1020
8.522057870768094
1030
0.0
1000
LEANOF
1010
0.0
1020
8.522057870768094
1030
0.0
  0
MTEXT
  5
12C7
330
A
100
AcDbEntity
  8
HIKIDASI
  6
CONTINUOUS
 62
     6
100
AcDbMText
 10
31.71287934615225
 20
475.3245015541834
 30
0.0
 40
5.0
 41
0.0
 71
     7
 72
     1
  1
M5タップ\P(サッシ工事)
  7
0_8
1001
ACAD
1000
MTEXTBEGIN
1070
    73
1070
     1
1070
    44
1040
1.0
1070
    74
1070
     0
1000
MTEXTEND
1000
MTEXTBEGIN
1070
    73
1070
     1
1070
    44
1040
1.0
1070
    74
1070
     0
1000
MTEXTEND
  0
LINE
  5
12ED
330
A
100
AcDbEntity
  8
CHUSIN
100
AcDbLine
 10
180.7677428827011
 20
268.0954901275358
 30
0.0
 11
180.7677428827011
 21
87.49832660264701
 31
0.0
  0
LINE
  5
12EE
330
A
100
AcDbEntity
  8
CHUSIN
100
AcDbLine
 10
226.7677428827012
 20
268.94549619632
 30
0.0
 11
226.7677428827011
 21
255.451281730493
 31
0.0
  0
MTEXT
  5
1390
330
A
100
AcDbEntity
  8
MOJI
100
AcDbMText
 10
311.1042232710166
 20
172.7803355889526
 30
0.0
 40
6.0
 41
10.0
 71
     5
 72
     1
  1
内\P\P部
  7
0_8
1001
ACAD
1000
MTEXTBEGIN
1070
    73
1070
     1
1070
    44
1040
1.0
1070
    74
1070
     0
1000
MTEXTEND
1000
MTEXTBEGIN
1070
    73
1070
     1
1070
    44
1040
1.0
1070
    74
1070
     0
1000
MTEXTEND
  0
POLYLINE
  5
1391
330
A
100
AcDbEntity
  8
SAISEN
100
AcDb2dPolyline
 66
     1
 10
0.0
 20
0.0
 30
0.0
 70
     1
  0
VERTEX
  5
1CD3
330
1391
100
AcDbEntity
  8
SAISEN
100
AcDbVertex
100
AcDb2dVertex
 10
306.1042232710166
 20
157.7803355889525
 30
0.0
  0
VERTEX
  5
1CD4
330
1391
100
AcDbEntity
  8
SAISEN
100
AcDbVertex
100
AcDb2dVertex
 10
316.1042232710166
 20
157.7803355889525
 30
0.0
  0
VERTEX
  5
1CD5
330
1391
100
AcDbEntity
  8
SAISEN
100
AcDbVertex
100
AcDb2dVertex
 10
316.1042232710166
 20
187.7803355889525
 30
0.0
  0
VERTEX
  5
1CD6
330
1391
100
AcDbEntity
  8
SAISEN
100
AcDbVertex
100
AcDb2dVertex
 10
306.1042232710166
 20
187.7803355889525
 30
0.0
  0
SEQEND
  5
1CD7
330
1391
100
AcDbEntity
  8
SAISEN
  0
POLYLINE
  5
1392
330
A
100
AcDbEntity
  8
SAISEN
100
AcDb2dPolyline
 66
     1
 10
0.0
 20
0.0
 30
0.0
 70
     1
  0
VERTEX
  5
1CD8
330
1392
100
AcDbEntity
  8
SAISEN
100
AcDbVertex
100
AcDb2dVertex
 10
92.56869060711911
 20
157.7803355889525
 30
0.0
  0
VERTEX
  5
1CD9
330
1392
100
AcDbEntity
  8
SAISEN
100
AcDbVertex
100
AcDb2dVertex
 10
102.5686906071191
 20
157.7803355889525
 30
0.0
  0
VERTEX
  5
1CDA
330
1392
100
AcDbEntity
  8
SAISEN
100
AcDbVertex
100
AcDb2dVertex
 10
102.5686906071191
 20
187.7803355889525
 30
0.0
  0
VERTEX
  5
1CDB
330
1392
100
AcDbEntity
  8
SAISEN
100
AcDbVertex
100
AcDb2dVertex
 10
92.56869060711911
 20
187.7803355889525
 30
0.0
  0
SEQEND
  5
1CDC
330
1392
100
AcDbEntity
  8
SAISEN
  0
MTEXT
  5
1393
330
A
100
AcDbEntity
  8
MOJI
100
AcDbMText
 10
97.56869060711911
 20
172.7803355889526
 30
0.0
 40
6.0
 41
10.0
 71
     5
 72
     1
  1
外\P\P部
  7
0_8
1001
ACAD
1000
MTEXTBEGIN
1070
    73
1070
     1
1070
    44
1040
1.0
1070
    74
1070
     0
1000
MTEXTEND
1000
MTEXTBEGIN
1070
    73
1070
     1
1070
    44
1040
1.0
1070
    74
1070
     0
1000
MTEXTEND
  0
MTEXT
  5
1394
330
A
100
AcDbEntity
  8
MOJI
  6
CONTINUOUS
100
AcDbMText
 10
30.16326600269917
 20
87.86632045117073
 30
0.0
 40
6.0
 41
0.0
 71
     4
 72
     1
  1
\U+203B扉1枚質量100kg以内\P（100kgを超える場合は\P　係員にご相談下さい。）
  7
0_8
1001
ACAD
1000
MTEXTBEGIN
1070
    73
1070
     1
1070
    44
1040
1.0
1070
    74
1070
     0
1000
MTEXTEND
1000
MTEXTBEGIN
1070
    73
1070
     1
1070
    44
1040
1.0
1070
    74
1070
     0
1000
MTEXTEND
  0
LINE
  5
13B6
330
A
100
AcDbEntity
  8
CHUSIN
100
AcDbLine
 10
226.7677428827011
 20
244.1128705975486
 30
0.0
 11
226.7677428827012
 21
80.13508226442899
 31
0.0
  0
LEADER
  5
154E
330
A
100
AcDbEntity
  8
HIKIDASI
  6
CONTINUOUS
100
AcDbLeader
  3
SUNPOU_2
 73
     0
 75
     1
 40
13.33333333333333
 41
46.66666666666665
 76
     3
 10
174.7677428827011
 20
302.498326602647
 30
0.0
 10
143.4777564695474
 20
284.9136736719067
 30
0.0
 10
138.4777564695474
 20
284.9136736719067
 30
0.0
340
154F
213
0.0
223
8.693629509859135
233
0.0
1001
ACAD
1000
DSTYLE
1002
{
1070
     5
1000
OPEN30
1070
    77
1070
     1
1070
   147
1040
1.0
1070
   342
1005
726
1002
}
1000
LEANOF
1010
0.0
1020
8.693629509859135
1030
0.0
1000
LEANOF
1010
0.0
1020
8.693629509859135
1030
0.0
  0
MTEXT
  5
154F
330
A
100
AcDbEntity
  8
HIKIDASI
  6
CONTINUOUS
 62
     6
100
AcDbMText
 10
113.1444231362142
 20
284.8867108287143
 30
0.0
 40
5.0
 41
0.0
 71
     5
 72
     1
  1
方立上部φ１２穴加工\P(サッシ工事)
  7
SUNPOU
1001
ACAD
1000
MTEXTBEGIN
1070
    73
1070
     1
1070
    44
1040
1.0
1070
    74
1070
     0
1000
MTEXTEND
1000
MTEXTBEGIN
1070
    73
1070
     1
1070
    44
1040
1.0
1070
    74
1070
     0
1000
MTEXTEND
  0
LINE
  5
15B3
330
A
100
AcDbEntity
  8
04
100
AcDbLine
 10
250.3677428827011
 20
350.8983266026469
 30
0.0
 11
250.3677428827011
 21
350.748326602647
 31
0.0
  0
LINE
  5
15B4
330
A
100
AcDbEntity
  8
04
100
AcDbLine
 10
251.8677428827011
 20
351.224826602647
 30
0.0
 11
251.8677428827011
 21
350.8983266026469
 31
0.0
  0
LINE
  5
15B5
330
A
100
AcDbEntity
  8
04
100
AcDbLine
 10
250.3677428827011
 20
363.248326602647
 30
0.0
 11
250.3677428827011
 21
363.098326602647
 31
0.0
  0
LINE
  5
15B6
330
A
100
AcDbEntity
  8
04
100
AcDbLine
 10
251.8677428827011
 20
363.098326602647
 30
0.0
 11
251.8677428827011
 21
362.771826602647
 31
0.0
  0
LINE
  5
15B7
330
A
100
AcDbEntity
  8
04
100
AcDbLine
 10
250.3677428827011
 20
340.8983266026468
 30
0.0
 11
250.3677428827011
 21
340.748326602647
 31
0.0
  0
LINE
  5
15B8
330
A
100
AcDbEntity
  8
04
100
AcDbLine
 10
251.8677428827011
 20
341.224826602647
 30
0.0
 11
251.8677428827011
 21
340.8983266026468
 31
0.0
  0
LINE
  5
15B9
330
A
100
AcDbEntity
  8
04
100
AcDbLine
 10
244.7677428827011
 20
321.998326602647
 30
0.0
 11
244.7677428827011
 21
327.498326602647
 31
0.0
  0
LINE
  5
15BC
330
A
100
AcDbEntity
  8
04
100
AcDbLine
 10
231.7733779891408
 20
324.1982645407734
 30
0.0
 11
231.9677379073362
 21
324.1982642074988
 31
0.0
  0
LINE
  5
15BD
330
A
100
AcDbEntity
  8
04
100
AcDbLine
 10
216.7621901590337
 20
324.1983489794276
 30
0.0
 11
216.5677373364619
 21
324.1982227291695
 31
0.0
  0
LINE
  5
15BE
330
A
100
AcDbEntity
  8
04
100
AcDbLine
 10
215.2677353149929
 20
322.5983365610515
 30
0.0
 11
216.567734666285
 21
322.5982932880355
 31
0.0
  0
LINE
  5
15BF
330
A
100
AcDbEntity
  8
04
100
AcDbLine
 10
233.2677492281455
 20
322.5982576759339
 30
0.0
 11
231.9677351637626
 21
322.5982599051056
 31
0.0
  0
LINE
  5
15C5
330
A
100
AcDbEntity
  8
04
100
AcDbLine
 10
214.2677428827012
 20
316.498326602647
 30
0.0
 11
243.2677428827012
 21
316.498326602647
 31
0.0
  0
LINE
  5
15C7
330
A
100
AcDbEntity
  8
04
100
AcDbLine
 10
208.9677647372162
 20
370.0038793261247
 30
0.0
 11
208.9677651225536
 21
370.1983311329139
 31
0.0
  0
LINE
  5
15CA
330
A
100
AcDbEntity
  8
04
100
AcDbLine
 10
207.3678239820615
 20
370.1983348216784
 30
0.0
 11
207.367835381749
 21
371.4983317882433
 31
0.0
  0
LINE
  5
15CD
330
A
100
AcDbEntity
  8
04
100
AcDbLine
 10
254.767742882701
 20
402.4983266026469
 30
0.0
 11
254.7677428827011
 21
404.398326602647
 31
0.0
  0
INSERT
  5
1715
330
A
100
AcDbEntity
  8
KAKURE
  6
CONTINUOUS
100
AcDbBlockReference
  2
*X39
 10
0.0
 20
0.0
 30
0.0
1001
ACAD
1000
HATCH
1002
{
1070
    19
1000
ANSI31
1040
15.0
1040
0.0
1000
R14_HATCH_DATA
1000
1715
1011
1.0
1021
0.0
1031
0.0
1011
0.0
1021
1.0
1031
0.0
1011
0.0
1021
0.0
1031
1.0
1040
0.0
1010
0.0
1020
0.0
1030
1.0
1000
ANSI31
1070
     0
1070
     0
1071
        8
1071
        7
1070
     0
1070
     1
1071
        6
1040
185.1819647550131
1040
317.1854704781249
1040
186.767742882701
1040
317.3983266026468
1040
180.7677428827011
1040
317.3983266026468
1040
180.7677428827011
1040
304.0983266026468
1040
186.7677428827011
1040
304.0983266026468
1040
186.7677428827011
1040
305.37142342685
1071
        0
1071
        7
1070
     0
1070
     1
1071
        6
1040
180.7677428827011
1040
317.3983266026468
1040
174.7677428827012
1040
317.3983266026468
1040
176.353521010389
1040
317.1854704781251
1040
174.7677428827011
1040
305.3714234268498
1040
174.7677428827011
1040
304.0983266026468
1040
180.7677428827011
1040
304.0983266026468
1071
        0
1071
        7
1070
     0
1070
     1
1071
        3
1040
176.353521010389
1040
317.1854704781251
1040
174.7677428827011
1040
317.398326602647
1040
174.767742882701
1040
305.3714234268496
1071
        0
1071
        7
1070
     0
1070
     1
1071
        4
1040
186.7677428827011
1040
318.898326602647
1040
174.7677428827011
1040
318.8983266026468
1040
174.7677428827011
1040
317.3983266026468
1040
186.7677428827011
1040
317.3983266026468
1071
        0
1071
        7
1070
     0
1070
     1
1071
        4
1040
186.7677428827011
1040
320.498326602647
1040
174.7677428827011
1040
320.498326602647
1040
174.7677428827011
1040
318.8983266026468
1040
186.7677428827011
1040
318.898326602647
1071
        0
1071
       22
1070
     0
1070
     1
1071
        3
1040
186.767742882701
1040
317.3983266026468
1040
185.1819647550131
1040
317.1854704781251
1040
186.7677428827011
1040
305.3714234268496
1071
        0
1071
        7
1070
     0
1070
     1
1071
        4
1040
186.7677428827011
1040
304.0983266026468
1040
180.7677428827011
1040
304.0983266026468
1040
180.7677428827011
1040
302.498326602647
1040
186.7677428827011
1040
302.498326602647
1071
        0
1071
        7
1070
     0
1070
     1
1071
        4
1040
180.7677428827011
1040
304.0983266026468
1040
174.7677428827011
1040
304.0983266026468
1040
174.7677428827011
1040
302.498326602647
1040
180.7677428827011
1040
302.498326602647
1071
        0
1070
     0
1070
     1
1040
0.0
1040
15.0
1070
     0
1070
     1
1040
0.7853981633974483
1040
1.0
1040
0.0
1040
-1.325825214724775
1040
1.325825214724775
1070
     0
1040
0.079219829712842
1071
        8
1040
182.8245273081855
1040
312.0088127914562
1040
0.0
1040
178.3866049468933
1040
311.2166140749468
1040
0.0
1040
175.7714038629937
1040
315.9698032757191
1040
0.0
1040
176.2468966358436
1040
318.2671793986823
1040
0.0
1040
176.8016331115159
1040
319.21781661918
1040
0.0
1040
186.073720792946
1040
315.0191660552215
1040
0.0
1040
184.9642417304185
1040
303.1361915041483
1040
0.0
1040
179.7338334514369
1040
303.2154115307136
1040
0.0
1002
}
  0
LINE
  5
189E
330
A
100
AcDbEntity
  8
04
100
AcDbLine
 10
199.7677428827011
 20
372.498326602647
 30
0.0
 11
199.7677428827011
 21
338.498326602647
 31
0.0
  0
LEADER
  5
189F
330
A
100
AcDbEntity
  8
HIKIDASI
  6
CONTINUOUS
100
AcDbLeader
  3
SUNPOU_2
 73
     0
 75
     1
 40
13.33333333333333
 41
28.0
 76
     3
 10
169.3167777389748
 20
402.4983266026468
 30
0.0
 10
66.71287934615225
 20
458.285865993005
 30
0.0
 10
61.71287934615225
 20
458.285865993005
 30
0.0
340
18A0
213
0.0
223
8.528561212579687
233
0.0
1001
ACAD
1000
DSTYLE
1002
{
1070
     5
1000
OPEN30
1070
    77
1070
     1
1070
   147
1040
1.0
1070
   342
1005
726
1002
}
1000
LEANOF
1010
0.0
1020
8.528561212579687
1030
0.0
1000
LEANOF
1010
0.0
1020
8.528561212579687
1030
0.0
  0
MTEXT
  5
18A0
330
A
100
AcDbEntity
  8
HIKIDASI
  6
CONTINUOUS
 62
     6
100
AcDbMText
 10
31.71287934615225
 20
451.7573047804253
 30
0.0
 40
5.0
 41
0.0
 71
     7
 72
     1
  1
M5タップ\P(サッシ工事)
  7
0_8
1001
ACAD
1000
MTEXTBEGIN
1070
    73
1070
     1
1070
    44
1040
1.0
1070
    74
1070
     0
1000
MTEXTEND
1000
MTEXTBEGIN
1070
    73
1070
     1
1070
    44
1040
1.0
1070
    74
1070
     0
1000
MTEXTEND
  0
MTEXT
  5
19E9
330
A
100
AcDbEntity
  8
MOJI
100
AcDbMText
 10
380.9394332427919
 20
114.4379381676552
 30
0.0
 40
5.0
 41
0.0
 71
     5
 72
     1
  1
F.L
  7
0_8
1001
ACAD
1000
MTEXTBEGIN
1070
    73
1070
     1
1070
    44
1040
1.0
1070
    74
1070
     0
1000
MTEXTEND
1000
MTEXTBEGIN
1070
    73
1070
     1
1070
    44
1040
1.0
1070
    74
1070
     0
1000
MTEXTEND
  0
DIMENSION
  5
19F6
330
A
100
AcDbEntity
  8
SUNPOU
100
AcDbDimension
  2
*D36
 10
129.6171895646594
 20
402.4983266026468
 30
0.0
 11
125.1171895646592
 21
385.0131487714707
 31
0.0
 70
   160
  3
SUNPOU_2
100
AcDbAlignedDimension
 13
164.7677428827011
 23
377.498326602647
 33
0.0
 14
164.7677428827011
 24
402.4983266026468
 34
0.0
 50
90.0
100
AcDbRotatedDimension
  0
DIMENSION
  5
1A30
330
A
100
AcDbEntity
  8
SUNPOU
100
AcDbDimension
  2
*D37
 10
129.6171895646594
 20
427.4983266026468
 30
0.0
 11
125.1171895646592
 21
417.5038836655476
 31
0.0
 70
   160
  3
SUNPOU_2
100
AcDbAlignedDimension
 13
164.7677428827011
 23
402.4983266026468
 33
0.0
 14
164.7677428827011
 24
427.4983266026468
 34
0.0
 50
90.0
100
AcDbRotatedDimension
  0
LINE
  5
1B40
330
A
100
AcDbEntity
  8
KAKURE
100
AcDbLine
 10
193.7677428827011
 20
366.498326602647
 30
0.0
 11
199.767742882701
 21
366.498326602647
 31
0.0
  0
LINE
  5
1B41
330
A
100
AcDbEntity
  8
KAKURE
100
AcDbLine
 10
193.7677428827011
 20
365.748326602647
 30
0.0
 11
199.767742882701
 21
365.748326602647
 31
0.0
  0
LINE
  5
1B42
330
A
100
AcDbEntity
  8
KAKURE
100
AcDbLine
 10
193.7677428827011
 20
359.248326602647
 30
0.0
 11
199.767742882701
 21
359.248326602647
 31
0.0
  0
LINE
  5
1B43
330
A
100
AcDbEntity
  8
KAKURE
100
AcDbLine
 10
193.7677428827011
 20
358.4983266026468
 30
0.0
 11
199.7677428827011
 21
358.4983266026468
 31
0.0
  0
LINE
  5
1B97
330
A
100
AcDbEntity
  8
06
100
AcDbLine
 10
276.7677428827012
 20
368.266275792647
 30
0.0
 11
286.7677428827012
 21
368.266275792647
 31
0.0
  0
LINE
  5
1B98
330
A
100
AcDbEntity
  8
06
100
AcDbLine
 10
272.7677428827012
 20
357.266275792647
 30
0.0
 11
290.7677428827012
 21
357.266275792647
 31
0.0
  0
LINE
  5
1B99
330
A
100
AcDbEntity
  8
06
100
AcDbLine
 10
276.7677428827012
 20
436.266275792647
 30
0.0
 11
286.7677428827012
 21
436.266275792647
 31
0.0
  0
LINE
  5
1B9A
330
A
100
AcDbEntity
  8
06
100
AcDbLine
 10
272.7677428827012
 20
447.266275792647
 30
0.0
 11
290.7677428827012
 21
447.266275792647
 31
0.0
  0
LINE
  5
1B9B
330
A
100
AcDbEntity
  8
06
100
AcDbLine
 10
272.7677428827012
 20
357.266275792647
 30
0.0
 11
276.7677428827012
 21
368.266275792647
 31
0.0
  0
LINE
  5
1B9C
330
A
100
AcDbEntity
  8
06
100
AcDbLine
 10
272.7677428827012
 20
447.266275792647
 30
0.0
 11
276.7677428827012
 21
436.266275792647
 31
0.0
  0
LINE
  5
1B9D
330
A
100
AcDbEntity
  8
06
100
AcDbLine
 10
290.7677428827012
 20
357.266275792647
 30
0.0
 11
286.7677428827012
 21
368.266275792647
 31
0.0
  0
LINE
  5
1B9E
330
A
100
AcDbEntity
  8
06
100
AcDbLine
 10
290.7677428827012
 20
447.266275792647
 30
0.0
 11
286.7677428827012
 21
436.266275792647
 31
0.0
  0
LINE
  5
1B9F
330
A
100
AcDbEntity
  8
06
100
AcDbLine
 10
290.4098785064321
 20
447.266275792647
 30
0.0
 11
290.6723123823628
 21
447.0038419167162
 31
0.0
  0
LINE
  5
1BA0
330
A
100
AcDbEntity
  8
CHUSIN
100
AcDbLine
 10
281.7677428827012
 20
346.266275792647
 30
0.0
 11
281.7677428827012
 21
463.4643437883487
 31
0.0
  0
DIMENSION
  5
1BBD
330
A
100
AcDbEntity
  8
SUNPOU
100
AcDbDimension
  2
*D38
 10
290.450859572027
 20
202.4983266026469
 30
0.0
 11
285.950859572027
 21
159.998326602647
 31
0.0
 70
    32
  3
SUNPOU_2
100
AcDbAlignedDimension
 13
240.7677428827011
 23
117.4983266026468
 33
0.0
 14
232.4874859339896
 24
202.4983266026469
 34
0.0
 50
90.0
100
AcDbRotatedDimension
  0
MTEXT
  5
1C77
330
A
100
AcDbEntity
  8
MOJI
100
AcDbMText
 10
360.999999999997
 20
29.00000000000005
 30
0.0
 40
7.0
 41
49.99999999999994
 71
     5
 72
     1
  1
たて断面図　
  7
0_80
1001
ACAD
1000
MTEXTBEGIN
1070
    73
1070
     1
1070
    44
1040
1.0
1070
    74
1070
     0
1000
MTEXTEND
1000
MTEXTBEGIN
1070
    73
1070
     1
1070
    44
1040
1.0
1070
    74
1070
     0
1000
MTEXTEND
  0
MTEXT
  5
1C78
330
A
100
AcDbEntity
  8
MOJI
100
AcDbMText
 10
310.999999999997
 20
29.00000000000005
 30
0.0
 40
7.0
 41
50.0
 71
     5
 72
     1
  1
図番４－２
  7
0_80
1001
ACAD
1000
MTEXTBEGIN
1070
    73
1070
     1
1070
    44
1040
1.0
1070
    74
1070
     0
1000
MTEXTEND
1000
MTEXTBEGIN
1070
    73
1070
     1
1070
    44
1040
1.0
1070
    74
1070
     0
1000
MTEXTEND
  0
MTEXT
  5
1C79
330
A
100
AcDbEntity
  8
MOJI
100
AcDbMText
 10
255.9999999999998
 20
29.00000000000005
 30
0.0
 40
7.0
 41
60.0
 71
     5
 72
     1
  1
片引き又は両引き
  7
0_80
1001
ACAD
1000
MTEXTBEGIN
1070
    73
1070
     1
1070
    44
1040
1.0
1070
    74
1070
     0
1000
MTEXTEND
1000
MTEXTBEGIN
1070
    73
1070
     1
1070
    44
1040
1.0
1070
    74
1070
     0
1000
MTEXTEND
  0
LINE
  5
1C7A
330
A
100
AcDbEntity
  8
SAISEN
100
AcDbLine
 10
285.9999999999968
 20
41.00000000000017
 30
0.0
 11
285.9999999999968
 21
17.0
 31
0.0
  0
LINE
  5
1C7B
330
A
100
AcDbEntity
  8
SAISEN
100
AcDbLine
 10
225.9999999999969
 20
41.00000000000017
 30
0.0
 11
225.9999999999969
 21
17.0
 31
0.0
  0
LINE
  5
1C7C
330
A
100
AcDbEntity
  8
SAISEN
100
AcDbLine
 10
145.9999999999969
 20
41.00000000000017
 30
0.0
 11
145.9999999999969
 21
17.0
 31
0.0
  0
MTEXT
  5
1C7D
330
A
100
AcDbEntity
  8
MOJI
100
AcDbMText
 10
90.99999999999694
 20
29.00000000000007
 30
0.0
 40
7.0
 41
110.0
 71
     5
 72
     1
  1
ステンレスサッシ無目見込170mm
  7
0_8
1001
ACAD
1000
MTEXTBEGIN
1070
    73
1070
     1
1070
    44
1040
1.0
1070
    74
1070
     0
1000
MTEXTEND
1000
MTEXTBEGIN
1070
    73
1070
     1
1070
    44
1040
1.0
1070
    74
1070
     0
1000
MTEXTEND
  0
POLYLINE
  5
1C7E
330
A
100
AcDbEntity
  8
SAISEN
100
AcDb2dPolyline
 66
     1
 10
0.0
 20
0.0
 30
0.0
 70
     1
  0
VERTEX
  5
1CDD
330
1C7E
100
AcDbEntity
  8
SAISEN
100
AcDbVertex
100
AcDb2dVertex
 10
35.99999999999693
 20
17.0
 30
0.0
  0
VERTEX
  5
1CDE
330
1C7E
100
AcDbEntity
  8
SAISEN
100
AcDbVertex
100
AcDb2dVertex
 10
385.9999999999968
 20
17.0
 30
0.0
  0
VERTEX
  5
1CDF
330
1C7E
100
AcDbEntity
  8
SAISEN
100
AcDbVertex
100
AcDb2dVertex
 10
385.9999999999968
 20
41.00000000000017
 30
0.0
  0
VERTEX
  5
1CE0
330
1C7E
100
AcDbEntity
  8
SAISEN
100
AcDbVertex
100
AcDb2dVertex
 10
35.99999999999693
 20
41.00000000000017
 30
0.0
  0
SEQEND
  5
1CE1
330
1C7E
100
AcDbEntity
  8
SAISEN
  0
MTEXT
  5
1C7F
330
A
100
AcDbEntity
  8
MOJI
100
AcDbMText
 10
185.9999999999969
 20
29.00000000000007
 30
0.0
 40
7.0
 41
80.0
 71
     5
 72
     1
  1
ＳＯＶ－２００ＫＤＣ
  7
0_8
1001
ACAD
1000
MTEXTBEGIN
1070
    73
1070
     1
1070
    44
1040
1.0
1070
    74
1070
     0
1000
MTEXTEND
1000
MTEXTBEGIN
1070
    73
1070
     1
1070
    44
1040
1.0
1070
    74
1070
     0
1000
MTEXTEND
  0
CIRCLE
  5
1C88
330
A
100
AcDbEntity
  8
SAISEN
100
AcDbCircle
 10
392.0976380784291
 20
49.5430264122316
 30
0.0
 40
5.0
  0
TEXT
  5
1C89
330
A
100
AcDbEntity
  8
MOJI
100
AcDbText
 10
389.0488190392129
 20
45.27151320611589
 30
0.0
 40
8.0
  1
Ｓ
 41
0.8
  7
0_8
 11
389.0488190392129
 21
53.2715132061159
 31
0.0
100
AcDbText
 73
     3
  0
VIEWPORT
  5
759
102
{ACAD_XDICTIONARY
360
1CBA
102
}
330
B
100
AcDbEntity
 67
     1
  8
0
100
AcDbViewport
 10
198.0508299538852
 20
285.1874487354477
 30
0.0
 40
1078.343208727591
 41
628.3535021666721
 68
     1
 69
     1
1001
ACAD
1000
MVIEW
1002
{
1070
    16
1010
0.0
1020
0.0
1030
0.0
1010
0.0
1020
0.0
1030
1.0
1040
0.0
1040
628.3535021666721
1040
198.0508299538852
1040
285.1874487354477
1040
50.0
1040
0.0
1040
0.0
1070
     0
1070
     0
1070
     1
1070
     1
1070
     0
1070
     0
1070
     0
1070
     0
1040
0.0
1040
0.0
1040
0.0
1040
10.0
1040
10.0
1040
10.0
1040
10.0
1070
     0
1002
{
1002
}
1002
}
  0
VIEWPORT
  5
1CA4
102
{ACAD_XDICTIONARY
360
1CC0
102
}
330
B
100
AcDbEntity
 67
     1
  8
DEFPOINTS
100
AcDbViewport
 10
198.0508309076477
 20
285.1874477816852
 30
0.0
 40
396.4883172119752
 41
570.409736121624
 68
     2
 69
     2
1001
ACAD
1000
MVIEW
1002
{
1070
    16
1010
0.0
1020
0.0
1030
0.0
1010
0.0
1020
0.0
1030
1.0
1040
0.0
1040
570.409736121624
1040
210.0
1040
297.0
1040
50.0
1040
0.0
1040
0.0
1070
     0
1070
   100
1070
     1
1070
     1
1070
     0
1070
     0
1070
     0
1070
     0
1040
0.0
1040
0.0
1040
0.0
1040
10.0
1040
10.0
1040
10.0
1040
10.0
1070
     0
1002
{
1002
}
1002
}
  0
ENDSEC
  0
SECTION
  2
OBJECTS
  0
DICTIONARY
  5
19
330
0
100
AcDbDictionary
  3
ACAD_COLOR
350
1C61
  3
ACAD_GROUP
350
1A
  3
ACAD_LAYOUT
350
556
  3
ACAD_MATERIAL
350
1C60
  3
ACAD_MLINESTYLE
350
1B
  3
ACAD_PLOTSETTINGS
350
557
  3
ACADDIM
350
154D
  3
ASE_INDEX_DICTIONARY
350
1C8B
1001
ACAD
1000
TREAT_AS_HARD
1070
     0
1000
TREAT_AS_HARD
1070
     0
  0
DICTIONARY
  5
1659
330
2
100
AcDbDictionary
  3
ACAD_LAYERFILTERS
350
165A
  3
ACAD_LAYERSTATES
350
169F
1001
ACAD
1000
TREAT_AS_HARD
1070
     1
1000
TREAT_AS_HARD
1070
     1
  0
DICTIONARY
  5
1BFA
330
A
100
AcDbDictionary
  3
ACAD_LAYOUTSELFREF
350
1CC8
1001
ACAD
1000
TREAT_AS_HARD
1070
     1
  0
DICTIONARY
  5
1BFC
330
B
100
AcDbDictionary
  3
ACAD_LAYOUTSELFREF
350
1CC9
1001
ACAD
1000
TREAT_AS_HARD
1070
     1
  0
DICTIONARY
  5
1CBA
330
759
100
AcDbDictionary
  3
ACAD_XREC_ROUNDTRIP
350
1CBB
1001
ACAD
1000
TREAT_AS_HARD
1070
     1
  0
DICTIONARY
  5
1CC0
330
1CA4
100
AcDbDictionary
  3
ACAD_XREC_ROUNDTRIP
350
1CC1
1001
ACAD
1000
TREAT_AS_HARD
1070
     1
  0
DICTIONARY
  5
1C61
102
{ACAD_REACTORS
330
19
102
}
330
19
100
AcDbDictionary
1001
ACAD
1000
TREAT_AS_HARD
1070
     0
  0
DICTIONARY
  5
1A
102
{ACAD_REACTORS
330
19
102
}
330
19
100
AcDbDictionary
  3
DAGROUP501
350
501
  3
DAGROUP505
350
505
  3
DAGROUP509
350
509
  3
DAGROUP50C
350
50C
  3
DAGROUP50F
350
50F
1001
ACAD
1000
TREAT_AS_HARD
1070
     0
1000
TREAT_AS_HARD
1070
     0
  0
DICTIONARY
  5
556
102
{ACAD_REACTORS
330
19
102
}
330
19
100
AcDbDictionary
1001
ACAD
1000
TREAT_AS_HARD
1070
     0
1000
TREAT_AS_HARD
1070
     0
  0
DICTIONARY
  5
1C60
102
{ACAD_REACTORS
330
19
102
}
330
19
100
AcDbDictionary
1001
ACAD
1000
TREAT_AS_HARD
1070
     0
  0
DICTIONARY
  5
1B
102
{ACAD_REACTORS
330
19
102
}
330
19
100
AcDbDictionary
  3
STANDARD
350
1C
1001
ACAD
1000
TREAT_AS_HARD
1070
     0
1000
TREAT_AS_HARD
1070
     0
  0
DICTIONARY
  5
557
102
{ACAD_REACTORS
330
19
102
}
330
19
100
AcDbDictionary
1001
ACAD
1000
TREAT_AS_HARD
1070
     0
1000
TREAT_AS_HARD
1070
     0
  0
XRECORD
  5
154D
102
{ACAD_REACTORS
330
19
102
}
330
19
100
AcDbXrecord
 90
   990106
  3

 60
     0
 61
     0
 62
     4
 63
     4
 64
     1
 65
     0
 66
     0
 67
     3
 68
     0
 69
     1
 70
     0
 71
     0
 72
     0
 40
0.0
170
     0
340
154F
  0
DICTIONARY
  5
1C8B
102
{ACAD_REACTORS
330
19
102
}
330
19
100
AcDbDictionary
  3
ASEBLOCKHIERARCHYINDEXRECORD
350
1C8D
1001
DCO15
1040
1508666631.906
1001
ACAD
1000
TREAT_AS_HARD
1070
     0
  0
DICTIONARY
  5
165A
102
{ACAD_REACTORS
330
1659
102
}
330
1659
100
AcDbDictionary
  3
HIHYOJI
350
16DF
1001
ACAD
1000
TREAT_AS_HARD
1070
     1
1000
TREAT_AS_HARD
1070
     0
  0
DICTIONARY
  5
169F
102
{ACAD_REACTORS
330
1659
102
}
330
1659
100
AcDbDictionary
  3
HIHYOJI
350
16B2
  3
HYOJI
350
16A0
1001
ACAD
1000
TREAT_AS_HARD
1070
     0
1000
TREAT_AS_HARD
1070
     0
  0
XRECORD
  5
1CC8
102
{ACAD_REACTORS
330
1BFA
102
}
330
1BFA
100
AcDbXrecord
340
A
  0
XRECORD
  5
1CC9
102
{ACAD_REACTORS
330
1BFC
102
}
330
1BFC
100
AcDbXrecord
340
B
  0
XRECORD
  5
1CBB
102
{ACAD_REACTORS
330
1CBA
102
}
330
1CBA
100
AcDbXrecord
102
SHADEPLOT
 70
     0
  0
XRECORD
  5
1CC1
102
{ACAD_REACTORS
330
1CC0
102
}
330
1CC0
100
AcDbXrecord
102
SHADEPLOT
 70
     0
  0
GROUP
  5
501
102
{ACAD_REACTORS
330
1A
102
}
330
1A
100
AcDbGroup
300

 70
     0
 71
     1
  0
GROUP
  5
505
102
{ACAD_REACTORS
330
1A
102
}
330
1A
100
AcDbGroup
300

 70
     0
 71
     1
  0
GROUP
  5
509
102
{ACAD_REACTORS
330
1A
102
}
330
1A
100
AcDbGroup
300

 70
     0
 71
     1
  0
GROUP
  5
50C
102
{ACAD_REACTORS
330
1A
102
}
330
1A
100
AcDbGroup
300

 70
     0
 71
     1
  0
GROUP
  5
50F
102
{ACAD_REACTORS
330
1A
102
}
330
1A
100
AcDbGroup
300

 70
     0
 71
     1
  0
MLINESTYLE
  5
1C
102
{ACAD_REACTORS
330
1B
102
}
330
1B
100
AcDbMlineStyle
  2
STANDARD
 70
     0
  3

 62
     0
 51
90.00000000000019
 52
90.00000000000019
 71
     2
 49
0.5
 62
   256
  6
BYLAYER
 49
-0.5
 62
   256
  6
BYLAYER
  0
XRECORD
  5
1C8D
102
{ACAD_REACTORS
330
1C8B
102
}
330
1C8B
100
AcDbXrecord
330
1715
330
1754
330
1755
330
1765
330
1766
330
1B7F
330
1B80
330
1A70
330
1A71
330
1A79
330
1A7A
330
176F
330
1770
330
1442
330
1443
330
1950
330
1951
330
19AF
330
19B0
330
14CC
330
14CD
330
1493
330
1494
330
1963
330
1964
330
148A
330
148B
330
1480
330
1481
330
1C0A
330
1C0B
330
1415
330
1416
330
1476
330
1477
330
13CD
330
13CE
330
1889
330
188A
330
14B2
330
14B3
330
1851
330
1852
330
1C15
330
17AF
330
17B0
330
17B8
330
17B9
330
17CA
330
17CB
330
19C6
330
19C7
330
186B
330
186C
330
19BB
330
19BC
330
187F
330
1880
330
14A9
330
14AA
330
1AA1
330
1AA2
330
1AB3
330
1AB4
330
1740
330
1741
330
1AAA
330
1AAB
330
1A4A
330
1A4B
330
1BCD
330
1BCE
  0
XRECORD
  5
16DF
102
{ACAD_REACTORS
330
165A
102
}
330
165A
100
AcDbXrecord
  1
hihyoji
  1
08,09,*_h
  1
*
  1
*
 70
     0
  1
*
  1
*
  0
XRECORD
  5
16B2
102
{ACAD_REACTORS
330
169F
102
}
330
169F
100
AcDbXrecord
 91
      481
330
721
 90
        8
 62
     6
331
13
  1
Color_6
330
720
 90
        8
 62
     6
331
713
  1
Color_6
330
71F
 90
        8
 62
     3
331
13
  1
Color_3
330
0
 90
        9
 62
     6
331
21
  1
Color_6
330
15E5
 90
        8
 62
     6
331
21
  1
Color_6
330
71D
 90
        8
 62
     6
331
13
  1
Color_6
330
714
 90
        0
 62
     7
331
13
  1
Color_7
330
0
 90
        9
 62
     6
331
712
  1
Color_6
330
71C
 90
        8
 62
     6
331
712
  1
Color_6
330
0
 90
        9
 62
     9
331
13
  1
Color_9
330
0
 90
        9
 62
     8
331
13
  1
Color_8
330
71A
 90
        8
 62
     6
331
13
  1
Color_6
330
718
 90
        8
 62
     4
331
13
  1
Color_4
330
717
 90
        8
 62
     3
331
13
  1
Color_3
330
14
 90
        8
 62
     7
331
13
  1
Color_7
  0
XRECORD
  5
16A0
102
{ACAD_REACTORS
330
169F
102
}
330
169F
100
AcDbXrecord
 91
      481
330
721
 90
        8
 62
     6
331
13
  1
Color_6
330
720
 90
        8
 62
     6
331
713
  1
Color_6
330
71F
 90
        8
 62
     3
331
13
  1
Color_3
330
0
 90
        8
 62
     6
331
21
  1
Color_6
330
15E5
 90
        8
 62
     6
331
21
  1
Color_6
330
71D
 90
        8
 62
     6
331
13
  1
Color_6
330
714
 90
        0
 62
     7
331
13
  1
Color_7
330
0
 90
        8
 62
     6
331
712
  1
Color_6
330
71C
 90
        8
 62
     6
331
712
  1
Color_6
330
0
 90
        8
 62
     9
331
13
  1
Color_9
330
0
 90
        8
 62
     8
331
13
  1
Color_8
330
71A
 90
        8
 62
     6
331
13
  1
Color_6
330
718
 90
        8
 62
     4
331
13
  1
Color_4
330
717
 90
        8
 62
     3
331
13
  1
Color_3
330
14
 90
        8
 62
     7
331
13
  1
Color_7
  0
ENDSEC
  0
EOF
