  0
SECTION
  2
HEADER
  9
$ACADVER
  1
AC1012
  9
$DWGCODEPAGE
  3
dos932
  9
$INSBASE
 10
0.0
 20
0.0
 30
0.0
  9
$EXTMIN
 10
0.0
 20
0.0
 30
0.0
  9
$EXTMAX
 10
420.0
 20
594.0
 30
0.0
  9
$LIMMIN
 10
0.0
 20
0.0
  9
$LIMMAX
 10
420.0
 20
594.0
  9
$ORTHOMODE
 70
     1
  9
$REGENMODE
 70
     1
  9
$FILLMODE
 70
     1
  9
$QTEXTMODE
 70
     0
  9
$MIRRTEXT
 70
     1
  9
$DRAGMODE
 70
     2
  9
$LTSCALE
 40
0.3
  9
$OSMODE
 70
    37
  9
$ATTMODE
 70
     1
  9
$TEXTSIZE
 40
7.0
  9
$TRACEWID
 40
0.05
  9
$TEXTSTYLE
  7
STANDARD
  9
$CLAYER
  8
DEFPOINTS
  9
$CELTYPE
  6
BYLAYER
  9
$CECOLOR
 62
   256
  9
$CELTSCALE
 40
1.0
  9
$DELOBJ
 70
     1
  9
$DISPSILH
 70
     0
  9
$DIMSCALE
 40
2.0
  9
$DIMASZ
 40
2.5
  9
$DIMEXO
 40
1.5
  9
$DIMDLI
 40
0.0
  9
$DIMRND
 40
0.0
  9
$DIMDLE
 40
0.0
  9
$DIMEXE
 40
1.0
  9
$DIMTP
 40
0.0
  9
$DIMTM
 40
0.0
  9
$DIMTXT
 40
2.5
  9
$DIMCEN
 40
0.0
  9
$DIMTSZ
 40
0.0
  9
$DIMTOL
 70
     0
  9
$DIMLIM
 70
     0
  9
$DIMTIH
 70
     0
  9
$DIMTOH
 70
     0
  9
$DIMSE1
 70
     0
  9
$DIMSE2
 70
     0
  9
$DIMTAD
 70
     1
  9
$DIMZIN
 70
     8
  9
$DIMBLK
  1
OPEN30
  9
$DIMASO
 70
     1
  9
$DIMSHO
 70
     1
  9
$DIMPOST
  1

  9
$DIMAPOST
  1

  9
$DIMALT
 70
     0
  9
$DIMALTD
 70
     2
  9
$DIMALTF
 40
25.4
  9
$DIMLFAC
 40
1.0
  9
$DIMTOFL
 70
     1
  9
$DIMTVP
 40
0.0
  9
$DIMTIX
 70
     0
  9
$DIMSOXD
 70
     0
  9
$DIMSAH
 70
     0
  9
$DIMBLK1
  1

  9
$DIMBLK2
  1

  9
$DIMSTYLE
  2
SUNPOU_2
  9
$DIMCLRD
 70
   256
  9
$DIMCLRE
 70
   256
  9
$DIMCLRT
 70
   256
  9
$DIMTFAC
 40
1.0
  9
$DIMGAP
 40
1.0
  9
$DIMJUST
 70
     0
  9
$DIMSD1
 70
     0
  9
$DIMSD2
 70
     0
  9
$DIMTOLJ
 70
     1
  9
$DIMTZIN
 70
     0
  9
$DIMALTZ
 70
     0
  9
$DIMALTTZ
 70
     0
  9
$DIMFIT
 70
     3
  9
$DIMUPT
 70
     0
  9
$DIMUNIT
 70
     2
  9
$DIMDEC
 70
     1
  9
$DIMTDEC
 70
     1
  9
$DIMALTU
 70
     2
  9
$DIMALTTD
 70
     2
  9
$DIMTXSTY
  7
SUNPOU
  9
$DIMAUNIT
 70
     0
  9
$LUNITS
 70
     2
  9
$LUPREC
 70
     4
  9
$SKETCHINC
 40
0.1
  9
$FILLETRAD
 40
0.0
  9
$AUNITS
 70
     0
  9
$AUPREC
 70
     0
  9
$MENU
  1
acad
  9
$ELEVATION
 40
0.0
  9
$PELEVATION
 40
0.0
  9
$THICKNESS
 40
0.0
  9
$LIMCHECK
 70
     0
  9
$BLIPMODE
 70
     0
  9
$CHAMFERA
 40
0.0
  9
$CHAMFERB
 40
0.0
  9
$CHAMFERC
 40
0.0
  9
$CHAMFERD
 40
0.0
  9
$SKPOLY
 70
     0
  9
$TDCREATE
 40
2444972.375000000
  9
$TDUPDATE
 40
2453266.401983507
  9
$TDINDWG
 40
0.4289541898
  9
$TDUSRTIMER
 40
0.4289541898
  9
$USRTIMER
 70
     1
  9
$ANGBASE
 50
0.0
  9
$ANGDIR
 70
     0
  9
$PDMODE
 70
     0
  9
$PDSIZE
 40
1.0
  9
$PLINEWID
 40
0.0
  9
$COORDS
 70
     1
  9
$SPLFRAME
 70
     0
  9
$SPLINETYPE
 70
     6
  9
$SPLINESEGS
 70
     8
  9
$ATTDIA
 70
     0
  9
$ATTREQ
 70
     1
  9
$HANDLING
 70
-16383
  9
$HANDSEED
  5
12D9
  9
$SURFTAB1
 70
     6
  9
$SURFTAB2
 70
     6
  9
$SURFTYPE
 70
     6
  9
$SURFU
 70
     6
  9
$SURFV
 70
     6
  9
$UCSNAME
  2

  9
$UCSORG
 10
0.0
 20
0.0
 30
0.0
  9
$UCSXDIR
 10
1.0
 20
0.0
 30
0.0
  9
$UCSYDIR
 10
0.0
 20
1.0
 30
0.0
  9
$PUCSNAME
  2

  9
$PUCSORG
 10
0.0
 20
0.0
 30
0.0
  9
$PUCSXDIR
 10
1.0
 20
0.0
 30
0.0
  9
$PUCSYDIR
 10
0.0
 20
1.0
 30
0.0
  9
$USERI1
 70
     0
  9
$USERI2
 70
     0
  9
$USERI3
 70
     0
  9
$USERI4
 70
     0
  9
$USERI5
 70
     0
  9
$USERR1
 40
0.0
  9
$USERR2
 40
0.0
  9
$USERR3
 40
0.0
  9
$USERR4
 40
0.0
  9
$USERR5
 40
0.0
  9
$WORLDVIEW
 70
     1
  9
$SHADEDGE
 70
     3
  9
$SHADEDIF
 70
    70
  9
$TILEMODE
 70
     1
  9
$MAXACTVP
 70
    16
  9
$PINSBASE
 10
0.0
 20
0.0
 30
0.0
  9
$PLIMCHECK
 70
     0
  9
$PEXTMIN
 10
-0.1933276983398855
 20
-0.0174202791267817
 30
-0.0015258207003583
  9
$PEXTMAX
 10
396.2949895136353
 20
570.3923158424973
 30
0.0000000349246037
  9
$PLIMMIN
 10
-11.94191342824454
 20
-11.76600219398141
  9
$PLIMMAX
 10
408.0435733360149
 20
582.1408996648768
  9
$UNITMODE
 70
     0
  9
$VISRETAIN
 70
     0
  9
$PLINEGEN
 70
     1
  9
$PSLTSCALE
 70
     0
  9
$TREEDEPTH
 70
  3020
  9
$PICKSTYLE
 70
     1
  9
$CMLSTYLE
  2
STANDARD
  9
$CMLJUST
 70
     0
  9
$CMLSCALE
 40
1.0
  9
$SAVEIMAGES
 70
     1
  0
ENDSEC
  0
SECTION
  2
CLASSES
  0
CLASS
  1
LWPOLYLINE
  2
AcDbPolyline
  3
AutoCAD 2000
 90
    32768
280
     0
281
     1
  0
CLASS
  1
IMAGE
  2
AcDbRasterImage
  3
ISM
 90
    32895
280
     0
281
     1
  0
CLASS
  1
OLE2FRAME
  2
AcDbOle2Frame
  3
AutoCAD 2000
 90
    32768
280
     0
281
     1
  0
CLASS
  1
HATCH
  2
AcDbHatch
  3
AutoCAD 2000
 90
    32768
280
     0
281
     1
  0
CLASS
  1
DICTIONARYVAR
  2
AcDbDictionaryVar
  3
AutoCAD 2000
 90
    32768
280
     0
281
     0
  0
CLASS
  1
RASTERVARIABLES
  2
AcDbRasterVariables
  3
ISM
 90
    32768
280
     0
281
     0
  0
CLASS
  1
IMAGEDEF
  2
AcDbRasterImageDef
  3
ISM
 90
    32768
280
     0
281
     0
  0
CLASS
  1
IMAGEDEF_REACTOR
  2
AcDbRasterImageDefReactor
  3
ISM
 90
    32769
280
     0
281
     0
  0
CLASS
  1
IDBUFFER
  2
AcDbIdBuffer
  3
AutoCAD 2000
 90
    32768
280
     0
281
     0
  0
CLASS
  1
SPATIAL_FILTER
  2
AcDbSpatialFilter
  3
AutoCAD 2000
 90
    32768
280
     0
281
     0
  0
CLASS
  1
XRECORD
  2
AcDbXrecord
  3
AutoCAD 2000
 90
    32768
280
     0
281
     0
  0
CLASS
  1
SORTENTSTABLE
  2
AcDbSortentsTable
  3
AutoCAD 2000
 90
    32768
280
     0
281
     0
  0
CLASS
  1
LAYER_INDEX
  2
AcDbLayerIndex
  3
AutoCAD 2000
 90
    32768
280
     0
281
     0
  0
CLASS
  1
SPATIAL_INDEX
  2
AcDbSpatialIndex
  3
AutoCAD 2000
 90
    32768
280
     0
281
     0
  0
CLASS
  1
OBJECT_PTR
  2
CAseDLPNTableRecord
  3
ASE-LPNTableRecord
 90
    32769
280
     0
281
     0
  0
CLASS
  1
ACDBDICTIONARYWDFLT
  2
AcDbDictionaryWithDefault
  3
AutoCAD 2000
 90
    32768
280
     0
281
     0
  0
CLASS
  1
ACDBPLACEHOLDER
  2
AcDbPlaceHolder
  3
AutoCAD 2000
 90
    32768
280
     0
281
     0
  0
CLASS
  1
LAYOUT
  2
AcDbLayout
  3
AutoCAD 2000
 90
    32768
280
     0
281
     0
  0
CLASS
  1
LONG_TRANSACTION
  2
AcDbLongTransaction
  3
AutoCAD 2000
 90
    32768
280
     0
281
     0
  0
CLASS
  1
LWPOLYLINE
  2
AcDbPolyline
  3
AutoCAD 2000
 90
    32768
280
     0
281
     1
  0
CLASS
  1
HATCH
  2
AcDbHatch
  3
AutoCAD 2000
 90
    32768
280
     0
281
     1
  0
CLASS
  1
XRECORD
  2
AcDbXrecord
  3
AutoCAD 2000
 90
    32768
280
     0
281
     0
  0
CLASS
  1
LONG_TRANSACTION
  2
AcDbLongTransaction
  3
AutoCAD 2000
 90
    32768
280
     0
281
     0
  0
CLASS
  1
LWPOLYLINE
  2
AcDbPolyline
  3
AutoCAD 2000
 90
    32768
280
     0
281
     1
  0
CLASS
  1
HATCH
  2
AcDbHatch
  3
AutoCAD 2000
 90
    32768
280
     0
281
     1
  0
CLASS
  1
XRECORD
  2
AcDbXrecord
  3
AutoCAD 2000
 90
    32768
280
     0
281
     0
  0
ENDSEC
  0
SECTION
  2
TABLES
  0
TABLE
  2
VPORT
  5
7
330
0
100
AcDbSymbolTable
 70
     2
  0
VPORT
  5
12B8
330
7
100
AcDbSymbolTableRecord
100
AcDbViewportTableRecord
  2
*ACTIVE
 70
     0
 10
0.0
 20
0.0
 11
1.0
 21
1.0
 12
229.3281105613343
 22
297.0000121021642
 13
0.0
 23
0.0
 14
1.0
 24
1.0
 15
0.0
 25
0.0
 16
0.0
 26
0.0
 36
1.0
 17
0.0
 27
0.0
 37
0.0
 40
601.2959909611159
 41
1.780442804428044
 42
50.0
 43
0.0
 44
0.0
 50
0.0
 51
0.0
 71
     0
 72
   100
 73
     1
 74
     1
 75
     0
 76
     0
 77
     0
 78
     0
  0
ENDTAB
  0
TABLE
  2
LTYPE
  5
4
330
0
100
AcDbSymbolTable
 70
     4
  0
LTYPE
  5
11
330
4
100
AcDbSymbolTableRecord
100
AcDbLinetypeTableRecord
  2
BYBLOCK
 70
     0
  3

 72
    65
 73
     0
 40
0.0
  0
LTYPE
  5
12
330
4
100
AcDbSymbolTableRecord
100
AcDbLinetypeTableRecord
  2
BYLAYER
 70
     0
  3

 72
    65
 73
     0
 40
0.0
  0
LTYPE
  5
13
330
4
100
AcDbSymbolTableRecord
100
AcDbLinetypeTableRecord
  2
CONTINUOUS
 70
     0
  3
Solid line
 72
    65
 73
     0
 40
0.0
  0
LTYPE
  5
5B5
330
4
100
AcDbSymbolTableRecord
100
AcDbLinetypeTableRecord
  2
CENTER2
 70
     0
  3
Center (.5x) ___ _ ___ _ ___ _ ___ _ ___ _ ___
 72
    65
 73
     4
 40
28.57499999999999
 49
19.05
 74
     0
 49
-3.174999999999998
 74
     0
 49
3.174999999999998
 74
     0
 49
-3.174999999999998
 74
     0
  0
LTYPE
  5
5B6
330
4
100
AcDbSymbolTableRecord
100
AcDbLinetypeTableRecord
  2
DASHED2
 70
     0
  3
Dashed (.5x) _ _ _ _ _ _ _ _ _ _ _ _ _ _ _ _ _
 72
    65
 73
     2
 40
9.524999999999996
 49
6.349999999999998
 74
     0
 49
-3.174999999999998
 74
     0
  0
LTYPE
  5
5B7
330
4
100
AcDbSymbolTableRecord
100
AcDbLinetypeTableRecord
  2
PHANTOM2
 70
     0
  3
Phantom (.5x) ___ _ _ ___ _ _ ___ _ _ ___ _ _
 72
    65
 73
     6
 40
31.75
 49
15.875
 74
     0
 49
-3.174999999999998
 74
     0
 49
3.174999999999998
 74
     0
 49
-3.174999999999998
 74
     0
 49
3.174999999999998
 74
     0
 49
-3.174999999999998
 74
     0
  0
ENDTAB
  0
TABLE
  2
LAYER
  5
2
102
{ACAD_XDICTIONARY
360
1263
102
}
330
0
100
AcDbSymbolTable
 70
    12
  0
LAYER
  5
14
330
2
100
AcDbSymbolTableRecord
100
AcDbLayerTableRecord
  2
0
 70
     0
 62
     7
  6
CONTINUOUS
  0
LAYER
  5
569
330
2
100
AcDbSymbolTableRecord
100
AcDbLayerTableRecord
  2
DEFPOINTS
 70
     0
 62
     7
  6
CONTINUOUS
  0
LAYER
  5
56A
330
2
100
AcDbSymbolTableRecord
100
AcDbLayerTableRecord
  2
03
 70
     0
 62
     3
  6
CONTINUOUS
  0
LAYER
  5
56C
330
2
100
AcDbSymbolTableRecord
100
AcDbLayerTableRecord
  2
06
 70
     0
 62
     6
  6
CONTINUOUS
  0
LAYER
  5
56D
330
2
100
AcDbSymbolTableRecord
100
AcDbLayerTableRecord
  2
CHUSIN
 70
     0
 62
     6
  6
CENTER2
  0
LAYER
  5
56E
330
2
100
AcDbSymbolTableRecord
100
AcDbLayerTableRecord
  2
HIKIDASI
 70
     0
 62
     6
  6
CONTINUOUS
  0
LAYER
  5
56F
330
2
100
AcDbSymbolTableRecord
100
AcDbLayerTableRecord
  2
KAKURE
 70
     0
 62
     6
  6
DASHED2
  0
LAYER
  5
570
330
2
100
AcDbSymbolTableRecord
100
AcDbLayerTableRecord
  2
MOJI
 70
     0
 62
     3
  6
CONTINUOUS
  0
LAYER
  5
571
330
2
100
AcDbSymbolTableRecord
100
AcDbLayerTableRecord
  2
SOUZOU
 70
     0
 62
     6
  6
PHANTOM2
  0
LAYER
  5
572
330
2
100
AcDbSymbolTableRecord
100
AcDbLayerTableRecord
  2
SUNPOU
 70
     0
 62
     6
  6
CONTINUOUS
  0
LAYER
  5
D03
330
2
100
AcDbSymbolTableRecord
100
AcDbLayerTableRecord
  2
SAISEN
 70
     0
 62
     3
  6
CONTINUOUS
  0
LAYER
  5
11AE
330
2
100
AcDbSymbolTableRecord
100
AcDbLayerTableRecord
  2
04
 70
     0
 62
     4
  6
CONTINUOUS
  0
ENDTAB
  0
TABLE
  2
STYLE
  5
3
330
0
100
AcDbSymbolTable
 70
     4
  0
STYLE
  5
17
330
3
100
AcDbSymbolTableRecord
100
AcDbTextStyleTableRecord
  2
STANDARD
 70
     0
 40
0.0
 41
0.9
 50
0.0
 71
     0
 42
7.0
  3
txt.shx
  4
bigfont.shx
  0
STYLE
  5
57D
330
3
100
AcDbSymbolTableRecord
100
AcDbTextStyleTableRecord
  2
SUNPOU
 70
     0
 40
0.0
 41
0.8
 50
0.0
 71
     0
 42
3.5
  3
txt.shx
  4
extfont.shx
  0
STYLE
  5
584
330
3
100
AcDbSymbolTableRecord
100
AcDbTextStyleTableRecord
  2
0_8
 70
     0
 40
0.0
 41
0.8
 50
0.0
 71
     0
 42
6.0
  3
txt.shx
  4
extfont.shx
  0
STYLE
  5
1261
330
3
100
AcDbSymbolTableRecord
100
AcDbTextStyleTableRecord
  2
0_80
 70
     0
 40
0.0
 41
0.8
 50
0.0
 71
     0
 42
7.0
  3
txt.shx
  4
extfont.shx
  0
ENDTAB
  0
TABLE
  2
VIEW
  5
5
330
0
100
AcDbSymbolTable
 70
     2
  0
VIEW
  5
136
330
5
100
AcDbSymbolTableRecord
100
AcDbViewTableRecord
  2
QQQQ
 70
     0
 40
618.7999999999998
 10
-6.0
 20
-1.0
 41
419.8999999999999
 11
0.0
 21
0.0
 31
1.0
 12
100.0
 22
100.0
 32
0.0
 42
50.0
 43
0.0
 44
0.0
 50
0.0
 71
     0
  0
VIEW
  5
125A
330
5
100
AcDbSymbolTableRecord
100
AcDbViewTableRecord
  2
OLE1
 70
     0
 40
601.2024983812949
 10
216.8964362446601
 20
297.0000107191081
 41
1031.748257889977
 11
0.0
 21
0.0
 31
1.0
 12
0.0
 22
0.0
 32
0.0
 42
50.0
 43
0.0
 44
0.0
 50
0.0
 71
     0
  0
ENDTAB
  0
TABLE
  2
UCS
  5
6
330
0
100
AcDbSymbolTable
 70
     0
  0
ENDTAB
  0
TABLE
  2
APPID
  5
8
330
0
100
AcDbSymbolTable
 70
     3
  0
APPID
  5
16
330
8
100
AcDbSymbolTableRecord
100
AcDbRegAppTableRecord
  2
ACAD
 70
     0
  0
APPID
  5
AB0
330
8
100
AcDbSymbolTableRecord
100
AcDbRegAppTableRecord
  2
DCO15
 70
     0
  0
APPID
  5
1219
330
8
100
AcDbSymbolTableRecord
100
AcDbRegAppTableRecord
  2
CONTENTBLOCKICON
 70
     0
  0
ENDTAB
  0
TABLE
  2
DIMSTYLE
  5
9
330
0
100
AcDbSymbolTable
 70
     2
  0
DIMSTYLE
105
57E
102
{ACAD_REACTORS
330
5B8
330
5DE
330
5CF
330
5ED
330
5FA
330
609
330
616
330
661
330
66E
330
67B
330
688
330
695
330
6A2
330
6B1
330
6BE
330
6CB
330
6D8
330
6E5
330
6F2
330
6FF
330
7D7
330
7DA
330
7DE
330
7E0
330
8A9
330
8B4
330
8B6
102
}
330
9
100
AcDbSymbolTableRecord
100
AcDbDimStyleTableRecord
  2
SUNPOU_2
 70
     0
  3

  4

  5
OPEN30
  6

  7

 40
2.0
 41
2.5
 42
1.5
 43
0.0
 44
1.0
 45
0.0
 46
0.0
 47
0.0
 48
0.0
140
2.5
141
0.0
142
0.0
143
25.4
144
1.0
145
0.0
146
1.0
147
1.0
 71
     0
 72
     0
 73
     0
 74
     0
 75
     0
 76
     0
 77
     1
 78
     8
170
     0
171
     2
172
     1
173
     0
174
     0
175
     0
176
   256
177
   256
178
   256
270
     2
271
     1
272
     1
273
     2
274
     2
340
57D
275
     0
280
     0
281
     0
282
     0
283
     1
284
     0
285
     0
286
     0
287
     3
288
     0
  0
DIMSTYLE
105
89B
102
{ACAD_REACTORS
330
8B8
330
8DC
330
8EB
330
907
330
8F8
330
914
330
A58
102
}
330
9
100
AcDbSymbolTableRecord
100
AcDbDimStyleTableRecord
  2
SUNPOU_2_20
 70
     0
  3

  4

  5
OPEN30
  6

  7

 40
2.0
 41
2.5
 42
1.5
 43
0.0
 44
1.0
 45
0.0
 46
0.0
 47
0.0
 48
0.0
140
2.5
141
0.0
142
0.0
143
25.4
144
20.0
145
0.0
146
1.0
147
1.0
 71
     0
 72
     0
 73
     0
 74
     0
 75
     0
 76
     0
 77
     1
 78
     8
170
     0
171
     2
172
     1
173
     0
174
     0
175
     0
176
   256
177
   256
178
   256
270
     2
271
     1
272
     1
273
     2
274
     2
340
57D
275
     0
280
     0
281
     0
282
     0
283
     1
284
     0
285
     0
286
     0
287
     3
288
     0
  0
ENDTAB
  0
TABLE
  2
BLOCK_RECORD
  5
1
330
0
100
AcDbSymbolTable
 70
    29
  0
BLOCK_RECORD
  5
A
102
{ACAD_XDICTIONARY
360
1215
102
}
330
1
100
AcDbSymbolTableRecord
100
AcDbBlockTableRecord
  2
*MODEL_SPACE
  0
BLOCK_RECORD
  5
B
102
{ACAD_XDICTIONARY
360
1217
102
}
330
1
100
AcDbSymbolTableRecord
100
AcDbBlockTableRecord
  2
*PAPER_SPACE
  0
BLOCK_RECORD
  5
577
330
1
100
AcDbSymbolTableRecord
100
AcDbBlockTableRecord
  2
_OPEN30
1001
CONTENTBLOCKICON
1071
        0
1004
2800000020000000200000000100080000000000000400000000000000000000000000000000000000000000000080000080000000808000800000008000800080800000C0C0C000C0DCC000F0CAA6000020400000206000002080000020A0000020C0000020E00000400000004020000040400000406000004080000040A0
1004
000040C0000040E00000600000006020000060400000606000006080000060A0000060C0000060E00000800000008020000080400000806000008080000080A0000080C0000080E00000A0000000A0200000A0400000A0600000A0800000A0A00000A0C00000A0E00000C0000000C0200000C0400000C0600000C0800000C0
1004
A00000C0C00000C0E00000E0000000E0200000E0400000E0600000E0800000E0A00000E0C00000E0E00040000000400020004000400040006000400080004000A0004000C0004000E00040200000402020004020400040206000402080004020A0004020C0004020E000404000004040200040404000404060004040800040
1004
40A0004040C0004040E00040600000406020004060400040606000406080004060A0004060C0004060E00040800000408020004080400040806000408080004080A0004080C0004080E00040A0000040A0200040A0400040A0600040A0800040A0A00040A0C00040A0E00040C0000040C0200040C0400040C0600040C08000
1004
40C0A00040C0C00040C0E00040E0000040E0200040E0400040E0600040E0800040E0A00040E0C00040E0E00080000000800020008000400080006000800080008000A0008000C0008000E00080200000802020008020400080206000802080008020A0008020C0008020E00080400000804020008040400080406000804080
1004
008040A0008040C0008040E00080600000806020008060400080606000806080008060A0008060C0008060E00080800000808020008080400080806000808080008080A0008080C0008080E00080A0000080A0200080A0400080A0600080A0800080A0A00080A0C00080A0E00080C0000080C0200080C0400080C0600080C0
1004
800080C0A00080C0C00080C0E00080E0000080E0200080E0400080E0600080E0800080E0A00080E0C00080E0E000C0000000C0002000C0004000C0006000C0008000C000A000C000C000C000E000C0200000C0202000C0204000C0206000C0208000C020A000C020C000C020E000C0400000C0402000C0404000C0406000C0
1004
408000C040A000C040C000C040E000C0600000C0602000C0604000C0606000C0608000C060A000C060C000C060E000C0800000C0802000C0804000C0806000C0808000C080A000C080C000C080E000C0A00000C0A02000C0A04000C0A06000C0A08000C0A0A000C0A0C000C0A0E000C0C00000C0C02000C0C04000C0C06000
1004
C0C08000C0C0A000F0FBFF00A4A0A000808080000000FF0000FF000000FFFF00FF000000FF00FF00FFFF0000FFFFFF0000000000000000000000000000000000000000000000000000000000000000000000000000000000000000000000000000000000000000000000000000000000000000000000000000000000000000
1004
00000000000000000000000000000000000000000000000000000000000000000000000000000000000000000000000000000000000000000000000000000000000000000000000000000000000000000000000000000000000000000000000000000000000000000000000000000000000000000000000000000000000000
1004
000000000000000000000000000000000000000000000000000000000000000000000000000000000000000000000000000000FFFF0000000000000000000000000000000000000000000000000000000000000000FFFFFFFF0000000000000000000000000000000000000000000000000000000000000000FFFFFFFF0000
1004
000000000000000000000000000000000000000000000000000000000000FFFFFF0000000000000000000000000000000000000000000000000000000000000000FFFFFFFF0000000000000000000000000000000000000000000000000000000000000000FFFFFF0000000000000000000000000000000000000000000000
1004
000000000000000000FFFFFFFF0000000000000000000000000000000000000000000000000000000000000000FFFFFFFF00000000FFFFFFFFFFFFFFFFFFFFFFFFFFFFFFFFFFFFFFFFFFFFFFFFFFFFFFFFFFFF00000000000000000000000000000000000000000000000000FFFFFFFF000000000000000000000000000000
1004
000000000000000000FFFFFFFF000000000000000000000000000000000000000000000000FFFFFFFF000000000000000000000000000000000000000000000000FFFFFFFF000000000000000000000000000000000000000000000000FFFFFFFF000000000000000000000000000000000000000000000000FFFFFFFF0000
1004
0000000000000000000000000000000000000000000000FFFFFF0000000000000000000000000000000000000000000000000000000000000000000000000000000000000000000000000000000000000000000000000000000000000000000000000000000000000000000000000000000000000000000000000000000000
1004
00000000000000000000000000000000000000000000000000000000000000000000000000000000000000000000000000000000000000000000000000000000000000000000000000000000000000000000000000000000000000000000000000000000000000000000000000000000000000000000000000000000000000
1004
0000000000000000000000000000000000000000000000000000000000000000000000000000000000000000000000000000000000000000
  0
BLOCK_RECORD
  5
5B9
330
1
100
AcDbSymbolTableRecord
100
AcDbBlockTableRecord
  2
*D1
  0
BLOCK_RECORD
  5
5D0
330
1
100
AcDbSymbolTableRecord
100
AcDbBlockTableRecord
  2
*D2
  0
BLOCK_RECORD
  5
5DF
330
1
100
AcDbSymbolTableRecord
100
AcDbBlockTableRecord
  2
*D3
  0
BLOCK_RECORD
  5
5EE
330
1
100
AcDbSymbolTableRecord
100
AcDbBlockTableRecord
  2
*D4
  0
BLOCK_RECORD
  5
5FB
330
1
100
AcDbSymbolTableRecord
100
AcDbBlockTableRecord
  2
*D5
  0
BLOCK_RECORD
  5
60A
330
1
100
AcDbSymbolTableRecord
100
AcDbBlockTableRecord
  2
*D6
  0
BLOCK_RECORD
  5
617
330
1
100
AcDbSymbolTableRecord
100
AcDbBlockTableRecord
  2
*D7
  0
BLOCK_RECORD
  5
662
330
1
100
AcDbSymbolTableRecord
100
AcDbBlockTableRecord
  2
*D8
  0
BLOCK_RECORD
  5
66F
330
1
100
AcDbSymbolTableRecord
100
AcDbBlockTableRecord
  2
*D9
  0
BLOCK_RECORD
  5
67C
330
1
100
AcDbSymbolTableRecord
100
AcDbBlockTableRecord
  2
*D10
  0
BLOCK_RECORD
  5
689
330
1
100
AcDbSymbolTableRecord
100
AcDbBlockTableRecord
  2
*D11
  0
BLOCK_RECORD
  5
696
330
1
100
AcDbSymbolTableRecord
100
AcDbBlockTableRecord
  2
*D12
  0
BLOCK_RECORD
  5
6A3
330
1
100
AcDbSymbolTableRecord
100
AcDbBlockTableRecord
  2
*D13
  0
BLOCK_RECORD
  5
6B2
330
1
100
AcDbSymbolTableRecord
100
AcDbBlockTableRecord
  2
*D14
  0
BLOCK_RECORD
  5
6BF
330
1
100
AcDbSymbolTableRecord
100
AcDbBlockTableRecord
  2
*D15
  0
BLOCK_RECORD
  5
6CC
330
1
100
AcDbSymbolTableRecord
100
AcDbBlockTableRecord
  2
*D16
  0
BLOCK_RECORD
  5
6D9
330
1
100
AcDbSymbolTableRecord
100
AcDbBlockTableRecord
  2
*D17
  0
BLOCK_RECORD
  5
6E6
330
1
100
AcDbSymbolTableRecord
100
AcDbBlockTableRecord
  2
*D18
  0
BLOCK_RECORD
  5
6F3
330
1
100
AcDbSymbolTableRecord
100
AcDbBlockTableRecord
  2
*D19
  0
BLOCK_RECORD
  5
700
330
1
100
AcDbSymbolTableRecord
100
AcDbBlockTableRecord
  2
*D20
  0
BLOCK_RECORD
  5
771
330
1
100
AcDbSymbolTableRecord
100
AcDbBlockTableRecord
  2
_DOTSMALL
1001
CONTENTBLOCKICON
1071
        0
1004
2800000020000000200000000100080000000000000400000000000000000000000000000000000000000000000080000080000000808000800000008000800080800000C0C0C000C0DCC000F0CAA6000020400000206000002080000020A0000020C0000020E00000400000004020000040400000406000004080000040A0
1004
000040C0000040E00000600000006020000060400000606000006080000060A0000060C0000060E00000800000008020000080400000806000008080000080A0000080C0000080E00000A0000000A0200000A0400000A0600000A0800000A0A00000A0C00000A0E00000C0000000C0200000C0400000C0600000C0800000C0
1004
A00000C0C00000C0E00000E0000000E0200000E0400000E0600000E0800000E0A00000E0C00000E0E00040000000400020004000400040006000400080004000A0004000C0004000E00040200000402020004020400040206000402080004020A0004020C0004020E000404000004040200040404000404060004040800040
1004
40A0004040C0004040E00040600000406020004060400040606000406080004060A0004060C0004060E00040800000408020004080400040806000408080004080A0004080C0004080E00040A0000040A0200040A0400040A0600040A0800040A0A00040A0C00040A0E00040C0000040C0200040C0400040C0600040C08000
1004
40C0A00040C0C00040C0E00040E0000040E0200040E0400040E0600040E0800040E0A00040E0C00040E0E00080000000800020008000400080006000800080008000A0008000C0008000E00080200000802020008020400080206000802080008020A0008020C0008020E00080400000804020008040400080406000804080
1004
008040A0008040C0008040E00080600000806020008060400080606000806080008060A0008060C0008060E00080800000808020008080400080806000808080008080A0008080C0008080E00080A0000080A0200080A0400080A0600080A0800080A0A00080A0C00080A0E00080C0000080C0200080C0400080C0600080C0
1004
800080C0A00080C0C00080C0E00080E0000080E0200080E0400080E0600080E0800080E0A00080E0C00080E0E000C0000000C0002000C0004000C0006000C0008000C000A000C000C000C000E000C0200000C0202000C0204000C0206000C0208000C020A000C020C000C020E000C0400000C0402000C0404000C0406000C0
1004
408000C040A000C040C000C040E000C0600000C0602000C0604000C0606000C0608000C060A000C060C000C060E000C0800000C0802000C0804000C0806000C0808000C080A000C080C000C080E000C0A00000C0A02000C0A04000C0A06000C0A08000C0A0A000C0A0C000C0A0E000C0C00000C0C02000C0C04000C0C06000
1004
C0C08000C0C0A000F0FBFF00A4A0A000808080000000FF0000FF000000FFFF00FF000000FF00FF00FFFF0000FFFFFF00000000FFFF000000FF0000000000000000000000000000FF000000FFFF00000000000000FFFF0000FF0000000000000000000000000000FF0000FFFF00000000000000000000FFFFFF000000000000
1004
0000000000000000FFFFFF0000000000000000000000000000FFFF000000000000000000000000FFFF00000000000000000000000000000000FF00FFFF0000000000000000FFFF00FF00000000000000000000000000000000FF0000FFFF000000000000FFFF0000FF00000000000000000000000000000000FF00000000FF
1004
FF0000FFFF00000000FF00000000000000000000000000000000FF000000000000FFFF000000000000FF00000000000000000000000000000000FF00000000FFFFFFFFFFFF00000000FF00000000000000000000000000000000FF000000FFFF00000000FFFF000000FF00000000000000000000000000000000FF00FFFF00
1004
00000000000000FFFF00FF00000000000000000000000000000000FFFFFF00000000000000000000FFFFFF000000000000000000000000000000FFFF0000000000000000000000000000FFFF000000000000000000000000FFFF00FF0000000000000000000000000000FF00FFFF0000000000000000FFFF000000FF000000
1004
0000000000000000000000FF000000FFFF000000FFFFFFFF00000000FF0000000000000000000000000000FF00000000FFFFFFFFFFFFFFFF00000000FF0000000000000000000000000000FF00000000FFFFFFFF000000FFFF000000FF0000000000000000000000000000FF000000FFFF0000000000000000FFFF00FF0000
1004
000000000000000000000000FF00FFFF000000000000000000000000FFFF0000000000000000000000000000FFFF000000000000000000000000000000FFFFFF00000000000000000000FFFFFF00000000000000000000000000000000FF00FFFF0000000000000000FFFF00FF00000000000000000000000000000000FF00
1004
0000FFFF00000000FFFF000000FF00000000000000000000000000000000FF00000000FFFFFFFFFFFF00000000FF00000000000000000000000000000000FF000000000000FFFF000000000000FF00000000000000000000000000000000FF00000000FFFF0000FFFF00000000FF00000000000000000000000000000000FF
1004
0000FFFF000000000000FFFF0000FF00000000000000000000000000000000FF00FFFF0000000000000000FFFF00FF00000000000000000000000000000000FFFF000000000000000000000000FFFF0000000000000000000000000000FFFFFF0000000000000000000000000000FFFFFF00000000000000000000FFFF0000
1004
FF0000000000000000000000000000FF0000FFFF00000000000000FFFF000000FF0000000000000000000000000000FF000000FFFF000000
  0
BLOCK_RECORD
  5
8B9
330
1
100
AcDbSymbolTableRecord
100
AcDbBlockTableRecord
  2
*D22
  0
BLOCK_RECORD
  5
8DD
330
1
100
AcDbSymbolTableRecord
100
AcDbBlockTableRecord
  2
*D23
  0
BLOCK_RECORD
  5
8EC
330
1
100
AcDbSymbolTableRecord
100
AcDbBlockTableRecord
  2
*D24
  0
BLOCK_RECORD
  5
8F9
330
1
100
AcDbSymbolTableRecord
100
AcDbBlockTableRecord
  2
*D25
  0
BLOCK_RECORD
  5
908
330
1
100
AcDbSymbolTableRecord
100
AcDbBlockTableRecord
  2
*D26
  0
BLOCK_RECORD
  5
915
330
1
100
AcDbSymbolTableRecord
100
AcDbBlockTableRecord
  2
*D27
  0
BLOCK_RECORD
  5
A59
330
1
100
AcDbSymbolTableRecord
100
AcDbBlockTableRecord
  2
*D28
  0
ENDTAB
  0
ENDSEC
  0
SECTION
  2
BLOCKS
  0
BLOCK
  5
D
330
A
100
AcDbEntity
  8
0
100
AcDbBlockBegin
  2
*MODEL_SPACE
 70
     0
 10
0.0
 20
0.0
 30
0.0
  3
*MODEL_SPACE
  1

  0
ENDBLK
  5
E
330
A
100
AcDbEntity
  8
0
100
AcDbBlockEnd
  0
BLOCK
  5
F
330
B
100
AcDbEntity
 67
     1
  8
0
100
AcDbBlockBegin
  2
*PAPER_SPACE
 70
     0
 10
0.0
 20
0.0
 30
0.0
  3
*PAPER_SPACE
  1

  0
ENDBLK
  5
10
330
B
100
AcDbEntity
 67
     1
  8
0
100
AcDbBlockEnd
  0
BLOCK
  5
57B
330
577
100
AcDbEntity
  8
0
100
AcDbBlockBegin
  2
_OPEN30
 70
     0
 10
0.0
 20
0.0
 30
0.0
  3
_OPEN30
  1

  0
LINE
  5
578
330
577
100
AcDbEntity
  8
0
  6
BYBLOCK
 62
     0
100
AcDbLine
 10
-1.0
 20
0.26794919
 30
0.0
 11
0.0
 21
0.0
 31
0.0
  0
LINE
  5
579
330
577
100
AcDbEntity
  8
0
  6
BYBLOCK
 62
     0
100
AcDbLine
 10
0.0
 20
0.0
 30
0.0
 11
-1.0
 21
-0.26794919
 31
0.0
  0
LINE
  5
57A
330
577
100
AcDbEntity
  8
0
  6
BYBLOCK
 62
     0
100
AcDbLine
 10
0.0
 20
0.0
 30
0.0
 11
-1.0
 21
0.0
 31
0.0
  0
ENDBLK
  5
57C
330
577
100
AcDbEntity
  8
0
100
AcDbBlockEnd
  0
BLOCK
  5
5C3
330
5B9
100
AcDbEntity
  8
0
100
AcDbBlockBegin
  2
*D1
 70
     1
 10
0.0
 20
0.0
 30
0.0
  3
*D1
  1

  0
LINE
  5
AC3
330
5B9
100
AcDbEntity
  8
SUNPOU
100
AcDbLine
 10
216.0467409948539
 20
532.9421590680181
 30
0.0
 11
216.0467409948539
 21
547.6921590680182
 31
0.0
  0
LINE
  5
AC4
330
5B9
100
AcDbEntity
  8
SUNPOU
100
AcDbLine
 10
336.046740994854
 20
532.9421590680181
 30
0.0
 11
336.046740994854
 21
547.6921590680182
 31
0.0
  0
LINE
  5
AC5
330
5B9
100
AcDbEntity
  8
SUNPOU
100
AcDbLine
 10
221.0467409948539
 20
545.6921590680182
 30
0.0
 11
331.046740994854
 21
545.6921590680182
 31
0.0
  0
MTEXT
  5
AC6
330
5B9
100
AcDbEntity
  8
SUNPOU
100
AcDbMText
 10
276.046740994854
 20
541.1317675371021
 30
0.0
 40
5.0
 41
0.0
 71
     5
 72
     1
  1
\A1;120
  7
SUNPOU
 11
-1.0
 21
0.0000000000000001
 31
0.0
1001
ACAD
1000
MTEXTBEGIN
1070
    73
1070
     1
1070
    44
1040
1.0
1070
    74
1070
     0
1000
MTEXTEND
1000
MTEXTBEGIN
1070
    73
1070
     1
1070
    44
1040
1.0
1070
    74
1070
     0
1000
MTEXTEND
  0
INSERT
  5
AC7
330
5B9
100
AcDbEntity
  8
SUNPOU
100
AcDbBlockReference
  2
_OPEN30
 10
216.0467409948539
 20
545.6921590680182
 30
0.0
 41
5.0
 42
5.0
 43
5.0
 50
180.0
  0
INSERT
  5
AC8
330
5B9
100
AcDbEntity
  8
SUNPOU
100
AcDbBlockReference
  2
_OPEN30
 10
336.046740994854
 20
545.6921590680182
 30
0.0
 41
5.0
 42
5.0
 43
5.0
  0
POINT
  5
AC9
330
5B9
100
AcDbEntity
  8
DEFPOINTS
 62
     0
100
AcDbPoint
 10
216.0467409948539
 20
529.942159068018
 30
0.0
  0
POINT
  5
ACA
330
5B9
100
AcDbEntity
  8
DEFPOINTS
 62
     0
100
AcDbPoint
 10
336.046740994854
 20
529.942159068018
 30
0.0
  0
POINT
  5
ACB
330
5B9
100
AcDbEntity
  8
DEFPOINTS
 62
     0
100
AcDbPoint
 10
336.046740994854
 20
545.6921590680182
 30
0.0
  0
ENDBLK
  5
5C4
330
5B9
100
AcDbEntity
  8
0
100
AcDbBlockEnd
  0
BLOCK
  5
5DC
330
5D0
100
AcDbEntity
  8
0
100
AcDbBlockBegin
  2
*D2
 70
     1
 10
0.0
 20
0.0
 30
0.0
  3
*D2
  1

  0
LINE
  5
122E
330
5D0
100
AcDbEntity
  8
SUNPOU
100
AcDbLine
 10
216.046740994854
 20
498.4421590680181
 30
0.0
 11
216.046740994854
 21
460.5830774118395
 31
0.0
  0
LINE
  5
122F
330
5D0
100
AcDbEntity
  8
SUNPOU
100
AcDbLine
 10
219.046740994854
 20
497.6921590680182
 30
0.0
 11
219.046740994854
 21
460.5830774118395
 31
0.0
  0
LINE
  5
1230
330
5D0
100
AcDbEntity
  8
SUNPOU
100
AcDbLine
 10
211.046740994854
 20
462.5830774118393
 30
0.0
 11
206.046740994854
 21
462.5830774118393
 31
0.0
  0
LINE
  5
1231
330
5D0
100
AcDbEntity
  8
SUNPOU
100
AcDbLine
 10
219.046740994854
 20
462.5830774118393
 30
0.0
 11
224.046740994854
 21
462.5830774118393
 31
0.0
  0
MTEXT
  5
1232
330
5D0
100
AcDbEntity
  8
SUNPOU
100
AcDbMText
 10
208.8393469113756
 20
457.9981140759756
 30
0.0
 40
5.0
 41
0.0
 71
     5
 72
     1
  1
\A1;3
  7
SUNPOU
 11
-1.0
 21
0.0000000000000001
 31
0.0
1001
ACAD
1000
MTEXTBEGIN
1070
    73
1070
     1
1070
    44
1040
1.0
1070
    74
1070
     0
1000
MTEXTEND
1000
MTEXTBEGIN
1070
    73
1070
     1
1070
    44
1040
1.0
1070
    74
1070
     0
1000
MTEXTEND
  0
LINE
  5
1233
330
5D0
100
AcDbEntity
  8
SUNPOU
100
AcDbLine
 10
216.046740994854
 20
462.5830774118393
 30
0.0
 11
219.046740994854
 21
462.5830774118393
 31
0.0
  0
INSERT
  5
1234
330
5D0
100
AcDbEntity
  8
SUNPOU
100
AcDbBlockReference
  2
_OPEN30
 10
216.046740994854
 20
462.5830774118393
 30
0.0
 41
5.0
 42
5.0
 43
5.0
  0
INSERT
  5
1235
330
5D0
100
AcDbEntity
  8
SUNPOU
100
AcDbBlockReference
  2
_DOTSMALL
 10
219.046740994854
 20
462.5830774118393
 30
0.0
 41
5.0
 42
5.0
 43
5.0
 50
180.0
  0
POINT
  5
1236
330
5D0
100
AcDbEntity
  8
DEFPOINTS
 62
     0
100
AcDbPoint
 10
216.046740994854
 20
501.442159068018
 30
0.0
  0
POINT
  5
1237
330
5D0
100
AcDbEntity
  8
DEFPOINTS
 62
     0
100
AcDbPoint
 10
219.046740994854
 20
500.6921590680181
 30
0.0
  0
POINT
  5
1238
330
5D0
100
AcDbEntity
  8
DEFPOINTS
 62
     0
100
AcDbPoint
 10
219.046740994854
 20
462.5830774118393
 30
0.0
  0
ENDBLK
  5
5DD
330
5D0
100
AcDbEntity
  8
0
100
AcDbBlockEnd
  0
BLOCK
  5
5EB
330
5DF
100
AcDbEntity
  8
0
100
AcDbBlockBegin
  2
*D3
 70
     1
 10
0.0
 20
0.0
 30
0.0
  3
*D3
  1

  0
LINE
  5
1239
330
5DF
100
AcDbEntity
  8
SUNPOU
100
AcDbLine
 10
219.046740994854
 20
497.6921590680182
 30
0.0
 11
219.046740994854
 21
460.5830774118395
 31
0.0
  0
LINE
  5
123A
330
5DF
100
AcDbEntity
  8
SUNPOU
100
AcDbLine
 10
222.046740994854
 20
447.9421590680181
 30
0.0
 11
222.046740994854
 21
464.5830774118395
 31
0.0
  0
LINE
  5
123B
330
5DF
100
AcDbEntity
  8
SUNPOU
100
AcDbLine
 10
219.046740994854
 20
462.5830774118393
 30
0.0
 11
214.046740994854
 21
462.5830774118393
 31
0.0
  0
LINE
  5
123C
330
5DF
100
AcDbEntity
  8
SUNPOU
100
AcDbLine
 10
227.046740994854
 20
462.5830774118393
 30
0.0
 11
232.046740994854
 21
462.5830774118393
 31
0.0
  0
MTEXT
  5
123D
330
5DF
100
AcDbEntity
  8
SUNPOU
100
AcDbMText
 10
222.2044306426496
 20
467.8318126325793
 30
0.0
 40
5.0
 41
0.0
 71
     5
 72
     1
  1
\A1;3
  7
SUNPOU
 11
-1.0
 21
0.0000000000000001
 31
0.0
1001
ACAD
1000
MTEXTBEGIN
1070
    73
1070
     1
1070
    44
1040
1.0
1070
    74
1070
     0
1000
MTEXTEND
1000
MTEXTBEGIN
1070
    73
1070
     1
1070
    44
1040
1.0
1070
    74
1070
     0
1000
MTEXTEND
  0
LINE
  5
123E
330
5DF
100
AcDbEntity
  8
SUNPOU
100
AcDbLine
 10
219.046740994854
 20
462.5830774118393
 30
0.0
 11
222.046740994854
 21
462.5830774118393
 31
0.0
  0
INSERT
  5
123F
330
5DF
100
AcDbEntity
  8
SUNPOU
100
AcDbBlockReference
  2
_DOTSMALL
 10
219.046740994854
 20
462.5830774118393
 30
0.0
 41
5.0
 42
5.0
 43
5.0
  0
INSERT
  5
1240
330
5DF
100
AcDbEntity
  8
SUNPOU
100
AcDbBlockReference
  2
_OPEN30
 10
222.046740994854
 20
462.5830774118393
 30
0.0
 41
5.0
 42
5.0
 43
5.0
 50
180.0
  0
POINT
  5
1241
330
5DF
100
AcDbEntity
  8
DEFPOINTS
 62
     0
100
AcDbPoint
 10
219.046740994854
 20
500.6921590680181
 30
0.0
  0
POINT
  5
1242
330
5DF
100
AcDbEntity
  8
DEFPOINTS
 62
     0
100
AcDbPoint
 10
222.046740994854
 20
444.9421590680181
 30
0.0
  0
POINT
  5
1243
330
5DF
100
AcDbEntity
  8
DEFPOINTS
 62
     0
100
AcDbPoint
 10
222.046740994854
 20
462.5830774118393
 30
0.0
  0
ENDBLK
  5
5EC
330
5DF
100
AcDbEntity
  8
0
100
AcDbBlockEnd
  0
BLOCK
  5
5F8
330
5EE
100
AcDbEntity
  8
0
100
AcDbBlockBegin
  2
*D4
 70
     1
 10
0.0
 20
0.0
 30
0.0
  3
*D4
  1

  0
LINE
  5
BC8
330
5EE
100
AcDbEntity
  8
SUNPOU
100
AcDbLine
 10
222.046740994854
 20
447.9421590680181
 30
0.0
 11
222.046740994854
 21
464.5830774118395
 31
0.0
  0
LINE
  5
BC9
330
5EE
100
AcDbEntity
  8
SUNPOU
100
AcDbLine
 10
278.046740994854
 20
447.9421590680183
 30
0.0
 11
278.046740994854
 21
464.5830774118395
 31
0.0
  0
LINE
  5
BCA
330
5EE
100
AcDbEntity
  8
SUNPOU
100
AcDbLine
 10
227.046740994854
 20
462.5830774118393
 30
0.0
 11
273.046740994854
 21
462.5830774118393
 31
0.0
  0
MTEXT
  5
BCB
330
5EE
100
AcDbEntity
  8
SUNPOU
100
AcDbMText
 10
259.04147045428
 20
458.0779347304051
 30
0.0
 40
5.0
 41
0.0
 71
     5
 72
     1
  1
\A1;56
  7
SUNPOU
 11
-1.0
 21
0.0000000000000001
 31
0.0
1001
ACAD
1000
MTEXTBEGIN
1070
    73
1070
     1
1070
    44
1040
1.0
1070
    74
1070
     0
1000
MTEXTEND
1000
MTEXTBEGIN
1070
    73
1070
     1
1070
    44
1040
1.0
1070
    74
1070
     0
1000
MTEXTEND
  0
INSERT
  5
BCC
330
5EE
100
AcDbEntity
  8
SUNPOU
100
AcDbBlockReference
  2
_OPEN30
 10
222.046740994854
 20
462.5830774118393
 30
0.0
 41
5.0
 42
5.0
 43
5.0
 50
180.0
  0
INSERT
  5
BCD
330
5EE
100
AcDbEntity
  8
SUNPOU
100
AcDbBlockReference
  2
_OPEN30
 10
278.046740994854
 20
462.5830774118393
 30
0.0
 41
5.0
 42
5.0
 43
5.0
  0
POINT
  5
BCE
330
5EE
100
AcDbEntity
  8
DEFPOINTS
 62
     0
100
AcDbPoint
 10
222.046740994854
 20
444.9421590680181
 30
0.0
  0
POINT
  5
BCF
330
5EE
100
AcDbEntity
  8
DEFPOINTS
 62
     0
100
AcDbPoint
 10
278.046740994854
 20
444.9421590680183
 30
0.0
  0
POINT
  5
BD0
330
5EE
100
AcDbEntity
  8
DEFPOINTS
 62
     0
100
AcDbPoint
 10
278.046740994854
 20
462.5830774118393
 30
0.0
  0
ENDBLK
  5
5F9
330
5EE
100
AcDbEntity
  8
0
100
AcDbBlockEnd
  0
BLOCK
  5
607
330
5FB
100
AcDbEntity
  8
0
100
AcDbBlockBegin
  2
*D5
 70
     1
 10
0.0
 20
0.0
 30
0.0
  3
*D5
  1

  0
LINE
  5
AEB
330
5FB
100
AcDbEntity
  8
SUNPOU
100
AcDbLine
 10
278.046740994854
 20
447.9421590680183
 30
0.0
 11
278.046740994854
 21
464.5830774118395
 31
0.0
  0
LINE
  5
AEC
330
5FB
100
AcDbEntity
  8
SUNPOU
100
AcDbLine
 10
283.0467409948541
 20
423.6921590680183
 30
0.0
 11
283.0467409948541
 21
464.5830774118395
 31
0.0
  0
LINE
  5
AED
330
5FB
100
AcDbEntity
  8
SUNPOU
100
AcDbLine
 10
273.046740994854
 20
462.5830774118393
 30
0.0
 11
268.046740994854
 21
462.5830774118393
 31
0.0
  0
LINE
  5
AEE
330
5FB
100
AcDbEntity
  8
SUNPOU
100
AcDbLine
 10
288.0467409948542
 20
462.5830774118393
 30
0.0
 11
293.0467409948541
 21
462.5830774118393
 31
0.0
  0
MTEXT
  5
AEF
330
5FB
100
AcDbEntity
  8
SUNPOU
100
AcDbMText
 10
280.546740994854
 20
458.0331956097236
 30
0.0
 40
5.0
 41
0.0
 71
     5
 72
     1
  1
\A1;5
  7
SUNPOU
 11
-1.0
 21
0.0000000000000001
 31
0.0
1001
ACAD
1000
MTEXTBEGIN
1070
    73
1070
     1
1070
    44
1040
1.0
1070
    74
1070
     0
1000
MTEXTEND
1000
MTEXTBEGIN
1070
    73
1070
     1
1070
    44
1040
1.0
1070
    74
1070
     0
1000
MTEXTEND
  0
LINE
  5
AF0
330
5FB
100
AcDbEntity
  8
SUNPOU
100
AcDbLine
 10
278.046740994854
 20
462.5830774118393
 30
0.0
 11
283.0467409948541
 21
462.5830774118393
 31
0.0
  0
INSERT
  5
AF1
330
5FB
100
AcDbEntity
  8
SUNPOU
100
AcDbBlockReference
  2
_OPEN30
 10
278.046740994854
 20
462.5830774118393
 30
0.0
 41
5.0
 42
5.0
 43
5.0
  0
INSERT
  5
AF2
330
5FB
100
AcDbEntity
  8
SUNPOU
100
AcDbBlockReference
  2
_OPEN30
 10
283.0467409948541
 20
462.5830774118393
 30
0.0
 41
5.0
 42
5.0
 43
5.0
 50
180.0
  0
POINT
  5
AF3
330
5FB
100
AcDbEntity
  8
DEFPOINTS
 62
     0
100
AcDbPoint
 10
278.046740994854
 20
444.9421590680183
 30
0.0
  0
POINT
  5
AF4
330
5FB
100
AcDbEntity
  8
DEFPOINTS
 62
     0
100
AcDbPoint
 10
283.0467409948541
 20
420.6921590680183
 30
0.0
  0
POINT
  5
AF5
330
5FB
100
AcDbEntity
  8
DEFPOINTS
 62
     0
100
AcDbPoint
 10
283.0467409948541
 20
462.5830774118393
 30
0.0
  0
ENDBLK
  5
608
330
5FB
100
AcDbEntity
  8
0
100
AcDbBlockEnd
  0
BLOCK
  5
614
330
60A
100
AcDbEntity
  8
0
100
AcDbBlockBegin
  2
*D6
 70
     1
 10
0.0
 20
0.0
 30
0.0
  3
*D6
  1

  0
LINE
  5
BDA
330
60A
100
AcDbEntity
  8
SUNPOU
100
AcDbLine
 10
283.0467409948541
 20
423.6921590680183
 30
0.0
 11
283.0467409948541
 21
464.5830774118395
 31
0.0
  0
LINE
  5
BDB
330
60A
100
AcDbEntity
  8
SUNPOU
100
AcDbLine
 10
315.0467409948542
 20
423.6921590680183
 30
0.0
 11
315.0467409948542
 21
464.5830774118395
 31
0.0
  0
LINE
  5
BDC
330
60A
100
AcDbEntity
  8
SUNPOU
100
AcDbLine
 10
288.0467409948542
 20
462.5830774118393
 30
0.0
 11
310.0467409948541
 21
462.5830774118393
 31
0.0
  0
MTEXT
  5
BDD
330
60A
100
AcDbEntity
  8
SUNPOU
100
AcDbMText
 10
303.2636190038683
 20
458.0331956097236
 30
0.0
 40
5.0
 41
0.0
 71
     5
 72
     1
  1
\A1;32
  7
SUNPOU
 11
-1.0
 21
0.0000000000000001
 31
0.0
1001
ACAD
1000
MTEXTBEGIN
1070
    73
1070
     1
1070
    44
1040
1.0
1070
    74
1070
     0
1000
MTEXTEND
1000
MTEXTBEGIN
1070
    73
1070
     1
1070
    44
1040
1.0
1070
    74
1070
     0
1000
MTEXTEND
  0
INSERT
  5
BDE
330
60A
100
AcDbEntity
  8
SUNPOU
100
AcDbBlockReference
  2
_OPEN30
 10
283.0467409948541
 20
462.5830774118393
 30
0.0
 41
5.0
 42
5.0
 43
5.0
 50
180.0
  0
INSERT
  5
BDF
330
60A
100
AcDbEntity
  8
SUNPOU
100
AcDbBlockReference
  2
_OPEN30
 10
315.0467409948542
 20
462.5830774118393
 30
0.0
 41
5.0
 42
5.0
 43
5.0
  0
POINT
  5
BE0
330
60A
100
AcDbEntity
  8
DEFPOINTS
 62
     0
100
AcDbPoint
 10
283.0467409948541
 20
420.6921590680183
 30
0.0
  0
POINT
  5
BE1
330
60A
100
AcDbEntity
  8
DEFPOINTS
 62
     0
100
AcDbPoint
 10
315.0467409948542
 20
420.6921590680183
 30
0.0
  0
POINT
  5
BE2
330
60A
100
AcDbEntity
  8
DEFPOINTS
 62
     0
100
AcDbPoint
 10
315.0467409948542
 20
462.5830774118393
 30
0.0
  0
ENDBLK
  5
615
330
60A
100
AcDbEntity
  8
0
100
AcDbBlockEnd
  0
BLOCK
  5
621
330
617
100
AcDbEntity
  8
0
100
AcDbBlockBegin
  2
*D7
 70
     1
 10
0.0
 20
0.0
 30
0.0
  3
*D7
  1

  0
LINE
  5
AFF
330
617
100
AcDbEntity
  8
SUNPOU
100
AcDbLine
 10
315.0467409948542
 20
423.6921590680183
 30
0.0
 11
315.0467409948542
 21
464.5830774118395
 31
0.0
  0
LINE
  5
B00
330
617
100
AcDbEntity
  8
SUNPOU
100
AcDbLine
 10
336.046740994854
 20
498.4421590680184
 30
0.0
 11
336.046740994854
 21
460.5830774118395
 31
0.0
  0
LINE
  5
B01
330
617
100
AcDbEntity
  8
SUNPOU
100
AcDbLine
 10
320.0467409948541
 20
462.5830774118393
 30
0.0
 11
331.046740994854
 21
462.5830774118393
 31
0.0
  0
MTEXT
  5
B02
330
617
100
AcDbEntity
  8
SUNPOU
100
AcDbMText
 10
325.5467409948542
 20
458.0337308361511
 30
0.0
 40
5.0
 41
0.0
 71
     5
 72
     1
  1
\A1;21
  7
SUNPOU
 11
-1.0
 21
0.0000000000000001
 31
0.0
1001
ACAD
1000
MTEXTBEGIN
1070
    73
1070
     1
1070
    44
1040
1.0
1070
    74
1070
     0
1000
MTEXTEND
1000
MTEXTBEGIN
1070
    73
1070
     1
1070
    44
1040
1.0
1070
    74
1070
     0
1000
MTEXTEND
  0
INSERT
  5
B03
330
617
100
AcDbEntity
  8
SUNPOU
100
AcDbBlockReference
  2
_OPEN30
 10
315.0467409948542
 20
462.5830774118393
 30
0.0
 41
5.0
 42
5.0
 43
5.0
 50
180.0
  0
INSERT
  5
B04
330
617
100
AcDbEntity
  8
SUNPOU
100
AcDbBlockReference
  2
_OPEN30
 10
336.046740994854
 20
462.5830774118393
 30
0.0
 41
5.0
 42
5.0
 43
5.0
  0
POINT
  5
B05
330
617
100
AcDbEntity
  8
DEFPOINTS
 62
     0
100
AcDbPoint
 10
315.0467409948542
 20
420.6921590680183
 30
0.0
  0
POINT
  5
B06
330
617
100
AcDbEntity
  8
DEFPOINTS
 62
     0
100
AcDbPoint
 10
336.046740994854
 20
501.4421590680185
 30
0.0
  0
POINT
  5
B07
330
617
100
AcDbEntity
  8
DEFPOINTS
 62
     0
100
AcDbPoint
 10
336.046740994854
 20
462.5830774118393
 30
0.0
  0
ENDBLK
  5
622
330
617
100
AcDbEntity
  8
0
100
AcDbBlockEnd
  0
BLOCK
  5
66C
330
662
100
AcDbEntity
  8
0
100
AcDbBlockBegin
  2
*D8
 70
     1
 10
0.0
 20
0.0
 30
0.0
  3
*D8
  1

  0
LINE
  5
B08
330
662
100
AcDbEntity
  8
SUNPOU
100
AcDbLine
 10
280.2967409948545
 20
185.6921590680185
 30
0.0
 11
357.0467409948545
 21
185.6921590680185
 31
0.0
  0
LINE
  5
B09
330
662
100
AcDbEntity
  8
SUNPOU
100
AcDbLine
 10
318.0467409948546
 20
235.6921590680186
 30
0.0
 11
357.0467409948545
 21
235.6921590680186
 31
0.0
  0
LINE
  5
B0A
330
662
100
AcDbEntity
  8
SUNPOU
100
AcDbLine
 10
355.0467409948545
 20
190.6921590680185
 30
0.0
 11
355.0467409948545
 21
230.6921590680186
 31
0.0
  0
INSERT
  5
B0B
330
662
100
AcDbEntity
  8
SUNPOU
100
AcDbBlockReference
  2
_OPEN30
 10
355.0467409948545
 20
185.6921590680185
 30
0.0
 41
5.0
 42
5.0
 43
5.0
 50
270.0
  0
INSERT
  5
B0C
330
662
100
AcDbEntity
  8
SUNPOU
100
AcDbBlockReference
  2
_OPEN30
 10
355.0467409948545
 20
235.6921590680186
 30
0.0
 41
5.0
 42
5.0
 43
5.0
 50
90.0
  0
MTEXT
  5
B0D
330
662
100
AcDbEntity
  8
SUNPOU
100
AcDbMText
 10
350.5467409948543
 20
210.6921590680186
 30
0.0
 40
5.0
 41
0.0
 71
     5
 72
     1
  1
\A1;50
  7
SUNPOU
 11
0.0000000000000001
 21
1.0
 31
0.0
1001
ACAD
1000
MTEXTBEGIN
1070
    73
1070
     1
1070
    44
1040
1.0
1070
    74
1070
     0
1000
MTEXTEND
1000
MTEXTBEGIN
1070
    73
1070
     1
1070
    44
1040
1.0
1070
    74
1070
     0
1000
MTEXTEND
  0
POINT
  5
B0E
330
662
100
AcDbEntity
  8
DEFPOINTS
 62
     0
100
AcDbPoint
 10
277.2967409948547
 20
185.6921590680185
 30
0.0
  0
POINT
  5
B0F
330
662
100
AcDbEntity
  8
DEFPOINTS
 62
     0
100
AcDbPoint
 10
315.0467409948546
 20
235.6921590680186
 30
0.0
  0
POINT
  5
B10
330
662
100
AcDbEntity
  8
DEFPOINTS
 62
     0
100
AcDbPoint
 10
355.0467409948545
 20
235.6921590680186
 30
0.0
  0
ENDBLK
  5
66D
330
662
100
AcDbEntity
  8
0
100
AcDbBlockEnd
  0
BLOCK
  5
679
330
66F
100
AcDbEntity
  8
0
100
AcDbBlockBegin
  2
*D9
 70
     1
 10
0.0
 20
0.0
 30
0.0
  3
*D9
  1

  0
LINE
  5
B11
330
66F
100
AcDbEntity
  8
SUNPOU
100
AcDbLine
 10
318.0467409948546
 20
235.6921590680186
 30
0.0
 11
357.0467409948545
 21
235.6921590680186
 31
0.0
  0
LINE
  5
B12
330
66F
100
AcDbEntity
  8
SUNPOU
100
AcDbLine
 10
318.0467409948543
 20
395.6921590680183
 30
0.0
 11
357.0467409948546
 21
395.6921590680183
 31
0.0
  0
LINE
  5
B13
330
66F
100
AcDbEntity
  8
SUNPOU
100
AcDbLine
 10
355.0467409948545
 20
240.6921590680187
 30
0.0
 11
355.0467409948546
 21
390.6921590680183
 31
0.0
  0
INSERT
  5
B14
330
66F
100
AcDbEntity
  8
SUNPOU
100
AcDbBlockReference
  2
_OPEN30
 10
355.0467409948545
 20
235.6921590680186
 30
0.0
 41
5.0
 42
5.0
 43
5.0
 50
270.0
  0
INSERT
  5
B15
330
66F
100
AcDbEntity
  8
SUNPOU
100
AcDbBlockReference
  2
_OPEN30
 10
355.0467409948546
 20
395.6921590680183
 30
0.0
 41
5.0
 42
5.0
 43
5.0
 50
90.0
  0
MTEXT
  5
B16
330
66F
100
AcDbEntity
  8
SUNPOU
100
AcDbMText
 10
350.5467409948543
 20
315.6921590680186
 30
0.0
 40
5.0
 41
0.0
 71
     5
 72
     1
  1
\A1;開口 W
  7
SUNPOU
 11
0.0000000000000001
 21
1.0
 31
0.0
1001
ACAD
1000
MTEXTBEGIN
1070
    73
1070
     1
1070
    44
1040
1.0
1070
    74
1070
     0
1000
MTEXTEND
1000
MTEXTBEGIN
1070
    73
1070
     1
1070
    44
1040
1.0
1070
    74
1070
     0
1000
MTEXTEND
  0
POINT
  5
B17
330
66F
100
AcDbEntity
  8
DEFPOINTS
 62
     0
100
AcDbPoint
 10
315.0467409948546
 20
235.6921590680186
 30
0.0
  0
POINT
  5
B18
330
66F
100
AcDbEntity
  8
DEFPOINTS
 62
     0
100
AcDbPoint
 10
315.0467409948543
 20
395.6921590680183
 30
0.0
  0
POINT
  5
B19
330
66F
100
AcDbEntity
  8
DEFPOINTS
 62
     0
100
AcDbPoint
 10
355.0467409948546
 20
395.6921590680183
 30
0.0
  0
ENDBLK
  5
67A
330
66F
100
AcDbEntity
  8
0
100
AcDbBlockEnd
  0
BLOCK
  5
686
330
67C
100
AcDbEntity
  8
0
100
AcDbBlockBegin
  2
*D10
 70
     1
 10
0.0
 20
0.0
 30
0.0
  3
*D10
  1

  0
LINE
  5
B1A
330
67C
100
AcDbEntity
  8
SUNPOU
100
AcDbLine
 10
318.0467409948543
 20
395.6921590680183
 30
0.0
 11
357.0467409948546
 21
395.6921590680183
 31
0.0
  0
LINE
  5
B1B
330
67C
100
AcDbEntity
  8
SUNPOU
100
AcDbLine
 10
280.296740994854
 20
445.6921590680183
 30
0.0
 11
357.0467409948546
 21
445.6921590680183
 31
0.0
  0
LINE
  5
B1C
330
67C
100
AcDbEntity
  8
SUNPOU
100
AcDbLine
 10
355.0467409948546
 20
400.6921590680183
 30
0.0
 11
355.0467409948546
 21
440.6921590680183
 31
0.0
  0
INSERT
  5
B1D
330
67C
100
AcDbEntity
  8
SUNPOU
100
AcDbBlockReference
  2
_OPEN30
 10
355.0467409948546
 20
395.6921590680183
 30
0.0
 41
5.0
 42
5.0
 43
5.0
 50
270.0
  0
INSERT
  5
B1E
330
67C
100
AcDbEntity
  8
SUNPOU
100
AcDbBlockReference
  2
_OPEN30
 10
355.0467409948546
 20
445.6921590680183
 30
0.0
 41
5.0
 42
5.0
 43
5.0
 50
90.0
  0
MTEXT
  5
B1F
330
67C
100
AcDbEntity
  8
SUNPOU
100
AcDbMText
 10
350.5467409948543
 20
420.6921590680183
 30
0.0
 40
5.0
 41
0.0
 71
     5
 72
     1
  1
\A1;50
  7
SUNPOU
 11
0.0000000000000001
 21
1.0
 31
0.0
1001
ACAD
1000
MTEXTBEGIN
1070
    73
1070
     1
1070
    44
1040
1.0
1070
    74
1070
     0
1000
MTEXTEND
1000
MTEXTBEGIN
1070
    73
1070
     1
1070
    44
1040
1.0
1070
    74
1070
     0
1000
MTEXTEND
  0
POINT
  5
B20
330
67C
100
AcDbEntity
  8
DEFPOINTS
 62
     0
100
AcDbPoint
 10
315.0467409948543
 20
395.6921590680183
 30
0.0
  0
POINT
  5
B21
330
67C
100
AcDbEntity
  8
DEFPOINTS
 62
     0
100
AcDbPoint
 10
277.296740994854
 20
445.6921590680183
 30
0.0
  0
POINT
  5
B22
330
67C
100
AcDbEntity
  8
DEFPOINTS
 62
     0
100
AcDbPoint
 10
355.0467409948546
 20
445.6921590680183
 30
0.0
  0
ENDBLK
  5
687
330
67C
100
AcDbEntity
  8
0
100
AcDbBlockEnd
  0
BLOCK
  5
693
330
689
100
AcDbEntity
  8
0
100
AcDbBlockBegin
  2
*D11
 70
     1
 10
0.0
 20
0.0
 30
0.0
  3
*D11
  1

  0
LINE
  5
B23
330
689
100
AcDbEntity
  8
SUNPOU
100
AcDbLine
 10
318.0467409948547
 20
210.6921590680186
 30
0.0
 11
327.0467409948547
 21
210.6921590680186
 31
0.0
  0
LINE
  5
B24
330
689
100
AcDbEntity
  8
SUNPOU
100
AcDbLine
 10
318.0467409948546
 20
235.6921590680186
 30
0.0
 11
327.0467409948547
 21
235.6921590680186
 31
0.0
  0
LINE
  5
B25
330
689
100
AcDbEntity
  8
SUNPOU
100
AcDbLine
 10
325.0467409948547
 20
215.6921590680186
 30
0.0
 11
325.0467409948547
 21
230.6921590680186
 31
0.0
  0
INSERT
  5
B26
330
689
100
AcDbEntity
  8
SUNPOU
100
AcDbBlockReference
  2
_OPEN30
 10
325.0467409948547
 20
210.6921590680186
 30
0.0
 41
5.0
 42
5.0
 43
5.0
 50
270.0
  0
INSERT
  5
B27
330
689
100
AcDbEntity
  8
SUNPOU
100
AcDbBlockReference
  2
_OPEN30
 10
325.0467409948547
 20
235.6921590680186
 30
0.0
 41
5.0
 42
5.0
 43
5.0
 50
90.0
  0
MTEXT
  5
B28
330
689
100
AcDbEntity
  8
SUNPOU
100
AcDbMText
 10
320.5467409948547
 20
223.1921590680186
 30
0.0
 40
5.0
 41
0.0
 71
     5
 72
     1
  1
\A1;25
  7
SUNPOU
 11
0.0000000000000001
 21
1.0
 31
0.0
1001
ACAD
1000
MTEXTBEGIN
1070
    73
1070
     1
1070
    44
1040
1.0
1070
    74
1070
     0
1000
MTEXTEND
1000
MTEXTBEGIN
1070
    73
1070
     1
1070
    44
1040
1.0
1070
    74
1070
     0
1000
MTEXTEND
  0
POINT
  5
B29
330
689
100
AcDbEntity
  8
DEFPOINTS
 62
     0
100
AcDbPoint
 10
315.0467409948547
 20
210.6921590680186
 30
0.0
  0
POINT
  5
B2A
330
689
100
AcDbEntity
  8
DEFPOINTS
 62
     0
100
AcDbPoint
 10
315.0467409948546
 20
235.6921590680186
 30
0.0
  0
POINT
  5
B2B
330
689
100
AcDbEntity
  8
DEFPOINTS
 62
     0
100
AcDbPoint
 10
325.0467409948547
 20
235.6921590680186
 30
0.0
  0
ENDBLK
  5
694
330
689
100
AcDbEntity
  8
0
100
AcDbBlockEnd
  0
BLOCK
  5
6A0
330
696
100
AcDbEntity
  8
0
100
AcDbBlockBegin
  2
*D12
 70
     1
 10
0.0
 20
0.0
 30
0.0
  3
*D12
  1

  0
LINE
  5
B2C
330
696
100
AcDbEntity
  8
SUNPOU
100
AcDbLine
 10
318.0467409948547
 20
210.6921590680186
 30
0.0
 11
342.0467409948545
 21
210.6921590680186
 31
0.0
  0
LINE
  5
B2D
330
696
100
AcDbEntity
  8
SUNPOU
100
AcDbLine
 10
318.0467409948547
 20
313.1921590680184
 30
0.0
 11
342.0467409948545
 21
313.1921590680184
 31
0.0
  0
LINE
  5
B2E
330
696
100
AcDbEntity
  8
SUNPOU
100
AcDbLine
 10
340.0467409948545
 20
215.6921590680186
 30
0.0
 11
340.0467409948545
 21
308.1921590680183
 31
0.0
  0
INSERT
  5
B2F
330
696
100
AcDbEntity
  8
SUNPOU
100
AcDbBlockReference
  2
_OPEN30
 10
340.0467409948545
 20
210.6921590680186
 30
0.0
 41
5.0
 42
5.0
 43
5.0
 50
270.0
  0
INSERT
  5
B30
330
696
100
AcDbEntity
  8
SUNPOU
100
AcDbBlockReference
  2
_OPEN30
 10
340.0467409948545
 20
313.1921590680184
 30
0.0
 41
5.0
 42
5.0
 43
5.0
 50
90.0
  0
MTEXT
  5
B31
330
696
100
AcDbEntity
  8
SUNPOU
100
AcDbMText
 10
335.5467409948544
 20
261.9421590680186
 30
0.0
 40
5.0
 41
0.0
 71
     5
 72
     1
  1
\A1;DW
  7
SUNPOU
 11
0.0000000000000001
 21
1.0
 31
0.0
1001
ACAD
1000
MTEXTBEGIN
1070
    73
1070
     1
1070
    44
1040
1.0
1070
    74
1070
     0
1000
MTEXTEND
1000
MTEXTBEGIN
1070
    73
1070
     1
1070
    44
1040
1.0
1070
    74
1070
     0
1000
MTEXTEND
  0
POINT
  5
B32
330
696
100
AcDbEntity
  8
DEFPOINTS
 62
     0
100
AcDbPoint
 10
315.0467409948547
 20
210.6921590680186
 30
0.0
  0
POINT
  5
B33
330
696
100
AcDbEntity
  8
DEFPOINTS
 62
     0
100
AcDbPoint
 10
315.0467409948547
 20
313.1921590680184
 30
0.0
  0
POINT
  5
B34
330
696
100
AcDbEntity
  8
DEFPOINTS
 62
     0
100
AcDbPoint
 10
340.0467409948545
 20
313.1921590680184
 30
0.0
  0
ENDBLK
  5
6A1
330
696
100
AcDbEntity
  8
0
100
AcDbBlockEnd
  0
BLOCK
  5
6AF
330
6A3
100
AcDbEntity
  8
0
100
AcDbBlockBegin
  2
*D13
 70
     1
 10
0.0
 20
0.0
 30
0.0
  3
*D13
  1

  0
LINE
  5
B35
330
6A3
100
AcDbEntity
  8
SUNPOU
100
AcDbLine
 10
318.0467409948547
 20
313.1921590680184
 30
0.0
 11
342.0467409948545
 21
313.1921590680184
 31
0.0
  0
LINE
  5
B36
330
6A3
100
AcDbEntity
  8
SUNPOU
100
AcDbLine
 10
318.0467409948545
 20
318.1921590680183
 30
0.0
 11
342.0467409948545
 21
318.1921590680183
 31
0.0
  0
LINE
  5
B37
330
6A3
100
AcDbEntity
  8
SUNPOU
100
AcDbLine
 10
340.0467409948545
 20
308.1921590680183
 30
0.0
 11
340.0467409948545
 21
303.1921590680183
 31
0.0
  0
LINE
  5
B38
330
6A3
100
AcDbEntity
  8
SUNPOU
100
AcDbLine
 10
340.0467409948545
 20
323.1921590680183
 30
0.0
 11
340.0467409948545
 21
328.1921590680183
 31
0.0
  0
MTEXT
  5
B39
330
6A3
100
AcDbEntity
  8
SUNPOU
100
AcDbMText
 10
334.6603537224332
 20
315.6921590680183
 30
0.0
 40
5.0
 41
0.0
 71
     5
 72
     1
  1
\A1;5
  7
SUNPOU
 11
0.0000000000000001
 21
1.0
 31
0.0
1001
ACAD
1000
MTEXTBEGIN
1070
    73
1070
     1
1070
    44
1040
1.0
1070
    74
1070
     0
1000
MTEXTEND
1000
MTEXTBEGIN
1070
    73
1070
     1
1070
    44
1040
1.0
1070
    74
1070
     0
1000
MTEXTEND
  0
LINE
  5
B3A
330
6A3
100
AcDbEntity
  8
SUNPOU
100
AcDbLine
 10
340.0467409948545
 20
313.1921590680184
 30
0.0
 11
340.0467409948545
 21
318.1921590680183
 31
0.0
  0
INSERT
  5
B3B
330
6A3
100
AcDbEntity
  8
SUNPOU
100
AcDbBlockReference
  2
_OPEN30
 10
340.0467409948545
 20
313.1921590680184
 30
0.0
 41
5.0
 42
5.0
 43
5.0
 50
90.0
  0
INSERT
  5
B3C
330
6A3
100
AcDbEntity
  8
SUNPOU
100
AcDbBlockReference
  2
_OPEN30
 10
340.0467409948545
 20
318.1921590680183
 30
0.0
 41
5.0
 42
5.0
 43
5.0
 50
270.0
  0
POINT
  5
B3D
330
6A3
100
AcDbEntity
  8
DEFPOINTS
 62
     0
100
AcDbPoint
 10
315.0467409948547
 20
313.1921590680184
 30
0.0
  0
POINT
  5
B3E
330
6A3
100
AcDbEntity
  8
DEFPOINTS
 62
     0
100
AcDbPoint
 10
315.0467409948545
 20
318.1921590680183
 30
0.0
  0
POINT
  5
B3F
330
6A3
100
AcDbEntity
  8
DEFPOINTS
 62
     0
100
AcDbPoint
 10
340.0467409948545
 20
318.1921590680183
 30
0.0
  0
ENDBLK
  5
6B0
330
6A3
100
AcDbEntity
  8
0
100
AcDbBlockEnd
  0
BLOCK
  5
6BC
330
6B2
100
AcDbEntity
  8
0
100
AcDbBlockBegin
  2
*D14
 70
     1
 10
0.0
 20
0.0
 30
0.0
  3
*D14
  1

  0
LINE
  5
B40
330
6B2
100
AcDbEntity
  8
SUNPOU
100
AcDbLine
 10
318.0467409948545
 20
318.1921590680183
 30
0.0
 11
342.0467409948545
 21
318.1921590680183
 31
0.0
  0
LINE
  5
B41
330
6B2
100
AcDbEntity
  8
SUNPOU
100
AcDbLine
 10
318.0467409948545
 20
420.6921590680183
 30
0.0
 11
342.0467409948546
 21
420.6921590680183
 31
0.0
  0
LINE
  5
B42
330
6B2
100
AcDbEntity
  8
SUNPOU
100
AcDbLine
 10
340.0467409948545
 20
323.1921590680183
 30
0.0
 11
340.0467409948546
 21
415.6921590680183
 31
0.0
  0
INSERT
  5
B43
330
6B2
100
AcDbEntity
  8
SUNPOU
100
AcDbBlockReference
  2
_OPEN30
 10
340.0467409948545
 20
318.1921590680183
 30
0.0
 41
5.0
 42
5.0
 43
5.0
 50
270.0
  0
INSERT
  5
B44
330
6B2
100
AcDbEntity
  8
SUNPOU
100
AcDbBlockReference
  2
_OPEN30
 10
340.0467409948546
 20
420.6921590680183
 30
0.0
 41
5.0
 42
5.0
 43
5.0
 50
90.0
  0
MTEXT
  5
B45
330
6B2
100
AcDbEntity
  8
SUNPOU
100
AcDbMText
 10
335.5467409948544
 20
369.4421590680183
 30
0.0
 40
5.0
 41
0.0
 71
     5
 72
     1
  1
\A1;DW
  7
SUNPOU
 11
0.0000000000000001
 21
1.0
 31
0.0
1001
ACAD
1000
MTEXTBEGIN
1070
    73
1070
     1
1070
    44
1040
1.0
1070
    74
1070
     0
1000
MTEXTEND
1000
MTEXTBEGIN
1070
    73
1070
     1
1070
    44
1040
1.0
1070
    74
1070
     0
1000
MTEXTEND
  0
POINT
  5
B46
330
6B2
100
AcDbEntity
  8
DEFPOINTS
 62
     0
100
AcDbPoint
 10
315.0467409948545
 20
318.1921590680183
 30
0.0
  0
POINT
  5
B47
330
6B2
100
AcDbEntity
  8
DEFPOINTS
 62
     0
100
AcDbPoint
 10
315.0467409948545
 20
420.6921590680183
 30
0.0
  0
POINT
  5
B48
330
6B2
100
AcDbEntity
  8
DEFPOINTS
 62
     0
100
AcDbPoint
 10
340.0467409948546
 20
420.6921590680183
 30
0.0
  0
ENDBLK
  5
6BD
330
6B2
100
AcDbEntity
  8
0
100
AcDbBlockEnd
  0
BLOCK
  5
6C9
330
6BF
100
AcDbEntity
  8
0
100
AcDbBlockBegin
  2
*D15
 70
     1
 10
0.0
 20
0.0
 30
0.0
  3
*D15
  1

  0
LINE
  5
B49
330
6BF
100
AcDbEntity
  8
SUNPOU
100
AcDbLine
 10
318.0467409948544
 20
395.6921590680183
 30
0.0
 11
327.0467409948545
 21
395.6921590680183
 31
0.0
  0
LINE
  5
B4A
330
6BF
100
AcDbEntity
  8
SUNPOU
100
AcDbLine
 10
318.0467409948545
 20
420.6921590680183
 30
0.0
 11
327.0467409948545
 21
420.6921590680183
 31
0.0
  0
LINE
  5
B4B
330
6BF
100
AcDbEntity
  8
SUNPOU
100
AcDbLine
 10
325.0467409948545
 20
400.6921590680183
 30
0.0
 11
325.0467409948545
 21
415.6921590680183
 31
0.0
  0
INSERT
  5
B4C
330
6BF
100
AcDbEntity
  8
SUNPOU
100
AcDbBlockReference
  2
_OPEN30
 10
325.0467409948545
 20
395.6921590680183
 30
0.0
 41
5.0
 42
5.0
 43
5.0
 50
270.0
  0
INSERT
  5
B4D
330
6BF
100
AcDbEntity
  8
SUNPOU
100
AcDbBlockReference
  2
_OPEN30
 10
325.0467409948545
 20
420.6921590680183
 30
0.0
 41
5.0
 42
5.0
 43
5.0
 50
90.0
  0
MTEXT
  5
B4E
330
6BF
100
AcDbEntity
  8
SUNPOU
100
AcDbMText
 10
320.5467409948544
 20
408.1921590680185
 30
0.0
 40
5.0
 41
0.0
 71
     5
 72
     1
  1
\A1;25
  7
SUNPOU
 11
0.0000000000000001
 21
1.0
 31
0.0
1001
ACAD
1000
MTEXTBEGIN
1070
    73
1070
     1
1070
    44
1040
1.0
1070
    74
1070
     0
1000
MTEXTEND
1000
MTEXTBEGIN
1070
    73
1070
     1
1070
    44
1040
1.0
1070
    74
1070
     0
1000
MTEXTEND
  0
POINT
  5
B4F
330
6BF
100
AcDbEntity
  8
DEFPOINTS
 62
     0
100
AcDbPoint
 10
315.0467409948544
 20
395.6921590680183
 30
0.0
  0
POINT
  5
B50
330
6BF
100
AcDbEntity
  8
DEFPOINTS
 62
     0
100
AcDbPoint
 10
315.0467409948545
 20
420.6921590680183
 30
0.0
  0
POINT
  5
B51
330
6BF
100
AcDbEntity
  8
DEFPOINTS
 62
     0
100
AcDbPoint
 10
325.0467409948545
 20
420.6921590680183
 30
0.0
  0
ENDBLK
  5
6CA
330
6BF
100
AcDbEntity
  8
0
100
AcDbBlockEnd
  0
BLOCK
  5
6D6
330
6CC
100
AcDbEntity
  8
0
100
AcDbBlockBegin
  2
*D16
 70
     1
 10
0.0
 20
0.0
 30
0.0
  3
*D16
  1

  0
LINE
  5
B52
330
6CC
100
AcDbEntity
  8
SUNPOU
100
AcDbLine
 10
318.0467409948546
 20
288.1921590680184
 30
0.0
 11
327.0467409948546
 21
288.1921590680184
 31
0.0
  0
LINE
  5
B53
330
6CC
100
AcDbEntity
  8
SUNPOU
100
AcDbLine
 10
318.0467409948547
 20
313.1921590680184
 30
0.0
 11
327.0467409948546
 21
313.1921590680184
 31
0.0
  0
LINE
  5
B54
330
6CC
100
AcDbEntity
  8
SUNPOU
100
AcDbLine
 10
325.0467409948546
 20
293.1921590680183
 30
0.0
 11
325.0467409948546
 21
308.1921590680183
 31
0.0
  0
INSERT
  5
B55
330
6CC
100
AcDbEntity
  8
SUNPOU
100
AcDbBlockReference
  2
_OPEN30
 10
325.0467409948546
 20
288.1921590680184
 30
0.0
 41
5.0
 42
5.0
 43
5.0
 50
270.0
  0
INSERT
  5
B56
330
6CC
100
AcDbEntity
  8
SUNPOU
100
AcDbBlockReference
  2
_OPEN30
 10
325.0467409948546
 20
313.1921590680184
 30
0.0
 41
5.0
 42
5.0
 43
5.0
 50
90.0
  0
MTEXT
  5
B57
330
6CC
100
AcDbEntity
  8
SUNPOU
100
AcDbMText
 10
320.5467409948545
 20
300.6921590680184
 30
0.0
 40
5.0
 41
0.0
 71
     5
 72
     1
  1
\A1;25
  7
SUNPOU
 11
0.0000000000000001
 21
1.0
 31
0.0
1001
ACAD
1000
MTEXTBEGIN
1070
    73
1070
     1
1070
    44
1040
1.0
1070
    74
1070
     0
1000
MTEXTEND
1000
MTEXTBEGIN
1070
    73
1070
     1
1070
    44
1040
1.0
1070
    74
1070
     0
1000
MTEXTEND
  0
POINT
  5
B58
330
6CC
100
AcDbEntity
  8
DEFPOINTS
 62
     0
100
AcDbPoint
 10
315.0467409948546
 20
288.1921590680184
 30
0.0
  0
POINT
  5
B59
330
6CC
100
AcDbEntity
  8
DEFPOINTS
 62
     0
100
AcDbPoint
 10
315.0467409948547
 20
313.1921590680184
 30
0.0
  0
POINT
  5
B5A
330
6CC
100
AcDbEntity
  8
DEFPOINTS
 62
     0
100
AcDbPoint
 10
325.0467409948546
 20
313.1921590680184
 30
0.0
  0
ENDBLK
  5
6D7
330
6CC
100
AcDbEntity
  8
0
100
AcDbBlockEnd
  0
BLOCK
  5
6E3
330
6D9
100
AcDbEntity
  8
0
100
AcDbBlockBegin
  2
*D17
 70
     1
 10
0.0
 20
0.0
 30
0.0
  3
*D17
  1

  0
LINE
  5
B5B
330
6D9
100
AcDbEntity
  8
SUNPOU
100
AcDbLine
 10
318.0467409948545
 20
318.1921590680183
 30
0.0
 11
327.0467409948545
 21
318.1921590680183
 31
0.0
  0
LINE
  5
B5C
330
6D9
100
AcDbEntity
  8
SUNPOU
100
AcDbLine
 10
318.0467409948545
 20
343.1921590680183
 30
0.0
 11
327.0467409948545
 21
343.1921590680183
 31
0.0
  0
LINE
  5
B5D
330
6D9
100
AcDbEntity
  8
SUNPOU
100
AcDbLine
 10
325.0467409948545
 20
323.1921590680183
 30
0.0
 11
325.0467409948545
 21
338.1921590680184
 31
0.0
  0
INSERT
  5
B5E
330
6D9
100
AcDbEntity
  8
SUNPOU
100
AcDbBlockReference
  2
_OPEN30
 10
325.0467409948545
 20
318.1921590680183
 30
0.0
 41
5.0
 42
5.0
 43
5.0
 50
270.0
  0
INSERT
  5
B5F
330
6D9
100
AcDbEntity
  8
SUNPOU
100
AcDbBlockReference
  2
_OPEN30
 10
325.0467409948545
 20
343.1921590680183
 30
0.0
 41
5.0
 42
5.0
 43
5.0
 50
90.0
  0
MTEXT
  5
B60
330
6D9
100
AcDbEntity
  8
SUNPOU
100
AcDbMText
 10
320.5467409948544
 20
330.6921590680185
 30
0.0
 40
5.0
 41
0.0
 71
     5
 72
     1
  1
\A1;25
  7
SUNPOU
 11
0.0000000000000001
 21
1.0
 31
0.0
1001
ACAD
1000
MTEXTBEGIN
1070
    73
1070
     1
1070
    44
1040
1.0
1070
    74
1070
     0
1000
MTEXTEND
1000
MTEXTBEGIN
1070
    73
1070
     1
1070
    44
1040
1.0
1070
    74
1070
     0
1000
MTEXTEND
  0
POINT
  5
B61
330
6D9
100
AcDbEntity
  8
DEFPOINTS
 62
     0
100
AcDbPoint
 10
315.0467409948545
 20
318.1921590680183
 30
0.0
  0
POINT
  5
B62
330
6D9
100
AcDbEntity
  8
DEFPOINTS
 62
     0
100
AcDbPoint
 10
315.0467409948545
 20
343.1921590680183
 30
0.0
  0
POINT
  5
B63
330
6D9
100
AcDbEntity
  8
DEFPOINTS
 62
     0
100
AcDbPoint
 10
325.0467409948545
 20
343.1921590680183
 30
0.0
  0
ENDBLK
  5
6E4
330
6D9
100
AcDbEntity
  8
0
100
AcDbBlockEnd
  0
BLOCK
  5
6F0
330
6E6
100
AcDbEntity
  8
0
100
AcDbBlockBegin
  2
*D18
 70
     1
 10
0.0
 20
0.0
 30
0.0
  3
*D18
  1

  0
LINE
  5
B64
330
6E6
100
AcDbEntity
  8
SUNPOU
100
AcDbLine
 10
338.296740994855
 20
100.6921590680184
 30
0.0
 11
372.0467409948543
 21
100.6921590680184
 31
0.0
  0
LINE
  5
B65
330
6E6
100
AcDbEntity
  8
SUNPOU
100
AcDbLine
 10
338.2967409948548
 20
130.6921590680185
 30
0.0
 11
372.0467409948543
 21
130.6921590680185
 31
0.0
  0
LINE
  5
B66
330
6E6
100
AcDbEntity
  8
SUNPOU
100
AcDbLine
 10
370.0467409948543
 20
105.6921590680184
 30
0.0
 11
370.0467409948543
 21
125.6921590680185
 31
0.0
  0
INSERT
  5
B67
330
6E6
100
AcDbEntity
  8
SUNPOU
100
AcDbBlockReference
  2
_OPEN30
 10
370.0467409948543
 20
100.6921590680184
 30
0.0
 41
5.0
 42
5.0
 43
5.0
 50
270.0
  0
INSERT
  5
B68
330
6E6
100
AcDbEntity
  8
SUNPOU
100
AcDbBlockReference
  2
_OPEN30
 10
370.0467409948543
 20
130.6921590680185
 30
0.0
 41
5.0
 42
5.0
 43
5.0
 50
90.0
  0
MTEXT
  5
B69
330
6E6
100
AcDbEntity
  8
SUNPOU
100
AcDbMText
 10
365.5467409948543
 20
115.6921590680185
 30
0.0
 40
5.0
 41
0.0
 71
     5
 72
     1
  1
\A1;30
  7
SUNPOU
 11
0.0000000000000001
 21
1.0
 31
0.0
1001
ACAD
1000
MTEXTBEGIN
1070
    73
1070
     1
1070
    44
1040
1.0
1070
    74
1070
     0
1000
MTEXTEND
1000
MTEXTBEGIN
1070
    73
1070
     1
1070
    44
1040
1.0
1070
    74
1070
     0
1000
MTEXTEND
  0
POINT
  5
B6A
330
6E6
100
AcDbEntity
  8
DEFPOINTS
 62
     0
100
AcDbPoint
 10
335.2967409948548
 20
100.6921590680184
 30
0.0
  0
POINT
  5
B6B
330
6E6
100
AcDbEntity
  8
DEFPOINTS
 62
     0
100
AcDbPoint
 10
335.2967409948548
 20
130.6921590680185
 30
0.0
  0
POINT
  5
B6C
330
6E6
100
AcDbEntity
  8
DEFPOINTS
 62
     0
100
AcDbPoint
 10
370.0467409948543
 20
130.6921590680185
 30
0.0
  0
ENDBLK
  5
6F1
330
6E6
100
AcDbEntity
  8
0
100
AcDbBlockEnd
  0
BLOCK
  5
6FD
330
6F3
100
AcDbEntity
  8
0
100
AcDbBlockBegin
  2
*D19
 70
     1
 10
0.0
 20
0.0
 30
0.0
  3
*D19
  1

  0
LINE
  5
B6D
330
6F3
100
AcDbEntity
  8
SUNPOU
100
AcDbLine
 10
338.2967409948548
 20
130.6921590680185
 30
0.0
 11
372.0467409948543
 21
130.6921590680185
 31
0.0
  0
LINE
  5
B6E
330
6F3
100
AcDbEntity
  8
SUNPOU
100
AcDbLine
 10
338.296740994854
 20
500.6921590680184
 30
0.0
 11
372.0467409948545
 21
500.6921590680184
 31
0.0
  0
LINE
  5
B6F
330
6F3
100
AcDbEntity
  8
SUNPOU
100
AcDbLine
 10
370.0467409948543
 20
135.6921590680185
 30
0.0
 11
370.0467409948545
 21
495.6921590680186
 31
0.0
  0
INSERT
  5
B70
330
6F3
100
AcDbEntity
  8
SUNPOU
100
AcDbBlockReference
  2
_OPEN30
 10
370.0467409948543
 20
130.6921590680185
 30
0.0
 41
5.0
 42
5.0
 43
5.0
 50
270.0
  0
INSERT
  5
B71
330
6F3
100
AcDbEntity
  8
SUNPOU
100
AcDbBlockReference
  2
_OPEN30
 10
370.0467409948545
 20
500.6921590680184
 30
0.0
 41
5.0
 42
5.0
 43
5.0
 50
90.0
  0
MTEXT
  5
B72
330
6F3
100
AcDbEntity
  8
SUNPOU
100
AcDbMText
 10
365.5467409948543
 20
315.6921590680186
 30
0.0
 40
5.0
 41
0.0
 71
     5
 72
     1
  1
\A1;W
  7
SUNPOU
 11
0.0000000000000001
 21
1.0
 31
0.0
1001
ACAD
1000
MTEXTBEGIN
1070
    73
1070
     1
1070
    44
1040
1.0
1070
    74
1070
     0
1000
MTEXTEND
1000
MTEXTBEGIN
1070
    73
1070
     1
1070
    44
1040
1.0
1070
    74
1070
     0
1000
MTEXTEND
  0
POINT
  5
B73
330
6F3
100
AcDbEntity
  8
DEFPOINTS
 62
     0
100
AcDbPoint
 10
335.2967409948548
 20
130.6921590680185
 30
0.0
  0
POINT
  5
B74
330
6F3
100
AcDbEntity
  8
DEFPOINTS
 62
     0
100
AcDbPoint
 10
335.296740994854
 20
500.6921590680184
 30
0.0
  0
POINT
  5
B75
330
6F3
100
AcDbEntity
  8
DEFPOINTS
 62
     0
100
AcDbPoint
 10
370.0467409948545
 20
500.6921590680184
 30
0.0
  0
ENDBLK
  5
6FE
330
6F3
100
AcDbEntity
  8
0
100
AcDbBlockEnd
  0
BLOCK
  5
70A
330
700
100
AcDbEntity
  8
0
100
AcDbBlockBegin
  2
*D20
 70
     1
 10
0.0
 20
0.0
 30
0.0
  3
*D20
  1

  0
LINE
  5
B76
330
700
100
AcDbEntity
  8
SUNPOU
100
AcDbLine
 10
338.296740994854
 20
500.6921590680184
 30
0.0
 11
372.0467409948545
 21
500.6921590680184
 31
0.0
  0
LINE
  5
B77
330
700
100
AcDbEntity
  8
SUNPOU
100
AcDbLine
 10
338.2967409948538
 20
530.6921590680186
 30
0.0
 11
372.0467409948545
 21
530.6921590680186
 31
0.0
  0
LINE
  5
B78
330
700
100
AcDbEntity
  8
SUNPOU
100
AcDbLine
 10
370.0467409948545
 20
505.6921590680184
 30
0.0
 11
370.0467409948545
 21
525.6921590680186
 31
0.0
  0
INSERT
  5
B79
330
700
100
AcDbEntity
  8
SUNPOU
100
AcDbBlockReference
  2
_OPEN30
 10
370.0467409948545
 20
500.6921590680184
 30
0.0
 41
5.0
 42
5.0
 43
5.0
 50
270.0
  0
INSERT
  5
B7A
330
700
100
AcDbEntity
  8
SUNPOU
100
AcDbBlockReference
  2
_OPEN30
 10
370.0467409948545
 20
530.6921590680186
 30
0.0
 41
5.0
 42
5.0
 43
5.0
 50
90.0
  0
MTEXT
  5
B7B
330
700
100
AcDbEntity
  8
SUNPOU
100
AcDbMText
 10
365.5467409948543
 20
515.6921590680187
 30
0.0
 40
5.0
 41
0.0
 71
     5
 72
     1
  1
\A1;30
  7
SUNPOU
 11
0.0000000000000001
 21
1.0
 31
0.0
1001
ACAD
1000
MTEXTBEGIN
1070
    73
1070
     1
1070
    44
1040
1.0
1070
    74
1070
     0
1000
MTEXTEND
1000
MTEXTBEGIN
1070
    73
1070
     1
1070
    44
1040
1.0
1070
    74
1070
     0
1000
MTEXTEND
  0
POINT
  5
B7C
330
700
100
AcDbEntity
  8
DEFPOINTS
 62
     0
100
AcDbPoint
 10
335.296740994854
 20
500.6921590680184
 30
0.0
  0
POINT
  5
B7D
330
700
100
AcDbEntity
  8
DEFPOINTS
 62
     0
100
AcDbPoint
 10
335.2967409948538
 20
530.6921590680186
 30
0.0
  0
POINT
  5
B7E
330
700
100
AcDbEntity
  8
DEFPOINTS
 62
     0
100
AcDbPoint
 10
370.0467409948545
 20
530.6921590680186
 30
0.0
  0
ENDBLK
  5
70B
330
700
100
AcDbEntity
  8
0
100
AcDbBlockEnd
  0
BLOCK
  5
773
330
771
100
AcDbEntity
  8
0
100
AcDbBlockBegin
  2
_DOTSMALL
 70
     0
 10
0.0
 20
0.0
 30
0.0
  3
_DOTSMALL
  1

  0
POLYLINE
  5
772
330
771
100
AcDbEntity
  8
0
  6
BYBLOCK
 62
     0
100
AcDb2dPolyline
 66
     1
 10
0.0
 20
0.0
 30
0.0
 70
     1
 40
0.5
 41
0.5
  0
VERTEX
  5
12CC
330
772
100
AcDbEntity
  8
0
  6
BYBLOCK
 62
     0
100
AcDbVertex
100
AcDb2dVertex
 10
-0.0625
 20
0.0
 30
0.0
 42
1.0
  0
VERTEX
  5
12CD
330
772
100
AcDbEntity
  8
0
  6
BYBLOCK
 62
     0
100
AcDbVertex
100
AcDb2dVertex
 10
0.0625
 20
0.0
 30
0.0
 42
1.0
  0
SEQEND
  5
12CE
330
772
100
AcDbEntity
  8
0
  6
BYBLOCK
 62
     0
  0
ENDBLK
  5
774
330
771
100
AcDbEntity
  8
0
100
AcDbBlockEnd
  0
BLOCK
  5
8C3
330
8B9
100
AcDbEntity
  8
0
100
AcDbBlockBegin
  2
*D22
 70
     1
 10
0.0
 20
0.0
 30
0.0
  3
*D22
  1

  0
LINE
  5
B7F
330
8B9
100
AcDbEntity
  8
SUNPOU
100
AcDbLine
 10
140.7634670668955
 20
318.8921590680182
 30
0.0
 11
140.7634670668955
 21
394.1921590680183
 31
0.0
  0
LINE
  5
B80
330
8B9
100
AcDbEntity
  8
SUNPOU
100
AcDbLine
 10
170.7634670668953
 20
378.0789842543475
 30
0.0
 11
170.7634670668953
 21
394.1921590680183
 31
0.0
  0
LINE
  5
B81
330
8B9
100
AcDbEntity
  8
SUNPOU
100
AcDbLine
 10
145.7634670668955
 20
392.1921590680183
 30
0.0
 11
165.7634670668953
 21
392.1921590680183
 31
0.0
  0
MTEXT
  5
B82
330
8B9
100
AcDbEntity
  8
SUNPOU
100
AcDbMText
 10
155.7634670668954
 20
387.6872106792286
 30
0.0
 40
5.0
 41
0.0
 71
     5
 72
     1
  1
\A1;600
  7
SUNPOU
 11
-1.0
 21
0.0000000000000001
 31
0.0
1001
ACAD
1000
MTEXTBEGIN
1070
    73
1070
     1
1070
    44
1040
1.0
1070
    74
1070
     0
1000
MTEXTEND
1000
MTEXTBEGIN
1070
    73
1070
     1
1070
    44
1040
1.0
1070
    74
1070
     0
1000
MTEXTEND
  0
INSERT
  5
B83
330
8B9
100
AcDbEntity
  8
SUNPOU
100
AcDbBlockReference
  2
_OPEN30
 10
140.7634670668955
 20
392.1921590680183
 30
0.0
 41
5.0
 42
5.0
 43
5.0
 50
180.0
  0
INSERT
  5
B84
330
8B9
100
AcDbEntity
  8
SUNPOU
100
AcDbBlockReference
  2
_OPEN30
 10
170.7634670668953
 20
392.1921590680183
 30
0.0
 41
5.0
 42
5.0
 43
5.0
  0
POINT
  5
B85
330
8B9
100
AcDbEntity
  8
DEFPOINTS
 62
     0
100
AcDbPoint
 10
140.7634670668955
 20
315.8921590680181
 30
0.0
  0
POINT
  5
B86
330
8B9
100
AcDbEntity
  8
DEFPOINTS
 62
     0
100
AcDbPoint
 10
170.7634670668953
 20
375.0789842543476
 30
0.0
  0
POINT
  5
B87
330
8B9
100
AcDbEntity
  8
DEFPOINTS
 62
     0
100
AcDbPoint
 10
170.7634670668953
 20
392.1921590680183
 30
0.0
  0
ENDBLK
  5
8C4
330
8B9
100
AcDbEntity
  8
0
100
AcDbBlockEnd
  0
BLOCK
  5
8E9
330
8DD
100
AcDbEntity
  8
0
100
AcDbBlockBegin
  2
*D23
 70
     1
 10
0.0
 20
0.0
 30
0.0
  3
*D23
  1

  0
LINE
  5
BF6
330
8DD
100
AcDbEntity
  8
SUNPOU
100
AcDbLine
 10
60.76346706689588
 20
179.6921590680179
 30
0.0
 11
60.76346706689588
 21
149.0147310455529
 31
0.0
  0
LINE
  5
BF7
330
8DD
100
AcDbEntity
  8
SUNPOU
100
AcDbLine
 10
70.76346706689587
 20
179.6921590680179
 30
0.0
 11
70.76346706689587
 21
149.0147310455529
 31
0.0
  0
LINE
  5
BF8
330
8DD
100
AcDbEntity
  8
SUNPOU
100
AcDbLine
 10
55.76346706689588
 20
151.0147310455529
 30
0.0
 11
50.76346706689588
 21
151.0147310455529
 31
0.0
  0
LINE
  5
BF9
330
8DD
100
AcDbEntity
  8
SUNPOU
100
AcDbLine
 10
75.76346706689587
 20
151.0147310455529
 30
0.0
 11
80.76346706689589
 21
151.0147310455529
 31
0.0
  0
MTEXT
  5
BFA
330
8DD
100
AcDbEntity
  8
SUNPOU
100
AcDbMText
 10
65.87611735201517
 20
146.4857158623501
 30
0.0
 40
5.0
 41
0.0
 71
     5
 72
     1
  1
\A1;200
  7
SUNPOU
 11
-1.0
 21
0.0000000000000001
 31
0.0
1001
ACAD
1000
MTEXTBEGIN
1070
    73
1070
     1
1070
    44
1040
1.0
1070
    74
1070
     0
1000
MTEXTEND
1000
MTEXTBEGIN
1070
    73
1070
     1
1070
    44
1040
1.0
1070
    74
1070
     0
1000
MTEXTEND
  0
LINE
  5
BFB
330
8DD
100
AcDbEntity
  8
SUNPOU
100
AcDbLine
 10
60.76346706689588
 20
151.0147310455529
 30
0.0
 11
70.76346706689587
 21
151.0147310455529
 31
0.0
  0
INSERT
  5
BFC
330
8DD
100
AcDbEntity
  8
SUNPOU
100
AcDbBlockReference
  2
_OPEN30
 10
60.76346706689588
 20
151.0147310455529
 30
0.0
 41
5.0
 42
5.0
 43
5.0
  0
INSERT
  5
BFD
330
8DD
100
AcDbEntity
  8
SUNPOU
100
AcDbBlockReference
  2
_OPEN30
 10
70.76346706689587
 20
151.0147310455529
 30
0.0
 41
5.0
 42
5.0
 43
5.0
 50
180.0
  0
POINT
  5
BFE
330
8DD
100
AcDbEntity
  8
DEFPOINTS
 62
     0
100
AcDbPoint
 10
60.76346706689588
 20
182.6921590680179
 30
0.0
  0
POINT
  5
BFF
330
8DD
100
AcDbEntity
  8
DEFPOINTS
 62
     0
100
AcDbPoint
 10
70.76346706689587
 20
182.6921590680179
 30
0.0
  0
POINT
  5
C00
330
8DD
100
AcDbEntity
  8
DEFPOINTS
 62
     0
100
AcDbPoint
 10
70.76346706689587
 20
151.0147310455529
 30
0.0
  0
ENDBLK
  5
8EA
330
8DD
100
AcDbEntity
  8
0
100
AcDbBlockEnd
  0
BLOCK
  5
8F6
330
8EC
100
AcDbEntity
  8
0
100
AcDbBlockBegin
  2
*D24
 70
     1
 10
0.0
 20
0.0
 30
0.0
  3
*D24
  1

  0
LINE
  5
B93
330
8EC
100
AcDbEntity
  8
SUNPOU
100
AcDbLine
 10
70.76346706689587
 20
179.6921590680179
 30
0.0
 11
70.76346706689587
 21
149.0147310455529
 31
0.0
  0
LINE
  5
B94
330
8EC
100
AcDbEntity
  8
SUNPOU
100
AcDbLine
 10
170.763467066896
 20
174.4180789632711
 30
0.0
 11
170.763467066896
 21
149.0147310455529
 31
0.0
  0
LINE
  5
B95
330
8EC
100
AcDbEntity
  8
SUNPOU
100
AcDbLine
 10
75.76346706689587
 20
151.0147310455529
 30
0.0
 11
165.763467066896
 21
151.0147310455529
 31
0.0
  0
MTEXT
  5
B96
330
8EC
100
AcDbEntity
  8
SUNPOU
100
AcDbMText
 10
120.7634670668958
 20
145.9186400048606
 30
0.0
 40
5.0
 41
0.0
 71
     5
 72
     1
  1
\A1;H
  7
SUNPOU
 11
-1.0
 21
0.0000000000000001
 31
0.0
1001
ACAD
1000
MTEXTBEGIN
1070
    73
1070
     1
1070
    44
1040
1.0
1070
    74
1070
     0
1000
MTEXTEND
1000
MTEXTBEGIN
1070
    73
1070
     1
1070
    44
1040
1.0
1070
    74
1070
     0
1000
MTEXTEND
  0
INSERT
  5
B97
330
8EC
100
AcDbEntity
  8
SUNPOU
100
AcDbBlockReference
  2
_OPEN30
 10
70.76346706689587
 20
151.0147310455529
 30
0.0
 41
5.0
 42
5.0
 43
5.0
 50
180.0
  0
INSERT
  5
B98
330
8EC
100
AcDbEntity
  8
SUNPOU
100
AcDbBlockReference
  2
_OPEN30
 10
170.763467066896
 20
151.0147310455529
 30
0.0
 41
5.0
 42
5.0
 43
5.0
  0
POINT
  5
B99
330
8EC
100
AcDbEntity
  8
DEFPOINTS
 62
     0
100
AcDbPoint
 10
70.76346706689587
 20
182.6921590680179
 30
0.0
  0
POINT
  5
B9A
330
8EC
100
AcDbEntity
  8
DEFPOINTS
 62
     0
100
AcDbPoint
 10
170.763467066896
 20
177.4180789632711
 30
0.0
  0
POINT
  5
B9B
330
8EC
100
AcDbEntity
  8
DEFPOINTS
 62
     0
100
AcDbPoint
 10
170.763467066896
 20
151.0147310455529
 30
0.0
  0
ENDBLK
  5
8F7
330
8EC
100
AcDbEntity
  8
0
100
AcDbBlockEnd
  0
BLOCK
  5
905
330
8F9
100
AcDbEntity
  8
0
100
AcDbBlockBegin
  2
*D25
 70
     1
 10
0.0
 20
0.0
 30
0.0
  3
*D25
  1

  0
LINE
  5
BA5
330
8F9
100
AcDbEntity
  8
SUNPOU
100
AcDbLine
 10
70.26346706689588
 20
225.2421590680184
 30
0.0
 11
70.26346706689588
 21
171.5915095838185
 31
0.0
  0
LINE
  5
BA6
330
8F9
100
AcDbEntity
  8
SUNPOU
100
AcDbLine
 10
70.76346706689587
 20
177.6921590680179
 30
0.0
 11
70.76346706689587
 21
171.5915095838185
 31
0.0
  0
LINE
  5
BA7
330
8F9
100
AcDbEntity
  8
SUNPOU
100
AcDbLine
 10
65.26346706689588
 20
173.5915095838185
 30
0.0
 11
60.26346706689588
 21
173.5915095838185
 31
0.0
  0
LINE
  5
BA8
330
8F9
100
AcDbEntity
  8
SUNPOU
100
AcDbLine
 10
75.76346706689587
 20
173.5915095838185
 30
0.0
 11
80.76346706689589
 21
173.5915095838185
 31
0.0
  0
MTEXT
  5
BA9
330
8F9
100
AcDbEntity
  8
SUNPOU
100
AcDbMText
 10
79.08528936592415
 20
168.9832409587531
 30
0.0
 40
5.0
 41
0.0
 71
     5
 72
     1
  1
\A1;10
  7
SUNPOU
 11
-1.0
 21
0.0000000000000001
 31
0.0
1001
ACAD
1000
MTEXTBEGIN
1070
    73
1070
     1
1070
    44
1040
1.0
1070
    74
1070
     0
1000
MTEXTEND
1000
MTEXTBEGIN
1070
    73
1070
     1
1070
    44
1040
1.0
1070
    74
1070
     0
1000
MTEXTEND
  0
LINE
  5
BAA
330
8F9
100
AcDbEntity
  8
SUNPOU
100
AcDbLine
 10
70.26346706689588
 20
173.5915095838185
 30
0.0
 11
70.76346706689587
 21
173.5915095838185
 31
0.0
  0
INSERT
  5
BAB
330
8F9
100
AcDbEntity
  8
SUNPOU
100
AcDbBlockReference
  2
_OPEN30
 10
70.26346706689588
 20
173.5915095838185
 30
0.0
 41
5.0
 42
5.0
 43
5.0
  0
INSERT
  5
BAC
330
8F9
100
AcDbEntity
  8
SUNPOU
100
AcDbBlockReference
  2
_OPEN30
 10
70.76346706689587
 20
173.5915095838185
 30
0.0
 41
5.0
 42
5.0
 43
5.0
 50
180.0
  0
POINT
  5
BAD
330
8F9
100
AcDbEntity
  8
DEFPOINTS
 62
     0
100
AcDbPoint
 10
70.26346706689588
 20
228.2421590680184
 30
0.0
  0
POINT
  5
BAE
330
8F9
100
AcDbEntity
  8
DEFPOINTS
 62
     0
100
AcDbPoint
 10
70.76346706689587
 20
180.6921590680179
 30
0.0
  0
POINT
  5
BAF
330
8F9
100
AcDbEntity
  8
DEFPOINTS
 62
     0
100
AcDbPoint
 10
70.76346706689587
 20
173.5915095838185
 30
0.0
  0
ENDBLK
  5
906
330
8F9
100
AcDbEntity
  8
0
100
AcDbBlockEnd
  0
BLOCK
  5
912
330
908
100
AcDbEntity
  8
0
100
AcDbBlockBegin
  2
*D26
 70
     1
 10
0.0
 20
0.0
 30
0.0
  3
*D26
  1

  0
LINE
  5
B9C
330
908
100
AcDbEntity
  8
SUNPOU
100
AcDbLine
 10
70.26346706689588
 20
225.2421590680184
 30
0.0
 11
70.26346706689588
 21
160.228211373504
 31
0.0
  0
LINE
  5
B9D
330
908
100
AcDbEntity
  8
SUNPOU
100
AcDbLine
 10
170.2634670668958
 20
225.2421590680184
 30
0.0
 11
170.2634670668958
 21
160.228211373504
 31
0.0
  0
LINE
  5
B9E
330
908
100
AcDbEntity
  8
SUNPOU
100
AcDbLine
 10
75.26346706689587
 20
162.228211373504
 30
0.0
 11
165.2634670668958
 21
162.228211373504
 31
0.0
  0
MTEXT
  5
B9F
330
908
100
AcDbEntity
  8
SUNPOU
100
AcDbMText
 10
120.2634670668957
 20
157.1683056612203
 30
0.0
 40
5.0
 41
0.0
 71
     5
 72
     1
  1
\A1;DH
  7
SUNPOU
 11
-1.0
 21
0.0000000000000001
 31
0.0
1001
ACAD
1000
MTEXTBEGIN
1070
    73
1070
     1
1070
    44
1040
1.0
1070
    74
1070
     0
1000
MTEXTEND
1000
MTEXTBEGIN
1070
    73
1070
     1
1070
    44
1040
1.0
1070
    74
1070
     0
1000
MTEXTEND
  0
INSERT
  5
BA0
330
908
100
AcDbEntity
  8
SUNPOU
100
AcDbBlockReference
  2
_OPEN30
 10
70.26346706689588
 20
162.228211373504
 30
0.0
 41
5.0
 42
5.0
 43
5.0
 50
180.0
  0
INSERT
  5
BA1
330
908
100
AcDbEntity
  8
SUNPOU
100
AcDbBlockReference
  2
_OPEN30
 10
170.2634670668958
 20
162.228211373504
 30
0.0
 41
5.0
 42
5.0
 43
5.0
  0
POINT
  5
BA2
330
908
100
AcDbEntity
  8
DEFPOINTS
 62
     0
100
AcDbPoint
 10
70.26346706689588
 20
228.2421590680184
 30
0.0
  0
POINT
  5
BA3
330
908
100
AcDbEntity
  8
DEFPOINTS
 62
     0
100
AcDbPoint
 10
170.2634670668958
 20
228.2421590680184
 30
0.0
  0
POINT
  5
BA4
330
908
100
AcDbEntity
  8
DEFPOINTS
 62
     0
100
AcDbPoint
 10
170.2634670668958
 20
162.228211373504
 30
0.0
  0
ENDBLK
  5
913
330
908
100
AcDbEntity
  8
0
100
AcDbBlockEnd
  0
BLOCK
  5
921
330
915
100
AcDbEntity
  8
0
100
AcDbBlockBegin
  2
*D27
 70
     1
 10
0.0
 20
0.0
 30
0.0
  3
*D27
  1

  0
LINE
  5
BB0
330
915
100
AcDbEntity
  8
SUNPOU
100
AcDbLine
 10
170.2634670668958
 20
225.2421590680184
 30
0.0
 11
170.2634670668958
 21
160.228211373504
 31
0.0
  0
LINE
  5
BB1
330
915
100
AcDbEntity
  8
SUNPOU
100
AcDbLine
 10
170.763467066896
 20
174.4180789632711
 30
0.0
 11
170.763467066896
 21
160.228211373504
 31
0.0
  0
LINE
  5
BB2
330
915
100
AcDbEntity
  8
SUNPOU
100
AcDbLine
 10
165.2634670668958
 20
162.228211373504
 30
0.0
 11
160.2634670668956
 21
162.228211373504
 31
0.0
  0
LINE
  5
BB3
330
915
100
AcDbEntity
  8
SUNPOU
100
AcDbLine
 10
175.763467066896
 20
162.228211373504
 30
0.0
 11
180.763467066896
 21
162.228211373504
 31
0.0
  0
MTEXT
  5
BB4
330
915
100
AcDbEntity
  8
SUNPOU
100
AcDbMText
 10
179.1218115700146
 20
157.6440431234834
 30
0.0
 40
5.0
 41
0.0
 71
     5
 72
     1
  1
\A1;10
  7
SUNPOU
 11
-1.0
 21
0.0000000000000001
 31
0.0
1001
ACAD
1000
MTEXTBEGIN
1070
    73
1070
     1
1070
    44
1040
1.0
1070
    74
1070
     0
1000
MTEXTEND
1000
MTEXTBEGIN
1070
    73
1070
     1
1070
    44
1040
1.0
1070
    74
1070
     0
1000
MTEXTEND
  0
LINE
  5
BB5
330
915
100
AcDbEntity
  8
SUNPOU
100
AcDbLine
 10
170.2634670668958
 20
162.228211373504
 30
0.0
 11
170.763467066896
 21
162.228211373504
 31
0.0
  0
INSERT
  5
BB6
330
915
100
AcDbEntity
  8
SUNPOU
100
AcDbBlockReference
  2
_OPEN30
 10
170.2634670668958
 20
162.228211373504
 30
0.0
 41
5.0
 42
5.0
 43
5.0
  0
INSERT
  5
BB7
330
915
100
AcDbEntity
  8
SUNPOU
100
AcDbBlockReference
  2
_OPEN30
 10
170.763467066896
 20
162.228211373504
 30
0.0
 41
5.0
 42
5.0
 43
5.0
 50
180.0
  0
POINT
  5
BB8
330
915
100
AcDbEntity
  8
DEFPOINTS
 62
     0
100
AcDbPoint
 10
170.2634670668958
 20
228.2421590680184
 30
0.0
  0
POINT
  5
BB9
330
915
100
AcDbEntity
  8
DEFPOINTS
 62
     0
100
AcDbPoint
 10
170.763467066896
 20
177.4180789632711
 30
0.0
  0
POINT
  5
BBA
330
915
100
AcDbEntity
  8
DEFPOINTS
 62
     0
100
AcDbPoint
 10
170.763467066896
 20
162.228211373504
 30
0.0
  0
ENDBLK
  5
922
330
915
100
AcDbEntity
  8
0
100
AcDbBlockEnd
  0
BLOCK
  5
A63
330
A59
100
AcDbEntity
  8
0
100
AcDbBlockBegin
  2
*D28
 70
     1
 10
0.0
 20
0.0
 30
0.0
  3
*D28
  1

  0
LINE
  5
BBB
330
A59
100
AcDbEntity
  8
SUNPOU
100
AcDbLine
 10
173.7634670668959
 20
182.6921590680184
 30
0.0
 11
185.2634670668953
 21
182.6921590680184
 31
0.0
  0
LINE
  5
BBC
330
A59
100
AcDbEntity
  8
SUNPOU
100
AcDbLine
 10
173.7634670668954
 20
362.6921590680183
 30
0.0
 11
185.2634670668954
 21
362.6921590680183
 31
0.0
  0
LINE
  5
BBD
330
A59
100
AcDbEntity
  8
SUNPOU
100
AcDbLine
 10
183.2634670668952
 20
187.6921590680184
 30
0.0
 11
183.2634670668953
 21
357.6921590680183
 31
0.0
  0
INSERT
  5
BBE
330
A59
100
AcDbEntity
  8
SUNPOU
100
AcDbBlockReference
  2
_OPEN30
 10
183.2634670668952
 20
182.6921590680184
 30
0.0
 41
5.0
 42
5.0
 43
5.0
 50
270.0
  0
INSERT
  5
BBF
330
A59
100
AcDbEntity
  8
SUNPOU
100
AcDbBlockReference
  2
_OPEN30
 10
183.2634670668953
 20
362.6921590680183
 30
0.0
 41
5.0
 42
5.0
 43
5.0
 50
90.0
  0
MTEXT
  5
BC0
330
A59
100
AcDbEntity
  8
SUNPOU
100
AcDbMText
 10
178.7634670668952
 20
272.6921590680184
 30
0.0
 40
5.0
 41
0.0
 71
     5
 72
     1
  1
\A1;W
  7
SUNPOU
 11
0.0000000000000001
 21
1.0
 31
0.0
1001
ACAD
1000
MTEXTBEGIN
1070
    73
1070
     1
1070
    44
1040
1.0
1070
    74
1070
     0
1000
MTEXTEND
1000
MTEXTBEGIN
1070
    73
1070
     1
1070
    44
1040
1.0
1070
    74
1070
     0
1000
MTEXTEND
  0
POINT
  5
BC1
330
A59
100
AcDbEntity
  8
DEFPOINTS
 62
     0
100
AcDbPoint
 10
170.7634670668959
 20
182.6921590680184
 30
0.0
  0
POINT
  5
BC2
330
A59
100
AcDbEntity
  8
DEFPOINTS
 62
     0
100
AcDbPoint
 10
170.7634670668953
 20
362.6921590680183
 30
0.0
  0
POINT
  5
BC3
330
A59
100
AcDbEntity
  8
DEFPOINTS
 62
     0
100
AcDbPoint
 10
183.2634670668953
 20
362.6921590680183
 30
0.0
  0
ENDBLK
  5
A64
330
A59
100
AcDbEntity
  8
0
100
AcDbBlockEnd
  0
ENDSEC
  0
SECTION
  2
ENTITIES
  0
LINE
  5
1A9
330
A
100
AcDbEntity
  8
06
100
AcDbLine
 10
296.0467409948543
 20
404.6921590680183
 30
0.0
 11
296.0467409948544
 21
370.9421590680183
 31
0.0
  0
LINE
  5
1AA
330
A
100
AcDbEntity
  8
06
100
AcDbLine
 10
302.0467409948543
 20
404.6921590680183
 30
0.0
 11
302.0467409948544
 21
370.9421590680183
 31
0.0
  0
LINE
  5
1AB
330
A
100
AcDbEntity
  8
06
100
AcDbLine
 10
286.0467409948542
 20
412.1921590680183
 30
0.0
 11
288.3467409948543
 21
412.1921590680183
 31
0.0
  0
LINE
  5
1AC
330
A
100
AcDbEntity
  8
06
100
AcDbLine
 10
288.3467409948543
 20
412.1921590680183
 30
0.0
 11
288.3467409948543
 21
405.1921590680183
 31
0.0
  0
LINE
  5
1AD
330
A
100
AcDbEntity
  8
06
100
AcDbLine
 10
288.3467409948543
 20
405.1921590680183
 30
0.0
 11
286.0467409948542
 21
405.1921590680183
 31
0.0
  0
LINE
  5
1AE
330
A
100
AcDbEntity
  8
06
100
AcDbLine
 10
286.0467409948542
 20
405.1921590680183
 30
0.0
 11
286.0467409948542
 21
406.0069808181943
 31
0.0
  0
LINE
  5
1AF
330
A
100
AcDbEntity
  8
06
100
AcDbLine
 10
283.0467409948541
 20
406.4421590680183
 30
0.0
 11
285.5467409948541
 21
406.4421590680183
 31
0.0
  0
ARC
  5
1B0
330
A
100
AcDbEntity
  8
06
100
AcDbCircle
 10
285.5467409948541
 20
405.9421590680183
 30
0.0
 40
0.5
100
AcDbArc
 50
359.9999999999955
 51
90.00000000000019
  0
LINE
  5
1B1
330
A
100
AcDbEntity
  8
06
100
AcDbLine
 10
286.0467409948542
 20
412.1921590680183
 30
0.0
 11
286.0467409948542
 21
411.4421590680183
 31
0.0
  0
LINE
  5
1B2
330
A
100
AcDbEntity
  8
06
100
AcDbLine
 10
283.0467409948541
 20
410.9421590680183
 30
0.0
 11
285.5467409948541
 21
410.9421590680183
 31
0.0
  0
ARC
  5
1B3
330
A
100
AcDbEntity
  8
06
100
AcDbCircle
 10
285.5467409948541
 20
411.4421590680183
 30
0.0
 40
0.5
100
AcDbArc
 50
269.9999999999999
 51
0.0000000000043965
  0
LINE
  5
1B4
330
A
100
AcDbEntity
  8
06
100
AcDbLine
 10
280.0467409948542
 20
409.7039357246885
 30
0.0
 11
280.0467409948542
 21
407.7039357246885
 31
0.0
  0
LINE
  5
1B5
330
A
100
AcDbEntity
  8
06
100
AcDbLine
 10
278.0467409948542
 20
408.6965311813838
 30
0.0
 11
278.0467409948542
 21
408.7113402679936
 31
0.0
  0
LINE
  5
1B6
330
A
100
AcDbEntity
  8
06
100
AcDbLine
 10
280.0467409948542
 20
409.7039357246885
 30
0.0
 11
278.3976034982861
 21
409.1885802570111
 31
0.0
  0
ARC
  5
1B7
330
A
100
AcDbEntity
  8
06
100
AcDbCircle
 10
278.5467409948543
 20
408.7113402679936
 30
0.0
 40
0.5
100
AcDbArc
 50
107.3540246362629
 51
179.9999999999766
  0
LINE
  5
1B8
330
A
100
AcDbEntity
  8
06
100
AcDbLine
 10
280.0467409948542
 20
407.7039357246885
 30
0.0
 11
278.3976034982861
 21
408.2192911923661
 31
0.0
  0
ARC
  5
1B9
330
A
100
AcDbEntity
  8
06
100
AcDbCircle
 10
278.5467409948543
 20
408.6965311813838
 30
0.0
 40
0.5
100
AcDbArc
 50
179.9999999999789
 51
252.6459753637345
  0
LINE
  5
1BA
330
A
100
AcDbEntity
  8
06
100
AcDbLine
 10
278.5467409948543
 20
409.2351857246884
 30
0.0
 11
278.5467409948543
 21
408.172685724689
 31
0.0
  0
ARC
  5
1BB
330
A
100
AcDbEntity
  8
06
100
AcDbCircle
 10
277.6668888312193
 20
401.2165308093845
 30
0.0
 40
7.5
100
AcDbArc
 50
44.16686885306776
 51
71.49945832719547
  0
ARC
  5
1BC
330
A
100
AcDbEntity
  8
06
100
AcDbCircle
 10
277.7009799322263
 20
416.2026570160547
 30
0.0
 40
7.5
100
AcDbArc
 50
288.2261310017247
 51
315.4605876000506
  0
LINE
  5
1BD
330
A
100
AcDbEntity
  8
03
100
AcDbLine
 10
247.0467409948541
 20
438.6921590680182
 30
0.0
 11
253.0467409948542
 21
438.6921590680183
 31
0.0
  0
LINE
  5
1BE
330
A
100
AcDbEntity
  8
03
100
AcDbLine
 10
253.0467409948542
 20
438.6921590680183
 30
0.0
 11
253.046740994854
 21
479.1875045152091
 31
0.0
  0
LINE
  5
1BF
330
A
100
AcDbEntity
  8
03
100
AcDbLine
 10
247.046740994854
 20
438.6921590680182
 30
0.0
 11
247.046740994854
 21
479.1875045152091
 31
0.0
  0
LINE
  5
1C0
330
A
100
AcDbEntity
  8
03
100
AcDbLine
 10
247.546740994854
 20
438.6921590680182
 30
0.0
 11
247.546740994854
 21
479.1875045152091
 31
0.0
  0
LINE
  5
1C1
330
A
100
AcDbEntity
  8
03
100
AcDbLine
 10
252.5467409948542
 20
438.6921590680183
 30
0.0
 11
252.546740994854
 21
479.1875045152091
 31
0.0
  0
LINE
  5
1C2
330
A
100
AcDbEntity
  8
06
100
AcDbLine
 10
301.6881883486021
 20
404.6921590680181
 30
0.0
 11
301.6881883486023
 21
370.9421590680183
 31
0.0
  0
LINE
  5
1C3
330
A
100
AcDbEntity
  8
06
100
AcDbLine
 10
283.4892876627037
 20
396.1347057358676
 30
0.0
 11
284.5467409948543
 21
397.1921590680183
 31
0.0
  0
LINE
  5
1C4
330
A
100
AcDbEntity
  8
06
100
AcDbLine
 10
283.5534698853202
 20
420.1854301775521
 30
0.0
 11
284.5467409948541
 21
419.1921590680183
 31
0.0
  0
LINE
  5
1C5
330
A
100
AcDbEntity
  8
06
100
AcDbLine
 10
314.50792099308
 20
420.1533390662439
 30
0.0
 11
313.5467409948542
 21
419.1921590680183
 31
0.0
  0
LINE
  5
1C6
330
A
100
AcDbEntity
  8
06
100
AcDbLine
 10
314.5400121043882
 20
396.1988879584843
 30
0.0
 11
313.5467409948542
 21
397.1921590680183
 31
0.0
  0
ARC
  5
1D7
330
A
100
AcDbEntity
  8
06
100
AcDbCircle
 10
295.0467409948543
 20
392.8637319432721
 30
0.0
 40
3.0
100
AcDbArc
 50
70.52877936550924
 51
109.4712206344908
  0
ARC
  5
1D8
330
A
100
AcDbEntity
  8
06
100
AcDbCircle
 10
303.0467409948542
 20
392.8637319432721
 30
0.0
 40
3.0
100
AcDbArc
 50
70.52877936550955
 51
109.471220634491
  0
LINE
  5
1D9
330
A
100
AcDbEntity
  8
06
100
AcDbLine
 10
296.0467409948543
 20
404.6921590680183
 30
0.0
 11
302.0467409948543
 21
404.6921590680183
 31
0.0
  0
LINE
  5
1DA
330
A
100
AcDbEntity
  8
06
100
AcDbLine
 10
296.5467409948542
 20
404.6921590680181
 30
0.0
 11
296.5467409948544
 21
370.9421590680183
 31
0.0
  0
LINE
  5
1DB
330
A
100
AcDbEntity
  8
03
100
AcDbLine
 10
225.1467409948542
 20
429.0921590680182
 30
0.0
 11
274.9467409948544
 21
429.0921590680183
 31
0.0
  0
ARC
  5
1DC
330
A
100
AcDbEntity
  8
03
100
AcDbCircle
 10
274.9467409948543
 20
430.6921590680182
 30
0.0
 40
1.599999999999999
100
AcDbArc
 50
269.9999999999999
 51
0.0
  0
ARC
  5
1DD
330
A
100
AcDbEntity
  8
03
100
AcDbCircle
 10
225.1467409948542
 20
430.6921590680181
 30
0.0
 40
1.599999999999999
100
AcDbArc
 50
180.0000000000001
 51
269.9999999999999
  0
LINE
  5
1DE
330
A
100
AcDbEntity
  8
03
100
AcDbLine
 10
225.1467409948541
 20
444.192159068018
 30
0.0
 11
225.1467409948542
 21
430.6921590680181
 31
0.0
  0
LINE
  5
1DF
330
A
100
AcDbEntity
  8
03
100
AcDbLine
 10
274.9467409948543
 20
430.6921590680182
 30
0.0
 11
274.9467409948542
 21
444.1921590680181
 31
0.0
  0
LINE
  5
1E0
330
A
100
AcDbEntity
  8
03
100
AcDbLine
 10
225.1467409948542
 20
430.6921590680181
 30
0.0
 11
274.9467409948543
 21
430.6921590680182
 31
0.0
  0
ARC
  5
1E1
330
A
100
AcDbEntity
  8
03
100
AcDbCircle
 10
255.5467409948541
 20
454.6246174335366
 30
0.0
 40
10.0
100
AcDbArc
 50
255.52248781407
 51
284.4775121859298
  0
ARC
  5
1E2
330
A
100
AcDbEntity
  8
03
100
AcDbCircle
 10
244.5467409948542
 20
454.6246174335366
 30
0.0
 40
10.0
100
AcDbArc
 50
255.52248781407
 51
284.4775121859298
  0
LINE
  5
1E3
330
A
100
AcDbEntity
  8
06
100
AcDbLine
 10
302.0467409948545
 20
298.6921590680184
 30
0.0
 11
296.0467409948545
 21
298.6921590680184
 31
0.0
  0
LINE
  5
1E4
330
A
100
AcDbEntity
  8
06
100
AcDbLine
 10
289.5467409948545
 20
308.6921590680184
 30
0.0
 11
289.5467409948545
 21
306.6921590680184
 31
0.0
  0
LINE
  5
1E5
330
A
100
AcDbEntity
  8
06
100
AcDbLine
 10
289.5467409948545
 20
308.6921590680183
 30
0.0
 11
292.0467409948545
 21
308.6921590680184
 31
0.0
  0
LINE
  5
1E6
330
A
100
AcDbEntity
  8
06
100
AcDbLine
 10
292.5467409948544
 20
312.6921590680183
 30
0.0
 11
292.5467409948545
 21
309.1921590680184
 31
0.0
  0
ARC
  5
1E7
330
A
100
AcDbEntity
  8
06
100
AcDbCircle
 10
292.0467409948545
 20
309.1921590680184
 30
0.0
 40
0.5
100
AcDbArc
 50
270.0000000000007
 51
0.0
  0
ARC
  5
1E8
330
A
100
AcDbEntity
  8
06
100
AcDbCircle
 10
292.0467409948544
 20
312.6921590680183
 30
0.0
 40
0.5
100
AcDbArc
 50
0.0000000000000241
 51
90.00000000000019
  0
LINE
  5
1E9
330
A
100
AcDbEntity
  8
06
100
AcDbLine
 10
292.15326004047
 20
313.1921590680184
 30
0.0
 11
288.5467409948545
 21
313.1921590680184
 31
0.0
  0
LINE
  5
1EA
330
A
100
AcDbEntity
  8
06
100
AcDbLine
 10
288.5467409948546
 20
313.1921590680183
 30
0.0
 11
288.5467409948546
 21
315.1921590680184
 31
0.0
  0
LINE
  5
1EB
330
A
100
AcDbEntity
  8
06
100
AcDbLine
 10
289.0467409948545
 20
315.6921590680183
 30
0.0
 11
294.623177450663
 21
315.6921590680183
 31
0.0
  0
ARC
  5
1EC
330
A
100
AcDbEntity
  8
06
100
AcDbCircle
 10
289.0467409948545
 20
315.1921590680184
 30
0.0
 40
0.5
100
AcDbArc
 50
90.00000000000019
 51
179.999999999999
  0
LINE
  5
1ED
330
A
100
AcDbEntity
  8
06
100
AcDbLine
 10
308.5467409948545
 20
306.6921590680184
 30
0.0
 11
308.5467409948545
 21
308.6921590680183
 31
0.0
  0
LINE
  5
1EE
330
A
100
AcDbEntity
  8
06
100
AcDbLine
 10
289.5467409948545
 20
306.6921590680184
 30
0.0
 11
308.5467409948545
 21
306.6921590680184
 31
0.0
  0
LINE
  5
1EF
330
A
100
AcDbEntity
  8
06
100
AcDbLine
 10
308.5467409948545
 20
308.6921590680184
 30
0.0
 11
306.0467409948545
 21
308.6921590680185
 31
0.0
  0
LINE
  5
1F0
330
A
100
AcDbEntity
  8
06
100
AcDbLine
 10
305.5467409948545
 20
312.6921590680183
 30
0.0
 11
305.5467409948545
 21
309.1921590680184
 31
0.0
  0
ARC
  5
1F1
330
A
100
AcDbEntity
  8
06
100
AcDbCircle
 10
306.0467409948545
 20
309.1921590680184
 30
0.0
 40
0.5
100
AcDbArc
 50
180.0000000000001
 51
269.9999999999999
  0
LINE
  5
1F2
330
A
100
AcDbEntity
  8
06
100
AcDbLine
 10
309.5467409948545
 20
313.1921590680183
 30
0.0
 11
306.0467409948544
 21
313.1921590680184
 31
0.0
  0
ARC
  5
1F3
330
A
100
AcDbEntity
  8
06
100
AcDbCircle
 10
306.0467409948545
 20
312.6921590680183
 30
0.0
 40
0.5
100
AcDbArc
 50
90.00000000000019
 51
179.9999999999999
  0
LINE
  5
1F4
330
A
100
AcDbEntity
  8
06
100
AcDbLine
 10
309.5467409948544
 20
313.1921590680184
 30
0.0
 11
309.5467409948546
 21
315.1921590680184
 31
0.0
  0
ARC
  5
1F5
330
A
100
AcDbEntity
  8
06
100
AcDbCircle
 10
309.0467409948546
 20
315.1921590680184
 30
0.0
 40
0.5
100
AcDbArc
 50
359.9999999999983
 51
90.00000000000019
  0
LINE
  5
1F6
330
A
100
AcDbEntity
  8
06
100
AcDbLine
 10
304.0467409948545
 20
315.1921590680184
 30
0.0
 11
304.0467409948544
 21
310.6921590680183
 31
0.0
  0
ARC
  5
1F7
330
A
100
AcDbEntity
  8
06
100
AcDbCircle
 10
304.5467409948545
 20
315.1921590680184
 30
0.0
 40
0.5
100
AcDbArc
 50
90.00000000000019
 51
180.0000000000001
  0
LINE
  5
1F8
330
A
100
AcDbEntity
  8
06
100
AcDbLine
 10
299.4347546130713
 20
309.6921590680183
 30
0.0
 11
303.0467409948544
 21
309.6921590680183
 31
0.0
  0
ARC
  5
1F9
330
A
100
AcDbEntity
  8
06
100
AcDbCircle
 10
303.0467409948544
 20
310.6921590680183
 30
0.0
 40
1.0
100
AcDbArc
 50
269.999999999999
 51
0.0
  0
LINE
  5
1FA
330
A
100
AcDbEntity
  8
06
100
AcDbLine
 10
296.4320863111419
 20
320.1921590680185
 30
0.0
 11
296.6307307811918
 21
320.1921590680185
 31
0.0
  0
LINE
  5
1FB
330
A
100
AcDbEntity
  8
06
100
AcDbLine
 10
295.1163744125791
 20
316.1099595743657
 30
0.0
 11
295.6922908682676
 21
319.5654583084975
 31
0.0
  0
ARC
  5
1FC
330
A
100
AcDbEntity
  8
06
100
AcDbCircle
 10
296.4320863111419
 20
319.4421590680184
 30
0.0
 40
0.75
100
AcDbArc
 50
90.00000000000019
 51
170.5376777919743
  0
ARC
  5
1FD
330
A
100
AcDbEntity
  8
06
100
AcDbCircle
 10
294.623177450663
 20
316.1921590680183
 30
0.0
 40
0.5
100
AcDbArc
 50
269.9999999999999
 51
350.5376777919749
  0
LINE
  5
1FE
330
A
100
AcDbEntity
  8
06
100
AcDbLine
 10
297.3754719868379
 20
319.5308187353573
 30
0.0
 11
298.4417663388764
 21
310.5739461782333
 31
0.0
  0
ARC
  5
1FF
330
A
100
AcDbEntity
  8
06
100
AcDbCircle
 10
299.4347546130715
 20
310.6921590680183
 30
0.0
 40
1.0
100
AcDbArc
 50
186.7889745744388
 51
269.9999999999999
  0
ARC
  5
200
330
A
100
AcDbEntity
  8
06
100
AcDbCircle
 10
296.6307307811918
 20
319.4421590680184
 30
0.0
 40
0.75
100
AcDbArc
 50
6.788974574438784
 51
97.61001495472534
  0
LINE
  5
201
330
A
100
AcDbEntity
  8
06
100
AcDbLine
 10
308.5927180063487
 20
322.6921590680183
 30
0.0
 11
308.5927180063486
 21
324.6921590680183
 31
0.0
  0
LINE
  5
202
330
A
100
AcDbEntity
  8
06
100
AcDbLine
 10
308.5927180063487
 20
322.6921590680183
 30
0.0
 11
306.0927180063487
 21
322.6921590680183
 31
0.0
  0
LINE
  5
203
330
A
100
AcDbEntity
  8
06
100
AcDbLine
 10
305.5927180063487
 20
318.6921590680183
 30
0.0
 11
305.5927180063487
 21
322.1921590680183
 31
0.0
  0
ARC
  5
204
330
A
100
AcDbEntity
  8
06
100
AcDbCircle
 10
306.0927180063487
 20
322.1921590680183
 30
0.0
 40
0.5
100
AcDbArc
 50
90.00000000000019
 51
180.0
  0
ARC
  5
205
330
A
100
AcDbEntity
  8
06
100
AcDbCircle
 10
306.0927180063487
 20
318.6921590680183
 30
0.0
 40
0.5
100
AcDbArc
 50
180.0000000000009
 51
269.9999999999999
  0
LINE
  5
206
330
A
100
AcDbEntity
  8
06
100
AcDbLine
 10
306.0927180063487
 20
318.1921590680183
 30
0.0
 11
309.5927180063487
 21
318.1921590680183
 31
0.0
  0
LINE
  5
207
330
A
100
AcDbEntity
  8
06
100
AcDbLine
 10
309.5927180063487
 20
318.1921590680183
 30
0.0
 11
309.5927180063486
 21
316.1921590680183
 31
0.0
  0
LINE
  5
208
330
A
100
AcDbEntity
  8
06
100
AcDbLine
 10
309.0927180063486
 20
315.6921590680183
 30
0.0
 11
303.5162815505402
 21
315.6921590680183
 31
0.0
  0
ARC
  5
209
330
A
100
AcDbEntity
  8
06
100
AcDbCircle
 10
309.0927180063486
 20
316.1921590680183
 30
0.0
 40
0.5
100
AcDbArc
 50
269.9999999999999
 51
359.9999999999987
  0
LINE
  5
20A
330
A
100
AcDbEntity
  8
06
100
AcDbLine
 10
289.5927180063486
 20
324.6921590680183
 30
0.0
 11
289.5927180063487
 21
322.6921590680183
 31
0.0
  0
LINE
  5
20B
330
A
100
AcDbEntity
  8
06
100
AcDbLine
 10
308.5927180063487
 20
324.6921590680183
 30
0.0
 11
289.5927180063486
 21
324.6921590680183
 31
0.0
  0
LINE
  5
20C
330
A
100
AcDbEntity
  8
06
100
AcDbLine
 10
289.5927180063487
 20
322.6921590680183
 30
0.0
 11
292.0927180063488
 21
322.6921590680183
 31
0.0
  0
LINE
  5
20D
330
A
100
AcDbEntity
  8
06
100
AcDbLine
 10
292.5927180063487
 20
318.6921590680183
 30
0.0
 11
292.5927180063487
 21
322.1921590680183
 31
0.0
  0
ARC
  5
20E
330
A
100
AcDbEntity
  8
06
100
AcDbCircle
 10
292.0927180063488
 20
322.1921590680183
 30
0.0
 40
0.5
100
AcDbArc
 50
0.0000000000000241
 51
90.00000000000012
  0
LINE
  5
20F
330
A
100
AcDbEntity
  8
06
100
AcDbLine
 10
288.5927180063486
 20
318.1921590680183
 30
0.0
 11
292.0927180063488
 21
318.1921590680183
 31
0.0
  0
ARC
  5
210
330
A
100
AcDbEntity
  8
06
100
AcDbCircle
 10
292.0927180063488
 20
318.6921590680183
 30
0.0
 40
0.5
100
AcDbArc
 50
269.9999999999999
 51
0.0
  0
LINE
  5
211
330
A
100
AcDbEntity
  8
06
100
AcDbLine
 10
288.5927180063486
 20
318.1921590680183
 30
0.0
 11
288.5927180063486
 21
316.1921590680183
 31
0.0
  0
ARC
  5
212
330
A
100
AcDbEntity
  8
06
100
AcDbCircle
 10
289.0927180063485
 20
316.1921590680182
 30
0.0
 40
0.5
100
AcDbArc
 50
179.999999999998
 51
269.9999999999999
  0
LINE
  5
213
330
A
100
AcDbEntity
  8
06
100
AcDbLine
 10
294.0927180063487
 20
316.1921590680183
 30
0.0
 11
294.0927180063487
 21
320.6921590680183
 31
0.0
  0
ARC
  5
214
330
A
100
AcDbEntity
  8
06
100
AcDbCircle
 10
293.5927180063487
 20
316.1921590680183
 30
0.0
 40
0.5
100
AcDbArc
 50
269.9999999999999
 51
0.0
  0
LINE
  5
215
330
A
100
AcDbEntity
  8
06
100
AcDbLine
 10
298.7047043881318
 20
321.6921590680183
 30
0.0
 11
295.0927180063487
 21
321.6921590680184
 31
0.0
  0
ARC
  5
216
330
A
100
AcDbEntity
  8
06
100
AcDbCircle
 10
295.0927180063487
 20
320.6921590680183
 30
0.0
 40
1.0
100
AcDbArc
 50
89.99999999999873
 51
180.0
  0
LINE
  5
217
330
A
100
AcDbEntity
  8
06
100
AcDbLine
 10
301.7073726900612
 20
311.1921590680182
 30
0.0
 11
301.5087282200115
 21
311.1921590680182
 31
0.0
  0
LINE
  5
218
330
A
100
AcDbEntity
  8
06
100
AcDbLine
 10
303.0230845886242
 20
315.2743585616709
 30
0.0
 11
302.4471681329354
 21
311.8188598275391
 31
0.0
  0
ARC
  5
219
330
A
100
AcDbEntity
  8
06
100
AcDbCircle
 10
301.7073726900612
 20
311.9421590680182
 30
0.0
 40
0.75
100
AcDbArc
 50
269.9999999999999
 51
350.5376777919744
  0
ARC
  5
21A
330
A
100
AcDbEntity
  8
06
100
AcDbCircle
 10
303.5162815505402
 20
315.1921590680184
 30
0.0
 40
0.5
100
AcDbArc
 50
90.00000000000019
 51
170.5376777919745
  0
LINE
  5
21B
330
A
100
AcDbEntity
  8
06
100
AcDbLine
 10
300.7639870143651
 20
311.8534994006793
 30
0.0
 11
299.6976926623267
 21
320.8103719578033
 31
0.0
  0
ARC
  5
21C
330
A
100
AcDbEntity
  8
06
100
AcDbCircle
 10
298.7047043881318
 20
320.6921590680183
 30
0.0
 40
1.0
100
AcDbArc
 50
6.788974574438679
 51
90.00000000000012
  0
ARC
  5
21D
330
A
100
AcDbEntity
  8
06
100
AcDbCircle
 10
301.5087282200115
 20
311.9421590680182
 30
0.0
 40
0.75
100
AcDbArc
 50
186.7889745744388
 51
277.6100149547251
  0
LINE
  5
21E
330
A
100
AcDbEntity
  8
06
100
AcDbLine
 10
302.0467409948545
 20
298.6921590680184
 30
0.0
 11
302.0467409948546
 21
263.4421590680186
 31
0.0
  0
LINE
  5
21F
330
A
100
AcDbEntity
  8
06
100
AcDbLine
 10
296.0467409948545
 20
298.6921590680184
 30
0.0
 11
296.0467409948546
 21
263.4421590680186
 31
0.0
  0
LINE
  5
220
330
A
100
AcDbEntity
  8
06
100
AcDbLine
 10
296.5467409948545
 20
298.6921590680184
 30
0.0
 11
296.5467409948546
 21
263.4421590680186
 31
0.0
  0
LINE
  5
221
330
A
100
AcDbEntity
  8
06
100
AcDbLine
 10
301.5467409948545
 20
298.6921590680184
 30
0.0
 11
301.5467409948546
 21
263.4421590680186
 31
0.0
  0
LINE
  5
222
330
A
100
AcDbEntity
  8
06
100
AcDbLine
 10
296.0467409948544
 20
332.6921590680182
 30
0.0
 11
302.0467409948545
 21
332.6921590680183
 31
0.0
  0
LINE
  5
223
330
A
100
AcDbEntity
  8
06
100
AcDbLine
 10
302.0467409948545
 20
332.6921590680183
 30
0.0
 11
302.0467409948544
 21
367.9421590680183
 31
0.0
  0
LINE
  5
224
330
A
100
AcDbEntity
  8
06
100
AcDbLine
 10
301.5467409948544
 20
367.9421590680183
 30
0.0
 11
301.5467409948545
 21
332.6921590680183
 31
0.0
  0
LINE
  5
225
330
A
100
AcDbEntity
  8
06
100
AcDbLine
 10
296.5467409948545
 20
332.6921590680183
 30
0.0
 11
296.5467409948544
 21
367.9421590680183
 31
0.0
  0
LINE
  5
226
330
A
100
AcDbEntity
  8
06
100
AcDbLine
 10
296.0467409948544
 20
367.9421590680183
 30
0.0
 11
296.0467409948545
 21
332.6921590680183
 31
0.0
  0
LINE
  5
227
330
A
100
AcDbEntity
  8
06
100
AcDbLine
 10
283.5835167988714
 20
342.655383264001
 30
0.0
 11
284.5467409948544
 21
341.6921590680183
 31
0.0
  0
LINE
  5
228
330
A
100
AcDbEntity
  8
06
100
AcDbLine
 10
283.5478930696581
 20
318.6933111428221
 30
0.0
 11
284.5467409948544
 21
319.6921590680183
 31
0.0
  0
LINE
  5
229
330
A
100
AcDbEntity
  8
06
100
AcDbLine
 10
283.5120142018291
 20
312.7268858610436
 30
0.0
 11
284.5467409948545
 21
311.6921590680183
 31
0.0
  0
LINE
  5
22A
330
A
100
AcDbEntity
  8
06
100
AcDbLine
 10
283.5120142018291
 20
288.6574322749929
 30
0.0
 11
284.5467409948545
 21
289.6921590680183
 31
0.0
  0
LINE
  5
22B
330
A
100
AcDbEntity
  8
06
100
AcDbLine
 10
314.5455889200507
 20
312.6910069932146
 30
0.0
 11
313.5467409948545
 21
311.6921590680183
 31
0.0
  0
LINE
  5
22C
330
A
100
AcDbEntity
  8
06
100
AcDbLine
 10
314.5455889200508
 20
288.693311142822
 30
0.0
 11
313.5467409948546
 21
289.6921590680183
 31
0.0
  0
LINE
  5
22D
330
A
100
AcDbEntity
  8
06
100
AcDbLine
 10
314.5814677878798
 20
318.6574322749931
 30
0.0
 11
313.5467409948545
 21
319.6921590680183
 31
0.0
  0
LINE
  5
22E
330
A
100
AcDbEntity
  8
06
100
AcDbLine
 10
314.5814677878796
 20
342.7268858610438
 30
0.0
 11
313.5467409948544
 21
341.6921590680183
 31
0.0
  0
ARC
  5
27F
330
A
100
AcDbEntity
  8
06
100
AcDbCircle
 10
295.0467409948545
 20
285.3637319432721
 30
0.0
 40
3.0
100
AcDbArc
 50
70.52877936550792
 51
109.4712206344891
  0
ARC
  5
280
330
A
100
AcDbEntity
  8
06
100
AcDbCircle
 10
303.0467409948545
 20
285.3637319432721
 30
0.0
 40
3.0
100
AcDbArc
 50
70.5287793655075
 51
109.4712206344895
  0
ARC
  5
281
330
A
100
AcDbEntity
  8
06
100
AcDbCircle
 10
295.0467409948543
 20
346.0205861927645
 30
0.0
 40
3.0
100
AcDbArc
 50
250.5287793655109
 51
289.4712206344919
  0
ARC
  5
282
330
A
100
AcDbEntity
  8
06
100
AcDbCircle
 10
303.0467409948542
 20
346.0205861927645
 30
0.0
 40
3.0
100
AcDbArc
 50
250.5287793655104
 51
289.4712206344923
  0
LINE
  5
283
330
A
100
AcDbEntity
  8
06
100
AcDbLine
 10
278.0467409948546
 20
222.6877869546528
 30
0.0
 11
278.0467409948546
 21
222.6729778680429
 31
0.0
  0
LINE
  5
284
330
A
100
AcDbEntity
  8
03
100
AcDbLine
 10
247.0467409948545
 20
192.6921590680185
 30
0.0
 11
253.0467409948546
 21
192.6921590680186
 31
0.0
  0
LINE
  5
285
330
A
100
AcDbEntity
  8
03
100
AcDbLine
 10
253.0467409948546
 20
192.6921590680186
 30
0.0
 11
253.0467409948546
 21
159.6921590680183
 31
0.0
  0
LINE
  5
286
330
A
100
AcDbEntity
  8
03
100
AcDbLine
 10
247.0467409948545
 20
192.6921590680185
 30
0.0
 11
247.0467409948546
 21
159.6921590680183
 31
0.0
  0
LINE
  5
287
330
A
100
AcDbEntity
  8
03
100
AcDbLine
 10
247.5467409948547
 20
192.6921590680185
 30
0.0
 11
247.5467409948548
 21
159.6921590680183
 31
0.0
  0
LINE
  5
288
330
A
100
AcDbEntity
  8
03
100
AcDbLine
 10
252.5467409948547
 20
192.6921590680186
 30
0.0
 11
252.5467409948547
 21
159.6921590680183
 31
0.0
  0
LINE
  5
289
330
A
100
AcDbEntity
  8
03
100
AcDbLine
 10
225.1467409948545
 20
202.2921590680184
 30
0.0
 11
274.9467409948546
 21
202.2921590680184
 31
0.0
  0
ARC
  5
28A
330
A
100
AcDbEntity
  8
03
100
AcDbCircle
 10
274.9467409948546
 20
200.6921590680186
 30
0.0
 40
1.599999999999999
100
AcDbArc
 50
0.000000000000075
 51
90.00000000000019
  0
ARC
  5
28B
330
A
100
AcDbEntity
  8
03
100
AcDbCircle
 10
225.1467409948545
 20
200.6921590680184
 30
0.0
 40
1.599999999999999
100
AcDbArc
 50
90.00000000000019
 51
180.0000000000001
  0
LINE
  5
28C
330
A
100
AcDbEntity
  8
03
100
AcDbLine
 10
225.1467409948545
 20
187.1921590680184
 30
0.0
 11
225.1467409948545
 21
200.6921590680184
 31
0.0
  0
LINE
  5
28D
330
A
100
AcDbEntity
  8
03
100
AcDbLine
 10
274.9467409948546
 20
200.6921590680186
 30
0.0
 11
274.9467409948548
 21
187.1921590680186
 31
0.0
  0
LINE
  5
28E
330
A
100
AcDbEntity
  8
03
100
AcDbLine
 10
225.1467409948545
 20
200.6921590680184
 30
0.0
 11
274.9467409948546
 21
200.6921590680186
 31
0.0
  0
ARC
  5
28F
330
A
100
AcDbEntity
  8
03
100
AcDbCircle
 10
255.5467409948547
 20
176.7597007025002
 30
0.0
 40
10.0
100
AcDbArc
 50
75.52248781407008
 51
104.47751218593
  0
ARC
  5
290
330
A
100
AcDbEntity
  8
03
100
AcDbCircle
 10
244.5467409948546
 20
176.7597007025
 30
0.0
 40
10.0
100
AcDbArc
 50
75.52248781407008
 51
104.47751218593
  0
LINE
  5
291
330
A
100
AcDbEntity
  8
03
100
AcDbLine
 10
247.0467409948548
 20
123.6921590680184
 30
0.0
 11
253.0467409948548
 21
123.6921590680184
 31
0.0
  0
LINE
  5
292
330
A
100
AcDbEntity
  8
03
100
AcDbLine
 10
253.0467409948548
 20
123.6921590680184
 30
0.0
 11
253.0467409948546
 21
156.6921590680183
 31
0.0
  0
LINE
  5
293
330
A
100
AcDbEntity
  8
03
100
AcDbLine
 10
247.0467409948548
 20
123.6921590680184
 30
0.0
 11
247.0467409948548
 21
156.6921590680183
 31
0.0
  0
LINE
  5
294
330
A
100
AcDbEntity
  8
03
100
AcDbLine
 10
247.5467409948548
 20
123.6921590680184
 30
0.0
 11
247.5467409948548
 21
156.6921590680183
 31
0.0
  0
LINE
  5
295
330
A
100
AcDbEntity
  8
03
100
AcDbLine
 10
252.5467409948548
 20
123.6921590680184
 30
0.0
 11
252.5467409948548
 21
156.6921590680183
 31
0.0
  0
ARC
  5
296
330
A
100
AcDbEntity
  8
03
100
AcDbCircle
 10
255.5467409948548
 20
139.6246174335369
 30
0.0
 40
10.0
100
AcDbArc
 50
255.52248781407
 51
284.4775121859298
  0
ARC
  5
297
330
A
100
AcDbEntity
  8
03
100
AcDbCircle
 10
244.5467409948548
 20
139.6246174335368
 30
0.0
 40
10.0
100
AcDbArc
 50
255.52248781407
 51
284.4775121859298
  0
LINE
  5
298
330
A
100
AcDbEntity
  8
03
100
AcDbLine
 10
247.046740994854
 20
507.6921590680183
 30
0.0
 11
253.046740994854
 21
507.6921590680185
 31
0.0
  0
LINE
  5
299
330
A
100
AcDbEntity
  8
03
100
AcDbLine
 10
253.046740994854
 20
507.6921590680185
 30
0.0
 11
253.046740994854
 21
482.1875045152092
 31
0.0
  0
LINE
  5
29A
330
A
100
AcDbEntity
  8
03
100
AcDbLine
 10
247.046740994854
 20
507.6921590680183
 30
0.0
 11
247.046740994854
 21
482.1875045152092
 31
0.0
  0
LINE
  5
29B
330
A
100
AcDbEntity
  8
03
100
AcDbLine
 10
247.546740994854
 20
507.6921590680183
 30
0.0
 11
247.546740994854
 21
482.1875045152092
 31
0.0
  0
LINE
  5
29C
330
A
100
AcDbEntity
  8
03
100
AcDbLine
 10
252.546740994854
 20
507.6921590680185
 30
0.0
 11
252.546740994854
 21
482.1875045152092
 31
0.0
  0
ARC
  5
29D
330
A
100
AcDbEntity
  8
03
100
AcDbCircle
 10
255.546740994854
 20
491.7597007025001
 30
0.0
 40
10.0
100
AcDbArc
 50
75.52248781407008
 51
104.47751218593
  0
ARC
  5
29E
330
A
100
AcDbEntity
  8
03
100
AcDbCircle
 10
244.546740994854
 20
491.7597007025
 30
0.0
 40
10.0
100
AcDbArc
 50
75.52248781407008
 51
104.47751218593
  0
LINE
  5
29F
330
A
100
AcDbEntity
  8
06
100
AcDbLine
 10
296.0467409948546
 20
226.6921590680186
 30
0.0
 11
296.0467409948546
 21
260.4421590680186
 31
0.0
  0
LINE
  5
2A0
330
A
100
AcDbEntity
  8
06
100
AcDbLine
 10
302.0467409948546
 20
226.6921590680186
 30
0.0
 11
302.0467409948546
 21
260.4421590680185
 31
0.0
  0
LINE
  5
2A1
330
A
100
AcDbEntity
  8
06
100
AcDbLine
 10
286.0467409948546
 20
219.1921590680186
 30
0.0
 11
288.3467409948548
 21
219.1921590680186
 31
0.0
  0
LINE
  5
2A2
330
A
100
AcDbEntity
  8
06
100
AcDbLine
 10
288.3467409948548
 20
219.1921590680186
 30
0.0
 11
288.3467409948548
 21
226.1921590680186
 31
0.0
  0
LINE
  5
2A3
330
A
100
AcDbEntity
  8
06
100
AcDbLine
 10
288.3467409948548
 20
226.1921590680186
 30
0.0
 11
286.0467409948546
 21
226.1921590680186
 31
0.0
  0
LINE
  5
2A4
330
A
100
AcDbEntity
  8
06
100
AcDbLine
 10
286.0467409948546
 20
226.1921590680186
 30
0.0
 11
286.0467409948546
 21
225.3773373178423
 31
0.0
  0
LINE
  5
2A5
330
A
100
AcDbEntity
  8
06
100
AcDbLine
 10
283.0467409948547
 20
224.9421590680185
 30
0.0
 11
285.5467409948547
 21
224.9421590680185
 31
0.0
  0
ARC
  5
2A6
330
A
100
AcDbEntity
  8
06
100
AcDbCircle
 10
285.5467409948547
 20
225.4421590680186
 30
0.0
 40
0.5
100
AcDbArc
 50
269.9999999999999
 51
0.0000000000047962
  0
LINE
  5
2A7
330
A
100
AcDbEntity
  8
06
100
AcDbLine
 10
286.0467409948546
 20
219.1921590680186
 30
0.0
 11
286.0467409948546
 21
219.9421590680186
 31
0.0
  0
LINE
  5
2A8
330
A
100
AcDbEntity
  8
06
100
AcDbLine
 10
283.0467409948546
 20
220.4421590680185
 30
0.0
 11
285.5467409948546
 21
220.4421590680186
 31
0.0
  0
ARC
  5
2A9
330
A
100
AcDbEntity
  8
06
100
AcDbCircle
 10
285.5467409948546
 20
219.9421590680186
 30
0.0
 40
0.5
100
AcDbArc
 50
359.9999999999959
 51
90.00000000000019
  0
LINE
  5
2AA
330
A
100
AcDbEntity
  8
06
100
AcDbLine
 10
280.0467409948545
 20
221.6803824113483
 30
0.0
 11
280.0467409948547
 21
223.6803824113483
 31
0.0
  0
LINE
  5
2AB
330
A
100
AcDbEntity
  8
06
100
AcDbLine
 10
278.0467409948546
 20
222.6877869546528
 30
0.0
 11
278.0467409948546
 21
222.672977868043
 31
0.0
  0
LINE
  5
2AC
330
A
100
AcDbEntity
  8
06
100
AcDbLine
 10
280.0467409948545
 20
221.6803824113483
 30
0.0
 11
278.3976034982865
 21
222.1957378790258
 31
0.0
  0
ARC
  5
2AD
330
A
100
AcDbEntity
  8
06
100
AcDbCircle
 10
278.5467409948547
 20
222.6729778680433
 30
0.0
 40
0.5
100
AcDbArc
 50
180.0000000000235
 51
252.6459753637372
  0
LINE
  5
2AE
330
A
100
AcDbEntity
  8
06
100
AcDbLine
 10
280.0467409948547
 20
223.6803824113483
 30
0.0
 11
278.3976034982865
 21
223.1650269436706
 31
0.0
  0
ARC
  5
2AF
330
A
100
AcDbEntity
  8
06
100
AcDbCircle
 10
278.5467409948547
 20
222.687786954653
 30
0.0
 40
0.5
100
AcDbArc
 50
107.3540246362653
 51
180.0000000000211
  0
LINE
  5
2B0
330
A
100
AcDbEntity
  8
06
100
AcDbLine
 10
278.5467409948545
 20
222.1491324113483
 30
0.0
 11
278.5467409948547
 21
223.2116324113479
 31
0.0
  0
ARC
  5
2B1
330
A
100
AcDbEntity
  8
06
100
AcDbCircle
 10
277.6668888312197
 20
230.1677873266523
 30
0.0
 40
7.5
100
AcDbArc
 50
288.5005416728045
 51
315.8331311469321
  0
ARC
  5
2B2
330
A
100
AcDbEntity
  8
06
100
AcDbCircle
 10
277.7009799322268
 20
215.1816611199822
 30
0.0
 40
7.5
100
AcDbArc
 50
44.53941239994928
 51
71.77386899827522
  0
LINE
  5
2B3
330
A
100
AcDbEntity
  8
06
100
AcDbLine
 10
301.6881883486024
 20
226.6921590680189
 30
0.0
 11
301.6881883486024
 21
260.4421590680185
 31
0.0
  0
LINE
  5
2B4
330
A
100
AcDbEntity
  8
06
100
AcDbLine
 10
283.4892876627041
 20
235.2496124001691
 30
0.0
 11
284.5467409948546
 21
234.1921590680186
 31
0.0
  0
LINE
  5
2B5
330
A
100
AcDbEntity
  8
06
100
AcDbLine
 10
283.5534698853208
 20
211.1988879584846
 30
0.0
 11
284.5467409948546
 21
212.1921590680186
 31
0.0
  0
LINE
  5
2B6
330
A
100
AcDbEntity
  8
06
100
AcDbLine
 10
314.5079209930806
 20
211.230979069793
 30
0.0
 11
313.5467409948546
 21
212.1921590680186
 31
0.0
  0
LINE
  5
2B7
330
A
100
AcDbEntity
  8
06
100
AcDbLine
 10
314.5400121043885
 20
235.1854301775528
 30
0.0
 11
313.5467409948546
 21
234.1921590680186
 31
0.0
  0
ARC
  5
2C8
330
A
100
AcDbEntity
  8
06
100
AcDbCircle
 10
295.0467409948547
 20
238.5205861927648
 30
0.0
 40
3.0
100
AcDbArc
 50
250.5287793655092
 51
289.4712206344907
  0
ARC
  5
2C9
330
A
100
AcDbEntity
  8
06
100
AcDbCircle
 10
303.0467409948546
 20
238.5205861927648
 30
0.0
 40
3.0
100
AcDbArc
 50
250.528779365509
 51
289.4712206344903
  0
LINE
  5
2CA
330
A
100
AcDbEntity
  8
06
100
AcDbLine
 10
296.0467409948546
 20
226.6921590680186
 30
0.0
 11
302.0467409948546
 21
226.6921590680186
 31
0.0
  0
LINE
  5
2CB
330
A
100
AcDbEntity
  8
06
100
AcDbLine
 10
296.5467409948546
 20
226.6921590680189
 30
0.0
 11
296.5467409948546
 21
260.4421590680185
 31
0.0
  0
LINE
  5
2D5
330
A
100
AcDbEntity
  8
03
100
AcDbLine
 10
307.5467409948548
 20
420.6921590680183
 30
0.0
 11
307.5467409948548
 21
479.1875045152091
 31
0.0
  0
LINE
  5
2D6
330
A
100
AcDbEntity
  8
03
100
AcDbLine
 10
307.5467409948548
 20
482.1875045152092
 30
0.0
 11
307.5467409948548
 21
500.6921590680183
 31
0.0
  0
LINE
  5
2D7
330
A
100
AcDbEntity
  8
03
100
AcDbLine
 10
290.5467409948548
 20
420.6921590680183
 30
0.0
 11
290.5467409948548
 21
479.1875045152091
 31
0.0
  0
LINE
  5
2D8
330
A
100
AcDbEntity
  8
03
100
AcDbLine
 10
290.5467409948548
 20
482.1875045152092
 30
0.0
 11
290.5467409948548
 21
500.6921590680183
 31
0.0
  0
LINE
  5
2D9
330
A
100
AcDbEntity
  8
03
100
AcDbLine
 10
307.5467409948548
 20
130.6921590680185
 30
0.0
 11
307.5467409948548
 21
156.6921590680183
 31
0.0
  0
LINE
  5
2DA
330
A
100
AcDbEntity
  8
03
100
AcDbLine
 10
307.5467409948548
 20
159.6921590680183
 30
0.0
 11
307.5467409948548
 21
210.6921590680186
 31
0.0
  0
LINE
  5
2DB
330
A
100
AcDbEntity
  8
03
100
AcDbLine
 10
290.5467409948548
 20
130.6921590680184
 30
0.0
 11
290.5467409948548
 21
156.6921590680183
 31
0.0
  0
LINE
  5
2DC
330
A
100
AcDbEntity
  8
03
100
AcDbLine
 10
290.5467409948548
 20
159.6921590680183
 30
0.0
 11
290.5467409948548
 21
210.6921590680186
 31
0.0
  0
LINE
  5
300
330
A
100
AcDbEntity
  8
06
100
AcDbLine
 10
170.2634670668958
 20
228.2421590680184
 30
0.0
 11
170.2634670668955
 21
317.1421590680182
 31
0.0
  0
LINE
  5
301
330
A
100
AcDbEntity
  8
06
100
AcDbLine
 10
70.26346706689588
 20
229.4921590680178
 30
0.0
 11
170.7634670668958
 21
229.4921590680184
 31
0.0
  0
LINE
  5
302
330
A
100
AcDbEntity
  8
06
100
AcDbLine
 10
70.26346706689555
 20
315.8921590680181
 30
0.0
 11
142.4774464837049
 21
315.8921590680181
 31
0.0
  0
LINE
  5
303
330
A
100
AcDbEntity
  8
06
100
AcDbLine
 10
153.5962286449399
 20
315.8921590680181
 30
0.0
 11
170.7634670668955
 21
315.8921590680181
 31
0.0
  0
LINE
  5
304
330
A
100
AcDbEntity
  8
06
100
AcDbLine
 10
70.26346706689564
 20
271.442159068018
 30
0.0
 11
170.2634670668956
 21
271.442159068018
 31
0.0
  0
LINE
  5
305
330
A
100
AcDbEntity
  8
06
100
AcDbLine
 10
70.26346706689564
 20
273.9421590680179
 30
0.0
 11
170.2634670668956
 21
273.9421590680179
 31
0.0
  0
LINE
  5
306
330
A
100
AcDbEntity
  8
06
100
AcDbLine
 10
70.26346706689564
 20
272.6921590680179
 30
0.0
 11
170.2634670668956
 21
272.6921590680179
 31
0.0
  0
LINE
  5
307
330
A
100
AcDbEntity
  8
06
100
AcDbLine
 10
166.0134670668956
 20
273.9421590680184
 30
0.0
 11
166.0134670668955
 21
315.8921590680183
 31
0.0
  0
LINE
  5
308
330
A
100
AcDbEntity
  8
06
100
AcDbLine
 10
74.51346706689566
 20
273.9421590680179
 30
0.0
 11
74.51346706689554
 21
315.8921590680181
 31
0.0
  0
LINE
  5
309
330
A
100
AcDbEntity
  8
06
100
AcDbLine
 10
74.51346706689587
 20
229.4921590680181
 30
0.0
 11
74.51346706689576
 21
271.442159068018
 31
0.0
  0
LINE
  5
30A
330
A
100
AcDbEntity
  8
06
100
AcDbLine
 10
166.0134670668957
 20
229.4921590680182
 30
0.0
 11
166.0134670668956
 21
271.442159068018
 31
0.0
  0
LINE
  5
30B
330
A
100
AcDbEntity
  8
SAISEN
100
AcDbLine
 10
116.2634670668956
 20
292.6921590680182
 30
0.0
 11
125.2634670668955
 21
292.6921590680182
 31
0.0
  0
LINE
  5
30C
330
A
100
AcDbEntity
  8
SAISEN
100
AcDbLine
 10
116.2634670668956
 20
292.6921590680182
 30
0.0
 11
116.2634670668956
 21
295.6921590680181
 31
0.0
  0
LINE
  5
30D
330
A
100
AcDbEntity
  8
SAISEN
100
AcDbLine
 10
125.2634670668955
 20
292.6921590680182
 30
0.0
 11
125.2634670668955
 21
295.6921590680181
 31
0.0
  0
LINE
  5
30E
330
A
100
AcDbEntity
  8
SAISEN
100
AcDbLine
 10
116.2634670668956
 20
295.6921590680181
 30
0.0
 11
111.7634670668955
 21
295.6921590680183
 31
0.0
  0
LINE
  5
30F
330
A
100
AcDbEntity
  8
SAISEN
100
AcDbLine
 10
125.2634670668955
 20
295.6921590680181
 30
0.0
 11
129.7634670668956
 21
295.6921590680183
 31
0.0
  0
LINE
  5
310
330
A
100
AcDbEntity
  8
SAISEN
100
AcDbLine
 10
111.7634670668955
 20
295.6921590680181
 30
0.0
 11
120.7634670668956
 21
297.6921590680182
 31
0.0
  0
LINE
  5
311
330
A
100
AcDbEntity
  8
SAISEN
100
AcDbLine
 10
129.7634670668956
 20
295.6921590680183
 30
0.0
 11
120.7634670668956
 21
297.6921590680182
 31
0.0
  0
LINE
  5
312
330
A
100
AcDbEntity
  8
SAISEN
100
AcDbLine
 10
116.2634670668956
 20
252.692159068018
 30
0.0
 11
125.2634670668957
 21
252.692159068018
 31
0.0
  0
LINE
  5
313
330
A
100
AcDbEntity
  8
SAISEN
100
AcDbLine
 10
116.2634670668956
 20
252.692159068018
 30
0.0
 11
116.2634670668956
 21
249.6921590680181
 31
0.0
  0
LINE
  5
314
330
A
100
AcDbEntity
  8
SAISEN
100
AcDbLine
 10
125.2634670668957
 20
252.692159068018
 30
0.0
 11
125.2634670668957
 21
249.6921590680181
 31
0.0
  0
LINE
  5
315
330
A
100
AcDbEntity
  8
SAISEN
100
AcDbLine
 10
116.2634670668956
 20
249.6921590680181
 30
0.0
 11
111.7634670668955
 21
249.6921590680181
 31
0.0
  0
LINE
  5
316
330
A
100
AcDbEntity
  8
SAISEN
100
AcDbLine
 10
125.2634670668957
 20
249.6921590680181
 30
0.0
 11
129.7634670668956
 21
249.6921590680181
 31
0.0
  0
LINE
  5
317
330
A
100
AcDbEntity
  8
SAISEN
100
AcDbLine
 10
111.7634670668955
 20
249.6921590680181
 30
0.0
 11
120.7634670668957
 21
247.6921590680181
 31
0.0
  0
LINE
  5
318
330
A
100
AcDbEntity
  8
SAISEN
100
AcDbLine
 10
129.7634670668956
 20
249.6921590680181
 30
0.0
 11
120.7634670668957
 21
247.6921590680181
 31
0.0
  0
LINE
  5
319
330
A
100
AcDbEntity
  8
SAISEN
100
AcDbLine
 10
63.26346706689588
 20
267.6921590680179
 30
0.0
 11
65.76346706689588
 21
267.6921590680182
 31
0.0
  0
LINE
  5
31A
330
A
100
AcDbEntity
  8
SAISEN
100
AcDbLine
 10
63.26346706689566
 20
277.692159068018
 30
0.0
 11
65.76346706689566
 21
277.692159068018
 31
0.0
  0
LINE
  5
31B
330
A
100
AcDbEntity
  8
SAISEN
100
AcDbLine
 10
63.26346706689588
 20
267.6921590680179
 30
0.0
 11
63.26346706689566
 21
277.692159068018
 31
0.0
  0
LINE
  5
31C
330
A
100
AcDbEntity
  8
SAISEN
100
AcDbLine
 10
65.76346706689583
 20
267.6921590680179
 30
0.0
 11
65.76346706689571
 21
277.692159068018
 31
0.0
  0
LINE
  5
31F
330
A
100
AcDbEntity
  8
SAISEN
100
AcDbLine
 10
97.86507057008208
 20
213.9079812315574
 30
0.0
 11
115.6829022068573
 21
196.0901495947824
 31
0.0
  0
LINE
  5
320
330
A
100
AcDbEntity
  8
SAISEN
100
AcDbLine
 10
100.7634670668957
 20
209.0095847347436
 30
0.0
 11
110.7634670668959
 21
199.0095847347438
 31
0.0
  0
LINE
  5
321
330
A
100
AcDbEntity
  8
SAISEN
100
AcDbLine
 10
102.7634670668957
 20
211.0095847347436
 30
0.0
 11
112.7634670668959
 21
201.0095847347439
 31
0.0
  0
LINE
  5
322
330
A
100
AcDbEntity
  8
SAISEN
100
AcDbLine
 10
97.86507057008195
 20
259.4735077449286
 30
0.0
 11
115.682902206857
 21
241.6556761081536
 31
0.0
  0
LINE
  5
323
330
A
100
AcDbEntity
  8
SAISEN
100
AcDbLine
 10
100.7634670668956
 20
254.5751112481148
 30
0.0
 11
110.7634670668957
 21
244.575111248115
 31
0.0
  0
LINE
  5
324
330
A
100
AcDbEntity
  8
SAISEN
100
AcDbLine
 10
102.7634670668956
 20
256.5751112481148
 30
0.0
 11
112.7634670668957
 21
246.575111248115
 31
0.0
  0
LINE
  5
325
330
A
100
AcDbEntity
  8
SAISEN
100
AcDbLine
 10
97.86507057008186
 20
303.540274926582
 30
0.0
 11
115.6829022068569
 21
285.722443289807
 31
0.0
  0
LINE
  5
326
330
A
100
AcDbEntity
  8
SAISEN
100
AcDbLine
 10
100.7634670668956
 20
298.6418784297682
 30
0.0
 11
110.7634670668957
 21
288.6418784297682
 31
0.0
  0
LINE
  5
327
330
A
100
AcDbEntity
  8
SAISEN
100
AcDbLine
 10
102.7634670668956
 20
300.6418784297682
 30
0.0
 11
112.7634670668957
 21
290.6418784297684
 31
0.0
  0
LINE
  5
328
330
A
100
AcDbEntity
  8
SAISEN
100
AcDbLine
 10
97.86507057008172
 20
349.8860833600743
 30
0.0
 11
115.6829022068568
 21
332.0682517232993
 31
0.0
  0
LINE
  5
329
330
A
100
AcDbEntity
  8
SAISEN
100
AcDbLine
 10
100.7634670668954
 20
344.9876868632606
 30
0.0
 11
110.7634670668955
 21
334.9876868632605
 31
0.0
  0
LINE
  5
32A
330
A
100
AcDbEntity
  8
SAISEN
100
AcDbLine
 10
102.7634670668954
 20
346.9876868632606
 30
0.0
 11
112.7634670668953
 21
336.9876868632605
 31
0.0
  0
LINE
  5
32B
330
A
100
AcDbEntity
  8
SAISEN
100
AcDbLine
 10
42.23022497363394
 20
211.021377611473
 30
0.0
 11
55.90229245567951
 21
197.3493101294278
 31
0.0
  0
LINE
  5
32C
330
A
100
AcDbEntity
  8
SAISEN
100
AcDbLine
 10
44.51346706689588
 20
206.7381355182111
 30
0.0
 11
52.0134670668961
 21
199.2381355182111
 31
0.0
  0
LINE
  5
32D
330
A
100
AcDbEntity
  8
SAISEN
100
AcDbLine
 10
46.51346706689582
 20
208.7381355182111
 30
0.0
 11
54.01346706689611
 21
201.238135518211
 31
0.0
  0
LINE
  5
32E
330
A
100
AcDbEntity
  8
SAISEN
100
AcDbLine
 10
42.23022497363394
 20
268.5924299057175
 30
0.0
 11
55.90229245567917
 21
254.9203624236721
 31
0.0
  0
LINE
  5
32F
330
A
100
AcDbEntity
  8
SAISEN
100
AcDbLine
 10
44.51346706689571
 20
264.3091878124556
 30
0.0
 11
52.01346706689577
 21
256.8091878124554
 31
0.0
  0
LINE
  5
330
330
A
100
AcDbEntity
  8
SAISEN
100
AcDbLine
 10
46.51346706689577
 20
266.3091878124556
 30
0.0
 11
54.01346706689577
 21
258.8091878124554
 31
0.0
  0
LINE
  5
331
330
A
100
AcDbEntity
  8
SAISEN
100
AcDbLine
 10
42.23022497363359
 20
349.0003244016063
 30
0.0
 11
55.90229245567889
 21
335.3282569195608
 31
0.0
  0
LINE
  5
332
330
A
100
AcDbEntity
  8
SAISEN
100
AcDbLine
 10
44.51346706689543
 20
344.7170823083443
 30
0.0
 11
52.01346706689543
 21
337.2170823083442
 31
0.0
  0
LINE
  5
333
330
A
100
AcDbEntity
  8
SAISEN
100
AcDbLine
 10
46.51346706689543
 20
346.7170823083443
 30
0.0
 11
54.01346706689543
 21
339.2170823083442
 31
0.0
  0
LINE
  5
334
330
A
100
AcDbEntity
  8
06
100
AcDbLine
 10
70.26346706689588
 20
228.2421590680184
 30
0.0
 11
170.2634670668958
 21
228.2421590680184
 31
0.0
  0
LINE
  5
335
330
A
100
AcDbEntity
  8
06
100
AcDbLine
 10
154.0962286449399
 20
317.1421590680182
 30
0.0
 11
170.2634670668955
 21
317.1421590680182
 31
0.0
  0
LINE
  5
336
330
A
100
AcDbEntity
  8
06
100
AcDbLine
 10
70.26346706689555
 20
317.1421590680179
 30
0.0
 11
142.977446483705
 21
317.1421590680182
 31
0.0
  0
LINE
  5
391
330
A
100
AcDbEntity
  8
CHUSIN
100
AcDbLine
 10
65.76346706689538
 20
337.6921590680179
 30
0.0
 11
65.76346706689531
 21
377.192159068018
 31
0.0
  0
LINE
  5
392
330
A
100
AcDbEntity
  8
CHUSIN
100
AcDbLine
 10
65.76346706689538
 20
377.192159068018
 30
0.0
 11
102.7556054316752
 21
377.1921590680181
 31
0.0
  0
LINE
  5
393
330
A
100
AcDbEntity
  8
CHUSIN
100
AcDbLine
 10
44.83490566037732
 20
380.192159068018
 30
0.0
 11
102.7556054316751
 21
380.192159068018
 31
0.0
  0
LINE
  5
394
330
A
100
AcDbEntity
  8
CHUSIN
100
AcDbLine
 10
270.615828092243
 20
315.6921590680182
 30
0.0
 11
326.8820754716982
 21
315.6921590680183
 31
0.0
  0
LINE
  5
395
330
A
100
AcDbEntity
  8
CHUSIN
100
AcDbLine
 10
250.046740994855
 20
109.7242748270999
 30
0.0
 11
250.0467409948548
 21
156.6921590680183
 31
0.0
  0
LINE
  5
396
330
A
100
AcDbEntity
  8
CHUSIN
100
AcDbLine
 10
250.0467409948548
 20
159.6921590680183
 30
0.0
 11
250.0467409948543
 21
390.6552139923881
 31
0.0
  0
LINE
  5
397
330
A
100
AcDbEntity
  8
CHUSIN
100
AcDbLine
 10
250.0467409948543
 20
390.6552139923881
 30
0.0
 11
250.046740994854
 21
479.1875045152091
 31
0.0
  0
LINE
  5
398
330
A
100
AcDbEntity
  8
CHUSIN
100
AcDbLine
 10
250.046740994854
 20
482.1875045152092
 30
0.0
 11
250.0467409948539
 21
521.1317741556434
 31
0.0
  0
LINE
  5
399
330
A
100
AcDbEntity
  8
CHUSIN
100
AcDbLine
 10
299.046740994855
 20
109.7242748270999
 30
0.0
 11
299.0467409948548
 21
156.6921590680184
 31
0.0
  0
LINE
  5
39A
330
A
100
AcDbEntity
  8
CHUSIN
100
AcDbLine
 10
299.0467409948548
 20
159.6921590680184
 30
0.0
 11
299.046740994854
 21
479.1875045152091
 31
0.0
  0
LINE
  5
39B
330
A
100
AcDbEntity
  8
CHUSIN
100
AcDbLine
 10
299.046740994854
 20
482.1875045152093
 30
0.0
 11
299.0467409948538
 21
521.1317741556436
 31
0.0
  0
LINE
  5
39E
330
A
100
AcDbEntity
  8
CHUSIN
100
AcDbLine
 10
240.0083857442346
 20
209.9921590680184
 30
0.0
 11
259.6100628930817
 21
209.9921590680184
 31
0.0
  0
LINE
  5
39F
330
A
100
AcDbEntity
  8
CHUSIN
100
AcDbLine
 10
240.0083857442348
 20
421.3921590680182
 30
0.0
 11
259.6100628930817
 21
421.3921590680182
 31
0.0
  0
LINE
  5
3A0
330
A
100
AcDbEntity
  8
CHUSIN
100
AcDbLine
 10
140.7634670668957
 20
229.4921590680182
 30
0.0
 11
140.7634670668955
 21
315.8921590680181
 31
0.0
  0
LINE
  5
3A1
330
A
100
AcDbEntity
  8
SOUZOU
100
AcDbLine
 10
219.046740994855
 20
130.6921590680182
 30
0.0
 11
219.0467409948549
 21
156.6921590680183
 31
0.0
  0
LINE
  5
3A2
330
A
100
AcDbEntity
  8
SOUZOU
100
AcDbLine
 10
219.0467409948549
 20
159.6921590680183
 30
0.0
 11
219.0467409948545
 21
260.4421590680185
 31
0.0
  0
LINE
  5
3A3
330
A
100
AcDbEntity
  8
SOUZOU
100
AcDbLine
 10
219.0467409948545
 20
263.4421590680184
 30
0.0
 11
219.0467409948543
 21
367.9421590680182
 31
0.0
  0
LINE
  5
3A4
330
A
100
AcDbEntity
  8
SOUZOU
100
AcDbLine
 10
219.0467409948543
 20
370.9421590680182
 30
0.0
 11
219.046740994854
 21
479.1875045152091
 31
0.0
  0
LINE
  5
3A5
330
A
100
AcDbEntity
  8
SOUZOU
100
AcDbLine
 10
219.046740994854
 20
482.1875045152092
 30
0.0
 11
219.046740994854
 21
500.6921590680181
 31
0.0
  0
LINE
  5
3A6
330
A
100
AcDbEntity
  8
KAKURE
100
AcDbLine
 10
278.0467409948542
 20
396.4421590680183
 30
0.0
 11
278.0467409948542
 21
370.9421590680183
 31
0.0
  0
LINE
  5
3A7
330
A
100
AcDbEntity
  8
KAKURE
100
AcDbLine
 10
278.0467409948546
 20
263.4421590680186
 30
0.0
 11
278.0467409948542
 21
367.9421590680183
 31
0.0
  0
LINE
  5
3A8
330
A
100
AcDbEntity
  8
KAKURE
100
AcDbLine
 10
278.0467409948546
 20
234.9421590680186
 30
0.0
 11
278.0467409948546
 21
260.4421590680185
 31
0.0
  0
CIRCLE
  5
3A9
330
A
100
AcDbEntity
  8
KAKURE
100
AcDbCircle
 10
250.0467409948541
 20
421.3921590680183
 30
0.0
 40
5.0
  0
CIRCLE
  5
3AA
330
A
100
AcDbEntity
  8
KAKURE
100
AcDbCircle
 10
250.0467409948547
 20
209.9921590680184
 30
0.0
 40
5.0
  0
LINE
  5
3AB
330
A
100
AcDbEntity
  8
KAKURE
100
AcDbLine
 10
70.26346706689588
 20
228.2421590680184
 30
0.0
 11
70.26346706689555
 21
317.1421590680179
 31
0.0
  0
LINE
  5
3C8
330
A
100
AcDbEntity
  8
SAISEN
100
AcDbLine
 10
102.7556054316752
 20
376.1893178127428
 30
0.0
 11
102.7556054316751
 21
381.1921590680181
 31
0.0
  0
LINE
  5
3C9
330
A
100
AcDbEntity
  8
SAISEN
100
AcDbLine
 10
112.7556054316751
 20
376.1893178127428
 30
0.0
 11
112.755605431675
 21
381.1921590680181
 31
0.0
  0
LINE
  5
3CA
330
A
100
AcDbEntity
  8
SAISEN
100
AcDbLine
 10
102.7556054316752
 20
376.1893178127428
 30
0.0
 11
112.7556054316751
 21
376.1893178127428
 31
0.0
  0
LINE
  5
3CB
330
A
100
AcDbEntity
  8
SAISEN
100
AcDbLine
 10
102.7556054316751
 20
381.1921590680181
 30
0.0
 11
112.755605431675
 21
381.1921590680181
 31
0.0
  0
LINE
  5
3CC
330
A
100
AcDbEntity
  8
03
100
AcDbLine
 10
216.7967409948539
 20
530.6921590680181
 30
0.0
 11
231.0467409948539
 21
530.6921590680182
 31
0.0
  0
LINE
  5
3CD
330
A
100
AcDbEntity
  8
03
100
AcDbLine
 10
321.0467409948538
 20
530.6921590680184
 30
0.0
 11
335.296740994854
 21
530.6921590680186
 31
0.0
  0
LINE
  5
3CE
330
A
100
AcDbEntity
  8
03
100
AcDbLine
 10
216.796740994854
 20
500.6921590680181
 30
0.0
 11
241.296740994854
 21
500.6921590680183
 31
0.0
  0
LINE
  5
3CF
330
A
100
AcDbEntity
  8
03
100
AcDbLine
 10
258.796740994854
 20
500.6921590680183
 30
0.0
 11
335.296740994854
 21
500.6921590680184
 31
0.0
  0
LINE
  5
3D0
330
A
100
AcDbEntity
  8
03
100
AcDbLine
 10
216.046740994854
 20
501.442159068018
 30
0.0
 11
216.0467409948539
 21
529.942159068018
 31
0.0
  0
ARC
  5
3D1
330
A
100
AcDbEntity
  8
03
100
AcDbCircle
 10
216.7967409948539
 20
529.942159068018
 30
0.0
 40
0.75
100
AcDbArc
 50
90.00000000000019
 51
180.0000000000001
  0
ARC
  5
3D2
330
A
100
AcDbEntity
  8
03
100
AcDbCircle
 10
216.796740994854
 20
501.442159068018
 30
0.0
 40
0.75
100
AcDbArc
 50
180.0000000000001
 51
269.9999999999999
  0
LINE
  5
3D3
330
A
100
AcDbEntity
  8
03
100
AcDbLine
 10
336.046740994854
 20
501.4421590680185
 30
0.0
 11
336.0467409948538
 21
529.9421590680187
 31
0.0
  0
LINE
  5
3D4
330
A
100
AcDbEntity
  8
03
100
AcDbLine
 10
336.046740994854
 20
501.4421590680185
 30
0.0
 11
336.046740994854
 21
529.9421590680187
 31
0.0
  0
ARC
  5
3D5
330
A
100
AcDbEntity
  8
03
100
AcDbCircle
 10
335.296740994854
 20
529.9421590680187
 30
0.0
 40
0.75
100
AcDbArc
 50
0.0000000000000241
 51
90.00000000000019
  0
ARC
  5
3D6
330
A
100
AcDbEntity
  8
03
100
AcDbCircle
 10
335.296740994854
 20
501.4421590680185
 30
0.0
 40
0.75
100
AcDbArc
 50
269.9999999999999
 51
0.0000000000000799
  0
LINE
  5
3D7
330
A
100
AcDbEntity
  8
03
100
AcDbLine
 10
242.0467409948539
 20
515.6921590680183
 30
0.0
 11
258.046740994854
 21
515.6921590680183
 31
0.0
  0
LINE
  5
3D8
330
A
100
AcDbEntity
  8
03
100
AcDbLine
 10
242.046740994854
 20
501.4421590680183
 30
0.0
 11
242.0467409948539
 21
515.6921590680183
 31
0.0
  0
ARC
  5
3D9
330
A
100
AcDbEntity
  8
03
100
AcDbCircle
 10
241.296740994854
 20
501.4421590680183
 30
0.0
 40
0.75
100
AcDbArc
 50
269.9999999999999
 51
0.0
  0
LINE
  5
3DA
330
A
100
AcDbEntity
  8
03
100
AcDbLine
 10
258.046740994854
 20
501.4421590680183
 30
0.0
 11
258.046740994854
 21
515.6921590680183
 31
0.0
  0
ARC
  5
3DB
330
A
100
AcDbEntity
  8
03
100
AcDbCircle
 10
258.796740994854
 20
501.4421590680183
 30
0.0
 40
0.75
100
AcDbArc
 50
180.0000000000003
 51
269.9999999999999
  0
LINE
  5
3DC
330
A
100
AcDbEntity
  8
03
100
AcDbLine
 10
259.546740994854
 20
502.1921590680183
 30
0.0
 11
334.5467409948538
 21
502.1921590680185
 31
0.0
  0
LINE
  5
3DD
330
A
100
AcDbEntity
  8
03
100
AcDbLine
 10
334.546740994854
 20
502.1921590680185
 30
0.0
 11
334.5467409948538
 21
529.1921590680184
 31
0.0
  0
LINE
  5
3DE
330
A
100
AcDbEntity
  8
03
100
AcDbLine
 10
217.5467409948538
 20
529.1921590680181
 30
0.0
 11
231.0467409948539
 21
529.1921590680183
 31
0.0
  0
LINE
  5
3DF
330
A
100
AcDbEntity
  8
03
100
AcDbLine
 10
321.0467409948538
 20
529.1921590680184
 30
0.0
 11
334.546740994854
 21
529.1921590680184
 31
0.0
  0
LINE
  5
3E0
330
A
100
AcDbEntity
  8
03
100
AcDbLine
 10
217.546740994854
 20
502.1921590680181
 30
0.0
 11
217.5467409948538
 21
529.1921590680181
 31
0.0
  0
LINE
  5
3E1
330
A
100
AcDbEntity
  8
03
100
AcDbLine
 10
217.546740994854
 20
502.1921590680181
 30
0.0
 11
240.546740994854
 21
502.1921590680183
 31
0.0
  0
LINE
  5
3E2
330
A
100
AcDbEntity
  8
03
100
AcDbLine
 10
240.546740994854
 20
502.1921590680183
 30
0.0
 11
240.5467409948538
 21
516.4421590680183
 31
0.0
  0
LINE
  5
3E3
330
A
100
AcDbEntity
  8
03
100
AcDbLine
 10
241.296740994854
 20
517.1921590680183
 30
0.0
 11
258.7967409948539
 21
517.1921590680183
 31
0.0
  0
ARC
  5
3E4
330
A
100
AcDbEntity
  8
03
100
AcDbCircle
 10
241.296740994854
 20
516.4421590680183
 30
0.0
 40
0.75
100
AcDbArc
 50
90.00000000000019
 51
180.0000000000001
  0
LINE
  5
3E5
330
A
100
AcDbEntity
  8
03
100
AcDbLine
 10
259.546740994854
 20
502.1921590680183
 30
0.0
 11
259.5467409948539
 21
516.4421590680183
 31
0.0
  0
ARC
  5
3E6
330
A
100
AcDbEntity
  8
03
100
AcDbCircle
 10
258.7967409948539
 20
516.4421590680183
 30
0.0
 40
0.75
100
AcDbArc
 50
0.0000000000001768
 51
90.00000000000019
  0
LINE
  5
3E7
330
A
100
AcDbEntity
  8
03
100
AcDbLine
 10
231.0467409948539
 20
529.1921590680183
 30
0.0
 11
231.0467409948539
 21
530.6921590680182
 31
0.0
  0
LINE
  5
3E8
330
A
100
AcDbEntity
  8
03
100
AcDbLine
 10
321.0467409948538
 20
529.1921590680184
 30
0.0
 11
321.0467409948538
 21
530.6921590680184
 31
0.0
  0
LINE
  5
3E9
330
A
100
AcDbEntity
  8
06
100
AcDbLine
 10
285.0467409948543
 20
370.9421590680183
 30
0.0
 11
285.0467409948543
 21
395.6921590680183
 31
0.0
  0
LINE
  5
3EA
330
A
100
AcDbEntity
  8
06
100
AcDbLine
 10
313.0467409948544
 20
370.9421590680183
 30
0.0
 11
313.0467409948543
 21
395.6921590680183
 31
0.0
  0
LINE
  5
3EB
330
A
100
AcDbEntity
  8
06
100
AcDbLine
 10
285.0467409948544
 20
343.1921590680183
 30
0.0
 11
285.0467409948544
 21
367.9421590680183
 31
0.0
  0
LINE
  5
3EC
330
A
100
AcDbEntity
  8
06
100
AcDbLine
 10
313.0467409948544
 20
343.1921590680183
 30
0.0
 11
313.0467409948544
 21
367.9421590680183
 31
0.0
  0
LINE
  5
3ED
330
A
100
AcDbEntity
  8
06
100
AcDbLine
 10
285.0467409948546
 20
288.1921590680183
 30
0.0
 11
285.0467409948546
 21
263.4421590680186
 31
0.0
  0
LINE
  5
3EE
330
A
100
AcDbEntity
  8
06
100
AcDbLine
 10
313.0467409948546
 20
288.1921590680184
 30
0.0
 11
313.0467409948546
 21
263.4421590680186
 31
0.0
  0
LINE
  5
3EF
330
A
100
AcDbEntity
  8
03
100
AcDbLine
 10
216.7967409948548
 20
100.6921590680184
 30
0.0
 11
231.0467409948548
 21
100.6921590680184
 31
0.0
  0
LINE
  5
3F0
330
A
100
AcDbEntity
  8
03
100
AcDbLine
 10
321.0467409948548
 20
100.6921590680184
 30
0.0
 11
335.2967409948548
 21
100.6921590680184
 31
0.0
  0
LINE
  5
3F1
330
A
100
AcDbEntity
  8
03
100
AcDbLine
 10
216.7967409948548
 20
130.6921590680182
 30
0.0
 11
241.2967409948548
 21
130.6921590680184
 31
0.0
  0
LINE
  5
3F2
330
A
100
AcDbEntity
  8
03
100
AcDbLine
 10
258.7967409948548
 20
130.6921590680184
 30
0.0
 11
335.2967409948548
 21
130.6921590680185
 31
0.0
  0
LINE
  5
3F3
330
A
100
AcDbEntity
  8
03
100
AcDbLine
 10
216.0467409948548
 20
129.9421590680182
 30
0.0
 11
216.0467409948549
 21
101.4421590680183
 31
0.0
  0
ARC
  5
3F4
330
A
100
AcDbEntity
  8
03
100
AcDbCircle
 10
216.7967409948548
 20
101.4421590680183
 30
0.0
 40
0.75
100
AcDbArc
 50
180.0000000000001
 51
269.9999999999999
  0
ARC
  5
3F5
330
A
100
AcDbEntity
  8
03
100
AcDbCircle
 10
216.7967409948548
 20
129.9421590680182
 30
0.0
 40
0.75
100
AcDbArc
 50
90.00000000000019
 51
180.0000000000001
  0
LINE
  5
3F6
330
A
100
AcDbEntity
  8
03
100
AcDbLine
 10
336.0467409948548
 20
129.9421590680184
 30
0.0
 11
336.0467409948548
 21
101.4421590680183
 31
0.0
  0
LINE
  5
3F7
330
A
100
AcDbEntity
  8
03
100
AcDbLine
 10
336.0467409948548
 20
129.9421590680184
 30
0.0
 11
336.046740994855
 21
101.4421590680183
 31
0.0
  0
ARC
  5
3F8
330
A
100
AcDbEntity
  8
03
100
AcDbCircle
 10
335.2967409948548
 20
101.4421590680183
 30
0.0
 40
0.75
100
AcDbArc
 50
269.9999999999999
 51
0.0000000000000799
  0
ARC
  5
3F9
330
A
100
AcDbEntity
  8
03
100
AcDbCircle
 10
335.2967409948548
 20
129.9421590680184
 30
0.0
 40
0.75
100
AcDbArc
 50
0.0000000000000241
 51
90.00000000000019
  0
LINE
  5
3FA
330
A
100
AcDbEntity
  8
03
100
AcDbLine
 10
242.0467409948548
 20
115.6921590680183
 30
0.0
 11
258.0467409948548
 21
115.6921590680183
 31
0.0
  0
LINE
  5
3FB
330
A
100
AcDbEntity
  8
03
100
AcDbLine
 10
242.0467409948548
 20
129.9421590680184
 30
0.0
 11
242.0467409948548
 21
115.6921590680183
 31
0.0
  0
ARC
  5
3FC
330
A
100
AcDbEntity
  8
03
100
AcDbCircle
 10
241.2967409948548
 20
129.9421590680184
 30
0.0
 40
0.75
100
AcDbArc
 50
0.0000000000000241
 51
90.00000000000019
  0
LINE
  5
3FD
330
A
100
AcDbEntity
  8
03
100
AcDbLine
 10
258.0467409948548
 20
129.9421590680184
 30
0.0
 11
258.0467409948548
 21
115.6921590680183
 31
0.0
  0
ARC
  5
3FE
330
A
100
AcDbEntity
  8
03
100
AcDbCircle
 10
258.7967409948548
 20
129.9421590680184
 30
0.0
 40
0.75
100
AcDbArc
 50
90.00000000000019
 51
179.9999999999999
  0
LINE
  5
3FF
330
A
100
AcDbEntity
  8
03
100
AcDbLine
 10
259.5467409948548
 20
129.1921590680185
 30
0.0
 11
334.5467409948547
 21
129.1921590680185
 31
0.0
  0
LINE
  5
400
330
A
100
AcDbEntity
  8
03
100
AcDbLine
 10
334.5467409948548
 20
129.1921590680185
 30
0.0
 11
334.5467409948548
 21
102.1921590680185
 31
0.0
  0
LINE
  5
401
330
A
100
AcDbEntity
  8
03
100
AcDbLine
 10
217.5467409948549
 20
102.1921590680183
 30
0.0
 11
231.0467409948548
 21
102.1921590680183
 31
0.0
  0
LINE
  5
402
330
A
100
AcDbEntity
  8
03
100
AcDbLine
 10
321.0467409948548
 20
102.1921590680185
 30
0.0
 11
334.5467409948548
 21
102.1921590680185
 31
0.0
  0
LINE
  5
403
330
A
100
AcDbEntity
  8
03
100
AcDbLine
 10
217.5467409948548
 20
129.1921590680183
 30
0.0
 11
217.5467409948549
 21
102.1921590680183
 31
0.0
  0
LINE
  5
404
330
A
100
AcDbEntity
  8
03
100
AcDbLine
 10
217.5467409948548
 20
129.1921590680183
 30
0.0
 11
240.5467409948548
 21
129.1921590680184
 31
0.0
  0
LINE
  5
405
330
A
100
AcDbEntity
  8
03
100
AcDbLine
 10
240.5467409948548
 20
129.1921590680184
 30
0.0
 11
240.5467409948548
 21
114.9421590680183
 31
0.0
  0
LINE
  5
406
330
A
100
AcDbEntity
  8
03
100
AcDbLine
 10
241.2967409948548
 20
114.1921590680184
 30
0.0
 11
258.7967409948548
 21
114.1921590680184
 31
0.0
  0
ARC
  5
407
330
A
100
AcDbEntity
  8
03
100
AcDbCircle
 10
241.2967409948548
 20
114.9421590680183
 30
0.0
 40
0.75
100
AcDbArc
 50
180.0000000000001
 51
269.9999999999999
  0
LINE
  5
408
330
A
100
AcDbEntity
  8
03
100
AcDbLine
 10
259.5467409948548
 20
129.1921590680185
 30
0.0
 11
259.5467409948548
 21
114.9421590680183
 31
0.0
  0
ARC
  5
409
330
A
100
AcDbEntity
  8
03
100
AcDbCircle
 10
258.7967409948548
 20
114.9421590680183
 30
0.0
 40
0.75
100
AcDbArc
 50
269.9999999999999
 51
0.0
  0
LINE
  5
40A
330
A
100
AcDbEntity
  8
03
100
AcDbLine
 10
231.0467409948548
 20
102.1921590680183
 30
0.0
 11
231.0467409948548
 21
100.6921590680184
 31
0.0
  0
LINE
  5
40B
330
A
100
AcDbEntity
  8
03
100
AcDbLine
 10
321.0467409948548
 20
102.1921590680185
 30
0.0
 11
321.0467409948548
 21
100.6921590680184
 31
0.0
  0
LINE
  5
40C
330
A
100
AcDbEntity
  8
06
100
AcDbLine
 10
285.0467409948545
 20
260.4421590680185
 30
0.0
 11
285.0467409948546
 21
235.6921590680186
 31
0.0
  0
LINE
  5
40D
330
A
100
AcDbEntity
  8
06
100
AcDbLine
 10
313.0467409948546
 20
260.4421590680186
 30
0.0
 11
313.0467409948546
 21
235.6921590680186
 31
0.0
  0
LINE
  5
40E
330
A
100
AcDbEntity
  8
SAISEN
100
AcDbLine
 10
214.0467409948545
 20
260.4421590680185
 30
0.0
 11
317.5095367364586
 21
260.4421590680186
 31
0.0
  0
LINE
  5
40F
330
A
100
AcDbEntity
  8
SAISEN
100
AcDbLine
 10
214.0467409948545
 20
263.4421590680184
 30
0.0
 11
317.5095367364586
 21
263.4421590680186
 31
0.0
  0
LINE
  5
410
330
A
100
AcDbEntity
  8
SAISEN
100
AcDbLine
 10
214.0467409948543
 20
367.9421590680181
 30
0.0
 11
317.5095367364582
 21
367.9421590680183
 31
0.0
  0
LINE
  5
411
330
A
100
AcDbEntity
  8
SAISEN
100
AcDbLine
 10
214.0467409948543
 20
370.9421590680181
 30
0.0
 11
317.5095367364582
 21
370.9421590680183
 31
0.0
  0
LINE
  5
412
330
A
100
AcDbEntity
  8
03
100
AcDbLine
 10
33.76346706689588
 20
182.6921590680178
 30
0.0
 11
170.7634670668959
 21
182.6921590680184
 31
0.0
  0
LINE
  5
413
330
A
100
AcDbEntity
  8
03
100
AcDbLine
 10
33.76346706689543
 20
362.6921590680178
 30
0.0
 11
170.7634670668953
 21
362.6921590680183
 31
0.0
  0
LINE
  5
414
330
A
100
AcDbEntity
  8
03
100
AcDbLine
 10
70.76346706689587
 20
182.6921590680179
 30
0.0
 11
70.76346706689587
 21
228.2421590680184
 31
0.0
  0
LINE
  5
415
330
A
100
AcDbEntity
  8
03
100
AcDbLine
 10
70.76346706689554
 20
317.1421590680179
 30
0.0
 11
70.76346706689548
 21
362.692159068018
 31
0.0
  0
LINE
  5
416
330
A
100
AcDbEntity
  8
03
100
AcDbLine
 10
60.76346706689588
 20
182.6921590680179
 30
0.0
 11
60.76346706689543
 21
362.6921590680178
 31
0.0
  0
LINE
  5
417
330
A
100
AcDbEntity
  8
03
100
AcDbLine
 10
35.76346706689587
 20
182.6921590680178
 30
0.0
 11
35.76346706689543
 21
362.6921590680178
 31
0.0
  0
LINE
  5
418
330
A
100
AcDbEntity
  8
03
100
AcDbLine
 10
70.76346706689587
 20
226.9921590680179
 30
0.0
 11
170.7634670668958
 21
226.9921590680184
 31
0.0
  0
LINE
  5
419
330
A
100
AcDbEntity
  8
03
100
AcDbLine
 10
70.76346706689554
 20
318.3921590680179
 30
0.0
 11
142.4774464837049
 21
318.392159068018
 31
0.0
  0
LINE
  5
41A
330
A
100
AcDbEntity
  8
03
100
AcDbLine
 10
153.5962286449399
 20
318.3921590680181
 30
0.0
 11
170.7634670668955
 21
318.3921590680183
 31
0.0
  0
LINE
  5
41B
330
A
100
AcDbEntity
  8
03
100
AcDbLine
 10
33.76346706689588
 20
180.6921590680178
 30
0.0
 11
170.7634670668959
 21
180.6921590680184
 31
0.0
  0
LINE
  5
41C
330
A
100
AcDbEntity
  8
03
100
AcDbLine
 10
33.76346706689588
 20
180.6921590680178
 30
0.0
 11
33.76346706689543
 21
364.6921590680178
 31
0.0
  0
LINE
  5
41D
330
A
100
AcDbEntity
  8
03
100
AcDbLine
 10
33.76346706689543
 20
364.6921590680178
 30
0.0
 11
170.7634670668953
 21
364.6921590680183
 31
0.0
  0
LINE
  5
41E
330
A
100
AcDbEntity
  8
03
100
AcDbLine
 10
35.76346706689582
 20
226.9921590680178
 30
0.0
 11
60.76346706689588
 21
226.9921590680179
 31
0.0
  0
LINE
  5
41F
330
A
100
AcDbEntity
  8
03
100
AcDbLine
 10
35.76346706689582
 20
229.4921590680178
 30
0.0
 11
60.76346706689588
 21
229.4921590680178
 31
0.0
  0
LINE
  5
420
330
A
100
AcDbEntity
  8
03
100
AcDbLine
 10
35.76346706689587
 20
315.8921590680177
 30
0.0
 11
60.76346706689554
 21
315.8921590680178
 31
0.0
  0
LINE
  5
421
330
A
100
AcDbEntity
  8
03
100
AcDbLine
 10
35.76346706689587
 20
318.3921590680178
 30
0.0
 11
60.76346706689554
 21
318.3921590680179
 31
0.0
  0
LINE
  5
422
330
A
100
AcDbEntity
  8
03
100
AcDbLine
 10
166.0134670668956
 20
362.6921590680183
 30
0.0
 11
166.0134670668956
 21
318.3921590680183
 31
0.0
  0
LINE
  5
423
330
A
100
AcDbEntity
  8
03
100
AcDbLine
 10
166.0134670668959
 20
226.9921590680184
 30
0.0
 11
166.0134670668959
 21
182.6921590680185
 31
0.0
  0
LINE
  5
424
330
A
100
AcDbEntity
  8
SAISEN
100
AcDbLine
 10
170.763467066896
 20
177.4180789632711
 30
0.0
 11
170.7634670668953
 21
375.0789842543476
 31
0.0
  0
LINE
  5
425
330
A
100
AcDbEntity
  8
KAKURE
100
AcDbLine
 10
221.0467409948539
 20
527.5921590680182
 30
0.0
 11
331.046740994854
 21
527.5921590680185
 31
0.0
  0
LINE
  5
426
330
A
100
AcDbEntity
  8
KAKURE
100
AcDbLine
 10
221.0467409948539
 20
527.5921590680182
 30
0.0
 11
221.0467409948539
 21
529.1921590680182
 31
0.0
  0
LINE
  5
427
330
A
100
AcDbEntity
  8
KAKURE
100
AcDbLine
 10
331.046740994854
 20
527.5921590680185
 30
0.0
 11
331.0467409948538
 21
529.1921590680186
 31
0.0
  0
LINE
  5
428
330
A
100
AcDbEntity
  8
KAKURE
100
AcDbLine
 10
231.0467409948539
 20
529.1921590680183
 30
0.0
 11
321.0467409948538
 21
529.1921590680184
 31
0.0
  0
LINE
  5
429
330
A
100
AcDbEntity
  8
KAKURE
100
AcDbLine
 10
221.0467409948548
 20
103.7921590680183
 30
0.0
 11
331.0467409948548
 21
103.7921590680183
 31
0.0
  0
LINE
  5
42A
330
A
100
AcDbEntity
  8
KAKURE
100
AcDbLine
 10
221.0467409948548
 20
103.7921590680183
 30
0.0
 11
221.0467409948548
 21
102.1921590680183
 31
0.0
  0
LINE
  5
42B
330
A
100
AcDbEntity
  8
KAKURE
100
AcDbLine
 10
331.0467409948548
 20
103.7921590680183
 30
0.0
 11
331.0467409948548
 21
102.1921590680182
 31
0.0
  0
LINE
  5
42C
330
A
100
AcDbEntity
  8
KAKURE
100
AcDbLine
 10
231.0467409948548
 20
102.1921590680183
 30
0.0
 11
321.0467409948548
 21
102.1921590680185
 31
0.0
  0
LINE
  5
42D
330
A
100
AcDbEntity
  8
KAKURE
100
AcDbLine
 10
70.76346706689587
 20
228.2421590680184
 30
0.0
 11
70.76346706689554
 21
317.1421590680179
 31
0.0
  0
LINE
  5
42E
330
A
100
AcDbEntity
  8
06
100
AcDbLine
 10
294.0467409948542
 20
395.6921590680183
 30
0.0
 11
283.0467409948543
 21
395.6921590680183
 31
0.0
  0
LINE
  5
42F
330
A
100
AcDbEntity
  8
06
100
AcDbLine
 10
283.0467409948543
 20
395.6921590680183
 30
0.0
 11
283.0467409948541
 21
406.1921590680183
 31
0.0
  0
LINE
  5
430
330
A
100
AcDbEntity
  8
06
100
AcDbLine
 10
283.0467409948541
 20
411.1921590680183
 30
0.0
 11
283.0467409948541
 21
420.6921590680183
 31
0.0
  0
LINE
  5
431
330
A
100
AcDbEntity
  8
06
100
AcDbLine
 10
283.0467409948541
 20
420.6921590680183
 30
0.0
 11
315.0467409948542
 21
420.6921590680183
 31
0.0
  0
LINE
  5
432
330
A
100
AcDbEntity
  8
06
100
AcDbLine
 10
315.0467409948542
 20
420.6921590680183
 30
0.0
 11
315.0467409948543
 21
395.6921590680183
 31
0.0
  0
LINE
  5
433
330
A
100
AcDbEntity
  8
06
100
AcDbLine
 10
315.0467409948543
 20
395.6921590680183
 30
0.0
 11
304.0467409948543
 21
395.6921590680183
 31
0.0
  0
LINE
  5
434
330
A
100
AcDbEntity
  8
06
100
AcDbLine
 10
294.0467409948542
 20
397.1921590680183
 30
0.0
 11
284.5467409948543
 21
397.1921590680183
 31
0.0
  0
LINE
  5
435
330
A
100
AcDbEntity
  8
06
100
AcDbLine
 10
284.5467409948543
 20
397.1921590680183
 30
0.0
 11
284.5467409948541
 21
406.1921590680183
 31
0.0
  0
LINE
  5
436
330
A
100
AcDbEntity
  8
06
100
AcDbLine
 10
284.5467409948541
 20
411.1921590680183
 30
0.0
 11
284.5467409948541
 21
419.1921590680183
 31
0.0
  0
LINE
  5
437
330
A
100
AcDbEntity
  8
06
100
AcDbLine
 10
284.5467409948541
 20
419.1921590680183
 30
0.0
 11
313.5467409948542
 21
419.1921590680183
 31
0.0
  0
LINE
  5
438
330
A
100
AcDbEntity
  8
06
100
AcDbLine
 10
313.5467409948542
 20
419.1921590680183
 30
0.0
 11
313.5467409948542
 21
397.1921590680183
 31
0.0
  0
LINE
  5
439
330
A
100
AcDbEntity
  8
06
100
AcDbLine
 10
313.5467409948542
 20
397.1921590680183
 30
0.0
 11
304.0467409948543
 21
397.1921590680183
 31
0.0
  0
LINE
  5
43A
330
A
100
AcDbEntity
  8
06
100
AcDbLine
 10
304.0467409948543
 20
395.6921590680183
 30
0.0
 11
304.0467409948543
 21
397.1921590680183
 31
0.0
  0
LINE
  5
43B
330
A
100
AcDbEntity
  8
06
100
AcDbLine
 10
294.0467409948542
 20
395.6921590680183
 30
0.0
 11
294.0467409948542
 21
397.1921590680183
 31
0.0
  0
LINE
  5
43C
330
A
100
AcDbEntity
  8
06
100
AcDbLine
 10
283.0467409948541
 20
411.1921590680183
 30
0.0
 11
284.5467409948541
 21
411.1921590680183
 31
0.0
  0
LINE
  5
441
330
A
100
AcDbEntity
  8
06
100
AcDbLine
 10
284.5467409948541
 20
406.1921590680183
 30
0.0
 11
283.0467409948541
 21
406.1921590680183
 31
0.0
  0
LINE
  5
443
330
A
100
AcDbEntity
  8
03
100
AcDbLine
 10
223.5467409948542
 20
444.192159068018
 30
0.0
 11
240.5467409948542
 21
444.192159068018
 31
0.0
  0
LINE
  5
444
330
A
100
AcDbEntity
  8
03
100
AcDbLine
 10
222.7967409948541
 20
445.692159068018
 30
0.0
 11
241.2967409948541
 21
445.6921590680182
 31
0.0
  0
LINE
  5
445
330
A
100
AcDbEntity
  8
03
100
AcDbLine
 10
278.046740994854
 20
444.9421590680183
 30
0.0
 11
278.0467409948542
 21
396.4421590680183
 31
0.0
  0
LINE
  5
446
330
A
100
AcDbEntity
  8
03
100
AcDbLine
 10
244.0467409948543
 20
395.6921590680183
 30
0.0
 11
222.7967409948543
 21
395.6921590680181
 31
0.0
  0
ARC
  5
447
330
A
100
AcDbEntity
  8
03
100
AcDbCircle
 10
277.2967409948543
 20
396.4421590680183
 30
0.0
 40
0.75
100
AcDbArc
 50
269.9999999999999
 51
0.0
  0
LINE
  5
448
330
A
100
AcDbEntity
  8
03
100
AcDbLine
 10
223.5467409948542
 20
397.1921590680181
 30
0.0
 11
244.0467409948543
 21
397.1921590680182
 31
0.0
  0
LINE
  5
449
330
A
100
AcDbEntity
  8
03
100
AcDbLine
 10
276.5467409948543
 20
397.1921590680183
 30
0.0
 11
276.5467409948541
 21
444.1921590680183
 31
0.0
  0
LINE
  5
44A
330
A
100
AcDbEntity
  8
03
100
AcDbLine
 10
276.5467409948541
 20
444.1921590680183
 30
0.0
 11
259.5467409948541
 21
444.192159068018
 31
0.0
  0
LINE
  5
44B
330
A
100
AcDbEntity
  8
03
100
AcDbLine
 10
258.7967409948542
 20
445.6921590680182
 30
0.0
 11
277.296740994854
 21
445.6921590680183
 31
0.0
  0
ARC
  5
44C
330
A
100
AcDbEntity
  8
03
100
AcDbCircle
 10
277.296740994854
 20
444.9421590680183
 30
0.0
 40
0.75
100
AcDbArc
 50
0.0000000000000241
 51
90.00000000000019
  0
LINE
  5
44D
330
A
100
AcDbEntity
  8
03
100
AcDbLine
 10
222.046740994854
 20
444.9421590680181
 30
0.0
 11
222.0467409948543
 21
396.442159068018
 31
0.0
  0
ARC
  5
44E
330
A
100
AcDbEntity
  8
03
100
AcDbCircle
 10
222.7967409948543
 20
396.442159068018
 30
0.0
 40
0.75
100
AcDbArc
 50
180.0000000000001
 51
269.9999999999999
  0
ARC
  5
44F
330
A
100
AcDbEntity
  8
03
100
AcDbCircle
 10
222.7967409948541
 20
444.9421590680181
 30
0.0
 40
0.75
100
AcDbArc
 50
90.00000000000019
 51
180.0000000000001
  0
LINE
  5
450
330
A
100
AcDbEntity
  8
03
100
AcDbLine
 10
223.546740994854
 20
444.192159068018
 30
0.0
 11
223.5467409948542
 21
397.1921590680181
 31
0.0
  0
LINE
  5
451
330
A
100
AcDbEntity
  8
03
100
AcDbLine
 10
242.0467409948542
 20
430.6921590680182
 30
0.0
 11
242.0467409948542
 21
444.9421590680182
 31
0.0
  0
ARC
  5
452
330
A
100
AcDbEntity
  8
03
100
AcDbCircle
 10
241.2967409948541
 20
444.9421590680182
 30
0.0
 40
0.75
100
AcDbArc
 50
0.0000000000000241
 51
90.00000000000019
  0
LINE
  5
453
330
A
100
AcDbEntity
  8
03
100
AcDbLine
 10
258.0467409948543
 20
430.6921590680182
 30
0.0
 11
258.0467409948541
 21
444.9421590680182
 31
0.0
  0
ARC
  5
454
330
A
100
AcDbEntity
  8
03
100
AcDbCircle
 10
258.7967409948542
 20
444.9421590680182
 30
0.0
 40
0.75
100
AcDbArc
 50
90.00000000000019
 51
180.0000000000001
  0
LINE
  5
455
330
A
100
AcDbEntity
  8
03
100
AcDbLine
 10
259.5467409948543
 20
430.6921590680182
 30
0.0
 11
259.5467409948541
 21
444.192159068018
 31
0.0
  0
LINE
  5
456
330
A
100
AcDbEntity
  8
03
100
AcDbLine
 10
240.5467409948542
 20
430.6921590680182
 30
0.0
 11
240.5467409948542
 21
444.192159068018
 31
0.0
  0
LINE
  5
457
330
A
100
AcDbEntity
  8
03
100
AcDbLine
 10
230.046740994854
 20
445.6921590680182
 30
0.0
 11
230.046740994854
 21
479.1875045152091
 31
0.0
  0
LINE
  5
458
330
A
100
AcDbEntity
  8
03
100
AcDbLine
 10
230.046740994854
 20
482.1875045152092
 30
0.0
 11
230.046740994854
 21
500.6921590680183
 31
0.0
  0
LINE
  5
459
330
A
100
AcDbEntity
  8
03
100
AcDbLine
 10
270.046740994854
 20
445.6921590680182
 30
0.0
 11
270.046740994854
 21
479.1875045152091
 31
0.0
  0
LINE
  5
45A
330
A
100
AcDbEntity
  8
03
100
AcDbLine
 10
270.046740994854
 20
482.1875045152093
 30
0.0
 11
270.0467409948539
 21
500.6921590680183
 31
0.0
  0
LINE
  5
45B
330
A
100
AcDbEntity
  8
06
100
AcDbLine
 10
283.0467409948546
 20
288.1921590680183
 30
0.0
 11
283.0467409948545
 21
313.1921590680184
 31
0.0
  0
LINE
  5
45C
330
A
100
AcDbEntity
  8
06
100
AcDbLine
 10
283.0467409948545
 20
313.1921590680184
 30
0.0
 11
292.0467409948544
 21
313.1921590680184
 31
0.0
  0
LINE
  5
45D
330
A
100
AcDbEntity
  8
06
100
AcDbLine
 10
292.0467409948545
 20
313.1921590680184
 30
0.0
 11
292.0467409948545
 21
311.6921590680183
 31
0.0
  0
LINE
  5
45E
330
A
100
AcDbEntity
  8
06
100
AcDbLine
 10
292.0467409948545
 20
311.6921590680183
 30
0.0
 11
284.5467409948545
 21
311.6921590680183
 31
0.0
  0
LINE
  5
45F
330
A
100
AcDbEntity
  8
06
100
AcDbLine
 10
284.5467409948545
 20
311.6921590680183
 30
0.0
 11
284.5467409948545
 21
289.6921590680183
 31
0.0
  0
LINE
  5
460
330
A
100
AcDbEntity
  8
06
100
AcDbLine
 10
284.5467409948545
 20
289.6921590680183
 30
0.0
 11
294.0467409948546
 21
289.6921590680183
 31
0.0
  0
LINE
  5
461
330
A
100
AcDbEntity
  8
06
100
AcDbLine
 10
294.0467409948546
 20
288.1921590680183
 30
0.0
 11
294.0467409948546
 21
289.6921590680183
 31
0.0
  0
LINE
  5
462
330
A
100
AcDbEntity
  8
06
100
AcDbLine
 10
294.0467409948546
 20
288.1921590680183
 30
0.0
 11
283.0467409948546
 21
288.1921590680183
 31
0.0
  0
LINE
  5
463
330
A
100
AcDbEntity
  8
06
100
AcDbLine
 10
315.0467409948546
 20
288.1921590680184
 30
0.0
 11
315.0467409948544
 21
313.1921590680184
 31
0.0
  0
LINE
  5
464
330
A
100
AcDbEntity
  8
06
100
AcDbLine
 10
315.0467409948544
 20
313.1921590680184
 30
0.0
 11
306.0467409948544
 21
313.1921590680184
 31
0.0
  0
LINE
  5
465
330
A
100
AcDbEntity
  8
06
100
AcDbLine
 10
306.0467409948545
 20
311.6921590680183
 30
0.0
 11
313.5467409948545
 21
311.6921590680183
 31
0.0
  0
LINE
  5
466
330
A
100
AcDbEntity
  8
06
100
AcDbLine
 10
313.5467409948545
 20
311.6921590680183
 30
0.0
 11
313.5467409948546
 21
289.6921590680183
 31
0.0
  0
LINE
  5
467
330
A
100
AcDbEntity
  8
06
100
AcDbLine
 10
313.5467409948546
 20
289.6921590680183
 30
0.0
 11
304.0467409948546
 21
289.6921590680183
 31
0.0
  0
LINE
  5
468
330
A
100
AcDbEntity
  8
06
100
AcDbLine
 10
304.0467409948546
 20
288.1921590680184
 30
0.0
 11
315.0467409948546
 21
288.1921590680184
 31
0.0
  0
LINE
  5
469
330
A
100
AcDbEntity
  8
06
100
AcDbLine
 10
304.0467409948546
 20
288.1921590680184
 30
0.0
 11
304.0467409948545
 21
289.6921590680183
 31
0.0
  0
LINE
  5
472
330
A
100
AcDbEntity
  8
06
100
AcDbLine
 10
306.0467409948545
 20
318.1921590680183
 30
0.0
 11
315.0467409948545
 21
318.1921590680183
 31
0.0
  0
LINE
  5
473
330
A
100
AcDbEntity
  8
06
100
AcDbLine
 10
315.0467409948545
 20
318.1921590680183
 30
0.0
 11
315.0467409948544
 21
343.1921590680183
 31
0.0
  0
LINE
  5
474
330
A
100
AcDbEntity
  8
06
100
AcDbLine
 10
315.0467409948544
 20
343.1921590680183
 30
0.0
 11
304.0467409948544
 21
343.1921590680183
 31
0.0
  0
LINE
  5
475
330
A
100
AcDbEntity
  8
06
100
AcDbLine
 10
294.0467409948544
 20
343.1921590680183
 30
0.0
 11
283.0467409948544
 21
343.1921590680183
 31
0.0
  0
LINE
  5
476
330
A
100
AcDbEntity
  8
06
100
AcDbLine
 10
283.0467409948544
 20
343.1921590680183
 30
0.0
 11
283.0467409948545
 21
318.1921590680183
 31
0.0
  0
LINE
  5
477
330
A
100
AcDbEntity
  8
06
100
AcDbLine
 10
283.0467409948545
 20
318.1921590680183
 30
0.0
 11
292.0467409948545
 21
318.1921590680183
 31
0.0
  0
LINE
  5
478
330
A
100
AcDbEntity
  8
06
100
AcDbLine
 10
292.0467409948545
 20
318.1921590680183
 30
0.0
 11
292.0467409948545
 21
319.6921590680183
 31
0.0
  0
LINE
  5
479
330
A
100
AcDbEntity
  8
06
100
AcDbLine
 10
292.0467409948545
 20
319.6921590680183
 30
0.0
 11
284.5467409948545
 21
319.6921590680183
 31
0.0
  0
LINE
  5
47A
330
A
100
AcDbEntity
  8
06
100
AcDbLine
 10
284.5467409948545
 20
319.6921590680183
 30
0.0
 11
284.5467409948544
 21
341.6921590680183
 31
0.0
  0
LINE
  5
47B
330
A
100
AcDbEntity
  8
06
100
AcDbLine
 10
284.5467409948544
 20
341.6921590680183
 30
0.0
 11
294.0467409948544
 21
341.6921590680183
 31
0.0
  0
LINE
  5
47C
330
A
100
AcDbEntity
  8
06
100
AcDbLine
 10
304.0467409948544
 20
341.6921590680183
 30
0.0
 11
313.5467409948544
 21
341.6921590680183
 31
0.0
  0
LINE
  5
47D
330
A
100
AcDbEntity
  8
06
100
AcDbLine
 10
313.5467409948544
 20
341.6921590680183
 30
0.0
 11
313.5467409948545
 21
319.6921590680183
 31
0.0
  0
LINE
  5
47E
330
A
100
AcDbEntity
  8
06
100
AcDbLine
 10
313.5467409948545
 20
319.6921590680183
 30
0.0
 11
306.0467409948545
 21
319.6921590680183
 31
0.0
  0
LINE
  5
47F
330
A
100
AcDbEntity
  8
06
100
AcDbLine
 10
306.0467409948545
 20
319.6921590680183
 30
0.0
 11
306.0467409948545
 21
318.1921590680183
 31
0.0
  0
LINE
  5
487
330
A
100
AcDbEntity
  8
06
100
AcDbLine
 10
294.0467409948545
 20
343.1921590680183
 30
0.0
 11
294.0467409948545
 21
341.6921590680183
 31
0.0
  0
LINE
  5
488
330
A
100
AcDbEntity
  8
06
100
AcDbLine
 10
304.0467409948545
 20
343.1921590680183
 30
0.0
 11
304.0467409948544
 21
341.6921590680183
 31
0.0
  0
LINE
  5
489
330
A
100
AcDbEntity
  8
03
100
AcDbLine
 10
223.5467409948546
 20
187.1921590680184
 30
0.0
 11
240.5467409948546
 21
187.1921590680184
 31
0.0
  0
LINE
  5
48A
330
A
100
AcDbEntity
  8
03
100
AcDbLine
 10
222.7967409948545
 20
185.6921590680185
 30
0.0
 11
241.2967409948547
 21
185.6921590680185
 31
0.0
  0
LINE
  5
48B
330
A
100
AcDbEntity
  8
03
100
AcDbLine
 10
278.0467409948546
 20
186.4421590680185
 30
0.0
 11
278.0467409948546
 21
234.9421590680186
 31
0.0
  0
LINE
  5
48C
330
A
100
AcDbEntity
  8
03
100
AcDbLine
 10
277.2967409948545
 20
235.6921590680186
 30
0.0
 11
256.0467409948548
 21
235.6921590680186
 31
0.0
  0
ARC
  5
48D
330
A
100
AcDbEntity
  8
03
100
AcDbCircle
 10
277.2967409948545
 20
234.9421590680186
 30
0.0
 40
0.75
100
AcDbArc
 50
0.000000000000075
 51
90.00000000000019
  0
LINE
  5
48E
330
A
100
AcDbEntity
  8
03
100
AcDbLine
 10
223.5467409948546
 20
234.1921590680184
 30
0.0
 11
244.0467409948547
 21
234.1921590680184
 31
0.0
  0
LINE
  5
48F
330
A
100
AcDbEntity
  8
03
100
AcDbLine
 10
276.5467409948545
 20
234.1921590680186
 30
0.0
 11
276.5467409948547
 21
187.1921590680184
 31
0.0
  0
LINE
  5
490
330
A
100
AcDbEntity
  8
03
100
AcDbLine
 10
276.5467409948547
 20
187.1921590680184
 30
0.0
 11
259.5467409948545
 21
187.1921590680186
 31
0.0
  0
LINE
  5
491
330
A
100
AcDbEntity
  8
03
100
AcDbLine
 10
258.7967409948547
 20
185.6921590680186
 30
0.0
 11
277.2967409948547
 21
185.6921590680185
 31
0.0
  0
ARC
  5
492
330
A
100
AcDbEntity
  8
03
100
AcDbCircle
 10
277.2967409948547
 20
186.4421590680185
 30
0.0
 40
0.75
100
AcDbArc
 50
269.9999999999999
 51
0.0000000000000799
  0
LINE
  5
493
330
A
100
AcDbEntity
  8
03
100
AcDbLine
 10
222.0467409948546
 20
186.4421590680185
 30
0.0
 11
222.0467409948545
 21
234.9421590680185
 31
0.0
  0
ARC
  5
494
330
A
100
AcDbEntity
  8
03
100
AcDbCircle
 10
222.7967409948545
 20
234.9421590680185
 30
0.0
 40
0.75
100
AcDbArc
 50
90.00000000000019
 51
180.0000000000001
  0
ARC
  5
495
330
A
100
AcDbEntity
  8
03
100
AcDbCircle
 10
222.7967409948545
 20
186.4421590680185
 30
0.0
 40
0.75
100
AcDbArc
 50
180.0000000000001
 51
269.9999999999999
  0
LINE
  5
496
330
A
100
AcDbEntity
  8
03
100
AcDbLine
 10
223.5467409948546
 20
187.1921590680184
 30
0.0
 11
223.5467409948546
 21
234.1921590680184
 31
0.0
  0
LINE
  5
497
330
A
100
AcDbEntity
  8
03
100
AcDbLine
 10
242.0467409948546
 20
200.6921590680186
 30
0.0
 11
242.0467409948547
 21
186.4421590680185
 31
0.0
  0
ARC
  5
498
330
A
100
AcDbEntity
  8
03
100
AcDbCircle
 10
241.2967409948547
 20
186.4421590680185
 30
0.0
 40
0.75
100
AcDbArc
 50
269.9999999999999
 51
0.0
  0
LINE
  5
499
330
A
100
AcDbEntity
  8
03
100
AcDbLine
 10
258.0467409948545
 20
200.6921590680186
 30
0.0
 11
258.0467409948547
 21
186.4421590680186
 31
0.0
  0
ARC
  5
49A
330
A
100
AcDbEntity
  8
03
100
AcDbCircle
 10
258.7967409948547
 20
186.4421590680186
 30
0.0
 40
0.75
100
AcDbArc
 50
180.0000000000001
 51
269.9999999999999
  0
LINE
  5
49B
330
A
100
AcDbEntity
  8
03
100
AcDbLine
 10
259.5467409948545
 20
200.6921590680186
 30
0.0
 11
259.5467409948545
 21
187.1921590680186
 31
0.0
  0
LINE
  5
49C
330
A
100
AcDbEntity
  8
03
100
AcDbLine
 10
240.5467409948546
 20
200.6921590680184
 30
0.0
 11
240.5467409948546
 21
187.1921590680184
 31
0.0
  0
LINE
  5
49D
330
A
100
AcDbEntity
  8
03
100
AcDbLine
 10
230.0467409948546
 20
185.6921590680185
 30
0.0
 11
230.0467409948546
 21
159.6921590680183
 31
0.0
  0
LINE
  5
49E
330
A
100
AcDbEntity
  8
03
100
AcDbLine
 10
230.0467409948546
 20
156.6921590680183
 30
0.0
 11
230.0467409948548
 21
130.6921590680184
 31
0.0
  0
LINE
  5
49F
330
A
100
AcDbEntity
  8
03
100
AcDbLine
 10
270.0467409948547
 20
185.6921590680185
 30
0.0
 11
270.0467409948547
 21
159.6921590680184
 31
0.0
  0
LINE
  5
4A0
330
A
100
AcDbEntity
  8
03
100
AcDbLine
 10
270.0467409948547
 20
156.6921590680184
 30
0.0
 11
270.0467409948548
 21
130.6921590680184
 31
0.0
  0
LINE
  5
4A1
330
A
100
AcDbEntity
  8
06
100
AcDbLine
 10
294.0467409948546
 20
235.6921590680186
 30
0.0
 11
283.0467409948546
 21
235.6921590680186
 31
0.0
  0
LINE
  5
4A2
330
A
100
AcDbEntity
  8
06
100
AcDbLine
 10
283.0467409948546
 20
235.6921590680186
 30
0.0
 11
283.0467409948547
 21
225.1921590680185
 31
0.0
  0
LINE
  5
4A3
330
A
100
AcDbEntity
  8
06
100
AcDbLine
 10
283.0467409948546
 20
220.1921590680185
 30
0.0
 11
283.0467409948547
 21
210.6921590680185
 31
0.0
  0
LINE
  5
4A4
330
A
100
AcDbEntity
  8
06
100
AcDbLine
 10
283.0467409948547
 20
210.6921590680185
 30
0.0
 11
315.0467409948547
 21
210.6921590680186
 31
0.0
  0
LINE
  5
4A5
330
A
100
AcDbEntity
  8
06
100
AcDbLine
 10
315.0467409948547
 20
210.6921590680186
 30
0.0
 11
315.0467409948546
 21
235.6921590680186
 31
0.0
  0
LINE
  5
4A6
330
A
100
AcDbEntity
  8
06
100
AcDbLine
 10
315.0467409948546
 20
235.6921590680186
 30
0.0
 11
304.0467409948546
 21
235.6921590680186
 31
0.0
  0
LINE
  5
4A7
330
A
100
AcDbEntity
  8
06
100
AcDbLine
 10
294.0467409948546
 20
234.1921590680186
 30
0.0
 11
284.5467409948546
 21
234.1921590680186
 31
0.0
  0
LINE
  5
4A8
330
A
100
AcDbEntity
  8
06
100
AcDbLine
 10
284.5467409948546
 20
234.1921590680186
 30
0.0
 11
284.5467409948546
 21
225.1921590680186
 31
0.0
  0
LINE
  5
4A9
330
A
100
AcDbEntity
  8
06
100
AcDbLine
 10
284.5467409948546
 20
220.1921590680186
 30
0.0
 11
284.5467409948546
 21
212.1921590680186
 31
0.0
  0
LINE
  5
4AA
330
A
100
AcDbEntity
  8
06
100
AcDbLine
 10
284.5467409948546
 20
212.1921590680186
 30
0.0
 11
313.5467409948546
 21
212.1921590680186
 31
0.0
  0
LINE
  5
4AB
330
A
100
AcDbEntity
  8
06
100
AcDbLine
 10
313.5467409948546
 20
212.1921590680186
 30
0.0
 11
313.5467409948546
 21
234.1921590680186
 31
0.0
  0
LINE
  5
4AC
330
A
100
AcDbEntity
  8
06
100
AcDbLine
 10
313.5467409948546
 20
234.1921590680186
 30
0.0
 11
304.0467409948546
 21
234.1921590680186
 31
0.0
  0
LINE
  5
4AD
330
A
100
AcDbEntity
  8
06
100
AcDbLine
 10
283.0467409948546
 20
220.1921590680185
 30
0.0
 11
284.5467409948546
 21
220.1921590680185
 31
0.0
  0
LINE
  5
4B2
330
A
100
AcDbEntity
  8
06
100
AcDbLine
 10
284.5467409948546
 20
225.1921590680185
 30
0.0
 11
283.0467409948547
 21
225.1921590680185
 31
0.0
  0
LINE
  5
4B4
330
A
100
AcDbEntity
  8
04
100
AcDbLine
 10
244.0467409948547
 20
237.6921590680186
 30
0.0
 11
242.5467409948546
 21
236.6921590680186
 31
0.0
  0
LINE
  5
4B5
330
A
100
AcDbEntity
  8
04
100
AcDbLine
 10
256.0467409948547
 20
237.6921590680186
 30
0.0
 11
257.5467409948547
 21
236.6921590680186
 31
0.0
  0
LINE
  5
4B6
330
A
100
AcDbEntity
  8
04
100
AcDbLine
 10
256.0467409948547
 20
221.6921590680186
 30
0.0
 11
244.0467409948547
 21
221.6921590680186
 31
0.0
  0
LINE
  5
4B7
330
A
100
AcDbEntity
  8
04
100
AcDbLine
 10
242.5467409948546
 20
235.6921590680186
 30
0.0
 11
242.5467409948546
 21
236.6921590680186
 31
0.0
  0
LINE
  5
4B8
330
A
100
AcDbEntity
  8
04
100
AcDbLine
 10
244.0467409948547
 20
237.6921590680186
 30
0.0
 11
256.0467409948547
 21
237.6921590680186
 31
0.0
  0
LINE
  5
4B9
330
A
100
AcDbEntity
  8
04
100
AcDbLine
 10
257.5467409948547
 20
236.6921590680186
 30
0.0
 11
257.5467409948547
 21
235.6921590680186
 31
0.0
  0
LINE
  5
4BA
330
A
100
AcDbEntity
  8
04
100
AcDbLine
 10
242.5467409948546
 20
235.6921590680186
 30
0.0
 11
257.5467409948547
 21
235.6921590680186
 31
0.0
  0
LINE
  5
4BC
330
A
100
AcDbEntity
  8
04
100
AcDbLine
 10
244.0467409948547
 20
221.6921590680186
 30
0.0
 11
244.0467409948547
 21
228.6921590680186
 31
0.0
  0
LINE
  5
4BD
330
A
100
AcDbEntity
  8
04
100
AcDbLine
 10
256.0467409948547
 20
228.6921590680186
 30
0.0
 11
256.0467409948547
 21
221.6921590680186
 31
0.0
  0
LINE
  5
4BE
330
A
100
AcDbEntity
  8
04
100
AcDbLine
 10
242.5467409948546
 20
234.6921590680186
 30
0.0
 11
242.5467409948546
 21
232.1921590680186
 31
0.0
  0
LINE
  5
4BF
330
A
100
AcDbEntity
  8
04
100
AcDbLine
 10
244.0467409948547
 20
228.6921590680186
 30
0.0
 11
242.5467409948546
 21
232.1921590680186
 31
0.0
  0
LINE
  5
4C0
330
A
100
AcDbEntity
  8
04
100
AcDbLine
 10
257.5467409948547
 20
234.6921590680186
 30
0.0
 11
257.5467409948547
 21
232.1921590680186
 31
0.0
  0
LINE
  5
4C1
330
A
100
AcDbEntity
  8
04
100
AcDbLine
 10
256.0467409948547
 20
228.6921590680186
 30
0.0
 11
257.5467409948547
 21
232.1921590680186
 31
0.0
  0
LINE
  5
4C2
330
A
100
AcDbEntity
  8
04
100
AcDbLine
 10
245.0467409948547
 20
235.6921590680186
 30
0.0
 11
245.0467409948547
 21
230.6921590680186
 31
0.0
  0
LINE
  5
4C3
330
A
100
AcDbEntity
  8
04
100
AcDbLine
 10
255.0467409948546
 20
235.6921590680186
 30
0.0
 11
255.0467409948546
 21
230.6921590680186
 31
0.0
  0
LINE
  5
4C4
330
A
100
AcDbEntity
  8
04
100
AcDbLine
 10
245.0467409948547
 20
230.6921590680186
 30
0.0
 11
242.5467409948546
 21
234.6921590680186
 31
0.0
  0
LINE
  5
4C5
330
A
100
AcDbEntity
  8
04
100
AcDbLine
 10
255.0467409948546
 20
230.6921590680186
 30
0.0
 11
257.5467409948547
 21
234.6921590680186
 31
0.0
  0
LINE
  5
4C6
330
A
100
AcDbEntity
  8
04
100
AcDbLine
 10
248.7967409948546
 20
221.6921590680186
 30
0.0
 11
248.7967409948546
 21
215.6921590680186
 31
0.0
  0
LINE
  5
4C7
330
A
100
AcDbEntity
  8
04
100
AcDbLine
 10
251.2967409948547
 20
215.6921590680186
 30
0.0
 11
251.2967409948547
 21
221.6921590680186
 31
0.0
  0
LINE
  5
4C8
330
A
100
AcDbEntity
  8
04
100
AcDbLine
 10
244.0467409948547
 20
393.6921590680183
 30
0.0
 11
242.5467409948546
 21
394.6921590680183
 31
0.0
  0
LINE
  5
4C9
330
A
100
AcDbEntity
  8
04
100
AcDbLine
 10
256.0467409948547
 20
393.6921590680183
 30
0.0
 11
257.5467409948547
 21
394.6921590680183
 31
0.0
  0
LINE
  5
4CA
330
A
100
AcDbEntity
  8
04
100
AcDbLine
 10
256.0467409948547
 20
409.6921590680183
 30
0.0
 11
244.0467409948547
 21
409.6921590680183
 31
0.0
  0
LINE
  5
4CB
330
A
100
AcDbEntity
  8
04
100
AcDbLine
 10
242.5467409948546
 20
395.6921590680183
 30
0.0
 11
242.5467409948546
 21
394.6921590680183
 31
0.0
  0
LINE
  5
4CC
330
A
100
AcDbEntity
  8
04
100
AcDbLine
 10
244.0467409948547
 20
393.6921590680183
 30
0.0
 11
256.0467409948547
 21
393.6921590680183
 31
0.0
  0
LINE
  5
4CD
330
A
100
AcDbEntity
  8
04
100
AcDbLine
 10
257.5467409948547
 20
394.6921590680183
 30
0.0
 11
257.5467409948547
 21
395.6921590680183
 31
0.0
  0
LINE
  5
4D0
330
A
100
AcDbEntity
  8
04
100
AcDbLine
 10
244.0467409948547
 20
409.6921590680183
 30
0.0
 11
244.0467409948547
 21
402.6921590680183
 31
0.0
  0
LINE
  5
4D1
330
A
100
AcDbEntity
  8
04
100
AcDbLine
 10
256.0467409948547
 20
402.6921590680183
 30
0.0
 11
256.0467409948547
 21
409.6921590680183
 31
0.0
  0
LINE
  5
4D2
330
A
100
AcDbEntity
  8
04
100
AcDbLine
 10
242.5467409948546
 20
396.6921590680183
 30
0.0
 11
242.5467409948546
 21
399.1921590680183
 31
0.0
  0
LINE
  5
4D3
330
A
100
AcDbEntity
  8
04
100
AcDbLine
 10
244.0467409948547
 20
402.6921590680183
 30
0.0
 11
242.5467409948546
 21
399.1921590680183
 31
0.0
  0
LINE
  5
4D4
330
A
100
AcDbEntity
  8
04
100
AcDbLine
 10
257.5467409948547
 20
396.6921590680183
 30
0.0
 11
257.5467409948547
 21
399.1921590680183
 31
0.0
  0
LINE
  5
4D5
330
A
100
AcDbEntity
  8
04
100
AcDbLine
 10
256.0467409948547
 20
402.6921590680183
 30
0.0
 11
257.5467409948547
 21
399.1921590680183
 31
0.0
  0
LINE
  5
4D6
330
A
100
AcDbEntity
  8
04
100
AcDbLine
 10
245.0467409948547
 20
395.6921590680183
 30
0.0
 11
245.0467409948547
 21
400.6921590680183
 31
0.0
  0
LINE
  5
4D7
330
A
100
AcDbEntity
  8
04
100
AcDbLine
 10
255.0467409948546
 20
395.6921590680183
 30
0.0
 11
255.0467409948546
 21
400.6921590680183
 31
0.0
  0
LINE
  5
4D8
330
A
100
AcDbEntity
  8
04
100
AcDbLine
 10
245.0467409948547
 20
400.6921590680183
 30
0.0
 11
242.5467409948546
 21
396.6921590680183
 31
0.0
  0
LINE
  5
4D9
330
A
100
AcDbEntity
  8
04
100
AcDbLine
 10
255.0467409948546
 20
400.6921590680183
 30
0.0
 11
257.5467409948547
 21
396.6921590680183
 31
0.0
  0
LINE
  5
4DA
330
A
100
AcDbEntity
  8
04
100
AcDbLine
 10
248.7967409948546
 20
409.6921590680183
 30
0.0
 11
248.7967409948546
 21
415.6921590680183
 31
0.0
  0
LINE
  5
4DB
330
A
100
AcDbEntity
  8
04
100
AcDbLine
 10
251.2967409948547
 20
415.6921590680183
 30
0.0
 11
251.2967409948547
 21
409.6921590680183
 31
0.0
  0
LINE
  5
4DC
330
A
100
AcDbEntity
  8
06
100
AcDbLine
 10
294.0467409948546
 20
234.1921590680186
 30
0.0
 11
294.0467409948547
 21
235.6921590680186
 31
0.0
  0
LINE
  5
4DD
330
A
100
AcDbEntity
  8
06
100
AcDbLine
 10
304.0467409948546
 20
234.1921590680186
 30
0.0
 11
304.0467409948546
 21
235.6921590680186
 31
0.0
  0
TEXT
  5
4E8
330
A
100
AcDbEntity
  8
MOJI
100
AcDbText
 10
122.4391080617494
 20
371.3574980151445
 30
0.0
 40
5.0
  1
電源スイッチ
 50
90.00000000000005
 41
0.8
  7
0_8
 11
119.9391080617495
 21
371.3574980151445
 31
0.0
100
AcDbText
 73
     2
  0
TEXT
  5
4E9
330
A
100
AcDbEntity
  8
MOJI
100
AcDbText
 10
132.1646655231559
 20
371.3574980151445
 30
0.0
 40
5.0
  1
（電気工事）
 50
90.00000000000012
 41
0.8
  7
0_8
 11
129.664665523156
 21
371.3574980151445
 31
0.0
100
AcDbText
 73
     2
  0
TEXT
  5
4F7
330
A
100
AcDbEntity
  8
MOJI
100
AcDbText
 10
246.0251602807753
 20
295.0490825637069
 30
0.0
 40
5.0
  1
補助光電スイッチ
 50
90.00000000000019
 41
0.8
  7
0_8
 11
243.5251602807753
 21
295.0490825637069
 31
0.0
100
AcDbText
 73
     2
  0
POLYLINE
  5
58D
330
A
100
AcDbEntity
  8
DEFPOINTS
100
AcDb2dPolyline
 66
     1
 10
0.0
 20
0.0
 30
0.0
 70
     1
  0
VERTEX
  5
12BC
330
58D
100
AcDbEntity
  8
DEFPOINTS
100
AcDbVertex
100
AcDb2dVertex
 10
0.0
 20
0.0
 30
0.0
  0
VERTEX
  5
12BD
330
58D
100
AcDbEntity
  8
DEFPOINTS
100
AcDbVertex
100
AcDb2dVertex
 10
420.0
 20
0.0
 30
0.0
  0
VERTEX
  5
12BE
330
58D
100
AcDbEntity
  8
DEFPOINTS
100
AcDbVertex
100
AcDb2dVertex
 10
420.0
 20
594.0
 30
0.0
  0
VERTEX
  5
12BF
330
58D
100
AcDbEntity
  8
DEFPOINTS
100
AcDbVertex
100
AcDb2dVertex
 10
0.0
 20
594.0
 30
0.0
  0
SEQEND
  5
12C0
330
58D
100
AcDbEntity
  8
DEFPOINTS
  0
POLYLINE
  5
5AF
330
A
100
AcDbEntity
  8
SAISEN
100
AcDb2dPolyline
 66
     1
 10
0.0
 20
0.0
 30
0.0
 70
     1
  0
VERTEX
  5
12C1
330
5AF
100
AcDbEntity
  8
SAISEN
100
AcDbVertex
100
AcDb2dVertex
 10
195.7916380789025
 20
300.6921590680182
 30
0.0
  0
VERTEX
  5
12C2
330
5AF
100
AcDbEntity
  8
SAISEN
100
AcDbVertex
100
AcDb2dVertex
 10
205.7916380789025
 20
300.6921590680182
 30
0.0
  0
VERTEX
  5
12C3
330
5AF
100
AcDbEntity
  8
SAISEN
100
AcDbVertex
100
AcDb2dVertex
 10
205.7916380789025
 20
330.6921590680182
 30
0.0
  0
VERTEX
  5
12C4
330
5AF
100
AcDbEntity
  8
SAISEN
100
AcDbVertex
100
AcDb2dVertex
 10
195.7916380789025
 20
330.6921590680182
 30
0.0
  0
SEQEND
  5
12C5
330
5AF
100
AcDbEntity
  8
SAISEN
  0
MTEXT
  5
5B0
330
A
100
AcDbEntity
  8
MOJI
100
AcDbMText
 10
200.7916380789025
 20
315.6921590680182
 30
0.0
 40
6.0
 41
30.0
 71
     5
 72
     1
  1
外　部
  7
0_8
 11
0.0000000000000001
 21
1.0
 31
0.0
1001
ACAD
1000
MTEXTBEGIN
1070
    73
1070
     1
1070
    44
1040
1.0
1070
    74
1070
     0
1000
MTEXTEND
1000
MTEXTBEGIN
1070
    73
1070
     1
1070
    44
1040
1.0
1070
    74
1070
     0
1000
MTEXTEND
  0
MTEXT
  5
5B1
330
A
100
AcDbEntity
  8
MOJI
100
AcDbMText
 10
387.6065180102918
 20
315.692159068018
 30
0.0
 40
6.0
 41
30.0
 71
     5
 72
     1
  1
内　部
  7
0_8
 11
0.0000000000000001
 21
1.0
 31
0.0
1001
ACAD
1000
MTEXTBEGIN
1070
    73
1070
     1
1070
    44
1040
1.0
1070
    74
1070
     0
1000
MTEXTEND
1000
MTEXTBEGIN
1070
    73
1070
     1
1070
    44
1040
1.0
1070
    74
1070
     0
1000
MTEXTEND
  0
POLYLINE
  5
5B2
330
A
100
AcDbEntity
  8
SAISEN
100
AcDb2dPolyline
 66
     1
 10
0.0
 20
0.0
 30
0.0
 70
     1
  0
VERTEX
  5
12C6
330
5B2
100
AcDbEntity
  8
SAISEN
100
AcDbVertex
100
AcDb2dVertex
 10
382.6065180102919
 20
300.692159068018
 30
0.0
  0
VERTEX
  5
12C7
330
5B2
100
AcDbEntity
  8
SAISEN
100
AcDbVertex
100
AcDb2dVertex
 10
392.6065180102919
 20
300.692159068018
 30
0.0
  0
VERTEX
  5
12C8
330
5B2
100
AcDbEntity
  8
SAISEN
100
AcDbVertex
100
AcDb2dVertex
 10
392.6065180102919
 20
330.6921590680181
 30
0.0
  0
VERTEX
  5
12C9
330
5B2
100
AcDbEntity
  8
SAISEN
100
AcDbVertex
100
AcDb2dVertex
 10
382.6065180102919
 20
330.6921590680181
 30
0.0
  0
SEQEND
  5
12CA
330
5B2
100
AcDbEntity
  8
SAISEN
  0
DIMENSION
  5
5B8
330
A
100
AcDbEntity
  8
SUNPOU
100
AcDbDimension
  2
*D1
 10
336.046740994854
 20
545.6921590680182
 30
0.0
 11
276.046740994854
 21
541.1317675371021
 31
0.0
 70
   160
 53
180.0
  3
SUNPOU_2
100
AcDbAlignedDimension
 13
216.0467409948539
 23
529.942159068018
 33
0.0
 14
336.046740994854
 24
529.942159068018
 34
0.0
100
AcDbRotatedDimension
  0
DIMENSION
  5
5CF
330
A
100
AcDbEntity
  8
SUNPOU
100
AcDbDimension
  2
*D2
 10
219.046740994854
 20
462.5830774118393
 30
0.0
 11
208.8393469113756
 21
457.9981140759756
 31
0.0
 70
   160
 53
180.0
  3
SUNPOU_2
100
AcDbAlignedDimension
 13
216.046740994854
 23
501.442159068018
 33
0.0
 14
219.046740994854
 24
500.6921590680181
 34
0.0
100
AcDbRotatedDimension
1001
ACAD
1000
DSTYLE
1002
{
1070
     7
1000
DOTSMALL
1070
     5
1000

1070
   173
1070
     1
1070
     6
1000
OPEN30
1002
}
  0
DIMENSION
  5
5DE
330
A
100
AcDbEntity
  8
SUNPOU
100
AcDbDimension
  2
*D3
 10
222.046740994854
 20
462.5830774118393
 30
0.0
 11
222.2044306426496
 21
467.8318126325793
 31
0.0
 70
   160
 53
180.0
  3
SUNPOU_2
100
AcDbAlignedDimension
 13
219.046740994854
 23
500.6921590680181
 33
0.0
 14
222.046740994854
 24
444.9421590680181
 34
0.0
100
AcDbRotatedDimension
1001
ACAD
1000
DSTYLE
1002
{
1070
     7
1000
OPEN30
1070
     5
1000

1070
   173
1070
     1
1070
     6
1000
DOTSMALL
1002
}
  0
DIMENSION
  5
5ED
330
A
100
AcDbEntity
  8
SUNPOU
100
AcDbDimension
  2
*D4
 10
278.046740994854
 20
462.5830774118393
 30
0.0
 11
259.04147045428
 21
458.0779347304051
 31
0.0
 70
   160
 53
180.0
  3
SUNPOU_2
100
AcDbAlignedDimension
 13
222.046740994854
 23
444.9421590680181
 33
0.0
 14
278.046740994854
 24
444.9421590680183
 34
0.0
100
AcDbRotatedDimension
  0
DIMENSION
  5
5FA
330
A
100
AcDbEntity
  8
SUNPOU
100
AcDbDimension
  2
*D5
 10
283.0467409948541
 20
462.5830774118393
 30
0.0
 11
280.546740994854
 21
458.0331956097236
 31
0.0
 70
   160
 53
180.0
  3
SUNPOU_2
100
AcDbAlignedDimension
 13
278.046740994854
 23
444.9421590680183
 33
0.0
 14
283.0467409948541
 24
420.6921590680183
 34
0.0
100
AcDbRotatedDimension
  0
DIMENSION
  5
609
330
A
100
AcDbEntity
  8
SUNPOU
100
AcDbDimension
  2
*D6
 10
315.0467409948542
 20
462.5830774118393
 30
0.0
 11
303.2636190038683
 21
458.0331956097236
 31
0.0
 70
   160
 53
180.0
  3
SUNPOU_2
100
AcDbAlignedDimension
 13
283.0467409948541
 23
420.6921590680183
 33
0.0
 14
315.0467409948542
 24
420.6921590680183
 34
0.0
100
AcDbRotatedDimension
  0
DIMENSION
  5
616
330
A
100
AcDbEntity
  8
SUNPOU
100
AcDbDimension
  2
*D7
 10
336.046740994854
 20
462.5830774118393
 30
0.0
 11
325.5467409948542
 21
458.0337308361511
 31
0.0
 70
   160
 53
180.0
  3
SUNPOU_2
100
AcDbAlignedDimension
 13
315.0467409948542
 23
420.6921590680183
 33
0.0
 14
336.046740994854
 24
501.4421590680185
 34
0.0
100
AcDbRotatedDimension
  0
DIMENSION
  5
661
330
A
100
AcDbEntity
  8
SUNPOU
100
AcDbDimension
  2
*D8
 10
355.0467409948545
 20
235.6921590680186
 30
0.0
 11
350.5467409948543
 21
210.6921590680186
 31
0.0
 70
    32
  3
SUNPOU_2
100
AcDbAlignedDimension
 13
277.2967409948547
 23
185.6921590680185
 33
0.0
 14
315.0467409948546
 24
235.6921590680186
 34
0.0
 50
90.0
100
AcDbRotatedDimension
  0
DIMENSION
  5
66E
330
A
100
AcDbEntity
  8
SUNPOU
100
AcDbDimension
  2
*D9
 10
355.0467409948546
 20
395.6921590680183
 30
0.0
 11
350.5467409948543
 21
315.6921590680186
 31
0.0
 70
    32
  1
開口 W
  3
SUNPOU_2
100
AcDbAlignedDimension
 13
315.0467409948546
 23
235.6921590680186
 33
0.0
 14
315.0467409948543
 24
395.6921590680183
 34
0.0
 50
90.0
100
AcDbRotatedDimension
  0
DIMENSION
  5
67B
330
A
100
AcDbEntity
  8
SUNPOU
100
AcDbDimension
  2
*D10
 10
355.0467409948546
 20
445.6921590680183
 30
0.0
 11
350.5467409948543
 21
420.6921590680183
 31
0.0
 70
    32
  3
SUNPOU_2
100
AcDbAlignedDimension
 13
315.0467409948543
 23
395.6921590680183
 33
0.0
 14
277.296740994854
 24
445.6921590680183
 34
0.0
 50
90.0
100
AcDbRotatedDimension
  0
DIMENSION
  5
688
330
A
100
AcDbEntity
  8
SUNPOU
100
AcDbDimension
  2
*D11
 10
325.0467409948547
 20
235.6921590680186
 30
0.0
 11
320.5467409948547
 21
223.1921590680186
 31
0.0
 70
    32
  3
SUNPOU_2
100
AcDbAlignedDimension
 13
315.0467409948547
 23
210.6921590680186
 33
0.0
 14
315.0467409948546
 24
235.6921590680186
 34
0.0
 50
90.0
100
AcDbRotatedDimension
  0
DIMENSION
  5
695
330
A
100
AcDbEntity
  8
SUNPOU
100
AcDbDimension
  2
*D12
 10
340.0467409948545
 20
313.1921590680184
 30
0.0
 11
335.5467409948544
 21
261.9421590680186
 31
0.0
 70
    32
  1
DW
  3
SUNPOU_2
100
AcDbAlignedDimension
 13
315.0467409948547
 23
210.6921590680186
 33
0.0
 14
315.0467409948547
 24
313.1921590680184
 34
0.0
 50
90.0
100
AcDbRotatedDimension
  0
DIMENSION
  5
6A2
330
A
100
AcDbEntity
  8
SUNPOU
100
AcDbDimension
  2
*D13
 10
340.0467409948545
 20
318.1921590680183
 30
0.0
 11
334.6603537224332
 21
315.6921590680183
 31
0.0
 70
   160
  3
SUNPOU_2
100
AcDbAlignedDimension
 13
315.0467409948547
 23
313.1921590680184
 33
0.0
 14
315.0467409948545
 24
318.1921590680183
 34
0.0
 50
90.0
100
AcDbRotatedDimension
  0
DIMENSION
  5
6B1
330
A
100
AcDbEntity
  8
SUNPOU
100
AcDbDimension
  2
*D14
 10
340.0467409948546
 20
420.6921590680183
 30
0.0
 11
335.5467409948544
 21
369.4421590680183
 31
0.0
 70
    32
  1
DW
  3
SUNPOU_2
100
AcDbAlignedDimension
 13
315.0467409948545
 23
318.1921590680183
 33
0.0
 14
315.0467409948545
 24
420.6921590680183
 34
0.0
 50
90.0
100
AcDbRotatedDimension
  0
DIMENSION
  5
6BE
330
A
100
AcDbEntity
  8
SUNPOU
100
AcDbDimension
  2
*D15
 10
325.0467409948545
 20
420.6921590680183
 30
0.0
 11
320.5467409948544
 21
408.1921590680185
 31
0.0
 70
    32
  3
SUNPOU_2
100
AcDbAlignedDimension
 13
315.0467409948544
 23
395.6921590680183
 33
0.0
 14
315.0467409948545
 24
420.6921590680183
 34
0.0
 50
90.0
100
AcDbRotatedDimension
  0
DIMENSION
  5
6CB
330
A
100
AcDbEntity
  8
SUNPOU
100
AcDbDimension
  2
*D16
 10
325.0467409948546
 20
313.1921590680184
 30
0.0
 11
320.5467409948545
 21
300.6921590680184
 31
0.0
 70
    32
  3
SUNPOU_2
100
AcDbAlignedDimension
 13
315.0467409948546
 23
288.1921590680184
 33
0.0
 14
315.0467409948547
 24
313.1921590680184
 34
0.0
 50
90.0
100
AcDbRotatedDimension
  0
DIMENSION
  5
6D8
330
A
100
AcDbEntity
  8
SUNPOU
100
AcDbDimension
  2
*D17
 10
325.0467409948545
 20
343.1921590680183
 30
0.0
 11
320.5467409948544
 21
330.6921590680185
 31
0.0
 70
    32
  3
SUNPOU_2
100
AcDbAlignedDimension
 13
315.0467409948545
 23
318.1921590680183
 33
0.0
 14
315.0467409948545
 24
343.1921590680183
 34
0.0
 50
90.0
100
AcDbRotatedDimension
  0
DIMENSION
  5
6E5
330
A
100
AcDbEntity
  8
SUNPOU
100
AcDbDimension
  2
*D18
 10
370.0467409948543
 20
130.6921590680185
 30
0.0
 11
365.5467409948543
 21
115.6921590680185
 31
0.0
 70
    32
  3
SUNPOU_2
100
AcDbAlignedDimension
 13
335.2967409948548
 23
100.6921590680184
 33
0.0
 14
335.2967409948548
 24
130.6921590680185
 34
0.0
 50
90.0
100
AcDbRotatedDimension
  0
DIMENSION
  5
6F2
330
A
100
AcDbEntity
  8
SUNPOU
100
AcDbDimension
  2
*D19
 10
370.0467409948545
 20
500.6921590680184
 30
0.0
 11
365.5467409948543
 21
315.6921590680186
 31
0.0
 70
    32
  1
W
  3
SUNPOU_2
100
AcDbAlignedDimension
 13
335.2967409948548
 23
130.6921590680185
 33
0.0
 14
335.296740994854
 24
500.6921590680184
 34
0.0
 50
90.0
100
AcDbRotatedDimension
  0
DIMENSION
  5
6FF
330
A
100
AcDbEntity
  8
SUNPOU
100
AcDbDimension
  2
*D20
 10
370.0467409948545
 20
530.6921590680186
 30
0.0
 11
365.5467409948543
 21
515.6921590680187
 31
0.0
 70
    32
  3
SUNPOU_2
100
AcDbAlignedDimension
 13
335.296740994854
 23
500.6921590680184
 33
0.0
 14
335.2967409948538
 24
530.6921590680186
 34
0.0
 50
90.0
100
AcDbRotatedDimension
  0
LEADER
  5
7D7
330
A
100
AcDbEntity
  8
HIKIDASI
100
AcDbLeader
  3
SUNPOU_2
 73
     0
 74
     0
 75
     1
 40
13.33333333333333
 41
43.73333333333333
 76
     3
 10
245.0467409948562
 20
209.9921590680179
 30
0.0
 10
200.0645416414383
 20
235.8470089711487
 30
0.0
 10
200.0645416414383
 20
240.8470089711487
 30
0.0
340
7D8
211
0.0000000000000001
221
1.0
231
0.0
213
-8.298109760498874
223
4.790915903989088
233
0.0
1001
ACAD
1000
DSTYLE
1002
{
1070
     5
1000
OPEN30
1070
    77
1070
     1
1070
   147
1040
1.0
1070
   342
1005
577
1002
}
1000
LEANOF
1010
-8.298109760498874
1020
4.790915903989088
1030
0.0
1000
LEANOF
1010
-8.298109760498874
1020
4.790915903989088
1030
0.0
  0
MTEXT
  5
7D8
330
A
100
AcDbEntity
  8
HIKIDASI
100
AcDbMText
 10
199.6959847352705
 20
238.0560930671596
 30
0.0
 40
5.0
 41
0.0
 71
     4
 72
     1
  1
方立上部φ12穴加工\P（サッシ工事）
  7
SUNPOU
 11
0.0000000000000001
 21
1.0
 31
0.0
1001
ACAD
1000
MTEXTBEGIN
1070
    73
1070
     1
1070
    44
1040
1.0
1070
    74
1070
     0
1000
MTEXTEND
1000
MTEXTBEGIN
1070
    73
1070
     1
1070
    44
1040
1.0
1070
    74
1070
     0
1000
MTEXTEND
  0
LEADER
  5
7DA
330
A
100
AcDbEntity
  8
HIKIDASI
100
AcDbLeader
  3
SUNPOU_2
 73
     0
 74
     0
 75
     1
 40
5.0
 41
57.33333333333336
 76
     3
 10
250.0467409948547
 20
235.6921590680186
 30
0.0
 10
232.4621276337996
 20
265.8436346364611
 30
0.0
 10
232.4621276337996
 20
270.8436346364611
 30
0.0
340
7DB
211
0.0000000000000001
221
1.0
231
0.0
1001
ACAD
1000
DSTYLE
1002
{
1070
     5
1000
OPEN30
1070
    77
1070
     1
1070
   147
1040
1.0
1070
   342
1005
577
1002
}
1000
LEANOF
1010
0.0
1020
0.0
1030
0.0
1000
LEANOF
1010
0.0
1020
0.0
1030
0.0
  0
MTEXT
  5
7DB
330
A
100
AcDbEntity
  8
HIKIDASI
100
AcDbMText
 10
227.9621276337995
 20
272.8436346364611
 30
0.0
 40
5.0
 41
0.0
 71
     4
 72
     1
  1
φ12穴加工（サッシ工事）
  7
SUNPOU
 11
0.0000000000000001
 21
1.0
 31
0.0
1001
ACAD
1000
MTEXTBEGIN
1070
    73
1070
     1
1070
    44
1040
1.0
1070
    74
1070
     0
1000
MTEXTEND
1000
MTEXTBEGIN
1070
    73
1070
     1
1070
    44
1040
1.0
1070
    74
1070
     0
1000
MTEXTEND
  0
LEADER
  5
7DE
330
A
100
AcDbEntity
  8
HIKIDASI
100
AcDbLeader
  3
SUNPOU_2
 73
     0
 74
     0
 75
     1
 40
13.33333333333333
 41
43.73333333333333
 76
     3
 10
245.0467409948521
 20
421.3921590680195
 30
0.0
 10
192.7571241823393
 20
451.4307470206733
 30
0.0
 10
192.7571241823393
 20
456.4307470206733
 30
0.0
340
7DF
211
0.0000000000000001
221
1.0
231
0.0
213
-8.604343216420204
223
4.967719872200119
233
0.0
1001
ACAD
1000
DSTYLE
1002
{
1070
     5
1000
OPEN30
1070
    77
1070
     1
1070
   147
1040
1.0
1070
   342
1005
577
1002
}
1000
LEANOF
1010
-8.604343216420204
1020
4.967719872200119
1030
0.0
1000
LEANOF
1010
-8.604343216420204
1020
4.967719872200119
1030
0.0
  0
MTEXT
  5
7DF
330
A
100
AcDbEntity
  8
HIKIDASI
100
AcDbMText
 10
192.6948007320928
 20
453.4630271484732
 30
0.0
 40
5.0
 41
0.0
 71
     4
 72
     1
  1
方立上部φ12穴加工\P（サッシ工事）
  7
SUNPOU
 11
0.0000000000000001
 21
1.0
 31
0.0
1001
ACAD
1000
MTEXTBEGIN
1070
    73
1070
     1
1070
    44
1040
1.0
1070
    74
1070
     0
1000
MTEXTEND
1000
MTEXTBEGIN
1070
    73
1070
     1
1070
    44
1040
1.0
1070
    74
1070
     0
1000
MTEXTEND
  0
LEADER
  5
7E0
330
A
100
AcDbEntity
  8
HIKIDASI
100
AcDbLeader
  3
SUNPOU_2
 73
     0
 74
     0
 75
     1
 40
5.0
 41
57.33333333333336
 76
     3
 10
248.6545898888269
 20
397.1921590680181
 30
0.0
 10
175.182161888904
 20
439.7450946106066
 30
0.0
 10
175.182161888904
 20
444.7450946106066
 30
0.0
340
7E1
211
0.0000000000000001
221
1.0
231
0.0
1001
ACAD
1000
DSTYLE
1002
{
1070
     5
1000
OPEN30
1070
    77
1070
     1
1070
   147
1040
1.0
1070
   342
1005
577
1002
}
1000
LEANOF
1010
0.0
1020
0.0
1030
0.0
1000
LEANOF
1010
0.0
1020
0.0
1030
0.0
  0
MTEXT
  5
7E1
330
A
100
AcDbEntity
  8
HIKIDASI
100
AcDbMText
 10
170.6821618889041
 20
446.7450946106065
 30
0.0
 40
5.0
 41
0.0
 71
     4
 72
     1
  1
φ12穴加工（サッシ工事）
  7
SUNPOU
 11
0.0000000000000001
 21
1.0
 31
0.0
1001
ACAD
1000
MTEXTBEGIN
1070
    73
1070
     1
1070
    44
1040
1.0
1070
    74
1070
     0
1000
MTEXTEND
1000
MTEXTBEGIN
1070
    73
1070
     1
1070
    44
1040
1.0
1070
    74
1070
     0
1000
MTEXTEND
  0
TEXT
  5
8A1
330
A
100
AcDbEntity
  8
MOJI
100
AcDbText
 10
168.6653177758013
 20
366.7201318927963
 30
0.0
 40
5.0
  1
Ｆ.Ｌ
 50
90.0
 41
0.8
  7
0_8
 11
163.6653177758013
 21
366.7201318927963
 31
0.0
100
AcDbText
 73
     3
  0
MTEXT
  5
8A8
330
A
100
AcDbEntity
  8
HIKIDASI
100
AcDbMText
 10
42.45335762518561
 20
398.4087341529049
 30
0.0
 40
5.0
 41
0.0
 71
     4
 72
     1
  1
電源AC100V5A\P（電気工事）
  7
SUNPOU
 11
0.0000000000000001
 21
1.0
 31
0.0
1001
ACAD
1000
MTEXTBEGIN
1070
    73
1070
     1
1070
    44
1040
1.0
1070
    74
1070
     0
1000
MTEXTEND
1000
MTEXTBEGIN
1070
    73
1070
     1
1070
    44
1040
1.0
1070
    74
1070
     0
1000
MTEXTEND
  0
LEADER
  5
8A9
330
A
100
AcDbEntity
  8
HIKIDASI
100
AcDbLeader
  3
SUNPOU_2
 73
     0
 74
     0
 75
     1
 40
13.33333333333333
 41
38.93333333333334
 76
     3
 10
53.96612349914236
 20
380.192159068018
 30
0.0
 10
42.66094289204628
 20
392.9002984356998
 30
0.0
 10
42.66094289204628
 20
397.9002984356998
 30
0.0
340
8A8
211
0.0000000000000001
221
1.0
231
0.0
213
-8.459081399806002
223
1.49156428279491
233
0.0
1001
ACAD
1000
DSTYLE
1002
{
1070
     5
1000
OPEN30
1070
    77
1070
     1
1070
   147
1040
1.0
1070
   342
1005
577
1002
}
1000
LEANOF
1010
-8.459081399806002
1020
1.49156428279491
1030
0.0
1000
LEANOF
1010
-8.459081399806002
1020
1.49156428279491
1030
0.0
  0
MTEXT
  5
8B3
330
A
100
AcDbEntity
  8
HIKIDASI
100
AcDbMText
 10
47.70615847880195
 20
281.0756010325399
 30
0.0
 40
5.0
 41
0.0
 71
     4
 72
     1
  1
無目取付センサ
  7
SUNPOU
 11
-0.0000000000000037
 21
1.0
 31
0.0
1001
ACAD
1000
MTEXTBEGIN
1070
    73
1070
     1
1070
    44
1040
1.0
1070
    74
1070
     0
1000
MTEXTEND
1000
MTEXTBEGIN
1070
    73
1070
     1
1070
    44
1040
1.0
1070
    74
1070
     0
1000
MTEXTEND
  0
LEADER
  5
8B4
330
A
100
AcDbEntity
  8
HIKIDASI
100
AcDbLeader
  3
SUNPOU_2
 73
     0
 74
     0
 75
     1
 40
5.0
 41
32.26666666666666
 76
     3
 10
63.26346706689588
 20
267.6921590680179
 30
0.0
 10
52.20615847880198
 20
274.0756010325398
 30
0.0
 10
52.20615847880196
 20
279.0756010325399
 30
0.0
340
8B3
211
-0.0000000000000037
221
1.0
231
0.0
1001
ACAD
1000
DSTYLE
1002
{
1070
     5
1000
OPEN30
1070
    77
1070
     1
1070
   147
1040
1.0
1070
   342
1005
577
1002
}
1000
LEANOF
1010
0.0
1020
0.0
1030
0.0
1000
LEANOF
1010
0.0
1020
0.0
1030
0.0
  0
MTEXT
  5
8B5
330
A
100
AcDbEntity
  8
HIKIDASI
100
AcDbMText
 10
150.4650415325917
 20
294.2885874037715
 30
0.0
 40
5.0
 41
0.0
 71
     7
 72
     1
  1
補助光電スイッチ
  7
SUNPOU
 11
0.0000000000000001
 21
1.0
 31
0.0
1001
ACAD
1000
MTEXTBEGIN
1070
    73
1070
     1
1070
    44
1040
1.0
1070
    74
1070
     0
1000
MTEXTEND
1000
MTEXTBEGIN
1070
    73
1070
     1
1070
    44
1040
1.0
1070
    74
1070
     0
1000
MTEXTEND
  0
LEADER
  5
8B6
330
A
100
AcDbEntity
  8
HIKIDASI
100
AcDbLeader
  3
SUNPOU_2
 73
     0
 74
     0
 75
     1
 40
5.000000000000001
 41
37.06666666666665
 76
     3
 10
140.7634670668955
 20
280.4349648706221
 30
0.0
 10
152.4650415325917
 20
287.2885874037714
 30
0.0
 10
152.4650415325917
 20
292.2885874037715
 30
0.0
340
8B5
211
0.0000000000000001
221
1.0
231
0.0
1001
ACAD
1000
DSTYLE
1002
{
1070
     5
1000
OPEN30
1070
    77
1070
     1
1070
   147
1040
1.0
1070
   342
1005
577
1002
}
1000
LEANOF
1010
0.0
1020
0.0
1030
0.0
1000
LEANOF
1010
0.0
1020
0.0
1030
0.0
  0
DIMENSION
  5
8B8
330
A
100
AcDbEntity
  8
SUNPOU
100
AcDbDimension
  2
*D22
 10
170.7634670668953
 20
392.1921590680183
 30
0.0
 11
155.7634670668954
 21
387.6872106792286
 31
0.0
 70
   160
 53
180.0
  3
SUNPOU_2_20
100
AcDbAlignedDimension
 13
140.7634670668955
 23
315.8921590680181
 33
0.0
 14
170.7634670668953
 24
375.0789842543476
 34
0.0
100
AcDbRotatedDimension
  0
DIMENSION
  5
8DC
330
A
100
AcDbEntity
  8
SUNPOU
100
AcDbDimension
  2
*D23
 10
70.76346706689587
 20
151.0147310455529
 30
0.0
 11
65.87611735201517
 21
146.4857158623501
 31
0.0
 70
   160
 53
180.0
  3
SUNPOU_2_20
100
AcDbAlignedDimension
 13
60.76346706689588
 23
182.6921590680179
 33
0.0
 14
70.76346706689587
 24
182.6921590680179
 34
0.0
100
AcDbRotatedDimension
  0
DIMENSION
  5
8EB
330
A
100
AcDbEntity
  8
SUNPOU
100
AcDbDimension
  2
*D24
 10
170.763467066896
 20
151.0147310455529
 30
0.0
 11
120.7634670668958
 21
145.9186400048606
 31
0.0
 70
   160
  1
H
 53
180.0
  3
SUNPOU_2_20
100
AcDbAlignedDimension
 13
70.76346706689587
 23
182.6921590680179
 33
0.0
 14
170.763467066896
 24
177.4180789632711
 34
0.0
100
AcDbRotatedDimension
  0
DIMENSION
  5
8F8
330
A
100
AcDbEntity
  8
SUNPOU
100
AcDbDimension
  2
*D25
 10
70.76346706689587
 20
173.5915095838185
 30
0.0
 11
79.08528936592415
 21
168.9832409587531
 31
0.0
 70
   160
 53
180.0
  3
SUNPOU_2_20
100
AcDbAlignedDimension
 13
70.26346706689588
 23
228.2421590680184
 33
0.0
 14
70.76346706689587
 24
180.6921590680179
 34
0.0
100
AcDbRotatedDimension
  0
DIMENSION
  5
907
330
A
100
AcDbEntity
  8
SUNPOU
100
AcDbDimension
  2
*D26
 10
170.2634670668958
 20
162.228211373504
 30
0.0
 11
120.2634670668957
 21
157.1683056612203
 31
0.0
 70
   160
  1
DH
 53
180.0
  3
SUNPOU_2_20
100
AcDbAlignedDimension
 13
70.26346706689588
 23
228.2421590680184
 33
0.0
 14
170.2634670668958
 24
228.2421590680184
 34
0.0
100
AcDbRotatedDimension
  0
DIMENSION
  5
914
330
A
100
AcDbEntity
  8
SUNPOU
100
AcDbDimension
  2
*D27
 10
170.763467066896
 20
162.228211373504
 30
0.0
 11
179.1218115700146
 21
157.6440431234834
 31
0.0
 70
   160
 53
180.0
  3
SUNPOU_2_20
100
AcDbAlignedDimension
 13
170.2634670668958
 23
228.2421590680184
 33
0.0
 14
170.763467066896
 24
177.4180789632711
 34
0.0
100
AcDbRotatedDimension
  0
DIMENSION
  5
A58
330
A
100
AcDbEntity
  8
SUNPOU
100
AcDbDimension
  2
*D28
 10
183.2634670668953
 20
362.6921590680183
 30
0.0
 11
178.7634670668952
 21
272.6921590680184
 31
0.0
 70
    32
  1
W
  3
SUNPOU_2_20
100
AcDbAlignedDimension
 13
170.7634670668959
 23
182.6921590680184
 33
0.0
 14
170.7634670668953
 24
362.6921590680183
 34
0.0
 50
90.0
100
AcDbRotatedDimension
  0
MTEXT
  5
C52
330
A
100
AcDbEntity
  8
MOJI
100
AcDbMText
 10
38.76346706689565
 20
118.1921590680184
 30
0.0
 40
6.0
 41
35.0
 71
     5
 72
     1
  1
内　観　図
  7
0_8
 11
0.0000000000000001
 21
1.0
 31
0.0
1001
ACAD
1000
MTEXTBEGIN
1070
    73
1070
     1
1070
    44
1040
1.0
1070
    74
1070
     0
1000
MTEXTEND
1000
MTEXTBEGIN
1070
    73
1070
     1
1070
    44
1040
1.0
1070
    74
1070
     0
1000
MTEXTEND
  0
POLYLINE
  5
C53
330
A
100
AcDbEntity
  8
SAISEN
100
AcDb2dPolyline
 66
     1
 10
0.0
 20
0.0
 30
0.0
 70
     1
  0
VERTEX
  5
12CF
330
C53
100
AcDbEntity
  8
SAISEN
100
AcDbVertex
100
AcDb2dVertex
 10
43.76346706689566
 20
135.6921590680185
 30
0.0
  0
VERTEX
  5
12D0
330
C53
100
AcDbEntity
  8
SAISEN
100
AcDbVertex
100
AcDb2dVertex
 10
33.76346706689565
 20
135.6921590680185
 30
0.0
  0
VERTEX
  5
12D1
330
C53
100
AcDbEntity
  8
SAISEN
100
AcDbVertex
100
AcDb2dVertex
 10
33.76346706689565
 20
100.6921590680184
 30
0.0
  0
VERTEX
  5
12D2
330
C53
100
AcDbEntity
  8
SAISEN
100
AcDbVertex
100
AcDb2dVertex
 10
43.76346706689566
 20
100.6921590680184
 30
0.0
  0
SEQEND
  5
12D3
330
C53
100
AcDbEntity
  8
SAISEN
  0
TEXT
  5
C62
330
A
100
AcDbEntity
  8
MOJI
100
AcDbText
 10
164.313467066896
 20
186.6339009259051
 30
0.0
 40
5.0
  1
ＦＩＸ
 50
90.0
 41
0.8
  7
0_8
 11
161.813467066896
 21
186.6339009259051
 31
0.0
100
AcDbText
 73
     2
  0
TEXT
  5
C63
330
A
100
AcDbEntity
  8
MOJI
100
AcDbText
 10
164.3134670668954
 20
345.9476401682759
 30
0.0
 40
5.0
  1
ＦＩＸ
 50
90.0
 41
0.8
  7
0_8
 11
161.8134670668954
 21
345.9476401682759
 31
0.0
100
AcDbText
 73
     2
  0
LINE
  5
D1C
330
A
100
AcDbEntity
  8
SOUZOU
100
AcDbLine
 10
70.76346706689548
 20
362.6921590680178
 30
0.0
 11
60.76346706689566
 21
272.6921590680182
 31
0.0
  0
LINE
  5
D1D
330
A
100
AcDbEntity
  8
SOUZOU
100
AcDbLine
 10
60.76346706689566
 20
272.6921590680182
 30
0.0
 11
70.76346706689587
 21
182.6921590680179
 31
0.0
  0
LINE
  5
D1E
330
A
100
AcDbEntity
  8
SAISEN
100
AcDbLine
 10
220.046740994854
 20
482.1875045152092
 30
0.0
 11
317.546740994855
 21
482.1875045152092
 31
0.0
  0
LINE
  5
D1F
330
A
100
AcDbEntity
  8
SAISEN
100
AcDbLine
 10
220.046740994854
 20
479.1875045152091
 30
0.0
 11
317.546740994855
 21
479.1875045152091
 31
0.0
  0
LINE
  5
D22
330
A
100
AcDbEntity
  8
SAISEN
100
AcDbLine
 10
214.0467409948545
 20
156.6921590680184
 30
0.0
 11
317.5095367364586
 21
156.6921590680184
 31
0.0
  0
LINE
  5
D23
330
A
100
AcDbEntity
  8
SAISEN
100
AcDbLine
 10
214.0467409948545
 20
159.6921590680183
 30
0.0
 11
317.5095367364586
 21
159.6921590680183
 31
0.0
  0
TEXT
  5
D31
330
A
100
AcDbEntity
  8
MOJI
100
AcDbText
 10
82.23412839671938
 20
229.3833209951571
 30
0.0
 40
4.0
  1
スリムセナージ･ドアI型
 50
90.0
 41
0.8
  7
0_8
 11
80.23412839671939
 21
229.3833209951571
 31
0.0
100
AcDbText
 73
     2
  0
TEXT
  5
D32
330
A
100
AcDbEntity
  8
MOJI
100
AcDbText
 10
82.23412839671938
 20
273.9933203414762
 30
0.0
 40
4.0
  1
スリムセナージ･ドアI型
 50
90.0
 41
0.8
  7
0_8
 11
80.23412839671939
 21
273.9933203414762
 31
0.0
100
AcDbText
 73
     2
  0
LEADER
  5
D35
330
A
100
AcDbEntity
  8
HIKIDASI
100
AcDbLeader
  3
SUNPOU_2
 73
     0
 74
     0
 75
     1
 40
5.0
 41
24.53333333333334
 76
     3
 10
70.76346706689552
 20
317.1421590680179
 30
0.0
 10
82.46504153259161
 20
323.9957816011673
 30
0.0
 10
82.46504153259161
 20
328.9957816011674
 30
0.0
340
D36
211
0.0000000000000001
221
1.0
231
0.0
1001
ACAD
1000
DSTYLE
1002
{
1070
     5
1000
OPEN30
1070
    77
1070
     1
1070
   147
1040
1.0
1070
   342
1005
577
1002
}
1000
LEANOF
1010
0.0
1020
0.0
1030
0.0
1000
LEANOF
1010
0.0
1020
0.0
1030
0.0
  0
MTEXT
  5
D36
330
A
100
AcDbEntity
  8
HIKIDASI
100
AcDbMText
 10
80.46504153259162
 20
330.9957816011674
 30
0.0
 40
5.0
 41
0.0
 71
     7
 72
     1
  1
通線穴φ12
  7
SUNPOU
 11
0.0000000000000001
 21
1.0
 31
0.0
1001
ACAD
1000
MTEXTBEGIN
1070
    73
1070
     1
1070
    44
1040
1.0
1070
    74
1070
     0
1000
MTEXTEND
1000
MTEXTBEGIN
1070
    73
1070
     1
1070
    44
1040
1.0
1070
    74
1070
     0
1000
MTEXTEND
  0
LEADER
  5
D3B
330
A
100
AcDbEntity
  8
HIKIDASI
100
AcDbLeader
  3
SUNPOU_2_20
 73
     0
 75
     1
 40
5.0
 41
24.53333333333334
 76
     3
 10
70.76346706689587
 20
228.2421590680177
 30
0.0
 10
82.28049990556931
 20
216.4385116409174
 30
0.0
 10
82.28049990556931
 20
211.4385116409175
 30
0.0
340
D3C
211
0.0000000000000001
221
1.0
231
0.0
1001
ACAD
1000
DSTYLE
1002
{
1070
     5
1000
OPEN30
1070
    77
1070
     1
1070
   147
1040
1.0
1070
   342
1005
577
1002
}
1000
LEANOF
1010
0.0
1020
0.0
1030
0.0
1000
LEANOF
1010
0.0
1020
0.0
1030
0.0
  0
MTEXT
  5
D3C
330
A
100
AcDbEntity
  8
HIKIDASI
100
AcDbMText
 10
80.28049990556928
 20
209.4385116409175
 30
0.0
 40
5.0
 41
0.0
 71
     9
 72
     1
  1
通線穴φ12
  7
SUNPOU
 11
0.0000000000000001
 21
1.0
 31
0.0
1001
ACAD
1000
MTEXTBEGIN
1070
    73
1070
     1
1070
    44
1040
1.0
1070
    74
1070
     0
1000
MTEXTEND
1000
MTEXTBEGIN
1070
    73
1070
     1
1070
    44
1040
1.0
1070
    74
1070
     0
1000
MTEXTEND
  0
LINE
  5
F2D
330
A
100
AcDbEntity
  8
06
100
AcDbLine
 10
306.5467409948542
 20
409.1921590680183
 30
0.0
 11
306.5467409948542
 21
408.1921590680183
 31
0.0
  0
LINE
  5
F2E
330
A
100
AcDbEntity
  8
06
100
AcDbLine
 10
291.5467409948541
 20
409.1921590680183
 30
0.0
 11
306.5467409948542
 21
409.1921590680183
 31
0.0
  0
LINE
  5
F2F
330
A
100
AcDbEntity
  8
06
100
AcDbLine
 10
291.5467409948541
 20
402.1921590680183
 30
0.0
 11
291.5467409948541
 21
409.1921590680183
 31
0.0
  0
LINE
  5
F30
330
A
100
AcDbEntity
  8
06
100
AcDbLine
 10
294.0467409948542
 20
402.1921590680183
 30
0.0
 11
291.5467409948541
 21
402.1921590680183
 31
0.0
  0
LINE
  5
F31
330
A
100
AcDbEntity
  8
06
100
AcDbLine
 10
294.0467409948542
 20
395.6921590680183
 30
0.0
 11
294.0467409948542
 21
402.1921590680183
 31
0.0
  0
LINE
  5
F32
330
A
100
AcDbEntity
  8
06
100
AcDbLine
 10
304.0467409948541
 20
395.6921590680183
 30
0.0
 11
304.0467409948541
 21
402.1921590680183
 31
0.0
  0
LINE
  5
F33
330
A
100
AcDbEntity
  8
06
100
AcDbLine
 10
304.0467409948541
 20
402.1921590680183
 30
0.0
 11
306.5467409948542
 21
402.1921590680183
 31
0.0
  0
LINE
  5
F34
330
A
100
AcDbEntity
  8
06
100
AcDbLine
 10
306.5467409948542
 20
402.1921590680183
 30
0.0
 11
306.5467409948542
 21
403.1921590680183
 31
0.0
  0
LINE
  5
F35
330
A
100
AcDbEntity
  8
06
100
AcDbLine
 10
309.339285069283
 20
404.8134837364822
 30
0.0
 11
306.5467409948538
 21
403.1921590680176
 31
0.0
  0
LINE
  5
F37
330
A
100
AcDbEntity
  8
06
100
AcDbLine
 10
306.5467409948542
 20
408.1921590680183
 30
0.0
 11
309.339285069283
 21
406.5708343995543
 31
0.0
  0
ARC
  5
F38
330
A
100
AcDbEntity
  8
06
100
AcDbCircle
 10
310.852701621905
 20
405.6921590680182
 30
0.0
 40
1.75
100
AcDbArc
 50
210.1390449605222
 51
149.8609550394776
  0
LINE
  5
F47
330
A
100
AcDbEntity
  8
06
100
AcDbLine
 10
293.5467409948541
 20
416.6921590680183
 30
0.0
 11
290.0467409948542
 21
416.6921590680183
 31
0.0
  0
LINE
  5
F48
330
A
100
AcDbEntity
  8
06
100
AcDbLine
 10
293.5467409948541
 20
419.1921590680183
 30
0.0
 11
293.5467409948541
 21
416.6921590680183
 31
0.0
  0
LINE
  5
F49
330
A
100
AcDbEntity
  8
06
100
AcDbLine
 10
290.0467409948542
 20
414.1921590680182
 30
0.0
 11
311.0467409948546
 21
414.1921590680182
 31
0.0
  0
LINE
  5
F4A
330
A
100
AcDbEntity
  8
06
100
AcDbLine
 10
290.0467409948542
 20
416.6921590680183
 30
0.0
 11
290.0467409948542
 21
414.1921590680182
 31
0.0
  0
LINE
  5
F4B
330
A
100
AcDbEntity
  8
06
100
AcDbLine
 10
311.0467409948541
 20
416.6921590680183
 30
0.0
 11
307.5467409948541
 21
416.6921590680183
 31
0.0
  0
LINE
  5
F4C
330
A
100
AcDbEntity
  8
06
100
AcDbLine
 10
311.0467409948542
 20
414.1921590680182
 30
0.0
 11
311.0467409948541
 21
416.6921590680183
 31
0.0
  0
LINE
  5
F4D
330
A
100
AcDbEntity
  8
06
100
AcDbLine
 10
307.5467409948541
 20
416.6921590680183
 30
0.0
 11
307.5467409948541
 21
419.1921590680183
 31
0.0
  0
LINE
  5
F90
330
A
100
AcDbEntity
  8
06
100
AcDbLine
 10
309.2990926087433
 20
299.0568267668909
 30
0.0
 11
306.5467954985945
 21
300.6458662443252
 31
0.0
  0
LINE
  5
F93
330
A
100
AcDbEntity
  8
06
100
AcDbLine
 10
309.2811994316608
 20
297.3171607385405
 30
0.0
 11
306.5467409948545
 21
295.7384204239623
 31
0.0
  0
LINE
  5
F94
330
A
100
AcDbEntity
  8
06
100
AcDbLine
 10
306.5467409948545
 20
294.6921590680183
 30
0.0
 11
306.5467409948545
 21
295.7384204239623
 31
0.0
  0
LINE
  5
F96
330
A
100
AcDbEntity
  8
06
100
AcDbLine
 10
306.5467409948545
 20
300.6594088230388
 30
0.0
 11
306.5467409948545
 21
301.6921590680183
 31
0.0
  0
ARC
  5
F97
330
A
100
AcDbEntity
  8
06
100
AcDbCircle
 10
310.7967409948545
 20
298.1921590680183
 30
0.0
 40
1.75
100
AcDbArc
 50
209.8880407989213
 51
149.9999999999993
  0
LINE
  5
F98
330
A
100
AcDbEntity
  8
06
100
AcDbLine
 10
291.5467409948545
 20
294.6921590680183
 30
0.0
 11
294.0467409948545
 21
294.6921590680183
 31
0.0
  0
LINE
  5
F99
330
A
100
AcDbEntity
  8
06
100
AcDbLine
 10
291.5467409948545
 20
301.6921590680183
 30
0.0
 11
291.5467409948545
 21
294.6921590680183
 31
0.0
  0
LINE
  5
F9A
330
A
100
AcDbEntity
  8
06
100
AcDbLine
 10
306.5467409948545
 20
301.6921590680183
 30
0.0
 11
291.5467409948545
 21
301.6921590680183
 31
0.0
  0
LINE
  5
F9B
330
A
100
AcDbEntity
  8
06
100
AcDbLine
 10
304.0467409948545
 20
294.6921590680183
 30
0.0
 11
306.5467409948545
 21
294.6921590680183
 31
0.0
  0
LINE
  5
F9C
330
A
100
AcDbEntity
  8
06
100
AcDbLine
 10
304.0467409948545
 20
288.1921590680184
 30
0.0
 11
304.0467409948545
 21
294.6921590680183
 31
0.0
  0
LINE
  5
F9D
330
A
100
AcDbEntity
  8
06
100
AcDbLine
 10
294.0467409948545
 20
288.1921590680183
 30
0.0
 11
294.0467409948545
 21
294.6921590680183
 31
0.0
  0
ARC
  5
FA0
330
A
100
AcDbEntity
  8
06
100
AcDbCircle
 10
303.0467409948545
 20
285.3637319432721
 30
0.0
 40
3.0
100
AcDbArc
 50
70.52877936550705
 51
109.4712206344897
  0
ARC
  5
FA1
330
A
100
AcDbEntity
  8
06
100
AcDbCircle
 10
295.0467409948545
 20
285.3637319432721
 30
0.0
 40
3.0
100
AcDbArc
 50
70.52877936550705
 51
109.4712206344897
  0
LINE
  5
FA4
330
A
100
AcDbEntity
  8
06
100
AcDbLine
 10
302.0467409948545
 20
298.6921590680184
 30
0.0
 11
296.0467409948545
 21
298.6921590680184
 31
0.0
  0
LINE
  5
FA6
330
A
100
AcDbEntity
  8
06
100
AcDbLine
 10
306.5467409948544
 20
335.6921590680183
 30
0.0
 11
309.2709915088108
 21
334.1618263145692
 31
0.0
  0
LINE
  5
FA7
330
A
100
AcDbEntity
  8
06
100
AcDbLine
 10
309.305900898262
 20
332.3882866315078
 30
0.0
 11
306.5467409948544
 21
330.6921590680183
 31
0.0
  0
ARC
  5
FA8
330
A
100
AcDbEntity
  8
06
100
AcDbCircle
 10
310.7967409948544
 20
333.3047449264631
 30
0.0
 40
1.75
100
AcDbArc
 50
211.5801270456541
 51
150.675139579643
  0
LINE
  5
FA9
330
A
100
AcDbEntity
  8
06
100
AcDbLine
 10
304.0467409948545
 20
343.1921590680183
 30
0.0
 11
304.046740994854
 21
336.6921590680183
 31
0.0
  0
LINE
  5
FAA
330
A
100
AcDbEntity
  8
06
100
AcDbLine
 10
306.5467409948544
 20
336.6921590680183
 30
0.0
 11
304.0467409948544
 21
336.6921590680183
 31
0.0
  0
LINE
  5
FAB
330
A
100
AcDbEntity
  8
06
100
AcDbLine
 10
306.5467409948544
 20
336.6921590680183
 30
0.0
 11
306.5467409948544
 21
335.6921590680183
 31
0.0
  0
LINE
  5
FAC
330
A
100
AcDbEntity
  8
06
100
AcDbLine
 10
306.5467409948544
 20
329.6921590680184
 30
0.0
 11
306.5467409948544
 21
330.6921590680183
 31
0.0
  0
LINE
  5
FAD
330
A
100
AcDbEntity
  8
06
100
AcDbLine
 10
291.5467409948544
 20
329.6921590680184
 30
0.0
 11
306.5467409948544
 21
329.6921590680184
 31
0.0
  0
LINE
  5
FAE
330
A
100
AcDbEntity
  8
06
100
AcDbLine
 10
291.5467409948544
 20
336.6921590680183
 30
0.0
 11
291.5467409948544
 21
329.6921590680184
 31
0.0
  0
LINE
  5
FAF
330
A
100
AcDbEntity
  8
06
100
AcDbLine
 10
294.0467409948544
 20
336.6921590680183
 30
0.0
 11
291.5467409948544
 21
336.6921590680183
 31
0.0
  0
LINE
  5
FB0
330
A
100
AcDbEntity
  8
06
100
AcDbLine
 10
294.0467409948545
 20
343.1921590680183
 30
0.0
 11
294.0467409948544
 21
336.6921590680183
 31
0.0
  0
ARC
  5
FB3
330
A
100
AcDbEntity
  8
06
100
AcDbCircle
 10
303.0467409948542
 20
346.0205861927645
 30
0.0
 40
3.0
100
AcDbArc
 50
250.5287793655101
 51
289.4712206344928
  0
ARC
  5
FB4
330
A
100
AcDbEntity
  8
06
100
AcDbCircle
 10
295.0467409948543
 20
346.0205861927645
 30
0.0
 40
3.0
100
AcDbArc
 50
250.5287793655101
 51
289.4712206344928
  0
LINE
  5
FB6
330
A
100
AcDbEntity
  8
06
100
AcDbLine
 10
296.0467409948544
 20
332.6921590680182
 30
0.0
 11
302.0467409948544
 21
332.6921590680182
 31
0.0
  0
LINE
  5
FF5
330
A
100
AcDbEntity
  8
06
100
AcDbLine
 10
309.3392850692834
 20
226.5708343995548
 30
0.0
 11
306.5467409948542
 21
228.1921590680192
 31
0.0
  0
LINE
  5
FF6
330
A
100
AcDbEntity
  8
06
100
AcDbLine
 10
306.5467409948547
 20
223.1921590680186
 30
0.0
 11
309.3392850692834
 21
224.8134837364826
 31
0.0
  0
ARC
  5
FF7
330
A
100
AcDbEntity
  8
06
100
AcDbCircle
 10
310.8527016219055
 20
225.6921590680186
 30
0.0
 40
1.75
100
AcDbArc
 50
210.1390449605222
 51
149.8609550394776
  0
LINE
  5
FFA
330
A
100
AcDbEntity
  8
06
100
AcDbLine
 10
306.5467409948547
 20
222.1921590680186
 30
0.0
 11
306.5467409948547
 21
223.1921590680186
 31
0.0
  0
LINE
  5
FFB
330
A
100
AcDbEntity
  8
06
100
AcDbLine
 10
291.5467409948547
 20
222.1921590680186
 30
0.0
 11
306.5467409948547
 21
222.1921590680186
 31
0.0
  0
LINE
  5
FFC
330
A
100
AcDbEntity
  8
06
100
AcDbLine
 10
306.5467409948546
 20
229.1921590680185
 30
0.0
 11
306.5467409948547
 21
228.1921590680186
 31
0.0
  0
LINE
  5
FFD
330
A
100
AcDbEntity
  8
06
100
AcDbLine
 10
304.0467409948546
 20
229.1921590680185
 30
0.0
 11
306.5467409948546
 21
229.1921590680185
 31
0.0
  0
LINE
  5
FFE
330
A
100
AcDbEntity
  8
06
100
AcDbLine
 10
304.0467409948547
 20
235.6921590680186
 30
0.0
 11
304.0467409948546
 21
229.1921590680185
 31
0.0
  0
LINE
  5
FFF
330
A
100
AcDbEntity
  8
06
100
AcDbLine
 10
294.0467409948547
 20
235.6921590680186
 30
0.0
 11
294.0467409948546
 21
229.1921590680185
 31
0.0
  0
LINE
  5
1006
330
A
100
AcDbEntity
  8
06
100
AcDbLine
 10
307.5467409948547
 20
214.6921590680185
 30
0.0
 11
307.5467409948547
 21
212.1921590680186
 31
0.0
  0
LINE
  5
1007
330
A
100
AcDbEntity
  8
06
100
AcDbLine
 10
311.0467409948546
 20
214.6921590680185
 30
0.0
 11
307.5467409948547
 21
214.6921590680185
 31
0.0
  0
LINE
  5
1008
330
A
100
AcDbEntity
  8
06
100
AcDbLine
 10
311.0467409948546
 20
217.1921590680187
 30
0.0
 11
311.0467409948546
 21
214.6921590680185
 31
0.0
  0
LINE
  5
1009
330
A
100
AcDbEntity
  8
06
100
AcDbLine
 10
290.0467409948547
 20
217.1921590680187
 30
0.0
 11
311.046740994855
 21
217.1921590680187
 31
0.0
  0
LINE
  5
100A
330
A
100
AcDbEntity
  8
06
100
AcDbLine
 10
290.0467409948547
 20
214.6921590680185
 30
0.0
 11
290.0467409948547
 21
217.1921590680187
 31
0.0
  0
LINE
  5
100B
330
A
100
AcDbEntity
  8
06
100
AcDbLine
 10
293.5467409948547
 20
214.6921590680185
 30
0.0
 11
290.0467409948547
 21
214.6921590680185
 31
0.0
  0
LINE
  5
100C
330
A
100
AcDbEntity
  8
06
100
AcDbLine
 10
293.5467409948547
 20
212.1921590680186
 30
0.0
 11
293.5467409948547
 21
214.6921590680185
 31
0.0
  0
LINE
  5
1011
330
A
100
AcDbEntity
  8
06
100
AcDbLine
 10
294.0467409948546
 20
229.1921590680185
 30
0.0
 11
291.5467409948546
 21
229.1921590680186
 31
0.0
  0
ARC
  5
1012
330
A
100
AcDbEntity
  8
06
100
AcDbCircle
 10
303.0467409948546
 20
238.5205861927648
 30
0.0
 40
3.0
100
AcDbArc
 50
250.5287793655107
 51
289.4712206344893
  0
ARC
  5
1013
330
A
100
AcDbEntity
  8
06
100
AcDbCircle
 10
295.0467409948547
 20
238.5205861927648
 30
0.0
 40
3.0
100
AcDbArc
 50
250.5287793655107
 51
289.4712206344893
  0
LINE
  5
1014
330
A
100
AcDbEntity
  8
06
100
AcDbLine
 10
291.5467409948546
 20
229.1921590680186
 30
0.0
 11
291.5467409948547
 21
222.1921590680186
 31
0.0
  0
LINE
  5
1015
330
A
100
AcDbEntity
  8
06
100
AcDbLine
 10
296.0467409948547
 20
226.6921590680186
 30
0.0
 11
302.0467409948547
 21
226.6921590680186
 31
0.0
  0
LINE
  5
1043
330
A
100
AcDbEntity
  8
06
100
AcDbLine
 10
306.0467409948545
 20
311.6921590680183
 30
0.0
 11
306.0467409948544
 21
313.1921590680184
 31
0.0
  0
MTEXT
  5
10E0
102
{ACAD_REACTORS
330
10E1
102
}
330
A
100
AcDbEntity
  8
HIKIDASI
100
AcDbMText
 10
266.5917785090395
 20
310.8367838000986
 30
0.0
 40
5.0
 41
0.0
 71
     7
 72
     1
  1
スリムセナージ･ドアI型
  7
SUNPOU
 11
0.0000000000000001
 21
1.0
 31
0.0
1001
ACAD
1000
MTEXTBEGIN
1070
    73
1070
     1
1070
    44
1040
1.0
1070
    74
1070
     0
1000
MTEXTEND
1000
MTEXTBEGIN
1070
    73
1070
     1
1070
    44
1040
1.0
1070
    74
1070
     0
1000
MTEXTEND
  0
LEADER
  5
10E1
330
A
100
AcDbEntity
  8
HIKIDASI
100
AcDbLeader
  3
SUNPOU_2
 73
     0
 74
     0
 75
     1
 40
5.0
 41
46.13333333333335
 76
     3
 10
283.0467409948545
 20
300.6921590680183
 30
0.0
 10
268.5917785090395
 20
309.0897779534735
 30
0.0
 10
268.5917785090395
 20
314.0897779534735
 30
0.0
211
0.0000000000000001
221
1.0
231
0.0
1001
ACAD
1000
DSTYLE
1002
{
1070
     5
1000
OPEN30
1070
    77
1070
     1
1070
   147
1040
1.0
1070
   342
1005
577
1002
}
1000
LEANOF
1010
0.0
1020
0.0
1030
0.0
1000
LEANOF
1010
0.0
1020
0.0
1030
0.0
  0
LINE
  5
1108
330
A
100
AcDbEntity
  8
03
100
AcDbLine
 10
244.0467409948543
 20
395.6921590680183
 30
0.0
 11
244.0467409948543
 21
397.1921590680182
 31
0.0
  0
LINE
  5
1109
330
A
100
AcDbEntity
  8
03
100
AcDbLine
 10
256.046740994854
 20
395.6921590680183
 30
0.0
 11
256.0467409948541
 21
397.1921590680182
 31
0.0
  0
LINE
  5
110A
330
A
100
AcDbEntity
  8
03
100
AcDbLine
 10
256.0467409948541
 20
397.1921590680182
 30
0.0
 11
276.5467409948543
 21
397.1921590680183
 31
0.0
  0
LINE
  5
110C
330
A
100
AcDbEntity
  8
03
100
AcDbLine
 10
256.0467409948541
 20
395.6921590680183
 30
0.0
 11
277.2967409948543
 21
395.6921590680183
 31
0.0
  0
LINE
  5
110D
330
A
100
AcDbEntity
  8
04
100
AcDbLine
 10
242.5467409948546
 20
395.6921590680183
 30
0.0
 11
257.5467409948547
 21
395.6921590680183
 31
0.0
  0
LINE
  5
110E
330
A
100
AcDbEntity
  8
03
100
AcDbLine
 10
244.0467409948547
 20
235.6921590680185
 30
0.0
 11
222.7967409948545
 21
235.6921590680185
 31
0.0
  0
LINE
  5
110F
330
A
100
AcDbEntity
  8
03
100
AcDbLine
 10
256.0467409948548
 20
234.1921590680186
 30
0.0
 11
276.5467409948545
 21
234.1921590680186
 31
0.0
  0
LINE
  5
1112
330
A
100
AcDbEntity
  8
03
100
AcDbLine
 10
244.0467409948547
 20
235.6921590680186
 30
0.0
 11
244.0467409948547
 21
234.1921590680184
 31
0.0
  0
LINE
  5
1113
330
A
100
AcDbEntity
  8
03
100
AcDbLine
 10
256.0467409948547
 20
235.6921590680186
 30
0.0
 11
256.0467409948547
 21
234.1921590680186
 31
0.0
  0
CIRCLE
  5
1178
330
A
100
AcDbEntity
  8
SAISEN
100
AcDbCircle
 10
391.0976380784293
 20
50.54302641223159
 30
0.0
 40
5.0
  0
TEXT
  5
1179
330
A
100
AcDbEntity
  8
MOJI
100
AcDbText
 10
388.0488190392131
 20
46.27151320611589
 30
0.0
 40
8.0
  1
Ｓ
 41
0.8
  7
0_8
 11
388.0488190392131
 21
54.27151320611589
 31
0.0
100
AcDbText
 73
     3
  0
LINE
  5
11C8
330
A
100
AcDbEntity
  8
KAKURE
100
AcDbLine
 10
231.0467409948539
 20
529.1921590680183
 30
0.0
 11
321.0467409948538
 21
529.1921590680184
 31
0.0
  0
MTEXT
  5
1273
330
A
100
AcDbEntity
  8
MOJI
100
AcDbMText
 10
359.9999999999972
 20
29.00000000000005
 30
0.0
 40
7.0
 41
49.99999999999994
 71
     5
 72
     1
  1
姿図　　　　\Pよこ断面図　
  7
0_80
1001
ACAD
1000
MTEXTBEGIN
1070
    73
1070
     1
1070
    44
1040
1.0
1070
    74
1070
     0
1000
MTEXTEND
1000
MTEXTBEGIN
1070
    73
1070
     1
1070
    44
1040
1.0
1070
    74
1070
     0
1000
MTEXTEND
  0
MTEXT
  5
1274
330
A
100
AcDbEntity
  8
MOJI
100
AcDbMText
 10
309.9999999999969
 20
29.00000000000005
 30
0.0
 40
7.0
 41
50.0
 71
     5
 72
     1
  1
図番３－１
  7
0_80
1001
ACAD
1000
MTEXTBEGIN
1070
    73
1070
     1
1070
    44
1040
1.0
1070
    74
1070
     0
1000
MTEXTEND
1000
MTEXTBEGIN
1070
    73
1070
     1
1070
    44
1040
1.0
1070
    74
1070
     0
1000
MTEXTEND
  0
POLYLINE
  5
1275
330
A
100
AcDbEntity
  8
SAISEN
100
AcDb2dPolyline
 66
     1
 10
0.0
 20
0.0
 30
0.0
 70
     1
  0
VERTEX
  5
12D4
330
1275
100
AcDbEntity
  8
SAISEN
100
AcDbVertex
100
AcDb2dVertex
 10
34.99999999999703
 20
17.0
 30
0.0
  0
VERTEX
  5
12D5
330
1275
100
AcDbEntity
  8
SAISEN
100
AcDbVertex
100
AcDb2dVertex
 10
384.999999999997
 20
17.0
 30
0.0
  0
VERTEX
  5
12D6
330
1275
100
AcDbEntity
  8
SAISEN
100
AcDbVertex
100
AcDb2dVertex
 10
384.999999999997
 20
42.00000000000017
 30
0.0
  0
VERTEX
  5
12D7
330
1275
100
AcDbEntity
  8
SAISEN
100
AcDbVertex
100
AcDb2dVertex
 10
34.99999999999703
 20
42.00000000000017
 30
0.0
  0
SEQEND
  5
12D8
330
1275
100
AcDbEntity
  8
SAISEN
  0
LINE
  5
1276
330
A
100
AcDbEntity
  8
SAISEN
100
AcDbLine
 10
144.999999999997
 20
42.00000000000017
 30
0.0
 11
144.999999999997
 21
17.0
 31
0.0
  0
MTEXT
  5
1277
330
A
100
AcDbEntity
  8
MOJI
100
AcDbMText
 10
184.9999999999969
 20
29.50000000000006
 30
0.0
 40
7.0
 41
80.0
 71
     5
 72
     1
  1
Ｍ３台板
  7
0_8
1001
ACAD
1000
MTEXTBEGIN
1070
    73
1070
     1
1070
    44
1040
1.0
1070
    74
1070
     0
1000
MTEXTEND
1000
MTEXTBEGIN
1070
    73
1070
     1
1070
    44
1040
1.0
1070
    74
1070
     0
1000
MTEXTEND
  0
LINE
  5
1278
330
A
100
AcDbEntity
  8
SAISEN
100
AcDbLine
 10
224.9999999999969
 20
42.00000000000017
 30
0.0
 11
224.9999999999969
 21
17.0
 31
0.0
  0
LINE
  5
1279
330
A
100
AcDbEntity
  8
SAISEN
100
AcDbLine
 10
284.9999999999969
 20
42.00000000000017
 30
0.0
 11
284.9999999999969
 21
17.0
 31
0.0
  0
MTEXT
  5
127A
330
A
100
AcDbEntity
  8
MOJI
100
AcDbMText
 10
89.89194499017385
 20
29.5245579567781
 30
0.0
 40
6.5
 41
110.0
 71
     5
 72
     1
  1
ステンレスサッシ　枠見込１２０mm\Pユニット台板納り
  7
0_8
1001
ACAD
1000
MTEXTBEGIN
1070
    73
1070
     1
1070
    44
1040
1.0
1070
    74
1070
     0
1000
MTEXTEND
1000
MTEXTBEGIN
1070
    73
1070
     1
1070
    44
1040
1.0
1070
    74
1070
     0
1000
MTEXTEND
  0
MTEXT
  5
127B
330
A
100
AcDbEntity
  8
MOJI
100
AcDbMText
 10
254.999999999997
 20
29.50000000000006
 30
0.0
 40
7.0
 41
60.0
 71
     5
 72
     1
  1
両引き
  7
0_8
1001
ACAD
1000
MTEXTBEGIN
1070
    73
1070
     1
1070
    44
1040
1.0
1070
    74
1070
     0
1000
MTEXTEND
1000
MTEXTBEGIN
1070
    73
1070
     1
1070
    44
1040
1.0
1070
    74
1070
     0
1000
MTEXTEND
  0
VIEWPORT
  5
A98
102
{ACAD_XDICTIONARY
360
12AB
102
}
330
B
100
AcDbEntity
 67
     1
  8
0
100
AcDbViewport
 10
198.0508299538852
 20
285.1874487354477
 30
0.0
 40
1078.343208727591
 41
628.3535021666721
 68
     1
 69
     1
1001
ACAD
1000
MVIEW
1002
{
1070
    16
1010
0.0
1020
0.0
1030
0.0
1010
0.0
1020
0.0
1030
1.0
1040
0.0
1040
628.3535021666721
1040
198.0508299538852
1040
285.1874487354477
1040
50.0
1040
0.0
1040
0.0
1070
     0
1070
   100
1070
     1
1070
     1
1070
     0
1070
     0
1070
     0
1070
     0
1040
0.0
1040
0.0
1040
0.0
1040
10.0
1040
10.0
1040
10.0
1040
10.0
1070
     0
1002
{
1002
}
1002
}
  0
VIEWPORT
  5
1293
102
{ACAD_XDICTIONARY
360
12B1
102
}
330
B
100
AcDbEntity
 67
     1
  8
DEFPOINTS
100
AcDbViewport
 10
198.0508309076477
 20
285.1874477816852
 30
0.0
 40
396.4883172119752
 41
570.409736121624
 68
     2
 69
     2
1001
ACAD
1000
MVIEW
1002
{
1070
    16
1010
0.0
1020
0.0
1030
0.0
1010
0.0
1020
0.0
1030
1.0
1040
0.0
1040
570.409736121624
1040
210.0
1040
297.0
1040
50.0
1040
0.0
1040
0.0
1070
     0
1070
   100
1070
     1
1070
     1
1070
     0
1070
     0
1070
     0
1070
     0
1040
0.0
1040
0.0
1040
0.0
1040
1.0
1040
1.0
1040
0.0
1040
0.0
1070
     0
1002
{
1002
}
1002
}
  0
ENDSEC
  0
SECTION
  2
OBJECTS
  0
DICTIONARY
  5
19
330
0
100
AcDbDictionary
  3
ACAD_COLOR
350
A81
  3
ACAD_GROUP
350
1A
  3
ACAD_LAYOUT
350
513
  3
ACAD_MATERIAL
350
A80
  3
ACAD_MLINESTYLE
350
1B
  3
ACAD_PLOTSETTINGS
350
514
  3
ACADDIM
350
7D6
  3
ASE_INDEX_DICTIONARY
350
125E
  3
DWGPROPS
350
12A7
1001
ACAD
1000
TREAT_AS_HARD
1070
     0
1000
TREAT_AS_HARD
1070
     0
  0
DICTIONARY
  5
1263
330
2
100
AcDbDictionary
  3
ACAD_LAYERSTATES
350
1264
1001
ACAD
1000
TREAT_AS_HARD
1070
     1
  0
DICTIONARY
  5
1215
330
A
100
AcDbDictionary
  3
ACAD_LAYOUTSELFREF
350
12B9
1001
ACAD
1000
TREAT_AS_HARD
1070
     1
  0
DICTIONARY
  5
1217
330
B
100
AcDbDictionary
  3
ACAD_LAYOUTSELFREF
350
12BA
1001
ACAD
1000
TREAT_AS_HARD
1070
     1
  0
DICTIONARY
  5
12AB
330
A98
100
AcDbDictionary
  3
ACAD_XREC_ROUNDTRIP
350
12AC
1001
ACAD
1000
TREAT_AS_HARD
1070
     1
  0
DICTIONARY
  5
12B1
330
1293
100
AcDbDictionary
  3
ACAD_XREC_ROUNDTRIP
350
12B2
1001
ACAD
1000
TREAT_AS_HARD
1070
     1
  0
DICTIONARY
  5
A81
102
{ACAD_REACTORS
330
19
102
}
330
19
100
AcDbDictionary
1001
ACAD
1000
TREAT_AS_HARD
1070
     0
1000
TREAT_AS_HARD
1070
     0
  0
DICTIONARY
  5
1A
102
{ACAD_REACTORS
330
19
102
}
330
19
100
AcDbDictionary
  3
DAGROUP33C
350
33C
  3
DAGROUP342
350
342
  3
DAGROUP348
350
348
  3
DAGROUP34E
350
34E
  3
DAGROUP354
350
354
  3
DAGROUP35A
350
35A
  3
DAGROUP360
350
360
  3
DAGROUP366
350
366
  3
DAGROUP36C
350
36C
  3
DAGROUP372
350
372
  3
DAGROUP378
350
378
  3
DAGROUP37E
350
37E
  3
DAGROUP384
350
384
  3
DAGROUP38A
350
38A
  3
DAGROUP390
350
390
  3
DAGROUP3AF
350
3AF
  3
DAGROUP3B3
350
3B3
  3
DAGROUP3B7
350
3B7
  3
DAGROUP3BB
350
3BB
  3
DAGROUP3BF
350
3BF
  3
DAGROUP3C3
350
3C3
  3
DAGROUP3C7
350
3C7
1001
ACAD
1000
TREAT_AS_HARD
1070
     0
1000
TREAT_AS_HARD
1070
     0
  0
DICTIONARY
  5
513
102
{ACAD_REACTORS
330
19
102
}
330
19
100
AcDbDictionary
1001
ACAD
1000
TREAT_AS_HARD
1070
     0
1000
TREAT_AS_HARD
1070
     0
  0
DICTIONARY
  5
A80
102
{ACAD_REACTORS
330
19
102
}
330
19
100
AcDbDictionary
1001
ACAD
1000
TREAT_AS_HARD
1070
     0
1000
TREAT_AS_HARD
1070
     0
  0
DICTIONARY
  5
1B
102
{ACAD_REACTORS
330
19
102
}
330
19
100
AcDbDictionary
  3
STANDARD
350
1C
1001
ACAD
1000
TREAT_AS_HARD
1070
     0
1000
TREAT_AS_HARD
1070
     0
  0
DICTIONARY
  5
514
102
{ACAD_REACTORS
330
19
102
}
330
19
100
AcDbDictionary
1001
ACAD
1000
TREAT_AS_HARD
1070
     0
1000
TREAT_AS_HARD
1070
     0
  0
XRECORD
  5
7D6
102
{ACAD_REACTORS
330
19
102
}
330
19
100
AcDbXrecord
 90
   990106
  3

 60
     0
 61
     0
 62
     1
 63
     3
 64
     1
 65
     0
 66
     0
 67
     3
 68
     1
 69
     0
 70
     0
 71
     0
 72
     0
 40
0.0
170
     2
340
D3C
  0
DICTIONARY
  5
125E
102
{ACAD_REACTORS
330
19
102
}
330
19
100
AcDbDictionary
  3
ASEBLOCKHIERARCHYINDEXRECORD
350
125F
1001
DCO15
1040
1508668339.843
1001
ACAD
1000
TREAT_AS_HARD
1070
     0
  0
XRECORD
  5
12A7
102
{ACAD_REACTORS
330
19
102
}
330
19
100
AcDbXrecord
  1
DWGPROPS COOKIE
  2

  3

  4

  6

  7

  8

  9

300
=
301
=
302
=
303
=
304
=
305
=
306
=
307
=
308
=
309
=
 40
0.4243260069444445
 41
2444972.375
 42
2453265.758391562
  1

 90
        0
  0
DICTIONARY
  5
1264
102
{ACAD_REACTORS
330
1263
102
}
330
1263
100
AcDbDictionary
1001
ACAD
1000
TREAT_AS_HARD
1070
     0
  0
XRECORD
  5
12B9
102
{ACAD_REACTORS
330
1215
102
}
330
1215
100
AcDbXrecord
340
A
  0
XRECORD
  5
12BA
102
{ACAD_REACTORS
330
1217
102
}
330
1217
100
AcDbXrecord
340
B
  0
XRECORD
  5
12AC
102
{ACAD_REACTORS
330
12AB
102
}
330
12AB
100
AcDbXrecord
102
SHADEPLOT
 70
     0
  0
XRECORD
  5
12B2
102
{ACAD_REACTORS
330
12B1
102
}
330
12B1
100
AcDbXrecord
102
SHADEPLOT
 70
     0
  0
GROUP
  5
33C
102
{ACAD_REACTORS
330
1A
102
}
330
1A
100
AcDbGroup
300

 70
     0
 71
     1
  0
GROUP
  5
342
102
{ACAD_REACTORS
330
1A
102
}
330
1A
100
AcDbGroup
300

 70
     0
 71
     1
  0
GROUP
  5
348
102
{ACAD_REACTORS
330
1A
102
}
330
1A
100
AcDbGroup
300

 70
     0
 71
     1
  0
GROUP
  5
34E
102
{ACAD_REACTORS
330
1A
102
}
330
1A
100
AcDbGroup
300

 70
     0
 71
     1
  0
GROUP
  5
354
102
{ACAD_REACTORS
330
1A
102
}
330
1A
100
AcDbGroup
300

 70
     0
 71
     1
  0
GROUP
  5
35A
102
{ACAD_REACTORS
330
1A
102
}
330
1A
100
AcDbGroup
300

 70
     0
 71
     1
  0
GROUP
  5
360
102
{ACAD_REACTORS
330
1A
102
}
330
1A
100
AcDbGroup
300

 70
     0
 71
     1
  0
GROUP
  5
366
102
{ACAD_REACTORS
330
1A
102
}
330
1A
100
AcDbGroup
300

 70
     0
 71
     1
  0
GROUP
  5
36C
102
{ACAD_REACTORS
330
1A
102
}
330
1A
100
AcDbGroup
300

 70
     0
 71
     1
  0
GROUP
  5
372
102
{ACAD_REACTORS
330
1A
102
}
330
1A
100
AcDbGroup
300

 70
     0
 71
     1
  0
GROUP
  5
378
102
{ACAD_REACTORS
330
1A
102
}
330
1A
100
AcDbGroup
300

 70
     0
 71
     1
  0
GROUP
  5
37E
102
{ACAD_REACTORS
330
1A
102
}
330
1A
100
AcDbGroup
300

 70
     0
 71
     1
  0
GROUP
  5
384
102
{ACAD_REACTORS
330
1A
102
}
330
1A
100
AcDbGroup
300

 70
     0
 71
     1
  0
GROUP
  5
38A
102
{ACAD_REACTORS
330
1A
102
}
330
1A
100
AcDbGroup
300

 70
     0
 71
     1
  0
GROUP
  5
390
102
{ACAD_REACTORS
330
1A
102
}
330
1A
100
AcDbGroup
300

 70
     0
 71
     1
  0
GROUP
  5
3AF
102
{ACAD_REACTORS
330
1A
102
}
330
1A
100
AcDbGroup
300

 70
     0
 71
     1
  0
GROUP
  5
3B3
102
{ACAD_REACTORS
330
1A
102
}
330
1A
100
AcDbGroup
300

 70
     0
 71
     1
  0
GROUP
  5
3B7
102
{ACAD_REACTORS
330
1A
102
}
330
1A
100
AcDbGroup
300

 70
     0
 71
     1
  0
GROUP
  5
3BB
102
{ACAD_REACTORS
330
1A
102
}
330
1A
100
AcDbGroup
300

 70
     0
 71
     1
  0
GROUP
  5
3BF
102
{ACAD_REACTORS
330
1A
102
}
330
1A
100
AcDbGroup
300

 70
     0
 71
     1
  0
GROUP
  5
3C3
102
{ACAD_REACTORS
330
1A
102
}
330
1A
100
AcDbGroup
300

 70
     0
 71
     1
  0
GROUP
  5
3C7
102
{ACAD_REACTORS
330
1A
102
}
330
1A
100
AcDbGroup
300

 70
     0
 71
     1
  0
MLINESTYLE
  5
1C
102
{ACAD_REACTORS
330
1B
102
}
330
1B
100
AcDbMlineStyle
  2
STANDARD
 70
     0
  3

 62
     0
 51
90.00000000000019
 52
90.00000000000019
 71
     2
 49
0.5
 62
   256
  6
BYLAYER
 49
-0.5
 62
   256
  6
BYLAYER
  0
XRECORD
  5
125F
102
{ACAD_REACTORS
330
125E
102
}
330
125E
100
AcDbXrecord
330
AC7
330
AC8
330
1234
330
1235
330
123F
330
1240
330
BCC
330
BCD
330
AF1
330
AF2
330
BDE
330
BDF
330
B03
330
B04
330
B0B
330
B0C
330
B14
330
B15
330
B1D
330
B1E
330
B26
330
B27
330
B2F
330
B30
330
B3B
330
B3C
330
B43
330
B44
330
B4C
330
B4D
330
B55
330
B56
330
B5E
330
B5F
330
B67
330
B68
330
B70
330
B71
330
B79
330
B7A
330
B83
330
B84
330
BFC
330
BFD
330
B97
330
B98
330
BAB
330
BAC
330
BA0
330
BA1
330
BB6
330
BB7
330
BBE
330
BBF
  0
ENDSEC
  0
EOF
