  0
SECTION
  2
HEADER
  9
$ACADVER
  1
AC1012
  9
$DWGCODEPAGE
  3
dos932
  9
$INSBASE
 10
0.0
 20
0.0
 30
0.0
  9
$EXTMIN
 10
0.0
 20
0.0
 30
0.0
  9
$EXTMAX
 10
420.0
 20
594.0
 30
0.0
  9
$LIMMIN
 10
0.0
 20
0.0
  9
$LIMMAX
 10
420.0
 20
594.0
  9
$ORTHOMODE
 70
     0
  9
$REGENMODE
 70
     1
  9
$FILLMODE
 70
     1
  9
$QTEXTMODE
 70
     0
  9
$MIRRTEXT
 70
     1
  9
$DRAGMODE
 70
     2
  9
$LTSCALE
 40
0.5
  9
$OSMODE
 70
    37
  9
$ATTMODE
 70
     1
  9
$TEXTSIZE
 40
8.0
  9
$TRACEWID
 40
0.05
  9
$TEXTSTYLE
  7
STANDARD
  9
$CLAYER
  8
DEFPOINTS
  9
$CELTYPE
  6
BYLAYER
  9
$CECOLOR
 62
   256
  9
$CELTSCALE
 40
1.0
  9
$DELOBJ
 70
     1
  9
$DISPSILH
 70
     0
  9
$DIMSCALE
 40
2.0
  9
$DIMASZ
 40
2.5
  9
$DIMEXO
 40
1.5
  9
$DIMDLI
 40
0.0
  9
$DIMRND
 40
0.0
  9
$DIMDLE
 40
0.0
  9
$DIMEXE
 40
1.0
  9
$DIMTP
 40
0.0
  9
$DIMTM
 40
0.0
  9
$DIMTXT
 40
2.5
  9
$DIMCEN
 40
0.0
  9
$DIMTSZ
 40
0.0
  9
$DIMTOL
 70
     0
  9
$DIMLIM
 70
     0
  9
$DIMTIH
 70
     0
  9
$DIMTOH
 70
     0
  9
$DIMSE1
 70
     0
  9
$DIMSE2
 70
     0
  9
$DIMTAD
 70
     1
  9
$DIMZIN
 70
     8
  9
$DIMBLK
  1
OPEN30
  9
$DIMASO
 70
     1
  9
$DIMSHO
 70
     1
  9
$DIMPOST
  1

  9
$DIMAPOST
  1

  9
$DIMALT
 70
     0
  9
$DIMALTD
 70
     2
  9
$DIMALTF
 40
25.4
  9
$DIMLFAC
 40
1.0
  9
$DIMTOFL
 70
     1
  9
$DIMTVP
 40
0.0
  9
$DIMTIX
 70
     1
  9
$DIMSOXD
 70
     0
  9
$DIMSAH
 70
     0
  9
$DIMBLK1
  1

  9
$DIMBLK2
  1

  9
$DIMSTYLE
  2
SUNPOU_2
  9
$DIMCLRD
 70
   256
  9
$DIMCLRE
 70
   256
  9
$DIMCLRT
 70
   256
  9
$DIMTFAC
 40
1.0
  9
$DIMGAP
 40
1.0
  9
$DIMJUST
 70
     0
  9
$DIMSD1
 70
     0
  9
$DIMSD2
 70
     0
  9
$DIMTOLJ
 70
     1
  9
$DIMTZIN
 70
     0
  9
$DIMALTZ
 70
     0
  9
$DIMALTTZ
 70
     0
  9
$DIMFIT
 70
     3
  9
$DIMUPT
 70
     0
  9
$DIMUNIT
 70
     2
  9
$DIMDEC
 70
     1
  9
$DIMTDEC
 70
     1
  9
$DIMALTU
 70
     2
  9
$DIMALTTD
 70
     2
  9
$DIMTXSTY
  7
SUNPOU
  9
$DIMAUNIT
 70
     0
  9
$LUNITS
 70
     2
  9
$LUPREC
 70
     4
  9
$SKETCHINC
 40
0.1
  9
$FILLETRAD
 40
0.0
  9
$AUNITS
 70
     0
  9
$AUPREC
 70
     0
  9
$MENU
  1
acad
  9
$ELEVATION
 40
0.0
  9
$PELEVATION
 40
0.0
  9
$THICKNESS
 40
0.0
  9
$LIMCHECK
 70
     0
  9
$BLIPMODE
 70
     0
  9
$CHAMFERA
 40
0.0
  9
$CHAMFERB
 40
0.0
  9
$CHAMFERC
 40
0.0
  9
$CHAMFERD
 40
0.0
  9
$SKPOLY
 70
     0
  9
$TDCREATE
 40
2444972.375000000
  9
$TDUPDATE
 40
2453266.435710717
  9
$TDINDWG
 40
0.2363814120
  9
$TDUSRTIMER
 40
0.2363812269
  9
$USRTIMER
 70
     1
  9
$ANGBASE
 50
0.0
  9
$ANGDIR
 70
     0
  9
$PDMODE
 70
     0
  9
$PDSIZE
 40
1.0
  9
$PLINEWID
 40
0.0
  9
$COORDS
 70
     1
  9
$SPLFRAME
 70
     0
  9
$SPLINETYPE
 70
     6
  9
$SPLINESEGS
 70
     8
  9
$ATTDIA
 70
     0
  9
$ATTREQ
 70
     1
  9
$HANDLING
 70
-16383
  9
$HANDSEED
  5
167A
  9
$SURFTAB1
 70
     6
  9
$SURFTAB2
 70
     6
  9
$SURFTYPE
 70
     6
  9
$SURFU
 70
     6
  9
$SURFV
 70
     6
  9
$UCSNAME
  2

  9
$UCSORG
 10
0.0
 20
0.0
 30
0.0
  9
$UCSXDIR
 10
1.0
 20
0.0
 30
0.0
  9
$UCSYDIR
 10
0.0
 20
1.0
 30
0.0
  9
$PUCSNAME
  2

  9
$PUCSORG
 10
0.0
 20
0.0
 30
0.0
  9
$PUCSXDIR
 10
1.0
 20
0.0
 30
0.0
  9
$PUCSYDIR
 10
0.0
 20
1.0
 30
0.0
  9
$USERI1
 70
     0
  9
$USERI2
 70
     0
  9
$USERI3
 70
     0
  9
$USERI4
 70
     0
  9
$USERI5
 70
     0
  9
$USERR1
 40
0.0
  9
$USERR2
 40
0.0
  9
$USERR3
 40
0.0
  9
$USERR4
 40
0.0
  9
$USERR5
 40
0.0
  9
$WORLDVIEW
 70
     1
  9
$SHADEDGE
 70
     3
  9
$SHADEDIF
 70
    70
  9
$TILEMODE
 70
     1
  9
$MAXACTVP
 70
    16
  9
$PINSBASE
 10
0.0
 20
0.0
 30
0.0
  9
$PLIMCHECK
 70
     0
  9
$PEXTMIN
 10
0.0545710422769616
 20
-0.1409903501446479
 30
-0.0015258207003583
  9
$PEXTMAX
 10
396.5428882542521
 20
570.2687457714793
 30
0.0000000349246037
  9
$PLIMMIN
 10
-11.69401468762768
 20
-11.88957226499928
  9
$PLIMMAX
 10
408.2914720766317
 20
582.017329593859
  9
$UNITMODE
 70
     0
  9
$VISRETAIN
 70
     0
  9
$PLINEGEN
 70
     1
  9
$PSLTSCALE
 70
     0
  9
$TREEDEPTH
 70
  3020
  9
$PICKSTYLE
 70
     1
  9
$CMLSTYLE
  2
STANDARD
  9
$CMLJUST
 70
     0
  9
$CMLSCALE
 40
1.0
  9
$SAVEIMAGES
 70
     1
  0
ENDSEC
  0
SECTION
  2
CLASSES
  0
CLASS
  1
LWPOLYLINE
  2
AcDbPolyline
  3
AutoCAD 2000
 90
    32768
280
     0
281
     1
  0
CLASS
  1
IMAGE
  2
AcDbRasterImage
  3
ISM
 90
    32895
280
     0
281
     1
  0
CLASS
  1
OLE2FRAME
  2
AcDbOle2Frame
  3
AutoCAD 2000
 90
    32768
280
     0
281
     1
  0
CLASS
  1
HATCH
  2
AcDbHatch
  3
AutoCAD 2000
 90
    32768
280
     0
281
     1
  0
CLASS
  1
DICTIONARYVAR
  2
AcDbDictionaryVar
  3
AutoCAD 2000
 90
    32768
280
     0
281
     0
  0
CLASS
  1
RASTERVARIABLES
  2
AcDbRasterVariables
  3
ISM
 90
    32768
280
     0
281
     0
  0
CLASS
  1
IMAGEDEF
  2
AcDbRasterImageDef
  3
ISM
 90
    32768
280
     0
281
     0
  0
CLASS
  1
IMAGEDEF_REACTOR
  2
AcDbRasterImageDefReactor
  3
ISM
 90
    32769
280
     0
281
     0
  0
CLASS
  1
IDBUFFER
  2
AcDbIdBuffer
  3
AutoCAD 2000
 90
    32768
280
     0
281
     0
  0
CLASS
  1
SPATIAL_FILTER
  2
AcDbSpatialFilter
  3
AutoCAD 2000
 90
    32768
280
     0
281
     0
  0
CLASS
  1
XRECORD
  2
AcDbXrecord
  3
AutoCAD 2000
 90
    32768
280
     0
281
     0
  0
CLASS
  1
SORTENTSTABLE
  2
AcDbSortentsTable
  3
AutoCAD 2000
 90
    32768
280
     0
281
     0
  0
CLASS
  1
LAYER_INDEX
  2
AcDbLayerIndex
  3
AutoCAD 2000
 90
    32768
280
     0
281
     0
  0
CLASS
  1
SPATIAL_INDEX
  2
AcDbSpatialIndex
  3
AutoCAD 2000
 90
    32768
280
     0
281
     0
  0
CLASS
  1
OBJECT_PTR
  2
CAseDLPNTableRecord
  3
ASE-LPNTableRecord
 90
    32769
280
     0
281
     0
  0
CLASS
  1
ACDBDICTIONARYWDFLT
  2
AcDbDictionaryWithDefault
  3
AutoCAD 2000
 90
    32768
280
     0
281
     0
  0
CLASS
  1
ACDBPLACEHOLDER
  2
AcDbPlaceHolder
  3
AutoCAD 2000
 90
    32768
280
     0
281
     0
  0
CLASS
  1
LAYOUT
  2
AcDbLayout
  3
AutoCAD 2000
 90
    32768
280
     0
281
     0
  0
CLASS
  1
LONG_TRANSACTION
  2
AcDbLongTransaction
  3
AutoCAD 2000
 90
    32768
280
     0
281
     0
  0
CLASS
  1
LWPOLYLINE
  2
AcDbPolyline
  3
AutoCAD 2000
 90
    32768
280
     0
281
     1
  0
CLASS
  1
HATCH
  2
AcDbHatch
  3
AutoCAD 2000
 90
    32768
280
     0
281
     1
  0
CLASS
  1
XRECORD
  2
AcDbXrecord
  3
AutoCAD 2000
 90
    32768
280
     0
281
     0
  0
CLASS
  1
LONG_TRANSACTION
  2
AcDbLongTransaction
  3
AutoCAD 2000
 90
    32768
280
     0
281
     0
  0
CLASS
  1
LWPOLYLINE
  2
AcDbPolyline
  3
AutoCAD 2000
 90
    32768
280
     0
281
     1
  0
CLASS
  1
HATCH
  2
AcDbHatch
  3
AutoCAD 2000
 90
    32768
280
     0
281
     1
  0
CLASS
  1
XRECORD
  2
AcDbXrecord
  3
AutoCAD 2000
 90
    32768
280
     0
281
     0
  0
CLASS
  1
LONG_TRANSACTION
  2
AcDbLongTransaction
  3
AutoCAD 2000
 90
    32768
280
     0
281
     0
  0
CLASS
  1
LWPOLYLINE
  2
AcDbPolyline
  3
AutoCAD 2000
 90
    32768
280
     0
281
     1
  0
CLASS
  1
HATCH
  2
AcDbHatch
  3
AutoCAD 2000
 90
    32768
280
     0
281
     1
  0
CLASS
  1
XRECORD
  2
AcDbXrecord
  3
AutoCAD 2000
 90
    32768
280
     0
281
     0
  0
ENDSEC
  0
SECTION
  2
TABLES
  0
TABLE
  2
VPORT
  5
7
330
0
100
AcDbSymbolTable
 70
     2
  0
VPORT
  5
1650
330
7
100
AcDbSymbolTableRecord
100
AcDbViewportTableRecord
  2
*ACTIVE
 70
     0
 10
0.0
 20
0.0
 11
1.0
 21
1.0
 12
228.3534136753863
 22
297.000001383014
 13
0.0
 23
0.0
 14
1.0
 24
1.0
 15
0.0
 25
0.0
 16
0.0
 26
0.0
 36
1.0
 17
0.0
 27
0.0
 37
0.0
 40
600.9536239436467
 41
1.780442804428044
 42
50.0
 43
0.0
 44
0.0
 50
0.0
 51
0.0
 71
     0
 72
   100
 73
     1
 74
     1
 75
     0
 76
     0
 77
     0
 78
     0
  0
ENDTAB
  0
TABLE
  2
LTYPE
  5
4
330
0
100
AcDbSymbolTable
 70
     3
  0
LTYPE
  5
11
330
4
100
AcDbSymbolTableRecord
100
AcDbLinetypeTableRecord
  2
BYBLOCK
 70
     0
  3

 72
    65
 73
     0
 40
0.0
  0
LTYPE
  5
12
330
4
100
AcDbSymbolTableRecord
100
AcDbLinetypeTableRecord
  2
BYLAYER
 70
     0
  3

 72
    65
 73
     0
 40
0.0
  0
LTYPE
  5
13
330
4
100
AcDbSymbolTableRecord
100
AcDbLinetypeTableRecord
  2
CONTINUOUS
 70
     0
  3
Solid line
 72
    65
 73
     0
 40
0.0
  0
LTYPE
  5
79F
330
4
100
AcDbSymbolTableRecord
100
AcDbLinetypeTableRecord
  2
CENTER2
 70
     0
  3
Center (.5x) ___ _ ___ _ ___ _ ___ _ ___ _ ___
 72
    65
 73
     4
 40
28.57499999999999
 49
19.05
 74
     0
 49
-3.174999999999998
 74
     0
 49
3.174999999999998
 74
     0
 49
-3.174999999999998
 74
     0
  0
LTYPE
  5
14F6
330
4
100
AcDbSymbolTableRecord
100
AcDbLinetypeTableRecord
  2
PHANTOM2
 70
     0
  3
Phantom (.5x) ___ _ _ ___ _ _ ___ _ _ ___ _ _
 72
    65
 73
     6
 40
31.75
 49
15.875
 74
     0
 49
-3.174999999999998
 74
     0
 49
3.174999999999998
 74
     0
 49
-3.174999999999998
 74
     0
 49
3.174999999999998
 74
     0
 49
-3.174999999999998
 74
     0
  0
ENDTAB
  0
TABLE
  2
LAYER
  5
2
102
{ACAD_XDICTIONARY
360
159B
102
}
330
0
100
AcDbSymbolTable
 70
    12
  0
LAYER
  5
14
330
2
100
AcDbSymbolTableRecord
100
AcDbLayerTableRecord
  2
0
 70
     0
 62
     7
  6
CONTINUOUS
  0
LAYER
  5
7A2
330
2
100
AcDbSymbolTableRecord
100
AcDbLayerTableRecord
  2
DEFPOINTS
 70
     0
 62
     7
  6
CONTINUOUS
  0
LAYER
  5
7A3
330
2
100
AcDbSymbolTableRecord
100
AcDbLayerTableRecord
  2
03
 70
     0
 62
     3
  6
CONTINUOUS
  0
LAYER
  5
7A4
330
2
100
AcDbSymbolTableRecord
100
AcDbLayerTableRecord
  2
04
 70
     0
 62
     4
  6
CONTINUOUS
  0
LAYER
  5
7A5
330
2
100
AcDbSymbolTableRecord
100
AcDbLayerTableRecord
  2
06
 70
     0
 62
     6
  6
CONTINUOUS
  0
LAYER
  5
7A6
330
2
100
AcDbSymbolTableRecord
100
AcDbLayerTableRecord
  2
CHUSIN
 70
     0
 62
     6
  6
CENTER2
  0
LAYER
  5
7A7
330
2
100
AcDbSymbolTableRecord
100
AcDbLayerTableRecord
  2
HIKIDASI
 70
     0
 62
     6
  6
CONTINUOUS
  0
LAYER
  5
7A9
330
2
100
AcDbSymbolTableRecord
100
AcDbLayerTableRecord
  2
MOJI
 70
     0
 62
     3
  6
CONTINUOUS
  0
LAYER
  5
7AB
330
2
100
AcDbSymbolTableRecord
100
AcDbLayerTableRecord
  2
SUNPOU
 70
     0
 62
     6
  6
CONTINUOUS
  0
LAYER
  5
7AC
330
2
100
AcDbSymbolTableRecord
100
AcDbLayerTableRecord
  2
SAISEN
 70
     0
 62
     3
  6
CONTINUOUS
  0
LAYER
  5
7CD
330
2
100
AcDbSymbolTableRecord
100
AcDbLayerTableRecord
  2
02
 70
     0
 62
     2
  6
CONTINUOUS
  0
LAYER
  5
14F7
330
2
100
AcDbSymbolTableRecord
100
AcDbLayerTableRecord
  2
SOUZOU
 70
     0
 62
     6
  6
PHANTOM2
  0
ENDTAB
  0
TABLE
  2
STYLE
  5
3
330
0
100
AcDbSymbolTable
 70
     4
  0
STYLE
  5
17
330
3
100
AcDbSymbolTableRecord
100
AcDbTextStyleTableRecord
  2
STANDARD
 70
     0
 40
0.0
 41
0.8
 50
0.0
 71
     0
 42
8.0
  3
txt.shx
  4
bigfont.shx
  0
STYLE
  5
7B7
330
3
100
AcDbSymbolTableRecord
100
AcDbTextStyleTableRecord
  2
SUNPOU
 70
     0
 40
0.0
 41
0.8
 50
0.0
 71
     0
 42
3.5
  3
txt.shx
  4
extfont.shx
  0
STYLE
  5
7BE
330
3
100
AcDbSymbolTableRecord
100
AcDbTextStyleTableRecord
  2
0_8
 70
     0
 40
0.0
 41
0.8
 50
0.0
 71
     0
 42
6.0
  3
txt.shx
  4
extfont.shx
  0
STYLE
  5
1599
330
3
100
AcDbSymbolTableRecord
100
AcDbTextStyleTableRecord
  2
0_80
 70
     0
 40
0.0
 41
0.8
 50
0.0
 71
     0
 42
16.8
  3
txt.shx
  4
extfont.shx
  0
ENDTAB
  0
TABLE
  2
VIEW
  5
5
330
0
100
AcDbSymbolTable
 70
     1
  0
VIEW
  5
136
330
5
100
AcDbSymbolTableRecord
100
AcDbViewTableRecord
  2
QQQQ
 70
     0
 40
605.3899996359646
 10
-0.9999999999995875
 20
-4.169520396327101
 41
386.7500000000001
 11
0.0
 21
0.0
 31
1.0
 12
100.0
 22
100.0
 32
0.0
 42
50.0
 43
0.0
 44
0.0
 50
0.0
 71
     0
  0
ENDTAB
  0
TABLE
  2
UCS
  5
6
330
0
100
AcDbSymbolTable
 70
     0
  0
ENDTAB
  0
TABLE
  2
APPID
  5
8
330
0
100
AcDbSymbolTable
 70
     3
  0
APPID
  5
16
330
8
100
AcDbSymbolTableRecord
100
AcDbRegAppTableRecord
  2
ACAD
 70
     0
  0
APPID
  5
E4E
330
8
100
AcDbSymbolTableRecord
100
AcDbRegAppTableRecord
  2
DCO15
 70
     0
  0
APPID
  5
1543
330
8
100
AcDbSymbolTableRecord
100
AcDbRegAppTableRecord
  2
CONTENTBLOCKICON
 70
     0
  0
ENDTAB
  0
TABLE
  2
DIMSTYLE
  5
9
330
0
100
AcDbSymbolTable
 70
     3
  0
DIMSTYLE
105
18
330
9
100
AcDbSymbolTableRecord
100
AcDbDimStyleTableRecord
  2
STANDARD
 70
     0
  3

  4

  5

  6

  7

 40
1.0
 41
0.18
 42
0.0625
 43
0.38
 44
0.18
 45
0.0
 46
0.0
 47
0.0
 48
0.0
140
0.18
141
0.09
142
0.0
143
25.4
144
1.0
145
0.0
146
1.0
147
0.09
 71
     0
 72
     0
 73
     1
 74
     1
 75
     0
 76
     0
 77
     0
 78
     0
170
     0
171
     2
172
     0
173
     0
174
     0
175
     0
176
     0
177
     0
178
     0
270
     2
271
     4
272
     4
273
     2
274
     2
340
17
275
     0
280
     0
281
     0
282
     0
283
     1
284
     0
285
     0
286
     0
287
     3
288
     0
  0
DIMSTYLE
105
7B8
102
{ACAD_REACTORS
330
7E3
330
7F2
330
801
330
80E
330
81D
330
82A
330
863
330
872
330
8A4
330
888
330
895
330
9BC
330
9CB
330
9D8
330
9E7
330
A03
330
A54
330
A63
330
9A0
330
97D
330
98A
330
970
330
B58
330
143B
330
146A
102
}
330
9
100
AcDbSymbolTableRecord
100
AcDbDimStyleTableRecord
  2
SUNPOU_2
 70
     0
  3

  4

  5
OPEN30
  6

  7

 40
2.0
 41
2.5
 42
1.5
 43
0.0
 44
1.0
 45
0.0
 46
0.0
 47
0.0
 48
0.0
140
2.5
141
0.0
142
0.0
143
25.4
144
1.0
145
0.0
146
1.0
147
1.0
 71
     0
 72
     0
 73
     0
 74
     0
 75
     0
 76
     0
 77
     1
 78
     8
170
     0
171
     2
172
     1
173
     0
174
     1
175
     0
176
   256
177
   256
178
   256
270
     2
271
     1
272
     1
273
     2
274
     2
340
7B7
275
     0
280
     0
281
     0
282
     0
283
     1
284
     0
285
     0
286
     0
287
     3
288
     0
  0
DIMSTYLE
105
AD9
102
{ACAD_REACTORS
330
ACA
330
AE5
330
AFF
330
B0E
330
B24
330
BD1
330
BEB
330
B65
330
B49
330
C05
330
C12
102
}
330
9
100
AcDbSymbolTableRecord
100
AcDbDimStyleTableRecord
  2
SUNPOU_2_10
 70
     0
  3

  4

  5
OPEN30
  6

  7

 40
2.0
 41
2.5
 42
1.5
 43
0.0
 44
1.0
 45
0.0
 46
0.0
 47
0.0
 48
0.0
140
2.5
141
0.0
142
0.0
143
25.4
144
10.0
145
0.0
146
1.0
147
1.0
 71
     0
 72
     0
 73
     0
 74
     0
 75
     0
 76
     0
 77
     1
 78
     8
170
     0
171
     2
172
     1
173
     0
174
     1
175
     0
176
   256
177
   256
178
   256
270
     2
271
     1
272
     1
273
     2
274
     2
340
7B7
275
     0
280
     0
281
     0
282
     0
283
     1
284
     0
285
     0
286
     0
287
     3
288
     0
  0
ENDTAB
  0
TABLE
  2
BLOCK_RECORD
  5
1
330
0
100
AcDbSymbolTable
 70
    39
  0
BLOCK_RECORD
  5
A
102
{ACAD_XDICTIONARY
360
153F
102
}
330
1
100
AcDbSymbolTableRecord
100
AcDbBlockTableRecord
  2
*MODEL_SPACE
  0
BLOCK_RECORD
  5
B
102
{ACAD_XDICTIONARY
360
1541
102
}
330
1
100
AcDbSymbolTableRecord
100
AcDbBlockTableRecord
  2
*PAPER_SPACE
  0
BLOCK_RECORD
  5
7B1
330
1
100
AcDbSymbolTableRecord
100
AcDbBlockTableRecord
  2
_OPEN30
1001
CONTENTBLOCKICON
1071
        0
1004
2800000020000000200000000100080000000000000400000000000000000000000000000000000000000000000080000080000000808000800000008000800080800000C0C0C000C0DCC000F0CAA6000020400000206000002080000020A0000020C0000020E00000400000004020000040400000406000004080000040A0
1004
000040C0000040E00000600000006020000060400000606000006080000060A0000060C0000060E00000800000008020000080400000806000008080000080A0000080C0000080E00000A0000000A0200000A0400000A0600000A0800000A0A00000A0C00000A0E00000C0000000C0200000C0400000C0600000C0800000C0
1004
A00000C0C00000C0E00000E0000000E0200000E0400000E0600000E0800000E0A00000E0C00000E0E00040000000400020004000400040006000400080004000A0004000C0004000E00040200000402020004020400040206000402080004020A0004020C0004020E000404000004040200040404000404060004040800040
1004
40A0004040C0004040E00040600000406020004060400040606000406080004060A0004060C0004060E00040800000408020004080400040806000408080004080A0004080C0004080E00040A0000040A0200040A0400040A0600040A0800040A0A00040A0C00040A0E00040C0000040C0200040C0400040C0600040C08000
1004
40C0A00040C0C00040C0E00040E0000040E0200040E0400040E0600040E0800040E0A00040E0C00040E0E00080000000800020008000400080006000800080008000A0008000C0008000E00080200000802020008020400080206000802080008020A0008020C0008020E00080400000804020008040400080406000804080
1004
008040A0008040C0008040E00080600000806020008060400080606000806080008060A0008060C0008060E00080800000808020008080400080806000808080008080A0008080C0008080E00080A0000080A0200080A0400080A0600080A0800080A0A00080A0C00080A0E00080C0000080C0200080C0400080C0600080C0
1004
800080C0A00080C0C00080C0E00080E0000080E0200080E0400080E0600080E0800080E0A00080E0C00080E0E000C0000000C0002000C0004000C0006000C0008000C000A000C000C000C000E000C0200000C0202000C0204000C0206000C0208000C020A000C020C000C020E000C0400000C0402000C0404000C0406000C0
1004
408000C040A000C040C000C040E000C0600000C0602000C0604000C0606000C0608000C060A000C060C000C060E000C0800000C0802000C0804000C0806000C0808000C080A000C080C000C080E000C0A00000C0A02000C0A04000C0A06000C0A08000C0A0A000C0A0C000C0A0E000C0C00000C0C02000C0C04000C0C06000
1004
C0C08000C0C0A000F0FBFF00A4A0A000808080000000FF0000FF000000FFFF00FF000000FF00FF00FFFF0000FFFFFF0000000000000000000000000000000000000000000000000000000000000000000000000000000000000000000000000000000000000000000000000000000000000000000000000000000000000000
1004
00000000000000000000000000000000000000000000000000000000000000000000000000000000000000000000000000000000000000000000000000000000000000000000000000000000000000000000000000000000000000000000000000000000000000000000000000000000000000000000000000000000000000
1004
000000000000000000000000000000000000000000000000000000000000000000000000000000000000000000000000000000FFFF0000000000000000000000000000000000000000000000000000000000000000FFFFFFFF0000000000000000000000000000000000000000000000000000000000000000FFFFFFFF0000
1004
000000000000000000000000000000000000000000000000000000000000FFFFFF0000000000000000000000000000000000000000000000000000000000000000FFFFFFFF0000000000000000000000000000000000000000000000000000000000000000FFFFFF0000000000000000000000000000000000000000000000
1004
000000000000000000FFFFFFFF0000000000000000000000000000000000000000000000000000000000000000FFFFFFFF00000000FFFFFFFFFFFFFFFFFFFFFFFFFFFFFFFFFFFFFFFFFFFFFFFFFFFFFFFFFFFF00000000000000000000000000000000000000000000000000FFFFFFFF000000000000000000000000000000
1004
000000000000000000FFFFFFFF000000000000000000000000000000000000000000000000FFFFFFFF000000000000000000000000000000000000000000000000FFFFFFFF000000000000000000000000000000000000000000000000FFFFFFFF000000000000000000000000000000000000000000000000FFFFFFFF0000
1004
0000000000000000000000000000000000000000000000FFFFFF0000000000000000000000000000000000000000000000000000000000000000000000000000000000000000000000000000000000000000000000000000000000000000000000000000000000000000000000000000000000000000000000000000000000
1004
00000000000000000000000000000000000000000000000000000000000000000000000000000000000000000000000000000000000000000000000000000000000000000000000000000000000000000000000000000000000000000000000000000000000000000000000000000000000000000000000000000000000000
1004
0000000000000000000000000000000000000000000000000000000000000000000000000000000000000000000000000000000000000000
  0
BLOCK_RECORD
  5
7E4
330
1
100
AcDbSymbolTableRecord
100
AcDbBlockTableRecord
  2
*D1
  0
BLOCK_RECORD
  5
7F3
330
1
100
AcDbSymbolTableRecord
100
AcDbBlockTableRecord
  2
*D2
  0
BLOCK_RECORD
  5
802
330
1
100
AcDbSymbolTableRecord
100
AcDbBlockTableRecord
  2
*D3
  0
BLOCK_RECORD
  5
80F
330
1
100
AcDbSymbolTableRecord
100
AcDbBlockTableRecord
  2
*D4
  0
BLOCK_RECORD
  5
81E
330
1
100
AcDbSymbolTableRecord
100
AcDbBlockTableRecord
  2
*D5
  0
BLOCK_RECORD
  5
82B
330
1
100
AcDbSymbolTableRecord
100
AcDbBlockTableRecord
  2
*D6
  0
BLOCK_RECORD
  5
864
330
1
100
AcDbSymbolTableRecord
100
AcDbBlockTableRecord
  2
*D7
  0
BLOCK_RECORD
  5
873
330
1
100
AcDbSymbolTableRecord
100
AcDbBlockTableRecord
  2
*D8
  0
BLOCK_RECORD
  5
889
330
1
100
AcDbSymbolTableRecord
100
AcDbBlockTableRecord
  2
*D9
  0
BLOCK_RECORD
  5
896
330
1
100
AcDbSymbolTableRecord
100
AcDbBlockTableRecord
  2
*D10
  0
BLOCK_RECORD
  5
8A5
330
1
100
AcDbSymbolTableRecord
100
AcDbBlockTableRecord
  2
*D11
  0
BLOCK_RECORD
  5
971
330
1
100
AcDbSymbolTableRecord
100
AcDbBlockTableRecord
  2
*D12
  0
BLOCK_RECORD
  5
97E
330
1
100
AcDbSymbolTableRecord
100
AcDbBlockTableRecord
  2
*D13
  0
BLOCK_RECORD
  5
98B
330
1
100
AcDbSymbolTableRecord
100
AcDbBlockTableRecord
  2
*D14
  0
BLOCK_RECORD
  5
9A1
330
1
100
AcDbSymbolTableRecord
100
AcDbBlockTableRecord
  2
*D15
  0
BLOCK_RECORD
  5
9BD
330
1
100
AcDbSymbolTableRecord
100
AcDbBlockTableRecord
  2
*D16
  0
BLOCK_RECORD
  5
9CC
330
1
100
AcDbSymbolTableRecord
100
AcDbBlockTableRecord
  2
*D17
  0
BLOCK_RECORD
  5
9D9
330
1
100
AcDbSymbolTableRecord
100
AcDbBlockTableRecord
  2
*D18
  0
BLOCK_RECORD
  5
9E8
330
1
100
AcDbSymbolTableRecord
100
AcDbBlockTableRecord
  2
*D19
  0
BLOCK_RECORD
  5
A04
330
1
100
AcDbSymbolTableRecord
100
AcDbBlockTableRecord
  2
*D20
  0
BLOCK_RECORD
  5
A55
330
1
100
AcDbSymbolTableRecord
100
AcDbBlockTableRecord
  2
*D21
  0
BLOCK_RECORD
  5
A64
330
1
100
AcDbSymbolTableRecord
100
AcDbBlockTableRecord
  2
*D22
  0
BLOCK_RECORD
  5
A88
330
1
100
AcDbSymbolTableRecord
100
AcDbBlockTableRecord
  2
_DOTSMALL
  0
BLOCK_RECORD
  5
ACB
330
1
100
AcDbSymbolTableRecord
100
AcDbBlockTableRecord
  2
*D24
  0
BLOCK_RECORD
  5
AE6
330
1
100
AcDbSymbolTableRecord
100
AcDbBlockTableRecord
  2
*D25
  0
BLOCK_RECORD
  5
B00
330
1
100
AcDbSymbolTableRecord
100
AcDbBlockTableRecord
  2
*D26
  0
BLOCK_RECORD
  5
B0F
330
1
100
AcDbSymbolTableRecord
100
AcDbBlockTableRecord
  2
*D27
  0
BLOCK_RECORD
  5
B25
330
1
100
AcDbSymbolTableRecord
100
AcDbBlockTableRecord
  2
*D28
  0
BLOCK_RECORD
  5
B4A
330
1
100
AcDbSymbolTableRecord
100
AcDbBlockTableRecord
  2
*D29
  0
BLOCK_RECORD
  5
B59
330
1
100
AcDbSymbolTableRecord
100
AcDbBlockTableRecord
  2
*D30
  0
BLOCK_RECORD
  5
B66
330
1
100
AcDbSymbolTableRecord
100
AcDbBlockTableRecord
  2
*D31
  0
BLOCK_RECORD
  5
BD2
330
1
100
AcDbSymbolTableRecord
100
AcDbBlockTableRecord
  2
*D32
  0
BLOCK_RECORD
  5
BEC
330
1
100
AcDbSymbolTableRecord
100
AcDbBlockTableRecord
  2
*D33
  0
BLOCK_RECORD
  5
C06
330
1
100
AcDbSymbolTableRecord
100
AcDbBlockTableRecord
  2
*D34
  0
BLOCK_RECORD
  5
C13
330
1
100
AcDbSymbolTableRecord
100
AcDbBlockTableRecord
  2
*D35
  0
BLOCK_RECORD
  5
143C
330
1
100
AcDbSymbolTableRecord
100
AcDbBlockTableRecord
  2
*D36
  0
BLOCK_RECORD
  5
1451
330
1
100
AcDbSymbolTableRecord
100
AcDbBlockTableRecord
  2
_NONE
  0
BLOCK_RECORD
  5
146B
330
1
100
AcDbSymbolTableRecord
100
AcDbBlockTableRecord
  2
*D38
  0
ENDTAB
  0
ENDSEC
  0
SECTION
  2
BLOCKS
  0
BLOCK
  5
D
330
A
100
AcDbEntity
  8
0
100
AcDbBlockBegin
  2
*MODEL_SPACE
 70
     0
 10
0.0
 20
0.0
 30
0.0
  3
*MODEL_SPACE
  1

  0
ENDBLK
  5
E
330
A
100
AcDbEntity
  8
0
100
AcDbBlockEnd
  0
BLOCK
  5
F
330
B
100
AcDbEntity
 67
     1
  8
0
100
AcDbBlockBegin
  2
*PAPER_SPACE
 70
     0
 10
0.0
 20
0.0
 30
0.0
  3
*PAPER_SPACE
  1

  0
ENDBLK
  5
10
330
B
100
AcDbEntity
 67
     1
  8
0
100
AcDbBlockEnd
  0
BLOCK
  5
7B5
330
7B1
100
AcDbEntity
  8
0
100
AcDbBlockBegin
  2
_OPEN30
 70
     0
 10
0.0
 20
0.0
 30
0.0
  3
_OPEN30
  1

  0
LINE
  5
7B2
330
7B1
100
AcDbEntity
  8
0
  6
BYBLOCK
 62
     0
100
AcDbLine
 10
-1.0
 20
0.26794919
 30
0.0
 11
0.0
 21
0.0
 31
0.0
  0
LINE
  5
7B3
330
7B1
100
AcDbEntity
  8
0
  6
BYBLOCK
 62
     0
100
AcDbLine
 10
0.0
 20
0.0
 30
0.0
 11
-1.0
 21
-0.26794919
 31
0.0
  0
LINE
  5
7B4
330
7B1
100
AcDbEntity
  8
0
  6
BYBLOCK
 62
     0
100
AcDbLine
 10
0.0
 20
0.0
 30
0.0
 11
-1.0
 21
0.0
 31
0.0
  0
ENDBLK
  5
7B6
330
7B1
100
AcDbEntity
  8
0
100
AcDbBlockEnd
  0
BLOCK
  5
7F0
330
7E4
100
AcDbEntity
  8
0
100
AcDbBlockBegin
  2
*D1
 70
     1
 10
0.0
 20
0.0
 30
0.0
  3
*D1
  1

  0
LINE
  5
14E9
330
7E4
100
AcDbEntity
  8
SUNPOU
100
AcDbLine
 10
307.1709443627888
 20
450.8517584412362
 30
0.0
 11
346.8833179297593
 21
450.8517584412362
 31
0.0
  0
LINE
  5
14EA
330
7E4
100
AcDbEntity
  8
SUNPOU
100
AcDbLine
 10
307.1709443627888
 20
455.8517251934524
 30
0.0
 11
346.8833179297593
 21
455.8517251934524
 31
0.0
  0
LINE
  5
14EB
330
7E4
100
AcDbEntity
  8
SUNPOU
100
AcDbLine
 10
344.8833179297593
 20
445.851758441236
 30
0.0
 11
344.8833179297593
 21
440.851758441236
 31
0.0
  0
LINE
  5
14EC
330
7E4
100
AcDbEntity
  8
SUNPOU
100
AcDbLine
 10
344.8833179297593
 20
460.8517251934525
 30
0.0
 11
344.8833179297593
 21
465.8517251934525
 31
0.0
  0
LINE
  5
14ED
330
7E4
100
AcDbEntity
  8
SUNPOU
100
AcDbLine
 10
344.8833179297593
 20
450.8517584412362
 30
0.0
 11
344.8833179297593
 21
455.8517251934524
 31
0.0
  0
INSERT
  5
14EE
330
7E4
100
AcDbEntity
  8
SUNPOU
100
AcDbBlockReference
  2
_OPEN30
 10
344.8833179297593
 20
450.8517584412362
 30
0.0
 41
5.0
 42
5.0
 43
5.0
 50
90.0
  0
INSERT
  5
14EF
330
7E4
100
AcDbEntity
  8
SUNPOU
100
AcDbBlockReference
  2
_OPEN30
 10
344.8833179297593
 20
455.8517251934524
 30
0.0
 41
5.0
 42
5.0
 43
5.0
 50
270.0
  0
MTEXT
  5
14F0
330
7E4
100
AcDbEntity
  8
SUNPOU
100
AcDbMText
 10
340.3833179297591
 20
453.3517418173445
 30
0.0
 40
5.0
 41
0.0
 71
     5
 72
     1
  1
\A1;5
  7
SUNPOU
 11
0.0000000000000001
 21
1.0
 31
0.0
1001
ACAD
1000
MTEXTBEGIN
1070
    73
1070
     1
1070
    44
1040
1.0
1070
    74
1070
     0
1000
MTEXTEND
1000
MTEXTBEGIN
1070
    73
1070
     1
1070
    44
1040
1.0
1070
    74
1070
     0
1000
MTEXTEND
  0
POINT
  5
14F1
330
7E4
100
AcDbEntity
  8
DEFPOINTS
 62
     0
100
AcDbPoint
 10
304.1709443627888
 20
450.8517584412362
 30
0.0
  0
POINT
  5
14F2
330
7E4
100
AcDbEntity
  8
DEFPOINTS
 62
     0
100
AcDbPoint
 10
304.1709443627888
 20
455.8517251934524
 30
0.0
  0
POINT
  5
14F3
330
7E4
100
AcDbEntity
  8
DEFPOINTS
 62
     0
100
AcDbPoint
 10
344.8833179297593
 20
455.8517251934524
 30
0.0
  0
ENDBLK
  5
7F1
330
7E4
100
AcDbEntity
  8
0
100
AcDbBlockEnd
  0
BLOCK
  5
7FF
330
7F3
100
AcDbEntity
  8
0
100
AcDbBlockBegin
  2
*D2
 70
     1
 10
0.0
 20
0.0
 30
0.0
  3
*D2
  1

  0
LINE
  5
FD9
330
7F3
100
AcDbEntity
  8
SUNPOU
100
AcDbLine
 10
173.1105605315411
 20
352.1168444264036
 30
0.0
 11
166.5449579706435
 21
352.1168444264036
 31
0.0
  0
LINE
  5
FDA
330
7F3
100
AcDbEntity
  8
SUNPOU
100
AcDbLine
 10
202.542269657138
 20
355.1168444264036
 30
0.0
 11
166.5449579706435
 21
355.1168444264036
 31
0.0
  0
LINE
  5
FDB
330
7F3
100
AcDbEntity
  8
SUNPOU
100
AcDbLine
 10
168.5449579706435
 20
347.1168444264036
 30
0.0
 11
168.5449579706435
 21
342.1168444264036
 31
0.0
  0
LINE
  5
FDC
330
7F3
100
AcDbEntity
  8
SUNPOU
100
AcDbLine
 10
168.5449579706435
 20
360.1168444264036
 30
0.0
 11
168.5449579706435
 21
365.1168444264036
 31
0.0
  0
MTEXT
  5
FDD
330
7F3
100
AcDbEntity
  8
SUNPOU
100
AcDbMText
 10
164.0449579706436
 20
344.8699821309193
 30
0.0
 40
5.0
 41
0.0
 71
     5
 72
     1
  1
\A1;3
  7
SUNPOU
 11
0.0000000000000001
 21
1.0
 31
0.0
1001
ACAD
1000
MTEXTBEGIN
1070
    73
1070
     1
1070
    44
1040
1.0
1070
    74
1070
     0
1000
MTEXTEND
1000
MTEXTBEGIN
1070
    73
1070
     1
1070
    44
1040
1.0
1070
    74
1070
     0
1000
MTEXTEND
  0
LINE
  5
FDE
330
7F3
100
AcDbEntity
  8
SUNPOU
100
AcDbLine
 10
168.5449579706435
 20
352.1168444264036
 30
0.0
 11
168.5449579706435
 21
355.1168444264036
 31
0.0
  0
INSERT
  5
FDF
330
7F3
100
AcDbEntity
  8
SUNPOU
100
AcDbBlockReference
  2
_OPEN30
 10
168.5449579706435
 20
352.1168444264036
 30
0.0
 41
5.0
 42
5.0
 43
5.0
 50
90.0
  0
INSERT
  5
FE0
330
7F3
100
AcDbEntity
  8
SUNPOU
100
AcDbBlockReference
  2
_OPEN30
 10
168.5449579706435
 20
355.1168444264036
 30
0.0
 41
5.0
 42
5.0
 43
5.0
 50
270.0
  0
POINT
  5
FE1
330
7F3
100
AcDbEntity
  8
DEFPOINTS
 62
     0
100
AcDbPoint
 10
176.1105605315411
 20
352.1168444264036
 30
0.0
  0
POINT
  5
FE2
330
7F3
100
AcDbEntity
  8
DEFPOINTS
 62
     0
100
AcDbPoint
 10
205.5422696571381
 20
355.1168444264036
 30
0.0
  0
POINT
  5
FE3
330
7F3
100
AcDbEntity
  8
DEFPOINTS
 62
     0
100
AcDbPoint
 10
168.5449579706435
 20
355.1168444264036
 30
0.0
  0
ENDBLK
  5
800
330
7F3
100
AcDbEntity
  8
0
100
AcDbBlockEnd
  0
BLOCK
  5
80C
330
802
100
AcDbEntity
  8
0
100
AcDbBlockBegin
  2
*D3
 70
     1
 10
0.0
 20
0.0
 30
0.0
  3
*D3
  1

  0
LINE
  5
FD0
330
802
100
AcDbEntity
  8
SUNPOU
100
AcDbLine
 10
202.542269657138
 20
355.1168444264036
 30
0.0
 11
166.5449579706435
 21
355.1168444264036
 31
0.0
  0
LINE
  5
FD1
330
802
100
AcDbEntity
  8
SUNPOU
100
AcDbLine
 10
189.8264150943396
 20
425.094569627628
 30
0.0
 11
166.5449579706435
 21
425.094569627628
 31
0.0
  0
LINE
  5
FD2
330
802
100
AcDbEntity
  8
SUNPOU
100
AcDbLine
 10
168.5449579706435
 20
360.1168444264036
 30
0.0
 11
168.5449579706435
 21
420.0945696276281
 31
0.0
  0
INSERT
  5
FD3
330
802
100
AcDbEntity
  8
SUNPOU
100
AcDbBlockReference
  2
_OPEN30
 10
168.5449579706435
 20
355.1168444264036
 30
0.0
 41
5.0
 42
5.0
 43
5.0
 50
270.0
  0
INSERT
  5
FD4
330
802
100
AcDbEntity
  8
SUNPOU
100
AcDbBlockReference
  2
_OPEN30
 10
168.5449579706435
 20
425.094569627628
 30
0.0
 41
5.0
 42
5.0
 43
5.0
 50
90.0
  0
MTEXT
  5
FD5
330
802
100
AcDbEntity
  8
SUNPOU
100
AcDbMText
 10
164.0449579706436
 20
390.1057070270158
 30
0.0
 40
5.0
 41
0.0
 71
     5
 72
     1
  1
\A1;70
  7
SUNPOU
 11
0.0000000000000001
 21
1.0
 31
0.0
1001
ACAD
1000
MTEXTBEGIN
1070
    73
1070
     1
1070
    44
1040
1.0
1070
    74
1070
     0
1000
MTEXTEND
1000
MTEXTBEGIN
1070
    73
1070
     1
1070
    44
1040
1.0
1070
    74
1070
     0
1000
MTEXTEND
  0
POINT
  5
FD6
330
802
100
AcDbEntity
  8
DEFPOINTS
 62
     0
100
AcDbPoint
 10
205.5422696571381
 20
355.1168444264036
 30
0.0
  0
POINT
  5
FD7
330
802
100
AcDbEntity
  8
DEFPOINTS
 62
     0
100
AcDbPoint
 10
192.8264150943396
 20
425.094569627628
 30
0.0
  0
POINT
  5
FD8
330
802
100
AcDbEntity
  8
DEFPOINTS
 62
     0
100
AcDbPoint
 10
168.5449579706435
 20
425.094569627628
 30
0.0
  0
ENDBLK
  5
80D
330
802
100
AcDbEntity
  8
0
100
AcDbBlockEnd
  0
BLOCK
  5
81B
330
80F
100
AcDbEntity
  8
0
100
AcDbBlockBegin
  2
*D4
 70
     1
 10
0.0
 20
0.0
 30
0.0
  3
*D4
  1

  0
LINE
  5
FC5
330
80F
100
AcDbEntity
  8
SUNPOU
100
AcDbLine
 10
249.1105605315409
 20
352.1168444264036
 30
0.0
 11
259.4448348620649
 21
352.1168444264036
 31
0.0
  0
LINE
  5
FC6
330
80F
100
AcDbEntity
  8
SUNPOU
100
AcDbLine
 10
219.110560531541
 20
355.1168444264036
 30
0.0
 11
259.4448348620649
 21
355.1168444264036
 31
0.0
  0
LINE
  5
FC7
330
80F
100
AcDbEntity
  8
SUNPOU
100
AcDbLine
 10
257.4448348620649
 20
347.1168444264036
 30
0.0
 11
257.4448348620649
 21
342.1168444264036
 31
0.0
  0
LINE
  5
FC8
330
80F
100
AcDbEntity
  8
SUNPOU
100
AcDbLine
 10
257.4448348620649
 20
360.1168444264036
 30
0.0
 11
257.4448348620649
 21
365.1168444264036
 31
0.0
  0
MTEXT
  5
FC9
330
80F
100
AcDbEntity
  8
SUNPOU
100
AcDbMText
 10
252.9448348620649
 20
344.2331619745846
 30
0.0
 40
5.0
 41
0.0
 71
     5
 72
     1
  1
\A1;3
  7
SUNPOU
 11
0.0000000000000001
 21
1.0
 31
0.0
1001
ACAD
1000
MTEXTBEGIN
1070
    73
1070
     1
1070
    44
1040
1.0
1070
    74
1070
     0
1000
MTEXTEND
1000
MTEXTBEGIN
1070
    73
1070
     1
1070
    44
1040
1.0
1070
    74
1070
     0
1000
MTEXTEND
  0
LINE
  5
FCA
330
80F
100
AcDbEntity
  8
SUNPOU
100
AcDbLine
 10
257.4448348620649
 20
352.1168444264036
 30
0.0
 11
257.4448348620649
 21
355.1168444264036
 31
0.0
  0
INSERT
  5
FCB
330
80F
100
AcDbEntity
  8
SUNPOU
100
AcDbBlockReference
  2
_OPEN30
 10
257.4448348620649
 20
352.1168444264036
 30
0.0
 41
5.0
 42
5.0
 43
5.0
 50
90.0
  0
INSERT
  5
FCC
330
80F
100
AcDbEntity
  8
SUNPOU
100
AcDbBlockReference
  2
_OPEN30
 10
257.4448348620649
 20
355.1168444264036
 30
0.0
 41
5.0
 42
5.0
 43
5.0
 50
270.0
  0
POINT
  5
FCD
330
80F
100
AcDbEntity
  8
DEFPOINTS
 62
     0
100
AcDbPoint
 10
246.1105605315411
 20
352.1168444264036
 30
0.0
  0
POINT
  5
FCE
330
80F
100
AcDbEntity
  8
DEFPOINTS
 62
     0
100
AcDbPoint
 10
216.1105605315411
 20
355.1168444264036
 30
0.0
  0
POINT
  5
FCF
330
80F
100
AcDbEntity
  8
DEFPOINTS
 62
     0
100
AcDbPoint
 10
257.4448348620649
 20
355.1168444264036
 30
0.0
  0
ENDBLK
  5
81C
330
80F
100
AcDbEntity
  8
0
100
AcDbBlockEnd
  0
BLOCK
  5
828
330
81E
100
AcDbEntity
  8
0
100
AcDbBlockBegin
  2
*D5
 70
     1
 10
0.0
 20
0.0
 30
0.0
  3
*D5
  1

  0
LINE
  5
FBC
330
81E
100
AcDbEntity
  8
SUNPOU
100
AcDbLine
 10
219.110560531541
 20
355.1168444264036
 30
0.0
 11
259.4448348620649
 21
355.1168444264036
 31
0.0
  0
LINE
  5
FBD
330
81E
100
AcDbEntity
  8
SUNPOU
100
AcDbLine
 10
219.110560531541
 20
549.3016469284376
 30
0.0
 11
259.444834862065
 21
549.3016469284376
 31
0.0
  0
LINE
  5
FBE
330
81E
100
AcDbEntity
  8
SUNPOU
100
AcDbLine
 10
257.4448348620649
 20
360.1168444264036
 30
0.0
 11
257.444834862065
 21
544.3016469284376
 31
0.0
  0
INSERT
  5
FBF
330
81E
100
AcDbEntity
  8
SUNPOU
100
AcDbBlockReference
  2
_OPEN30
 10
257.4448348620649
 20
355.1168444264036
 30
0.0
 41
5.0
 42
5.0
 43
5.0
 50
270.0
  0
INSERT
  5
FC0
330
81E
100
AcDbEntity
  8
SUNPOU
100
AcDbBlockReference
  2
_OPEN30
 10
257.444834862065
 20
549.3016469284376
 30
0.0
 41
5.0
 42
5.0
 43
5.0
 50
90.0
  0
MTEXT
  5
FC1
330
81E
100
AcDbEntity
  8
SUNPOU
100
AcDbMText
 10
252.9448348620649
 20
452.2092456774206
 30
0.0
 40
5.0
 41
0.0
 71
     5
 72
     1
  1
\A1;DW
  7
SUNPOU
 11
0.0000000000000001
 21
1.0
 31
0.0
1001
ACAD
1000
MTEXTBEGIN
1070
    73
1070
     1
1070
    44
1040
1.0
1070
    74
1070
     0
1000
MTEXTEND
1000
MTEXTBEGIN
1070
    73
1070
     1
1070
    44
1040
1.0
1070
    74
1070
     0
1000
MTEXTEND
  0
POINT
  5
FC2
330
81E
100
AcDbEntity
  8
DEFPOINTS
 62
     0
100
AcDbPoint
 10
216.1105605315411
 20
355.1168444264036
 30
0.0
  0
POINT
  5
FC3
330
81E
100
AcDbEntity
  8
DEFPOINTS
 62
     0
100
AcDbPoint
 10
216.1105605315411
 20
549.3016469284376
 30
0.0
  0
POINT
  5
FC4
330
81E
100
AcDbEntity
  8
DEFPOINTS
 62
     0
100
AcDbPoint
 10
257.444834862065
 20
549.3016469284376
 30
0.0
  0
ENDBLK
  5
829
330
81E
100
AcDbEntity
  8
0
100
AcDbBlockEnd
  0
BLOCK
  5
837
330
82B
100
AcDbEntity
  8
0
100
AcDbBlockBegin
  2
*D6
 70
     1
 10
0.0
 20
0.0
 30
0.0
  3
*D6
  1

  0
LINE
  5
FB1
330
82B
100
AcDbEntity
  8
SUNPOU
100
AcDbLine
 10
219.110560531541
 20
549.3016469284376
 30
0.0
 11
259.444834862065
 21
549.3016469284376
 31
0.0
  0
LINE
  5
FB2
330
82B
100
AcDbEntity
  8
SUNPOU
100
AcDbLine
 10
249.1105605315409
 20
552.3016469284376
 30
0.0
 11
259.444834862065
 21
552.3016469284376
 31
0.0
  0
LINE
  5
FB3
330
82B
100
AcDbEntity
  8
SUNPOU
100
AcDbLine
 10
257.444834862065
 20
544.3016469284376
 30
0.0
 11
257.444834862065
 21
539.3016469284376
 31
0.0
  0
LINE
  5
FB4
330
82B
100
AcDbEntity
  8
SUNPOU
100
AcDbLine
 10
257.444834862065
 20
557.3016469284376
 30
0.0
 11
257.444834862065
 21
562.3016469284376
 31
0.0
  0
MTEXT
  5
FB5
330
82B
100
AcDbEntity
  8
SUNPOU
100
AcDbMText
 10
252.9448348620649
 20
560.0665533776306
 30
0.0
 40
5.0
 41
0.0
 71
     5
 72
     1
  1
\A1;3
  7
SUNPOU
 11
0.0000000000000001
 21
1.0
 31
0.0
1001
ACAD
1000
MTEXTBEGIN
1070
    73
1070
     1
1070
    44
1040
1.0
1070
    74
1070
     0
1000
MTEXTEND
1000
MTEXTBEGIN
1070
    73
1070
     1
1070
    44
1040
1.0
1070
    74
1070
     0
1000
MTEXTEND
  0
LINE
  5
FB6
330
82B
100
AcDbEntity
  8
SUNPOU
100
AcDbLine
 10
257.444834862065
 20
549.3016469284376
 30
0.0
 11
257.444834862065
 21
552.3016469284376
 31
0.0
  0
INSERT
  5
FB7
330
82B
100
AcDbEntity
  8
SUNPOU
100
AcDbBlockReference
  2
_OPEN30
 10
257.444834862065
 20
549.3016469284376
 30
0.0
 41
5.0
 42
5.0
 43
5.0
 50
90.0
  0
INSERT
  5
FB8
330
82B
100
AcDbEntity
  8
SUNPOU
100
AcDbBlockReference
  2
_OPEN30
 10
257.444834862065
 20
552.3016469284376
 30
0.0
 41
5.0
 42
5.0
 43
5.0
 50
270.0
  0
POINT
  5
FB9
330
82B
100
AcDbEntity
  8
DEFPOINTS
 62
     0
100
AcDbPoint
 10
216.1105605315411
 20
549.3016469284376
 30
0.0
  0
POINT
  5
FBA
330
82B
100
AcDbEntity
  8
DEFPOINTS
 62
     0
100
AcDbPoint
 10
246.1105605315411
 20
552.3016469284376
 30
0.0
  0
POINT
  5
FBB
330
82B
100
AcDbEntity
  8
DEFPOINTS
 62
     0
100
AcDbPoint
 10
257.444834862065
 20
552.3016469284376
 30
0.0
  0
ENDBLK
  5
838
330
82B
100
AcDbEntity
  8
0
100
AcDbBlockEnd
  0
BLOCK
  5
870
330
864
100
AcDbEntity
  8
0
100
AcDbBlockBegin
  2
*D7
 70
     1
 10
0.0
 20
0.0
 30
0.0
  3
*D7
  1

  0
LINE
  5
FA6
330
864
100
AcDbEntity
  8
SUNPOU
100
AcDbLine
 10
202.542269657138
 20
355.1168444264036
 30
0.0
 11
183.5920248758031
 21
355.1168444264036
 31
0.0
  0
LINE
  5
FA7
330
864
100
AcDbEntity
  8
SUNPOU
100
AcDbLine
 10
193.3264150943394
 20
369.394569627628
 30
0.0
 11
183.5920248758031
 21
369.394569627628
 31
0.0
  0
LINE
  5
FA8
330
864
100
AcDbEntity
  8
SUNPOU
100
AcDbLine
 10
185.5920248758031
 20
350.1168444264036
 30
0.0
 11
185.5920248758031
 21
345.1168444264036
 31
0.0
  0
LINE
  5
FA9
330
864
100
AcDbEntity
  8
SUNPOU
100
AcDbLine
 10
185.5920248758031
 20
374.3945696276282
 30
0.0
 11
185.5920248758031
 21
379.394569627628
 31
0.0
  0
LINE
  5
FAA
330
864
100
AcDbEntity
  8
SUNPOU
100
AcDbLine
 10
185.5920248758031
 20
355.1168444264036
 30
0.0
 11
185.5920248758031
 21
369.394569627628
 31
0.0
  0
INSERT
  5
FAB
330
864
100
AcDbEntity
  8
SUNPOU
100
AcDbBlockReference
  2
_OPEN30
 10
185.5920248758031
 20
355.1168444264036
 30
0.0
 41
5.0
 42
5.0
 43
5.0
 50
90.0
  0
INSERT
  5
FAC
330
864
100
AcDbEntity
  8
SUNPOU
100
AcDbBlockReference
  2
_OPEN30
 10
185.5920248758031
 20
369.394569627628
 30
0.0
 41
5.0
 42
5.0
 43
5.0
 50
270.0
  0
MTEXT
  5
FAD
330
864
100
AcDbEntity
  8
SUNPOU
100
AcDbMText
 10
181.092024875803
 20
362.2557070270158
 30
0.0
 40
5.0
 41
0.0
 71
     5
 72
     1
  1
\A1;14.3
  7
SUNPOU
 11
0.0000000000000001
 21
1.0
 31
0.0
1001
ACAD
1000
MTEXTBEGIN
1070
    73
1070
     1
1070
    44
1040
1.0
1070
    74
1070
     0
1000
MTEXTEND
1000
MTEXTBEGIN
1070
    73
1070
     1
1070
    44
1040
1.0
1070
    74
1070
     0
1000
MTEXTEND
  0
POINT
  5
FAE
330
864
100
AcDbEntity
  8
DEFPOINTS
 62
     0
100
AcDbPoint
 10
205.5422696571381
 20
355.1168444264036
 30
0.0
  0
POINT
  5
FAF
330
864
100
AcDbEntity
  8
DEFPOINTS
 62
     0
100
AcDbPoint
 10
196.3264150943394
 20
369.394569627628
 30
0.0
  0
POINT
  5
FB0
330
864
100
AcDbEntity
  8
DEFPOINTS
 62
     0
100
AcDbPoint
 10
185.5920248758031
 20
369.394569627628
 30
0.0
  0
ENDBLK
  5
871
330
864
100
AcDbEntity
  8
0
100
AcDbBlockEnd
  0
BLOCK
  5
87D
330
873
100
AcDbEntity
  8
0
100
AcDbBlockBegin
  2
*D8
 70
     1
 10
0.0
 20
0.0
 30
0.0
  3
*D8
  1

  0
LINE
  5
F9D
330
873
100
AcDbEntity
  8
SUNPOU
100
AcDbLine
 10
194.8264150943394
 20
370.8945696276281
 30
0.0
 11
194.8264150943394
 21
405.7089537627306
 31
0.0
  0
LINE
  5
F9E
330
873
100
AcDbEntity
  8
SUNPOU
100
AcDbLine
 10
226.8264150943398
 20
370.8945696276281
 30
0.0
 11
226.8264150943398
 21
405.7089537627306
 31
0.0
  0
LINE
  5
F9F
330
873
100
AcDbEntity
  8
SUNPOU
100
AcDbLine
 10
199.8264150943392
 20
403.7089537627307
 30
0.0
 11
221.8264150943399
 21
403.7089537627307
 31
0.0
  0
MTEXT
  5
FA0
330
873
100
AcDbEntity
  8
SUNPOU
100
AcDbMText
 10
210.8264150943393
 20
399.2089537627307
 30
0.0
 40
5.0
 41
0.0
 71
     5
 72
     1
  1
\A1;32
  7
SUNPOU
 11
-1.0
 21
0.0000000000000001
 31
0.0
1001
ACAD
1000
MTEXTBEGIN
1070
    73
1070
     1
1070
    44
1040
1.0
1070
    74
1070
     0
1000
MTEXTEND
1000
MTEXTBEGIN
1070
    73
1070
     1
1070
    44
1040
1.0
1070
    74
1070
     0
1000
MTEXTEND
  0
INSERT
  5
FA1
330
873
100
AcDbEntity
  8
SUNPOU
100
AcDbBlockReference
  2
_OPEN30
 10
194.8264150943394
 20
403.7089537627307
 30
0.0
 41
5.0
 42
5.0
 43
5.0
 50
180.0
  0
INSERT
  5
FA2
330
873
100
AcDbEntity
  8
SUNPOU
100
AcDbBlockReference
  2
_OPEN30
 10
226.8264150943398
 20
403.7089537627307
 30
0.0
 41
5.0
 42
5.0
 43
5.0
  0
POINT
  5
FA3
330
873
100
AcDbEntity
  8
DEFPOINTS
 62
     0
100
AcDbPoint
 10
194.8264150943394
 20
367.8945696276282
 30
0.0
  0
POINT
  5
FA4
330
873
100
AcDbEntity
  8
DEFPOINTS
 62
     0
100
AcDbPoint
 10
226.8264150943398
 20
367.8945696276282
 30
0.0
  0
POINT
  5
FA5
330
873
100
AcDbEntity
  8
DEFPOINTS
 62
     0
100
AcDbPoint
 10
226.8264150943398
 20
403.7089537627307
 30
0.0
  0
ENDBLK
  5
87E
330
873
100
AcDbEntity
  8
0
100
AcDbBlockEnd
  0
BLOCK
  5
893
330
889
100
AcDbEntity
  8
0
100
AcDbBlockBegin
  2
*D9
 70
     1
 10
0.0
 20
0.0
 30
0.0
  3
*D9
  1

  0
LINE
  5
F94
330
889
100
AcDbEntity
  8
SUNPOU
100
AcDbLine
 10
196.3264150943394
 20
372.3945696276282
 30
0.0
 11
196.3264150943394
 21
392.7383593783702
 31
0.0
  0
LINE
  5
F95
330
889
100
AcDbEntity
  8
SUNPOU
100
AcDbLine
 10
225.3264150943393
 20
372.3945696276282
 30
0.0
 11
225.3264150943393
 21
392.7383593783702
 31
0.0
  0
LINE
  5
F96
330
889
100
AcDbEntity
  8
SUNPOU
100
AcDbLine
 10
201.3264150943394
 20
390.7383593783702
 30
0.0
 11
220.3264150943394
 21
390.7383593783702
 31
0.0
  0
MTEXT
  5
F97
330
889
100
AcDbEntity
  8
SUNPOU
100
AcDbMText
 10
210.8264150943393
 20
386.2383593783702
 30
0.0
 40
5.0
 41
0.0
 71
     5
 72
     1
  1
\A1;29
  7
SUNPOU
 11
-1.0
 21
0.0000000000000001
 31
0.0
1001
ACAD
1000
MTEXTBEGIN
1070
    73
1070
     1
1070
    44
1040
1.0
1070
    74
1070
     0
1000
MTEXTEND
1000
MTEXTBEGIN
1070
    73
1070
     1
1070
    44
1040
1.0
1070
    74
1070
     0
1000
MTEXTEND
  0
INSERT
  5
F98
330
889
100
AcDbEntity
  8
SUNPOU
100
AcDbBlockReference
  2
_OPEN30
 10
196.3264150943394
 20
390.7383593783702
 30
0.0
 41
5.0
 42
5.0
 43
5.0
 50
180.0
  0
INSERT
  5
F99
330
889
100
AcDbEntity
  8
SUNPOU
100
AcDbBlockReference
  2
_OPEN30
 10
225.3264150943393
 20
390.7383593783702
 30
0.0
 41
5.0
 42
5.0
 43
5.0
  0
POINT
  5
F9A
330
889
100
AcDbEntity
  8
DEFPOINTS
 62
     0
100
AcDbPoint
 10
196.3264150943394
 20
369.394569627628
 30
0.0
  0
POINT
  5
F9B
330
889
100
AcDbEntity
  8
DEFPOINTS
 62
     0
100
AcDbPoint
 10
225.3264150943393
 20
369.394569627628
 30
0.0
  0
POINT
  5
F9C
330
889
100
AcDbEntity
  8
DEFPOINTS
 62
     0
100
AcDbPoint
 10
225.3264150943393
 20
390.7383593783702
 30
0.0
  0
ENDBLK
  5
894
330
889
100
AcDbEntity
  8
0
100
AcDbBlockEnd
  0
BLOCK
  5
8A2
330
896
100
AcDbEntity
  8
0
100
AcDbBlockBegin
  2
*D10
 70
     1
 10
0.0
 20
0.0
 30
0.0
  3
*D10
  1

  0
LINE
  5
F89
330
896
100
AcDbEntity
  8
SUNPOU
100
AcDbLine
 10
225.3264150943393
 20
372.3945696276282
 30
0.0
 11
225.3264150943393
 21
392.7383593783702
 31
0.0
  0
LINE
  5
F8A
330
896
100
AcDbEntity
  8
SUNPOU
100
AcDbLine
 10
226.8264150943398
 20
370.8945696276281
 30
0.0
 11
226.8264150943398
 21
392.7383593783702
 31
0.0
  0
LINE
  5
F8B
330
896
100
AcDbEntity
  8
SUNPOU
100
AcDbLine
 10
220.3264150943394
 20
390.7383593783702
 30
0.0
 11
215.3264150943394
 21
390.7383593783702
 31
0.0
  0
LINE
  5
F8C
330
896
100
AcDbEntity
  8
SUNPOU
100
AcDbLine
 10
231.8264150943398
 20
390.7383593783702
 30
0.0
 11
236.8264150943399
 21
390.7383593783702
 31
0.0
  0
MTEXT
  5
F8D
330
896
100
AcDbEntity
  8
SUNPOU
100
AcDbMText
 10
235.7339480969416
 20
386.2383593783702
 30
0.0
 40
5.0
 41
0.0
 71
     5
 72
     1
  1
\A1;1.5
  7
SUNPOU
 11
-1.0
 21
0.0000000000000001
 31
0.0
1001
ACAD
1000
MTEXTBEGIN
1070
    73
1070
     1
1070
    44
1040
1.0
1070
    74
1070
     0
1000
MTEXTEND
1000
MTEXTBEGIN
1070
    73
1070
     1
1070
    44
1040
1.0
1070
    74
1070
     0
1000
MTEXTEND
  0
LINE
  5
F8E
330
896
100
AcDbEntity
  8
SUNPOU
100
AcDbLine
 10
225.3264150943393
 20
390.7383593783702
 30
0.0
 11
226.8264150943398
 21
390.7383593783702
 31
0.0
  0
INSERT
  5
F8F
330
896
100
AcDbEntity
  8
SUNPOU
100
AcDbBlockReference
  2
_OPEN30
 10
225.3264150943393
 20
390.7383593783702
 30
0.0
 41
5.0
 42
5.0
 43
5.0
  0
INSERT
  5
F90
330
896
100
AcDbEntity
  8
SUNPOU
100
AcDbBlockReference
  2
_OPEN30
 10
226.8264150943398
 20
390.7383593783702
 30
0.0
 41
5.0
 42
5.0
 43
5.0
 50
180.0
  0
POINT
  5
F91
330
896
100
AcDbEntity
  8
DEFPOINTS
 62
     0
100
AcDbPoint
 10
225.3264150943393
 20
369.394569627628
 30
0.0
  0
POINT
  5
F92
330
896
100
AcDbEntity
  8
DEFPOINTS
 62
     0
100
AcDbPoint
 10
226.8264150943398
 20
367.8945696276282
 30
0.0
  0
POINT
  5
F93
330
896
100
AcDbEntity
  8
DEFPOINTS
 62
     0
100
AcDbPoint
 10
226.8264150943398
 20
390.7383593783702
 30
0.0
  0
ENDBLK
  5
8A3
330
896
100
AcDbEntity
  8
0
100
AcDbBlockEnd
  0
BLOCK
  5
8B1
330
8A5
100
AcDbEntity
  8
0
100
AcDbBlockBegin
  2
*D11
 70
     1
 10
0.0
 20
0.0
 30
0.0
  3
*D11
  1

  0
LINE
  5
F7E
330
8A5
100
AcDbEntity
  8
SUNPOU
100
AcDbLine
 10
194.8264150943394
 20
370.8945696276281
 30
0.0
 11
194.8264150943394
 21
392.7383593783702
 31
0.0
  0
LINE
  5
F7F
330
8A5
100
AcDbEntity
  8
SUNPOU
100
AcDbLine
 10
196.3264150943394
 20
372.3945696276282
 30
0.0
 11
196.3264150943394
 21
392.7383593783702
 31
0.0
  0
LINE
  5
F80
330
8A5
100
AcDbEntity
  8
SUNPOU
100
AcDbLine
 10
189.8264150943394
 20
390.7383593783702
 30
0.0
 11
184.8264150943394
 21
390.7383593783702
 31
0.0
  0
LINE
  5
F81
330
8A5
100
AcDbEntity
  8
SUNPOU
100
AcDbLine
 10
201.3264150943394
 20
390.7383593783702
 30
0.0
 11
206.3264150943393
 21
390.7383593783702
 31
0.0
  0
MTEXT
  5
F82
330
8A5
100
AcDbEntity
  8
SUNPOU
100
AcDbMText
 10
185.0966099685629
 20
386.2383593783702
 30
0.0
 40
5.0
 41
0.0
 71
     5
 72
     1
  1
\A1;1.5
  7
SUNPOU
 11
-1.0
 21
0.0000000000000001
 31
0.0
1001
ACAD
1000
MTEXTBEGIN
1070
    73
1070
     1
1070
    44
1040
1.0
1070
    74
1070
     0
1000
MTEXTEND
1000
MTEXTBEGIN
1070
    73
1070
     1
1070
    44
1040
1.0
1070
    74
1070
     0
1000
MTEXTEND
  0
LINE
  5
F83
330
8A5
100
AcDbEntity
  8
SUNPOU
100
AcDbLine
 10
194.8264150943394
 20
390.7383593783702
 30
0.0
 11
196.3264150943394
 21
390.7383593783702
 31
0.0
  0
INSERT
  5
F84
330
8A5
100
AcDbEntity
  8
SUNPOU
100
AcDbBlockReference
  2
_OPEN30
 10
194.8264150943394
 20
390.7383593783702
 30
0.0
 41
5.0
 42
5.0
 43
5.0
  0
INSERT
  5
F85
330
8A5
100
AcDbEntity
  8
SUNPOU
100
AcDbBlockReference
  2
_OPEN30
 10
196.3264150943394
 20
390.7383593783702
 30
0.0
 41
5.0
 42
5.0
 43
5.0
 50
180.0
  0
POINT
  5
F86
330
8A5
100
AcDbEntity
  8
DEFPOINTS
 62
     0
100
AcDbPoint
 10
194.8264150943394
 20
367.8945696276282
 30
0.0
  0
POINT
  5
F87
330
8A5
100
AcDbEntity
  8
DEFPOINTS
 62
     0
100
AcDbPoint
 10
196.3264150943394
 20
369.394569627628
 30
0.0
  0
POINT
  5
F88
330
8A5
100
AcDbEntity
  8
DEFPOINTS
 62
     0
100
AcDbPoint
 10
196.3264150943394
 20
390.7383593783702
 30
0.0
  0
ENDBLK
  5
8B2
330
8A5
100
AcDbEntity
  8
0
100
AcDbBlockEnd
  0
BLOCK
  5
97B
330
971
100
AcDbEntity
  8
0
100
AcDbBlockBegin
  2
*D12
 70
     1
 10
0.0
 20
0.0
 30
0.0
  3
*D12
  1

  0
LINE
  5
F6C
330
971
100
AcDbEntity
  8
SUNPOU
100
AcDbLine
 10
97.67055638427507
 20
265.1195259368879
 30
0.0
 11
97.67055638427507
 21
248.0061265380728
 31
0.0
  0
LINE
  5
F6D
330
971
100
AcDbEntity
  8
SUNPOU
100
AcDbLine
 10
182.6705563842748
 20
268.119525936888
 30
0.0
 11
182.6705563842748
 21
248.0061265380728
 31
0.0
  0
LINE
  5
F6E
330
971
100
AcDbEntity
  8
SUNPOU
100
AcDbLine
 10
102.670556384275
 20
250.0061265380728
 30
0.0
 11
177.6705563842748
 21
250.0061265380728
 31
0.0
  0
MTEXT
  5
F6F
330
971
100
AcDbEntity
  8
SUNPOU
100
AcDbMText
 10
140.1705563842749
 20
245.5061265380728
 30
0.0
 40
5.0
 41
0.0
 71
     5
 72
     1
  1
\A1;85
  7
SUNPOU
 11
-1.0
 21
0.0000000000000001
 31
0.0
1001
ACAD
1000
MTEXTBEGIN
1070
    73
1070
     1
1070
    44
1040
1.0
1070
    74
1070
     0
1000
MTEXTEND
1000
MTEXTBEGIN
1070
    73
1070
     1
1070
    44
1040
1.0
1070
    74
1070
     0
1000
MTEXTEND
  0
INSERT
  5
F70
330
971
100
AcDbEntity
  8
SUNPOU
100
AcDbBlockReference
  2
_OPEN30
 10
97.67055638427507
 20
250.0061265380728
 30
0.0
 41
5.0
 42
5.0
 43
5.0
 50
180.0
  0
INSERT
  5
F71
330
971
100
AcDbEntity
  8
SUNPOU
100
AcDbBlockReference
  2
_OPEN30
 10
182.6705563842748
 20
250.0061265380728
 30
0.0
 41
5.0
 42
5.0
 43
5.0
  0
POINT
  5
F72
330
971
100
AcDbEntity
  8
DEFPOINTS
 62
     0
100
AcDbPoint
 10
97.67055638427507
 20
268.1195259368879
 30
0.0
  0
POINT
  5
F73
330
971
100
AcDbEntity
  8
DEFPOINTS
 62
     0
100
AcDbPoint
 10
182.6705563842748
 20
271.119525936888
 30
0.0
  0
POINT
  5
F74
330
971
100
AcDbEntity
  8
DEFPOINTS
 62
     0
100
AcDbPoint
 10
182.6705563842748
 20
250.0061265380728
 30
0.0
  0
ENDBLK
  5
97C
330
971
100
AcDbEntity
  8
0
100
AcDbBlockEnd
  0
BLOCK
  5
988
330
97E
100
AcDbEntity
  8
0
100
AcDbBlockBegin
  2
*D13
 70
     1
 10
0.0
 20
0.0
 30
0.0
  3
*D13
  1

  0
LINE
  5
F63
330
97E
100
AcDbEntity
  8
SUNPOU
100
AcDbLine
 10
237.3294436157248
 20
268.1195259368879
 30
0.0
 11
237.3294436157248
 21
248.0061265380725
 31
0.0
  0
LINE
  5
F64
330
97E
100
AcDbEntity
  8
SUNPOU
100
AcDbLine
 10
322.3294436157248
 20
265.1195259368879
 30
0.0
 11
322.3294436157248
 21
248.0061265380725
 31
0.0
  0
LINE
  5
F65
330
97E
100
AcDbEntity
  8
SUNPOU
100
AcDbLine
 10
242.3294436157248
 20
250.0061265380725
 30
0.0
 11
317.3294436157248
 21
250.0061265380725
 31
0.0
  0
MTEXT
  5
F66
330
97E
100
AcDbEntity
  8
SUNPOU
100
AcDbMText
 10
279.8294436157249
 20
245.5061265380725
 30
0.0
 40
5.0
 41
0.0
 71
     5
 72
     1
  1
\A1;85
  7
SUNPOU
 11
-1.0
 21
0.0000000000000001
 31
0.0
1001
ACAD
1000
MTEXTBEGIN
1070
    73
1070
     1
1070
    44
1040
1.0
1070
    74
1070
     0
1000
MTEXTEND
1000
MTEXTBEGIN
1070
    73
1070
     1
1070
    44
1040
1.0
1070
    74
1070
     0
1000
MTEXTEND
  0
INSERT
  5
F67
330
97E
100
AcDbEntity
  8
SUNPOU
100
AcDbBlockReference
  2
_OPEN30
 10
237.3294436157248
 20
250.0061265380725
 30
0.0
 41
5.0
 42
5.0
 43
5.0
 50
180.0
  0
INSERT
  5
F68
330
97E
100
AcDbEntity
  8
SUNPOU
100
AcDbBlockReference
  2
_OPEN30
 10
322.3294436157248
 20
250.0061265380725
 30
0.0
 41
5.0
 42
5.0
 43
5.0
  0
POINT
  5
F69
330
97E
100
AcDbEntity
  8
DEFPOINTS
 62
     0
100
AcDbPoint
 10
237.3294436157248
 20
271.1195259368878
 30
0.0
  0
POINT
  5
F6A
330
97E
100
AcDbEntity
  8
DEFPOINTS
 62
     0
100
AcDbPoint
 10
322.3294436157248
 20
268.1195259368879
 30
0.0
  0
POINT
  5
F6B
330
97E
100
AcDbEntity
  8
DEFPOINTS
 62
     0
100
AcDbPoint
 10
322.3294436157248
 20
250.0061265380725
 30
0.0
  0
ENDBLK
  5
989
330
97E
100
AcDbEntity
  8
0
100
AcDbBlockEnd
  0
BLOCK
  5
995
330
98B
100
AcDbEntity
  8
0
100
AcDbBlockBegin
  2
*D14
 70
     1
 10
0.0
 20
0.0
 30
0.0
  3
*D14
  1

  0
LINE
  5
F75
330
98B
100
AcDbEntity
  8
SUNPOU
100
AcDbLine
 10
97.67055638427507
 20
265.1195259368879
 30
0.0
 11
97.67055638427507
 21
231.4482058293538
 31
0.0
  0
LINE
  5
F76
330
98B
100
AcDbEntity
  8
SUNPOU
100
AcDbLine
 10
322.3294436157248
 20
265.1195259368879
 30
0.0
 11
322.3294436157248
 21
231.4482058293538
 31
0.0
  0
LINE
  5
F77
330
98B
100
AcDbEntity
  8
SUNPOU
100
AcDbLine
 10
102.670556384275
 20
233.4482058293536
 30
0.0
 11
317.3294436157248
 21
233.4482058293536
 31
0.0
  0
MTEXT
  5
F78
330
98B
100
AcDbEntity
  8
SUNPOU
100
AcDbMText
 10
210.0
 20
228.9482058293538
 30
0.0
 40
5.0
 41
0.0
 71
     5
 72
     1
  1
\A1;DH
  7
SUNPOU
 11
-1.0
 21
0.0000000000000001
 31
0.0
1001
ACAD
1000
MTEXTBEGIN
1070
    73
1070
     1
1070
    44
1040
1.0
1070
    74
1070
     0
1000
MTEXTEND
1000
MTEXTBEGIN
1070
    73
1070
     1
1070
    44
1040
1.0
1070
    74
1070
     0
1000
MTEXTEND
  0
INSERT
  5
F79
330
98B
100
AcDbEntity
  8
SUNPOU
100
AcDbBlockReference
  2
_OPEN30
 10
97.67055638427507
 20
233.4482058293536
 30
0.0
 41
5.0
 42
5.0
 43
5.0
 50
180.0
  0
INSERT
  5
F7A
330
98B
100
AcDbEntity
  8
SUNPOU
100
AcDbBlockReference
  2
_OPEN30
 10
322.3294436157248
 20
233.4482058293536
 30
0.0
 41
5.0
 42
5.0
 43
5.0
  0
POINT
  5
F7B
330
98B
100
AcDbEntity
  8
DEFPOINTS
 62
     0
100
AcDbPoint
 10
97.67055638427507
 20
268.1195259368879
 30
0.0
  0
POINT
  5
F7C
330
98B
100
AcDbEntity
  8
DEFPOINTS
 62
     0
100
AcDbPoint
 10
322.3294436157248
 20
268.1195259368879
 30
0.0
  0
POINT
  5
F7D
330
98B
100
AcDbEntity
  8
DEFPOINTS
 62
     0
100
AcDbPoint
 10
322.3294436157248
 20
233.4482058293536
 30
0.0
  0
ENDBLK
  5
996
330
98B
100
AcDbEntity
  8
0
100
AcDbBlockEnd
  0
BLOCK
  5
9AB
330
9A1
100
AcDbEntity
  8
0
100
AcDbBlockBegin
  2
*D15
 70
     1
 10
0.0
 20
0.0
 30
0.0
  3
*D15
  1

  0
LINE
  5
F14
330
9A1
100
AcDbEntity
  8
SUNPOU
100
AcDbLine
 10
237.3294436157248
 20
300.1195259368878
 30
0.0
 11
237.3294436157248
 21
317.1872332001838
 31
0.0
  0
LINE
  5
F15
330
9A1
100
AcDbEntity
  8
SUNPOU
100
AcDbLine
 10
262.3294436157249
 20
292.1195259368878
 30
0.0
 11
262.3294436157249
 21
317.1872332001838
 31
0.0
  0
LINE
  5
F16
330
9A1
100
AcDbEntity
  8
SUNPOU
100
AcDbLine
 10
242.3294436157248
 20
315.1872332001838
 30
0.0
 11
244.4961102823913
 21
315.1872332001838
 31
0.0
  0
LINE
  5
F17
330
9A1
100
AcDbEntity
  8
SUNPOU
100
AcDbLine
 10
257.3294436157249
 20
315.1872332001838
 30
0.0
 11
255.162776949058
 21
315.1872332001838
 31
0.0
  0
INSERT
  5
F18
330
9A1
100
AcDbEntity
  8
SUNPOU
100
AcDbBlockReference
  2
_OPEN30
 10
237.3294436157248
 20
315.1872332001838
 30
0.0
 41
5.0
 42
5.0
 43
5.0
 50
180.0
  0
INSERT
  5
F19
330
9A1
100
AcDbEntity
  8
SUNPOU
100
AcDbBlockReference
  2
_OPEN30
 10
262.3294436157249
 20
315.1872332001838
 30
0.0
 41
5.0
 42
5.0
 43
5.0
  0
MTEXT
  5
F1A
330
9A1
100
AcDbEntity
  8
SUNPOU
100
AcDbMText
 10
249.8294436157248
 20
315.1872332001838
 30
0.0
 40
5.0
 41
0.0
 71
     5
 72
     1
  1
\A1;25
  7
SUNPOU
 11
-1.0
 21
0.0000000000000001
 31
0.0
1001
ACAD
1000
MTEXTBEGIN
1070
    73
1070
     1
1070
    44
1040
1.0
1070
    74
1070
     0
1000
MTEXTEND
1000
MTEXTBEGIN
1070
    73
1070
     1
1070
    44
1040
1.0
1070
    74
1070
     0
1000
MTEXTEND
  0
POINT
  5
F1B
330
9A1
100
AcDbEntity
  8
DEFPOINTS
 62
     0
100
AcDbPoint
 10
237.3294436157248
 20
297.1195259368879
 30
0.0
  0
POINT
  5
F1C
330
9A1
100
AcDbEntity
  8
DEFPOINTS
 62
     0
100
AcDbPoint
 10
262.3294436157249
 20
289.1195259368879
 30
0.0
  0
POINT
  5
F1D
330
9A1
100
AcDbEntity
  8
DEFPOINTS
 62
     0
100
AcDbPoint
 10
262.3294436157249
 20
315.1872332001838
 30
0.0
  0
ENDBLK
  5
9AC
330
9A1
100
AcDbEntity
  8
0
100
AcDbBlockEnd
  0
BLOCK
  5
9C9
330
9BD
100
AcDbEntity
  8
0
100
AcDbBlockBegin
  2
*D16
 70
     1
 10
0.0
 20
0.0
 30
0.0
  3
*D16
  1

  0
LINE
  5
F09
330
9BD
100
AcDbEntity
  8
SUNPOU
100
AcDbLine
 10
189.4585075728883
 20
268.1195259368879
 30
0.0
 11
190.4585075728885
 21
268.1195259368879
 31
0.0
  0
LINE
  5
F0A
330
9BD
100
AcDbEntity
  8
SUNPOU
100
AcDbLine
 10
184.170556384275
 20
269.619525936888
 30
0.0
 11
194.4585075728884
 21
269.619525936888
 31
0.0
  0
LINE
  5
F0B
330
9BD
100
AcDbEntity
  8
SUNPOU
100
AcDbLine
 10
192.4585075728884
 20
263.1195259368879
 30
0.0
 11
192.4585075728884
 21
258.1195259368878
 31
0.0
  0
LINE
  5
F0C
330
9BD
100
AcDbEntity
  8
SUNPOU
100
AcDbLine
 10
192.4585075728884
 20
274.619525936888
 30
0.0
 11
192.4585075728884
 21
279.619525936888
 31
0.0
  0
MTEXT
  5
F0D
330
9BD
100
AcDbEntity
  8
SUNPOU
100
AcDbMText
 10
187.9585075728885
 20
258.8244672846249
 30
0.0
 40
5.0
 41
0.0
 71
     5
 72
     1
  1
\A1;1.5
  7
SUNPOU
 11
0.0000000000000001
 21
1.0
 31
0.0
1001
ACAD
1000
MTEXTBEGIN
1070
    73
1070
     1
1070
    44
1040
1.0
1070
    74
1070
     0
1000
MTEXTEND
1000
MTEXTBEGIN
1070
    73
1070
     1
1070
    44
1040
1.0
1070
    74
1070
     0
1000
MTEXTEND
  0
LINE
  5
F0E
330
9BD
100
AcDbEntity
  8
SUNPOU
100
AcDbLine
 10
192.4585075728884
 20
268.1195259368879
 30
0.0
 11
192.4585075728884
 21
269.619525936888
 31
0.0
  0
INSERT
  5
F0F
330
9BD
100
AcDbEntity
  8
SUNPOU
100
AcDbBlockReference
  2
_OPEN30
 10
192.4585075728884
 20
268.1195259368879
 30
0.0
 41
5.0
 42
5.0
 43
5.0
 50
90.0
  0
INSERT
  5
F10
330
9BD
100
AcDbEntity
  8
SUNPOU
100
AcDbBlockReference
  2
_OPEN30
 10
192.4585075728884
 20
269.619525936888
 30
0.0
 41
5.0
 42
5.0
 43
5.0
 50
270.0
  0
POINT
  5
F11
330
9BD
100
AcDbEntity
  8
DEFPOINTS
 62
     0
100
AcDbPoint
 10
192.4585075728884
 20
268.1195259368879
 30
0.0
  0
POINT
  5
F12
330
9BD
100
AcDbEntity
  8
DEFPOINTS
 62
     0
100
AcDbPoint
 10
181.170556384275
 20
269.619525936888
 30
0.0
  0
POINT
  5
F13
330
9BD
100
AcDbEntity
  8
DEFPOINTS
 62
     0
100
AcDbPoint
 10
192.4585075728884
 20
269.619525936888
 30
0.0
  0
ENDBLK
  5
9CA
330
9BD
100
AcDbEntity
  8
0
100
AcDbBlockEnd
  0
BLOCK
  5
9D6
330
9CC
100
AcDbEntity
  8
0
100
AcDbBlockBegin
  2
*D17
 70
     1
 10
0.0
 20
0.0
 30
0.0
  3
*D17
  1

  0
LINE
  5
F00
330
9CC
100
AcDbEntity
  8
SUNPOU
100
AcDbLine
 10
184.170556384275
 20
269.619525936888
 30
0.0
 11
194.4585075728884
 21
269.619525936888
 31
0.0
  0
LINE
  5
F01
330
9CC
100
AcDbEntity
  8
SUNPOU
100
AcDbLine
 10
184.170556384275
 20
298.619525936888
 30
0.0
 11
194.4585075728884
 21
298.619525936888
 31
0.0
  0
LINE
  5
F02
330
9CC
100
AcDbEntity
  8
SUNPOU
100
AcDbLine
 10
192.4585075728884
 20
274.619525936888
 30
0.0
 11
192.4585075728884
 21
293.619525936888
 31
0.0
  0
INSERT
  5
F03
330
9CC
100
AcDbEntity
  8
SUNPOU
100
AcDbBlockReference
  2
_OPEN30
 10
192.4585075728884
 20
269.619525936888
 30
0.0
 41
5.0
 42
5.0
 43
5.0
 50
270.0
  0
INSERT
  5
F04
330
9CC
100
AcDbEntity
  8
SUNPOU
100
AcDbBlockReference
  2
_OPEN30
 10
192.4585075728884
 20
298.619525936888
 30
0.0
 41
5.0
 42
5.0
 43
5.0
 50
90.0
  0
MTEXT
  5
F05
330
9CC
100
AcDbEntity
  8
SUNPOU
100
AcDbMText
 10
187.9585075728885
 20
284.119525936888
 30
0.0
 40
5.0
 41
0.0
 71
     5
 72
     1
  1
\A1;29
  7
SUNPOU
 11
0.0000000000000001
 21
1.0
 31
0.0
1001
ACAD
1000
MTEXTBEGIN
1070
    73
1070
     1
1070
    44
1040
1.0
1070
    74
1070
     0
1000
MTEXTEND
1000
MTEXTBEGIN
1070
    73
1070
     1
1070
    44
1040
1.0
1070
    74
1070
     0
1000
MTEXTEND
  0
POINT
  5
F06
330
9CC
100
AcDbEntity
  8
DEFPOINTS
 62
     0
100
AcDbPoint
 10
181.170556384275
 20
269.619525936888
 30
0.0
  0
POINT
  5
F07
330
9CC
100
AcDbEntity
  8
DEFPOINTS
 62
     0
100
AcDbPoint
 10
181.170556384275
 20
298.619525936888
 30
0.0
  0
POINT
  5
F08
330
9CC
100
AcDbEntity
  8
DEFPOINTS
 62
     0
100
AcDbPoint
 10
192.4585075728884
 20
298.619525936888
 30
0.0
  0
ENDBLK
  5
9D7
330
9CC
100
AcDbEntity
  8
0
100
AcDbBlockEnd
  0
BLOCK
  5
9E5
330
9D9
100
AcDbEntity
  8
0
100
AcDbBlockBegin
  2
*D18
 70
     1
 10
0.0
 20
0.0
 30
0.0
  3
*D18
  1

  0
LINE
  5
EF5
330
9D9
100
AcDbEntity
  8
SUNPOU
100
AcDbLine
 10
184.170556384275
 20
298.619525936888
 30
0.0
 11
194.4585075728884
 21
298.619525936888
 31
0.0
  0
LINE
  5
EF6
330
9D9
100
AcDbEntity
  8
SUNPOU
100
AcDbLine
 10
189.4585075728883
 20
300.1195259368878
 30
0.0
 11
190.4585075728885
 21
300.1195259368878
 31
0.0
  0
LINE
  5
EF7
330
9D9
100
AcDbEntity
  8
SUNPOU
100
AcDbLine
 10
192.4585075728884
 20
293.619525936888
 30
0.0
 11
192.4585075728884
 21
288.6195259368879
 31
0.0
  0
LINE
  5
EF8
330
9D9
100
AcDbEntity
  8
SUNPOU
100
AcDbLine
 10
192.4585075728884
 20
305.1195259368879
 30
0.0
 11
192.4585075728884
 21
310.1195259368878
 31
0.0
  0
MTEXT
  5
EF9
330
9D9
100
AcDbEntity
  8
SUNPOU
100
AcDbMText
 10
187.9585075728885
 20
310.17110548002
 30
0.0
 40
5.0
 41
0.0
 71
     5
 72
     1
  1
\A1;1.5
  7
SUNPOU
 11
0.0000000000000001
 21
1.0
 31
0.0
1001
ACAD
1000
MTEXTBEGIN
1070
    73
1070
     1
1070
    44
1040
1.0
1070
    74
1070
     0
1000
MTEXTEND
1000
MTEXTBEGIN
1070
    73
1070
     1
1070
    44
1040
1.0
1070
    74
1070
     0
1000
MTEXTEND
  0
LINE
  5
EFA
330
9D9
100
AcDbEntity
  8
SUNPOU
100
AcDbLine
 10
192.4585075728884
 20
298.619525936888
 30
0.0
 11
192.4585075728884
 21
300.1195259368878
 31
0.0
  0
INSERT
  5
EFB
330
9D9
100
AcDbEntity
  8
SUNPOU
100
AcDbBlockReference
  2
_OPEN30
 10
192.4585075728884
 20
298.619525936888
 30
0.0
 41
5.0
 42
5.0
 43
5.0
 50
90.0
  0
INSERT
  5
EFC
330
9D9
100
AcDbEntity
  8
SUNPOU
100
AcDbBlockReference
  2
_OPEN30
 10
192.4585075728884
 20
300.1195259368878
 30
0.0
 41
5.0
 42
5.0
 43
5.0
 50
270.0
  0
POINT
  5
EFD
330
9D9
100
AcDbEntity
  8
DEFPOINTS
 62
     0
100
AcDbPoint
 10
181.170556384275
 20
298.619525936888
 30
0.0
  0
POINT
  5
EFE
330
9D9
100
AcDbEntity
  8
DEFPOINTS
 62
     0
100
AcDbPoint
 10
192.4585075728884
 20
300.1195259368878
 30
0.0
  0
POINT
  5
EFF
330
9D9
100
AcDbEntity
  8
DEFPOINTS
 62
     0
100
AcDbPoint
 10
192.4585075728884
 20
300.1195259368878
 30
0.0
  0
ENDBLK
  5
9E6
330
9D9
100
AcDbEntity
  8
0
100
AcDbBlockEnd
  0
BLOCK
  5
9F2
330
9E8
100
AcDbEntity
  8
0
100
AcDbBlockBegin
  2
*D19
 70
     1
 10
0.0
 20
0.0
 30
0.0
  3
*D19
  1

  0
LINE
  5
EEC
330
9E8
100
AcDbEntity
  8
SUNPOU
100
AcDbLine
 10
200.2135554427621
 20
268.1195259368879
 30
0.0
 11
201.213555442762
 21
268.1195259368879
 31
0.0
  0
LINE
  5
EED
330
9E8
100
AcDbEntity
  8
SUNPOU
100
AcDbLine
 10
200.2135554427621
 20
300.1195259368878
 30
0.0
 11
201.213555442762
 21
300.1195259368878
 31
0.0
  0
LINE
  5
EEE
330
9E8
100
AcDbEntity
  8
SUNPOU
100
AcDbLine
 10
203.213555442762
 20
273.1195259368878
 30
0.0
 11
203.213555442762
 21
295.1195259368878
 31
0.0
  0
INSERT
  5
EEF
330
9E8
100
AcDbEntity
  8
SUNPOU
100
AcDbBlockReference
  2
_OPEN30
 10
203.213555442762
 20
268.1195259368879
 30
0.0
 41
5.0
 42
5.0
 43
5.0
 50
270.0
  0
INSERT
  5
EF0
330
9E8
100
AcDbEntity
  8
SUNPOU
100
AcDbBlockReference
  2
_OPEN30
 10
203.213555442762
 20
300.1195259368878
 30
0.0
 41
5.0
 42
5.0
 43
5.0
 50
90.0
  0
MTEXT
  5
EF1
330
9E8
100
AcDbEntity
  8
SUNPOU
100
AcDbMText
 10
198.7135554427619
 20
284.119525936888
 30
0.0
 40
5.0
 41
0.0
 71
     5
 72
     1
  1
\A1;32
  7
SUNPOU
 11
0.0000000000000001
 21
1.0
 31
0.0
1001
ACAD
1000
MTEXTBEGIN
1070
    73
1070
     1
1070
    44
1040
1.0
1070
    74
1070
     0
1000
MTEXTEND
1000
MTEXTBEGIN
1070
    73
1070
     1
1070
    44
1040
1.0
1070
    74
1070
     0
1000
MTEXTEND
  0
POINT
  5
EF2
330
9E8
100
AcDbEntity
  8
DEFPOINTS
 62
     0
100
AcDbPoint
 10
203.213555442762
 20
268.1195259368879
 30
0.0
  0
POINT
  5
EF3
330
9E8
100
AcDbEntity
  8
DEFPOINTS
 62
     0
100
AcDbPoint
 10
203.213555442762
 20
300.1195259368878
 30
0.0
  0
POINT
  5
EF4
330
9E8
100
AcDbEntity
  8
DEFPOINTS
 62
     0
100
AcDbPoint
 10
203.213555442762
 20
300.1195259368878
 30
0.0
  0
ENDBLK
  5
9F3
330
9E8
100
AcDbEntity
  8
0
100
AcDbBlockEnd
  0
BLOCK
  5
A10
330
A04
100
AcDbEntity
  8
0
100
AcDbBlockBegin
  2
*D20
 70
     1
 10
0.0
 20
0.0
 30
0.0
  3
*D20
  1

  0
LINE
  5
1549
330
A04
100
AcDbEntity
  8
SUNPOU
100
AcDbLine
 10
235.8294436157248
 20
269.6195259368879
 30
0.0
 11
227.986759714575
 21
269.6195259368879
 31
0.0
  0
LINE
  5
154A
330
A04
100
AcDbEntity
  8
SUNPOU
100
AcDbLine
 10
235.8294436157248
 20
277.1195259368878
 30
0.0
 11
227.986759714575
 21
277.1195259368878
 31
0.0
  0
LINE
  5
154B
330
A04
100
AcDbEntity
  8
SUNPOU
100
AcDbLine
 10
229.986759714575
 20
264.6195259368878
 30
0.0
 11
229.986759714575
 21
259.6195259368879
 31
0.0
  0
LINE
  5
154C
330
A04
100
AcDbEntity
  8
SUNPOU
100
AcDbLine
 10
229.986759714575
 20
282.1195259368879
 30
0.0
 11
229.986759714575
 21
287.1195259368878
 31
0.0
  0
MTEXT
  5
154D
330
A04
100
AcDbEntity
  8
SUNPOU
100
AcDbMText
 10
225.486759714575
 20
259.1788484518764
 30
0.0
 40
5.0
 41
0.0
 71
     5
 72
     1
  1
\A1;7.5
  7
SUNPOU
 11
0.0000000000000001
 21
1.0
 31
0.0
1001
ACAD
1000
MTEXTBEGIN
1070
    73
1070
     1
1070
    44
1040
1.0
1070
    74
1070
     0
1000
MTEXTEND
1000
MTEXTBEGIN
1070
    73
1070
     1
1070
    44
1040
1.0
1070
    74
1070
     0
1000
MTEXTEND
  0
LINE
  5
154E
330
A04
100
AcDbEntity
  8
SUNPOU
100
AcDbLine
 10
229.986759714575
 20
269.6195259368879
 30
0.0
 11
229.986759714575
 21
277.1195259368878
 31
0.0
  0
INSERT
  5
154F
330
A04
100
AcDbEntity
  8
SUNPOU
100
AcDbBlockReference
  2
_OPEN30
 10
229.986759714575
 20
269.6195259368879
 30
0.0
 41
5.0
 42
5.0
 43
5.0
 50
90.0
  0
INSERT
  5
1550
330
A04
100
AcDbEntity
  8
SUNPOU
100
AcDbBlockReference
  2
_OPEN30
 10
229.986759714575
 20
277.1195259368878
 30
0.0
 41
5.0
 42
5.0
 43
5.0
 50
270.0
  0
POINT
  5
1551
330
A04
100
AcDbEntity
  8
DEFPOINTS
 62
     0
100
AcDbPoint
 10
238.8294436157249
 20
269.6195259368879
 30
0.0
  0
POINT
  5
1552
330
A04
100
AcDbEntity
  8
DEFPOINTS
 62
     0
100
AcDbPoint
 10
238.8294436157249
 20
277.1195259368878
 30
0.0
  0
POINT
  5
1553
330
A04
100
AcDbEntity
  8
DEFPOINTS
 62
     0
100
AcDbPoint
 10
229.986759714575
 20
277.1195259368878
 30
0.0
  0
ENDBLK
  5
A11
330
A04
100
AcDbEntity
  8
0
100
AcDbBlockEnd
  0
BLOCK
  5
A61
330
A55
100
AcDbEntity
  8
0
100
AcDbBlockBegin
  2
*D21
 70
     1
 10
0.0
 20
0.0
 30
0.0
  3
*D21
  1

  0
LINE
  5
1554
330
A55
100
AcDbEntity
  8
SUNPOU
100
AcDbLine
 10
235.8294436157248
 20
277.1195259368878
 30
0.0
 11
227.986759714575
 21
277.1195259368878
 31
0.0
  0
LINE
  5
1555
330
A55
100
AcDbEntity
  8
SUNPOU
100
AcDbLine
 10
226.986759714575
 20
291.1195259368879
 30
0.0
 11
227.986759714575
 21
291.1195259368879
 31
0.0
  0
LINE
  5
1556
330
A55
100
AcDbEntity
  8
SUNPOU
100
AcDbLine
 10
229.986759714575
 20
277.1195259368878
 30
0.0
 11
229.986759714575
 21
291.1195259368879
 31
0.0
  0
INSERT
  5
1557
330
A55
100
AcDbEntity
  8
SUNPOU
100
AcDbBlockReference
  2
_DOTSMALL
 10
229.986759714575
 20
277.1195259368878
 30
0.0
 41
5.0
 42
5.0
 43
5.0
 50
270.0
  0
INSERT
  5
1558
330
A55
100
AcDbEntity
  8
SUNPOU
100
AcDbBlockReference
  2
_DOTSMALL
 10
229.986759714575
 20
291.1195259368879
 30
0.0
 41
5.0
 42
5.0
 43
5.0
 50
90.0
  0
MTEXT
  5
1559
330
A55
100
AcDbEntity
  8
SUNPOU
100
AcDbMText
 10
225.486759714575
 20
284.119525936888
 30
0.0
 40
5.0
 41
0.0
 71
     5
 72
     1
  1
\A1;14
  7
SUNPOU
 11
0.0000000000000001
 21
1.0
 31
0.0
1001
ACAD
1000
MTEXTBEGIN
1070
    73
1070
     1
1070
    44
1040
1.0
1070
    74
1070
     0
1000
MTEXTEND
1000
MTEXTBEGIN
1070
    73
1070
     1
1070
    44
1040
1.0
1070
    74
1070
     0
1000
MTEXTEND
  0
POINT
  5
155A
330
A55
100
AcDbEntity
  8
DEFPOINTS
 62
     0
100
AcDbPoint
 10
238.8294436157249
 20
277.1195259368878
 30
0.0
  0
POINT
  5
155B
330
A55
100
AcDbEntity
  8
DEFPOINTS
 62
     0
100
AcDbPoint
 10
229.986759714575
 20
291.1195259368879
 30
0.0
  0
POINT
  5
155C
330
A55
100
AcDbEntity
  8
DEFPOINTS
 62
     0
100
AcDbPoint
 10
229.986759714575
 20
291.1195259368879
 30
0.0
  0
ENDBLK
  5
A62
330
A55
100
AcDbEntity
  8
0
100
AcDbBlockEnd
  0
BLOCK
  5
A70
330
A64
100
AcDbEntity
  8
0
100
AcDbBlockBegin
  2
*D22
 70
     1
 10
0.0
 20
0.0
 30
0.0
  3
*D22
  1

  0
LINE
  5
ECD
330
A64
100
AcDbEntity
  8
SUNPOU
100
AcDbLine
 10
226.986759714575
 20
291.1195259368879
 30
0.0
 11
227.986759714575
 21
291.1195259368879
 31
0.0
  0
LINE
  5
ECE
330
A64
100
AcDbEntity
  8
SUNPOU
100
AcDbLine
 10
235.8294436157248
 20
298.6195259368879
 30
0.0
 11
227.986759714575
 21
298.6195259368879
 31
0.0
  0
LINE
  5
ECF
330
A64
100
AcDbEntity
  8
SUNPOU
100
AcDbLine
 10
229.986759714575
 20
286.1195259368879
 30
0.0
 11
229.986759714575
 21
281.1195259368878
 31
0.0
  0
LINE
  5
ED0
330
A64
100
AcDbEntity
  8
SUNPOU
100
AcDbLine
 10
229.986759714575
 20
303.6195259368879
 30
0.0
 11
229.986759714575
 21
308.6195259368878
 31
0.0
  0
MTEXT
  5
ED1
330
A64
100
AcDbEntity
  8
SUNPOU
100
AcDbMText
 10
225.486759714575
 20
308.0692700344416
 30
0.0
 40
5.0
 41
0.0
 71
     5
 72
     1
  1
\A1;7.5
  7
SUNPOU
 11
0.0000000000000001
 21
1.0
 31
0.0
1001
ACAD
1000
MTEXTBEGIN
1070
    73
1070
     1
1070
    44
1040
1.0
1070
    74
1070
     0
1000
MTEXTEND
1000
MTEXTBEGIN
1070
    73
1070
     1
1070
    44
1040
1.0
1070
    74
1070
     0
1000
MTEXTEND
  0
LINE
  5
ED2
330
A64
100
AcDbEntity
  8
SUNPOU
100
AcDbLine
 10
229.986759714575
 20
291.1195259368879
 30
0.0
 11
229.986759714575
 21
298.6195259368879
 31
0.0
  0
INSERT
  5
ED3
330
A64
100
AcDbEntity
  8
SUNPOU
100
AcDbBlockReference
  2
_OPEN30
 10
229.986759714575
 20
291.1195259368879
 30
0.0
 41
5.0
 42
5.0
 43
5.0
 50
90.0
  0
INSERT
  5
ED4
330
A64
100
AcDbEntity
  8
SUNPOU
100
AcDbBlockReference
  2
_OPEN30
 10
229.986759714575
 20
298.6195259368879
 30
0.0
 41
5.0
 42
5.0
 43
5.0
 50
270.0
  0
POINT
  5
ED5
330
A64
100
AcDbEntity
  8
DEFPOINTS
 62
     0
100
AcDbPoint
 10
229.986759714575
 20
291.1195259368879
 30
0.0
  0
POINT
  5
ED6
330
A64
100
AcDbEntity
  8
DEFPOINTS
 62
     0
100
AcDbPoint
 10
238.8294436157249
 20
298.6195259368879
 30
0.0
  0
POINT
  5
ED7
330
A64
100
AcDbEntity
  8
DEFPOINTS
 62
     0
100
AcDbPoint
 10
229.986759714575
 20
298.6195259368879
 30
0.0
  0
ENDBLK
  5
A71
330
A64
100
AcDbEntity
  8
0
100
AcDbBlockEnd
  0
BLOCK
  5
A8A
330
A88
100
AcDbEntity
  8
0
100
AcDbBlockBegin
  2
_DOTSMALL
 70
     0
 10
0.0
 20
0.0
 30
0.0
  3
_DOTSMALL
  1

  0
POLYLINE
  5
A89
330
A88
100
AcDbEntity
  8
0
  6
BYBLOCK
 62
     0
100
AcDb2dPolyline
 66
     1
 10
0.0
 20
0.0
 30
0.0
 70
     1
 40
0.5
 41
0.5
  0
VERTEX
  5
1659
330
A89
100
AcDbEntity
  8
0
  6
BYBLOCK
 62
     0
100
AcDbVertex
100
AcDb2dVertex
 10
-0.0625
 20
0.0
 30
0.0
 42
1.0
  0
VERTEX
  5
165A
330
A89
100
AcDbEntity
  8
0
  6
BYBLOCK
 62
     0
100
AcDbVertex
100
AcDb2dVertex
 10
0.0625
 20
0.0
 30
0.0
 42
1.0
  0
SEQEND
  5
165B
330
A89
100
AcDbEntity
  8
0
  6
BYBLOCK
 62
     0
  0
ENDBLK
  5
A8B
330
A88
100
AcDbEntity
  8
0
100
AcDbBlockEnd
  0
BLOCK
  5
AD7
330
ACB
100
AcDbEntity
  8
0
100
AcDbBlockBegin
  2
*D24
 70
     1
 10
0.0
 20
0.0
 30
0.0
  3
*D24
  1

  0
LINE
  5
EC2
330
ACB
100
AcDbEntity
  8
SUNPOU
100
AcDbLine
 10
100.2999999999999
 20
80.1700195836266
 30
0.0
 11
87.66163752417867
 21
80.17001958362662
 31
0.0
  0
LINE
  5
EC3
330
ACB
100
AcDbEntity
  8
SUNPOU
100
AcDbLine
 10
98.29999999999992
 20
87.17001958362661
 30
0.0
 11
87.66163752417867
 21
87.17001958362663
 31
0.0
  0
LINE
  5
EC4
330
ACB
100
AcDbEntity
  8
SUNPOU
100
AcDbLine
 10
89.6616375241787
 20
75.17001958362662
 30
0.0
 11
89.6616375241787
 21
70.17001958362661
 31
0.0
  0
LINE
  5
EC5
330
ACB
100
AcDbEntity
  8
SUNPOU
100
AcDbLine
 10
89.6616375241787
 20
92.17001958362663
 30
0.0
 11
89.6616375241787
 21
97.17001958362663
 31
0.0
  0
LINE
  5
EC6
330
ACB
100
AcDbEntity
  8
SUNPOU
100
AcDbLine
 10
89.6616375241787
 20
80.17001958362662
 30
0.0
 11
89.6616375241787
 21
87.17001958362663
 31
0.0
  0
INSERT
  5
EC7
330
ACB
100
AcDbEntity
  8
SUNPOU
100
AcDbBlockReference
  2
_OPEN30
 10
89.6616375241787
 20
80.17001958362662
 30
0.0
 41
5.0
 42
5.0
 43
5.0
 50
90.0
  0
INSERT
  5
EC8
330
ACB
100
AcDbEntity
  8
SUNPOU
100
AcDbBlockReference
  2
_OPEN30
 10
89.6616375241787
 20
87.17001958362663
 30
0.0
 41
5.0
 42
5.0
 43
5.0
 50
270.0
  0
MTEXT
  5
EC9
330
ACB
100
AcDbEntity
  8
SUNPOU
100
AcDbMText
 10
85.16163752417865
 20
83.67001958362664
 30
0.0
 40
5.0
 41
0.0
 71
     5
 72
     1
  1
\A1;70
  7
SUNPOU
 11
0.0000000000000001
 21
1.0
 31
0.0
1001
ACAD
1000
MTEXTBEGIN
1070
    73
1070
     1
1070
    44
1040
1.0
1070
    74
1070
     0
1000
MTEXTEND
1000
MTEXTBEGIN
1070
    73
1070
     1
1070
    44
1040
1.0
1070
    74
1070
     0
1000
MTEXTEND
  0
POINT
  5
ECA
330
ACB
100
AcDbEntity
  8
DEFPOINTS
 62
     0
100
AcDbPoint
 10
103.2999999999999
 20
80.1700195836266
 30
0.0
  0
POINT
  5
ECB
330
ACB
100
AcDbEntity
  8
DEFPOINTS
 62
     0
100
AcDbPoint
 10
101.2999999999999
 20
87.17001958362661
 30
0.0
  0
POINT
  5
ECC
330
ACB
100
AcDbEntity
  8
DEFPOINTS
 62
     0
100
AcDbPoint
 10
89.6616375241787
 20
87.17001958362663
 30
0.0
  0
ENDBLK
  5
AD8
330
ACB
100
AcDbEntity
  8
0
100
AcDbBlockEnd
  0
BLOCK
  5
AF2
330
AE6
100
AcDbEntity
  8
0
100
AcDbBlockBegin
  2
*D25
 70
     1
 10
0.0
 20
0.0
 30
0.0
  3
*D25
  1

  0
LINE
  5
EB7
330
AE6
100
AcDbEntity
  8
SUNPOU
100
AcDbLine
 10
145.5335649675393
 20
80.1700195836266
 30
0.0
 11
144.5335649675394
 21
80.1700195836266
 31
0.0
  0
LINE
  5
EB8
330
AE6
100
AcDbEntity
  8
SUNPOU
100
AcDbLine
 10
139.5335649675394
 20
81.60001958362661
 30
0.0
 11
140.5335649675394
 21
81.60001958362661
 31
0.0
  0
LINE
  5
EB9
330
AE6
100
AcDbEntity
  8
SUNPOU
100
AcDbLine
 10
142.5335649675394
 20
75.17001958362661
 30
0.0
 11
142.5335649675394
 21
70.17001958362661
 31
0.0
  0
LINE
  5
EBA
330
AE6
100
AcDbEntity
  8
SUNPOU
100
AcDbLine
 10
142.5335649675394
 20
86.60001958362661
 30
0.0
 11
142.5335649675394
 21
91.60001958362659
 31
0.0
  0
MTEXT
  5
EBB
330
AE6
100
AcDbEntity
  8
SUNPOU
100
AcDbMText
 10
138.0335649675392
 20
93.73552243962491
 30
0.0
 40
5.0
 41
0.0
 71
     5
 72
     1
  1
\A1;14.3
  7
SUNPOU
 11
0.0000000000000001
 21
1.0
 31
0.0
1001
ACAD
1000
MTEXTBEGIN
1070
    73
1070
     1
1070
    44
1040
1.0
1070
    74
1070
     0
1000
MTEXTEND
1000
MTEXTBEGIN
1070
    73
1070
     1
1070
    44
1040
1.0
1070
    74
1070
     0
1000
MTEXTEND
  0
LINE
  5
EBC
330
AE6
100
AcDbEntity
  8
SUNPOU
100
AcDbLine
 10
142.5335649675394
 20
80.1700195836266
 30
0.0
 11
142.5335649675394
 21
81.60001958362661
 31
0.0
  0
INSERT
  5
EBD
330
AE6
100
AcDbEntity
  8
SUNPOU
100
AcDbBlockReference
  2
_OPEN30
 10
142.5335649675394
 20
80.1700195836266
 30
0.0
 41
5.0
 42
5.0
 43
5.0
 50
90.0
  0
INSERT
  5
EBE
330
AE6
100
AcDbEntity
  8
SUNPOU
100
AcDbBlockReference
  2
_OPEN30
 10
142.5335649675394
 20
81.60001958362661
 30
0.0
 41
5.0
 42
5.0
 43
5.0
 50
270.0
  0
POINT
  5
EBF
330
AE6
100
AcDbEntity
  8
DEFPOINTS
 62
     0
100
AcDbPoint
 10
142.5335649675393
 20
80.1700195836266
 30
0.0
  0
POINT
  5
EC0
330
AE6
100
AcDbEntity
  8
DEFPOINTS
 62
     0
100
AcDbPoint
 10
142.5335649675394
 20
81.60001958362661
 30
0.0
  0
POINT
  5
EC1
330
AE6
100
AcDbEntity
  8
DEFPOINTS
 62
     0
100
AcDbPoint
 10
142.5335649675394
 20
81.60001958362661
 30
0.0
  0
ENDBLK
  5
AF3
330
AE6
100
AcDbEntity
  8
0
100
AcDbBlockEnd
  0
BLOCK
  5
B0C
330
B00
100
AcDbEntity
  8
0
100
AcDbBlockBegin
  2
*D26
 70
     1
 10
0.0
 20
0.0
 30
0.0
  3
*D26
  1

  0
LINE
  5
EAC
330
B00
100
AcDbEntity
  8
SUNPOU
100
AcDbLine
 10
319.7
 20
80.17001958362667
 30
0.0
 11
333.0449617896956
 21
80.17001958362667
 31
0.0
  0
LINE
  5
EAD
330
B00
100
AcDbEntity
  8
SUNPOU
100
AcDbLine
 10
324.2999999999998
 20
87.17001958362661
 30
0.0
 11
333.0449617896956
 21
87.17001958362661
 31
0.0
  0
LINE
  5
EAE
330
B00
100
AcDbEntity
  8
SUNPOU
100
AcDbLine
 10
331.0449617896956
 20
75.17001958362667
 30
0.0
 11
331.0449617896956
 21
70.17001958362667
 31
0.0
  0
LINE
  5
EAF
330
B00
100
AcDbEntity
  8
SUNPOU
100
AcDbLine
 10
331.0449617896956
 20
92.1700195836266
 30
0.0
 11
331.0449617896956
 21
97.1700195836266
 31
0.0
  0
MTEXT
  5
EB0
330
B00
100
AcDbEntity
  8
SUNPOU
100
AcDbMText
 10
326.5449617896956
 20
96.03814763459856
 30
0.0
 40
5.0
 41
0.0
 71
     5
 72
     1
  1
\A1;70
  7
SUNPOU
 11
0.0000000000000001
 21
1.0
 31
0.0
1001
ACAD
1000
MTEXTBEGIN
1070
    73
1070
     1
1070
    44
1040
1.0
1070
    74
1070
     0
1000
MTEXTEND
1000
MTEXTBEGIN
1070
    73
1070
     1
1070
    44
1040
1.0
1070
    74
1070
     0
1000
MTEXTEND
  0
LINE
  5
EB1
330
B00
100
AcDbEntity
  8
SUNPOU
100
AcDbLine
 10
331.0449617896956
 20
80.17001958362667
 30
0.0
 11
331.0449617896956
 21
87.17001958362661
 31
0.0
  0
INSERT
  5
EB2
330
B00
100
AcDbEntity
  8
SUNPOU
100
AcDbBlockReference
  2
_OPEN30
 10
331.0449617896956
 20
80.17001958362667
 30
0.0
 41
5.0
 42
5.0
 43
5.0
 50
90.0
  0
INSERT
  5
EB3
330
B00
100
AcDbEntity
  8
SUNPOU
100
AcDbBlockReference
  2
_OPEN30
 10
331.0449617896956
 20
87.17001958362661
 30
0.0
 41
5.0
 42
5.0
 43
5.0
 50
270.0
  0
POINT
  5
EB4
330
B00
100
AcDbEntity
  8
DEFPOINTS
 62
     0
100
AcDbPoint
 10
316.6999999999998
 20
80.17001958362667
 30
0.0
  0
POINT
  5
EB5
330
B00
100
AcDbEntity
  8
DEFPOINTS
 62
     0
100
AcDbPoint
 10
321.2999999999999
 20
87.17001958362661
 30
0.0
  0
POINT
  5
EB6
330
B00
100
AcDbEntity
  8
DEFPOINTS
 62
     0
100
AcDbPoint
 10
331.0449617896956
 20
87.17001958362661
 30
0.0
  0
ENDBLK
  5
B0D
330
B00
100
AcDbEntity
  8
0
100
AcDbBlockEnd
  0
BLOCK
  5
B19
330
B0F
100
AcDbEntity
  8
0
100
AcDbBlockBegin
  2
*D27
 70
     1
 10
0.0
 20
0.0
 30
0.0
  3
*D27
  1

  0
LINE
  5
EA3
330
B0F
100
AcDbEntity
  8
SUNPOU
100
AcDbLine
 10
319.7
 20
80.1700195836266
 30
0.0
 11
351.0241669652963
 21
80.1700195836266
 31
0.0
  0
LINE
  5
EA4
330
B0F
100
AcDbEntity
  8
SUNPOU
100
AcDbLine
 10
319.7
 20
171.5700195836263
 30
0.0
 11
351.0241669652963
 21
171.5700195836263
 31
0.0
  0
LINE
  5
EA5
330
B0F
100
AcDbEntity
  8
SUNPOU
100
AcDbLine
 10
349.0241669652963
 20
85.1700195836266
 30
0.0
 11
349.0241669652963
 21
166.5700195836265
 31
0.0
  0
INSERT
  5
EA6
330
B0F
100
AcDbEntity
  8
SUNPOU
100
AcDbBlockReference
  2
_OPEN30
 10
349.0241669652963
 20
80.1700195836266
 30
0.0
 41
5.0
 42
5.0
 43
5.0
 50
270.0
  0
INSERT
  5
EA7
330
B0F
100
AcDbEntity
  8
SUNPOU
100
AcDbBlockReference
  2
_OPEN30
 10
349.0241669652963
 20
171.5700195836263
 30
0.0
 41
5.0
 42
5.0
 43
5.0
 50
90.0
  0
MTEXT
  5
EA8
330
B0F
100
AcDbEntity
  8
SUNPOU
100
AcDbMText
 10
344.5241669652963
 20
125.8700195836266
 30
0.0
 40
5.0
 41
0.0
 71
     5
 72
     1
  1
\A1;DW
  7
SUNPOU
 11
0.0000000000000001
 21
1.0
 31
0.0
1001
ACAD
1000
MTEXTBEGIN
1070
    73
1070
     1
1070
    44
1040
1.0
1070
    74
1070
     0
1000
MTEXTEND
1000
MTEXTBEGIN
1070
    73
1070
     1
1070
    44
1040
1.0
1070
    74
1070
     0
1000
MTEXTEND
  0
POINT
  5
EA9
330
B0F
100
AcDbEntity
  8
DEFPOINTS
 62
     0
100
AcDbPoint
 10
316.6999999999998
 20
80.1700195836266
 30
0.0
  0
POINT
  5
EAA
330
B0F
100
AcDbEntity
  8
DEFPOINTS
 62
     0
100
AcDbPoint
 10
316.6999999999998
 20
171.5700195836263
 30
0.0
  0
POINT
  5
EAB
330
B0F
100
AcDbEntity
  8
DEFPOINTS
 62
     0
100
AcDbPoint
 10
349.0241669652963
 20
171.5700195836263
 30
0.0
  0
ENDBLK
  5
B1A
330
B0F
100
AcDbEntity
  8
0
100
AcDbBlockEnd
  0
BLOCK
  5
B31
330
B25
100
AcDbEntity
  8
0
100
AcDbBlockBegin
  2
*D28
 70
     1
 10
0.0
 20
0.0
 30
0.0
  3
*D28
  1

  0
LINE
  5
E98
330
B25
100
AcDbEntity
  8
SUNPOU
100
AcDbLine
 10
323.7
 20
163.0700195836265
 30
0.0
 11
333.0449617896956
 21
163.0700195836265
 31
0.0
  0
LINE
  5
E99
330
B25
100
AcDbEntity
  8
SUNPOU
100
AcDbLine
 10
319.7
 20
171.5700195836263
 30
0.0
 11
333.0449617896956
 21
171.5700195836263
 31
0.0
  0
LINE
  5
E9A
330
B25
100
AcDbEntity
  8
SUNPOU
100
AcDbLine
 10
331.0449617896956
 20
158.0700195836263
 30
0.0
 11
331.0449617896956
 21
153.0700195836265
 31
0.0
  0
LINE
  5
E9B
330
B25
100
AcDbEntity
  8
SUNPOU
100
AcDbLine
 10
331.0449617896956
 20
176.5700195836265
 30
0.0
 11
331.0449617896956
 21
181.5700195836265
 31
0.0
  0
MTEXT
  5
E9C
330
B25
100
AcDbEntity
  8
SUNPOU
100
AcDbMText
 10
326.5449617896956
 20
153.7847601538435
 30
0.0
 40
5.0
 41
0.0
 71
     5
 72
     1
  1
\A1;85
  7
SUNPOU
 11
0.0000000000000001
 21
1.0
 31
0.0
1001
ACAD
1000
MTEXTBEGIN
1070
    73
1070
     1
1070
    44
1040
1.0
1070
    74
1070
     0
1000
MTEXTEND
1000
MTEXTBEGIN
1070
    73
1070
     1
1070
    44
1040
1.0
1070
    74
1070
     0
1000
MTEXTEND
  0
LINE
  5
E9D
330
B25
100
AcDbEntity
  8
SUNPOU
100
AcDbLine
 10
331.0449617896956
 20
163.0700195836265
 30
0.0
 11
331.0449617896956
 21
171.5700195836263
 31
0.0
  0
INSERT
  5
E9E
330
B25
100
AcDbEntity
  8
SUNPOU
100
AcDbBlockReference
  2
_OPEN30
 10
331.0449617896956
 20
163.0700195836265
 30
0.0
 41
5.0
 42
5.0
 43
5.0
 50
90.0
  0
INSERT
  5
E9F
330
B25
100
AcDbEntity
  8
SUNPOU
100
AcDbBlockReference
  2
_OPEN30
 10
331.0449617896956
 20
171.5700195836263
 30
0.0
 41
5.0
 42
5.0
 43
5.0
 50
270.0
  0
POINT
  5
EA0
330
B25
100
AcDbEntity
  8
DEFPOINTS
 62
     0
100
AcDbPoint
 10
320.6999999999998
 20
163.0700195836265
 30
0.0
  0
POINT
  5
EA1
330
B25
100
AcDbEntity
  8
DEFPOINTS
 62
     0
100
AcDbPoint
 10
316.6999999999998
 20
171.5700195836263
 30
0.0
  0
POINT
  5
EA2
330
B25
100
AcDbEntity
  8
DEFPOINTS
 62
     0
100
AcDbPoint
 10
331.0449617896956
 20
171.5700195836263
 30
0.0
  0
ENDBLK
  5
B32
330
B25
100
AcDbEntity
  8
0
100
AcDbBlockEnd
  0
BLOCK
  5
B56
330
B4A
100
AcDbEntity
  8
0
100
AcDbBlockBegin
  2
*D29
 70
     1
 10
0.0
 20
0.0
 30
0.0
  3
*D29
  1

  0
LINE
  5
E8D
330
B4A
100
AcDbEntity
  8
SUNPOU
100
AcDbLine
 10
103.2999999999999
 20
174.5700195836265
 30
0.0
 11
103.2999999999999
 21
189.8589054779199
 31
0.0
  0
LINE
  5
E8E
330
B4A
100
AcDbEntity
  8
SUNPOU
100
AcDbLine
 10
111.7999999999997
 20
173.1400195836265
 30
0.0
 11
111.7999999999997
 21
189.8589054779199
 31
0.0
  0
LINE
  5
E8F
330
B4A
100
AcDbEntity
  8
SUNPOU
100
AcDbLine
 10
98.29999999999992
 20
187.8589054779199
 30
0.0
 11
93.29999999999992
 21
187.8589054779199
 31
0.0
  0
LINE
  5
E90
330
B4A
100
AcDbEntity
  8
SUNPOU
100
AcDbLine
 10
116.7999999999999
 20
187.8589054779199
 30
0.0
 11
121.7999999999999
 21
187.8589054779199
 31
0.0
  0
MTEXT
  5
E91
330
B4A
100
AcDbEntity
  8
SUNPOU
100
AcDbMText
 10
92.86246258575269
 20
183.3589054779199
 30
0.0
 40
5.0
 41
0.0
 71
     5
 72
     1
  1
\A1;85
  7
SUNPOU
 11
-1.0
 21
0.0000000000000001
 31
0.0
1001
ACAD
1000
MTEXTBEGIN
1070
    73
1070
     1
1070
    44
1040
1.0
1070
    74
1070
     0
1000
MTEXTEND
1000
MTEXTBEGIN
1070
    73
1070
     1
1070
    44
1040
1.0
1070
    74
1070
     0
1000
MTEXTEND
  0
LINE
  5
E92
330
B4A
100
AcDbEntity
  8
SUNPOU
100
AcDbLine
 10
103.2999999999999
 20
187.8589054779199
 30
0.0
 11
111.7999999999997
 21
187.8589054779199
 31
0.0
  0
INSERT
  5
E93
330
B4A
100
AcDbEntity
  8
SUNPOU
100
AcDbBlockReference
  2
_OPEN30
 10
103.2999999999999
 20
187.8589054779199
 30
0.0
 41
5.0
 42
5.0
 43
5.0
  0
INSERT
  5
E94
330
B4A
100
AcDbEntity
  8
SUNPOU
100
AcDbBlockReference
  2
_OPEN30
 10
111.7999999999997
 20
187.8589054779199
 30
0.0
 41
5.0
 42
5.0
 43
5.0
 50
180.0
  0
POINT
  5
E95
330
B4A
100
AcDbEntity
  8
DEFPOINTS
 62
     0
100
AcDbPoint
 10
103.2999999999999
 20
171.5700195836263
 30
0.0
  0
POINT
  5
E96
330
B4A
100
AcDbEntity
  8
DEFPOINTS
 62
     0
100
AcDbPoint
 10
111.7999999999997
 20
170.1400195836265
 30
0.0
  0
POINT
  5
E97
330
B4A
100
AcDbEntity
  8
DEFPOINTS
 62
     0
100
AcDbPoint
 10
111.7999999999997
 20
187.8589054779199
 30
0.0
  0
ENDBLK
  5
B57
330
B4A
100
AcDbEntity
  8
0
100
AcDbBlockEnd
  0
BLOCK
  5
B63
330
B59
100
AcDbEntity
  8
0
100
AcDbBlockBegin
  2
*D30
 70
     1
 10
0.0
 20
0.0
 30
0.0
  3
*D30
  1

  0
LINE
  5
E84
330
B59
100
AcDbEntity
  8
SUNPOU
100
AcDbLine
 10
103.2999999999999
 20
174.5700195836265
 30
0.0
 11
103.2999999999999
 21
204.6587873377645
 31
0.0
  0
LINE
  5
E85
330
B59
100
AcDbEntity
  8
SUNPOU
100
AcDbLine
 10
316.6999999999998
 20
174.5700195836265
 30
0.0
 11
316.6999999999998
 21
204.6587873377645
 31
0.0
  0
LINE
  5
E86
330
B59
100
AcDbEntity
  8
SUNPOU
100
AcDbLine
 10
108.2999999999999
 20
202.6587873377645
 30
0.0
 11
311.6999999999998
 21
202.6587873377645
 31
0.0
  0
MTEXT
  5
E87
330
B59
100
AcDbEntity
  8
SUNPOU
100
AcDbMText
 10
209.9999999999999
 20
198.1587873377647
 30
0.0
 40
5.0
 41
0.0
 71
     5
 72
     1
  1
\A1;DH
  7
SUNPOU
 11
-1.0
 21
0.0000000000000001
 31
0.0
1001
ACAD
1000
MTEXTBEGIN
1070
    73
1070
     1
1070
    44
1040
1.0
1070
    74
1070
     0
1000
MTEXTEND
1000
MTEXTBEGIN
1070
    73
1070
     1
1070
    44
1040
1.0
1070
    74
1070
     0
1000
MTEXTEND
  0
INSERT
  5
E88
330
B59
100
AcDbEntity
  8
SUNPOU
100
AcDbBlockReference
  2
_OPEN30
 10
103.2999999999999
 20
202.6587873377645
 30
0.0
 41
5.0
 42
5.0
 43
5.0
 50
180.0
  0
INSERT
  5
E89
330
B59
100
AcDbEntity
  8
SUNPOU
100
AcDbBlockReference
  2
_OPEN30
 10
316.6999999999998
 20
202.6587873377645
 30
0.0
 41
5.0
 42
5.0
 43
5.0
  0
POINT
  5
E8A
330
B59
100
AcDbEntity
  8
DEFPOINTS
 62
     0
100
AcDbPoint
 10
103.2999999999999
 20
171.5700195836263
 30
0.0
  0
POINT
  5
E8B
330
B59
100
AcDbEntity
  8
DEFPOINTS
 62
     0
100
AcDbPoint
 10
316.6999999999998
 20
171.5700195836263
 30
0.0
  0
POINT
  5
E8C
330
B59
100
AcDbEntity
  8
DEFPOINTS
 62
     0
100
AcDbPoint
 10
316.6999999999998
 20
202.6587873377645
 30
0.0
  0
ENDBLK
  5
B64
330
B59
100
AcDbEntity
  8
0
100
AcDbBlockEnd
  0
BLOCK
  5
B72
330
B66
100
AcDbEntity
  8
0
100
AcDbBlockBegin
  2
*D31
 70
     1
 10
0.0
 20
0.0
 30
0.0
  3
*D31
  1

  0
LINE
  5
E79
330
B66
100
AcDbEntity
  8
SUNPOU
100
AcDbLine
 10
308.1999999999998
 20
173.1400195836265
 30
0.0
 11
308.1999999999998
 21
189.8589054779199
 31
0.0
  0
LINE
  5
E7A
330
B66
100
AcDbEntity
  8
SUNPOU
100
AcDbLine
 10
316.6999999999998
 20
174.5700195836265
 30
0.0
 11
316.6999999999998
 21
189.8589054779199
 31
0.0
  0
LINE
  5
E7B
330
B66
100
AcDbEntity
  8
SUNPOU
100
AcDbLine
 10
303.2
 20
187.8589054779199
 30
0.0
 11
298.1999999999998
 21
187.8589054779199
 31
0.0
  0
LINE
  5
E7C
330
B66
100
AcDbEntity
  8
SUNPOU
100
AcDbLine
 10
321.7
 20
187.8589054779199
 30
0.0
 11
326.6999999999999
 21
187.8589054779199
 31
0.0
  0
MTEXT
  5
E7D
330
B66
100
AcDbEntity
  8
SUNPOU
100
AcDbMText
 10
296.4001221740226
 20
183.3589054779199
 30
0.0
 40
5.0
 41
0.0
 71
     5
 72
     1
  1
\A1;85
  7
SUNPOU
 11
-1.0
 21
0.0000000000000001
 31
0.0
1001
ACAD
1000
MTEXTBEGIN
1070
    73
1070
     1
1070
    44
1040
1.0
1070
    74
1070
     0
1000
MTEXTEND
1000
MTEXTBEGIN
1070
    73
1070
     1
1070
    44
1040
1.0
1070
    74
1070
     0
1000
MTEXTEND
  0
LINE
  5
E7E
330
B66
100
AcDbEntity
  8
SUNPOU
100
AcDbLine
 10
308.1999999999998
 20
187.8589054779199
 30
0.0
 11
316.6999999999998
 21
187.8589054779199
 31
0.0
  0
INSERT
  5
E7F
330
B66
100
AcDbEntity
  8
SUNPOU
100
AcDbBlockReference
  2
_OPEN30
 10
308.1999999999998
 20
187.8589054779199
 30
0.0
 41
5.0
 42
5.0
 43
5.0
  0
INSERT
  5
E80
330
B66
100
AcDbEntity
  8
SUNPOU
100
AcDbBlockReference
  2
_OPEN30
 10
316.6999999999998
 20
187.8589054779199
 30
0.0
 41
5.0
 42
5.0
 43
5.0
 50
180.0
  0
POINT
  5
E81
330
B66
100
AcDbEntity
  8
DEFPOINTS
 62
     0
100
AcDbPoint
 10
308.1999999999998
 20
170.1400195836265
 30
0.0
  0
POINT
  5
E82
330
B66
100
AcDbEntity
  8
DEFPOINTS
 62
     0
100
AcDbPoint
 10
316.6999999999998
 20
171.5700195836263
 30
0.0
  0
POINT
  5
E83
330
B66
100
AcDbEntity
  8
DEFPOINTS
 62
     0
100
AcDbPoint
 10
316.6999999999998
 20
187.8589054779199
 30
0.0
  0
ENDBLK
  5
B73
330
B66
100
AcDbEntity
  8
0
100
AcDbBlockEnd
  0
BLOCK
  5
BDE
330
BD2
100
AcDbEntity
  8
0
100
AcDbBlockBegin
  2
*D32
 70
     1
 10
0.0
 20
0.0
 30
0.0
  3
*D32
  1

  0
LINE
  5
E6E
330
BD2
100
AcDbEntity
  8
SUNPOU
100
AcDbLine
 10
139.5335649675394
 20
170.1400195836265
 30
0.0
 11
140.5335649675394
 21
170.1400195836265
 31
0.0
  0
LINE
  5
E6F
330
BD2
100
AcDbEntity
  8
SUNPOU
100
AcDbLine
 10
139.5335649675394
 20
171.5700195836263
 30
0.0
 11
140.5335649675394
 21
171.5700195836263
 31
0.0
  0
LINE
  5
E70
330
BD2
100
AcDbEntity
  8
SUNPOU
100
AcDbLine
 10
142.5335649675394
 20
165.1400195836265
 30
0.0
 11
142.5335649675394
 21
160.1400195836264
 31
0.0
  0
LINE
  5
E71
330
BD2
100
AcDbEntity
  8
SUNPOU
100
AcDbLine
 10
142.5335649675394
 20
176.5700195836265
 30
0.0
 11
142.5335649675394
 21
181.5700195836265
 31
0.0
  0
MTEXT
  5
E72
330
BD2
100
AcDbEntity
  8
SUNPOU
100
AcDbMText
 10
138.0335649675392
 20
183.5526579310768
 30
0.0
 40
5.0
 41
0.0
 71
     5
 72
     1
  1
\A1;14.3
  7
SUNPOU
 11
0.0000000000000001
 21
1.0
 31
0.0
1001
ACAD
1000
MTEXTBEGIN
1070
    73
1070
     1
1070
    44
1040
1.0
1070
    74
1070
     0
1000
MTEXTEND
1000
MTEXTBEGIN
1070
    73
1070
     1
1070
    44
1040
1.0
1070
    74
1070
     0
1000
MTEXTEND
  0
LINE
  5
E73
330
BD2
100
AcDbEntity
  8
SUNPOU
100
AcDbLine
 10
142.5335649675394
 20
170.1400195836265
 30
0.0
 11
142.5335649675394
 21
171.5700195836263
 31
0.0
  0
INSERT
  5
E74
330
BD2
100
AcDbEntity
  8
SUNPOU
100
AcDbBlockReference
  2
_OPEN30
 10
142.5335649675394
 20
170.1400195836265
 30
0.0
 41
5.0
 42
5.0
 43
5.0
 50
90.0
  0
INSERT
  5
E75
330
BD2
100
AcDbEntity
  8
SUNPOU
100
AcDbBlockReference
  2
_OPEN30
 10
142.5335649675394
 20
171.5700195836263
 30
0.0
 41
5.0
 42
5.0
 43
5.0
 50
270.0
  0
POINT
  5
E76
330
BD2
100
AcDbEntity
  8
DEFPOINTS
 62
     0
100
AcDbPoint
 10
142.5335649675394
 20
170.1400195836265
 30
0.0
  0
POINT
  5
E77
330
BD2
100
AcDbEntity
  8
DEFPOINTS
 62
     0
100
AcDbPoint
 10
142.5335649675394
 20
171.5700195836263
 30
0.0
  0
POINT
  5
E78
330
BD2
100
AcDbEntity
  8
DEFPOINTS
 62
     0
100
AcDbPoint
 10
142.5335649675394
 20
171.5700195836263
 30
0.0
  0
ENDBLK
  5
BDF
330
BD2
100
AcDbEntity
  8
0
100
AcDbBlockEnd
  0
BLOCK
  5
BF8
330
BEC
100
AcDbEntity
  8
0
100
AcDbBlockBegin
  2
*D33
 70
     1
 10
0.0
 20
0.0
 30
0.0
  3
*D33
  1

  0
LINE
  5
E63
330
BEC
100
AcDbEntity
  8
SUNPOU
100
AcDbLine
 10
182.2499999999999
 20
161.5700195836265
 30
0.0
 11
170.8547933596718
 21
161.5700195836265
 31
0.0
  0
LINE
  5
E64
330
BEC
100
AcDbEntity
  8
SUNPOU
100
AcDbLine
 10
169.8547933596718
 20
171.5700195836263
 30
0.0
 11
170.8547933596718
 21
171.5700195836263
 31
0.0
  0
LINE
  5
E65
330
BEC
100
AcDbEntity
  8
SUNPOU
100
AcDbLine
 10
172.8547933596718
 20
156.5700195836265
 30
0.0
 11
172.8547933596718
 21
151.5700195836265
 31
0.0
  0
LINE
  5
E66
330
BEC
100
AcDbEntity
  8
SUNPOU
100
AcDbLine
 10
172.8547933596718
 20
176.5700195836265
 30
0.0
 11
172.8547933596718
 21
181.5700195836265
 31
0.0
  0
MTEXT
  5
E67
330
BEC
100
AcDbEntity
  8
SUNPOU
100
AcDbMText
 10
168.3547933596715
 20
182.159836551895
 30
0.0
 40
5.0
 41
0.0
 71
     5
 72
     1
  1
\A1;100
  7
SUNPOU
 11
0.0000000000000001
 21
1.0
 31
0.0
1001
ACAD
1000
MTEXTBEGIN
1070
    73
1070
     1
1070
    44
1040
1.0
1070
    74
1070
     0
1000
MTEXTEND
1000
MTEXTBEGIN
1070
    73
1070
     1
1070
    44
1040
1.0
1070
    74
1070
     0
1000
MTEXTEND
  0
LINE
  5
E68
330
BEC
100
AcDbEntity
  8
SUNPOU
100
AcDbLine
 10
172.8547933596718
 20
161.5700195836265
 30
0.0
 11
172.8547933596718
 21
171.5700195836263
 31
0.0
  0
INSERT
  5
E69
330
BEC
100
AcDbEntity
  8
SUNPOU
100
AcDbBlockReference
  2
_OPEN30
 10
172.8547933596718
 20
161.5700195836265
 30
0.0
 41
5.0
 42
5.0
 43
5.0
 50
90.0
  0
INSERT
  5
E6A
330
BEC
100
AcDbEntity
  8
SUNPOU
100
AcDbBlockReference
  2
_OPEN30
 10
172.8547933596718
 20
171.5700195836263
 30
0.0
 41
5.0
 42
5.0
 43
5.0
 50
270.0
  0
POINT
  5
E6B
330
BEC
100
AcDbEntity
  8
DEFPOINTS
 62
     0
100
AcDbPoint
 10
185.25
 20
161.5700195836265
 30
0.0
  0
POINT
  5
E6C
330
BEC
100
AcDbEntity
  8
DEFPOINTS
 62
     0
100
AcDbPoint
 10
172.8547933596718
 20
171.5700195836263
 30
0.0
  0
POINT
  5
E6D
330
BEC
100
AcDbEntity
  8
DEFPOINTS
 62
     0
100
AcDbPoint
 10
172.8547933596718
 20
171.5700195836263
 30
0.0
  0
ENDBLK
  5
BF9
330
BEC
100
AcDbEntity
  8
0
100
AcDbBlockEnd
  0
BLOCK
  5
C10
330
C06
100
AcDbEntity
  8
0
100
AcDbBlockBegin
  2
*D34
 70
     1
 10
0.0
 20
0.0
 30
0.0
  3
*D34
  1

  0
LINE
  5
1262
330
C06
100
AcDbEntity
  8
SUNPOU
100
AcDbLine
 10
188.7499999999999
 20
155.5700195836265
 30
0.0
 11
188.7499999999999
 21
146.775256800022
 31
0.0
  0
LINE
  5
1263
330
C06
100
AcDbEntity
  8
SUNPOU
100
AcDbLine
 10
231.2499999999999
 20
155.5700195836265
 30
0.0
 11
231.2499999999999
 21
146.775256800022
 31
0.0
  0
LINE
  5
1264
330
C06
100
AcDbEntity
  8
SUNPOU
100
AcDbLine
 10
193.7499999999999
 20
148.775256800022
 30
0.0
 11
226.2499999999999
 21
148.775256800022
 31
0.0
  0
MTEXT
  5
1265
330
C06
100
AcDbEntity
  8
SUNPOU
100
AcDbMText
 10
202.2295660752928
 20
144.2752568000222
 30
0.0
 40
5.0
 41
0.0
 71
     5
 72
     1
  1
\A1;425
  7
SUNPOU
 11
-1.0
 21
0.0000000000000001
 31
0.0
1001
ACAD
1000
MTEXTBEGIN
1070
    73
1070
     1
1070
    44
1040
1.0
1070
    74
1070
     0
1000
MTEXTEND
1000
MTEXTBEGIN
1070
    73
1070
     1
1070
    44
1040
1.0
1070
    74
1070
     0
1000
MTEXTEND
  0
INSERT
  5
1266
330
C06
100
AcDbEntity
  8
SUNPOU
100
AcDbBlockReference
  2
_OPEN30
 10
188.7499999999999
 20
148.775256800022
 30
0.0
 41
5.0
 42
5.0
 43
5.0
 50
180.0
  0
INSERT
  5
1267
330
C06
100
AcDbEntity
  8
SUNPOU
100
AcDbBlockReference
  2
_OPEN30
 10
231.2499999999999
 20
148.775256800022
 30
0.0
 41
5.0
 42
5.0
 43
5.0
  0
POINT
  5
1268
330
C06
100
AcDbEntity
  8
DEFPOINTS
 62
     0
100
AcDbPoint
 10
188.7499999999999
 20
158.5700195836265
 30
0.0
  0
POINT
  5
1269
330
C06
100
AcDbEntity
  8
DEFPOINTS
 62
     0
100
AcDbPoint
 10
231.2499999999999
 20
158.5700195836265
 30
0.0
  0
POINT
  5
126A
330
C06
100
AcDbEntity
  8
DEFPOINTS
 62
     0
100
AcDbPoint
 10
231.2499999999999
 20
148.775256800022
 30
0.0
  0
ENDBLK
  5
C11
330
C06
100
AcDbEntity
  8
0
100
AcDbBlockEnd
  0
BLOCK
  5
C1D
330
C13
100
AcDbEntity
  8
0
100
AcDbBlockBegin
  2
*D35
 70
     1
 10
0.0
 20
0.0
 30
0.0
  3
*D35
  1

  0
LINE
  5
E51
330
C13
100
AcDbEntity
  8
SUNPOU
100
AcDbLine
 10
209.9999999999999
 20
153.6415399202175
 30
0.0
 11
209.9999999999999
 21
125.7995478785095
 31
0.0
  0
LINE
  5
E52
330
C13
100
AcDbEntity
  8
SUNPOU
100
AcDbLine
 10
316.6999999999998
 20
130.7995478785095
 30
0.0
 11
316.6999999999998
 21
129.7995478785095
 31
0.0
  0
LINE
  5
E53
330
C13
100
AcDbEntity
  8
SUNPOU
100
AcDbLine
 10
214.9999999999999
 20
127.7995478785095
 30
0.0
 11
311.6999999999998
 21
127.7995478785095
 31
0.0
  0
MTEXT
  5
E54
330
C13
100
AcDbEntity
  8
SUNPOU
100
AcDbMText
 10
263.35
 20
122.7995478785095
 30
0.0
 40
5.0
 41
0.0
 71
     5
 72
     1
  1
\A1;1,067
  7
SUNPOU
 11
-1.0
 21
0.0000000000000001
 31
0.0
1001
ACAD
1000
MTEXTBEGIN
1070
    73
1070
     1
1070
    44
1040
1.0
1070
    74
1070
     0
1000
MTEXTEND
1000
MTEXTBEGIN
1070
    73
1070
     1
1070
    44
1040
1.0
1070
    74
1070
     0
1000
MTEXTEND
  0
INSERT
  5
E55
330
C13
100
AcDbEntity
  8
SUNPOU
100
AcDbBlockReference
  2
_OPEN30
 10
209.9999999999999
 20
127.7995478785095
 30
0.0
 41
5.0
 42
5.0
 43
5.0
 50
180.0
  0
INSERT
  5
E56
330
C13
100
AcDbEntity
  8
SUNPOU
100
AcDbBlockReference
  2
_OPEN30
 10
316.6999999999998
 20
127.7995478785095
 30
0.0
 41
5.0
 42
5.0
 43
5.0
  0
POINT
  5
E57
330
C13
100
AcDbEntity
  8
DEFPOINTS
 62
     0
100
AcDbPoint
 10
209.9999999999999
 20
156.6415399202177
 30
0.0
  0
POINT
  5
E58
330
C13
100
AcDbEntity
  8
DEFPOINTS
 62
     0
100
AcDbPoint
 10
316.6999999999998
 20
127.7995478785095
 30
0.0
  0
POINT
  5
E59
330
C13
100
AcDbEntity
  8
DEFPOINTS
 62
     0
100
AcDbPoint
 10
316.6999999999998
 20
127.7995478785095
 30
0.0
  0
ENDBLK
  5
C1E
330
C13
100
AcDbEntity
  8
0
100
AcDbBlockEnd
  0
BLOCK
  5
1446
330
143C
100
AcDbEntity
  8
0
100
AcDbBlockBegin
  2
*D36
 70
     1
 10
0.0
 20
0.0
 30
0.0
  3
*D36
  1

  0
LINE
  5
157E
330
143C
100
AcDbEntity
  8
SUNPOU
100
AcDbLine
 10
344.8833179297593
 20
460.8517251934525
 30
0.0
 11
344.8833179297593
 21
520.8517251934527
 31
0.0
  0
INSERT
  5
157F
330
143C
100
AcDbEntity
  8
SUNPOU
100
AcDbBlockReference
  2
_OPEN30
 10
344.8833179297593
 20
455.8517251934524
 30
0.0
 41
5.0
 42
5.0
 43
5.0
 50
270.0
  0
MTEXT
  5
1580
330
143C
100
AcDbEntity
  8
SUNPOU
100
AcDbMText
 10
340.3833179297591
 20
490.8517251934527
 30
0.0
 40
5.0
 41
0.0
 71
     5
 72
     1
  1
\A1;DW
  7
SUNPOU
 11
0.0000000000000001
 21
1.0
 31
0.0
1001
ACAD
1000
MTEXTBEGIN
1070
    73
1070
     1
1070
    44
1040
1.0
1070
    74
1070
     0
1000
MTEXTEND
1000
MTEXTBEGIN
1070
    73
1070
     1
1070
    44
1040
1.0
1070
    74
1070
     0
1000
MTEXTEND
  0
POINT
  5
1581
330
143C
100
AcDbEntity
  8
DEFPOINTS
 62
     0
100
AcDbPoint
 10
344.8833179297593
 20
455.8517251934524
 30
0.0
  0
POINT
  5
1582
330
143C
100
AcDbEntity
  8
DEFPOINTS
 62
     0
100
AcDbPoint
 10
344.8833179297593
 20
520.8517251934527
 30
0.0
  0
POINT
  5
1583
330
143C
100
AcDbEntity
  8
DEFPOINTS
 62
     0
100
AcDbPoint
 10
344.8833179297593
 20
520.8517251934527
 30
0.0
  0
ENDBLK
  5
1447
330
143C
100
AcDbEntity
  8
0
100
AcDbBlockEnd
  0
BLOCK
  5
1452
330
1451
100
AcDbEntity
  8
0
100
AcDbBlockBegin
  2
_NONE
 70
     0
 10
0.0
 20
0.0
 30
0.0
  3
_NONE
  1

  0
ENDBLK
  5
1453
330
1451
100
AcDbEntity
  8
0
100
AcDbBlockEnd
  0
BLOCK
  5
1475
330
146B
100
AcDbEntity
  8
0
100
AcDbBlockBegin
  2
*D38
 70
     1
 10
0.0
 20
0.0
 30
0.0
  3
*D38
  1

  0
LINE
  5
1584
330
146B
100
AcDbEntity
  8
SUNPOU
100
AcDbLine
 10
344.8833179297592
 20
385.8517584412362
 30
0.0
 11
344.8833179297592
 21
445.851758441236
 31
0.0
  0
INSERT
  5
1585
330
146B
100
AcDbEntity
  8
SUNPOU
100
AcDbBlockReference
  2
_OPEN30
 10
344.8833179297592
 20
450.8517584412362
 30
0.0
 41
5.0
 42
5.0
 43
5.0
 50
90.0
  0
MTEXT
  5
1586
330
146B
100
AcDbEntity
  8
SUNPOU
100
AcDbMText
 10
340.3833179297591
 20
415.851758441236
 30
0.0
 40
5.0
 41
0.0
 71
     5
 72
     1
  1
\A1;DW
  7
SUNPOU
 11
0.0000000000000001
 21
1.0
 31
0.0
1001
ACAD
1000
MTEXTBEGIN
1070
    73
1070
     1
1070
    44
1040
1.0
1070
    74
1070
     0
1000
MTEXTEND
1000
MTEXTBEGIN
1070
    73
1070
     1
1070
    44
1040
1.0
1070
    74
1070
     0
1000
MTEXTEND
  0
POINT
  5
1587
330
146B
100
AcDbEntity
  8
DEFPOINTS
 62
     0
100
AcDbPoint
 10
344.8833179297592
 20
385.8517584412362
 30
0.0
  0
POINT
  5
1588
330
146B
100
AcDbEntity
  8
DEFPOINTS
 62
     0
100
AcDbPoint
 10
344.8833179297592
 20
450.8517584412362
 30
0.0
  0
POINT
  5
1589
330
146B
100
AcDbEntity
  8
DEFPOINTS
 62
     0
100
AcDbPoint
 10
344.8833179297592
 20
450.8517584412362
 30
0.0
  0
ENDBLK
  5
1476
330
146B
100
AcDbEntity
  8
0
100
AcDbBlockEnd
  0
ENDSEC
  0
SECTION
  2
ENTITIES
  0
LINE
  5
310
330
A
100
AcDbEntity
  8
SAISEN
100
AcDbLine
 10
192.2420837127069
 20
138.3128137831042
 30
0.0
 11
220.6721009877604
 21
109.8827965080507
 31
0.0
  0
LINE
  5
311
330
A
100
AcDbEntity
  8
SAISEN
100
AcDbLine
 10
194.1450274378593
 20
133.0157575082566
 30
0.0
 11
216.5426905334114
 21
110.618094412704
 31
0.0
  0
LINE
  5
312
330
A
100
AcDbEntity
  8
SAISEN
100
AcDbLine
 10
218.8152137286055
 20
115.1337963169009
 30
0.0
 11
197.6168472355159
 21
136.3321628099905
 31
0.0
  0
LINE
  5
313
330
A
100
AcDbEntity
  8
02
100
AcDbLine
 10
157.6705563842748
 20
279.119525936888
 30
0.0
 11
157.6705563842748
 21
289.119525936888
 31
0.0
  0
LINE
  5
314
330
A
100
AcDbEntity
  8
02
100
AcDbLine
 10
262.3294436157249
 20
289.1195259368879
 30
0.0
 11
262.3294436157249
 21
279.1195259368878
 31
0.0
  0
CIRCLE
  5
315
330
A
100
AcDbEntity
  8
06
100
AcDbCircle
 10
188.7499999999999
 20
161.5700195836265
 30
0.0
 40
0.8
  0
CIRCLE
  5
316
330
A
100
AcDbEntity
  8
06
100
AcDbCircle
 10
231.2499999999999
 20
161.5700195836265
 30
0.0
 40
0.8
  0
LINE
  5
317
330
A
100
AcDbEntity
  8
06
100
AcDbLine
 10
203.5764150943395
 20
545.3092456774206
 30
0.0
 11
218.0764150943395
 21
545.3092456774206
 31
0.0
  0
LINE
  5
318
330
A
100
AcDbEntity
  8
06
100
AcDbLine
 10
218.0764150943395
 20
545.3092456774206
 30
0.0
 11
218.0764150943395
 21
547.2092456774206
 31
0.0
  0
LINE
  5
319
330
A
100
AcDbEntity
  8
06
100
AcDbLine
 10
203.5764150943395
 20
545.3092456774206
 30
0.0
 11
203.5764150943395
 21
547.2092456774206
 31
0.0
  0
LINE
  5
31A
330
A
100
AcDbEntity
  8
06
100
AcDbLine
 10
203.5764150943395
 20
547.2092456774206
 30
0.0
 11
206.3264150943396
 21
547.2092456774206
 31
0.0
  0
LINE
  5
31B
330
A
100
AcDbEntity
  8
06
100
AcDbLine
 10
206.3264150943396
 20
547.2092456774206
 30
0.0
 11
206.3264150943396
 21
549.4092456774207
 31
0.0
  0
LINE
  5
31C
330
A
100
AcDbEntity
  8
06
100
AcDbLine
 10
208.3264150943396
 20
550.9092456774208
 30
0.0
 11
208.3264150943396
 21
548.6092456774208
 31
0.0
  0
LINE
  5
31D
330
A
100
AcDbEntity
  8
06
100
AcDbLine
 10
213.3264150943396
 20
548.6092456774208
 30
0.0
 11
213.3264150943396
 21
550.9092456774208
 31
0.0
  0
LINE
  5
31E
330
A
100
AcDbEntity
  8
06
100
AcDbLine
 10
213.3264150943396
 20
548.6092456774208
 30
0.0
 11
214.1264150943398
 21
548.6092456774208
 31
0.0
  0
LINE
  5
31F
330
A
100
AcDbEntity
  8
06
100
AcDbLine
 10
214.1264150943398
 20
548.6092456774208
 30
0.0
 11
214.1264150943398
 21
547.9092456774208
 31
0.0
  0
LINE
  5
320
330
A
100
AcDbEntity
  8
06
100
AcDbLine
 10
208.3264150943396
 20
548.6092456774208
 30
0.0
 11
207.5264150943396
 21
548.6092456774208
 31
0.0
  0
LINE
  5
321
330
A
100
AcDbEntity
  8
06
100
AcDbLine
 10
207.5264150943396
 20
548.6092456774208
 30
0.0
 11
207.5264150943396
 21
547.9092456774208
 31
0.0
  0
LINE
  5
322
330
A
100
AcDbEntity
  8
06
100
AcDbLine
 10
207.5264150943396
 20
547.9092456774208
 30
0.0
 11
214.1264150943398
 21
547.9092456774208
 31
0.0
  0
LINE
  5
323
330
A
100
AcDbEntity
  8
06
100
AcDbLine
 10
218.0764150943395
 20
547.2092456774206
 30
0.0
 11
215.3264150943396
 21
547.2092456774206
 31
0.0
  0
LINE
  5
324
330
A
100
AcDbEntity
  8
06
100
AcDbLine
 10
215.3264150943396
 20
547.2092456774206
 30
0.0
 11
215.3264150943396
 21
549.4092456774207
 31
0.0
  0
LINE
  5
325
330
A
100
AcDbEntity
  8
06
100
AcDbLine
 10
202.8216805398534
 20
548.7233678599507
 30
0.0
 11
202.821680539853
 21
549.3238037734687
 31
0.0
  0
ARC
  5
326
330
A
100
AcDbEntity
  8
06
100
AcDbCircle
 10
203.3216805398533
 20
549.3238037734687
 30
0.0
 40
0.5
100
AcDbArc
 50
104.3000000000005
 51
179.9999999999919
  0
LINE
  5
327
330
A
100
AcDbEntity
  8
06
100
AcDbLine
 10
218.8310554716359
 20
548.7233878779306
 30
0.0
 11
218.8310554716359
 21
549.3250551771597
 31
0.0
  0
ARC
  5
328
330
A
100
AcDbEntity
  8
06
100
AcDbCircle
 10
218.3310554716356
 20
549.3250551771597
 30
0.0
 40
0.5
100
AcDbArc
 50
359.9999999999959
 51
75.69999999999912
  0
LINE
  5
329
330
A
100
AcDbEntity
  8
06
100
AcDbLine
 10
207.8264150943396
 20
548.4092456774208
 30
0.0
 11
207.8264150943396
 21
547.9092456774208
 31
0.0
  0
LINE
  5
32A
330
A
100
AcDbEntity
  8
06
100
AcDbLine
 10
207.8264150943396
 20
547.9092456774208
 30
0.0
 11
213.8264150943395
 21
547.9092456774208
 31
0.0
  0
LINE
  5
32B
330
A
100
AcDbEntity
  8
06
100
AcDbLine
 10
213.8264150943395
 20
547.9092456774208
 30
0.0
 11
213.8264150943395
 21
548.4092456774208
 31
0.0
  0
LINE
  5
32C
330
A
100
AcDbEntity
  8
06
100
AcDbLine
 10
213.8264150943395
 20
548.4092456774208
 30
0.0
 11
207.8264150943396
 21
548.4092456774208
 31
0.0
  0
LINE
  5
32D
330
A
100
AcDbEntity
  8
06
100
AcDbLine
 10
208.5764150943396
 20
548.4092456774208
 30
0.0
 11
208.5764150943396
 21
551.9092456774208
 31
0.0
  0
LINE
  5
32E
330
A
100
AcDbEntity
  8
06
100
AcDbLine
 10
213.0764150943396
 20
548.4092456774208
 30
0.0
 11
213.0764150943396
 21
551.9092456774208
 31
0.0
  0
LINE
  5
333
330
A
100
AcDbEntity
  8
06
100
AcDbLine
 10
210.8264150943396
 20
548.4092456774208
 30
0.0
 11
210.8264150943396
 21
551.9092456774208
 31
0.0
  0
LINE
  5
338
330
A
100
AcDbEntity
  8
06
100
AcDbLine
 10
203.5764150943395
 20
359.1092456774206
 30
0.0
 11
218.0764150943395
 21
359.1092456774206
 31
0.0
  0
LINE
  5
339
330
A
100
AcDbEntity
  8
06
100
AcDbLine
 10
218.0764150943395
 20
359.1092456774206
 30
0.0
 11
218.0764150943395
 21
357.2092456774206
 31
0.0
  0
LINE
  5
33A
330
A
100
AcDbEntity
  8
06
100
AcDbLine
 10
203.5764150943395
 20
359.1092456774206
 30
0.0
 11
203.5764150943395
 21
357.2092456774206
 31
0.0
  0
LINE
  5
33B
330
A
100
AcDbEntity
  8
06
100
AcDbLine
 10
203.5764150943395
 20
357.2092456774206
 30
0.0
 11
206.3264150943396
 21
357.2092456774206
 31
0.0
  0
LINE
  5
33C
330
A
100
AcDbEntity
  8
06
100
AcDbLine
 10
206.3264150943396
 20
357.2092456774206
 30
0.0
 11
206.3264150943396
 21
355.0092456774206
 31
0.0
  0
LINE
  5
33D
330
A
100
AcDbEntity
  8
06
100
AcDbLine
 10
208.3264150943396
 20
353.5092456774206
 30
0.0
 11
208.3264150943396
 21
355.8092456774206
 31
0.0
  0
LINE
  5
33E
330
A
100
AcDbEntity
  8
06
100
AcDbLine
 10
213.3264150943396
 20
355.8092456774206
 30
0.0
 11
213.3264150943396
 21
353.5092456774206
 31
0.0
  0
LINE
  5
33F
330
A
100
AcDbEntity
  8
06
100
AcDbLine
 10
213.3264150943396
 20
355.8092456774206
 30
0.0
 11
214.1264150943398
 21
355.8092456774206
 31
0.0
  0
LINE
  5
340
330
A
100
AcDbEntity
  8
06
100
AcDbLine
 10
214.1264150943398
 20
355.8092456774206
 30
0.0
 11
214.1264150943398
 21
356.5092456774206
 31
0.0
  0
LINE
  5
341
330
A
100
AcDbEntity
  8
06
100
AcDbLine
 10
208.3264150943396
 20
355.8092456774206
 30
0.0
 11
207.5264150943396
 21
355.8092456774206
 31
0.0
  0
LINE
  5
342
330
A
100
AcDbEntity
  8
06
100
AcDbLine
 10
207.5264150943396
 20
355.8092456774206
 30
0.0
 11
207.5264150943396
 21
356.5092456774206
 31
0.0
  0
LINE
  5
343
330
A
100
AcDbEntity
  8
06
100
AcDbLine
 10
207.5264150943396
 20
356.5092456774206
 30
0.0
 11
214.1264150943398
 21
356.5092456774206
 31
0.0
  0
LINE
  5
344
330
A
100
AcDbEntity
  8
06
100
AcDbLine
 10
218.0764150943395
 20
357.2092456774206
 30
0.0
 11
215.3264150943396
 21
357.2092456774206
 31
0.0
  0
LINE
  5
345
330
A
100
AcDbEntity
  8
06
100
AcDbLine
 10
215.3264150943396
 20
357.2092456774206
 30
0.0
 11
215.3264150943396
 21
355.0092456774206
 31
0.0
  0
LINE
  5
346
330
A
100
AcDbEntity
  8
06
100
AcDbLine
 10
202.8216805398534
 20
355.6951234948905
 30
0.0
 11
202.821680539853
 21
355.0946875813727
 31
0.0
  0
ARC
  5
347
330
A
100
AcDbEntity
  8
06
100
AcDbCircle
 10
203.3216805398529
 20
355.0946875813727
 30
0.0
 40
0.5
100
AcDbArc
 50
180.0000000000077
 51
255.6999999999994
  0
LINE
  5
348
330
A
100
AcDbEntity
  8
06
100
AcDbLine
 10
218.831055471637
 20
355.695103476911
 30
0.0
 11
218.8310554716367
 21
355.0934361776821
 31
0.0
  0
ARC
  5
349
330
A
100
AcDbEntity
  8
06
100
AcDbCircle
 10
218.3310554716365
 20
355.093436177682
 30
0.0
 40
0.5
100
AcDbArc
 50
284.3000000000007
 51
0.0000000000040767
  0
LINE
  5
34A
330
A
100
AcDbEntity
  8
06
100
AcDbLine
 10
207.8264150943396
 20
356.0092456774206
 30
0.0
 11
207.8264150943396
 21
356.5092456774206
 31
0.0
  0
LINE
  5
34B
330
A
100
AcDbEntity
  8
06
100
AcDbLine
 10
207.8264150943396
 20
356.5092456774206
 30
0.0
 11
213.8264150943395
 21
356.5092456774206
 31
0.0
  0
LINE
  5
34C
330
A
100
AcDbEntity
  8
06
100
AcDbLine
 10
213.8264150943395
 20
356.5092456774206
 30
0.0
 11
213.8264150943395
 21
356.0092456774206
 31
0.0
  0
LINE
  5
34D
330
A
100
AcDbEntity
  8
06
100
AcDbLine
 10
213.8264150943395
 20
356.0092456774206
 30
0.0
 11
207.8264150943396
 21
356.0092456774206
 31
0.0
  0
LINE
  5
34E
330
A
100
AcDbEntity
  8
06
100
AcDbLine
 10
208.5764150943396
 20
356.0092456774206
 30
0.0
 11
208.5764150943396
 21
352.5092456774206
 31
0.0
  0
LINE
  5
34F
330
A
100
AcDbEntity
  8
06
100
AcDbLine
 10
213.0764150943396
 20
356.0092456774206
 30
0.0
 11
213.0764150943396
 21
352.5092456774206
 31
0.0
  0
LINE
  5
359
330
A
100
AcDbEntity
  8
02
100
AcDbLine
 10
215.8264150943391
 20
364.6092456774206
 30
0.0
 11
205.826415094339
 21
364.6092456774206
 31
0.0
  0
LINE
  5
35A
330
A
100
AcDbEntity
  8
02
100
AcDbLine
 10
205.8264150943396
 20
539.8092456774207
 30
0.0
 11
215.8264150943395
 21
539.8092456774207
 31
0.0
  0
LINE
  5
35B
330
A
100
AcDbEntity
  8
02
100
AcDbLine
 10
206.3264150943396
 20
539.3092456774208
 30
0.0
 11
215.3264150943394
 21
539.3092456774208
 31
0.0
  0
LINE
  5
35C
330
A
100
AcDbEntity
  8
02
100
AcDbLine
 10
215.3264150943394
 20
365.109245677421
 30
0.0
 11
206.3264150943393
 21
365.1092456774208
 31
0.0
  0
LINE
  5
35D
330
A
100
AcDbEntity
  8
06
100
AcDbLine
 10
302.1613207547171
 20
460.0034298422404
 30
0.0
 11
316.6613207547171
 21
460.0034298422404
 31
0.0
  0
LINE
  5
35E
330
A
100
AcDbEntity
  8
06
100
AcDbLine
 10
316.6613207547171
 20
460.0034298422404
 30
0.0
 11
316.6613207547171
 21
458.1034298422405
 31
0.0
  0
LINE
  5
35F
330
A
100
AcDbEntity
  8
06
100
AcDbLine
 10
302.1613207547171
 20
460.0034298422404
 30
0.0
 11
302.1613207547171
 21
458.1034298422405
 31
0.0
  0
LINE
  5
360
330
A
100
AcDbEntity
  8
06
100
AcDbLine
 10
302.1613207547171
 20
458.1034298422405
 30
0.0
 11
304.9113207547171
 21
458.1034298422405
 31
0.0
  0
LINE
  5
361
330
A
100
AcDbEntity
  8
06
100
AcDbLine
 10
304.9113207547171
 20
458.1034298422405
 30
0.0
 11
304.9113207547171
 21
455.9034298422402
 31
0.0
  0
LINE
  5
362
330
A
100
AcDbEntity
  8
06
100
AcDbLine
 10
306.9113207547171
 20
454.4034298422404
 30
0.0
 11
306.9113207547171
 21
456.7034298422405
 31
0.0
  0
LINE
  5
363
330
A
100
AcDbEntity
  8
06
100
AcDbLine
 10
311.9113207547171
 20
456.7034298422405
 30
0.0
 11
311.9113207547171
 21
454.4034298422404
 31
0.0
  0
LINE
  5
364
330
A
100
AcDbEntity
  8
06
100
AcDbLine
 10
311.9113207547171
 20
456.7034298422405
 30
0.0
 11
312.7113207547171
 21
456.7034298422405
 31
0.0
  0
LINE
  5
365
330
A
100
AcDbEntity
  8
06
100
AcDbLine
 10
312.7113207547171
 20
456.7034298422405
 30
0.0
 11
312.7113207547171
 21
457.4034298422405
 31
0.0
  0
LINE
  5
366
330
A
100
AcDbEntity
  8
06
100
AcDbLine
 10
306.9113207547171
 20
456.7034298422405
 30
0.0
 11
306.1113207547168
 21
456.7034298422405
 31
0.0
  0
LINE
  5
367
330
A
100
AcDbEntity
  8
06
100
AcDbLine
 10
306.1113207547168
 20
456.7034298422405
 30
0.0
 11
306.1113207547168
 21
457.4034298422405
 31
0.0
  0
LINE
  5
368
330
A
100
AcDbEntity
  8
06
100
AcDbLine
 10
306.1113207547168
 20
457.4034298422405
 30
0.0
 11
312.7113207547171
 21
457.4034298422405
 31
0.0
  0
LINE
  5
369
330
A
100
AcDbEntity
  8
06
100
AcDbLine
 10
316.6613207547171
 20
458.1034298422405
 30
0.0
 11
313.9113207547166
 21
458.1034298422405
 31
0.0
  0
LINE
  5
36A
330
A
100
AcDbEntity
  8
06
100
AcDbLine
 10
313.9113207547166
 20
458.1034298422405
 30
0.0
 11
313.9113207547166
 21
455.9034298422402
 31
0.0
  0
LINE
  5
36B
330
A
100
AcDbEntity
  8
06
100
AcDbLine
 10
301.4065862002323
 20
456.5893076597101
 30
0.0
 11
301.4065862002321
 21
455.988871746192
 31
0.0
  0
ARC
  5
36C
330
A
100
AcDbEntity
  8
06
100
AcDbCircle
 10
301.9065862002317
 20
455.988871746192
 30
0.0
 40
0.5
100
AcDbArc
 50
180.0000000000077
 51
255.6999999999994
  0
LINE
  5
36D
330
A
100
AcDbEntity
  8
06
100
AcDbLine
 10
317.4159611320165
 20
456.5892876417311
 30
0.0
 11
317.4159611320161
 21
455.9876203425022
 31
0.0
  0
ARC
  5
36E
330
A
100
AcDbEntity
  8
06
100
AcDbCircle
 10
316.9159611320161
 20
455.9876203425019
 30
0.0
 40
0.5
100
AcDbArc
 50
284.3000000000007
 51
0.0000000000040767
  0
LINE
  5
36F
330
A
100
AcDbEntity
  8
06
100
AcDbLine
 10
306.4113207547169
 20
456.9034298422407
 30
0.0
 11
306.4113207547169
 21
457.4034298422408
 31
0.0
  0
LINE
  5
370
330
A
100
AcDbEntity
  8
06
100
AcDbLine
 10
306.4113207547169
 20
457.4034298422408
 30
0.0
 11
312.4113207547166
 21
457.4034298422408
 31
0.0
  0
LINE
  5
371
330
A
100
AcDbEntity
  8
06
100
AcDbLine
 10
312.4113207547166
 20
457.4034298422408
 30
0.0
 11
312.4113207547166
 21
456.9034298422407
 31
0.0
  0
LINE
  5
372
330
A
100
AcDbEntity
  8
06
100
AcDbLine
 10
312.4113207547166
 20
456.9034298422407
 30
0.0
 11
306.4113207547169
 21
456.9034298422407
 31
0.0
  0
LINE
  5
373
330
A
100
AcDbEntity
  8
06
100
AcDbLine
 10
307.1613207547171
 20
456.9034298422407
 30
0.0
 11
307.1613207547171
 21
453.4034298422408
 31
0.0
  0
LINE
  5
374
330
A
100
AcDbEntity
  8
06
100
AcDbLine
 10
311.6613207547171
 20
456.9034298422407
 30
0.0
 11
311.6613207547171
 21
453.4034298422408
 31
0.0
  0
LINE
  5
37E
330
A
100
AcDbEntity
  8
06
100
AcDbLine
 10
302.1613207547171
 20
446.714729842241
 30
0.0
 11
316.6613207547171
 21
446.714729842241
 31
0.0
  0
LINE
  5
37F
330
A
100
AcDbEntity
  8
06
100
AcDbLine
 10
316.6613207547171
 20
446.714729842241
 30
0.0
 11
316.6613207547171
 21
448.614729842241
 31
0.0
  0
LINE
  5
380
330
A
100
AcDbEntity
  8
06
100
AcDbLine
 10
302.1613207547171
 20
446.714729842241
 30
0.0
 11
302.1613207547171
 21
448.6147298422411
 31
0.0
  0
LINE
  5
381
330
A
100
AcDbEntity
  8
06
100
AcDbLine
 10
302.1613207547171
 20
448.6147298422411
 30
0.0
 11
304.9113207547171
 21
448.6147298422411
 31
0.0
  0
LINE
  5
382
330
A
100
AcDbEntity
  8
06
100
AcDbLine
 10
304.9113207547171
 20
448.6147298422411
 30
0.0
 11
304.9113207547171
 21
450.8147298422409
 31
0.0
  0
LINE
  5
383
330
A
100
AcDbEntity
  8
06
100
AcDbLine
 10
306.9113207547171
 20
452.314729842241
 30
0.0
 11
306.9113207547171
 21
450.0147298422409
 31
0.0
  0
LINE
  5
384
330
A
100
AcDbEntity
  8
06
100
AcDbLine
 10
311.9113207547171
 20
450.0147298422409
 30
0.0
 11
311.9113207547171
 21
452.314729842241
 31
0.0
  0
LINE
  5
385
330
A
100
AcDbEntity
  8
06
100
AcDbLine
 10
311.9113207547171
 20
450.0147298422409
 30
0.0
 11
312.7113207547166
 21
450.0147298422409
 31
0.0
  0
LINE
  5
386
330
A
100
AcDbEntity
  8
06
100
AcDbLine
 10
312.7113207547166
 20
450.0147298422409
 30
0.0
 11
312.7113207547166
 21
449.3147298422409
 31
0.0
  0
LINE
  5
387
330
A
100
AcDbEntity
  8
06
100
AcDbLine
 10
306.9113207547171
 20
450.0147298422409
 30
0.0
 11
306.1113207547168
 21
450.0147298422409
 31
0.0
  0
LINE
  5
388
330
A
100
AcDbEntity
  8
06
100
AcDbLine
 10
306.1113207547168
 20
450.0147298422409
 30
0.0
 11
306.1113207547168
 21
449.3147298422409
 31
0.0
  0
LINE
  5
389
330
A
100
AcDbEntity
  8
06
100
AcDbLine
 10
306.1113207547168
 20
449.3147298422409
 30
0.0
 11
312.7113207547166
 21
449.3147298422409
 31
0.0
  0
LINE
  5
38A
330
A
100
AcDbEntity
  8
06
100
AcDbLine
 10
316.6613207547171
 20
448.614729842241
 30
0.0
 11
313.9113207547166
 21
448.614729842241
 31
0.0
  0
LINE
  5
38B
330
A
100
AcDbEntity
  8
06
100
AcDbLine
 10
313.9113207547166
 20
448.614729842241
 30
0.0
 11
313.9113207547166
 21
450.8147298422409
 31
0.0
  0
LINE
  5
38C
330
A
100
AcDbEntity
  8
06
100
AcDbLine
 10
301.4065862002291
 20
450.1288520247706
 30
0.0
 11
301.406586200229
 21
450.7292879382887
 31
0.0
  0
ARC
  5
38D
330
A
100
AcDbEntity
  8
06
100
AcDbCircle
 10
301.906586200229
 20
450.7292879382887
 30
0.0
 40
0.5
100
AcDbArc
 50
104.3000000000005
 51
179.9999999999919
  0
LINE
  5
38E
330
A
100
AcDbEntity
  8
06
100
AcDbLine
 10
317.4159611320154
 20
450.1288720427502
 30
0.0
 11
317.4159611320151
 21
450.7305393419792
 31
0.0
  0
ARC
  5
38F
330
A
100
AcDbEntity
  8
06
100
AcDbCircle
 10
316.9159611320151
 20
450.7305393419793
 30
0.0
 40
0.5
100
AcDbArc
 50
359.9999999999959
 51
75.69999999999912
  0
LINE
  5
390
330
A
100
AcDbEntity
  8
06
100
AcDbLine
 10
306.4113207547169
 20
449.8147298422408
 30
0.0
 11
306.4113207547169
 21
449.3147298422408
 31
0.0
  0
LINE
  5
391
330
A
100
AcDbEntity
  8
06
100
AcDbLine
 10
306.4113207547169
 20
449.3147298422408
 30
0.0
 11
312.4113207547166
 21
449.3147298422408
 31
0.0
  0
LINE
  5
392
330
A
100
AcDbEntity
  8
06
100
AcDbLine
 10
312.4113207547166
 20
449.3147298422408
 30
0.0
 11
312.4113207547166
 21
449.8147298422408
 31
0.0
  0
LINE
  5
393
330
A
100
AcDbEntity
  8
06
100
AcDbLine
 10
312.4113207547166
 20
449.8147298422408
 30
0.0
 11
306.4113207547169
 21
449.8147298422408
 31
0.0
  0
LINE
  5
394
330
A
100
AcDbEntity
  8
06
100
AcDbLine
 10
307.1613207547171
 20
449.8147298422408
 30
0.0
 11
307.1613207547171
 21
453.3147298422408
 31
0.0
  0
LINE
  5
395
330
A
100
AcDbEntity
  8
06
100
AcDbLine
 10
311.6613207547171
 20
449.8147298422408
 30
0.0
 11
311.6613207547171
 21
453.3147298422408
 31
0.0
  0
LINE
  5
39F
330
A
100
AcDbEntity
  8
02
100
AcDbLine
 10
304.4113207547171
 20
465.5034298422402
 30
0.0
 11
314.4113207547171
 21
465.5034298422402
 31
0.0
  0
LINE
  5
3A0
330
A
100
AcDbEntity
  8
02
100
AcDbLine
 10
304.4113207547171
 20
441.2147298422409
 30
0.0
 11
314.4113207547171
 21
441.2147298422409
 31
0.0
  0
LINE
  5
3A1
330
A
100
AcDbEntity
  8
02
100
AcDbLine
 10
304.9113207547171
 20
440.7147298422408
 30
0.0
 11
313.9113207547166
 21
440.7147298422408
 31
0.0
  0
LINE
  5
3A2
330
A
100
AcDbEntity
  8
02
100
AcDbLine
 10
313.9113207547166
 20
466.0034298422401
 30
0.0
 11
304.9113207547171
 21
466.0034298422401
 31
0.0
  0
LINE
  5
3A3
330
A
100
AcDbEntity
  8
02
100
AcDbLine
 10
157.6705563842748
 20
289.119525936888
 30
0.0
 11
211.6677838984213
 21
289.119525936888
 31
0.0
  0
LINE
  5
3A4
330
A
100
AcDbEntity
  8
02
100
AcDbLine
 10
157.6705563842748
 20
279.119525936888
 30
0.0
 11
211.6677838984213
 21
279.119525936888
 31
0.0
  0
LINE
  5
3A5
330
A
100
AcDbEntity
  8
02
100
AcDbLine
 10
157.6705563842748
 20
288.6195259368879
 30
0.0
 11
211.6677838984213
 21
288.6195259368879
 31
0.0
  0
LINE
  5
3A6
330
A
100
AcDbEntity
  8
02
100
AcDbLine
 10
157.6705563842748
 20
279.619525936888
 30
0.0
 11
211.6677838984213
 21
279.619525936888
 31
0.0
  0
LINE
  5
3A7
330
A
100
AcDbEntity
  8
02
100
AcDbLine
 10
262.3294436157249
 20
289.1195259368879
 30
0.0
 11
216.6677838984213
 21
289.1195259368879
 31
0.0
  0
LINE
  5
3A8
330
A
100
AcDbEntity
  8
02
100
AcDbLine
 10
262.3294436157249
 20
279.1195259368878
 30
0.0
 11
216.6677838984213
 21
279.1195259368878
 31
0.0
  0
LINE
  5
3A9
330
A
100
AcDbEntity
  8
02
100
AcDbLine
 10
262.3294436157249
 20
279.6195259368878
 30
0.0
 11
216.6677838984213
 21
279.6195259368878
 31
0.0
  0
LINE
  5
3AA
330
A
100
AcDbEntity
  8
02
100
AcDbLine
 10
262.3294436157249
 20
288.6195259368879
 30
0.0
 11
216.6677838984213
 21
288.6195259368879
 31
0.0
  0
LINE
  5
3AB
330
A
100
AcDbEntity
  8
02
100
AcDbLine
 10
215.8264150943395
 20
539.8092456774207
 30
0.0
 11
215.8264150943395
 21
494.5006650266297
 31
0.0
  0
LINE
  5
3AC
330
A
100
AcDbEntity
  8
02
100
AcDbLine
 10
205.8264150943396
 20
539.8092456774207
 30
0.0
 11
205.8264150943396
 21
494.5006650266297
 31
0.0
  0
LINE
  5
3AD
330
A
100
AcDbEntity
  8
02
100
AcDbLine
 10
206.3264150943396
 20
539.3092456774208
 30
0.0
 11
206.3264150943396
 21
494.5006650266297
 31
0.0
  0
LINE
  5
3AE
330
A
100
AcDbEntity
  8
02
100
AcDbLine
 10
215.3264150943394
 20
539.3092456774208
 30
0.0
 11
215.3264150943394
 21
494.5006650266297
 31
0.0
  0
LINE
  5
3AF
330
A
100
AcDbEntity
  8
02
100
AcDbLine
 10
205.826415094339
 20
364.6092456774206
 30
0.0
 11
205.826415094339
 21
489.5006650266297
 31
0.0
  0
LINE
  5
3B0
330
A
100
AcDbEntity
  8
02
100
AcDbLine
 10
206.3264150943393
 20
365.1092456774208
 30
0.0
 11
206.3264150943393
 21
489.5006650266297
 31
0.0
  0
LINE
  5
3B1
330
A
100
AcDbEntity
  8
02
100
AcDbLine
 10
215.3264150943394
 20
365.109245677421
 30
0.0
 11
215.3264150943394
 21
489.5006650266297
 31
0.0
  0
LINE
  5
3B2
330
A
100
AcDbEntity
  8
02
100
AcDbLine
 10
215.8264150943391
 20
364.6092456774206
 30
0.0
 11
215.8264150943395
 21
489.5006650266297
 31
0.0
  0
LINE
  5
3B3
330
A
100
AcDbEntity
  8
02
100
AcDbLine
 10
304.9113207547171
 20
466.0034298422401
 30
0.0
 11
304.9113207547171
 21
525.8517251934526
 31
0.0
  0
LINE
  5
3B4
330
A
100
AcDbEntity
  8
02
100
AcDbLine
 10
313.9113207547166
 20
466.0034298422401
 30
0.0
 11
313.9113207547166
 21
525.8517251934526
 31
0.0
  0
LINE
  5
3B5
330
A
100
AcDbEntity
  8
02
100
AcDbLine
 10
313.9113207547166
 20
440.7147298422408
 30
0.0
 11
313.9113207547166
 21
380.7294058920334
 31
0.0
  0
LINE
  5
3B6
330
A
100
AcDbEntity
  8
02
100
AcDbLine
 10
304.9113207547171
 20
440.7147298422408
 30
0.0
 11
304.9113207547166
 21
380.7294058920334
 31
0.0
  0
LINE
  5
3B7
330
A
100
AcDbEntity
  8
02
100
AcDbLine
 10
304.4113207547171
 20
465.5034298422402
 30
0.0
 11
304.4113207547165
 21
525.8517251934526
 31
0.0
  0
LINE
  5
3B8
330
A
100
AcDbEntity
  8
02
100
AcDbLine
 10
314.4113207547171
 20
465.5034298422402
 30
0.0
 11
314.4113207547166
 21
525.8517251934526
 31
0.0
  0
LINE
  5
3B9
330
A
100
AcDbEntity
  8
02
100
AcDbLine
 10
314.4113207547171
 20
441.2147298422409
 30
0.0
 11
314.4113207547173
 21
380.7294058920334
 31
0.0
  0
LINE
  5
3BA
330
A
100
AcDbEntity
  8
02
100
AcDbLine
 10
304.4113207547171
 20
441.2147298422409
 30
0.0
 11
304.4113207547171
 21
380.7294058920334
 31
0.0
  0
LINE
  5
3BB
330
A
100
AcDbEntity
  8
06
100
AcDbLine
 10
316.6999999999998
 20
161.5700195836267
 30
0.0
 11
318.2999999999998
 21
161.5700195836267
 31
0.0
  0
LINE
  5
3BC
330
A
100
AcDbEntity
  8
06
100
AcDbLine
 10
318.2999999999998
 20
161.5700195836267
 30
0.0
 11
318.2999999999998
 21
164.5700195836266
 31
0.0
  0
LINE
  5
3BD
330
A
100
AcDbEntity
  8
06
100
AcDbLine
 10
318.2999999999998
 20
164.5700195836266
 30
0.0
 11
316.6999999999998
 21
164.5700195836266
 31
0.0
  0
LINE
  5
3C0
330
A
100
AcDbEntity
  8
CHUSIN
 48
0.5
100
AcDbLine
 10
307.3686377252786
 20
165.8700195836264
 30
0.0
 11
318.9281278800399
 21
165.8700195836264
 31
0.0
  0
LINE
  5
3C1
330
A
100
AcDbEntity
  8
CHUSIN
 48
0.5
100
AcDbLine
 10
314.2999999999998
 20
169.7691077787689
 30
0.0
 11
314.2999999999998
 21
161.0577482315343
 31
0.0
  0
LINE
  5
3C4
330
A
100
AcDbEntity
  8
CHUSIN
100
AcDbLine
 10
335.8872675031515
 20
284.1195259368879
 30
0.0
 11
224.5596717642843
 21
284.1195259368879
 31
0.0
  0
LINE
  5
3C5
330
A
100
AcDbEntity
  8
CHUSIN
100
AcDbLine
 10
224.5596717642843
 20
284.119525936888
 30
0.0
 11
196.1634453491898
 21
284.119525936888
 31
0.0
  0
LINE
  5
3C6
330
A
100
AcDbEntity
  8
CHUSIN
100
AcDbLine
 10
196.1634453491898
 20
284.119525936888
 30
0.0
 11
88.5540086121235
 21
284.119525936888
 31
0.0
  0
LINE
  5
3C7
330
A
100
AcDbEntity
  8
CHUSIN
100
AcDbLine
 10
101.2999999999999
 20
87.17001958362661
 30
0.0
 11
121.2999999999997
 21
87.17001958362661
 31
0.0
  0
LINE
  5
3C8
330
A
100
AcDbEntity
  8
CHUSIN
100
AcDbLine
 10
301.2999999999999
 20
87.17001958362661
 30
0.0
 11
321.2999999999999
 21
87.17001958362661
 31
0.0
  0
LINE
  5
3C9
330
A
100
AcDbEntity
  8
CHUSIN
 48
0.5
100
AcDbLine
 10
188.7499999999999
 20
158.5700195836265
 30
0.0
 11
188.7499999999999
 21
164.5700195836266
 31
0.0
  0
LINE
  5
3CA
330
A
100
AcDbEntity
  8
CHUSIN
 48
0.5
100
AcDbLine
 10
231.2499999999999
 20
164.5700195836266
 30
0.0
 11
231.2499999999999
 21
158.5700195836265
 31
0.0
  0
LINE
  5
3CB
330
A
100
AcDbEntity
  8
CHUSIN
100
AcDbLine
 10
234.2499999999997
 20
161.5700195836265
 30
0.0
 11
185.25
 21
161.5700195836265
 31
0.0
  0
LINE
  5
3CC
330
A
100
AcDbEntity
  8
CHUSIN
 48
0.5
100
AcDbLine
 10
209.9999999999999
 20
156.6415399202177
 30
0.0
 11
209.9999999999999
 21
168.5700195836265
 31
0.0
  0
LINE
  5
3CD
330
A
100
AcDbEntity
  8
CHUSIN
100
AcDbLine
 10
210.826415094339
 20
344.2700195836266
 30
0.0
 11
210.8264150943396
 21
489.5006650266297
 31
0.0
  0
LINE
  5
3CE
330
A
100
AcDbEntity
  8
CHUSIN
100
AcDbLine
 10
210.826415094339
 20
494.5006650266297
 30
0.0
 11
210.8264150943396
 21
558.7626061357836
 31
0.0
  0
LINE
  5
3CF
330
A
100
AcDbEntity
  8
CHUSIN
100
AcDbLine
 10
192.8264150943396
 20
425.094569627628
 30
0.0
 11
230.8264150943396
 21
425.094569627628
 31
0.0
  0
LINE
  5
3D0
330
A
100
AcDbEntity
  8
CHUSIN
100
AcDbLine
 10
309.4113207547171
 20
532.5436215358166
 30
0.0
 11
309.4113207547171
 21
446.9983693838781
 31
0.0
  0
LINE
  5
3D1
330
A
100
AcDbEntity
  8
CHUSIN
100
AcDbLine
 10
309.4113207547166
 20
371.7372840037075
 30
0.0
 11
309.4113207547171
 21
460.2050903006038
 31
0.0
  0
LINE
  5
3D2
330
A
100
AcDbEntity
  8
CHUSIN
100
AcDbLine
 10
288.4113207547171
 20
453.3517298422409
 30
0.0
 11
328.4113207547171
 21
453.3517298422409
 31
0.0
  0
LINE
  5
3D3
330
A
100
AcDbEntity
  8
CHUSIN
 48
0.5
100
AcDbLine
 10
312.6999999999998
 20
163.0700195836265
 30
0.0
 11
320.6999999999998
 21
163.0700195836265
 31
0.0
  0
LINE
  5
3D4
330
A
100
AcDbEntity
  8
SOUZOU
100
AcDbLine
 10
209.9999999999999
 20
80.1700195836266
 30
0.0
 11
253.3663811002193
 21
117.317978651668
 31
0.0
  0
LINE
  5
3D5
330
A
100
AcDbEntity
  8
SOUZOU
100
AcDbLine
 10
269.1494919378001
 20
130.8379067730822
 30
0.0
 11
316.6999999999998
 21
171.5700195836263
 31
0.0
  0
LINE
  5
3D6
330
A
100
AcDbEntity
  8
SOUZOU
100
AcDbLine
 10
209.9999999999999
 20
80.1700195836266
 30
0.0
 11
184.8273128101261
 21
101.7331274482418
 31
0.0
  0
LINE
  5
3D7
330
A
100
AcDbEntity
  8
SOUZOU
100
AcDbLine
 10
174.1691442110031
 20
110.8629925837607
 30
0.0
 11
162.1066882669111
 21
121.1957805246228
 31
0.0
  0
LINE
  5
3D8
330
A
100
AcDbEntity
  8
SOUZOU
100
AcDbLine
 10
152.4772826721637
 20
129.4443997501142
 30
0.0
 11
103.2999999999999
 21
171.5700195836263
 31
0.0
  0
TEXT
  5
3EB
330
A
100
AcDbEntity
  8
SUNPOU
100
AcDbText
 10
211.4144796775657
 20
155.775256800022
 30
0.0
 40
5.0
  1
（130）
 50
180.0
 41
0.8
  7
0_8
 11
211.4144796775657
 21
150.775256800022
 31
0.0
100
AcDbText
 73
     3
  0
TEXT
  5
3ED
330
A
100
AcDbEntity
  8
MOJI
100
AcDbText
 10
159.2262180436634
 20
92.07757095876051
 30
0.0
 40
6.0
  1
強化ガラス 10mm,12mm
 50
90.0
 41
0.8
  7
0_8
 11
153.2262180436634
 21
92.07757095876051
 31
0.0
100
AcDbText
 73
     3
  0
LINE
  5
3F0
330
A
100
AcDbEntity
  8
04
100
AcDbLine
 10
103.2999999999999
 20
80.1700195836266
 30
0.0
 11
103.2999999999999
 21
171.5700195836263
 31
0.0
  0
LINE
  5
3F1
330
A
100
AcDbEntity
  8
04
100
AcDbLine
 10
103.2999999999999
 20
171.5700195836263
 30
0.0
 11
316.6999999999998
 21
171.5700195836263
 31
0.0
  0
LINE
  5
3F2
330
A
100
AcDbEntity
  8
04
100
AcDbLine
 10
316.6999999999998
 20
171.5700195836263
 30
0.0
 11
316.6999999999998
 21
80.1700195836266
 31
0.0
  0
LINE
  5
3F3
330
A
100
AcDbEntity
  8
04
100
AcDbLine
 10
316.6999999999998
 20
80.1700195836266
 30
0.0
 11
103.2999999999999
 21
80.1700195836266
 31
0.0
  0
LINE
  5
3F4
330
A
100
AcDbEntity
  8
04
100
AcDbLine
 10
111.7999999999997
 20
81.60001958362661
 30
0.0
 11
111.7999999999997
 21
170.1400195836265
 31
0.0
  0
LINE
  5
3F5
330
A
100
AcDbEntity
  8
04
100
AcDbLine
 10
308.1999999999998
 20
81.60001958362665
 30
0.0
 11
308.1999999999998
 21
170.1400195836265
 31
0.0
  0
CIRCLE
  5
3F6
330
A
100
AcDbEntity
  8
03
100
AcDbCircle
 10
314.3000000000002
 20
165.8700195836264
 30
0.0
 40
1.5
  0
LINE
  5
3F7
330
A
100
AcDbEntity
  8
04
100
AcDbLine
 10
316.6999999999998
 20
171.5700195836263
 30
0.0
 11
316.6999999999998
 21
80.17001958362667
 31
0.0
  0
LINE
  5
422
330
A
100
AcDbEntity
  8
03
100
AcDbLine
 10
182.6705563842748
 20
291.1195259368879
 30
0.0
 11
211.6677838984213
 21
291.1195259368879
 31
0.0
  0
LINE
  5
423
330
A
100
AcDbEntity
  8
03
100
AcDbLine
 10
216.6677838984213
 20
291.1195259368879
 30
0.0
 11
237.3294436157248
 21
291.1195259368879
 31
0.0
  0
LINE
  5
424
330
A
100
AcDbEntity
  8
03
100
AcDbLine
 10
182.6705563842748
 20
277.1195259368876
 30
0.0
 11
211.6677838984213
 21
277.1195259368876
 31
0.0
  0
LINE
  5
425
330
A
100
AcDbEntity
  8
03
100
AcDbLine
 10
216.6677838984213
 20
277.1195259368876
 30
0.0
 11
237.3294436157248
 21
277.1195259368876
 31
0.0
  0
LINE
  5
450
330
A
100
AcDbEntity
  8
04
100
AcDbLine
 10
97.67055638427507
 20
297.1195259368879
 30
0.0
 11
97.67055638427478
 21
271.119525936888
 31
0.0
  0
ARC
  5
451
330
A
100
AcDbEntity
  8
03
100
AcDbCircle
 10
190.5286732070256
 20
289.619525936888
 30
0.0
 40
8.0
100
AcDbArc
 50
169.1930771251396
 51
183.5833216984718
  0
ARC
  5
452
330
A
100
AcDbEntity
  8
03
100
AcDbCircle
 10
190.5286732070256
 20
278.619525936888
 30
0.0
 40
8.0
100
AcDbArc
 50
176.416678301528
 51
190.8069228748603
  0
ARC
  5
453
330
A
100
AcDbEntity
  8
03
100
AcDbCircle
 10
229.4713267929743
 20
289.6195259368878
 30
0.0
 40
8.0
100
AcDbArc
 50
356.416678301528
 51
10.80692287486026
  0
ARC
  5
454
330
A
100
AcDbEntity
  8
03
100
AcDbCircle
 10
229.4713267929743
 20
278.6195259368879
 30
0.0
 40
8.0
100
AcDbArc
 50
349.1930771251396
 51
3.583321698471913
  0
LINE
  5
455
330
A
100
AcDbEntity
  8
04
100
AcDbLine
 10
103.2999999999999
 20
170.1400195836265
 30
0.0
 11
316.6999999999998
 21
170.1400195836265
 31
0.0
  0
LINE
  5
456
330
A
100
AcDbEntity
  8
04
100
AcDbLine
 10
103.2999999999999
 20
81.60001958362661
 30
0.0
 11
316.6999999999998
 21
81.60001958362661
 31
0.0
  0
LINE
  5
457
330
A
100
AcDbEntity
  8
SAISEN
100
AcDbLine
 10
216.667783898421
 20
258.1195259368878
 30
0.0
 11
216.6677838984213
 21
310.1195259368878
 31
0.0
  0
LINE
  5
458
330
A
100
AcDbEntity
  8
SAISEN
100
AcDbLine
 10
211.6677838984213
 20
310.1195259368878
 30
0.0
 11
211.6677838984211
 21
258.1195259368878
 31
0.0
  0
LINE
  5
459
330
A
100
AcDbEntity
  8
03
100
AcDbLine
 10
196.3264150943394
 20
369.394569627628
 30
0.0
 11
196.3264150943394
 21
489.5006650266297
 31
0.0
  0
LINE
  5
45A
330
A
100
AcDbEntity
  8
03
100
AcDbLine
 10
196.3264150943394
 20
494.5006650266297
 30
0.0
 11
196.3264150943394
 21
535.0239217272132
 31
0.0
  0
LINE
  5
45B
330
A
100
AcDbEntity
  8
03
100
AcDbLine
 10
225.3264150943393
 20
369.394569627628
 30
0.0
 11
225.3264150943393
 21
489.5006650266297
 31
0.0
  0
LINE
  5
45C
330
A
100
AcDbEntity
  8
03
100
AcDbLine
 10
225.3264150943393
 20
494.5006650266297
 30
0.0
 11
225.3264150943393
 21
535.0239217272132
 31
0.0
  0
LINE
  5
45D
330
A
100
AcDbEntity
  8
03
100
AcDbLine
 10
202.8264150943396
 20
369.394569627628
 30
0.0
 11
202.8264150943396
 21
489.5006650266297
 31
0.0
  0
LINE
  5
45E
330
A
100
AcDbEntity
  8
03
100
AcDbLine
 10
202.8264150943396
 20
494.5006650266297
 30
0.0
 11
202.8264150943396
 21
535.0239217272132
 31
0.0
  0
LINE
  5
45F
330
A
100
AcDbEntity
  8
03
100
AcDbLine
 10
218.8264150943396
 20
369.394569627628
 30
0.0
 11
218.8264150943396
 21
489.5006650266297
 31
0.0
  0
LINE
  5
460
330
A
100
AcDbEntity
  8
03
100
AcDbLine
 10
218.8264150943396
 20
494.5006650266297
 30
0.0
 11
218.8264150943396
 21
535.0239217272132
 31
0.0
  0
LINE
  5
461
330
A
100
AcDbEntity
  8
SAISEN
100
AcDbLine
 10
191.3264150943394
 20
494.5006650266297
 30
0.0
 11
231.3264150943393
 21
494.5006650266297
 31
0.0
  0
LINE
  5
462
330
A
100
AcDbEntity
  8
SAISEN
100
AcDbLine
 10
231.3264150943393
 20
489.5006650266297
 30
0.0
 11
191.3264150943394
 21
489.5006650266297
 31
0.0
  0
LINE
  5
463
330
A
100
AcDbEntity
  8
03
100
AcDbLine
 10
301.4113207547166
 20
468.7887537924479
 30
0.0
 11
301.4113207547166
 21
525.8517251934526
 31
0.0
  0
LINE
  5
464
330
A
100
AcDbEntity
  8
03
100
AcDbLine
 10
317.4113207547166
 20
468.7887537924479
 30
0.0
 11
317.4113207547166
 21
525.8517251934526
 31
0.0
  0
LINE
  5
465
330
A
100
AcDbEntity
  8
03
100
AcDbLine
 10
294.9113207547166
 20
380.7294058920334
 30
0.0
 11
294.9113207547166
 21
436.5647298422408
 31
0.0
  0
LINE
  5
466
330
A
100
AcDbEntity
  8
03
100
AcDbLine
 10
323.9113207547166
 20
380.7294058920334
 30
0.0
 11
323.9113207547166
 21
436.5647298422408
 31
0.0
  0
LINE
  5
467
330
A
100
AcDbEntity
  8
03
100
AcDbLine
 10
301.4113207547166
 20
380.7294058920334
 30
0.0
 11
301.4113207547166
 21
436.5647298422408
 31
0.0
  0
LINE
  5
468
330
A
100
AcDbEntity
  8
03
100
AcDbLine
 10
317.4113207547166
 20
380.7294058920334
 30
0.0
 11
317.4113207547166
 21
436.5647298422408
 31
0.0
  0
LINE
  5
469
330
A
100
AcDbEntity
  8
03
100
AcDbLine
 10
294.9113207547171
 20
470.1387537924479
 30
0.0
 11
294.9113207547171
 21
525.8517251934526
 31
0.0
  0
LINE
  5
46A
330
A
100
AcDbEntity
  8
03
100
AcDbLine
 10
323.9113207547166
 20
470.2887537924478
 30
0.0
 11
323.9113207547166
 21
525.8517251934526
 31
0.0
  0
CIRCLE
  5
481
330
A
100
AcDbEntity
  8
CHUSIN
100
AcDbCircle
 10
210.8264150943396
 20
425.0945696276279
 30
0.0
 40
7.5
  0
LINE
  5
482
330
A
100
AcDbEntity
  8
CHUSIN
100
AcDbLine
 10
246.1105605315411
 20
552.3016469284376
 30
0.0
 11
176.1105605315411
 21
552.3016469284376
 31
0.0
  0
LINE
  5
487
330
A
100
AcDbEntity
  8
04
100
AcDbLine
 10
238.8294436157249
 20
298.6195259368879
 30
0.0
 11
322.3294436157248
 21
298.6195259368879
 31
0.0
  0
LINE
  5
488
330
A
100
AcDbEntity
  8
04
100
AcDbLine
 10
238.8294436157249
 20
269.6195259368879
 30
0.0
 11
322.3294436157248
 21
269.6195259368879
 31
0.0
  0
LINE
  5
489
330
A
100
AcDbEntity
  8
04
100
AcDbLine
 10
237.3294436157248
 20
297.1195259368879
 30
0.0
 11
237.3294436157248
 21
291.1195259368879
 31
0.0
  0
ARC
  5
48A
330
A
100
AcDbEntity
  8
04
100
AcDbCircle
 10
238.8294436157249
 20
297.1195259368879
 30
0.0
 40
1.5
100
AcDbArc
 50
90.0
 51
180.0
  0
LINE
  5
48B
330
A
100
AcDbEntity
  8
04
100
AcDbLine
 10
237.3294436157248
 20
271.1195259368878
 30
0.0
 11
237.3294436157248
 21
277.1195259368878
 31
0.0
  0
ARC
  5
48C
330
A
100
AcDbEntity
  8
04
100
AcDbCircle
 10
238.8294436157249
 20
271.1195259368878
 30
0.0
 40
1.5
100
AcDbArc
 50
179.9999999999999
 51
269.9999999999999
  0
LINE
  5
491
330
A
100
AcDbEntity
  8
04
100
AcDbLine
 10
181.170556384275
 20
298.619525936888
 30
0.0
 11
97.67055638427478
 21
298.619525936888
 31
0.0
  0
LINE
  5
492
330
A
100
AcDbEntity
  8
04
100
AcDbLine
 10
181.170556384275
 20
269.619525936888
 30
0.0
 11
97.67055638427478
 21
269.619525936888
 31
0.0
  0
LINE
  5
493
330
A
100
AcDbEntity
  8
04
100
AcDbLine
 10
182.6705563842748
 20
297.1195259368879
 30
0.0
 11
182.6705563842748
 21
291.119525936888
 31
0.0
  0
ARC
  5
494
330
A
100
AcDbEntity
  8
04
100
AcDbCircle
 10
181.170556384275
 20
297.1195259368879
 30
0.0
 40
1.5
100
AcDbArc
 50
0.0000000000000369
 51
90.0
  0
LINE
  5
495
330
A
100
AcDbEntity
  8
04
100
AcDbLine
 10
182.6705563842748
 20
271.119525936888
 30
0.0
 11
182.6705563842748
 21
277.119525936888
 31
0.0
  0
ARC
  5
496
330
A
100
AcDbEntity
  8
04
100
AcDbCircle
 10
181.170556384275
 20
271.119525936888
 30
0.0
 40
1.5
100
AcDbArc
 50
270.0
 51
0.0000000000000799
  0
LINE
  5
4EB
330
A
100
AcDbEntity
  8
04
100
AcDbLine
 10
322.3294436157248
 20
269.6195259368879
 30
0.0
 11
322.3294436157248
 21
271.1195259368878
 31
0.0
  0
LINE
  5
4EC
330
A
100
AcDbEntity
  8
04
100
AcDbLine
 10
322.3294436157248
 20
298.6195259368879
 30
0.0
 11
322.3294436157248
 21
297.1195259368879
 31
0.0
  0
LINE
  5
4ED
330
A
100
AcDbEntity
  8
04
100
AcDbLine
 10
97.67055638427478
 20
269.619525936888
 30
0.0
 11
97.67055638427478
 21
271.119525936888
 31
0.0
  0
LINE
  5
4EE
330
A
100
AcDbEntity
  8
04
100
AcDbLine
 10
97.67055638427478
 20
297.1195259368879
 30
0.0
 11
97.67055638427478
 21
298.619525936888
 31
0.0
  0
LINE
  5
4FB
330
A
100
AcDbEntity
  8
03
100
AcDbLine
 10
97.67055638427507
 20
268.1195259368879
 30
0.0
 11
211.6677838984213
 21
268.1195259368879
 31
0.0
  0
LINE
  5
4FC
330
A
100
AcDbEntity
  8
03
100
AcDbLine
 10
216.6677838984213
 20
268.1195259368879
 30
0.0
 11
322.3294436157248
 21
268.1195259368879
 31
0.0
  0
LINE
  5
4FD
330
A
100
AcDbEntity
  8
03
100
AcDbLine
 10
97.67055638427507
 20
300.1195259368878
 30
0.0
 11
211.6677838984213
 21
300.1195259368878
 31
0.0
  0
LINE
  5
4FE
330
A
100
AcDbEntity
  8
03
100
AcDbLine
 10
216.6677838984213
 20
300.1195259368878
 30
0.0
 11
322.3294436157248
 21
300.1195259368878
 31
0.0
  0
LINE
  5
4FF
330
A
100
AcDbEntity
  8
03
100
AcDbLine
 10
322.3294436157248
 20
268.1195259368879
 30
0.0
 11
322.3294436157248
 21
269.6195259368879
 31
0.0
  0
LINE
  5
500
330
A
100
AcDbEntity
  8
03
100
AcDbLine
 10
322.3294436157248
 20
300.1195259368878
 30
0.0
 11
322.3294436157248
 21
298.6195259368879
 31
0.0
  0
LINE
  5
501
330
A
100
AcDbEntity
  8
04
100
AcDbLine
 10
202.8264150943396
 20
535.0239217272132
 30
0.0
 11
196.3264150943396
 21
535.0239217272132
 31
0.0
  0
LINE
  5
502
330
A
100
AcDbEntity
  8
04
100
AcDbLine
 10
194.8264150943396
 20
536.5239217272131
 30
0.0
 11
194.8264150943396
 21
545.8092456774208
 31
0.0
  0
ARC
  5
503
330
A
100
AcDbEntity
  8
04
100
AcDbCircle
 10
196.3264150943396
 20
536.5239217272131
 30
0.0
 40
1.5
100
AcDbArc
 50
179.9999999999999
 51
269.9999999999999
  0
LINE
  5
504
330
A
100
AcDbEntity
  8
04
100
AcDbLine
 10
196.0145475581128
 20
547.2764670785213
 30
0.0
 11
205.5422696571381
 21
549.3016469284376
 31
0.0
  0
ARC
  5
505
330
A
100
AcDbEntity
  8
04
100
AcDbCircle
 10
196.3264150943396
 20
545.8092456774208
 30
0.0
 40
1.5
100
AcDbArc
 50
101.9999999999999
 51
180.0
  0
LINE
  5
506
330
A
100
AcDbEntity
  8
04
100
AcDbLine
 10
205.8541371933648
 20
547.8344255273371
 30
0.0
 11
196.3264150943396
 21
545.8092456774208
 31
0.0
  0
LINE
  5
507
330
A
100
AcDbEntity
  8
04
100
AcDbLine
 10
196.3264150943396
 20
545.8092456774208
 30
0.0
 11
196.3264150943396
 21
536.5239217272131
 31
0.0
  0
LINE
  5
508
330
A
100
AcDbEntity
  8
04
100
AcDbLine
 10
196.3264150943396
 20
536.5239217272131
 30
0.0
 11
202.8264150943396
 21
536.5239217272131
 31
0.0
  0
LINE
  5
509
330
A
100
AcDbEntity
  8
04
100
AcDbLine
 10
202.8264150943396
 20
536.5239217272131
 30
0.0
 11
202.8264150943396
 21
535.0239217272132
 31
0.0
  0
LINE
  5
50A
330
A
100
AcDbEntity
  8
04
100
AcDbLine
 10
205.5422696571381
 20
549.3016469284376
 30
0.0
 11
205.8541371933648
 21
547.8344255273371
 31
0.0
  0
LINE
  5
50B
330
A
100
AcDbEntity
  8
04
100
AcDbLine
 10
218.8264150943396
 20
535.0239217272132
 30
0.0
 11
225.3264150943396
 21
535.0239217272132
 31
0.0
  0
LINE
  5
50C
330
A
100
AcDbEntity
  8
04
100
AcDbLine
 10
226.8264150943396
 20
536.5239217272131
 30
0.0
 11
226.8264150943396
 21
545.8092456774208
 31
0.0
  0
ARC
  5
50D
330
A
100
AcDbEntity
  8
04
100
AcDbCircle
 10
225.3264150943396
 20
536.5239217272131
 30
0.0
 40
1.5
100
AcDbArc
 50
269.9999999999999
 51
359.9999999999998
  0
LINE
  5
50E
330
A
100
AcDbEntity
  8
04
100
AcDbLine
 10
225.6382826305662
 20
547.2764670785213
 30
0.0
 11
216.1105605315411
 21
549.3016469284376
 31
0.0
  0
ARC
  5
50F
330
A
100
AcDbEntity
  8
04
100
AcDbCircle
 10
225.3264150943396
 20
545.8092456774208
 30
0.0
 40
1.5
100
AcDbArc
 50
359.9999999999998
 51
77.99999999999996
  0
LINE
  5
510
330
A
100
AcDbEntity
  8
04
100
AcDbLine
 10
215.7986929953144
 20
547.8344255273371
 30
0.0
 11
225.3264150943396
 21
545.8092456774206
 31
0.0
  0
LINE
  5
511
330
A
100
AcDbEntity
  8
04
100
AcDbLine
 10
225.3264150943396
 20
545.8092456774206
 30
0.0
 11
225.3264150943396
 21
536.5239217272131
 31
0.0
  0
LINE
  5
512
330
A
100
AcDbEntity
  8
04
100
AcDbLine
 10
225.3264150943396
 20
536.5239217272131
 30
0.0
 11
218.8264150943396
 21
536.5239217272131
 31
0.0
  0
LINE
  5
513
330
A
100
AcDbEntity
  8
04
100
AcDbLine
 10
218.8264150943396
 20
536.5239217272131
 30
0.0
 11
218.8264150943396
 21
535.0239217272132
 31
0.0
  0
LINE
  5
514
330
A
100
AcDbEntity
  8
04
100
AcDbLine
 10
216.1105605315411
 20
549.3016469284376
 30
0.0
 11
215.7986929953144
 21
547.8344255273371
 31
0.0
  0
LINE
  5
515
330
A
100
AcDbEntity
  8
04
100
AcDbLine
 10
202.8264150943396
 20
369.394569627628
 30
0.0
 11
196.3264150943394
 21
369.394569627628
 31
0.0
  0
LINE
  5
516
330
A
100
AcDbEntity
  8
04
100
AcDbLine
 10
194.8264150943394
 20
367.8945696276282
 30
0.0
 11
194.8264150943394
 21
358.6092456774208
 31
0.0
  0
ARC
  5
517
330
A
100
AcDbEntity
  8
04
100
AcDbCircle
 10
196.3264150943394
 20
367.8945696276282
 30
0.0
 40
1.5
100
AcDbArc
 50
90.0
 51
180.0
  0
LINE
  5
518
330
A
100
AcDbEntity
  8
04
100
AcDbLine
 10
196.0145475581128
 20
357.14202427632
 30
0.0
 11
205.5422696571381
 21
355.1168444264036
 31
0.0
  0
ARC
  5
519
330
A
100
AcDbEntity
  8
04
100
AcDbCircle
 10
196.3264150943394
 20
358.6092456774208
 30
0.0
 40
1.5
100
AcDbArc
 50
179.9999999999993
 51
258.0000000000004
  0
LINE
  5
51A
330
A
100
AcDbEntity
  8
04
100
AcDbLine
 10
205.8541371933648
 20
356.5840658275043
 30
0.0
 11
196.3264150943396
 21
358.6092456774206
 31
0.0
  0
LINE
  5
51B
330
A
100
AcDbEntity
  8
04
100
AcDbLine
 10
196.3264150943396
 20
358.6092456774206
 30
0.0
 11
196.3264150943396
 21
367.8945696276282
 31
0.0
  0
LINE
  5
51C
330
A
100
AcDbEntity
  8
04
100
AcDbLine
 10
196.3264150943396
 20
367.8945696276282
 30
0.0
 11
202.8264150943396
 21
367.8945696276282
 31
0.0
  0
LINE
  5
51D
330
A
100
AcDbEntity
  8
04
100
AcDbLine
 10
202.8264150943396
 20
367.8945696276282
 30
0.0
 11
202.8264150943396
 21
369.394569627628
 31
0.0
  0
LINE
  5
51E
330
A
100
AcDbEntity
  8
04
100
AcDbLine
 10
205.5422696571381
 20
355.1168444264036
 30
0.0
 11
205.8541371933648
 21
356.5840658275043
 31
0.0
  0
LINE
  5
51F
330
A
100
AcDbEntity
  8
04
100
AcDbLine
 10
218.8264150943396
 20
369.394569627628
 30
0.0
 11
225.3264150943396
 21
369.394569627628
 31
0.0
  0
LINE
  5
520
330
A
100
AcDbEntity
  8
04
100
AcDbLine
 10
226.8264150943398
 20
367.8945696276282
 30
0.0
 11
226.8264150943396
 21
358.6092456774206
 31
0.0
  0
ARC
  5
521
330
A
100
AcDbEntity
  8
04
100
AcDbCircle
 10
225.3264150943396
 20
367.8945696276282
 30
0.0
 40
1.5
100
AcDbArc
 50
359.9999999999997
 51
90.0
  0
LINE
  5
522
330
A
100
AcDbEntity
  8
04
100
AcDbLine
 10
225.6382826305662
 20
357.14202427632
 30
0.0
 11
216.1105605315411
 21
355.1168444264036
 31
0.0
  0
ARC
  5
523
330
A
100
AcDbEntity
  8
04
100
AcDbCircle
 10
225.3264150943393
 20
358.6092456774208
 30
0.0
 40
1.5
100
AcDbArc
 50
282.0000000000007
 51
359.9999999999984
  0
LINE
  5
524
330
A
100
AcDbEntity
  8
04
100
AcDbLine
 10
215.7986929953143
 20
356.5840658275043
 30
0.0
 11
225.3264150943396
 21
358.6092456774206
 31
0.0
  0
LINE
  5
525
330
A
100
AcDbEntity
  8
04
100
AcDbLine
 10
225.3264150943396
 20
358.6092456774206
 30
0.0
 11
225.3264150943396
 21
367.8945696276282
 31
0.0
  0
LINE
  5
526
330
A
100
AcDbEntity
  8
04
100
AcDbLine
 10
225.3264150943396
 20
367.8945696276282
 30
0.0
 11
218.8264150943396
 21
367.8945696276282
 31
0.0
  0
LINE
  5
527
330
A
100
AcDbEntity
  8
04
100
AcDbLine
 10
218.8264150943396
 20
367.8945696276282
 30
0.0
 11
218.8264150943396
 21
369.394569627628
 31
0.0
  0
LINE
  5
528
330
A
100
AcDbEntity
  8
04
100
AcDbLine
 10
216.1105605315411
 20
355.1168444264036
 30
0.0
 11
215.7986929953143
 21
356.5840658275043
 31
0.0
  0
LINE
  5
529
330
A
100
AcDbEntity
  8
03
100
AcDbLine
 10
97.67055638427478
 20
298.619525936888
 30
0.0
 11
97.67055638427507
 21
300.1195259368878
 31
0.0
  0
LINE
  5
52A
330
A
100
AcDbEntity
  8
03
100
AcDbLine
 10
97.67055638427507
 20
268.1195259368879
 30
0.0
 11
97.67055638427478
 21
269.619525936888
 31
0.0
  0
LINE
  5
52B
330
A
100
AcDbEntity
  8
CHUSIN
100
AcDbLine
 10
176.1105605315411
 20
352.1168444264036
 30
0.0
 11
246.1105605315411
 21
352.1168444264036
 31
0.0
  0
LINE
  5
52C
330
A
100
AcDbEntity
  8
06
100
AcDbLine
 10
206.3264150943396
 20
549.4092456774207
 30
0.0
 11
202.8216805398534
 21
548.7233678599507
 31
0.0
  0
LINE
  5
52D
330
A
100
AcDbEntity
  8
06
100
AcDbLine
 10
208.3264150943396
 20
550.9092456774208
 30
0.0
 11
203.1981810334918
 21
549.8083116391722
 31
0.0
  0
LINE
  5
52E
330
A
100
AcDbEntity
  8
06
100
AcDbLine
 10
215.3264150943396
 20
549.4092456774207
 30
0.0
 11
218.8310554716359
 21
548.7233878779306
 31
0.0
  0
LINE
  5
52F
330
A
100
AcDbEntity
  8
06
100
AcDbLine
 10
218.4545549779973
 20
549.8095630428628
 30
0.0
 11
213.3264150943386
 21
550.9276257642949
 31
0.0
  0
LINE
  5
530
330
A
100
AcDbEntity
  8
06
100
AcDbLine
 10
202.8216805398534
 20
355.6951234948905
 30
0.0
 11
206.3264150943396
 21
355.0092456774206
 31
0.0
  0
LINE
  5
531
330
A
100
AcDbEntity
  8
06
100
AcDbLine
 10
208.3264150943396
 20
353.5092456774206
 30
0.0
 11
203.1981810334918
 21
354.6101797156693
 31
0.0
  0
LINE
  5
532
330
A
100
AcDbEntity
  8
06
100
AcDbLine
 10
218.831055471637
 20
355.695103476911
 30
0.0
 11
215.3264150943396
 21
355.0092456774206
 31
0.0
  0
LINE
  5
533
330
A
100
AcDbEntity
  8
06
100
AcDbLine
 10
218.454554977998
 20
354.6089283119786
 30
0.0
 11
213.3264150943396
 21
353.5092456774206
 31
0.0
  0
LINE
  5
534
330
A
100
AcDbEntity
  8
06
100
AcDbLine
 10
304.9113207547171
 20
455.9034298422402
 30
0.0
 11
301.4065862002323
 21
456.5893076597101
 31
0.0
  0
LINE
  5
535
330
A
100
AcDbEntity
  8
06
100
AcDbLine
 10
301.7830866938707
 20
455.5043638804886
 30
0.0
 11
306.9113207547171
 21
454.4034298422404
 31
0.0
  0
LINE
  5
536
330
A
100
AcDbEntity
  8
06
100
AcDbLine
 10
306.9113207547171
 20
452.314729842241
 30
0.0
 11
301.7830866938675
 21
451.2137958039922
 31
0.0
  0
LINE
  5
537
330
A
100
AcDbEntity
  8
06
100
AcDbLine
 10
304.9113207547171
 20
450.8147298422409
 30
0.0
 11
301.4065862002291
 21
450.1288520247706
 31
0.0
  0
LINE
  5
538
330
A
100
AcDbEntity
  8
06
100
AcDbLine
 10
313.9113207547166
 20
455.9034298422402
 30
0.0
 11
317.4159611320165
 21
456.5892876417311
 31
0.0
  0
LINE
  5
539
330
A
100
AcDbEntity
  8
06
100
AcDbLine
 10
317.0394606383773
 20
455.5031124767987
 30
0.0
 11
311.9113207547171
 21
454.4034298422404
 31
0.0
  0
LINE
  5
53A
330
A
100
AcDbEntity
  8
06
100
AcDbLine
 10
311.9113207547171
 20
452.314729842241
 30
0.0
 11
317.0394606383766
 21
451.2150472076826
 31
0.0
  0
LINE
  5
53B
330
A
100
AcDbEntity
  8
06
100
AcDbLine
 10
313.9113207547166
 20
450.8147298422409
 30
0.0
 11
317.4159611320154
 21
450.1288720427502
 31
0.0
  0
LINE
  5
53C
330
A
100
AcDbEntity
  8
04
100
AcDbLine
 10
317.4113207547171
 20
470.1387537924479
 30
0.0
 11
324.9113207547171
 21
470.1387537924476
 31
0.0
  0
LINE
  5
53D
330
A
100
AcDbEntity
  8
04
100
AcDbLine
 10
325.4113207547171
 20
469.6387537924477
 30
0.0
 11
325.4113207547171
 21
458.5436458090454
 31
0.0
  0
ARC
  5
53E
330
A
100
AcDbEntity
  8
04
100
AcDbCircle
 10
324.9113207547171
 20
469.6387537924477
 30
0.0
 40
0.5
100
AcDbArc
 50
0.0000000000002913
 51
90.0
  0
LINE
  5
53F
330
A
100
AcDbEntity
  8
04
100
AcDbLine
 10
325.0152766001259
 20
458.0545720086785
 30
0.0
 11
314.6516971466451
 21
455.8517251934524
 31
0.0
  0
ARC
  5
540
330
A
100
AcDbEntity
  8
04
100
AcDbCircle
 10
324.9113207547171
 20
458.5436458090454
 30
0.0
 40
0.5
100
AcDbArc
 50
282.0000000000001
 51
0.0000000000002398
  0
LINE
  5
541
330
A
100
AcDbEntity
  8
04
100
AcDbLine
 10
314.3398296104181
 20
457.3189465945532
 30
0.0
 11
323.9113207547166
 21
459.3534298422404
 31
0.0
  0
LINE
  5
542
330
A
100
AcDbEntity
  8
04
100
AcDbLine
 10
323.9113207547166
 20
459.3534298422404
 30
0.0
 11
323.9113207547166
 21
468.6387537924478
 31
0.0
  0
LINE
  5
543
330
A
100
AcDbEntity
  8
04
100
AcDbLine
 10
323.9113207547166
 20
468.6387537924478
 30
0.0
 11
317.4113207547171
 21
468.6387537924478
 31
0.0
  0
LINE
  5
544
330
A
100
AcDbEntity
  8
04
100
AcDbLine
 10
314.6516971466451
 20
455.8517251934524
 30
0.0
 11
314.3398296104181
 21
457.3189465945532
 31
0.0
  0
LINE
  5
545
330
A
100
AcDbEntity
  8
04
100
AcDbLine
 10
317.4113207547171
 20
468.6387537924478
 30
0.0
 11
317.4113207547171
 21
470.1387537924479
 31
0.0
  0
LINE
  5
546
330
A
100
AcDbEntity
  8
04
100
AcDbLine
 10
301.4113207547166
 20
470.1387537924479
 30
0.0
 11
293.9113207547169
 21
470.1387537924476
 31
0.0
  0
LINE
  5
547
330
A
100
AcDbEntity
  8
04
100
AcDbLine
 10
293.411320754717
 20
469.6387537924477
 30
0.0
 11
293.4113207547166
 21
458.5436458090454
 31
0.0
  0
ARC
  5
548
330
A
100
AcDbEntity
  8
04
100
AcDbCircle
 10
293.9113207547169
 20
469.6387537924477
 30
0.0
 40
0.5
100
AcDbArc
 50
90.0
 51
179.9999999999995
  0
LINE
  5
549
330
A
100
AcDbEntity
  8
04
100
AcDbLine
 10
293.807364909308
 20
458.0545720086785
 30
0.0
 11
304.1709443627888
 21
455.8517251934524
 31
0.0
  0
ARC
  5
54A
330
A
100
AcDbEntity
  8
04
100
AcDbCircle
 10
293.9113207547169
 20
458.5436458090454
 30
0.0
 40
0.5
100
AcDbArc
 50
179.9999999999995
 51
257.9999999999996
  0
LINE
  5
54B
330
A
100
AcDbEntity
  8
04
100
AcDbLine
 10
304.4828118990154
 20
457.3189465945532
 30
0.0
 11
294.9113207547171
 21
459.3534298422404
 31
0.0
  0
LINE
  5
54C
330
A
100
AcDbEntity
  8
04
100
AcDbLine
 10
294.9113207547171
 20
459.3534298422404
 30
0.0
 11
294.9113207547171
 21
468.6387537924478
 31
0.0
  0
LINE
  5
54D
330
A
100
AcDbEntity
  8
04
100
AcDbLine
 10
294.9113207547171
 20
468.6387537924478
 30
0.0
 11
301.4113207547166
 21
468.6387537924478
 31
0.0
  0
LINE
  5
54E
330
A
100
AcDbEntity
  8
04
100
AcDbLine
 10
304.1709443627888
 20
455.8517251934524
 30
0.0
 11
304.4828118990154
 21
457.3189465945532
 31
0.0
  0
LINE
  5
54F
330
A
100
AcDbEntity
  8
04
100
AcDbLine
 10
301.4113207547166
 20
468.6387537924478
 30
0.0
 11
301.4113207547166
 21
470.1387537924479
 31
0.0
  0
LINE
  5
550
330
A
100
AcDbEntity
  8
04
100
AcDbLine
 10
317.4113207547166
 20
436.5647298422408
 30
0.0
 11
324.9113207547171
 21
436.5647298422409
 31
0.0
  0
LINE
  5
551
330
A
100
AcDbEntity
  8
04
100
AcDbLine
 10
325.4113207547171
 20
437.064729842241
 30
0.0
 11
325.4113207547171
 21
448.1598378256433
 31
0.0
  0
ARC
  5
552
330
A
100
AcDbEntity
  8
04
100
AcDbCircle
 10
324.9113207547171
 20
437.064729842241
 30
0.0
 40
0.5
100
AcDbArc
 50
269.9999999999999
 51
359.9999999999997
  0
LINE
  5
553
330
A
100
AcDbEntity
  8
04
100
AcDbLine
 10
325.0152766001259
 20
448.6489116260101
 30
0.0
 11
314.6516971466451
 21
450.8517584412362
 31
0.0
  0
ARC
  5
554
330
A
100
AcDbEntity
  8
04
100
AcDbCircle
 10
324.9113207547171
 20
448.1598378256433
 30
0.0
 40
0.5
100
AcDbArc
 50
359.9999999999997
 51
77.99999999999956
  0
LINE
  5
555
330
A
100
AcDbEntity
  8
04
100
AcDbLine
 10
314.3398296104181
 20
449.3845370401356
 30
0.0
 11
323.9113207547166
 21
447.3500537924484
 31
0.0
  0
LINE
  5
556
330
A
100
AcDbEntity
  8
04
100
AcDbLine
 10
323.9113207547166
 20
447.3500537924484
 30
0.0
 11
323.9113207547166
 21
438.0647298422409
 31
0.0
  0
LINE
  5
557
330
A
100
AcDbEntity
  8
04
100
AcDbLine
 10
323.9113207547166
 20
438.0647298422409
 30
0.0
 11
317.4113207547171
 21
438.064729842241
 31
0.0
  0
LINE
  5
558
330
A
100
AcDbEntity
  8
04
100
AcDbLine
 10
314.6516971466451
 20
450.8517584412362
 30
0.0
 11
314.3398296104181
 21
449.3845370401356
 31
0.0
  0
LINE
  5
559
330
A
100
AcDbEntity
  8
04
100
AcDbLine
 10
317.4113207547171
 20
438.064729842241
 30
0.0
 11
317.4113207547166
 21
436.5647298422408
 31
0.0
  0
LINE
  5
55A
330
A
100
AcDbEntity
  8
04
100
AcDbLine
 10
301.4113207547166
 20
436.5647298422408
 30
0.0
 11
293.9113207547169
 21
436.5647298422409
 31
0.0
  0
LINE
  5
55B
330
A
100
AcDbEntity
  8
04
100
AcDbLine
 10
293.411320754717
 20
437.064729842241
 30
0.0
 11
293.4113207547166
 21
448.1598378256433
 31
0.0
  0
ARC
  5
55C
330
A
100
AcDbEntity
  8
04
100
AcDbCircle
 10
293.9113207547169
 20
437.064729842241
 30
0.0
 40
0.5
100
AcDbArc
 50
180.0000000000002
 51
269.9999999999999
  0
LINE
  5
55D
330
A
100
AcDbEntity
  8
04
100
AcDbLine
 10
293.807364909308
 20
448.6489116260101
 30
0.0
 11
304.1709443627888
 21
450.8517584412362
 31
0.0
  0
ARC
  5
55E
330
A
100
AcDbEntity
  8
04
100
AcDbCircle
 10
293.9113207547169
 20
448.1598378256433
 30
0.0
 40
0.5
100
AcDbArc
 50
102.0000000000002
 51
180.0000000000001
  0
LINE
  5
55F
330
A
100
AcDbEntity
  8
04
100
AcDbLine
 10
304.4828118990154
 20
449.3845370401356
 30
0.0
 11
294.9113207547171
 21
447.3500537924484
 31
0.0
  0
LINE
  5
560
330
A
100
AcDbEntity
  8
04
100
AcDbLine
 10
294.9113207547171
 20
447.3500537924484
 30
0.0
 11
294.9113207547171
 21
438.0647298422409
 31
0.0
  0
LINE
  5
561
330
A
100
AcDbEntity
  8
04
100
AcDbLine
 10
294.9113207547171
 20
438.0647298422409
 30
0.0
 11
301.4113207547166
 21
438.064729842241
 31
0.0
  0
LINE
  5
562
330
A
100
AcDbEntity
  8
04
100
AcDbLine
 10
304.1709443627888
 20
450.8517584412362
 30
0.0
 11
304.4828118990154
 21
449.3845370401356
 31
0.0
  0
LINE
  5
563
330
A
100
AcDbEntity
  8
04
100
AcDbLine
 10
301.4113207547166
 20
438.064729842241
 30
0.0
 11
301.4113207547166
 21
436.5647298422408
 31
0.0
  0
TEXT
  5
564
330
A
100
AcDbEntity
  8
MOJI
100
AcDbText
 10
183.0249592429613
 20
530.4366919778717
 30
0.0
 40
6.0
  1
戸先側
 50
90.0
 41
0.8
  7
0_8
 11
180.0249592429613
 21
530.4366919778717
 31
0.0
100
AcDbText
 73
     2
  0
POLYLINE
  5
7C7
330
A
100
AcDbEntity
  8
DEFPOINTS
100
AcDb2dPolyline
 66
     1
 10
0.0
 20
0.0
 30
0.0
 70
     1
  0
VERTEX
  5
1654
330
7C7
100
AcDbEntity
  8
DEFPOINTS
100
AcDbVertex
100
AcDb2dVertex
 10
0.0
 20
0.0
 30
0.0
  0
VERTEX
  5
1655
330
7C7
100
AcDbEntity
  8
DEFPOINTS
100
AcDbVertex
100
AcDb2dVertex
 10
420.0
 20
0.0
 30
0.0
  0
VERTEX
  5
1656
330
7C7
100
AcDbEntity
  8
DEFPOINTS
100
AcDbVertex
100
AcDb2dVertex
 10
420.0
 20
594.0
 30
0.0
  0
VERTEX
  5
1657
330
7C7
100
AcDbEntity
  8
DEFPOINTS
100
AcDbVertex
100
AcDb2dVertex
 10
0.0
 20
594.0
 30
0.0
  0
SEQEND
  5
1658
330
7C7
100
AcDbEntity
  8
DEFPOINTS
  0
DIMENSION
  5
7E3
330
A
100
AcDbEntity
  8
SUNPOU
100
AcDbDimension
  2
*D1
 10
344.8833179297593
 20
455.8517251934524
 30
0.0
 11
340.3833179297591
 21
453.3517418173445
 31
0.0
 70
    32
  3
SUNPOU_2
100
AcDbAlignedDimension
 13
304.1709443627888
 23
450.8517584412362
 33
0.0
 14
304.1709443627888
 24
455.8517251934524
 34
0.0
 50
90.0
100
AcDbRotatedDimension
  0
DIMENSION
  5
7F2
330
A
100
AcDbEntity
  8
SUNPOU
100
AcDbDimension
  2
*D2
 10
168.5449579706435
 20
355.1168444264036
 30
0.0
 11
164.0449579706436
 21
344.8699821309193
 31
0.0
 70
   160
  3
SUNPOU_2
100
AcDbAlignedDimension
 13
176.1105605315411
 23
352.1168444264036
 33
0.0
 14
205.5422696571381
 24
355.1168444264036
 34
0.0
 50
90.0
100
AcDbRotatedDimension
  0
DIMENSION
  5
801
330
A
100
AcDbEntity
  8
SUNPOU
100
AcDbDimension
  2
*D3
 10
168.5449579706435
 20
425.094569627628
 30
0.0
 11
164.0449579706436
 21
390.1057070270158
 31
0.0
 70
    32
  3
SUNPOU_2
100
AcDbAlignedDimension
 13
205.5422696571381
 23
355.1168444264036
 33
0.0
 14
192.8264150943396
 24
425.094569627628
 34
0.0
 50
90.0
100
AcDbRotatedDimension
  0
DIMENSION
  5
80E
330
A
100
AcDbEntity
  8
SUNPOU
100
AcDbDimension
  2
*D4
 10
257.4448348620649
 20
355.1168444264036
 30
0.0
 11
252.9448348620649
 21
344.2331619745846
 31
0.0
 70
   160
  3
SUNPOU_2
100
AcDbAlignedDimension
 13
246.1105605315411
 23
352.1168444264036
 33
0.0
 14
216.1105605315411
 24
355.1168444264036
 34
0.0
 50
90.0
100
AcDbRotatedDimension
  0
DIMENSION
  5
81D
330
A
100
AcDbEntity
  8
SUNPOU
100
AcDbDimension
  2
*D5
 10
257.444834862065
 20
549.3016469284376
 30
0.0
 11
252.9448348620649
 21
452.2092456774206
 31
0.0
 70
    32
  1
DW
  3
SUNPOU_2
100
AcDbAlignedDimension
 13
216.1105605315411
 23
355.1168444264036
 33
0.0
 14
216.1105605315411
 24
549.3016469284376
 34
0.0
 50
90.0
100
AcDbRotatedDimension
  0
DIMENSION
  5
82A
330
A
100
AcDbEntity
  8
SUNPOU
100
AcDbDimension
  2
*D6
 10
257.444834862065
 20
552.3016469284376
 30
0.0
 11
252.9448348620649
 21
560.0665533776306
 31
0.0
 70
   160
  3
SUNPOU_2
100
AcDbAlignedDimension
 13
216.1105605315411
 23
549.3016469284376
 33
0.0
 14
246.1105605315411
 24
552.3016469284376
 34
0.0
 50
90.0
100
AcDbRotatedDimension
  0
DIMENSION
  5
863
330
A
100
AcDbEntity
  8
SUNPOU
100
AcDbDimension
  2
*D7
 10
185.5920248758031
 20
369.394569627628
 30
0.0
 11
181.092024875803
 21
362.2557070270158
 31
0.0
 70
    32
  3
SUNPOU_2
100
AcDbAlignedDimension
 13
205.5422696571381
 23
355.1168444264036
 33
0.0
 14
196.3264150943394
 24
369.394569627628
 34
0.0
 50
90.0
100
AcDbRotatedDimension
  0
DIMENSION
  5
872
330
A
100
AcDbEntity
  8
SUNPOU
100
AcDbDimension
  2
*D8
 10
226.8264150943398
 20
403.7089537627307
 30
0.0
 11
210.8264150943393
 21
399.2089537627307
 31
0.0
 70
   160
 53
180.0
  3
SUNPOU_2
100
AcDbAlignedDimension
 13
194.8264150943394
 23
367.8945696276282
 33
0.0
 14
226.8264150943398
 24
367.8945696276282
 34
0.0
100
AcDbRotatedDimension
  0
DIMENSION
  5
888
330
A
100
AcDbEntity
  8
SUNPOU
100
AcDbDimension
  2
*D9
 10
225.3264150943393
 20
390.7383593783702
 30
0.0
 11
210.8264150943393
 21
386.2383593783702
 31
0.0
 70
   160
 53
180.0
  3
SUNPOU_2
100
AcDbAlignedDimension
 13
196.3264150943394
 23
369.394569627628
 33
0.0
 14
225.3264150943393
 24
369.394569627628
 34
0.0
100
AcDbRotatedDimension
  0
DIMENSION
  5
895
330
A
100
AcDbEntity
  8
SUNPOU
100
AcDbDimension
  2
*D10
 10
226.8264150943398
 20
390.7383593783702
 30
0.0
 11
235.7339480969416
 21
386.2383593783702
 31
0.0
 70
   160
 53
180.0
  3
SUNPOU_2
100
AcDbAlignedDimension
 13
225.3264150943393
 23
369.394569627628
 33
0.0
 14
226.8264150943398
 24
367.8945696276282
 34
0.0
100
AcDbRotatedDimension
  0
DIMENSION
  5
8A4
330
A
100
AcDbEntity
  8
SUNPOU
100
AcDbDimension
  2
*D11
 10
196.3264150943394
 20
390.7383593783702
 30
0.0
 11
185.0966099685629
 21
386.2383593783702
 31
0.0
 70
   160
 53
180.0
  3
SUNPOU_2
100
AcDbAlignedDimension
 13
194.8264150943394
 23
367.8945696276282
 33
0.0
 14
196.3264150943394
 24
369.394569627628
 34
0.0
100
AcDbRotatedDimension
  0
DIMENSION
  5
970
330
A
100
AcDbEntity
  8
SUNPOU
100
AcDbDimension
  2
*D12
 10
182.6705563842748
 20
250.0061265380728
 30
0.0
 11
140.1705563842749
 21
245.5061265380728
 31
0.0
 70
   160
 53
180.0
  3
SUNPOU_2
100
AcDbAlignedDimension
 13
97.67055638427507
 23
268.1195259368879
 33
0.0
 14
182.6705563842748
 24
271.119525936888
 34
0.0
100
AcDbRotatedDimension
  0
DIMENSION
  5
97D
330
A
100
AcDbEntity
  8
SUNPOU
100
AcDbDimension
  2
*D13
 10
322.3294436157248
 20
250.0061265380725
 30
0.0
 11
279.8294436157249
 21
245.5061265380725
 31
0.0
 70
   160
 53
180.0
  3
SUNPOU_2
100
AcDbAlignedDimension
 13
237.3294436157248
 23
271.1195259368878
 33
0.0
 14
322.3294436157248
 24
268.1195259368879
 34
0.0
100
AcDbRotatedDimension
  0
DIMENSION
  5
98A
330
A
100
AcDbEntity
  8
SUNPOU
100
AcDbDimension
  2
*D14
 10
322.3294436157248
 20
233.4482058293536
 30
0.0
 11
210.0
 21
228.9482058293538
 31
0.0
 70
   160
  1
DH
 53
180.0
  3
SUNPOU_2
100
AcDbAlignedDimension
 13
97.67055638427507
 23
268.1195259368879
 33
0.0
 14
322.3294436157248
 24
268.1195259368879
 34
0.0
100
AcDbRotatedDimension
  0
DIMENSION
  5
9A0
330
A
100
AcDbEntity
  8
SUNPOU
100
AcDbDimension
  2
*D15
 10
262.3294436157249
 20
315.1872332001838
 30
0.0
 11
249.8294436157248
 21
315.1872332001838
 31
0.0
 70
    32
 53
180.0
  3
SUNPOU_2
100
AcDbAlignedDimension
 13
237.3294436157248
 23
297.1195259368879
 33
0.0
 14
262.3294436157249
 24
289.1195259368879
 34
0.0
100
AcDbRotatedDimension
  0
DIMENSION
  5
9BC
330
A
100
AcDbEntity
  8
SUNPOU
100
AcDbDimension
  2
*D16
 10
192.4585075728884
 20
269.619525936888
 30
0.0
 11
187.9585075728885
 21
258.8244672846249
 31
0.0
 70
   160
  3
SUNPOU_2
100
AcDbAlignedDimension
 13
192.4585075728884
 23
268.1195259368879
 33
0.0
 14
181.170556384275
 24
269.619525936888
 34
0.0
 50
90.0
100
AcDbRotatedDimension
  0
DIMENSION
  5
9CB
330
A
100
AcDbEntity
  8
SUNPOU
100
AcDbDimension
  2
*D17
 10
192.4585075728884
 20
298.619525936888
 30
0.0
 11
187.9585075728885
 21
284.119525936888
 31
0.0
 70
    32
  3
SUNPOU_2
100
AcDbAlignedDimension
 13
181.170556384275
 23
269.619525936888
 33
0.0
 14
181.170556384275
 24
298.619525936888
 34
0.0
 50
90.0
100
AcDbRotatedDimension
  0
DIMENSION
  5
9D8
330
A
100
AcDbEntity
  8
SUNPOU
100
AcDbDimension
  2
*D18
 10
192.4585075728884
 20
300.1195259368878
 30
0.0
 11
187.9585075728885
 21
310.17110548002
 31
0.0
 70
   160
  3
SUNPOU_2
100
AcDbAlignedDimension
 13
181.170556384275
 23
298.619525936888
 33
0.0
 14
192.4585075728884
 24
300.1195259368878
 34
0.0
 50
90.0
100
AcDbRotatedDimension
  0
DIMENSION
  5
9E7
330
A
100
AcDbEntity
  8
SUNPOU
100
AcDbDimension
  2
*D19
 10
203.213555442762
 20
300.1195259368878
 30
0.0
 11
198.7135554427619
 21
284.119525936888
 31
0.0
 70
    32
  3
SUNPOU_2
100
AcDbAlignedDimension
 13
203.213555442762
 23
268.1195259368879
 33
0.0
 14
203.213555442762
 24
300.1195259368878
 34
0.0
 50
90.0
100
AcDbRotatedDimension
  0
DIMENSION
  5
A03
330
A
100
AcDbEntity
  8
SUNPOU
100
AcDbDimension
  2
*D20
 10
229.986759714575
 20
277.1195259368878
 30
0.0
 11
225.486759714575
 21
259.1788484518764
 31
0.0
 70
   160
  3
SUNPOU_2
100
AcDbAlignedDimension
 13
238.8294436157249
 23
269.6195259368879
 33
0.0
 14
238.8294436157249
 24
277.1195259368878
 34
0.0
 50
90.0
100
AcDbRotatedDimension
1001
ACAD
1000
DSTYLE
1002
{
1070
     7
1000
OPEN30
1070
     5
1000

1070
   173
1070
     1
1070
     6
1000
OPEN30
1002
}
  0
DIMENSION
  5
A54
330
A
100
AcDbEntity
  8
SUNPOU
100
AcDbDimension
  2
*D21
 10
229.986759714575
 20
291.1195259368879
 30
0.0
 11
225.486759714575
 21
284.119525936888
 31
0.0
 70
    32
  3
SUNPOU_2
100
AcDbAlignedDimension
 13
238.8294436157249
 23
277.1195259368878
 33
0.0
 14
229.986759714575
 24
291.1195259368879
 34
0.0
 50
90.0
100
AcDbRotatedDimension
1001
ACAD
1000
DSTYLE
1002
{
1070
     6
1000
DOTSMALL
1070
     5
1000

1070
   173
1070
     1
1070
     7
1000
DOTSMALL
1002
}
  0
DIMENSION
  5
A63
330
A
100
AcDbEntity
  8
SUNPOU
100
AcDbDimension
  2
*D22
 10
229.986759714575
 20
298.6195259368879
 30
0.0
 11
225.486759714575
 21
308.0692700344416
 31
0.0
 70
   160
  3
SUNPOU_2
100
AcDbAlignedDimension
 13
229.986759714575
 23
291.1195259368879
 33
0.0
 14
238.8294436157249
 24
298.6195259368879
 34
0.0
 50
90.0
100
AcDbRotatedDimension
  0
DIMENSION
  5
ACA
330
A
100
AcDbEntity
  8
SUNPOU
100
AcDbDimension
  2
*D24
 10
89.6616375241787
 20
87.17001958362663
 30
0.0
 11
85.16163752417865
 21
83.67001958362664
 31
0.0
 70
    32
  3
SUNPOU_2_10
100
AcDbAlignedDimension
 13
103.2999999999999
 23
80.1700195836266
 33
0.0
 14
101.2999999999999
 24
87.17001958362661
 34
0.0
 50
90.0
100
AcDbRotatedDimension
  0
DIMENSION
  5
AE5
330
A
100
AcDbEntity
  8
SUNPOU
100
AcDbDimension
  2
*D25
 10
142.5335649675394
 20
81.60001958362661
 30
0.0
 11
138.0335649675392
 21
93.73552243962491
 31
0.0
 70
   160
  3
SUNPOU_2_10
100
AcDbAlignedDimension
 13
142.5335649675393
 23
80.1700195836266
 33
0.0
 14
142.5335649675394
 24
81.60001958362661
 34
0.0
 50
90.0
100
AcDbRotatedDimension
  0
DIMENSION
  5
AFF
330
A
100
AcDbEntity
  8
SUNPOU
100
AcDbDimension
  2
*D26
 10
331.0449617896956
 20
87.17001958362661
 30
0.0
 11
326.5449617896956
 21
96.03814763459856
 31
0.0
 70
   160
  3
SUNPOU_2_10
100
AcDbAlignedDimension
 13
316.6999999999998
 23
80.17001958362667
 33
0.0
 14
321.2999999999999
 24
87.17001958362661
 34
0.0
 50
90.0
100
AcDbRotatedDimension
  0
DIMENSION
  5
B0E
330
A
100
AcDbEntity
  8
SUNPOU
100
AcDbDimension
  2
*D27
 10
349.0241669652963
 20
171.5700195836263
 30
0.0
 11
344.5241669652963
 21
125.8700195836266
 31
0.0
 70
    32
  1
DW
  3
SUNPOU_2_10
100
AcDbAlignedDimension
 13
316.6999999999998
 23
80.1700195836266
 33
0.0
 14
316.6999999999998
 24
171.5700195836263
 34
0.0
 50
90.0
100
AcDbRotatedDimension
  0
DIMENSION
  5
B24
330
A
100
AcDbEntity
  8
SUNPOU
100
AcDbDimension
  2
*D28
 10
331.0449617896956
 20
171.5700195836263
 30
0.0
 11
326.5449617896956
 21
153.7847601538435
 31
0.0
 70
   160
  3
SUNPOU_2_10
100
AcDbAlignedDimension
 13
320.6999999999998
 23
163.0700195836265
 33
0.0
 14
316.6999999999998
 24
171.5700195836263
 34
0.0
 50
90.0
100
AcDbRotatedDimension
  0
DIMENSION
  5
B49
330
A
100
AcDbEntity
  8
SUNPOU
100
AcDbDimension
  2
*D29
 10
111.7999999999997
 20
187.8589054779199
 30
0.0
 11
92.86246258575269
 21
183.3589054779199
 31
0.0
 70
   160
 53
180.0
  3
SUNPOU_2_10
100
AcDbAlignedDimension
 13
103.2999999999999
 23
171.5700195836263
 33
0.0
 14
111.7999999999997
 24
170.1400195836265
 34
0.0
100
AcDbRotatedDimension
  0
DIMENSION
  5
B58
330
A
100
AcDbEntity
  8
SUNPOU
100
AcDbDimension
  2
*D30
 10
316.6999999999998
 20
202.6587873377645
 30
0.0
 11
209.9999999999999
 21
198.1587873377647
 31
0.0
 70
   160
  1
DH
 53
180.0
  3
SUNPOU_2
100
AcDbAlignedDimension
 13
103.2999999999999
 23
171.5700195836263
 33
0.0
 14
316.6999999999998
 24
171.5700195836263
 34
0.0
100
AcDbRotatedDimension
  0
DIMENSION
  5
B65
330
A
100
AcDbEntity
  8
SUNPOU
100
AcDbDimension
  2
*D31
 10
316.6999999999998
 20
187.8589054779199
 30
0.0
 11
296.4001221740226
 21
183.3589054779199
 31
0.0
 70
   160
 53
180.0
  3
SUNPOU_2_10
100
AcDbAlignedDimension
 13
308.1999999999998
 23
170.1400195836265
 33
0.0
 14
316.6999999999998
 24
171.5700195836263
 34
0.0
100
AcDbRotatedDimension
  0
DIMENSION
  5
BD1
330
A
100
AcDbEntity
  8
SUNPOU
100
AcDbDimension
  2
*D32
 10
142.5335649675394
 20
171.5700195836263
 30
0.0
 11
138.0335649675392
 21
183.5526579310768
 31
0.0
 70
   160
  3
SUNPOU_2_10
100
AcDbAlignedDimension
 13
142.5335649675394
 23
170.1400195836265
 33
0.0
 14
142.5335649675394
 24
171.5700195836263
 34
0.0
 50
90.0
100
AcDbRotatedDimension
  0
DIMENSION
  5
BEB
330
A
100
AcDbEntity
  8
SUNPOU
100
AcDbDimension
  2
*D33
 10
172.8547933596718
 20
171.5700195836263
 30
0.0
 11
168.3547933596715
 21
182.159836551895
 31
0.0
 70
   160
  3
SUNPOU_2_10
100
AcDbAlignedDimension
 13
185.25
 23
161.5700195836265
 33
0.0
 14
172.8547933596718
 24
171.5700195836263
 34
0.0
 50
90.0
100
AcDbRotatedDimension
  0
DIMENSION
  5
C05
330
A
100
AcDbEntity
  8
SUNPOU
100
AcDbDimension
  2
*D34
 10
231.2499999999999
 20
148.775256800022
 30
0.0
 11
202.2295660752928
 21
144.2752568000222
 31
0.0
 70
   160
 53
180.0
  3
SUNPOU_2_10
100
AcDbAlignedDimension
 13
188.7499999999999
 23
158.5700195836265
 33
0.0
 14
231.2499999999999
 24
158.5700195836265
 34
0.0
100
AcDbRotatedDimension
  0
DIMENSION
  5
C12
330
A
100
AcDbEntity
  8
SUNPOU
100
AcDbDimension
  2
*D35
 10
316.6999999999998
 20
127.7995478785095
 30
0.0
 11
263.35
 21
122.7995478785095
 31
0.0
 70
   160
 53
180.0
  3
SUNPOU_2_10
100
AcDbAlignedDimension
 13
209.9999999999999
 23
156.6415399202177
 33
0.0
 14
316.6999999999998
 24
127.7995478785095
 34
0.0
100
AcDbRotatedDimension
  0
MTEXT
  5
CD9
330
A
100
AcDbEntity
  8
MOJI
100
AcDbMText
 10
154.1870505353466
 20
453.3517298422409
 30
0.0
 40
6.0
 41
40.0
 71
     5
 72
     1
  1
よこ断面図
  7
0_8
 11
0.0000000000000001
 21
1.0
 31
0.0
1001
ACAD
1000
MTEXTBEGIN
1070
    73
1070
     1
1070
    44
1040
1.0
1070
    74
1070
     0
1000
MTEXTEND
1000
MTEXTBEGIN
1070
    73
1070
     1
1070
    44
1040
1.0
1070
    74
1070
     0
1000
MTEXTEND
  0
POLYLINE
  5
CDA
330
A
100
AcDbEntity
  8
SAISEN
100
AcDb2dPolyline
 66
     1
 10
0.0
 20
0.0
 30
0.0
 70
     1
  0
VERTEX
  5
165C
330
CDA
100
AcDbEntity
  8
SAISEN
100
AcDbVertex
100
AcDb2dVertex
 10
149.1870505353466
 20
433.3517298422409
 30
0.0
  0
VERTEX
  5
165D
330
CDA
100
AcDbEntity
  8
SAISEN
100
AcDbVertex
100
AcDb2dVertex
 10
159.1870505353468
 20
433.3517298422409
 30
0.0
  0
VERTEX
  5
165E
330
CDA
100
AcDbEntity
  8
SAISEN
100
AcDbVertex
100
AcDb2dVertex
 10
159.1870505353468
 20
473.3517298422409
 30
0.0
  0
VERTEX
  5
165F
330
CDA
100
AcDbEntity
  8
SAISEN
100
AcDbVertex
100
AcDb2dVertex
 10
149.1870505353466
 20
473.3517298422409
 30
0.0
  0
SEQEND
  5
1660
330
CDA
100
AcDbEntity
  8
SAISEN
  0
MTEXT
  5
CDC
330
A
100
AcDbEntity
  8
MOJI
100
AcDbMText
 10
363.5492177419491
 20
453.3517298422409
 30
0.0
 40
6.0
 41
40.0
 71
     5
 72
     1
  1
両開き戸先部
  7
0_8
 11
0.0000000000000001
 21
1.0
 31
0.0
1001
ACAD
1000
MTEXTBEGIN
1070
    73
1070
     1
1070
    44
1040
1.0
1070
    74
1070
     0
1000
MTEXTEND
1000
MTEXTBEGIN
1070
    73
1070
     1
1070
    44
1040
1.0
1070
    74
1070
     0
1000
MTEXTEND
  0
POLYLINE
  5
CDD
330
A
100
AcDbEntity
  8
SAISEN
100
AcDb2dPolyline
 66
     1
 10
0.0
 20
0.0
 30
0.0
 70
     1
  0
VERTEX
  5
1661
330
CDD
100
AcDbEntity
  8
SAISEN
100
AcDbVertex
100
AcDb2dVertex
 10
358.5492177419491
 20
433.3517298422409
 30
0.0
  0
VERTEX
  5
1662
330
CDD
100
AcDbEntity
  8
SAISEN
100
AcDbVertex
100
AcDb2dVertex
 10
368.5492177419491
 20
433.3517298422409
 30
0.0
  0
VERTEX
  5
1663
330
CDD
100
AcDbEntity
  8
SAISEN
100
AcDbVertex
100
AcDb2dVertex
 10
368.5492177419491
 20
473.3517298422409
 30
0.0
  0
VERTEX
  5
1664
330
CDD
100
AcDbEntity
  8
SAISEN
100
AcDbVertex
100
AcDb2dVertex
 10
358.5492177419491
 20
473.3517298422409
 30
0.0
  0
SEQEND
  5
1665
330
CDD
100
AcDbEntity
  8
SAISEN
  0
MTEXT
  5
D2D
330
A
100
AcDbEntity
  8
MOJI
100
AcDbMText
 10
83.07126197848075
 20
453.3517298422409
 30
0.0
 40
6.0
 41
64.30105182396665
 71
     5
 72
     1
  1
HL･鏡面･カラー
  7
0_8
 11
0.0000000000000001
 21
1.0
 31
0.0
1001
ACAD
1000
MTEXTBEGIN
1070
    73
1070
     1
1070
    44
1040
1.0
1070
    74
1070
     0
1000
MTEXTEND
1000
MTEXTBEGIN
1070
    73
1070
     1
1070
    44
1040
1.0
1070
    74
1070
     0
1000
MTEXTEND
  0
MTEXT
  5
D2E
330
A
100
AcDbEntity
  8
MOJI
100
AcDbMText
 10
73.07126197848076
 20
453.3517298422409
 30
0.0
 40
5.0
 41
64.30105182396665
 71
     5
 72
     1
  1
フレーム仕上（SUS304）
  7
0_8
 11
0.0000000000000001
 21
1.0
 31
0.0
1001
ACAD
1000
MTEXTBEGIN
1070
    73
1070
     1
1070
    44
1040
1.0
1070
    74
1070
     0
1000
MTEXTEND
1000
MTEXTBEGIN
1070
    73
1070
     1
1070
    44
1040
1.0
1070
    74
1070
     0
1000
MTEXTEND
  0
LINE
  5
D32
330
A
100
AcDbEntity
  8
SAISEN
100
AcDbLine
 10
78.07126197848082
 20
421.2012039302576
 30
0.0
 11
78.07126197848082
 21
485.502255754224
 31
0.0
  0
POLYLINE
  5
D34
330
A
100
AcDbEntity
  8
SAISEN
100
AcDb2dPolyline
 66
     1
 10
0.0
 20
0.0
 30
0.0
 70
     1
  0
VERTEX
  5
1666
330
D34
100
AcDbEntity
  8
SAISEN
100
AcDbVertex
100
AcDb2dVertex
 10
68.07126197848077
 20
421.2012039302575
 30
0.0
  0
VERTEX
  5
1667
330
D34
100
AcDbEntity
  8
SAISEN
100
AcDbVertex
100
AcDb2dVertex
 10
88.07126197848083
 20
421.2012039302575
 30
0.0
  0
VERTEX
  5
1668
330
D34
100
AcDbEntity
  8
SAISEN
100
AcDbVertex
100
AcDb2dVertex
 10
88.07126197848083
 20
485.502255754224
 30
0.0
  0
VERTEX
  5
1669
330
D34
100
AcDbEntity
  8
SAISEN
100
AcDbVertex
100
AcDb2dVertex
 10
68.07126197848077
 20
485.502255754224
 30
0.0
  0
SEQEND
  5
166A
330
D34
100
AcDbEntity
  8
SAISEN
  0
MTEXT
  5
D3F
330
A
100
AcDbEntity
  8
MOJI
100
AcDbMText
 10
64.60993595010376
 20
266.7838658831208
 30
0.0
 40
6.0
 41
40.0
 71
     5
 72
     1
  1
たて断面図
  7
0_8
 11
0.0000000000000001
 21
1.0
 31
0.0
1001
ACAD
1000
MTEXTBEGIN
1070
    73
1070
     1
1070
    44
1040
1.0
1070
    74
1070
     0
1000
MTEXTEND
1000
MTEXTBEGIN
1070
    73
1070
     1
1070
    44
1040
1.0
1070
    74
1070
     0
1000
MTEXTEND
  0
POLYLINE
  5
D40
330
A
100
AcDbEntity
  8
SAISEN
100
AcDb2dPolyline
 66
     1
 10
0.0
 20
0.0
 30
0.0
 70
     1
  0
VERTEX
  5
166B
330
D40
100
AcDbEntity
  8
SAISEN
100
AcDbVertex
100
AcDb2dVertex
 10
59.60993595010376
 20
246.7838658831208
 30
0.0
  0
VERTEX
  5
166C
330
D40
100
AcDbEntity
  8
SAISEN
100
AcDbVertex
100
AcDb2dVertex
 10
69.60993595010376
 20
246.7838658831208
 30
0.0
  0
VERTEX
  5
166D
330
D40
100
AcDbEntity
  8
SAISEN
100
AcDbVertex
100
AcDb2dVertex
 10
69.60993595010376
 20
286.7838658831209
 30
0.0
  0
VERTEX
  5
166E
330
D40
100
AcDbEntity
  8
SAISEN
100
AcDbVertex
100
AcDb2dVertex
 10
59.60993595010376
 20
286.7838658831209
 30
0.0
  0
SEQEND
  5
166F
330
D40
100
AcDbEntity
  8
SAISEN
  0
MTEXT
  5
D49
330
A
100
AcDbEntity
  8
MOJI
100
AcDbMText
 10
84.66163752417868
 20
125.8700195836266
 30
0.0
 40
6.0
 41
30.0
 71
     5
 72
     1
  1
姿　図
  7
0_8
 11
0.0000000000000001
 21
1.0
 31
0.0
1001
ACAD
1000
MTEXTBEGIN
1070
    73
1070
     1
1070
    44
1040
1.0
1070
    74
1070
     0
1000
MTEXTEND
1000
MTEXTBEGIN
1070
    73
1070
     1
1070
    44
1040
1.0
1070
    74
1070
     0
1000
MTEXTEND
  0
POLYLINE
  5
D4A
330
A
100
AcDbEntity
  8
SAISEN
100
AcDb2dPolyline
 66
     1
 10
0.0
 20
0.0
 30
0.0
 70
     1
  0
VERTEX
  5
1670
330
D4A
100
AcDbEntity
  8
SAISEN
100
AcDbVertex
100
AcDb2dVertex
 10
79.66163752417867
 20
110.8700195836266
 30
0.0
  0
VERTEX
  5
1671
330
D4A
100
AcDbEntity
  8
SAISEN
100
AcDbVertex
100
AcDb2dVertex
 10
89.6616375241787
 20
110.8700195836266
 30
0.0
  0
VERTEX
  5
1672
330
D4A
100
AcDbEntity
  8
SAISEN
100
AcDbVertex
100
AcDb2dVertex
 10
89.6616375241787
 20
140.8700195836263
 30
0.0
  0
VERTEX
  5
1673
330
D4A
100
AcDbEntity
  8
SAISEN
100
AcDbVertex
100
AcDb2dVertex
 10
79.66163752417867
 20
140.8700195836263
 30
0.0
  0
SEQEND
  5
1674
330
D4A
100
AcDbEntity
  8
SAISEN
  0
LEADER
  5
1271
330
A
100
AcDbEntity
  8
HIKIDASI
100
AcDbLeader
  3
SUNPOU_2_10
 73
     0
 75
     1
 40
5.0
 41
42.13333333333332
 76
     3
 10
188.7499999999999
 20
161.5700195836265
 30
0.0
 10
182.1202356024935
 20
150.4181816614388
 30
0.0
 10
182.1202356024935
 20
145.4181816614388
 30
0.0
340
1272
211
0.0000000000000001
221
1.0
231
0.0
1001
ACAD
1000
DSTYLE
1002
{
1070
     5
1000
OPEN30
1070
    77
1070
     1
1070
   147
1040
1.0
1070
   342
1005
7B1
1002
}
1000
LEANOF
1010
0.0
1020
0.0
1030
0.0
1000
LEANOF
1010
0.0
1020
0.0
1030
0.0
1000
LEANOF
1010
0.0
1020
0.0
1030
0.0
  0
MTEXT
  5
1272
330
A
100
AcDbEntity
  8
HIKIDASI
100
AcDbMText
 10
180.1202356024935
 20
143.4181816614388
 30
0.0
 40
5.0
 41
0.0
 71
     9
 72
     1
  1
2-φ16（把手穴）
  7
SUNPOU
 11
0.0000000000000001
 21
1.0
 31
0.0
1001
ACAD
1000
MTEXTBEGIN
1070
    73
1070
     1
1070
    44
1040
1.0
1070
    74
1070
     0
1000
MTEXTEND
1000
MTEXTBEGIN
1070
    73
1070
     1
1070
    44
1040
1.0
1070
    74
1070
     0
1000
MTEXTEND
  0
LINE
  5
136E
330
A
100
AcDbEntity
  8
04
100
AcDbLine
 10
154.1705563842748
 20
292.119525936888
 30
0.0
 11
182.6705563842745
 21
292.1195259368878
 31
0.0
  0
LINE
  5
136F
330
A
100
AcDbEntity
  8
04
100
AcDbLine
 10
182.6705563842745
 20
276.1195259368879
 30
0.0
 11
154.1705563842748
 21
276.1195259368879
 31
0.0
  0
LINE
  5
1370
330
A
100
AcDbEntity
  8
04
100
AcDbLine
 10
154.1705563842748
 20
276.1195259368879
 30
0.0
 11
154.1705563842748
 21
292.119525936888
 31
0.0
  0
LINE
  5
1371
330
A
100
AcDbEntity
  8
04
100
AcDbLine
 10
265.829443615725
 20
292.1195259368878
 30
0.0
 11
237.3294436157248
 21
292.1195259368878
 31
0.0
  0
LINE
  5
1372
330
A
100
AcDbEntity
  8
04
100
AcDbLine
 10
237.3294436157248
 20
276.1195259368879
 30
0.0
 11
265.829443615725
 21
276.1195259368879
 31
0.0
  0
LINE
  5
1373
330
A
100
AcDbEntity
  8
04
100
AcDbLine
 10
265.829443615725
 20
276.1195259368879
 30
0.0
 11
265.829443615725
 21
292.1195259368878
 31
0.0
  0
LINE
  5
13A9
330
A
100
AcDbEntity
  8
04
100
AcDbLine
 10
322.3294436157248
 20
297.1195259368879
 30
0.0
 11
322.3294436157248
 21
271.1195259368878
 31
0.0
  0
CIRCLE
  5
13F8
330
A
100
AcDbEntity
  8
SAISEN
100
AcDbCircle
 10
391.0976380784321
 20
52.54302641223159
 30
0.0
 40
5.0
  0
TEXT
  5
13F9
330
A
100
AcDbEntity
  8
MOJI
100
AcDbText
 10
388.0488190392161
 20
48.27151320611588
 30
0.0
 40
8.0
  1
Ｓ
 41
0.8
  7
0_8
 11
388.0488190392161
 21
56.27151320611588
 31
0.0
100
AcDbText
 73
     3
  0
DIMENSION
  5
143B
330
A
100
AcDbEntity
  8
SUNPOU
100
AcDbDimension
  2
*D36
 10
344.8833179297593
 20
520.8517251934527
 30
0.0
 11
340.3833179297591
 21
490.8517251934527
 31
0.0
 70
    32
  1
DW
  3
SUNPOU_2
100
AcDbAlignedDimension
 13
344.8833179297593
 23
455.8517251934524
 33
0.0
 14
344.8833179297593
 24
520.8517251934527
 34
0.0
 50
90.0
100
AcDbRotatedDimension
1001
ACAD
1000
DSTYLE
1002
{
1070
    44
1040
0.0
1070
    42
1040
0.0
1070
     7
1000
NONE
1070
     5
1000

1070
   173
1070
     1
1070
     6
1000
OPEN30
1002
}
  0
DIMENSION
  5
146A
330
A
100
AcDbEntity
  8
SUNPOU
100
AcDbDimension
  2
*D38
 10
344.8833179297592
 20
450.8517584412362
 30
0.0
 11
340.3833179297591
 21
415.851758441236
 31
0.0
 70
    32
  1
DW
  3
SUNPOU_2
100
AcDbAlignedDimension
 13
344.8833179297592
 23
385.8517584412362
 33
0.0
 14
344.8833179297592
 24
450.8517584412362
 34
0.0
 50
90.0
100
AcDbRotatedDimension
1001
ACAD
1000
DSTYLE
1002
{
1070
    44
1040
0.0
1070
    42
1040
0.0
1070
     6
1000
NONE
1070
     5
1000

1070
   173
1070
     1
1070
     7
1000
OPEN30
1002
}
  0
MTEXT
  5
15AA
330
A
100
AcDbEntity
  8
MOJI
100
AcDbMText
 10
309.9999999999996
 20
31.5
 30
0.0
 40
7.0
 41
50.0
 71
     5
 72
     1
  1
図番２０－５
  7
0_80
1001
ACAD
1000
MTEXTBEGIN
1070
    73
1070
     1
1070
    44
1040
1.0
1070
    74
1070
     0
1000
MTEXTEND
1000
MTEXTBEGIN
1070
    73
1070
     1
1070
    44
1040
1.0
1070
    74
1070
     0
1000
MTEXTEND
  0
POLYLINE
  5
15AB
330
A
100
AcDbEntity
  8
SAISEN
100
AcDb2dPolyline
 66
     1
 10
0.0
 20
0.0
 30
0.0
 70
     1
  0
VERTEX
  5
1675
330
15AB
100
AcDbEntity
  8
SAISEN
100
AcDbVertex
100
AcDb2dVertex
 10
35.0
 20
20.0
 30
0.0
  0
VERTEX
  5
1676
330
15AB
100
AcDbEntity
  8
SAISEN
100
AcDbVertex
100
AcDb2dVertex
 10
385.0
 20
20.0
 30
0.0
  0
VERTEX
  5
1677
330
15AB
100
AcDbEntity
  8
SAISEN
100
AcDbVertex
100
AcDb2dVertex
 10
385.0
 20
44.0
 30
0.0
  0
VERTEX
  5
1678
330
15AB
100
AcDbEntity
  8
SAISEN
100
AcDbVertex
100
AcDb2dVertex
 10
35.0
 20
44.0
 30
0.0
  0
SEQEND
  5
1679
330
15AB
100
AcDbEntity
  8
SAISEN
  0
MTEXT
  5
15AC
330
A
100
AcDbEntity
  8
MOJI
100
AcDbMText
 10
90.0
 20
32.0
 30
0.0
 40
7.0
 41
110.0
 71
     5
 72
     1
  1
スリムセナージ･ドアII型
  7
0_8
1001
ACAD
1000
MTEXTBEGIN
1070
    73
1070
     1
1070
    44
1040
1.0
1070
    74
1070
     0
1000
MTEXTEND
1000
MTEXTBEGIN
1070
    73
1070
     1
1070
    44
1040
1.0
1070
    74
1070
     0
1000
MTEXTEND
  0
LINE
  5
15AD
330
A
100
AcDbEntity
  8
SAISEN
100
AcDbLine
 10
144.9999999999999
 20
44.0
 30
0.0
 11
144.9999999999999
 21
20.0
 31
0.0
  0
MTEXT
  5
15AE
330
A
100
AcDbEntity
  8
MOJI
100
AcDbMText
 10
185.0
 20
32.0
 30
0.0
 40
7.0
 41
80.0
 71
     5
 72
     1
  1
スイングドア
  7
0_8
1001
ACAD
1000
MTEXTBEGIN
1070
    73
1070
     1
1070
    44
1040
1.0
1070
    74
1070
     0
1000
MTEXTEND
1000
MTEXTBEGIN
1070
    73
1070
     1
1070
    44
1040
1.0
1070
    74
1070
     0
1000
MTEXTEND
  0
LINE
  5
15AF
330
A
100
AcDbEntity
  8
SAISEN
100
AcDbLine
 10
285.0
 20
44.0
 30
0.0
 11
285.0
 21
20.0
 31
0.0
  0
MTEXT
  5
163E
330
A
100
AcDbEntity
  8
MOJI
100
AcDbMText
 10
359.9999999999998
 20
31.99999999999953
 30
0.0
 40
6.0
 41
49.99999999999993
 71
     5
 72
     1
  1
姿図･たて断面図\Pよこ断面図　 　
  7
0_80
1001
ACAD
1000
MTEXTBEGIN
1070
    73
1070
     1
1070
    44
1040
1.0
1070
    74
1070
     0
1000
MTEXTEND
1000
MTEXTBEGIN
1070
    73
1070
     1
1070
    44
1040
1.0
1070
    74
1070
     0
1000
MTEXTEND
  0
VIEWPORT
  5
FF2
102
{ACAD_XDICTIONARY
360
1643
102
}
330
B
100
AcDbEntity
 67
     1
  8
0
100
AcDbViewport
 10
198.298728694502
 20
285.0638786644298
 30
0.0
 40
1080.347564134147
 41
628.3535021666721
 68
     1
 69
     1
1001
ACAD
1000
MVIEW
1002
{
1070
    16
1010
0.0
1020
0.0
1030
0.0
1010
0.0
1020
0.0
1030
1.0
1040
0.0
1040
628.3535021666721
1040
198.298728694502
1040
285.0638786644298
1040
50.0
1040
0.0
1040
0.0
1070
     0
1070
   100
1070
     1
1070
     1
1070
     0
1070
     0
1070
     0
1070
     0
1040
0.0
1040
0.0
1040
0.0
1040
10.0
1040
10.0
1040
10.0
1040
10.0
1070
     0
1002
{
1002
}
1002
}
  0
VIEWPORT
  5
15C8
102
{ACAD_XDICTIONARY
360
1645
102
}
330
B
100
AcDbEntity
 67
     1
  8
DEFPOINTS
100
AcDbViewport
 10
198.2987296482644
 20
285.0638777106673
 30
0.0
 40
396.4883172119752
 41
570.409736121624
 68
     2
 69
     2
1001
ACAD
1000
MVIEW
1002
{
1070
    16
1010
0.0
1020
0.0
1030
0.0
1010
0.0
1020
0.0
1030
1.0
1040
0.0
1040
570.409736121624
1040
210.0
1040
297.0
1040
50.0
1040
0.0
1040
0.0
1070
     0
1070
   100
1070
     1
1070
     1
1070
     0
1070
     0
1070
     0
1070
     0
1040
0.0
1040
0.0
1040
0.0
1040
1.0
1040
1.0
1040
0.0
1040
0.0
1070
     0
1002
{
1002
}
1002
}
  0
ENDSEC
  0
SECTION
  2
OBJECTS
  0
DICTIONARY
  5
19
330
0
100
AcDbDictionary
  3
ACAD_COLOR
350
CCE
  3
ACAD_GROUP
350
1A
  3
ACAD_LAYOUT
350
58B
  3
ACAD_MATERIAL
350
CCD
  3
ACAD_MLINESTYLE
350
1B
  3
ACAD_PLOTSETTINGS
350
58C
  3
ACADDIM
350
1270
  3
ASE_INDEX_DICTIONARY
350
1622
1001
ACAD
1000
TREAT_AS_HARD
1070
     0
1000
TREAT_AS_HARD
1070
     0
1000
TREAT_AS_HARD
1070
     0
  0
DICTIONARY
  5
159B
330
2
100
AcDbDictionary
  3
ACAD_LAYERSTATES
350
159C
1001
ACAD
1000
TREAT_AS_HARD
1070
     1
1000
TREAT_AS_HARD
1070
     1
  0
DICTIONARY
  5
153F
330
A
100
AcDbDictionary
  3
ACAD_LAYOUTSELFREF
350
1651
1001
ACAD
1000
TREAT_AS_HARD
1070
     1
1000
TREAT_AS_HARD
1070
     1
  0
DICTIONARY
  5
1541
330
B
100
AcDbDictionary
  3
ACAD_LAYOUTSELFREF
350
1652
1001
ACAD
1000
TREAT_AS_HARD
1070
     1
1000
TREAT_AS_HARD
1070
     1
  0
DICTIONARY
  5
1643
330
FF2
100
AcDbDictionary
  3
ACAD_XREC_ROUNDTRIP
350
1644
1001
ACAD
1000
TREAT_AS_HARD
1070
     1
  0
DICTIONARY
  5
1645
330
15C8
100
AcDbDictionary
  3
ACAD_XREC_ROUNDTRIP
350
1646
1001
ACAD
1000
TREAT_AS_HARD
1070
     1
  0
DICTIONARY
  5
CCE
102
{ACAD_REACTORS
330
19
102
}
330
19
100
AcDbDictionary
1001
ACAD
1000
TREAT_AS_HARD
1070
     0
1000
TREAT_AS_HARD
1070
     0
1000
TREAT_AS_HARD
1070
     0
  0
DICTIONARY
  5
1A
102
{ACAD_REACTORS
330
19
102
}
330
19
100
AcDbDictionary
  3
DAGROUP3DB
350
3DB
  3
DAGROUP3DE
350
3DE
  3
DAGROUP3E2
350
3E2
1001
ACAD
1000
TREAT_AS_HARD
1070
     0
1000
TREAT_AS_HARD
1070
     0
1000
TREAT_AS_HARD
1070
     0
  0
DICTIONARY
  5
58B
102
{ACAD_REACTORS
330
19
102
}
330
19
100
AcDbDictionary
1001
ACAD
1000
TREAT_AS_HARD
1070
     0
1000
TREAT_AS_HARD
1070
     0
1000
TREAT_AS_HARD
1070
     0
  0
DICTIONARY
  5
CCD
102
{ACAD_REACTORS
330
19
102
}
330
19
100
AcDbDictionary
1001
ACAD
1000
TREAT_AS_HARD
1070
     0
1000
TREAT_AS_HARD
1070
     0
1000
TREAT_AS_HARD
1070
     0
  0
DICTIONARY
  5
1B
102
{ACAD_REACTORS
330
19
102
}
330
19
100
AcDbDictionary
  3
STANDARD
350
1C
1001
ACAD
1000
TREAT_AS_HARD
1070
     0
1000
TREAT_AS_HARD
1070
     0
1000
TREAT_AS_HARD
1070
     0
  0
DICTIONARY
  5
58C
102
{ACAD_REACTORS
330
19
102
}
330
19
100
AcDbDictionary
1001
ACAD
1000
TREAT_AS_HARD
1070
     0
1000
TREAT_AS_HARD
1070
     0
1000
TREAT_AS_HARD
1070
     0
  0
XRECORD
  5
1270
102
{ACAD_REACTORS
330
19
102
}
330
19
100
AcDbXrecord
 90
   990106
  3

 60
     0
 61
     0
 62
     4
 63
     4
 64
     1
 65
     0
 66
     0
 67
     3
 68
     1
 69
     0
 70
     0
 71
     0
 72
     0
 40
0.0
170
     2
340
1272
  0
DICTIONARY
  5
1622
102
{ACAD_REACTORS
330
19
102
}
330
19
100
AcDbDictionary
  3
ASEBLOCKHIERARCHYINDEXRECORD
350
1623
1001
DCO15
1040
1508820640.562
1001
ACAD
1000
TREAT_AS_HARD
1070
     0
  0
DICTIONARY
  5
159C
102
{ACAD_REACTORS
330
159B
102
}
330
159B
100
AcDbDictionary
1001
ACAD
1000
TREAT_AS_HARD
1070
     0
1000
TREAT_AS_HARD
1070
     0
  0
XRECORD
  5
1651
102
{ACAD_REACTORS
330
153F
102
}
330
153F
100
AcDbXrecord
340
A
  0
XRECORD
  5
1652
102
{ACAD_REACTORS
330
1541
102
}
330
1541
100
AcDbXrecord
340
B
  0
XRECORD
  5
1644
102
{ACAD_REACTORS
330
1643
102
}
330
1643
100
AcDbXrecord
102
SHADEPLOT
 70
     0
  0
XRECORD
  5
1646
102
{ACAD_REACTORS
330
1645
102
}
330
1645
100
AcDbXrecord
102
SHADEPLOT
 70
     0
  0
GROUP
  5
3DB
102
{ACAD_REACTORS
330
1A
102
}
330
1A
100
AcDbGroup
300

 70
     0
 71
     1
  0
GROUP
  5
3DE
102
{ACAD_REACTORS
330
1A
102
}
330
1A
100
AcDbGroup
300

 70
     0
 71
     1
  0
GROUP
  5
3E2
102
{ACAD_REACTORS
330
1A
102
}
330
1A
100
AcDbGroup
300

 70
     0
 71
     1
  0
MLINESTYLE
  5
1C
102
{ACAD_REACTORS
330
1B
102
}
330
1B
100
AcDbMlineStyle
  2
STANDARD
 70
     0
  3

 62
     0
 51
90.00000000000019
 52
90.00000000000019
 71
     2
 49
0.5
 62
   256
  6
BYLAYER
 49
-0.5
 62
   256
  6
BYLAYER
  0
XRECORD
  5
1623
102
{ACAD_REACTORS
330
1622
102
}
330
1622
100
AcDbXrecord
330
14EE
330
14EF
330
FDF
330
FE0
330
FD3
330
FD4
330
FCB
330
FCC
330
FC0
330
FBF
330
FB8
330
FB7
330
FAB
330
FAC
330
FA1
330
FA2
330
F98
330
F99
330
F8F
330
F90
330
F84
330
F85
330
F70
330
F71
330
F68
330
F67
330
F79
330
F7A
330
F18
330
F19
330
F10
330
F0F
330
F03
330
F04
330
EFB
330
EFC
330
EEF
330
EF0
330
154F
330
1550
330
1557
330
1558
330
ED3
330
ED4
330
EC8
330
EC7
330
EBD
330
EBE
330
EB2
330
EB3
330
EA6
330
EA7
330
E9E
330
E9F
330
E93
330
E94
330
E88
330
E89
330
E80
330
E7F
330
E74
330
E75
330
E69
330
E6A
330
1266
330
1267
330
E55
330
E56
330
157F
330
1585
  0
ENDSEC
  0
EOF
