  0
SECTION
  2
HEADER
  9
$ACADVER
  1
AC1012
  9
$DWGCODEPAGE
  3
dos932
  9
$INSBASE
 10
0.0
 20
0.0
 30
0.0
  9
$EXTMIN
 10
0.0
 20
0.0
 30
0.0
  9
$EXTMAX
 10
420.0
 20
594.0
 30
0.0
  9
$LIMMIN
 10
0.0
 20
0.0
  9
$LIMMAX
 10
420.0
 20
594.0
  9
$ORTHOMODE
 70
     0
  9
$REGENMODE
 70
     1
  9
$FILLMODE
 70
     1
  9
$QTEXTMODE
 70
     0
  9
$MIRRTEXT
 70
     1
  9
$DRAGMODE
 70
     2
  9
$LTSCALE
 40
0.3
  9
$OSMODE
 70
    37
  9
$ATTMODE
 70
     1
  9
$TEXTSIZE
 40
7.0
  9
$TRACEWID
 40
0.05
  9
$TEXTSTYLE
  7
0_9
  9
$CLAYER
  8
DEFPOINTS
  9
$CELTYPE
  6
BYLAYER
  9
$CECOLOR
 62
   256
  9
$CELTSCALE
 40
1.0
  9
$DELOBJ
 70
     1
  9
$DISPSILH
 70
     0
  9
$DIMSCALE
 40
2.0
  9
$DIMASZ
 40
2.5
  9
$DIMEXO
 40
1.5
  9
$DIMDLI
 40
0.0
  9
$DIMRND
 40
0.0
  9
$DIMDLE
 40
0.0
  9
$DIMEXE
 40
1.0
  9
$DIMTP
 40
0.0
  9
$DIMTM
 40
0.0
  9
$DIMTXT
 40
2.5
  9
$DIMCEN
 40
0.0
  9
$DIMTSZ
 40
0.0
  9
$DIMTOL
 70
     0
  9
$DIMLIM
 70
     0
  9
$DIMTIH
 70
     0
  9
$DIMTOH
 70
     0
  9
$DIMSE1
 70
     0
  9
$DIMSE2
 70
     0
  9
$DIMTAD
 70
     1
  9
$DIMZIN
 70
     8
  9
$DIMBLK
  1
OPEN30
  9
$DIMASO
 70
     1
  9
$DIMSHO
 70
     1
  9
$DIMPOST
  1

  9
$DIMAPOST
  1

  9
$DIMALT
 70
     0
  9
$DIMALTD
 70
     2
  9
$DIMALTF
 40
25.4
  9
$DIMLFAC
 40
1.0
  9
$DIMTOFL
 70
     1
  9
$DIMTVP
 40
0.0
  9
$DIMTIX
 70
     0
  9
$DIMSOXD
 70
     0
  9
$DIMSAH
 70
     0
  9
$DIMBLK1
  1

  9
$DIMBLK2
  1

  9
$DIMSTYLE
  2
SUNPOU_2
  9
$DIMCLRD
 70
   256
  9
$DIMCLRE
 70
   256
  9
$DIMCLRT
 70
   256
  9
$DIMTFAC
 40
1.0
  9
$DIMGAP
 40
1.0
  9
$DIMJUST
 70
     0
  9
$DIMSD1
 70
     0
  9
$DIMSD2
 70
     0
  9
$DIMTOLJ
 70
     1
  9
$DIMTZIN
 70
     0
  9
$DIMALTZ
 70
     0
  9
$DIMALTTZ
 70
     0
  9
$DIMFIT
 70
     3
  9
$DIMUPT
 70
     0
  9
$DIMUNIT
 70
     2
  9
$DIMDEC
 70
     1
  9
$DIMTDEC
 70
     1
  9
$DIMALTU
 70
     2
  9
$DIMALTTD
 70
     2
  9
$DIMTXSTY
  7
SUNPOU
  9
$DIMAUNIT
 70
     0
  9
$LUNITS
 70
     2
  9
$LUPREC
 70
     4
  9
$SKETCHINC
 40
0.1
  9
$FILLETRAD
 40
0.0
  9
$AUNITS
 70
     0
  9
$AUPREC
 70
     0
  9
$MENU
  1
acad
  9
$ELEVATION
 40
0.0
  9
$PELEVATION
 40
0.0
  9
$THICKNESS
 40
0.0
  9
$LIMCHECK
 70
     0
  9
$BLIPMODE
 70
     0
  9
$CHAMFERA
 40
0.0
  9
$CHAMFERB
 40
0.0
  9
$CHAMFERC
 40
0.0
  9
$CHAMFERD
 40
0.0
  9
$SKPOLY
 70
     0
  9
$TDCREATE
 40
2444972.375000000
  9
$TDUPDATE
 40
2453266.406557974
  9
$TDINDWG
 40
1.0517587269
  9
$TDUSRTIMER
 40
1.0517587269
  9
$USRTIMER
 70
     1
  9
$ANGBASE
 50
0.0
  9
$ANGDIR
 70
     0
  9
$PDMODE
 70
     0
  9
$PDSIZE
 40
1.0
  9
$PLINEWID
 40
0.0
  9
$COORDS
 70
     1
  9
$SPLFRAME
 70
     0
  9
$SPLINETYPE
 70
     6
  9
$SPLINESEGS
 70
     8
  9
$ATTDIA
 70
     0
  9
$ATTREQ
 70
     1
  9
$HANDLING
 70
-16383
  9
$HANDSEED
  5
90FC
  9
$SURFTAB1
 70
     6
  9
$SURFTAB2
 70
     6
  9
$SURFTYPE
 70
     6
  9
$SURFU
 70
     6
  9
$SURFV
 70
     6
  9
$UCSNAME
  2

  9
$UCSORG
 10
0.0
 20
0.0
 30
0.0
  9
$UCSXDIR
 10
1.0
 20
0.0
 30
0.0
  9
$UCSYDIR
 10
0.0
 20
1.0
 30
0.0
  9
$PUCSNAME
  2

  9
$PUCSORG
 10
0.0
 20
0.0
 30
0.0
  9
$PUCSXDIR
 10
1.0
 20
0.0
 30
0.0
  9
$PUCSYDIR
 10
0.0
 20
1.0
 30
0.0
  9
$USERI1
 70
     0
  9
$USERI2
 70
     0
  9
$USERI3
 70
     0
  9
$USERI4
 70
     0
  9
$USERI5
 70
     0
  9
$USERR1
 40
0.0
  9
$USERR2
 40
0.0
  9
$USERR3
 40
0.0
  9
$USERR4
 40
0.0
  9
$USERR5
 40
0.0
  9
$WORLDVIEW
 70
     1
  9
$SHADEDGE
 70
     3
  9
$SHADEDIF
 70
    70
  9
$TILEMODE
 70
     1
  9
$MAXACTVP
 70
    16
  9
$PINSBASE
 10
0.0
 20
0.0
 30
0.0
  9
$PLIMCHECK
 70
     0
  9
$PEXTMIN
 10
-1.07004782003139
 20
-1.291571994384412
 30
-0.0000000349181948
  9
$PEXTMAX
 10
395.4219880734061
 20
569.0895986782484
 30
0.0000000814935747
  9
$PLIMMIN
 10
-12.81784022706727
 20
-13.0395655540688
  9
$PLIMMAX
 10
407.1466141577649
 20
580.8375941453623
  9
$UNITMODE
 70
     0
  9
$VISRETAIN
 70
     0
  9
$PLINEGEN
 70
     1
  9
$PSLTSCALE
 70
     0
  9
$TREEDEPTH
 70
  3020
  9
$PICKSTYLE
 70
     1
  9
$CMLSTYLE
  2
STANDARD
  9
$CMLJUST
 70
     0
  9
$CMLSCALE
 40
1.0
  9
$SAVEIMAGES
 70
     1
  0
ENDSEC
  0
SECTION
  2
CLASSES
  0
CLASS
  1
LWPOLYLINE
  2
AcDbPolyline
  3
AutoCAD 2000
 90
    32768
280
     0
281
     1
  0
CLASS
  1
IMAGE
  2
AcDbRasterImage
  3
ISM
 90
    32895
280
     0
281
     1
  0
CLASS
  1
OLE2FRAME
  2
AcDbOle2Frame
  3
AutoCAD 2000
 90
    32768
280
     0
281
     1
  0
CLASS
  1
HATCH
  2
AcDbHatch
  3
AutoCAD 2000
 90
    32768
280
     0
281
     1
  0
CLASS
  1
DICTIONARYVAR
  2
AcDbDictionaryVar
  3
AutoCAD 2000
 90
    32768
280
     0
281
     0
  0
CLASS
  1
RASTERVARIABLES
  2
AcDbRasterVariables
  3
ISM
 90
    32768
280
     0
281
     0
  0
CLASS
  1
IMAGEDEF
  2
AcDbRasterImageDef
  3
ISM
 90
    32768
280
     0
281
     0
  0
CLASS
  1
IMAGEDEF_REACTOR
  2
AcDbRasterImageDefReactor
  3
ISM
 90
    32769
280
     0
281
     0
  0
CLASS
  1
IDBUFFER
  2
AcDbIdBuffer
  3
AutoCAD 2000
 90
    32768
280
     0
281
     0
  0
CLASS
  1
SPATIAL_FILTER
  2
AcDbSpatialFilter
  3
AutoCAD 2000
 90
    32768
280
     0
281
     0
  0
CLASS
  1
XRECORD
  2
AcDbXrecord
  3
AutoCAD 2000
 90
    32768
280
     0
281
     0
  0
CLASS
  1
SORTENTSTABLE
  2
AcDbSortentsTable
  3
AutoCAD 2000
 90
    32768
280
     0
281
     0
  0
CLASS
  1
LAYER_INDEX
  2
AcDbLayerIndex
  3
AutoCAD 2000
 90
    32768
280
     0
281
     0
  0
CLASS
  1
SPATIAL_INDEX
  2
AcDbSpatialIndex
  3
AutoCAD 2000
 90
    32768
280
     0
281
     0
  0
CLASS
  1
OBJECT_PTR
  2
CAseDLPNTableRecord
  3
ASE-LPNTableRecord
 90
    32769
280
     0
281
     0
  0
CLASS
  1
ACDBDICTIONARYWDFLT
  2
AcDbDictionaryWithDefault
  3
AutoCAD 2000
 90
    32768
280
     0
281
     0
  0
CLASS
  1
ACDBPLACEHOLDER
  2
AcDbPlaceHolder
  3
AutoCAD 2000
 90
    32768
280
     0
281
     0
  0
CLASS
  1
LAYOUT
  2
AcDbLayout
  3
AutoCAD 2000
 90
    32768
280
     0
281
     0
  0
CLASS
  1
LONG_TRANSACTION
  2
AcDbLongTransaction
  3
AutoCAD 2000
 90
    32768
280
     0
281
     0
  0
CLASS
  1
LWPOLYLINE
  2
AcDbPolyline
  3
AutoCAD 2000
 90
    32768
280
     0
281
     1
  0
CLASS
  1
HATCH
  2
AcDbHatch
  3
AutoCAD 2000
 90
    32768
280
     0
281
     1
  0
CLASS
  1
XRECORD
  2
AcDbXrecord
  3
AutoCAD 2000
 90
    32768
280
     0
281
     0
  0
CLASS
  1
LONG_TRANSACTION
  2
AcDbLongTransaction
  3
AutoCAD 2000
 90
    32768
280
     0
281
     0
  0
CLASS
  1
LWPOLYLINE
  2
AcDbPolyline
  3
AutoCAD 2000
 90
    32768
280
     0
281
     1
  0
CLASS
  1
HATCH
  2
AcDbHatch
  3
AutoCAD 2000
 90
    32768
280
     0
281
     1
  0
CLASS
  1
XRECORD
  2
AcDbXrecord
  3
AutoCAD 2000
 90
    32768
280
     0
281
     0
  0
CLASS
  1
LONG_TRANSACTION
  2
AcDbLongTransaction
  3
AutoCAD 2000
 90
    32768
280
     0
281
     0
  0
CLASS
  1
LWPOLYLINE
  2
AcDbPolyline
  3
AutoCAD 2000
 90
    32768
280
     0
281
     1
  0
CLASS
  1
HATCH
  2
AcDbHatch
  3
AutoCAD 2000
 90
    32768
280
     0
281
     1
  0
CLASS
  1
XRECORD
  2
AcDbXrecord
  3
AutoCAD 2000
 90
    32768
280
     0
281
     0
  0
ENDSEC
  0
SECTION
  2
TABLES
  0
TABLE
  2
VPORT
  5
7
330
0
100
AcDbSymbolTable
 70
     2
  0
VPORT
  5
90DB
330
7
100
AcDbSymbolTableRecord
100
AcDbViewportTableRecord
  2
*ACTIVE
 70
     0
 10
0.0
 20
0.0
 11
1.0
 21
1.0
 12
229.3228856867703
 22
297.000001383014
 13
0.0
 23
0.0
 14
1.0
 24
1.0
 15
0.0
 25
0.0
 16
0.0
 26
0.0
 36
1.0
 17
0.0
 27
0.0
 37
0.0
 40
601.2065199759421
 41
1.780442804428044
 42
50.0
 43
0.0
 44
0.0
 50
0.0
 51
0.0
 71
     0
 72
   100
 73
     1
 74
     1
 75
     0
 76
     0
 77
     0
 78
     0
  0
ENDTAB
  0
TABLE
  2
LTYPE
  5
4
330
0
100
AcDbSymbolTable
 70
     4
  0
LTYPE
  5
11
330
4
100
AcDbSymbolTableRecord
100
AcDbLinetypeTableRecord
  2
BYBLOCK
 70
     0
  3

 72
    65
 73
     0
 40
0.0
  0
LTYPE
  5
12
330
4
100
AcDbSymbolTableRecord
100
AcDbLinetypeTableRecord
  2
BYLAYER
 70
     0
  3

 72
    65
 73
     0
 40
0.0
  0
LTYPE
  5
13
330
4
100
AcDbSymbolTableRecord
100
AcDbLinetypeTableRecord
  2
CONTINUOUS
 70
     0
  3
Solid line
 72
    65
 73
     0
 40
0.0
  0
LTYPE
  5
5F6
330
4
100
AcDbSymbolTableRecord
100
AcDbLinetypeTableRecord
  2
CENTER2
 70
     0
  3
Center (.5x) ___ _ ___ _ ___ _ ___ _ ___ _ ___
 72
    65
 73
     4
 40
28.57499999999999
 49
19.05
 74
     0
 49
-3.174999999999998
 74
     0
 49
3.174999999999998
 74
     0
 49
-3.174999999999998
 74
     0
  0
LTYPE
  5
5F7
330
4
100
AcDbSymbolTableRecord
100
AcDbLinetypeTableRecord
  2
DASHED2
 70
     0
  3
Dashed (.5x) _ _ _ _ _ _ _ _ _ _ _ _ _ _ _ _ _
 72
    65
 73
     2
 40
9.524999999999996
 49
6.349999999999997
 74
     0
 49
-3.174999999999998
 74
     0
  0
LTYPE
  5
5F8
330
4
100
AcDbSymbolTableRecord
100
AcDbLinetypeTableRecord
  2
PHANTOM2
 70
     0
  3
Phantom (.5x) ___ _ _ ___ _ _ ___ _ _ ___ _ _
 72
    65
 73
     6
 40
31.75
 49
15.875
 74
     0
 49
-3.174999999999998
 74
     0
 49
3.174999999999998
 74
     0
 49
-3.174999999999998
 74
     0
 49
3.174999999999998
 74
     0
 49
-3.174999999999998
 74
     0
  0
ENDTAB
  0
TABLE
  2
LAYER
  5
2
102
{ACAD_XDICTIONARY
360
9084
102
}
330
0
100
AcDbSymbolTable
 70
    13
  0
LAYER
  5
14
330
2
100
AcDbSymbolTableRecord
100
AcDbLayerTableRecord
  2
0
 70
     0
 62
     7
  6
CONTINUOUS
  0
LAYER
  5
5F9
330
2
100
AcDbSymbolTableRecord
100
AcDbLayerTableRecord
  2
DEFPOINTS
 70
     0
 62
     7
  6
CONTINUOUS
  0
LAYER
  5
5FB
330
2
100
AcDbSymbolTableRecord
100
AcDbLayerTableRecord
  2
02
 70
     0
 62
     2
  6
CONTINUOUS
  0
LAYER
  5
5FC
330
2
100
AcDbSymbolTableRecord
100
AcDbLayerTableRecord
  2
03
 70
     0
 62
     3
  6
CONTINUOUS
  0
LAYER
  5
5FF
330
2
100
AcDbSymbolTableRecord
100
AcDbLayerTableRecord
  2
06
 70
     0
 62
     6
  6
CONTINUOUS
  0
LAYER
  5
601
330
2
100
AcDbSymbolTableRecord
100
AcDbLayerTableRecord
  2
CHUSIN
 70
     0
 62
     6
  6
CENTER2
  0
LAYER
  5
602
330
2
100
AcDbSymbolTableRecord
100
AcDbLayerTableRecord
  2
HIKIDASI
 70
     0
 62
     6
  6
CONTINUOUS
  0
LAYER
  5
603
330
2
100
AcDbSymbolTableRecord
100
AcDbLayerTableRecord
  2
KAKURE
 70
     0
 62
     6
  6
DASHED2
  0
LAYER
  5
604
330
2
100
AcDbSymbolTableRecord
100
AcDbLayerTableRecord
  2
MOJI
 70
     0
 62
     3
  6
CONTINUOUS
  0
LAYER
  5
606
330
2
100
AcDbSymbolTableRecord
100
AcDbLayerTableRecord
  2
SUNPOU
 70
     0
 62
     6
  6
CONTINUOUS
  0
LAYER
  5
8394
330
2
100
AcDbSymbolTableRecord
100
AcDbLayerTableRecord
  2
SAISEN
 70
     0
 62
     3
  6
CONTINUOUS
  0
LAYER
  5
8863
330
2
100
AcDbSymbolTableRecord
100
AcDbLayerTableRecord
  2
SOUZOU
 70
     0
 62
     6
  6
PHANTOM2
  0
LAYER
  5
8DFA
330
2
100
AcDbSymbolTableRecord
100
AcDbLayerTableRecord
  2
04
 70
     0
 62
     4
  6
CONTINUOUS
  0
ENDTAB
  0
TABLE
  2
STYLE
  5
3
330
0
100
AcDbSymbolTable
 70
     5
  0
STYLE
  5
17
330
3
100
AcDbSymbolTableRecord
100
AcDbTextStyleTableRecord
  2
STANDARD
 70
     0
 40
0.0
 41
1.0
 50
0.0
 71
     0
 42
8.0
  3
txt.shx
  4
bigfont.shx
  0
STYLE
  5
611
330
3
100
AcDbSymbolTableRecord
100
AcDbTextStyleTableRecord
  2
SUNPOU
 70
     0
 40
0.0
 41
0.8
 50
0.0
 71
     0
 42
0.2
  3
txt.shx
  4
extfont.shx
  0
STYLE
  5
618
330
3
100
AcDbSymbolTableRecord
100
AcDbTextStyleTableRecord
  2
0_8
 70
     0
 40
0.0
 41
0.8
 50
0.0
 71
     0
 42
2.5
  3
txt.shx
  4
extfont.shx
  0
STYLE
  5
61C
330
3
100
AcDbSymbolTableRecord
100
AcDbTextStyleTableRecord
  2
0_9
 70
     0
 40
0.0
 41
0.9
 50
0.0
 71
     0
 42
7.0
  3
txt.shx
  4
extfont.shx
  0
STYLE
  5
9082
330
3
100
AcDbSymbolTableRecord
100
AcDbTextStyleTableRecord
  2
0_80
 70
     0
 40
0.0
 41
0.8
 50
0.0
 71
     0
 42
7.0
  3
txt.shx
  4
extfont.shx
  0
ENDTAB
  0
TABLE
  2
VIEW
  5
5
330
0
100
AcDbSymbolTable
 70
     1
  0
VIEW
  5
136
330
5
100
AcDbSymbolTableRecord
100
AcDbViewTableRecord
  2
QQQQ
 70
     0
 40
618.7999999999997
 10
-6.0
 20
-1.0
 41
419.8999999999998
 11
0.0
 21
0.0
 31
1.0
 12
100.0
 22
100.0
 32
0.0
 42
50.0
 43
0.0
 44
0.0
 50
0.0
 71
     0
  0
ENDTAB
  0
TABLE
  2
UCS
  5
6
330
0
100
AcDbSymbolTable
 70
     0
  0
ENDTAB
  0
TABLE
  2
APPID
  5
8
330
0
100
AcDbSymbolTable
 70
     3
  0
APPID
  5
16
330
8
100
AcDbSymbolTableRecord
100
AcDbRegAppTableRecord
  2
ACAD
 70
     0
  0
APPID
  5
62F
330
8
100
AcDbSymbolTableRecord
100
AcDbRegAppTableRecord
  2
DCO15
 70
     0
  0
APPID
  5
8FF7
330
8
100
AcDbSymbolTableRecord
100
AcDbRegAppTableRecord
  2
CONTENTBLOCKICON
 70
     0
  0
ENDTAB
  0
TABLE
  2
DIMSTYLE
  5
9
330
0
100
AcDbSymbolTable
 70
     2
  0
DIMSTYLE
105
6E5
102
{ACAD_REACTORS
330
71D
330
734
330
741
330
74E
330
75B
330
78B
330
7B6
330
7C3
330
7D2
330
7E8
330
7F7
330
804
330
AD4
330
AE3
330
B75
330
B7A
330
B7F
102
}
330
9
100
AcDbSymbolTableRecord
100
AcDbDimStyleTableRecord
  2
SUNPOU_2
 70
     0
  3

  4

  5
OPEN30
  6

  7

 40
2.0
 41
2.5
 42
1.5
 43
0.0
 44
1.0
 45
0.0
 46
0.0
 47
0.0
 48
0.0
140
2.5
141
0.0
142
0.0
143
25.4
144
1.0
145
0.0
146
1.0
147
1.0
 71
     0
 72
     0
 73
     0
 74
     0
 75
     0
 76
     0
 77
     1
 78
     8
170
     0
171
     2
172
     1
173
     0
174
     0
175
     0
176
   256
177
   256
178
   256
270
     2
271
     1
272
     1
273
     2
274
     2
340
611
275
     0
280
     0
281
     0
282
     0
283
     1
284
     0
285
     0
286
     0
287
     3
288
     0
  0
DIMSTYLE
105
8708
330
9
100
AcDbSymbolTableRecord
100
AcDbDimStyleTableRecord
  2
STANDARD
 70
     0
  3

  4

  5

  6

  7

 40
1.0
 41
0.18
 42
0.0625
 43
0.38
 44
0.18
 45
0.0
 46
0.0
 47
0.0
 48
0.0
140
0.18
141
0.09
142
0.0
143
25.4
144
1.0
145
0.0
146
1.0
147
0.09
 71
     0
 72
     0
 73
     1
 74
     1
 75
     0
 76
     0
 77
     0
 78
     0
170
     0
171
     2
172
     0
173
     0
174
     0
175
     0
176
     0
177
     0
178
     0
270
     2
271
     4
272
     4
273
     2
274
     2
340
17
275
     0
280
     0
281
     0
282
     0
283
     1
284
     0
285
     0
286
     0
287
     3
288
     0
  0
ENDTAB
  0
TABLE
  2
BLOCK_RECORD
  5
1
330
0
100
AcDbSymbolTable
 70
    18
  0
BLOCK_RECORD
  5
A
102
{ACAD_XDICTIONARY
360
8FF3
102
}
330
1
100
AcDbSymbolTableRecord
100
AcDbBlockTableRecord
  2
*MODEL_SPACE
  0
BLOCK_RECORD
  5
B
102
{ACAD_XDICTIONARY
360
8FF5
102
}
330
1
100
AcDbSymbolTableRecord
100
AcDbBlockTableRecord
  2
*PAPER_SPACE
  0
BLOCK_RECORD
  5
60B
330
1
100
AcDbSymbolTableRecord
100
AcDbBlockTableRecord
  2
_OPEN30
1001
CONTENTBLOCKICON
1071
        0
1004
2800000020000000200000000100080000000000000400000000000000000000000000000000000000000000000080000080000000808000800000008000800080800000C0C0C000C0DCC000F0CAA6000020400000206000002080000020A0000020C0000020E00000400000004020000040400000406000004080000040A0
1004
000040C0000040E00000600000006020000060400000606000006080000060A0000060C0000060E00000800000008020000080400000806000008080000080A0000080C0000080E00000A0000000A0200000A0400000A0600000A0800000A0A00000A0C00000A0E00000C0000000C0200000C0400000C0600000C0800000C0
1004
A00000C0C00000C0E00000E0000000E0200000E0400000E0600000E0800000E0A00000E0C00000E0E00040000000400020004000400040006000400080004000A0004000C0004000E00040200000402020004020400040206000402080004020A0004020C0004020E000404000004040200040404000404060004040800040
1004
40A0004040C0004040E00040600000406020004060400040606000406080004060A0004060C0004060E00040800000408020004080400040806000408080004080A0004080C0004080E00040A0000040A0200040A0400040A0600040A0800040A0A00040A0C00040A0E00040C0000040C0200040C0400040C0600040C08000
1004
40C0A00040C0C00040C0E00040E0000040E0200040E0400040E0600040E0800040E0A00040E0C00040E0E00080000000800020008000400080006000800080008000A0008000C0008000E00080200000802020008020400080206000802080008020A0008020C0008020E00080400000804020008040400080406000804080
1004
008040A0008040C0008040E00080600000806020008060400080606000806080008060A0008060C0008060E00080800000808020008080400080806000808080008080A0008080C0008080E00080A0000080A0200080A0400080A0600080A0800080A0A00080A0C00080A0E00080C0000080C0200080C0400080C0600080C0
1004
800080C0A00080C0C00080C0E00080E0000080E0200080E0400080E0600080E0800080E0A00080E0C00080E0E000C0000000C0002000C0004000C0006000C0008000C000A000C000C000C000E000C0200000C0202000C0204000C0206000C0208000C020A000C020C000C020E000C0400000C0402000C0404000C0406000C0
1004
408000C040A000C040C000C040E000C0600000C0602000C0604000C0606000C0608000C060A000C060C000C060E000C0800000C0802000C0804000C0806000C0808000C080A000C080C000C080E000C0A00000C0A02000C0A04000C0A06000C0A08000C0A0A000C0A0C000C0A0E000C0C00000C0C02000C0C04000C0C06000
1004
C0C08000C0C0A000F0FBFF00A4A0A000808080000000FF0000FF000000FFFF00FF000000FF00FF00FFFF0000FFFFFF0000000000000000000000000000000000000000000000000000000000000000000000000000000000000000000000000000000000000000000000000000000000000000000000000000000000000000
1004
00000000000000000000000000000000000000000000000000000000000000000000000000000000000000000000000000000000000000000000000000000000000000000000000000000000000000000000000000000000000000000000000000000000000000000000000000000000000000000000000000000000000000
1004
000000000000000000000000000000000000000000000000000000000000000000000000000000000000000000000000000000FFFF0000000000000000000000000000000000000000000000000000000000000000FFFFFFFF0000000000000000000000000000000000000000000000000000000000000000FFFFFFFF0000
1004
000000000000000000000000000000000000000000000000000000000000FFFFFF0000000000000000000000000000000000000000000000000000000000000000FFFFFFFF0000000000000000000000000000000000000000000000000000000000000000FFFFFF0000000000000000000000000000000000000000000000
1004
000000000000000000FFFFFFFF0000000000000000000000000000000000000000000000000000000000000000FFFFFFFF00000000FFFFFFFFFFFFFFFFFFFFFFFFFFFFFFFFFFFFFFFFFFFFFFFFFFFFFFFFFFFF00000000000000000000000000000000000000000000000000FFFFFFFF000000000000000000000000000000
1004
000000000000000000FFFFFFFF000000000000000000000000000000000000000000000000FFFFFFFF000000000000000000000000000000000000000000000000FFFFFFFF000000000000000000000000000000000000000000000000FFFFFFFF000000000000000000000000000000000000000000000000FFFFFFFF0000
1004
0000000000000000000000000000000000000000000000FFFFFF0000000000000000000000000000000000000000000000000000000000000000000000000000000000000000000000000000000000000000000000000000000000000000000000000000000000000000000000000000000000000000000000000000000000
1004
00000000000000000000000000000000000000000000000000000000000000000000000000000000000000000000000000000000000000000000000000000000000000000000000000000000000000000000000000000000000000000000000000000000000000000000000000000000000000000000000000000000000000
1004
0000000000000000000000000000000000000000000000000000000000000000000000000000000000000000000000000000000000000000
  0
BLOCK_RECORD
  5
71E
330
1
100
AcDbSymbolTableRecord
100
AcDbBlockTableRecord
  2
*D1
  0
BLOCK_RECORD
  5
735
330
1
100
AcDbSymbolTableRecord
100
AcDbBlockTableRecord
  2
*D2
  0
BLOCK_RECORD
  5
742
330
1
100
AcDbSymbolTableRecord
100
AcDbBlockTableRecord
  2
*D3
  0
BLOCK_RECORD
  5
74F
330
1
100
AcDbSymbolTableRecord
100
AcDbBlockTableRecord
  2
*D4
  0
BLOCK_RECORD
  5
75C
330
1
100
AcDbSymbolTableRecord
100
AcDbBlockTableRecord
  2
*D5
  0
BLOCK_RECORD
  5
78C
330
1
100
AcDbSymbolTableRecord
100
AcDbBlockTableRecord
  2
*D6
  0
BLOCK_RECORD
  5
7B7
330
1
100
AcDbSymbolTableRecord
100
AcDbBlockTableRecord
  2
*D7
  0
BLOCK_RECORD
  5
7C4
330
1
100
AcDbSymbolTableRecord
100
AcDbBlockTableRecord
  2
*D8
  0
BLOCK_RECORD
  5
7D3
330
1
100
AcDbSymbolTableRecord
100
AcDbBlockTableRecord
  2
*D9
  0
BLOCK_RECORD
  5
7E9
330
1
100
AcDbSymbolTableRecord
100
AcDbBlockTableRecord
  2
*D10
  0
BLOCK_RECORD
  5
7F8
330
1
100
AcDbSymbolTableRecord
100
AcDbBlockTableRecord
  2
*D11
  0
BLOCK_RECORD
  5
805
330
1
100
AcDbSymbolTableRecord
100
AcDbBlockTableRecord
  2
*D12
  0
BLOCK_RECORD
  5
AD5
330
1
100
AcDbSymbolTableRecord
100
AcDbBlockTableRecord
  2
*D13
  0
BLOCK_RECORD
  5
AE4
330
1
100
AcDbSymbolTableRecord
100
AcDbBlockTableRecord
  2
*D14
  0
BLOCK_RECORD
  5
AF2
330
1
100
AcDbSymbolTableRecord
100
AcDbBlockTableRecord
  2
_DOTSMALL
1001
CONTENTBLOCKICON
1071
        0
1004
2800000020000000200000000100080000000000000400000000000000000000000000000000000000000000000080000080000000808000800000008000800080800000C0C0C000C0DCC000F0CAA6000020400000206000002080000020A0000020C0000020E00000400000004020000040400000406000004080000040A0
1004
000040C0000040E00000600000006020000060400000606000006080000060A0000060C0000060E00000800000008020000080400000806000008080000080A0000080C0000080E00000A0000000A0200000A0400000A0600000A0800000A0A00000A0C00000A0E00000C0000000C0200000C0400000C0600000C0800000C0
1004
A00000C0C00000C0E00000E0000000E0200000E0400000E0600000E0800000E0A00000E0C00000E0E00040000000400020004000400040006000400080004000A0004000C0004000E00040200000402020004020400040206000402080004020A0004020C0004020E000404000004040200040404000404060004040800040
1004
40A0004040C0004040E00040600000406020004060400040606000406080004060A0004060C0004060E00040800000408020004080400040806000408080004080A0004080C0004080E00040A0000040A0200040A0400040A0600040A0800040A0A00040A0C00040A0E00040C0000040C0200040C0400040C0600040C08000
1004
40C0A00040C0C00040C0E00040E0000040E0200040E0400040E0600040E0800040E0A00040E0C00040E0E00080000000800020008000400080006000800080008000A0008000C0008000E00080200000802020008020400080206000802080008020A0008020C0008020E00080400000804020008040400080406000804080
1004
008040A0008040C0008040E00080600000806020008060400080606000806080008060A0008060C0008060E00080800000808020008080400080806000808080008080A0008080C0008080E00080A0000080A0200080A0400080A0600080A0800080A0A00080A0C00080A0E00080C0000080C0200080C0400080C0600080C0
1004
800080C0A00080C0C00080C0E00080E0000080E0200080E0400080E0600080E0800080E0A00080E0C00080E0E000C0000000C0002000C0004000C0006000C0008000C000A000C000C000C000E000C0200000C0202000C0204000C0206000C0208000C020A000C020C000C020E000C0400000C0402000C0404000C0406000C0
1004
408000C040A000C040C000C040E000C0600000C0602000C0604000C0606000C0608000C060A000C060C000C060E000C0800000C0802000C0804000C0806000C0808000C080A000C080C000C080E000C0A00000C0A02000C0A04000C0A06000C0A08000C0A0A000C0A0C000C0A0E000C0C00000C0C02000C0C04000C0C06000
1004
C0C08000C0C0A000F0FBFF00A4A0A000808080000000FF0000FF000000FFFF00FF000000FF00FF00FFFF0000FFFFFF0000000000000000000000FFFF0000000000000000FFFF00000000000000000000FF000000000000000000FFFF0000000000000000FFFF000000000000000000FFFFFF000000000000000000FF000000
1004
0000000000FF000000000000000000FFFF00FF000000000000000000FFFF000000000000FFFF000000000000000000FF0000FFFF0000000000000000FFFFFF00000000FFFFFF0000000000000000FFFF000000FFFF00000000000000FF00FFFF0000FFFF00FF00000000000000FFFF0000FFFF00FF00000000000000FF0000
1004
FF0000FF0000FF00000000000000FF00FFFF00FFFFFFFFFF0000000000FF000000FFFF000000FF0000000000FFFFFFFFFF0000000000FFFFFFFFFF0000FF000000FFFF000000FF0000FFFFFFFFFF000000000000000000FFFF00FFFFFFFF000000FFFF000000FFFFFFFF00FFFF0000000000000000000000FF00000000FFFF
1004
FFFF0000FFFFFFFF00000000FF00000000000000000000000000FF000000FF00FFFFFFFFFFFF00FF000000FF0000000000000000000000000000FFFF0000FFFFFFFF0000FFFFFFFF0000FFFF000000000000000000000000000000FFFFFFFFFF000000000000FFFFFFFFFF00000000000000000000000000FFFFFFFFFF00FF
1004
0000000000000000FF00FFFFFFFFFF0000000000FFFFFFFFFFFF000000FFFFFF0000000000000000FFFFFF000000FFFFFFFFFFFFFFFFFFFFFFFF000000FFFFFF0000000000000000FFFFFF000000FFFFFFFFFFFF0000000000FFFFFFFFFF00FF0000000000000000FF00FFFFFFFFFF00000000000000000000000000FFFFFF
1004
FFFF000000000000FFFFFFFFFF000000000000000000000000000000FFFF0000FFFFFFFF0000FFFFFFFF0000FFFF0000000000000000000000000000FF000000FF00FFFFFFFFFFFF00FF000000FF00000000000000000000000000FF00000000FFFFFFFF0000FFFFFFFF00000000FF0000000000000000000000FFFF00FFFF
1004
FFFF000000FFFF000000FFFFFFFF00FFFF000000000000000000FFFFFFFFFF0000FF000000FFFF000000FF0000FFFFFFFFFF0000000000FFFFFFFFFF0000000000FF000000FFFF000000FF0000000000FFFFFFFFFF00FFFF00FF00000000000000FF0000FF0000FF0000FF00000000000000FF00FFFF0000FFFF0000000000
1004
0000FF00FFFF0000FFFF00FF00000000000000FFFF000000FFFF0000000000000000FFFFFF00000000FFFFFF0000000000000000FFFF0000FF000000000000000000FFFF000000000000FFFF000000000000000000FF00FFFF000000000000000000FF0000000000000000FF000000000000000000FFFFFF00000000000000
1004
0000FFFF0000000000000000FFFF000000000000000000FF00000000000000000000FFFF0000000000000000FFFF00000000000000000000
  0
BLOCK_RECORD
  5
B0A
330
1
100
AcDbSymbolTableRecord
100
AcDbBlockTableRecord
  2
_NONE
  0
BLOCK_RECORD
  5
9028
330
1
100
AcDbSymbolTableRecord
100
AcDbBlockTableRecord
  2
*X17
  0
ENDTAB
  0
ENDSEC
  0
SECTION
  2
BLOCKS
  0
BLOCK
  5
D
330
A
100
AcDbEntity
  8
0
100
AcDbBlockBegin
  2
*MODEL_SPACE
 70
     0
 10
0.0
 20
0.0
 30
0.0
  3
*MODEL_SPACE
  1

  0
ENDBLK
  5
E
330
A
100
AcDbEntity
  8
0
100
AcDbBlockEnd
  0
BLOCK
  5
F
330
B
100
AcDbEntity
 67
     1
  8
0
100
AcDbBlockBegin
  2
*PAPER_SPACE
 70
     0
 10
0.0
 20
0.0
 30
0.0
  3
*PAPER_SPACE
  1

  0
ENDBLK
  5
10
330
B
100
AcDbEntity
 67
     1
  8
0
100
AcDbBlockEnd
  0
BLOCK
  5
60C
330
60B
100
AcDbEntity
  8
0
100
AcDbBlockBegin
  2
_OPEN30
 70
     0
 10
0.0
 20
0.0
 30
0.0
  3
_OPEN30
  1

  0
LINE
  5
60D
330
60B
100
AcDbEntity
  8
0
  6
BYBLOCK
 62
     0
100
AcDbLine
 10
-1.0
 20
0.26794919
 30
0.0
 11
0.0
 21
0.0
 31
0.0
  0
LINE
  5
60E
330
60B
100
AcDbEntity
  8
0
  6
BYBLOCK
 62
     0
100
AcDbLine
 10
0.0
 20
0.0
 30
0.0
 11
-1.0
 21
-0.26794919
 31
0.0
  0
LINE
  5
60F
330
60B
100
AcDbEntity
  8
0
  6
BYBLOCK
 62
     0
100
AcDbLine
 10
0.0
 20
0.0
 30
0.0
 11
-1.0
 21
0.0
 31
0.0
  0
ENDBLK
  5
610
330
60B
100
AcDbEntity
  8
0
100
AcDbBlockEnd
  0
BLOCK
  5
728
330
71E
100
AcDbEntity
  8
0
100
AcDbBlockBegin
  2
*D1
 70
     1
 10
0.0
 20
0.0
 30
0.0
  3
*D1
  1

  0
LINE
  5
8EC8
330
71E
100
AcDbEntity
  8
SUNPOU
100
AcDbLine
 10
158.9336205615937
 20
206.9682963672719
 30
0.0
 11
141.9336205615938
 21
206.9682963672719
 31
0.0
  0
LINE
  5
8EC9
330
71E
100
AcDbEntity
  8
SUNPOU
100
AcDbLine
 10
168.4336205615935
 20
270.9682963672719
 30
0.0
 11
141.9336205615938
 21
270.9682963672719
 31
0.0
  0
LINE
  5
8ECA
330
71E
100
AcDbEntity
  8
SUNPOU
100
AcDbLine
 10
143.9336205615938
 20
211.9682963672719
 30
0.0
 11
143.9336205615938
 21
265.9682963672719
 31
0.0
  0
INSERT
  5
8ECB
330
71E
100
AcDbEntity
  8
SUNPOU
100
AcDbBlockReference
  2
_OPEN30
 10
143.9336205615938
 20
206.9682963672719
 30
0.0
 41
5.0
 42
5.0
 43
5.0
 50
270.0
  0
INSERT
  5
8ECC
330
71E
100
AcDbEntity
  8
SUNPOU
100
AcDbBlockReference
  2
_OPEN30
 10
143.9336205615938
 20
270.9682963672719
 30
0.0
 41
5.0
 42
5.0
 43
5.0
 50
90.0
  0
MTEXT
  5
8ECD
330
71E
100
AcDbEntity
  8
SUNPOU
100
AcDbMText
 10
139.4336205615935
 20
238.9682963672719
 30
0.0
 40
5.0
 41
0.0
 71
     5
 72
     1
  1
\A1;600
  7
SUNPOU
 11
0.0000000000000001
 21
1.0
 31
0.0
1001
ACAD
1000
MTEXTBEGIN
1070
    73
1070
     1
1070
    44
1040
1.0
1070
    74
1070
     0
1000
MTEXTEND
1000
MTEXTBEGIN
1070
    73
1070
     1
1070
    44
1040
1.0
1070
    74
1070
     0
1000
MTEXTEND
  0
POINT
  5
8ECE
330
71E
100
AcDbEntity
  8
DEFPOINTS
 62
     0
100
AcDbPoint
 10
161.9336205615937
 20
206.9682963672719
 30
0.0
  0
POINT
  5
8ECF
330
71E
100
AcDbEntity
  8
DEFPOINTS
 62
     0
100
AcDbPoint
 10
171.4336205615937
 20
270.9682963672719
 30
0.0
  0
POINT
  5
8ED0
330
71E
100
AcDbEntity
  8
DEFPOINTS
 62
     0
100
AcDbPoint
 10
143.9336205615938
 20
270.9682963672719
 30
0.0
  0
ENDBLK
  5
729
330
71E
100
AcDbEntity
  8
0
100
AcDbBlockEnd
  0
BLOCK
  5
73F
330
735
100
AcDbEntity
  8
0
100
AcDbBlockBegin
  2
*D2
 70
     1
 10
0.0
 20
0.0
 30
0.0
  3
*D2
  1

  0
LINE
  5
8EBF
330
735
100
AcDbEntity
  8
SUNPOU
100
AcDbLine
 10
216.4336205615938
 20
181.9682963672719
 30
0.0
 11
216.4336205615938
 21
162.7048603595731
 31
0.0
  0
LINE
  5
8EC0
330
735
100
AcDbEntity
  8
SUNPOU
100
AcDbLine
 10
233.4336205615938
 20
181.9682963672719
 30
0.0
 11
233.4336205615938
 21
162.7048603595731
 31
0.0
  0
LINE
  5
8EC1
330
735
100
AcDbEntity
  8
SUNPOU
100
AcDbLine
 10
221.4336205615938
 20
164.7048603595731
 30
0.0
 11
228.4336205615938
 21
164.7048603595731
 31
0.0
  0
INSERT
  5
8EC2
330
735
100
AcDbEntity
  8
SUNPOU
100
AcDbBlockReference
  2
_OPEN30
 10
216.4336205615938
 20
164.7048603595731
 30
0.0
 41
5.0
 42
5.0
 43
5.0
 50
180.0
  0
INSERT
  5
8EC3
330
735
100
AcDbEntity
  8
SUNPOU
100
AcDbBlockReference
  2
_OPEN30
 10
233.4336205615938
 20
164.7048603595731
 30
0.0
 41
5.0
 42
5.0
 43
5.0
  0
MTEXT
  5
8EC4
330
735
100
AcDbEntity
  8
SUNPOU
100
AcDbMText
 10
224.9336205615938
 20
169.2048603595731
 30
0.0
 40
5.0
 41
0.0
 71
     5
 72
     1
  1
\A1;17
  7
SUNPOU
1001
ACAD
1000
MTEXTBEGIN
1070
    73
1070
     1
1070
    44
1040
1.0
1070
    74
1070
     0
1000
MTEXTEND
1000
MTEXTBEGIN
1070
    73
1070
     1
1070
    44
1040
1.0
1070
    74
1070
     0
1000
MTEXTEND
  0
POINT
  5
8EC5
330
735
100
AcDbEntity
  8
DEFPOINTS
 62
     0
100
AcDbPoint
 10
216.4336205615938
 20
184.9682963672719
 30
0.0
  0
POINT
  5
8EC6
330
735
100
AcDbEntity
  8
DEFPOINTS
 62
     0
100
AcDbPoint
 10
233.4336205615938
 20
184.9682963672719
 30
0.0
  0
POINT
  5
8EC7
330
735
100
AcDbEntity
  8
DEFPOINTS
 62
     0
100
AcDbPoint
 10
233.4336205615938
 20
164.7048603595731
 30
0.0
  0
ENDBLK
  5
740
330
735
100
AcDbEntity
  8
0
100
AcDbBlockEnd
  0
BLOCK
  5
74C
330
742
100
AcDbEntity
  8
0
100
AcDbBlockBegin
  2
*D3
 70
     1
 10
0.0
 20
0.0
 30
0.0
  3
*D3
  1

  0
LINE
  5
8EB6
330
742
100
AcDbEntity
  8
SUNPOU
100
AcDbLine
 10
237.4336205615938
 20
185.9682963672719
 30
0.0
 11
270.9336205615938
 21
185.9682963672719
 31
0.0
  0
LINE
  5
8EB7
330
742
100
AcDbEntity
  8
SUNPOU
100
AcDbLine
 10
252.4336205615937
 20
209.9682963672719
 30
0.0
 11
270.9336205615938
 21
209.9682963672719
 31
0.0
  0
LINE
  5
8EB8
330
742
100
AcDbEntity
  8
SUNPOU
100
AcDbLine
 10
268.9336205615938
 20
190.968296367272
 30
0.0
 11
268.9336205615938
 21
204.968296367272
 31
0.0
  0
INSERT
  5
8EB9
330
742
100
AcDbEntity
  8
SUNPOU
100
AcDbBlockReference
  2
_OPEN30
 10
268.9336205615938
 20
185.9682963672719
 30
0.0
 41
5.0
 42
5.0
 43
5.0
 50
270.0
  0
INSERT
  5
8EBA
330
742
100
AcDbEntity
  8
SUNPOU
100
AcDbBlockReference
  2
_OPEN30
 10
268.9336205615938
 20
209.9682963672719
 30
0.0
 41
5.0
 42
5.0
 43
5.0
 50
90.0
  0
MTEXT
  5
8EBB
330
742
100
AcDbEntity
  8
SUNPOU
100
AcDbMText
 10
264.4336205615937
 20
197.9682963672719
 30
0.0
 40
5.0
 41
0.0
 71
     5
 72
     1
  1
\A1;25
  7
SUNPOU
 11
0.0000000000000001
 21
1.0
 31
0.0
1001
ACAD
1000
MTEXTBEGIN
1070
    73
1070
     1
1070
    44
1040
1.0
1070
    74
1070
     0
1000
MTEXTEND
1000
MTEXTBEGIN
1070
    73
1070
     1
1070
    44
1040
1.0
1070
    74
1070
     0
1000
MTEXTEND
  0
POINT
  5
8EBC
330
742
100
AcDbEntity
  8
DEFPOINTS
 62
     0
100
AcDbPoint
 10
234.4336205615938
 20
185.9682963672719
 30
0.0
  0
POINT
  5
8EBD
330
742
100
AcDbEntity
  8
DEFPOINTS
 62
     0
100
AcDbPoint
 10
249.4336205615938
 20
209.9682963672719
 30
0.0
  0
POINT
  5
8EBE
330
742
100
AcDbEntity
  8
DEFPOINTS
 62
     0
100
AcDbPoint
 10
268.9336205615938
 20
209.9682963672719
 30
0.0
  0
ENDBLK
  5
74D
330
742
100
AcDbEntity
  8
0
100
AcDbBlockEnd
  0
BLOCK
  5
759
330
74F
100
AcDbEntity
  8
0
100
AcDbBlockBegin
  2
*D4
 70
     1
 10
0.0
 20
0.0
 30
0.0
  3
*D4
  1

  0
LINE
  5
8EAD
330
74F
100
AcDbEntity
  8
SUNPOU
100
AcDbLine
 10
158.9336205615933
 20
341.4682963672718
 30
0.0
 11
158.9336205615933
 21
323.6178707664064
 31
0.0
  0
LINE
  5
8EAE
330
74F
100
AcDbEntity
  8
SUNPOU
100
AcDbLine
 10
204.9336205615936
 20
341.4682963672718
 30
0.0
 11
204.9336205615936
 21
323.6178707664064
 31
0.0
  0
LINE
  5
8EAF
330
74F
100
AcDbEntity
  8
SUNPOU
100
AcDbLine
 10
163.9336205615934
 20
325.6178707664064
 30
0.0
 11
199.9336205615935
 21
325.6178707664064
 31
0.0
  0
INSERT
  5
8EB0
330
74F
100
AcDbEntity
  8
SUNPOU
100
AcDbBlockReference
  2
_OPEN30
 10
158.9336205615933
 20
325.6178707664064
 30
0.0
 41
5.0
 42
5.0
 43
5.0
 50
180.0
  0
INSERT
  5
8EB1
330
74F
100
AcDbEntity
  8
SUNPOU
100
AcDbBlockReference
  2
_OPEN30
 10
204.9336205615936
 20
325.6178707664064
 30
0.0
 41
5.0
 42
5.0
 43
5.0
  0
MTEXT
  5
8EB2
330
74F
100
AcDbEntity
  8
SUNPOU
100
AcDbMText
 10
181.9336205615933
 20
330.1178707664063
 30
0.0
 40
5.0
 41
0.0
 71
     5
 72
     1
  1
\A1;46
  7
SUNPOU
1001
ACAD
1000
MTEXTBEGIN
1070
    73
1070
     1
1070
    44
1040
1.0
1070
    74
1070
     0
1000
MTEXTEND
1000
MTEXTBEGIN
1070
    73
1070
     1
1070
    44
1040
1.0
1070
    74
1070
     0
1000
MTEXTEND
  0
POINT
  5
8EB3
330
74F
100
AcDbEntity
  8
DEFPOINTS
 62
     0
100
AcDbPoint
 10
158.9336205615933
 20
344.4682963672718
 30
0.0
  0
POINT
  5
8EB4
330
74F
100
AcDbEntity
  8
DEFPOINTS
 62
     0
100
AcDbPoint
 10
204.9336205615936
 20
344.4682963672718
 30
0.0
  0
POINT
  5
8EB5
330
74F
100
AcDbEntity
  8
DEFPOINTS
 62
     0
100
AcDbPoint
 10
204.9336205615936
 20
325.6178707664064
 30
0.0
  0
ENDBLK
  5
75A
330
74F
100
AcDbEntity
  8
0
100
AcDbBlockEnd
  0
BLOCK
  5
768
330
75C
100
AcDbEntity
  8
0
100
AcDbBlockBegin
  2
*D5
 70
     1
 10
0.0
 20
0.0
 30
0.0
  3
*D5
  1

  0
LINE
  5
8EA2
330
75C
100
AcDbEntity
  8
SUNPOU
100
AcDbLine
 10
204.9336205615936
 20
341.4682963672718
 30
0.0
 11
204.9336205615936
 21
323.6178705190122
 31
0.0
  0
LINE
  5
8EA3
330
75C
100
AcDbEntity
  8
SUNPOU
100
AcDbLine
 10
210.4336205615937
 20
351.4682963672719
 30
0.0
 11
210.4336205615937
 21
323.6178705190122
 31
0.0
  0
LINE
  5
8EA4
330
75C
100
AcDbEntity
  8
SUNPOU
100
AcDbLine
 10
199.9336205615935
 20
325.6178705190122
 30
0.0
 11
194.9336205615937
 21
325.6178705190122
 31
0.0
  0
LINE
  5
8EA5
330
75C
100
AcDbEntity
  8
SUNPOU
100
AcDbLine
 10
215.4336205615936
 20
325.6178705190122
 30
0.0
 11
220.4336205615937
 21
325.6178705190122
 31
0.0
  0
MTEXT
  5
8EA6
330
75C
100
AcDbEntity
  8
SUNPOU
100
AcDbMText
 10
207.6836205615935
 20
321.6260765652026
 30
0.0
 40
5.0
 41
0.0
 71
     5
 72
     1
  1
\A1;5.5
  7
SUNPOU
1001
ACAD
1000
MTEXTBEGIN
1070
    73
1070
     1
1070
    44
1040
1.0
1070
    74
1070
     0
1000
MTEXTEND
1000
MTEXTBEGIN
1070
    73
1070
     1
1070
    44
1040
1.0
1070
    74
1070
     0
1000
MTEXTEND
  0
LINE
  5
8EA7
330
75C
100
AcDbEntity
  8
SUNPOU
100
AcDbLine
 10
204.9336205615936
 20
325.6178705190122
 30
0.0
 11
210.4336205615937
 21
325.6178705190122
 31
0.0
  0
INSERT
  5
8EA8
330
75C
100
AcDbEntity
  8
SUNPOU
100
AcDbBlockReference
  2
_OPEN30
 10
204.9336205615936
 20
325.6178705190122
 30
0.0
 41
5.0
 42
5.0
 43
5.0
  0
INSERT
  5
8EA9
330
75C
100
AcDbEntity
  8
SUNPOU
100
AcDbBlockReference
  2
_OPEN30
 10
210.4336205615937
 20
325.6178705190122
 30
0.0
 41
5.0
 42
5.0
 43
5.0
 50
180.0
  0
POINT
  5
8EAA
330
75C
100
AcDbEntity
  8
DEFPOINTS
 62
     0
100
AcDbPoint
 10
204.9336205615936
 20
344.4682963672718
 30
0.0
  0
POINT
  5
8EAB
330
75C
100
AcDbEntity
  8
DEFPOINTS
 62
     0
100
AcDbPoint
 10
210.4336205615937
 20
354.4682963672718
 30
0.0
  0
POINT
  5
8EAC
330
75C
100
AcDbEntity
  8
DEFPOINTS
 62
     0
100
AcDbPoint
 10
210.4336205615937
 20
325.6178705190122
 30
0.0
  0
ENDBLK
  5
769
330
75C
100
AcDbEntity
  8
0
100
AcDbBlockEnd
  0
BLOCK
  5
796
330
78C
100
AcDbEntity
  8
0
100
AcDbBlockBegin
  2
*D6
 70
     1
 10
0.0
 20
0.0
 30
0.0
  3
*D6
  1

  0
LINE
  5
8E99
330
78C
100
AcDbEntity
  8
SUNPOU
100
AcDbLine
 10
210.4336205615937
 20
351.4682963672719
 30
0.0
 11
210.4336205615937
 21
323.6178705190122
 31
0.0
  0
LINE
  5
8E9A
330
78C
100
AcDbEntity
  8
SUNPOU
100
AcDbLine
 10
239.4336205615937
 20
351.4682963672719
 30
0.0
 11
239.4336205615937
 21
323.6178705190122
 31
0.0
  0
LINE
  5
8E9B
330
78C
100
AcDbEntity
  8
SUNPOU
100
AcDbLine
 10
215.4336205615936
 20
325.6178705190122
 30
0.0
 11
234.4336205615936
 21
325.6178705190122
 31
0.0
  0
INSERT
  5
8E9C
330
78C
100
AcDbEntity
  8
SUNPOU
100
AcDbBlockReference
  2
_OPEN30
 10
210.4336205615937
 20
325.6178705190122
 30
0.0
 41
5.0
 42
5.0
 43
5.0
 50
180.0
  0
INSERT
  5
8E9D
330
78C
100
AcDbEntity
  8
SUNPOU
100
AcDbBlockReference
  2
_OPEN30
 10
239.4336205615937
 20
325.6178705190122
 30
0.0
 41
5.0
 42
5.0
 43
5.0
  0
MTEXT
  5
8E9E
330
78C
100
AcDbEntity
  8
SUNPOU
100
AcDbMText
 10
224.9336205615937
 20
330.1178705190124
 30
0.0
 40
5.0
 41
0.0
 71
     5
 72
     1
  1
\A1;29
  7
SUNPOU
1001
ACAD
1000
MTEXTBEGIN
1070
    73
1070
     1
1070
    44
1040
1.0
1070
    74
1070
     0
1000
MTEXTEND
1000
MTEXTBEGIN
1070
    73
1070
     1
1070
    44
1040
1.0
1070
    74
1070
     0
1000
MTEXTEND
  0
POINT
  5
8E9F
330
78C
100
AcDbEntity
  8
DEFPOINTS
 62
     0
100
AcDbPoint
 10
210.4336205615937
 20
354.4682963672718
 30
0.0
  0
POINT
  5
8EA0
330
78C
100
AcDbEntity
  8
DEFPOINTS
 62
     0
100
AcDbPoint
 10
239.4336205615937
 20
354.4682963672718
 30
0.0
  0
POINT
  5
8EA1
330
78C
100
AcDbEntity
  8
DEFPOINTS
 62
     0
100
AcDbPoint
 10
239.4336205615937
 20
325.6178705190122
 30
0.0
  0
ENDBLK
  5
797
330
78C
100
AcDbEntity
  8
0
100
AcDbBlockEnd
  0
BLOCK
  5
7C1
330
7B7
100
AcDbEntity
  8
0
100
AcDbBlockBegin
  2
*D7
 70
     1
 10
0.0
 20
0.0
 30
0.0
  3
*D7
  1

  0
LINE
  5
8E90
330
7B7
100
AcDbEntity
  8
SUNPOU
100
AcDbLine
 10
158.9336205615933
 20
341.4682963672718
 30
0.0
 11
158.9336205615933
 21
304.0556508060902
 31
0.0
  0
LINE
  5
8E91
330
7B7
100
AcDbEntity
  8
SUNPOU
100
AcDbLine
 10
258.9336205615933
 20
341.4682963672718
 30
0.0
 11
258.9336205615933
 21
304.0556508060902
 31
0.0
  0
LINE
  5
8E92
330
7B7
100
AcDbEntity
  8
SUNPOU
100
AcDbLine
 10
163.9336205615934
 20
306.0556508060902
 30
0.0
 11
253.9336205615934
 21
306.0556508060902
 31
0.0
  0
MTEXT
  5
8E93
330
7B7
100
AcDbEntity
  8
SUNPOU
100
AcDbMText
 10
194.6403807793647
 20
310.5556508060902
 30
0.0
 40
5.0
 41
0.0
 71
     5
 72
     1
  1
\A1;100
  7
SUNPOU
1001
ACAD
1000
MTEXTBEGIN
1070
    73
1070
     1
1070
    44
1040
1.0
1070
    74
1070
     0
1000
MTEXTEND
1000
MTEXTBEGIN
1070
    73
1070
     1
1070
    44
1040
1.0
1070
    74
1070
     0
1000
MTEXTEND
  0
INSERT
  5
8E94
330
7B7
100
AcDbEntity
  8
SUNPOU
100
AcDbBlockReference
  2
_OPEN30
 10
158.9336205615933
 20
306.0556508060902
 30
0.0
 41
5.0
 42
5.0
 43
5.0
 50
180.0
  0
INSERT
  5
8E95
330
7B7
100
AcDbEntity
  8
SUNPOU
100
AcDbBlockReference
  2
_OPEN30
 10
258.9336205615933
 20
306.0556508060902
 30
0.0
 41
5.0
 42
5.0
 43
5.0
  0
POINT
  5
8E96
330
7B7
100
AcDbEntity
  8
DEFPOINTS
 62
     0
100
AcDbPoint
 10
158.9336205615933
 20
344.4682963672718
 30
0.0
  0
POINT
  5
8E97
330
7B7
100
AcDbEntity
  8
DEFPOINTS
 62
     0
100
AcDbPoint
 10
258.9336205615933
 20
344.4682963672718
 30
0.0
  0
POINT
  5
8E98
330
7B7
100
AcDbEntity
  8
DEFPOINTS
 62
     0
100
AcDbPoint
 10
258.9336205615933
 20
306.0556508060902
 30
0.0
  0
ENDBLK
  5
7C2
330
7B7
100
AcDbEntity
  8
0
100
AcDbBlockEnd
  0
BLOCK
  5
7D0
330
7C4
100
AcDbEntity
  8
0
100
AcDbBlockBegin
  2
*D8
 70
     1
 10
0.0
 20
0.0
 30
0.0
  3
*D8
  1

  0
LINE
  5
8E85
330
7C4
100
AcDbEntity
  8
SUNPOU
100
AcDbLine
 10
253.4336205615938
 20
206.968296367272
 30
0.0
 11
285.9336205615933
 21
206.968296367272
 31
0.0
  0
LINE
  5
8E86
330
7C4
100
AcDbEntity
  8
SUNPOU
100
AcDbLine
 10
242.4336205615938
 20
216.9682963672719
 30
0.0
 11
285.9336205615933
 21
216.9682963672719
 31
0.0
  0
LINE
  5
8E87
330
7C4
100
AcDbEntity
  8
SUNPOU
100
AcDbLine
 10
283.9336205615934
 20
201.9682963672719
 30
0.0
 11
283.9336205615934
 21
196.9682963672719
 31
0.0
  0
LINE
  5
8E88
330
7C4
100
AcDbEntity
  8
SUNPOU
100
AcDbLine
 10
283.9336205615934
 20
221.9682963672719
 30
0.0
 11
283.9336205615934
 21
226.9682963672719
 31
0.0
  0
LINE
  5
8E89
330
7C4
100
AcDbEntity
  8
SUNPOU
100
AcDbLine
 10
283.9336205615934
 20
206.968296367272
 30
0.0
 11
283.9336205615934
 21
216.9682963672719
 31
0.0
  0
INSERT
  5
8E8A
330
7C4
100
AcDbEntity
  8
SUNPOU
100
AcDbBlockReference
  2
_OPEN30
 10
283.9336205615934
 20
206.968296367272
 30
0.0
 41
5.0
 42
5.0
 43
5.0
 50
90.0
  0
INSERT
  5
8E8B
330
7C4
100
AcDbEntity
  8
SUNPOU
100
AcDbBlockReference
  2
_OPEN30
 10
283.9336205615934
 20
216.9682963672719
 30
0.0
 41
5.0
 42
5.0
 43
5.0
 50
270.0
  0
MTEXT
  5
8E8C
330
7C4
100
AcDbEntity
  8
SUNPOU
100
AcDbMText
 10
279.4336205615933
 20
211.9682963672719
 30
0.0
 40
5.0
 41
0.0
 71
     5
 72
     1
  1
\A1;10
  7
SUNPOU
 11
0.0000000000000001
 21
1.0
 31
0.0
1001
ACAD
1000
MTEXTBEGIN
1070
    73
1070
     1
1070
    44
1040
1.0
1070
    74
1070
     0
1000
MTEXTEND
1000
MTEXTBEGIN
1070
    73
1070
     1
1070
    44
1040
1.0
1070
    74
1070
     0
1000
MTEXTEND
  0
POINT
  5
8E8D
330
7C4
100
AcDbEntity
  8
DEFPOINTS
 62
     0
100
AcDbPoint
 10
250.4336205615938
 20
206.968296367272
 30
0.0
  0
POINT
  5
8E8E
330
7C4
100
AcDbEntity
  8
DEFPOINTS
 62
     0
100
AcDbPoint
 10
239.4336205615938
 20
216.9682963672719
 30
0.0
  0
POINT
  5
8E8F
330
7C4
100
AcDbEntity
  8
DEFPOINTS
 62
     0
100
AcDbPoint
 10
283.9336205615934
 20
216.9682963672719
 30
0.0
  0
ENDBLK
  5
7D1
330
7C4
100
AcDbEntity
  8
0
100
AcDbBlockEnd
  0
BLOCK
  5
7DD
330
7D3
100
AcDbEntity
  8
0
100
AcDbBlockBegin
  2
*D9
 70
     1
 10
0.0
 20
0.0
 30
0.0
  3
*D9
  1

  0
LINE
  5
8E7C
330
7D3
100
AcDbEntity
  8
SUNPOU
100
AcDbLine
 10
242.4336205615938
 20
216.9682963672719
 30
0.0
 11
285.9336205615933
 21
216.9682963672719
 31
0.0
  0
LINE
  5
8E7D
330
7D3
100
AcDbEntity
  8
SUNPOU
100
AcDbLine
 10
242.4336205615936
 20
354.468296367272
 30
0.0
 11
285.9336205615933
 21
354.468296367272
 31
0.0
  0
LINE
  5
8E7E
330
7D3
100
AcDbEntity
  8
SUNPOU
100
AcDbLine
 10
283.9336205615934
 20
221.9682963672719
 30
0.0
 11
283.9336205615934
 21
349.4682963672719
 31
0.0
  0
INSERT
  5
8E7F
330
7D3
100
AcDbEntity
  8
SUNPOU
100
AcDbBlockReference
  2
_OPEN30
 10
283.9336205615934
 20
216.9682963672719
 30
0.0
 41
5.0
 42
5.0
 43
5.0
 50
270.0
  0
INSERT
  5
8E80
330
7D3
100
AcDbEntity
  8
SUNPOU
100
AcDbBlockReference
  2
_OPEN30
 10
283.9336205615934
 20
354.468296367272
 30
0.0
 41
5.0
 42
5.0
 43
5.0
 50
90.0
  0
MTEXT
  5
8E81
330
7D3
100
AcDbEntity
  8
SUNPOU
100
AcDbMText
 10
279.4336205615933
 20
285.7182963672718
 30
0.0
 40
5.0
 41
0.0
 71
     5
 72
     1
  1
\A1;DH
  7
SUNPOU
 11
0.0000000000000001
 21
1.0
 31
0.0
1001
ACAD
1000
MTEXTBEGIN
1070
    73
1070
     1
1070
    44
1040
1.0
1070
    74
1070
     0
1000
MTEXTEND
1000
MTEXTBEGIN
1070
    73
1070
     1
1070
    44
1040
1.0
1070
    74
1070
     0
1000
MTEXTEND
  0
POINT
  5
8E82
330
7D3
100
AcDbEntity
  8
DEFPOINTS
 62
     0
100
AcDbPoint
 10
239.4336205615938
 20
216.9682963672719
 30
0.0
  0
POINT
  5
8E83
330
7D3
100
AcDbEntity
  8
DEFPOINTS
 62
     0
100
AcDbPoint
 10
239.4336205615937
 20
354.468296367272
 30
0.0
  0
POINT
  5
8E84
330
7D3
100
AcDbEntity
  8
DEFPOINTS
 62
     0
100
AcDbPoint
 10
283.9336205615934
 20
354.468296367272
 30
0.0
  0
ENDBLK
  5
7DE
330
7D3
100
AcDbEntity
  8
0
100
AcDbBlockEnd
  0
BLOCK
  5
7F5
330
7E9
100
AcDbEntity
  8
0
100
AcDbBlockBegin
  2
*D10
 70
     1
 10
0.0
 20
0.0
 30
0.0
  3
*D10
  1

  0
LINE
  5
8E71
330
7E9
100
AcDbEntity
  8
SUNPOU
100
AcDbLine
 10
261.9336205615933
 20
344.4682963672718
 30
0.0
 11
270.9336205615934
 21
344.4682963672718
 31
0.0
  0
LINE
  5
8E72
330
7E9
100
AcDbEntity
  8
SUNPOU
100
AcDbLine
 10
242.4336205615936
 20
354.468296367272
 30
0.0
 11
270.9336205615934
 21
354.468296367272
 31
0.0
  0
LINE
  5
8E73
330
7E9
100
AcDbEntity
  8
SUNPOU
100
AcDbLine
 10
268.9336205615934
 20
339.4682963672718
 30
0.0
 11
268.9336205615934
 21
334.4682963672718
 31
0.0
  0
LINE
  5
8E74
330
7E9
100
AcDbEntity
  8
SUNPOU
100
AcDbLine
 10
268.9336205615934
 20
359.4682963672718
 30
0.0
 11
268.9336205615934
 21
364.4682963672718
 31
0.0
  0
LINE
  5
8E75
330
7E9
100
AcDbEntity
  8
SUNPOU
100
AcDbLine
 10
268.9336205615934
 20
344.4682963672718
 30
0.0
 11
268.9336205615934
 21
354.468296367272
 31
0.0
  0
INSERT
  5
8E76
330
7E9
100
AcDbEntity
  8
SUNPOU
100
AcDbBlockReference
  2
_OPEN30
 10
268.9336205615934
 20
344.4682963672718
 30
0.0
 41
5.0
 42
5.0
 43
5.0
 50
90.0
  0
INSERT
  5
8E77
330
7E9
100
AcDbEntity
  8
SUNPOU
100
AcDbBlockReference
  2
_OPEN30
 10
268.9336205615934
 20
354.468296367272
 30
0.0
 41
5.0
 42
5.0
 43
5.0
 50
270.0
  0
MTEXT
  5
8E78
330
7E9
100
AcDbEntity
  8
SUNPOU
100
AcDbMText
 10
264.4336205615934
 20
349.4682963672719
 30
0.0
 40
5.0
 41
0.0
 71
     5
 72
     1
  1
\A1;10
  7
SUNPOU
 11
0.0000000000000001
 21
1.0
 31
0.0
1001
ACAD
1000
MTEXTBEGIN
1070
    73
1070
     1
1070
    44
1040
1.0
1070
    74
1070
     0
1000
MTEXTEND
1000
MTEXTBEGIN
1070
    73
1070
     1
1070
    44
1040
1.0
1070
    74
1070
     0
1000
MTEXTEND
  0
POINT
  5
8E79
330
7E9
100
AcDbEntity
  8
DEFPOINTS
 62
     0
100
AcDbPoint
 10
258.9336205615933
 20
344.4682963672718
 30
0.0
  0
POINT
  5
8E7A
330
7E9
100
AcDbEntity
  8
DEFPOINTS
 62
     0
100
AcDbPoint
 10
239.4336205615937
 20
354.468296367272
 30
0.0
  0
POINT
  5
8E7B
330
7E9
100
AcDbEntity
  8
DEFPOINTS
 62
     0
100
AcDbPoint
 10
268.9336205615934
 20
354.468296367272
 30
0.0
  0
ENDBLK
  5
7F6
330
7E9
100
AcDbEntity
  8
0
100
AcDbBlockEnd
  0
BLOCK
  5
802
330
7F8
100
AcDbEntity
  8
0
100
AcDbBlockBegin
  2
*D11
 70
     1
 10
0.0
 20
0.0
 30
0.0
  3
*D11
  1

  0
LINE
  5
8E68
330
7F8
100
AcDbEntity
  8
SUNPOU
100
AcDbLine
 10
253.4336205615938
 20
206.968296367272
 30
0.0
 11
300.9336205615933
 21
206.968296367272
 31
0.0
  0
LINE
  5
8E69
330
7F8
100
AcDbEntity
  8
SUNPOU
100
AcDbLine
 10
261.9336205615933
 20
344.4682963672718
 30
0.0
 11
300.9336205615933
 21
344.4682963672718
 31
0.0
  0
LINE
  5
8E6A
330
7F8
100
AcDbEntity
  8
SUNPOU
100
AcDbLine
 10
298.9336205615933
 20
211.9682963672719
 30
0.0
 11
298.9336205615933
 21
339.4682963672718
 31
0.0
  0
MTEXT
  5
8E6B
330
7F8
100
AcDbEntity
  8
SUNPOU
100
AcDbMText
 10
294.4336205615933
 20
287.5958448004123
 30
0.0
 40
5.0
 41
0.0
 71
     5
 72
     1
  1
\A1;H
  7
SUNPOU
 11
0.0000000000000001
 21
1.0
 31
0.0
1001
ACAD
1000
MTEXTBEGIN
1070
    73
1070
     1
1070
    44
1040
1.0
1070
    74
1070
     0
1000
MTEXTEND
1000
MTEXTBEGIN
1070
    73
1070
     1
1070
    44
1040
1.0
1070
    74
1070
     0
1000
MTEXTEND
  0
INSERT
  5
8E6C
330
7F8
100
AcDbEntity
  8
SUNPOU
100
AcDbBlockReference
  2
_OPEN30
 10
298.9336205615933
 20
206.968296367272
 30
0.0
 41
5.0
 42
5.0
 43
5.0
 50
270.0
  0
INSERT
  5
8E6D
330
7F8
100
AcDbEntity
  8
SUNPOU
100
AcDbBlockReference
  2
_OPEN30
 10
298.9336205615933
 20
344.4682963672718
 30
0.0
 41
5.0
 42
5.0
 43
5.0
 50
90.0
  0
POINT
  5
8E6E
330
7F8
100
AcDbEntity
  8
DEFPOINTS
 62
     0
100
AcDbPoint
 10
250.4336205615938
 20
206.968296367272
 30
0.0
  0
POINT
  5
8E6F
330
7F8
100
AcDbEntity
  8
DEFPOINTS
 62
     0
100
AcDbPoint
 10
258.9336205615933
 20
344.4682963672718
 30
0.0
  0
POINT
  5
8E70
330
7F8
100
AcDbEntity
  8
DEFPOINTS
 62
     0
100
AcDbPoint
 10
298.9336205615933
 20
344.4682963672718
 30
0.0
  0
ENDBLK
  5
803
330
7F8
100
AcDbEntity
  8
0
100
AcDbBlockEnd
  0
BLOCK
  5
80F
330
805
100
AcDbEntity
  8
0
100
AcDbBlockBegin
  2
*D12
 70
     1
 10
0.0
 20
0.0
 30
0.0
  3
*D12
  1

  0
LINE
  5
8E5F
330
805
100
AcDbEntity
  8
SUNPOU
100
AcDbLine
 10
261.9336205615933
 20
344.4682963672718
 30
0.0
 11
300.9336205615935
 21
344.4682963672718
 31
0.0
  0
LINE
  5
8E60
330
805
100
AcDbEntity
  8
SUNPOU
100
AcDbLine
 10
261.9336205615933
 20
514.4682963672718
 30
0.0
 11
300.9336205615935
 21
514.4682963672718
 31
0.0
  0
LINE
  5
8E61
330
805
100
AcDbEntity
  8
SUNPOU
100
AcDbLine
 10
298.9336205615935
 20
349.4682963672719
 30
0.0
 11
298.9336205615935
 21
509.4682963672719
 31
0.0
  0
MTEXT
  5
8E62
330
805
100
AcDbEntity
  8
SUNPOU
100
AcDbMText
 10
294.4336205615933
 20
450.4686410434098
 30
0.0
 40
5.0
 41
0.0
 71
     5
 72
     1
  1
\A1;170
  7
SUNPOU
 11
0.0000000000000001
 21
1.0
 31
0.0
1001
ACAD
1000
MTEXTBEGIN
1070
    73
1070
     1
1070
    44
1040
1.0
1070
    74
1070
     0
1000
MTEXTEND
1000
MTEXTBEGIN
1070
    73
1070
     1
1070
    44
1040
1.0
1070
    74
1070
     0
1000
MTEXTEND
  0
INSERT
  5
8E63
330
805
100
AcDbEntity
  8
SUNPOU
100
AcDbBlockReference
  2
_OPEN30
 10
298.9336205615935
 20
344.4682963672718
 30
0.0
 41
5.0
 42
5.0
 43
5.0
 50
270.0
  0
INSERT
  5
8E64
330
805
100
AcDbEntity
  8
SUNPOU
100
AcDbBlockReference
  2
_OPEN30
 10
298.9336205615935
 20
514.4682963672718
 30
0.0
 41
5.0
 42
5.0
 43
5.0
 50
90.0
  0
POINT
  5
8E65
330
805
100
AcDbEntity
  8
DEFPOINTS
 62
     0
100
AcDbPoint
 10
258.9336205615933
 20
344.4682963672718
 30
0.0
  0
POINT
  5
8E66
330
805
100
AcDbEntity
  8
DEFPOINTS
 62
     0
100
AcDbPoint
 10
258.9336205615933
 20
514.4682963672718
 30
0.0
  0
POINT
  5
8E67
330
805
100
AcDbEntity
  8
DEFPOINTS
 62
     0
100
AcDbPoint
 10
298.9336205615935
 20
514.4682963672718
 30
0.0
  0
ENDBLK
  5
810
330
805
100
AcDbEntity
  8
0
100
AcDbBlockEnd
  0
BLOCK
  5
AE1
330
AD5
100
AcDbEntity
  8
0
100
AcDbBlockBegin
  2
*D13
 70
     1
 10
0.0
 20
0.0
 30
0.0
  3
*D13
  1

  0
LINE
  5
8FFD
330
AD5
100
AcDbEntity
  8
SUNPOU
100
AcDbLine
 10
239.4336205615937
 20
351.4682963672719
 30
0.0
 11
239.4336205615937
 21
323.6178707664064
 31
0.0
  0
LINE
  5
8FFE
330
AD5
100
AcDbEntity
  8
SUNPOU
100
AcDbLine
 10
253.1336175098355
 20
341.4682963672718
 30
0.0
 11
253.1336175098355
 21
323.6178707664064
 31
0.0
  0
LINE
  5
8FFF
330
AD5
100
AcDbEntity
  8
SUNPOU
100
AcDbLine
 10
239.4336205615937
 20
325.6178707664064
 30
0.0
 11
253.1336175098355
 21
325.6178707664064
 31
0.0
  0
MTEXT
  5
9000
330
AD5
100
AcDbEntity
  8
SUNPOU
100
AcDbMText
 10
246.2836190357145
 20
321.6365028961213
 30
0.0
 40
5.0
 41
0.0
 71
     5
 72
     1
  1
\A1;13.7
  7
SUNPOU
1001
ACAD
1000
MTEXTBEGIN
1070
    73
1070
     1
1070
    44
1040
1.0
1070
    74
1070
     0
1000
MTEXTEND
1000
MTEXTBEGIN
1070
    73
1070
     1
1070
    44
1040
1.0
1070
    74
1070
     0
1000
MTEXTEND
  0
INSERT
  5
9001
330
AD5
100
AcDbEntity
  8
SUNPOU
100
AcDbBlockReference
  2
_DOTSMALL
 10
253.1336175098355
 20
325.6178707664064
 30
0.0
 41
5.0
 42
5.0
 43
5.0
  0
POINT
  5
9002
330
AD5
100
AcDbEntity
  8
DEFPOINTS
 62
     0
100
AcDbPoint
 10
239.4336205615937
 20
354.468296367272
 30
0.0
  0
POINT
  5
9003
330
AD5
100
AcDbEntity
  8
DEFPOINTS
 62
     0
100
AcDbPoint
 10
253.1336175098355
 20
344.4682963672718
 30
0.0
  0
POINT
  5
9004
330
AD5
100
AcDbEntity
  8
DEFPOINTS
 62
     0
100
AcDbPoint
 10
253.1336175098355
 20
325.6178707664064
 30
0.0
  0
ENDBLK
  5
AE2
330
AD5
100
AcDbEntity
  8
0
100
AcDbBlockEnd
  0
BLOCK
  5
AF0
330
AE4
100
AcDbEntity
  8
0
100
AcDbBlockBegin
  2
*D14
 70
     1
 10
0.0
 20
0.0
 30
0.0
  3
*D14
  1

  0
LINE
  5
9005
330
AE4
100
AcDbEntity
  8
SUNPOU
100
AcDbLine
 10
253.1336175098355
 20
341.4682963672718
 30
0.0
 11
253.1336175098355
 21
323.6178707664064
 31
0.0
  0
LINE
  5
9006
330
AE4
100
AcDbEntity
  8
SUNPOU
100
AcDbLine
 10
258.9336205615933
 20
341.4682963672718
 30
0.0
 11
258.9336205615933
 21
323.6178707664064
 31
0.0
  0
LINE
  5
9007
330
AE4
100
AcDbEntity
  8
SUNPOU
100
AcDbLine
 10
253.1336175098355
 20
325.6178707664064
 30
0.0
 11
248.1336175098355
 21
325.6178707664064
 31
0.0
  0
LINE
  5
9008
330
AE4
100
AcDbEntity
  8
SUNPOU
100
AcDbLine
 10
263.9336205615933
 20
325.6178707664064
 30
0.0
 11
268.9336205615934
 21
325.6178707664064
 31
0.0
  0
MTEXT
  5
9009
330
AE4
100
AcDbEntity
  8
SUNPOU
100
AcDbMText
 10
269.1000019219117
 20
330.165951965213
 30
0.0
 40
5.0
 41
0.0
 71
     5
 72
     1
  1
\A1;5.8
  7
SUNPOU
1001
ACAD
1000
MTEXTBEGIN
1070
    73
1070
     1
1070
    44
1040
1.0
1070
    74
1070
     0
1000
MTEXTEND
1000
MTEXTBEGIN
1070
    73
1070
     1
1070
    44
1040
1.0
1070
    74
1070
     0
1000
MTEXTEND
  0
LINE
  5
900A
330
AE4
100
AcDbEntity
  8
SUNPOU
100
AcDbLine
 10
253.1336175098355
 20
325.6178707664064
 30
0.0
 11
258.9336205615933
 21
325.6178707664064
 31
0.0
  0
INSERT
  5
900B
330
AE4
100
AcDbEntity
  8
SUNPOU
100
AcDbBlockReference
  2
_DOTSMALL
 10
253.1336175098355
 20
325.6178707664064
 30
0.0
 41
5.0
 42
5.0
 43
5.0
  0
INSERT
  5
900C
330
AE4
100
AcDbEntity
  8
SUNPOU
100
AcDbBlockReference
  2
_OPEN30
 10
258.9336205615933
 20
325.6178707664064
 30
0.0
 41
5.0
 42
5.0
 43
5.0
 50
180.0
  0
POINT
  5
900D
330
AE4
100
AcDbEntity
  8
DEFPOINTS
 62
     0
100
AcDbPoint
 10
253.1336175098355
 20
344.4682963672718
 30
0.0
  0
POINT
  5
900E
330
AE4
100
AcDbEntity
  8
DEFPOINTS
 62
     0
100
AcDbPoint
 10
258.9336205615933
 20
344.4682963672718
 30
0.0
  0
POINT
  5
900F
330
AE4
100
AcDbEntity
  8
DEFPOINTS
 62
     0
100
AcDbPoint
 10
258.9336205615933
 20
325.6178707664064
 30
0.0
  0
ENDBLK
  5
AF1
330
AE4
100
AcDbEntity
  8
0
100
AcDbBlockEnd
  0
BLOCK
  5
AF4
330
AF2
100
AcDbEntity
  8
0
100
AcDbBlockBegin
  2
_DOTSMALL
 70
     0
 10
0.0
 20
0.0
 30
0.0
  3
_DOTSMALL
  1

  0
POLYLINE
  5
AF3
330
AF2
100
AcDbEntity
  8
0
  6
BYBLOCK
 62
     0
100
AcDb2dPolyline
 66
     1
 10
0.0
 20
0.0
 30
0.0
 70
     1
 40
0.5
 41
0.5
  0
VERTEX
  5
90E5
330
AF3
100
AcDbEntity
  8
0
  6
BYBLOCK
 62
     0
100
AcDbVertex
100
AcDb2dVertex
 10
-0.0625
 20
0.0
 30
0.0
 42
1.0
  0
VERTEX
  5
90E6
330
AF3
100
AcDbEntity
  8
0
  6
BYBLOCK
 62
     0
100
AcDbVertex
100
AcDb2dVertex
 10
0.0625
 20
0.0
 30
0.0
 42
1.0
  0
SEQEND
  5
90E7
330
AF3
100
AcDbEntity
  8
0
  6
BYBLOCK
 62
     0
  0
ENDBLK
  5
AF5
330
AF2
100
AcDbEntity
  8
0
100
AcDbBlockEnd
  0
BLOCK
  5
B0B
330
B0A
100
AcDbEntity
  8
0
100
AcDbBlockBegin
  2
_NONE
 70
     0
 10
0.0
 20
0.0
 30
0.0
  3
_NONE
  1

  0
ENDBLK
  5
B0C
330
B0A
100
AcDbEntity
  8
0
100
AcDbBlockEnd
  0
BLOCK
  5
9042
330
9028
100
AcDbEntity
  8
0
100
AcDbBlockBegin
  2
*X17
 70
     1
 10
0.0
 20
0.0
 30
0.0
  3
*X17
  1

  0
LINE
  5
9029
330
9028
100
AcDbEntity
  8
0
 62
     0
100
AcDbLine
 10
187.900192603729
 20
345.857066561323
 30
0.0
 11
188.8660816804659
 21
346.8229556380596
 31
0.0
  0
LINE
  5
902A
330
9028
100
AcDbEntity
  8
0
 62
     0
100
AcDbLine
 10
186.4001926037291
 20
344.3570665613227
 30
0.0
 11
187.9001926037289
 21
345.8570665613227
 31
0.0
  0
LINE
  5
902B
330
9028
100
AcDbEntity
  8
0
 62
     0
100
AcDbLine
 10
185.2485421742796
 20
345.8570665613227
 30
0.0
 11
188.8660816804659
 21
349.4746060675091
 31
0.0
  0
LINE
  5
902C
330
9028
100
AcDbEntity
  8
0
 62
     0
100
AcDbLine
 10
183.7485421742796
 20
344.3570665613227
 30
0.0
 11
185.2485421742795
 21
345.8570665613227
 31
0.0
  0
LINE
  5
902D
330
9028
100
AcDbEntity
  8
0
 62
     0
100
AcDbLine
 10
183.1161929944735
 20
346.3763678109663
 30
0.0
 11
184.1161929944736
 21
347.3763678109663
 31
0.0
  0
LINE
  5
902E
330
9028
100
AcDbEntity
  8
0
 62
     0
100
AcDbLine
 10
182.59689174483
 20
345.8570665613227
 30
0.0
 11
183.1161929944735
 21
346.3763678109663
 31
0.0
  0
LINE
  5
902F
330
9028
100
AcDbEntity
  8
0
 62
     0
100
AcDbLine
 10
184.1161929944736
 20
347.3763678109663
 30
0.0
 11
188.8660816804659
 21
352.1262564969587
 31
0.0
  0
LINE
  5
9030
330
9028
100
AcDbEntity
  8
0
 62
     0
100
AcDbLine
 10
181.0968917448301
 20
344.3570665613227
 30
0.0
 11
182.59689174483
 21
345.8570665613227
 31
0.0
  0
LINE
  5
9031
330
9028
100
AcDbEntity
  8
0
 62
     0
100
AcDbLine
 10
183.1161929944735
 20
349.0280182404158
 30
0.0
 11
184.1161929944735
 21
350.0280182404158
 31
0.0
  0
LINE
  5
9032
330
9028
100
AcDbEntity
  8
0
 62
     0
100
AcDbLine
 10
184.1161929944735
 20
350.0280182404158
 30
0.0
 11
188.8660816804659
 21
354.7779069264084
 31
0.0
  0
LINE
  5
9033
330
9028
100
AcDbEntity
  8
0
 62
     0
100
AcDbLine
 10
178.8660816804658
 20
344.7779069264083
 30
0.0
 11
183.1161929944735
 21
349.0280182404158
 31
0.0
  0
LINE
  5
9034
330
9028
100
AcDbEntity
  8
0
 62
     0
100
AcDbLine
 10
183.1161929944736
 20
351.6796686698655
 30
0.0
 11
184.0471381922294
 21
352.6106138676211
 31
0.0
  0
LINE
  5
9035
330
9028
100
AcDbEntity
  8
0
 62
     0
100
AcDbLine
 10
184.0471381922294
 20
352.6106138676211
 30
0.0
 11
188.8660816804659
 21
357.4295573558578
 31
0.0
  0
LINE
  5
9036
330
9028
100
AcDbEntity
  8
0
 62
     0
100
AcDbLine
 10
178.8660816804658
 20
347.4295573558578
 30
0.0
 11
183.1161929944736
 21
351.6796686698655
 31
0.0
  0
LINE
  5
9037
330
9028
100
AcDbEntity
  8
0
 62
     0
100
AcDbLine
 10
178.8660816804658
 20
350.0812077853074
 30
0.0
 11
188.8660816804659
 21
360.0812077853074
 31
0.0
  0
LINE
  5
9038
330
9028
100
AcDbEntity
  8
0
 62
     0
100
AcDbLine
 10
187.4902817386594
 20
361.3570582729502
 30
0.0
 11
188.8660816804659
 21
362.732858214757
 31
0.0
  0
LINE
  5
9039
330
9028
100
AcDbEntity
  8
0
 62
     0
100
AcDbLine
 10
178.8660816804658
 20
352.732858214757
 30
0.0
 11
187.4902817386594
 21
361.3570582729502
 31
0.0
  0
LINE
  5
903A
330
9028
100
AcDbEntity
  8
0
 62
     0
100
AcDbLine
 10
184.8386313092099
 20
361.3570582729502
 30
0.0
 11
188.866081680466
 21
365.3845086442064
 31
0.0
  0
LINE
  5
903B
330
9028
100
AcDbEntity
  8
0
 62
     0
100
AcDbLine
 10
178.866081680466
 20
355.3845086442064
 30
0.0
 11
184.8386313092099
 21
361.3570582729502
 31
0.0
  0
LINE
  5
903C
330
9028
100
AcDbEntity
  8
0
 62
     0
100
AcDbLine
 10
182.1869808797604
 20
361.3570582729502
 30
0.0
 11
188.866081680466
 21
368.036159073656
 31
0.0
  0
LINE
  5
903D
330
9028
100
AcDbEntity
  8
0
 62
     0
100
AcDbLine
 10
178.866081680466
 20
358.0361590736561
 30
0.0
 11
182.1869808797604
 21
361.3570582729502
 31
0.0
  0
LINE
  5
903E
330
9028
100
AcDbEntity
  8
0
 62
     0
100
AcDbLine
 10
179.5353304503109
 20
361.3570582729506
 30
0.0
 11
186.5353335693275
 21
368.3570613919671
 31
0.0
  0
LINE
  5
903F
330
9028
100
AcDbEntity
  8
0
 62
     0
100
AcDbLine
 10
178.866081680466
 20
360.6878095031055
 30
0.0
 11
179.5353304503108
 21
361.3570582729503
 31
0.0
  0
LINE
  5
9040
330
9028
100
AcDbEntity
  8
0
 62
     0
100
AcDbLine
 10
178.8660816804658
 20
363.3394599325553
 30
0.0
 11
183.8836831398778
 21
368.3570613919671
 31
0.0
  0
LINE
  5
9041
330
9028
100
AcDbEntity
  8
0
 62
     0
100
AcDbLine
 10
178.8660816804658
 20
365.9911103620048
 30
0.0
 11
181.2320327104283
 21
368.3570613919671
 31
0.0
  0
ENDBLK
  5
9043
330
9028
100
AcDbEntity
  8
0
100
AcDbBlockEnd
  0
ENDSEC
  0
SECTION
  2
ENTITIES
  0
CIRCLE
  5
1B6
330
A
100
AcDbEntity
  8
03
100
AcDbCircle
 10
182.4336205615937
 20
270.9682963672719
 30
0.0
 40
6.0
  0
LINE
  5
1B7
330
A
100
AcDbEntity
  8
SAISEN
100
AcDbLine
 10
153.9336205615939
 20
529.4682963672718
 30
0.0
 11
263.433620561594
 21
529.4682963672718
 31
0.0
  0
LINE
  5
1B8
330
A
100
AcDbEntity
  8
SAISEN
100
AcDbLine
 10
153.9336205615939
 20
524.4682963672718
 30
0.0
 11
263.433620561594
 21
524.4682963672718
 31
0.0
  0
LINE
  5
1C3
330
A
100
AcDbEntity
  8
03
100
AcDbLine
 10
175.4336205615935
 20
345.9682963672718
 30
0.0
 11
175.4336205615935
 21
352.4682963672718
 31
0.0
  0
LINE
  5
1C4
330
A
100
AcDbEntity
  8
03
100
AcDbLine
 10
189.4336186542449
 20
345.9682963672718
 30
0.0
 11
189.4336186542449
 21
352.4676849380004
 31
0.0
  0
LINE
  5
1C6
330
A
100
AcDbEntity
  8
03
100
AcDbLine
 10
175.4336205615935
 20
345.9682963672718
 30
0.0
 11
189.4336186542449
 21
345.9682963672718
 31
0.0
  0
LINE
  5
1C7
330
A
100
AcDbEntity
  8
03
100
AcDbLine
 10
174.4336205615935
 20
352.4682963672718
 30
0.0
 11
174.4336205615935
 21
347.9682963672718
 31
0.0
  0
LINE
  5
1C8
330
A
100
AcDbEntity
  8
03
100
AcDbLine
 10
190.4336186542449
 20
352.4682963672718
 30
0.0
 11
190.4336186542449
 21
347.9682963672718
 31
0.0
  0
ARC
  5
1C9
330
A
100
AcDbEntity
  8
03
100
AcDbCircle
 10
189.9336186542448
 20
352.4676849380004
 30
0.0
 40
0.5
100
AcDbArc
 50
0.0
 51
179.9299354014598
  0
ARC
  5
1CA
330
A
100
AcDbEntity
  8
03
100
AcDbCircle
 10
174.9336205615933
 20
352.4682963672718
 30
0.0
 40
0.5
100
AcDbArc
 50
0.0000000000002036
 51
179.9999999999999
  0
LINE
  5
1D6
330
A
100
AcDbEntity
  8
03
100
AcDbLine
 10
216.6336205615937
 20
337.4082963672718
 30
0.0
 11
216.6336205615937
 21
306.4682963672718
 31
0.0
  0
LINE
  5
1D7
330
A
100
AcDbEntity
  8
03
100
AcDbLine
 10
233.2336205615937
 20
337.4082963672718
 30
0.0
 11
233.2336205615937
 21
306.4682963672718
 31
0.0
  0
LINE
  5
1D8
330
A
100
AcDbEntity
  8
03
100
AcDbLine
 10
215.4336205615936
 20
340.6082963672718
 30
0.0
 11
234.4336205615936
 21
340.6082963672718
 31
0.0
  0
ARC
  5
1D9
330
A
100
AcDbEntity
  8
03
100
AcDbCircle
 10
234.4336205615936
 20
338.6082963672718
 30
0.0
 40
2.0
100
AcDbArc
 50
0.0
 51
90.00000000000005
  0
ARC
  5
1DA
330
A
100
AcDbEntity
  8
03
100
AcDbCircle
 10
215.4336205615936
 20
338.6082963672718
 30
0.0
 40
2.0
100
AcDbArc
 50
90.00000000000005
 51
179.9999999999999
  0
LINE
  5
1DB
330
A
100
AcDbEntity
  8
03
100
AcDbLine
 10
216.6336205615937
 20
337.4082963672718
 30
0.0
 11
233.2336205615937
 21
337.4082963672718
 31
0.0
  0
LINE
  5
1ED
330
A
100
AcDbEntity
  8
CHUSIN
100
AcDbLine
 10
208.9336205615933
 20
480.1756966660132
 30
0.0
 11
208.9336205615933
 21
574.0
 31
0.0
  0
LINE
  5
1EE
330
A
100
AcDbEntity
  8
CHUSIN
100
AcDbLine
 10
171.4336205615937
 20
270.9682963672719
 30
0.0
 11
193.4336205615935
 21
270.9682963672719
 31
0.0
  0
LINE
  5
1EF
330
A
100
AcDbEntity
  8
CHUSIN
100
AcDbLine
 10
182.4336205615937
 20
281.9682963672718
 30
0.0
 11
182.4336205615937
 21
259.9682963672719
 31
0.0
  0
LINE
  5
1F0
330
A
100
AcDbEntity
  8
CHUSIN
100
AcDbLine
 10
217.9334935552894
 20
421.3617115546226
 30
0.0
 11
217.9336426335775
 21
371.5785431762593
 31
0.0
  0
LINE
  5
1F2
330
A
100
AcDbEntity
  8
CHUSIN
100
AcDbLine
 10
253.4907419574289
 20
450.4686410434098
 30
0.0
 11
157.4336659272038
 21
450.4687814765149
 31
0.0
  0
LINE
  5
1F3
330
A
100
AcDbEntity
  8
CHUSIN
100
AcDbLine
 10
229.7039538295158
 20
420.4687148477258
 30
0.0
 11
247.2503008525194
 21
420.4687321368028
 31
0.0
  0
LINE
  5
1F4
330
A
100
AcDbEntity
  8
CHUSIN
100
AcDbLine
 10
231.2039550729791
 20
480.4687221304176
 30
0.0
 11
248.750300852465
 21
480.4687221290018
 31
0.0
  0
LINE
  5
1F5
330
A
100
AcDbEntity
  8
CHUSIN
100
AcDbLine
 10
238.9336807487793
 20
487.8340551015281
 30
0.0
 11
238.9336807487794
 21
414.0856274285723
 31
0.0
  0
LINE
  5
1F6
330
A
100
AcDbEntity
  8
CHUSIN
100
AcDbLine
 10
202.6995906084514
 20
396.4683345957111
 30
0.0
 11
254.1518439550511
 21
396.4683345957111
 31
0.0
  0
LINE
  5
1F7
330
A
100
AcDbEntity
  8
CHUSIN
100
AcDbLine
 10
236.4336318597795
 20
364.6570192678335
 30
0.0
 11
236.4336318597795
 21
350.9370364204921
 31
0.0
  0
LINE
  5
232
330
A
100
AcDbEntity
  8
03
100
AcDbLine
 10
210.4336205615937
 20
354.468296367272
 30
0.0
 11
239.4336205615937
 21
354.468296367272
 31
0.0
  0
LINE
  5
233
330
A
100
AcDbEntity
  8
SAISEN
100
AcDbLine
 10
70.82408681931108
 20
206.9682963672718
 30
0.0
 11
205.4336205615938
 21
206.9682963672719
 31
0.0
  0
LINE
  5
234
330
A
100
AcDbEntity
  8
SAISEN
100
AcDbLine
 10
250.4336205615938
 20
206.968296367272
 30
0.0
 11
340.0445259517892
 21
206.968296367272
 31
0.0
  0
ARC
  5
235
330
A
100
AcDbEntity
  8
03
100
AcDbCircle
 10
219.6836205615938
 20
196.9682963672719
 30
0.0
 40
2.0
100
AcDbArc
 50
179.9999996914799
 51
269.99999958864
  0
LINE
  5
236
330
A
100
AcDbEntity
  8
03
100
AcDbLine
 10
219.6836205615938
 20
194.9682963672719
 30
0.0
 11
230.1836205615938
 21
194.9682963672719
 31
0.0
  0
ARC
  5
237
330
A
100
AcDbEntity
  8
03
100
AcDbCircle
 10
230.1836205615938
 20
196.9682963672719
 30
0.0
 40
2.0
100
AcDbArc
 50
270.0
 51
359.99999989716
  0
LINE
  5
238
330
A
100
AcDbEntity
  8
03
100
AcDbLine
 10
206.4336205615938
 20
209.9682963672719
 30
0.0
 11
215.4336205615938
 21
209.9682963672719
 31
0.0
  0
ARC
  5
239
330
A
100
AcDbEntity
  8
03
100
AcDbCircle
 10
215.4336205615938
 20
208.968296367272
 30
0.0
 40
1.0
100
AcDbArc
 50
359.99999989716
 51
89.99999979432008
  0
ARC
  5
23A
330
A
100
AcDbEntity
  8
03
100
AcDbCircle
 10
206.4336205615938
 20
208.9682963672719
 30
0.0
 40
1.0
100
AcDbArc
 50
89.9999997943201
 51
179.9999996914799
  0
LINE
  5
23B
330
A
100
AcDbEntity
  8
03
100
AcDbLine
 10
216.4336205615938
 20
208.968296367272
 30
0.0
 11
216.4336205615938
 21
185.9682963672719
 31
0.0
  0
LINE
  5
23C
330
A
100
AcDbEntity
  8
03
100
AcDbLine
 10
216.4336205615938
 20
185.9682963672719
 30
0.0
 11
233.4336205615938
 21
185.9682963672719
 31
0.0
  0
LINE
  5
23D
330
A
100
AcDbEntity
  8
03
100
AcDbLine
 10
233.4336205615938
 20
185.9682963672719
 30
0.0
 11
233.4336205615938
 21
208.968296367272
 31
0.0
  0
ARC
  5
23E
330
A
100
AcDbEntity
  8
03
100
AcDbCircle
 10
234.4336205615938
 20
208.968296367272
 30
0.0
 40
1.0
100
AcDbArc
 50
89.9999997943201
 51
179.9999996914799
  0
LINE
  5
23F
330
A
100
AcDbEntity
  8
03
100
AcDbLine
 10
234.4336205615938
 20
209.9682963672719
 30
0.0
 11
249.4336205615938
 21
209.9682963672719
 31
0.0
  0
LINE
  5
240
330
A
100
AcDbEntity
  8
03
100
AcDbLine
 10
250.4336205615938
 20
208.968296367272
 30
0.0
 11
250.4336205615938
 21
199.968296367272
 31
0.0
  0
ARC
  5
241
330
A
100
AcDbEntity
  8
03
100
AcDbCircle
 10
249.4336205615938
 20
208.968296367272
 30
0.0
 40
1.0
100
AcDbArc
 50
359.99999989716
 51
89.99999979432008
  0
LINE
  5
242
330
A
100
AcDbEntity
  8
03
100
AcDbLine
 10
250.4336205615938
 20
199.968296367272
 30
0.0
 11
249.4336205615938
 21
199.968296367272
 31
0.0
  0
LINE
  5
243
330
A
100
AcDbEntity
  8
03
100
AcDbLine
 10
249.4336205615938
 20
199.968296367272
 30
0.0
 11
249.4336205615938
 21
208.968296367272
 31
0.0
  0
LINE
  5
244
330
A
100
AcDbEntity
  8
03
100
AcDbLine
 10
249.4336205615938
 20
208.968296367272
 30
0.0
 11
234.4336205615938
 21
208.968296367272
 31
0.0
  0
LINE
  5
245
330
A
100
AcDbEntity
  8
03
100
AcDbLine
 10
234.4336205615938
 20
208.968296367272
 30
0.0
 11
234.4336205615938
 21
185.9682963672719
 31
0.0
  0
ARC
  5
246
330
A
100
AcDbEntity
  8
03
100
AcDbCircle
 10
233.4336205615938
 20
185.9682963672719
 30
0.0
 40
1.0
100
AcDbArc
 50
270.0
 51
359.99999989716
  0
LINE
  5
247
330
A
100
AcDbEntity
  8
03
100
AcDbLine
 10
233.4336205615938
 20
184.9682963672719
 30
0.0
 11
216.4336205615938
 21
184.9682963672719
 31
0.0
  0
ARC
  5
248
330
A
100
AcDbEntity
  8
03
100
AcDbCircle
 10
216.4336205615938
 20
185.9682963672719
 30
0.0
 40
1.0
100
AcDbArc
 50
179.9999996914799
 51
269.99999958864
  0
LINE
  5
249
330
A
100
AcDbEntity
  8
03
100
AcDbLine
 10
215.4336205615938
 20
185.9682963672719
 30
0.0
 11
215.4336205615938
 21
208.968296367272
 31
0.0
  0
LINE
  5
24A
330
A
100
AcDbEntity
  8
03
100
AcDbLine
 10
215.4336205615938
 20
208.968296367272
 30
0.0
 11
206.4336205615938
 21
208.9682963672719
 31
0.0
  0
LINE
  5
24B
330
A
100
AcDbEntity
  8
03
100
AcDbLine
 10
206.4336205615938
 20
208.9682963672719
 30
0.0
 11
206.4336205615938
 21
199.9682963672719
 31
0.0
  0
LINE
  5
24C
330
A
100
AcDbEntity
  8
03
100
AcDbLine
 10
206.4336205615938
 20
199.9682963672719
 30
0.0
 11
205.4336205615938
 21
199.9682963672719
 31
0.0
  0
LINE
  5
24D
330
A
100
AcDbEntity
  8
04
100
AcDbLine
 10
208.4336361728297
 20
355.4683798203686
 30
0.0
 11
246.4335959797831
 21
355.4684162421208
 31
0.0
  0
LINE
  5
24E
330
A
100
AcDbEntity
  8
04
100
AcDbLine
 10
208.4336122284569
 20
359.9683934905435
 30
0.0
 11
246.4336140726679
 21
359.9683625698649
 31
0.0
  0
LINE
  5
24F
330
A
100
AcDbEntity
  8
04
100
AcDbLine
 10
208.4336318597795
 20
359.9683206081921
 30
0.0
 11
208.4336205615938
 21
355.4683843608103
 31
0.0
  0
LINE
  5
250
330
A
100
AcDbEntity
  8
04
100
AcDbLine
 10
246.4336268748464
 20
359.9683538433982
 30
0.0
 11
246.4336342877369
 21
355.4683837923718
 31
0.0
  0
LINE
  5
298
330
A
100
AcDbEntity
  8
CHUSIN
100
AcDbLine
 10
224.9336205615938
 20
173.7807829556193
 30
0.0
 11
224.9336205615937
 21
370.4882963672718
 31
0.0
  0
LINE
  5
299
330
A
100
AcDbEntity
  8
03
100
AcDbLine
 10
158.9336205615938
 20
237.9682963672719
 30
0.0
 11
158.9336205615938
 21
206.9682963672719
 31
0.0
  0
LINE
  5
29A
330
A
100
AcDbEntity
  8
03
100
AcDbLine
 10
204.9336205615938
 20
237.968296367272
 30
0.0
 11
204.9336205615936
 21
206.9682963672719
 31
0.0
  0
LINE
  5
29B
330
A
100
AcDbEntity
  8
03
100
AcDbLine
 10
210.4336205615937
 20
354.468296367272
 30
0.0
 11
210.4336205615937
 21
283.968296367272
 31
0.0
  0
LINE
  5
29C
330
A
100
AcDbEntity
  8
03
100
AcDbLine
 10
210.4336205615938
 20
237.968296367272
 30
0.0
 11
210.4336205615938
 21
216.9682963672719
 31
0.0
  0
LINE
  5
29D
330
A
100
AcDbEntity
  8
03
100
AcDbLine
 10
239.4336205615937
 20
354.468296367272
 30
0.0
 11
239.4336205615937
 21
283.968296367272
 31
0.0
  0
LINE
  5
29E
330
A
100
AcDbEntity
  8
03
100
AcDbLine
 10
239.4336205615938
 20
237.968296367272
 30
0.0
 11
239.4336205615938
 21
216.9682963672719
 31
0.0
  0
LINE
  5
29F
330
A
100
AcDbEntity
  8
03
100
AcDbLine
 10
258.9336205615937
 20
237.968296367272
 30
0.0
 11
258.9336205615937
 21
206.968296367272
 31
0.0
  0
LINE
  5
2A0
330
A
100
AcDbEntity
  8
03
100
AcDbLine
 10
210.4336205615938
 20
216.9682963672719
 30
0.0
 11
239.4336205615938
 21
216.9682963672719
 31
0.0
  0
LINE
  5
2A1
330
A
100
AcDbEntity
  8
03
100
AcDbLine
 10
217.6836205615938
 20
196.9682963672719
 30
0.0
 11
217.6836205615938
 21
216.9682963672719
 31
0.0
  0
LINE
  5
2A2
330
A
100
AcDbEntity
  8
03
100
AcDbLine
 10
232.1836205615938
 20
196.9682963672719
 30
0.0
 11
232.1836205615938
 21
216.9682963672719
 31
0.0
  0
LINE
  5
2A3
330
A
100
AcDbEntity
  8
03
100
AcDbLine
 10
211.9336205615935
 20
348.0082963697488
 30
0.0
 11
211.9336205615935
 21
283.968296367272
 31
0.0
  0
LINE
  5
2A4
330
A
100
AcDbEntity
  8
03
100
AcDbLine
 10
237.9336205615937
 20
348.008296367272
 30
0.0
 11
237.9336205615937
 21
283.968296367272
 31
0.0
  0
LINE
  5
2A5
330
A
100
AcDbEntity
  8
03
100
AcDbLine
 10
215.4336205615936
 20
354.468296367272
 30
0.0
 11
215.4336205615936
 21
347.4682963672719
 31
0.0
  0
LINE
  5
2A6
330
A
100
AcDbEntity
  8
03
100
AcDbLine
 10
215.4336205615936
 20
347.4682963672719
 30
0.0
 11
234.4336205615936
 21
347.4682963672719
 31
0.0
  0
LINE
  5
2A7
330
A
100
AcDbEntity
  8
03
100
AcDbLine
 10
234.4336205615936
 20
347.4682963672719
 30
0.0
 11
234.4336205615936
 21
354.468296367272
 31
0.0
  0
LINE
  5
2A8
330
A
100
AcDbEntity
  8
03
100
AcDbLine
 10
213.4336205615936
 20
345.4682963672718
 30
0.0
 11
220.0336205615935
 21
345.4682963672718
 31
0.0
  0
LINE
  5
2A9
330
A
100
AcDbEntity
  8
03
100
AcDbLine
 10
229.8336205615937
 20
345.4682963672718
 30
0.0
 11
236.4336205615936
 21
345.4682963672718
 31
0.0
  0
ARC
  5
2AA
330
A
100
AcDbEntity
  8
03
100
AcDbCircle
 10
224.9336205615937
 20
343.4682963672718
 30
0.0
 40
1.759999999999999
100
AcDbArc
 50
322.6555554953879
 51
217.3444440932521
  0
ARC
  5
2AB
330
A
100
AcDbEntity
  8
03
100
AcDbCircle
 10
224.9336205615937
 20
343.4682963672718
 30
0.0
 40
4.0
100
AcDbArc
 50
322.5777777176988
 51
11.53333321731463
  0
ARC
  5
2AC
330
A
100
AcDbEntity
  8
03
100
AcDbCircle
 10
229.8336205615937
 20
344.468296367272
 30
0.0
 40
1.0
100
AcDbArc
 50
89.9999997943201
 51
191.5333330116346
  0
ARC
  5
2AD
330
A
100
AcDbEntity
  8
03
100
AcDbCircle
 10
227.2336205615937
 20
341.708296367272
 30
0.0
 40
1.1
100
AcDbArc
 50
209.9555552128063
 51
322.5777777176988
  0
ARC
  5
2AE
330
A
100
AcDbEntity
  8
03
100
AcDbCircle
 10
224.9336205615937
 20
343.4682963672718
 30
0.0
 40
4.0
100
AcDbArc
 50
168.4666663713255
 51
217.422221870941
  0
ARC
  5
2AF
330
A
100
AcDbEntity
  8
03
100
AcDbCircle
 10
220.0336205615935
 20
344.468296367272
 30
0.0
 40
1.0
100
AcDbArc
 50
348.4666665770054
 51
89.99999979432008
  0
LINE
  5
2B0
330
A
100
AcDbEntity
  8
03
100
AcDbLine
 10
223.6136205615937
 20
341.1882963672719
 30
0.0
 11
223.5936205615935
 21
341.1682963672717
 31
0.0
  0
ARC
  5
2B1
330
A
100
AcDbEntity
  8
03
100
AcDbCircle
 10
222.6336205615937
 20
341.708296367272
 30
0.0
 40
1.1
100
AcDbArc
 50
217.422221870941
 51
330.0444443758336
  0
ARC
  5
2B2
330
A
100
AcDbEntity
  8
03
100
AcDbCircle
 10
222.6536205615937
 20
341.7282963672718
 30
0.0
 40
1.1
100
AcDbArc
 50
329.9999999314398
 51
37.34444429893225
  0
LINE
  5
2B3
330
A
100
AcDbEntity
  8
03
100
AcDbLine
 10
226.2536205615937
 20
341.1882963672719
 30
0.0
 11
226.2736205615937
 21
341.1682963672717
 31
0.0
  0
ARC
  5
2B4
330
A
100
AcDbEntity
  8
03
100
AcDbCircle
 10
227.2136205615935
 20
341.7282963672718
 30
0.0
 40
1.1
100
AcDbArc
 50
142.6555552897078
 51
209.9999996572
  0
LINE
  5
2B5
330
A
100
AcDbEntity
  8
03
100
AcDbLine
 10
213.4336205615936
 20
345.4682963672718
 30
0.0
 11
213.4336205615936
 21
306.4682963672718
 31
0.0
  0
LINE
  5
2B6
330
A
100
AcDbEntity
  8
03
100
AcDbLine
 10
236.4336205615936
 20
345.4682963672718
 30
0.0
 11
236.4336205615936
 21
306.4682963672718
 31
0.0
  0
LINE
  5
2B7
330
A
100
AcDbEntity
  8
03
100
AcDbLine
 10
213.4336205615936
 20
306.4682963672718
 30
0.0
 11
220.0336205615935
 21
306.4682963672718
 31
0.0
  0
LINE
  5
2B8
330
A
100
AcDbEntity
  8
03
100
AcDbLine
 10
229.8336205615937
 20
306.4682963672718
 30
0.0
 11
236.4336205615936
 21
306.4682963672718
 31
0.0
  0
ARC
  5
2B9
330
A
100
AcDbEntity
  8
03
100
AcDbCircle
 10
224.9336205615937
 20
308.4682963672718
 30
0.0
 40
1.759999999999999
100
AcDbArc
 50
142.6555552897078
 51
37.34444429893225
  0
ARC
  5
2BA
330
A
100
AcDbEntity
  8
03
100
AcDbCircle
 10
224.9336205615937
 20
308.4682963672718
 30
0.0
 40
4.0
100
AcDbArc
 50
348.4666665770054
 51
37.42222207662114
  0
ARC
  5
2BB
330
A
100
AcDbEntity
  8
03
100
AcDbCircle
 10
229.8336205615937
 20
307.4682963672718
 30
0.0
 40
1.0
100
AcDbArc
 50
168.4666663713255
 51
269.99999958864
  0
ARC
  5
2BC
330
A
100
AcDbEntity
  8
03
100
AcDbCircle
 10
227.2336205615937
 20
310.228296367272
 30
0.0
 40
1.1
100
AcDbArc
 50
37.42222207662114
 51
150.0444441701537
  0
ARC
  5
2BD
330
A
100
AcDbEntity
  8
03
100
AcDbCircle
 10
224.9336205615937
 20
308.4682963672718
 30
0.0
 40
4.0
100
AcDbArc
 50
142.5777775120189
 51
191.5333330116346
  0
ARC
  5
2BE
330
A
100
AcDbEntity
  8
03
100
AcDbCircle
 10
220.0336205615935
 20
307.4682963672718
 30
0.0
 40
1.0
100
AcDbArc
 50
270.0
 51
11.53333321731463
  0
LINE
  5
2BF
330
A
100
AcDbEntity
  8
03
100
AcDbLine
 10
223.6136205615937
 20
310.748296367272
 30
0.0
 11
223.5936205615935
 21
310.7682963672719
 31
0.0
  0
ARC
  5
2C0
330
A
100
AcDbEntity
  8
03
100
AcDbCircle
 10
222.6336205615937
 20
310.228296367272
 30
0.0
 40
1.1
100
AcDbArc
 50
29.9555554184864
 51
142.5777775120189
  0
ARC
  5
2C1
330
A
100
AcDbEntity
  8
03
100
AcDbCircle
 10
222.6536205615937
 20
310.208296367272
 30
0.0
 40
1.1
100
AcDbArc
 50
322.6555554953879
 51
29.99999986288005
  0
LINE
  5
2C2
330
A
100
AcDbEntity
  8
03
100
AcDbLine
 10
226.2536205615937
 20
310.748296367272
 30
0.0
 11
226.2736205615937
 21
310.7682963672719
 31
0.0
  0
ARC
  5
2C3
330
A
100
AcDbEntity
  8
03
100
AcDbCircle
 10
227.2136205615935
 20
310.208296367272
 30
0.0
 40
1.1
100
AcDbArc
 50
149.99999972576
 51
217.3444440932521
  0
LINE
  5
2C4
330
A
100
AcDbEntity
  8
03
100
AcDbLine
 10
213.4336205615936
 20
304.468296367272
 30
0.0
 11
236.4336205615936
 21
304.468296367272
 31
0.0
  0
LINE
  5
2C5
330
A
100
AcDbEntity
  8
03
100
AcDbLine
 10
213.4336205615936
 20
304.468296367272
 30
0.0
 11
213.4336205615936
 21
295.9682963672718
 31
0.0
  0
LINE
  5
2C6
330
A
100
AcDbEntity
  8
03
100
AcDbLine
 10
236.4336205615936
 20
304.468296367272
 30
0.0
 11
236.4336205615936
 21
295.9682963672718
 31
0.0
  0
LINE
  5
2C7
330
A
100
AcDbEntity
  8
03
100
AcDbLine
 10
211.9336205615938
 20
237.968296367272
 30
0.0
 11
211.9336205615938
 21
216.9682963672719
 31
0.0
  0
LINE
  5
2C8
330
A
100
AcDbEntity
  8
03
100
AcDbLine
 10
213.4336205615938
 20
237.968296367272
 30
0.0
 11
213.4336205615938
 21
216.9682963672719
 31
0.0
  0
LINE
  5
2C9
330
A
100
AcDbEntity
  8
03
100
AcDbLine
 10
213.4336205615938
 20
226.9682963672719
 30
0.0
 11
216.4336205615938
 21
226.9682963672719
 31
0.0
  0
LINE
  5
2CA
330
A
100
AcDbEntity
  8
03
100
AcDbLine
 10
216.4336205615938
 20
226.9682963672719
 30
0.0
 11
216.4336205615938
 21
223.968296367272
 31
0.0
  0
LINE
  5
2CB
330
A
100
AcDbEntity
  8
03
100
AcDbLine
 10
216.4336205615938
 20
223.968296367272
 30
0.0
 11
214.9336205615937
 21
223.968296367272
 31
0.0
  0
LINE
  5
2CC
330
A
100
AcDbEntity
  8
03
100
AcDbLine
 10
214.9336205615937
 20
223.968296367272
 30
0.0
 11
214.9336205615937
 21
225.468296367272
 31
0.0
  0
LINE
  5
2CD
330
A
100
AcDbEntity
  8
03
100
AcDbLine
 10
214.9336205615937
 20
225.468296367272
 30
0.0
 11
213.4336205615938
 21
225.468296367272
 31
0.0
  0
LINE
  5
2CE
330
A
100
AcDbEntity
  8
03
100
AcDbLine
 10
213.4336205615938
 20
225.468296367272
 30
0.0
 11
213.4336205615938
 21
218.4682963672719
 31
0.0
  0
LINE
  5
2CF
330
A
100
AcDbEntity
  8
03
100
AcDbLine
 10
213.4336205615938
 20
218.4682963672719
 30
0.0
 11
214.9336205615937
 21
218.4682963672719
 31
0.0
  0
LINE
  5
2D0
330
A
100
AcDbEntity
  8
03
100
AcDbLine
 10
214.9336205615937
 20
218.4682963672719
 30
0.0
 11
214.9336205615937
 21
219.9682963672719
 31
0.0
  0
LINE
  5
2D1
330
A
100
AcDbEntity
  8
03
100
AcDbLine
 10
214.9336205615937
 20
219.9682963672719
 30
0.0
 11
216.4336205615938
 21
219.9682963672719
 31
0.0
  0
LINE
  5
2D2
330
A
100
AcDbEntity
  8
03
100
AcDbLine
 10
216.4336205615938
 20
219.9682963672719
 30
0.0
 11
216.4336205615938
 21
216.9682963672719
 31
0.0
  0
LINE
  5
2D3
330
A
100
AcDbEntity
  8
03
100
AcDbLine
 10
236.4336205615938
 20
237.968296367272
 30
0.0
 11
236.4336205615938
 21
216.9682963672719
 31
0.0
  0
LINE
  5
2D4
330
A
100
AcDbEntity
  8
03
100
AcDbLine
 10
237.9336205615938
 20
237.968296367272
 30
0.0
 11
237.9336205615938
 21
216.9682963672719
 31
0.0
  0
ARC
  5
2D5
330
A
100
AcDbEntity
  8
03
100
AcDbCircle
 10
237.4736205615937
 20
348.008296367272
 30
0.0
 40
0.4600000000000001
100
AcDbArc
 50
359.99999989716
 51
89.99999979432008
  0
LINE
  5
2D6
330
A
100
AcDbEntity
  8
03
100
AcDbLine
 10
237.4736205615937
 20
348.468296367272
 30
0.0
 11
237.4336205615937
 21
348.468296367272
 31
0.0
  0
ARC
  5
2D7
330
A
100
AcDbEntity
  8
03
100
AcDbCircle
 10
237.4336205615937
 20
347.9682963672718
 30
0.0
 40
0.5
100
AcDbArc
 50
89.9999997943201
 51
179.9999996914799
  0
LINE
  5
2D8
330
A
100
AcDbEntity
  8
03
100
AcDbLine
 10
236.9336205615935
 20
347.9682963672718
 30
0.0
 11
236.9336205615935
 21
347.4682963672719
 31
0.0
  0
LINE
  5
2D9
330
A
100
AcDbEntity
  8
03
100
AcDbLine
 10
236.9336205615935
 20
347.4682963672719
 30
0.0
 11
235.9336205615937
 21
347.4682963672719
 31
0.0
  0
LINE
  5
2DA
330
A
100
AcDbEntity
  8
03
100
AcDbLine
 10
235.9336205615937
 20
347.4682963672719
 30
0.0
 11
235.9336205615937
 21
353.4682963672718
 31
0.0
  0
LINE
  5
2DB
330
A
100
AcDbEntity
  8
03
100
AcDbLine
 10
235.9336205615937
 20
353.4682963672718
 30
0.0
 11
236.9336205615935
 21
353.4682963672718
 31
0.0
  0
LINE
  5
2DC
330
A
100
AcDbEntity
  8
03
100
AcDbLine
 10
236.9336205615935
 20
353.4682963672718
 30
0.0
 11
236.9336205615935
 21
352.968296367272
 31
0.0
  0
ARC
  5
2DD
330
A
100
AcDbEntity
  8
03
100
AcDbCircle
 10
237.4336205615937
 20
352.968296367272
 30
0.0
 40
0.5
100
AcDbArc
 50
179.9999996914799
 51
269.99999958864
  0
LINE
  5
2DE
330
A
100
AcDbEntity
  8
03
100
AcDbLine
 10
237.4336205615937
 20
352.468296367272
 30
0.0
 11
237.4736205615937
 21
352.468296367272
 31
0.0
  0
ARC
  5
2DF
330
A
100
AcDbEntity
  8
03
100
AcDbCircle
 10
237.4736205615937
 20
352.9282963672717
 30
0.0
 40
0.4600000000000001
100
AcDbArc
 50
270.0
 51
359.99999989716
  0
LINE
  5
2E0
330
A
100
AcDbEntity
  8
03
100
AcDbLine
 10
237.9336205615937
 20
352.9282963672717
 30
0.0
 11
237.9336205615937
 21
354.468296367272
 31
0.0
  0
ARC
  5
2E1
330
A
100
AcDbEntity
  8
03
100
AcDbCircle
 10
212.3936205615937
 20
348.008296367272
 30
0.0
 40
0.4600000000000001
100
AcDbArc
 50
89.9999997943201
 51
179.9999996914799
  0
LINE
  5
2E2
330
A
100
AcDbEntity
  8
03
100
AcDbLine
 10
212.3936205615937
 20
348.468296367272
 30
0.0
 11
212.4336205615937
 21
348.468296367272
 31
0.0
  0
ARC
  5
2E3
330
A
100
AcDbEntity
  8
03
100
AcDbCircle
 10
212.4336205615937
 20
347.9682963672718
 30
0.0
 40
0.5
100
AcDbArc
 50
359.99999989716
 51
89.99999979432008
  0
LINE
  5
2E4
330
A
100
AcDbEntity
  8
03
100
AcDbLine
 10
212.9336205615937
 20
347.9682963672718
 30
0.0
 11
212.9336205615937
 21
347.4682963672719
 31
0.0
  0
LINE
  5
2E5
330
A
100
AcDbEntity
  8
03
100
AcDbLine
 10
212.9336205615937
 20
347.4682963672719
 30
0.0
 11
213.9336205615935
 21
347.4682963672719
 31
0.0
  0
LINE
  5
2E6
330
A
100
AcDbEntity
  8
03
100
AcDbLine
 10
213.9336205615935
 20
347.4682963672719
 30
0.0
 11
213.9336205615935
 21
353.4682963672718
 31
0.0
  0
LINE
  5
2E7
330
A
100
AcDbEntity
  8
03
100
AcDbLine
 10
213.9336205615935
 20
353.4682963672718
 30
0.0
 11
212.9336205615937
 21
353.4682963672718
 31
0.0
  0
LINE
  5
2E8
330
A
100
AcDbEntity
  8
03
100
AcDbLine
 10
212.9336205615937
 20
353.4682963672718
 30
0.0
 11
212.9336205615937
 21
352.968296367272
 31
0.0
  0
ARC
  5
2E9
330
A
100
AcDbEntity
  8
03
100
AcDbCircle
 10
212.4336205615937
 20
352.968296367272
 30
0.0
 40
0.5
100
AcDbArc
 50
270.0
 51
359.99999989716
  0
LINE
  5
2EA
330
A
100
AcDbEntity
  8
03
100
AcDbLine
 10
212.4336205615937
 20
352.468296367272
 30
0.0
 11
212.3936205615937
 21
352.468296367272
 31
0.0
  0
ARC
  5
2EB
330
A
100
AcDbEntity
  8
03
100
AcDbCircle
 10
212.3936205615937
 20
352.9282963672717
 30
0.0
 40
0.4600000000000001
100
AcDbArc
 50
179.9999996914799
 51
269.99999958864
  0
LINE
  5
2EC
330
A
100
AcDbEntity
  8
03
100
AcDbLine
 10
211.9336205615935
 20
352.9282963672717
 30
0.0
 11
211.9336205615935
 21
354.468296367272
 31
0.0
  0
LINE
  5
2ED
330
A
100
AcDbEntity
  8
03
100
AcDbLine
 10
211.9336205615935
 20
294.468296367272
 30
0.0
 11
219.9336205615936
 21
294.468296367272
 31
0.0
  0
LINE
  5
2EE
330
A
100
AcDbEntity
  8
03
100
AcDbLine
 10
213.4336205615936
 20
295.9682963672718
 30
0.0
 11
219.9336205615936
 21
295.9682963672718
 31
0.0
  0
LINE
  5
2EF
330
A
100
AcDbEntity
  8
03
100
AcDbLine
 10
219.9336205615936
 20
294.468296367272
 30
0.0
 11
219.9336205615936
 21
295.9682963672718
 31
0.0
  0
LINE
  5
2F0
330
A
100
AcDbEntity
  8
03
100
AcDbLine
 10
237.9336205615937
 20
294.468296367272
 30
0.0
 11
229.9336205615936
 21
294.468296367272
 31
0.0
  0
LINE
  5
2F1
330
A
100
AcDbEntity
  8
03
100
AcDbLine
 10
236.4336205615936
 20
295.9682963672718
 30
0.0
 11
229.9336205615936
 21
295.9682963672718
 31
0.0
  0
LINE
  5
2F2
330
A
100
AcDbEntity
  8
03
100
AcDbLine
 10
229.9336205615936
 20
294.468296367272
 30
0.0
 11
229.9336205615936
 21
295.9682963672718
 31
0.0
  0
LINE
  5
2F3
330
A
100
AcDbEntity
  8
03
100
AcDbLine
 10
227.9336205615936
 20
301.4682963672719
 30
0.0
 11
227.9336205615936
 21
283.968296367272
 31
0.0
  0
LINE
  5
2F4
330
A
100
AcDbEntity
  8
03
100
AcDbLine
 10
227.9336205615936
 20
301.4682963672719
 30
0.0
 11
221.9336205615936
 21
301.4682963672719
 31
0.0
  0
LINE
  5
2F5
330
A
100
AcDbEntity
  8
03
100
AcDbLine
 10
221.9336205615936
 20
301.4682963672719
 30
0.0
 11
221.9336205615938
 21
283.968296367272
 31
0.0
  0
LINE
  5
317
330
A
100
AcDbEntity
  8
03
100
AcDbLine
 10
159.9336205615935
 20
344.4682963672718
 30
0.0
 11
159.9336205615935
 21
283.9682963672718
 31
0.0
  0
LINE
  5
318
330
A
100
AcDbEntity
  8
03
100
AcDbLine
 10
159.9336205615938
 20
237.9682963672719
 30
0.0
 11
159.9336205615938
 21
206.9682963672719
 31
0.0
  0
LINE
  5
319
330
A
100
AcDbEntity
  8
SAISEN
100
AcDbLine
 10
153.9336205615937
 20
283.9682963672718
 30
0.0
 11
263.4336205615937
 21
283.968296367272
 31
0.0
  0
LINE
  5
31A
330
A
100
AcDbEntity
  8
SAISEN
100
AcDbLine
 10
153.9336205615938
 20
237.9682963672719
 30
0.0
 11
263.4336205615937
 21
237.968296367272
 31
0.0
  0
LINE
  5
31B
330
A
100
AcDbEntity
  8
03
100
AcDbLine
 10
226.9336205615937
 20
283.968296367272
 30
0.0
 11
226.9336205615937
 21
301.4682963672719
 31
0.0
  0
LINE
  5
31C
330
A
100
AcDbEntity
  8
03
100
AcDbLine
 10
222.9336205615937
 20
301.4682963672719
 30
0.0
 11
222.9336205615938
 21
283.968296367272
 31
0.0
  0
LINE
  5
31D
330
A
100
AcDbEntity
  8
KAKURE
100
AcDbLine
 10
158.9336205615938
 20
206.9682963672719
 30
0.0
 11
158.9336205615938
 21
176.9682963672719
 31
0.0
  0
LINE
  5
31E
330
A
100
AcDbEntity
  8
KAKURE
100
AcDbLine
 10
158.9336205615938
 20
176.9682963672719
 30
0.0
 11
258.9336205615939
 21
176.9682963672719
 31
0.0
  0
LINE
  5
31F
330
A
100
AcDbEntity
  8
KAKURE
100
AcDbLine
 10
258.9336205615939
 20
176.9682963672719
 30
0.0
 11
258.9336205615937
 21
206.968296367272
 31
0.0
  0
LINE
  5
320
330
A
100
AcDbEntity
  8
KAKURE
100
AcDbLine
 10
159.9336205615938
 20
206.9682963672719
 30
0.0
 11
159.9336205615938
 21
176.9682963672719
 31
0.0
  0
LINE
  5
321
330
A
100
AcDbEntity
  8
KAKURE
100
AcDbLine
 10
209.6336205615938
 20
208.968296367272
 30
0.0
 11
209.6336205615938
 21
181.9682963672719
 31
0.0
  0
LINE
  5
322
330
A
100
AcDbEntity
  8
KAKURE
100
AcDbLine
 10
246.2336205615938
 20
181.9682963672719
 30
0.0
 11
246.2336205615938
 21
208.968296367272
 31
0.0
  0
LINE
  5
323
330
A
100
AcDbEntity
  8
KAKURE
100
AcDbLine
 10
249.4336205615938
 20
199.968296367272
 30
0.0
 11
249.4336205615938
 21
181.9682963672719
 31
0.0
  0
ARC
  5
324
330
A
100
AcDbEntity
  8
KAKURE
100
AcDbCircle
 10
246.2336205615938
 20
181.9682963672719
 30
0.0
 40
3.2
100
AcDbArc
 50
270.0
 51
359.99999989716
  0
LINE
  5
325
330
A
100
AcDbEntity
  8
KAKURE
100
AcDbLine
 10
246.2336205615938
 20
178.768296367272
 30
0.0
 11
209.6336205615938
 21
178.768296367272
 31
0.0
  0
ARC
  5
326
330
A
100
AcDbEntity
  8
KAKURE
100
AcDbCircle
 10
209.6336205615938
 20
181.9682963672719
 30
0.0
 40
3.2
100
AcDbArc
 50
179.9999996914799
 51
269.99999958864
  0
LINE
  5
327
330
A
100
AcDbEntity
  8
KAKURE
100
AcDbLine
 10
206.4336205615938
 20
181.9682963672719
 30
0.0
 11
206.4336205615938
 21
199.9682963672719
 31
0.0
  0
LINE
  5
328
330
A
100
AcDbEntity
  8
KAKURE
100
AcDbLine
 10
246.2336205615938
 20
181.9682963672719
 30
0.0
 11
209.6336205615938
 21
181.9682963672719
 31
0.0
  0
LINE
  5
329
330
A
100
AcDbEntity
  8
CHUSIN
100
AcDbLine
 10
238.1723504240262
 20
367.4685470313608
 30
0.0
 11
249.269803966273
 21
367.4686273123715
 31
0.0
  0
LINE
  5
32A
330
A
100
AcDbEntity
  8
03
100
AcDbLine
 10
205.9336205615934
 20
550.5569528530209
 30
0.0
 11
205.9336205615934
 21
529.4682963672723
 31
0.0
  0
LINE
  5
32B
330
A
100
AcDbEntity
  8
03
100
AcDbLine
 10
205.9336205615935
 20
524.4682963672718
 30
0.0
 11
205.9336205615935
 21
505.4682963672719
 31
0.0
  0
LINE
  5
32C
330
A
100
AcDbEntity
  8
03
100
AcDbLine
 10
205.9336205615935
 20
505.4682963672719
 30
0.0
 11
211.9336205615935
 21
505.4682963672719
 31
0.0
  0
LINE
  5
32D
330
A
100
AcDbEntity
  8
03
100
AcDbLine
 10
211.9336205615935
 20
505.4682963672719
 30
0.0
 11
211.9336205615935
 21
524.4682963672718
 31
0.0
  0
LINE
  5
32E
330
A
100
AcDbEntity
  8
03
100
AcDbLine
 10
211.9336205615933
 20
529.4682963672723
 30
0.0
 11
211.9336205615933
 21
550.556952853021
 31
0.0
  0
LINE
  5
32F
330
A
100
AcDbEntity
  8
03
100
AcDbLine
 10
197.9336205615931
 20
514.4682963672719
 30
0.0
 11
197.9336205615935
 21
512.9682963672719
 31
0.0
  0
LINE
  5
330
330
A
100
AcDbEntity
  8
03
100
AcDbLine
 10
197.9336205615935
 20
512.9682963672719
 30
0.0
 11
200.9336205615936
 21
512.9682963672719
 31
0.0
  0
LINE
  5
331
330
A
100
AcDbEntity
  8
03
100
AcDbLine
 10
200.9336205615936
 20
512.9682963672719
 30
0.0
 11
200.9336205615936
 21
510.9682963672717
 31
0.0
  0
LINE
  5
332
330
A
100
AcDbEntity
  8
03
100
AcDbLine
 10
200.9336205615936
 20
510.9682963672717
 30
0.0
 11
197.9336205615935
 21
510.9682963672717
 31
0.0
  0
LINE
  5
333
330
A
100
AcDbEntity
  8
03
100
AcDbLine
 10
197.9336205615935
 20
510.9682963672717
 30
0.0
 11
197.9336205615935
 21
493.5682963672719
 31
0.0
  0
ARC
  5
334
330
A
100
AcDbEntity
  8
03
100
AcDbCircle
 10
198.4336205615935
 20
493.5682963672719
 30
0.0
 40
0.5
100
AcDbArc
 50
179.9999996914799
 51
273.1999999963434
  0
LINE
  5
335
330
A
100
AcDbEntity
  8
03
100
AcDbLine
 10
196.4336205615935
 20
491.9882963672716
 30
0.0
 11
196.4336205615935
 21
513.4682963672719
 31
0.0
  0
ARC
  5
336
330
A
100
AcDbEntity
  8
03
100
AcDbCircle
 10
196.9336205615935
 20
491.9882963672716
 30
0.0
 40
0.5
100
AcDbArc
 50
179.9999996914799
 51
273.1777777741466
  0
LINE
  5
337
330
A
100
AcDbEntity
  8
03
100
AcDbLine
 10
196.9536205615936
 20
491.4882963672718
 30
0.0
 11
205.4336205615935
 21
491.9682963672719
 31
0.0
  0
LINE
  5
338
330
A
100
AcDbEntity
  8
03
100
AcDbLine
 10
198.4536205615935
 20
493.0682963672719
 30
0.0
 11
205.4336205615935
 21
493.4682963672718
 31
0.0
  0
LINE
  5
339
330
A
100
AcDbEntity
  8
03
100
AcDbLine
 10
205.4336205615935
 20
491.9682963672719
 30
0.0
 11
205.4336205615935
 21
493.4682963672718
 31
0.0
  0
LINE
  5
33A
330
A
100
AcDbEntity
  8
03
100
AcDbLine
 10
196.4336205615935
 20
513.4682963672719
 30
0.0
 11
159.9336205615935
 21
513.4682963672719
 31
0.0
  0
LINE
  5
33B
330
A
100
AcDbEntity
  8
03
100
AcDbLine
 10
159.9336205615935
 20
513.4682963672719
 30
0.0
 11
159.9336205615935
 21
495.4682963672718
 31
0.0
  0
LINE
  5
33C
330
A
100
AcDbEntity
  8
03
100
AcDbLine
 10
159.9336205615935
 20
495.4682963672718
 30
0.0
 11
162.4336205615934
 21
495.4682963672718
 31
0.0
  0
LINE
  5
33D
330
A
100
AcDbEntity
  8
03
100
AcDbLine
 10
163.2936205615933
 20
493.9682963672717
 30
0.0
 11
162.1336205615936
 21
491.9682963672719
 31
0.0
  0
ARC
  5
33E
330
A
100
AcDbEntity
  8
03
100
AcDbCircle
 10
162.4336205615934
 20
494.4682963672717
 30
0.0
 40
1.0
100
AcDbArc
 50
329.8555554871607
 51
89.99999979432008
  0
LINE
  5
33F
330
A
100
AcDbEntity
  8
03
100
AcDbLine
 10
162.1336205615936
 20
491.9682963672719
 30
0.0
 11
160.9736205615934
 21
491.9682963672719
 31
0.0
  0
LINE
  5
340
330
A
100
AcDbEntity
  8
03
100
AcDbLine
 10
158.9336205615935
 20
514.4682963672719
 30
0.0
 11
197.9336205615931
 21
514.4682963672719
 31
0.0
  0
LINE
  5
341
330
A
100
AcDbEntity
  8
03
100
AcDbLine
 10
158.9336205615933
 20
344.4682963672718
 30
0.0
 11
171.4336205615933
 21
344.4682963672718
 31
0.0
  0
LINE
  5
342
330
A
100
AcDbEntity
  8
03
100
AcDbLine
 10
171.4336205615933
 20
344.4682963672718
 30
0.0
 11
171.4336205615935
 21
345.9682963672718
 31
0.0
  0
LINE
  5
343
330
A
100
AcDbEntity
  8
03
100
AcDbLine
 10
171.4336205615935
 20
345.9682963672718
 30
0.0
 11
174.4336205615935
 21
345.9682963672718
 31
0.0
  0
LINE
  5
344
330
A
100
AcDbEntity
  8
03
100
AcDbLine
 10
174.4336205615935
 20
345.9682963672718
 30
0.0
 11
174.4336205615935
 21
347.9682963672718
 31
0.0
  0
LINE
  5
345
330
A
100
AcDbEntity
  8
03
100
AcDbLine
 10
174.4336205615935
 20
347.9682963672718
 30
0.0
 11
171.4336205615935
 21
347.9682963672718
 31
0.0
  0
LINE
  5
346
330
A
100
AcDbEntity
  8
03
100
AcDbLine
 10
171.4336205615935
 20
347.9682963672718
 30
0.0
 11
171.4336205615935
 21
352.7082942310414
 31
0.0
  0
ARC
  5
347
330
A
100
AcDbEntity
  8
03
100
AcDbCircle
 10
172.4336205615935
 20
352.7082942310414
 30
0.0
 40
1.0
100
AcDbArc
 50
72.51111092541515
 51
179.9999996914799
  0
ARC
  5
348
330
A
100
AcDbEntity
  8
03
100
AcDbCircle
 10
173.9336205615933
 20
357.4682963672718
 30
0.0
 40
4.0
100
AcDbArc
 50
7.511110999688462
 51
11.53333321731463
  0
ARC
  5
349
330
A
100
AcDbEntity
  8
03
100
AcDbCircle
 10
173.9336205615933
 20
357.4682963672718
 30
0.0
 40
4.0
100
AcDbArc
 50
252.5111107197351
 51
262.4888884861114
  0
ARC
  5
34A
330
A
100
AcDbEntity
  8
03
100
AcDbCircle
 10
173.5536194934782
 20
354.5882914844593
 30
0.0
 40
1.1
100
AcDbArc
 50
262.4888884861114
 51
15.47777765725189
  0
LINE
  5
34B
330
A
100
AcDbEntity
  8
03
100
AcDbLine
 10
174.6136208667691
 20
354.9082911792836
 30
0.0
 11
174.6136208667691
 21
354.8882945362171
 31
0.0
  0
ARC
  5
34C
330
A
100
AcDbEntity
  8
03
100
AcDbCircle
 10
173.5536194934782
 20
354.6282923999867
 30
0.0
 40
1.1
100
AcDbArc
 50
15.03333321331529
 51
82.37777758080749
  0
LINE
  5
34D
330
A
100
AcDbEntity
  8
03
100
AcDbLine
 10
176.4936181201871
 20
356.788296062096
 30
0.0
 11
176.5136185779508
 21
356.788296062096
 31
0.0
  0
ARC
  5
34E
330
A
100
AcDbEntity
  8
03
100
AcDbCircle
 10
176.8136178150114
 20
357.8482936206898
 30
0.0
 40
1.1
100
AcDbArc
 50
254.522221828548
 51
7.511110999688446
  0
ARC
  5
34F
330
A
100
AcDbEntity
  8
03
100
AcDbCircle
 10
176.7736207141813
 20
357.8482936206898
 30
0.0
 40
1.1
100
AcDbArc
 50
187.6222219049924
 51
254.9666662724848
  0
ARC
  5
350
330
A
100
AcDbEntity
  8
03
100
AcDbCircle
 10
173.9336205615933
 20
357.4682963672718
 30
0.0
 40
1.759999999999999
100
AcDbArc
 50
7.622222110672617
 51
262.3777773751275
  0
LINE
  5
351
330
A
100
AcDbEntity
  8
03
100
AcDbLine
 10
193.4336186542448
 20
344.4682963672718
 30
0.0
 11
193.4336186542449
 21
345.9682963672718
 31
0.0
  0
LINE
  5
352
330
A
100
AcDbEntity
  8
03
100
AcDbLine
 10
193.4336186542449
 20
345.9682963672718
 30
0.0
 11
190.4336186542449
 21
345.9682963672718
 31
0.0
  0
LINE
  5
353
330
A
100
AcDbEntity
  8
03
100
AcDbLine
 10
190.4336186542449
 20
345.9682963672718
 30
0.0
 11
190.4336186542449
 21
347.9682963672718
 31
0.0
  0
LINE
  5
354
330
A
100
AcDbEntity
  8
03
100
AcDbLine
 10
190.4336186542449
 20
347.9682963672718
 30
0.0
 11
193.4336186542449
 21
347.9682963672718
 31
0.0
  0
LINE
  5
355
330
A
100
AcDbEntity
  8
03
100
AcDbLine
 10
193.4336186542449
 20
347.9682963672718
 30
0.0
 11
193.4336186542449
 21
356.4682963672718
 31
0.0
  0
LINE
  5
356
330
A
100
AcDbEntity
  8
03
100
AcDbLine
 10
193.4336186542449
 20
357.4682963672718
 30
0.0
 11
193.4336186542448
 21
359.4682963672718
 31
0.0
  0
LINE
  5
357
330
A
100
AcDbEntity
  8
03
100
AcDbLine
 10
193.4336186542448
 20
344.4682963672718
 30
0.0
 11
204.9336205615936
 21
344.4682963672718
 31
0.0
  0
LINE
  5
358
330
A
100
AcDbEntity
  8
03
100
AcDbLine
 10
200.4336186542448
 20
346.4682963672718
 30
0.0
 11
196.4336186542448
 21
346.4682963672718
 31
0.0
  0
ARC
  5
359
330
A
100
AcDbEntity
  8
03
100
AcDbCircle
 10
200.4336186542448
 20
347.4682963672719
 30
0.0
 40
1.0
100
AcDbArc
 50
269.9999999999996
 51
359.9999998971599
  0
ARC
  5
35A
330
A
100
AcDbEntity
  8
03
100
AcDbCircle
 10
196.4336186542448
 20
347.4682963672719
 30
0.0
 40
1.0
100
AcDbArc
 50
179.9999996914799
 51
269.99999958864
  0
LINE
  5
35B
330
A
100
AcDbEntity
  8
03
100
AcDbLine
 10
195.4336186542448
 20
347.4682963672719
 30
0.0
 11
195.4336186542448
 21
359.4682963672718
 31
0.0
  0
ARC
  5
35C
330
A
100
AcDbEntity
  8
03
100
AcDbCircle
 10
193.4336186542448
 20
359.4682963672718
 30
0.0
 40
2.0
100
AcDbArc
 50
359.9999998971599
 51
89.99999979432008
  0
ARC
  5
35D
330
A
100
AcDbEntity
  8
03
100
AcDbCircle
 10
173.4336205615935
 20
357.4682963672718
 30
0.0
 40
4.0
100
AcDbArc
 50
89.9999997943201
 51
179.9999996914799
  0
LINE
  5
35E
330
A
100
AcDbEntity
  8
03
100
AcDbLine
 10
193.4336186542448
 20
359.4682963672718
 30
0.0
 11
178.8336182727749
 21
359.4682963672718
 31
0.0
  0
ARC
  5
35F
330
A
100
AcDbEntity
  8
03
100
AcDbCircle
 10
178.8336182727749
 20
358.4682963672718
 30
0.0
 40
1.0
100
AcDbArc
 50
89.9999997943201
 51
191.5333330116346
  0
LINE
  5
360
330
A
100
AcDbEntity
  8
03
100
AcDbLine
 10
169.4336205615933
 20
357.4682963672718
 30
0.0
 11
169.4336205615933
 21
348.7682917896351
 31
0.0
  0
LINE
  5
361
330
A
100
AcDbEntity
  8
03
100
AcDbLine
 10
167.4336205615935
 20
346.7682917896351
 30
0.0
 11
163.4336205615932
 21
346.7682917896351
 31
0.0
  0
ARC
  5
362
330
A
100
AcDbEntity
  8
03
100
AcDbCircle
 10
167.4336205615935
 20
348.7682917896351
 30
0.0
 40
2.0
100
AcDbArc
 50
269.9999999999996
 51
359.9999998971599
  0
LINE
  5
363
330
A
100
AcDbEntity
  8
03
100
AcDbLine
 10
161.4336205615932
 20
348.7682917896351
 30
0.0
 11
161.4336205615934
 21
486.9682963672718
 31
0.0
  0
ARC
  5
364
330
A
100
AcDbEntity
  8
03
100
AcDbCircle
 10
163.4336205615932
 20
348.7682917896351
 30
0.0
 40
2.0
100
AcDbArc
 50
179.9999996914799
 51
269.99999958864
  0
ARC
  5
365
330
A
100
AcDbEntity
  8
03
100
AcDbCircle
 10
163.4336205615935
 20
486.9682963672718
 30
0.0
 40
2.0
100
AcDbArc
 50
89.9999997943201
 51
179.9999996914799
  0
LINE
  5
366
330
A
100
AcDbEntity
  8
03
100
AcDbLine
 10
158.9336205615933
 20
283.9682963672718
 30
0.0
 11
158.9336205615933
 21
524.4682963672718
 31
0.0
  0
LINE
  5
367
330
A
100
AcDbEntity
  8
03
100
AcDbLine
 10
158.9336205615935
 20
529.4682963672718
 30
0.0
 11
158.9336205615935
 21
541.556952853021
 31
0.0
  0
LINE
  5
368
330
A
100
AcDbEntity
  8
03
100
AcDbLine
 10
158.9336205615935
 20
494.4682963672717
 30
0.0
 11
162.4336205615934
 21
494.4682963672717
 31
0.0
  0
LINE
  5
369
330
A
100
AcDbEntity
  8
03
100
AcDbLine
 10
160.6936188831268
 20
491.4682963672718
 30
0.0
 11
168.9336205615935
 21
491.4682963672718
 31
0.0
  0
LINE
  5
36A
330
A
100
AcDbEntity
  8
03
100
AcDbLine
 10
162.4336205615934
 20
494.4682963672717
 30
0.0
 11
160.6936188831268
 21
491.4682963672718
 31
0.0
  0
ARC
  5
36B
330
A
100
AcDbEntity
  8
03
100
AcDbCircle
 10
173.9336205615934
 20
492.4682963672719
 30
0.0
 40
1.759999999999999
100
AcDbArc
 50
142.8666664005776
 51
37.13333318806236
  0
ARC
  5
36C
330
A
100
AcDbEntity
  8
03
100
AcDbCircle
 10
171.6536179675995
 20
494.188297587975
 30
0.0
 40
1.1
100
AcDbArc
 50
322.9666666061433
 51
14.79999988024858
  0
ARC
  5
36D
330
A
100
AcDbEntity
  8
03
100
AcDbCircle
 10
176.2136193408903
 20
494.188297587975
 30
0.0
 40
1.1
100
AcDbArc
 50
165.1999997083914
 51
217.0333329824966
  0
ARC
  5
36E
330
A
100
AcDbEntity
  8
03
100
AcDbCircle
 10
173.9336205615934
 20
492.4682963672719
 30
0.0
 40
4.0
100
AcDbArc
 50
149.9666663924647
 51
179.9999996914799
  0
ARC
  5
36F
330
A
100
AcDbEntity
  8
03
100
AcDbCircle
 10
168.9336205615935
 20
492.4682963672719
 30
0.0
 40
1.0
100
AcDbArc
 50
269.9999999999996
 51
359.9999998971599
  0
ARC
  5
370
330
A
100
AcDbEntity
  8
03
100
AcDbCircle
 10
173.9336205615934
 20
492.4682963672719
 30
0.0
 40
4.0
100
AcDbArc
 50
359.9999998971599
 51
30.03333319617523
  0
LINE
  5
371
330
A
100
AcDbEntity
  8
03
100
AcDbLine
 10
170.4736176624237
 20
494.4682963672717
 30
0.0
 11
172.7136193408903
 21
494.4682963672717
 31
0.0
  0
LINE
  5
372
330
A
100
AcDbEntity
  8
03
100
AcDbLine
 10
175.1536179675994
 20
494.4682963672717
 30
0.0
 11
177.3936196460661
 21
494.4682963672717
 31
0.0
  0
LINE
  5
373
330
A
100
AcDbEntity
  8
03
100
AcDbLine
 10
178.9336186542449
 20
491.4682963672718
 30
0.0
 11
207.9336191310821
 21
491.4682963672718
 31
0.0
  0
ARC
  5
374
330
A
100
AcDbEntity
  8
03
100
AcDbCircle
 10
178.9336186542449
 20
492.4682963672719
 30
0.0
 40
1.0
100
AcDbArc
 50
179.9999996914799
 51
269.99999958864
  0
LINE
  5
375
330
A
100
AcDbEntity
  8
03
100
AcDbLine
 10
163.4336205615935
 20
488.9682963672719
 30
0.0
 11
209.9336190714775
 21
488.9682963672719
 31
0.0
  0
ARC
  5
376
330
A
100
AcDbEntity
  8
03
100
AcDbCircle
 10
209.9336190714775
 20
489.4682963672718
 30
0.0
 40
0.5
100
AcDbArc
 50
269.9999999999996
 51
359.9999998971599
  0
LINE
  5
377
330
A
100
AcDbEntity
  8
03
100
AcDbLine
 10
207.9336191310821
 20
491.4682963672718
 30
0.0
 11
207.9336191310821
 21
493.4682963672718
 31
0.0
  0
LINE
  5
378
330
A
100
AcDbEntity
  8
03
100
AcDbLine
 10
207.9336191310821
 20
493.4682963672718
 30
0.0
 11
204.433619131082
 21
493.4682963672718
 31
0.0
  0
LINE
  5
379
330
A
100
AcDbEntity
  8
03
100
AcDbLine
 10
204.433619131082
 20
493.4682963672718
 30
0.0
 11
204.433619131082
 21
494.4682963672716
 31
0.0
  0
LINE
  5
37A
330
A
100
AcDbEntity
  8
03
100
AcDbLine
 10
204.433619131082
 20
494.4682963672716
 30
0.0
 11
212.433619131082
 21
494.4682963672717
 31
0.0
  0
LINE
  5
37B
330
A
100
AcDbEntity
  8
03
100
AcDbLine
 10
212.433619131082
 20
494.4682963672717
 30
0.0
 11
212.433619131082
 21
493.7682917896351
 31
0.0
  0
LINE
  5
37C
330
A
100
AcDbEntity
  8
03
100
AcDbLine
 10
212.433619131082
 20
493.7682917896351
 30
0.0
 11
217.9336186542449
 21
493.7682917896351
 31
0.0
  0
ARC
  5
37D
330
A
100
AcDbEntity
  8
03
100
AcDbCircle
 10
217.9336186542449
 20
495.7682917896351
 30
0.0
 40
2.0
100
AcDbArc
 50
269.9999999999996
 51
359.9999998971599
  0
LINE
  5
37E
330
A
100
AcDbEntity
  8
03
100
AcDbLine
 10
210.433619131082
 20
489.4682963672718
 30
0.0
 11
210.433619131082
 21
490.4682963672718
 31
0.0
  0
ARC
  5
37F
330
A
100
AcDbEntity
  8
03
100
AcDbCircle
 10
211.4336191310819
 20
490.4682963672718
 30
0.0
 40
1.0
100
AcDbArc
 50
89.9999997943201
 51
179.9999996914799
  0
LINE
  5
380
330
A
100
AcDbEntity
  8
03
100
AcDbLine
 10
211.4336191310819
 20
491.4682963672718
 30
0.0
 11
220.2336188449798
 21
491.4682963672718
 31
0.0
  0
ARC
  5
381
330
A
100
AcDbEntity
  8
03
100
AcDbCircle
 10
220.2336188449798
 20
493.4682963672718
 30
0.0
 40
2.0
100
AcDbArc
 50
269.9999999999996
 51
359.9999998971599
  0
LINE
  5
382
330
A
100
AcDbEntity
  8
03
100
AcDbLine
 10
219.9336186542449
 20
495.7682917896351
 30
0.0
 11
219.9336186542449
 21
501.4682963672719
 31
0.0
  0
LINE
  5
383
330
A
100
AcDbEntity
  8
03
100
AcDbLine
 10
219.9336186542449
 20
501.4682963672719
 30
0.0
 11
216.933619131082
 21
501.4682963672719
 31
0.0
  0
LINE
  5
384
330
A
100
AcDbEntity
  8
03
100
AcDbLine
 10
216.933619131082
 20
501.4682963672719
 30
0.0
 11
216.933619131082
 21
502.4682963672716
 31
0.0
  0
LINE
  5
385
330
A
100
AcDbEntity
  8
03
100
AcDbLine
 10
216.933619131082
 20
502.4682963672716
 30
0.0
 11
219.9336186542449
 21
502.4682963672716
 31
0.0
  0
LINE
  5
386
330
A
100
AcDbEntity
  8
03
100
AcDbLine
 10
219.9336186542449
 20
502.4682963672716
 30
0.0
 11
219.9336186542449
 21
510.9682963672717
 31
0.0
  0
LINE
  5
387
330
A
100
AcDbEntity
  8
03
100
AcDbLine
 10
219.9336186542449
 20
510.9682963672717
 30
0.0
 11
216.933619131082
 21
510.9682963672717
 31
0.0
  0
LINE
  5
388
330
A
100
AcDbEntity
  8
03
100
AcDbLine
 10
216.933619131082
 20
510.9682963672717
 30
0.0
 11
216.933619131082
 21
512.9682963672719
 31
0.0
  0
LINE
  5
389
330
A
100
AcDbEntity
  8
03
100
AcDbLine
 10
216.933619131082
 20
512.9682963672719
 30
0.0
 11
219.9336186542449
 21
512.9682963672719
 31
0.0
  0
LINE
  5
38A
330
A
100
AcDbEntity
  8
03
100
AcDbLine
 10
219.9336186542449
 20
512.9682963672719
 30
0.0
 11
219.9336186542449
 21
514.4682963672719
 31
0.0
  0
LINE
  5
38B
330
A
100
AcDbEntity
  8
03
100
AcDbLine
 10
219.9336186542449
 20
514.4682963672719
 30
0.0
 11
258.9336205615936
 21
514.4682963672718
 31
0.0
  0
ARC
  5
38C
330
A
100
AcDbEntity
  8
03
100
AcDbCircle
 10
258.4336205615936
 20
500.9682963672718
 30
0.0
 40
0.5
100
AcDbArc
 50
269.9999999999996
 51
359.9999998971599
  0
LINE
  5
38D
330
A
100
AcDbEntity
  8
03
100
AcDbLine
 10
251.4336205615935
 20
499.9682963672718
 30
0.0
 11
251.4336205615935
 21
491.4682963672718
 31
0.0
  0
ARC
  5
38E
330
A
100
AcDbEntity
  8
03
100
AcDbCircle
 10
251.9336205615934
 20
491.4682963672718
 30
0.0
 40
0.5
100
AcDbArc
 50
179.9999996914799
 51
269.99999958864
  0
LINE
  5
38F
330
A
100
AcDbEntity
  8
03
100
AcDbLine
 10
251.9336205615934
 20
490.9682963672718
 30
0.0
 11
254.6336175098358
 21
490.9682963672718
 31
0.0
  0
LINE
  5
390
330
A
100
AcDbEntity
  8
03
100
AcDbLine
 10
255.8336182727753
 20
490.9682963672718
 30
0.0
 11
255.8336182727753
 21
488.9682963672718
 31
0.0
  0
LINE
  5
391
330
A
100
AcDbEntity
  8
03
100
AcDbLine
 10
255.8336182727753
 20
488.9682963672718
 30
0.0
 11
250.4336205615934
 21
488.9682963672718
 31
0.0
  0
ARC
  5
392
330
A
100
AcDbEntity
  8
03
100
AcDbCircle
 10
250.4336205615934
 20
489.9682963672716
 30
0.0
 40
1.0
100
AcDbArc
 50
179.9999996914799
 51
269.99999958864
  0
LINE
  5
393
330
A
100
AcDbEntity
  8
03
100
AcDbLine
 10
249.4336205615935
 20
489.9682963672716
 30
0.0
 11
249.4336205615935
 21
492.168293315514
 31
0.0
  0
LINE
  5
394
330
A
100
AcDbEntity
  8
03
100
AcDbLine
 10
249.4336205615935
 20
492.168293315514
 30
0.0
 11
248.4336205615935
 21
493.168293315514
 31
0.0
  0
LINE
  5
395
330
A
100
AcDbEntity
  8
03
100
AcDbLine
 10
248.4336205615935
 20
493.168293315514
 30
0.0
 11
248.4336205615935
 21
499.1682933155138
 31
0.0
  0
LINE
  5
396
330
A
100
AcDbEntity
  8
03
100
AcDbLine
 10
248.4336205615935
 20
499.1682933155138
 30
0.0
 11
249.4336205615935
 21
500.168293315514
 31
0.0
  0
LINE
  5
397
330
A
100
AcDbEntity
  8
03
100
AcDbLine
 10
249.4336205615935
 20
500.168293315514
 30
0.0
 11
249.4336205615935
 21
501.4682963672718
 31
0.0
  0
ARC
  5
398
330
A
100
AcDbEntity
  8
03
100
AcDbCircle
 10
250.4336205615934
 20
501.4682963672718
 30
0.0
 40
1.0
100
AcDbArc
 50
89.9999997943201
 51
179.9999996914799
  0
LINE
  5
399
330
A
100
AcDbEntity
  8
03
100
AcDbLine
 10
250.4336205615934
 20
502.4682963672716
 30
0.0
 11
254.9336205615936
 21
502.4682963672716
 31
0.0
  0
ARC
  5
39A
330
A
100
AcDbEntity
  8
03
100
AcDbCircle
 10
254.9336205615936
 20
503.4682963672718
 30
0.0
 40
1.0
100
AcDbArc
 50
269.9999999999996
 51
359.9999998971599
  0
LINE
  5
39B
330
A
100
AcDbEntity
  8
03
100
AcDbLine
 10
255.9336205615935
 20
503.4682963672718
 30
0.0
 11
255.9336205615935
 21
511.1682933155138
 31
0.0
  0
ARC
  5
39C
330
A
100
AcDbEntity
  8
03
100
AcDbCircle
 10
254.9336205615936
 20
511.1682933155138
 30
0.0
 40
1.0
100
AcDbArc
 50
359.9999998971599
 51
89.99999979432008
  0
LINE
  5
39D
330
A
100
AcDbEntity
  8
03
100
AcDbLine
 10
254.9336205615936
 20
512.168293315514
 30
0.0
 11
248.8936196460663
 21
512.168293315514
 31
0.0
  0
ARC
  5
39E
330
A
100
AcDbEntity
  8
03
100
AcDbCircle
 10
248.8936196460663
 20
511.1682933155138
 30
0.0
 40
1.0
100
AcDbArc
 50
89.9999997943201
 51
188.0333330156338
  0
ARC
  5
39F
330
A
100
AcDbEntity
  8
03
100
AcDbCircle
 10
243.9336205615934
 20
510.4682963672718
 30
0.0
 40
1.759999999999999
100
AcDbArc
 50
322.6555554953878
 51
217.3444440932521
  0
ARC
  5
3A0
330
A
100
AcDbEntity
  8
03
100
AcDbCircle
 10
243.9336205615934
 20
510.4682963672718
 30
0.0
 40
4.0
100
AcDbArc
 50
174.2666663646979
 51
217.422221870941
  0
ARC
  5
3A1
330
A
100
AcDbEntity
  8
03
100
AcDbCircle
 10
238.9536191120086
 20
510.9682963672717
 30
0.0
 40
1.0
100
AcDbArc
 50
354.2666665703781
 51
89.99999979432008
  0
ARC
  5
3A2
330
A
100
AcDbEntity
  8
03
100
AcDbCircle
 10
243.9336205615934
 20
510.4682963672718
 30
0.0
 40
4.0
100
AcDbArc
 50
322.5777777176988
 51
8.033333221313927
  0
ARC
  5
3A3
330
A
100
AcDbEntity
  8
03
100
AcDbCircle
 10
246.2336197986541
 20
508.7082942310413
 30
0.0
 40
1.1
100
AcDbArc
 50
209.9555552128063
 51
322.5777777176988
  0
LINE
  5
3A4
330
A
100
AcDbEntity
  8
03
100
AcDbLine
 10
242.6136208667692
 20
508.1882975879747
 30
0.0
 11
242.5936204090056
 21
508.168293315514
 31
0.0
  0
ARC
  5
3A5
330
A
100
AcDbEntity
  8
03
100
AcDbCircle
 10
241.6336175098356
 20
508.7082942310413
 30
0.0
 40
1.1
100
AcDbArc
 50
217.422221870941
 51
330.0444443758336
  0
ARC
  5
3A6
330
A
100
AcDbEntity
  8
03
100
AcDbCircle
 10
241.6536179675994
 20
508.7282985035023
 30
0.0
 40
1.1
100
AcDbArc
 50
329.9999999314398
 51
37.34444429893225
  0
LINE
  5
3A7
330
A
100
AcDbEntity
  8
03
100
AcDbLine
 10
245.2536202564178
 20
508.1882975879747
 30
0.0
 11
245.2736207141815
 21
508.168293315514
 31
0.0
  0
ARC
  5
3A8
330
A
100
AcDbEntity
  8
03
100
AcDbCircle
 10
246.2136193408903
 20
508.7282985035023
 30
0.0
 40
1.1
100
AcDbArc
 50
142.6555552897078
 51
209.9999996571999
  0
LINE
  5
3A9
330
A
100
AcDbEntity
  8
03
100
AcDbLine
 10
238.9536191120086
 20
511.9682963672718
 30
0.0
 11
224.2336188449798
 21
511.9682963672718
 31
0.0
  0
ARC
  5
3AA
330
A
100
AcDbEntity
  8
03
100
AcDbCircle
 10
224.2336188449798
 20
509.9682963672719
 30
0.0
 40
2.0
100
AcDbArc
 50
89.9999997943201
 51
179.9999996914799
  0
LINE
  5
3AB
330
A
100
AcDbEntity
  8
03
100
AcDbLine
 10
222.2336188449798
 20
509.9682963672719
 30
0.0
 11
222.2336188449798
 21
493.4682963672718
 31
0.0
  0
LINE
  5
3AC
330
A
100
AcDbEntity
  8
03
100
AcDbLine
 10
258.4336205615936
 20
500.4682963672718
 30
0.0
 11
251.9336205615934
 21
500.4682963672718
 31
0.0
  0
ARC
  5
3AD
330
A
100
AcDbEntity
  8
03
100
AcDbCircle
 10
258.4336205615936
 20
499.9682963672718
 30
0.0
 40
0.5
100
AcDbArc
 50
359.9999998971599
 51
89.99999979432008
  0
ARC
  5
3AE
330
A
100
AcDbEntity
  8
03
100
AcDbCircle
 10
251.9336205615934
 20
499.9682963672718
 30
0.0
 40
0.5
100
AcDbArc
 50
89.9999997943201
 51
179.9999996914799
  0
ARC
  5
3AF
330
A
100
AcDbEntity
  8
03
100
AcDbCircle
 10
252.1336175098358
 20
499.1682933155138
 30
0.0
 40
0.5
100
AcDbArc
 50
179.9999996914799
 51
269.99999958864
  0
LINE
  5
3B0
330
A
100
AcDbEntity
  8
03
100
AcDbLine
 10
252.1336175098358
 20
498.6682933155138
 30
0.0
 11
256.9336205615936
 21
498.6682933155138
 31
0.0
  0
LINE
  5
3B1
330
A
100
AcDbEntity
  8
03
100
AcDbLine
 10
256.9336205615936
 20
498.6682933155138
 30
0.0
 11
256.9336205615936
 21
493.9682963672716
 31
0.0
  0
LINE
  5
3B2
330
A
100
AcDbEntity
  8
03
100
AcDbLine
 10
256.9336205615936
 20
493.9682963672716
 30
0.0
 11
252.1336175098358
 21
493.9682963672716
 31
0.0
  0
ARC
  5
3B3
330
A
100
AcDbEntity
  8
03
100
AcDbCircle
 10
252.1336175098358
 20
493.4682963672718
 30
0.0
 40
0.5
100
AcDbArc
 50
89.9999997943201
 51
179.9999996914799
  0
LINE
  5
3B4
330
A
100
AcDbEntity
  8
03
100
AcDbLine
 10
251.6336175098357
 20
493.4682963672718
 30
0.0
 11
251.6336175098357
 21
491.9082911792835
 31
0.0
  0
ARC
  5
3B5
330
A
100
AcDbEntity
  8
03
100
AcDbCircle
 10
252.1336175098358
 20
492.168293315514
 30
0.0
 40
0.5
100
AcDbArc
 50
179.9999996914799
 51
269.99999958864
  0
LINE
  5
3B6
330
A
100
AcDbEntity
  8
03
100
AcDbLine
 10
252.1336175098358
 20
491.668293315514
 30
0.0
 11
254.9336205615936
 21
491.668293315514
 31
0.0
  0
LINE
  5
3B7
330
A
100
AcDbEntity
  8
03
100
AcDbLine
 10
256.4336205615936
 20
491.668293315514
 30
0.0
 11
256.4336205615934
 21
368.9682963672718
 31
0.0
  0
LINE
  5
3B8
330
A
100
AcDbEntity
  8
03
100
AcDbLine
 10
258.9336205615933
 20
283.968296367272
 30
0.0
 11
258.9336205615933
 21
524.4682963672718
 31
0.0
  0
LINE
  5
3B9
330
A
100
AcDbEntity
  8
03
100
AcDbLine
 10
258.9336205615933
 20
529.4682963672718
 30
0.0
 11
258.9336205615935
 21
541.556952853021
 31
0.0
  0
LINE
  5
3BA
330
A
100
AcDbEntity
  8
03
100
AcDbLine
 10
193.4336186542449
 20
357.4682963672718
 30
0.0
 11
190.4336186542449
 21
357.4682963672718
 31
0.0
  0
LINE
  5
3BB
330
A
100
AcDbEntity
  8
03
100
AcDbLine
 10
190.4336186542449
 20
357.4682963672718
 30
0.0
 11
190.4336186542449
 21
356.4682963672718
 31
0.0
  0
LINE
  5
3BC
330
A
100
AcDbEntity
  8
03
100
AcDbLine
 10
190.4336186542449
 20
356.4682963672718
 30
0.0
 11
193.4336186542449
 21
356.4682963672718
 31
0.0
  0
LINE
  5
3BD
330
A
100
AcDbEntity
  8
03
100
AcDbLine
 10
204.9336191310811
 20
283.968296367272
 30
0.0
 11
204.9336191310819
 21
346.9682963672718
 31
0.0
  0
ARC
  5
3BE
330
A
100
AcDbEntity
  8
03
100
AcDbCircle
 10
204.4736190929349
 20
347.0082972827992
 30
0.0
 40
0.4600000000000001
100
AcDbArc
 50
359.9999998971599
 51
89.99999979432008
  0
ARC
  5
3BF
330
A
100
AcDbEntity
  8
03
100
AcDbCircle
 10
204.433619131082
 20
344.9682963672718
 30
0.0
 40
0.5
100
AcDbArc
 50
269.9999999999996
 51
359.9999998971599
  0
LINE
  5
3C0
330
A
100
AcDbEntity
  8
03
100
AcDbLine
 10
204.4736190929349
 20
347.4682963672719
 30
0.0
 11
204.433619131082
 21
347.4682963672719
 31
0.0
  0
ARC
  5
3C1
330
A
100
AcDbEntity
  8
03
100
AcDbCircle
 10
204.433619131082
 20
346.9682963672718
 30
0.0
 40
0.5
100
AcDbArc
 50
89.9999997943201
 51
179.9999996914799
  0
LINE
  5
3C2
330
A
100
AcDbEntity
  8
03
100
AcDbLine
 10
203.933619131082
 20
346.9682963672718
 30
0.0
 11
203.933619131082
 21
346.4682963672718
 31
0.0
  0
LINE
  5
3C3
330
A
100
AcDbEntity
  8
03
100
AcDbLine
 10
203.933619131082
 20
346.4682963672718
 30
0.0
 11
202.9336191310818
 21
346.4682963672718
 31
0.0
  0
LINE
  5
3C4
330
A
100
AcDbEntity
  8
03
100
AcDbLine
 10
202.9336191310818
 20
346.4682963672718
 30
0.0
 11
202.9336191310818
 21
352.4682963672718
 31
0.0
  0
LINE
  5
3C5
330
A
100
AcDbEntity
  8
03
100
AcDbLine
 10
202.9336191310818
 20
352.4682963672718
 30
0.0
 11
203.933619131082
 21
352.4682963672718
 31
0.0
  0
LINE
  5
3C6
330
A
100
AcDbEntity
  8
03
100
AcDbLine
 10
203.933619131082
 20
352.4682963672718
 30
0.0
 11
203.933619131082
 21
351.9682963672718
 31
0.0
  0
ARC
  5
3C7
330
A
100
AcDbEntity
  8
03
100
AcDbCircle
 10
204.433619131082
 20
351.9682963672718
 30
0.0
 40
0.5
100
AcDbArc
 50
179.9999996914799
 51
269.99999958864
  0
LINE
  5
3C8
330
A
100
AcDbEntity
  8
03
100
AcDbLine
 10
204.433619131082
 20
351.4682963672719
 30
0.0
 11
204.4736190929349
 21
351.4682963672719
 31
0.0
  0
ARC
  5
3C9
330
A
100
AcDbEntity
  8
03
100
AcDbCircle
 10
204.4736190929349
 20
351.9282954517445
 30
0.0
 40
0.4600000000000001
100
AcDbArc
 50
269.9999999999996
 51
359.9999998971599
  0
LINE
  5
3CA
330
A
100
AcDbEntity
  8
03
100
AcDbLine
 10
204.9336191310819
 20
351.9282954517445
 30
0.0
 11
204.9336191310819
 21
353.9682963672718
 31
0.0
  0
LINE
  5
3CB
330
A
100
AcDbEntity
  8
03
100
AcDbLine
 10
204.9336191310819
 20
353.9682963672718
 30
0.0
 11
202.4336191310819
 21
353.9682963672718
 31
0.0
  0
ARC
  5
3CC
330
A
100
AcDbEntity
  8
03
100
AcDbCircle
 10
202.4336191310819
 20
352.9682963672718
 30
0.0
 40
1.0
100
AcDbArc
 50
89.9999997943201
 51
179.9999996914799
  0
LINE
  5
3CD
330
A
100
AcDbEntity
  8
03
100
AcDbLine
 10
201.433619131082
 20
352.9682963672718
 30
0.0
 11
201.433619131082
 21
347.4682963672719
 31
0.0
  0
LINE
  5
3CE
330
A
100
AcDbEntity
  8
03
100
AcDbLine
 10
256.1336175098356
 20
491.668293315514
 30
0.0
 11
256.4336205615936
 21
491.668293315514
 31
0.0
  0
LINE
  5
3CF
330
A
100
AcDbEntity
  8
03
100
AcDbLine
 10
254.9336205615936
 20
491.668293315514
 30
0.0
 11
255.5336190357146
 21
492.268291789635
 31
0.0
  0
LINE
  5
3D0
330
A
100
AcDbEntity
  8
03
100
AcDbLine
 10
255.5336190357146
 20
492.268291789635
 30
0.0
 11
256.1336175098356
 21
491.668293315514
 31
0.0
  0
LINE
  5
3D1
330
A
100
AcDbEntity
  8
03
100
AcDbLine
 10
255.8336182727753
 20
490.9682963672718
 30
0.0
 11
255.2336197986539
 21
491.5682948413929
 31
0.0
  0
LINE
  5
3D2
330
A
100
AcDbEntity
  8
03
100
AcDbLine
 10
255.2336197986539
 20
491.5682948413929
 30
0.0
 11
254.6336175098358
 21
490.9682963672718
 31
0.0
  0
LINE
  5
3D3
330
A
100
AcDbEntity
  8
03
100
AcDbLine
 10
251.6336175098357
 20
499.1682933155138
 30
0.0
 11
251.6336175098357
 21
500.3682978931506
 31
0.0
  0
LINE
  5
3D4
330
A
100
AcDbEntity
  8
03
100
AcDbLine
 10
258.9336205615933
 20
344.4682963672718
 30
0.0
 11
253.1336175098355
 21
344.4682963672718
 31
0.0
  0
LINE
  5
3D5
330
A
100
AcDbEntity
  8
03
100
AcDbLine
 10
253.1336175098355
 20
344.4682963672718
 30
0.0
 11
253.1336175098355
 21
345.4682963672718
 31
0.0
  0
ARC
  5
3D6
330
A
100
AcDbEntity
  8
03
100
AcDbCircle
 10
254.1336175098355
 20
345.4682963672718
 30
0.0
 40
1.0
100
AcDbArc
 50
89.99999999999984
 51
179.9999999999995
  0
LINE
  5
3D7
330
A
100
AcDbEntity
  8
03
100
AcDbLine
 10
254.1336175098355
 20
346.4682963672718
 30
0.0
 11
256.9336205615933
 21
346.4682963672718
 31
0.0
  0
LINE
  5
3D8
330
A
100
AcDbEntity
  8
03
100
AcDbLine
 10
256.9336205615933
 20
346.4682963672718
 30
0.0
 11
256.9336205615935
 21
367.4682963672718
 31
0.0
  0
LINE
  5
3D9
330
A
100
AcDbEntity
  8
03
100
AcDbLine
 10
256.9336205615935
 20
367.4682963672718
 30
0.0
 11
254.6336175098355
 21
367.4682963672718
 31
0.0
  0
LINE
  5
3DA
330
A
100
AcDbEntity
  8
03
100
AcDbLine
 10
254.6336175098355
 20
367.4682963672718
 30
0.0
 11
254.6336175098355
 21
366.2182963672719
 31
0.0
  0
LINE
  5
3DB
330
A
100
AcDbEntity
  8
03
100
AcDbLine
 10
253.1336175098355
 20
366.2182963672719
 30
0.0
 11
253.1336175098355
 21
367.9682963672718
 31
0.0
  0
ARC
  5
3DC
330
A
100
AcDbEntity
  8
03
100
AcDbCircle
 10
254.1336175098355
 20
367.9682963672718
 30
0.0
 40
1.0
100
AcDbArc
 50
89.99999999999984
 51
179.9999999999995
  0
LINE
  5
3DD
330
A
100
AcDbEntity
  8
03
100
AcDbLine
 10
254.1336175098355
 20
368.9682963672718
 30
0.0
 11
256.4336205615934
 21
368.9682963672718
 31
0.0
  0
ARC
  5
3DE
330
A
100
AcDbEntity
  8
03
100
AcDbCircle
 10
253.8836175098357
 20
366.2182963672719
 30
0.0
 40
0.75
100
AcDbArc
 50
179.9999999999995
 51
359.9999999999998
  0
LINE
  5
3DF
330
A
100
AcDbEntity
  8
03
100
AcDbLine
 10
206.9336205615933
 20
550.556952853021
 30
0.0
 11
206.9336205615933
 21
529.4682963672723
 31
0.0
  0
LINE
  5
3E0
330
A
100
AcDbEntity
  8
03
100
AcDbLine
 10
206.9336205615935
 20
524.4682963672718
 30
0.0
 11
206.9336205615935
 21
506.4682963672717
 31
0.0
  0
LINE
  5
3E1
330
A
100
AcDbEntity
  8
03
100
AcDbLine
 10
206.9336205615935
 20
506.4682963672717
 30
0.0
 11
210.9336205615934
 21
506.4682963672717
 31
0.0
  0
LINE
  5
3E2
330
A
100
AcDbEntity
  8
03
100
AcDbLine
 10
210.9336205615934
 20
506.4682963672717
 30
0.0
 11
210.9336205615934
 21
524.4682963672718
 31
0.0
  0
LINE
  5
3E3
330
A
100
AcDbEntity
  8
03
100
AcDbLine
 10
210.9336205615933
 20
529.4682963672723
 30
0.0
 11
210.9336205615933
 21
550.556952853021
 31
0.0
  0
LINE
  5
3E4
330
A
100
AcDbEntity
  8
03
100
AcDbLine
 10
205.4336205615938
 20
208.9682963672719
 30
0.0
 11
205.4336205615938
 21
199.9682963672719
 31
0.0
  0
LINE
  5
3E5
330
A
100
AcDbEntity
  8
03
100
AcDbLine
 10
237.4336205615937
 20
354.468296367272
 30
0.0
 11
237.4336205615937
 21
355.4684049678701
 31
0.0
  0
LINE
  5
3E6
330
A
100
AcDbEntity
  8
03
100
AcDbLine
 10
212.4336205615937
 20
355.4684049678701
 30
0.0
 11
212.4336205615937
 21
354.468296367272
 31
0.0
  0
LINE
  5
3E7
330
A
100
AcDbEntity
  8
03
100
AcDbLine
 10
159.9336205615935
 20
280.9682963672719
 30
0.0
 11
159.9336205615935
 21
240.9682963672719
 31
0.0
  0
LINE
  5
3E8
330
A
100
AcDbEntity
  8
03
100
AcDbLine
 10
158.9336205615933
 20
280.9682963672719
 30
0.0
 11
158.9336205615933
 21
240.9682963672719
 31
0.0
  0
LINE
  5
3E9
330
A
100
AcDbEntity
  8
03
100
AcDbLine
 10
204.9336191961042
 20
280.9682963672719
 30
0.0
 11
204.9336200630818
 21
240.9682963672719
 31
0.0
  0
LINE
  5
3EA
330
A
100
AcDbEntity
  8
03
100
AcDbLine
 10
221.9336205615936
 20
280.9682963672719
 30
0.0
 11
221.9336205615936
 21
240.9682963672719
 31
0.0
  0
LINE
  5
3EB
330
A
100
AcDbEntity
  8
03
100
AcDbLine
 10
227.9336205615936
 20
280.9682963672719
 30
0.0
 11
227.9336205615936
 21
240.9682963672719
 31
0.0
  0
LINE
  5
3EC
330
A
100
AcDbEntity
  8
03
100
AcDbLine
 10
210.4336205615937
 20
280.9682963672719
 30
0.0
 11
210.4336205615937
 21
240.9682963672719
 31
0.0
  0
LINE
  5
3ED
330
A
100
AcDbEntity
  8
03
100
AcDbLine
 10
211.9336205615935
 20
280.9682963672719
 30
0.0
 11
211.9336205615935
 21
240.9682963672719
 31
0.0
  0
LINE
  5
3EE
330
A
100
AcDbEntity
  8
03
100
AcDbLine
 10
237.9336205615937
 20
280.9682963672719
 30
0.0
 11
237.9336205615937
 21
240.9682963672719
 31
0.0
  0
LINE
  5
3EF
330
A
100
AcDbEntity
  8
03
100
AcDbLine
 10
239.4336205615938
 20
280.9682963672719
 30
0.0
 11
239.4336205615938
 21
240.9682963672719
 31
0.0
  0
LINE
  5
3F0
330
A
100
AcDbEntity
  8
03
100
AcDbLine
 10
258.9336205615933
 20
280.9682963672719
 30
0.0
 11
258.9336205615933
 21
240.9682963672719
 31
0.0
  0
LINE
  5
3F2
330
A
100
AcDbEntity
  8
SAISEN
100
AcDbLine
 10
153.9336205615937
 20
280.9682963672719
 30
0.0
 11
263.4336205615937
 21
280.9682963672719
 31
0.0
  0
LINE
  5
3F3
330
A
100
AcDbEntity
  8
SAISEN
100
AcDbLine
 10
153.9336205615938
 20
240.9682963672719
 30
0.0
 11
263.4336205615937
 21
240.9682963672719
 31
0.0
  0
LINE
  5
3F4
330
A
100
AcDbEntity
  8
03
100
AcDbLine
 10
222.9336205615938
 20
280.9682963672719
 30
0.0
 11
222.9336205615938
 21
240.9682963672719
 31
0.0
  0
LINE
  5
3F5
330
A
100
AcDbEntity
  8
03
100
AcDbLine
 10
226.9336205615938
 20
280.9682963672719
 30
0.0
 11
226.9336205615938
 21
240.9682963672719
 31
0.0
  0
LINE
  5
3F6
330
A
100
AcDbEntity
  8
03
100
AcDbLine
 10
205.9336205615935
 20
550.5569528530209
 30
0.0
 11
211.9336205615935
 21
550.556952853021
 31
0.0
  0
ARC
  5
428
330
A
100
AcDbEntity
  8
03
100
AcDbCircle
 10
173.9336205615933
 20
545.056952853021
 30
0.0
 40
1.75
100
AcDbArc
 50
139.4712206344905
 51
40.52877936550911
  0
ARC
  5
429
330
A
100
AcDbEntity
  8
03
100
AcDbCircle
 10
173.9336205615933
 20
545.056952853021
 30
0.0
 40
3.5
100
AcDbArc
 50
139.4712206344905
 51
197.4576031237219
  0
ARC
  5
42A
330
A
100
AcDbEntity
  8
03
100
AcDbCircle
 10
170.1178637559257
 20
543.856952853021
 30
0.0
 40
0.5
100
AcDbArc
 50
269.9999999999999
 51
17.45760312372206
  0
ARC
  5
42B
330
A
100
AcDbEntity
  8
03
100
AcDbCircle
 10
171.9384114662054
 20
546.7627563779561
 30
0.0
 40
0.8749999999999991
100
AcDbArc
 50
319.4712206344902
 51
139.4712206344904
  0
ARC
  5
42C
330
A
100
AcDbEntity
  8
03
100
AcDbCircle
 10
175.9288296569813
 20
546.7627563779561
 30
0.0
 40
0.8750000000000003
100
AcDbArc
 50
40.52877936550904
 51
220.5287793655088
  0
ARC
  5
42D
330
A
100
AcDbEntity
  8
03
100
AcDbCircle
 10
173.9336205615933
 20
545.056952853021
 30
0.0
 40
3.5
100
AcDbArc
 50
342.5423968762779
 51
40.52877936550911
  0
ARC
  5
42E
330
A
100
AcDbEntity
  8
03
100
AcDbCircle
 10
177.7493773672613
 20
543.856952853021
 30
0.0
 40
0.5
100
AcDbArc
 50
162.5423968762779
 51
269.9999999999999
  0
LINE
  5
42F
330
A
100
AcDbEntity
  8
03
100
AcDbLine
 10
158.9336205615935
 20
571.556952853021
 30
0.0
 11
160.7336205615934
 21
571.556952853021
 31
0.0
  0
LINE
  5
430
330
A
100
AcDbEntity
  8
03
100
AcDbLine
 10
160.7336205615934
 20
571.5569528530211
 30
0.0
 11
160.7336205615934
 21
567.556952853021
 31
0.0
  0
LINE
  5
431
330
A
100
AcDbEntity
  8
03
100
AcDbLine
 10
160.7336205615933
 20
566.5569528530209
 30
0.0
 11
160.7336205615933
 21
545.156952853021
 31
0.0
  0
LINE
  5
432
330
A
100
AcDbEntity
  8
03
100
AcDbLine
 10
198.9336205615933
 20
541.556952853021
 30
0.0
 11
198.9336205615933
 21
542.556952853021
 31
0.0
  0
LINE
  5
433
330
A
100
AcDbEntity
  8
03
100
AcDbLine
 10
198.9336205615933
 20
543.5569528530209
 30
0.0
 11
198.9336205615933
 21
561.756952853021
 31
0.0
  0
LINE
  5
434
330
A
100
AcDbEntity
  8
03
100
AcDbLine
 10
197.1336205615935
 20
563.556952853021
 30
0.0
 11
197.1336205615935
 21
543.3569528530211
 31
0.0
  0
LINE
  5
435
330
A
100
AcDbEntity
  8
03
100
AcDbLine
 10
162.5336205615935
 20
543.3569528530211
 30
0.0
 11
170.1178637559257
 21
543.3569528530211
 31
0.0
  0
ARC
  5
436
330
A
100
AcDbEntity
  8
03
100
AcDbCircle
 10
162.5336205615935
 20
545.156952853021
 30
0.0
 40
1.799999999999999
100
AcDbArc
 50
179.9999999999999
 51
269.9999999999999
  0
LINE
  5
437
330
A
100
AcDbEntity
  8
03
100
AcDbLine
 10
177.7493773672613
 20
543.3569528530211
 30
0.0
 11
197.1336205615935
 21
543.3569528530211
 31
0.0
  0
LINE
  5
438
330
A
100
AcDbEntity
  8
03
100
AcDbLine
 10
158.9336205615935
 20
541.556952853021
 30
0.0
 11
198.9336205615934
 21
541.556952853021
 31
0.0
  0
LINE
  5
439
330
A
100
AcDbEntity
  8
03
100
AcDbLine
 10
158.9336205615935
 20
541.556952853021
 30
0.0
 11
158.9336205615935
 21
571.556952853021
 31
0.0
  0
ARC
  5
43A
330
A
100
AcDbEntity
  8
03
100
AcDbCircle
 10
243.9336205615934
 20
545.056952853021
 30
0.0
 40
1.75
100
AcDbArc
 50
139.4712206344909
 51
40.5287793655093
  0
ARC
  5
43B
330
A
100
AcDbEntity
  8
03
100
AcDbCircle
 10
243.9336205615934
 20
545.056952853021
 30
0.0
 40
3.5
100
AcDbArc
 50
342.5423968762779
 51
40.52877936550935
  0
ARC
  5
43C
330
A
100
AcDbEntity
  8
03
100
AcDbCircle
 10
247.7493773672613
 20
543.856952853021
 30
0.0
 40
0.5
100
AcDbArc
 50
162.5423968762779
 51
270.0
  0
ARC
  5
43D
330
A
100
AcDbEntity
  8
03
100
AcDbCircle
 10
245.9288296569813
 20
546.7627563779561
 30
0.0
 40
0.8749999999999991
100
AcDbArc
 50
40.52877936550958
 51
220.5287793655096
  0
ARC
  5
43E
330
A
100
AcDbEntity
  8
03
100
AcDbCircle
 10
241.9384114662055
 20
546.7627563779561
 30
0.0
 40
0.8750000000000003
100
AcDbArc
 50
319.4712206344908
 51
139.4712206344908
  0
ARC
  5
43F
330
A
100
AcDbEntity
  8
03
100
AcDbCircle
 10
243.9336205615934
 20
545.056952853021
 30
0.0
 40
3.5
100
AcDbArc
 50
139.4712206344908
 51
197.4576031237219
  0
ARC
  5
440
330
A
100
AcDbEntity
  8
03
100
AcDbCircle
 10
240.1178637559256
 20
543.856952853021
 30
0.0
 40
0.5
100
AcDbArc
 50
270.0
 51
17.45760312372206
  0
LINE
  5
441
330
A
100
AcDbEntity
  8
03
100
AcDbLine
 10
258.9336205615935
 20
571.556952853021
 30
0.0
 11
257.1336205615935
 21
571.556952853021
 31
0.0
  0
LINE
  5
442
330
A
100
AcDbEntity
  8
03
100
AcDbLine
 10
257.1336205615935
 20
571.556952853021
 30
0.0
 11
257.1336205615935
 21
567.5569528530209
 31
0.0
  0
LINE
  5
443
330
A
100
AcDbEntity
  8
03
100
AcDbLine
 10
257.1336205615935
 20
566.5569528530209
 30
0.0
 11
257.1336205615935
 21
545.156952853021
 31
0.0
  0
LINE
  5
444
330
A
100
AcDbEntity
  8
03
100
AcDbLine
 10
218.9336205615934
 20
541.556952853021
 30
0.0
 11
218.9336205615934
 21
542.556952853021
 31
0.0
  0
LINE
  5
445
330
A
100
AcDbEntity
  8
03
100
AcDbLine
 10
218.9336205615934
 20
543.5569528530209
 30
0.0
 11
218.9336205615934
 21
561.7569528530208
 31
0.0
  0
LINE
  5
446
330
A
100
AcDbEntity
  8
03
100
AcDbLine
 10
220.7336205615935
 20
563.556952853021
 30
0.0
 11
220.7336205615935
 21
543.3569528530211
 31
0.0
  0
LINE
  5
447
330
A
100
AcDbEntity
  8
03
100
AcDbLine
 10
255.3336205615935
 20
543.3569528530211
 30
0.0
 11
247.7493773672613
 21
543.3569528530211
 31
0.0
  0
ARC
  5
448
330
A
100
AcDbEntity
  8
03
100
AcDbCircle
 10
255.3336205615935
 20
545.156952853021
 30
0.0
 40
1.799999999999999
100
AcDbArc
 50
270.0
 51
0.0
  0
LINE
  5
449
330
A
100
AcDbEntity
  8
03
100
AcDbLine
 10
240.1178637559256
 20
543.3569528530211
 30
0.0
 11
220.7336205615935
 21
543.3569528530211
 31
0.0
  0
LINE
  5
44A
330
A
100
AcDbEntity
  8
03
100
AcDbLine
 10
258.9336205615935
 20
541.556952853021
 30
0.0
 11
218.9336205615934
 21
541.556952853021
 31
0.0
  0
LINE
  5
44B
330
A
100
AcDbEntity
  8
03
100
AcDbLine
 10
258.9336205615935
 20
541.556952853021
 30
0.0
 11
258.9336205615935
 21
571.556952853021
 31
0.0
  0
LINE
  5
44C
330
A
100
AcDbEntity
  8
03
100
AcDbLine
 10
197.1336205615935
 20
563.556952853021
 30
0.0
 11
220.7336205615935
 21
563.556952853021
 31
0.0
  0
LINE
  5
44D
330
A
100
AcDbEntity
  8
03
100
AcDbLine
 10
198.9336205615933
 20
561.756952853021
 30
0.0
 11
218.9336205615934
 21
561.7569528530208
 31
0.0
  0
LINE
  5
44E
330
A
100
AcDbEntity
  8
03
100
AcDbLine
 10
198.9336205615933
 20
542.556952853021
 30
0.0
 11
200.9336205615936
 21
542.556952853021
 31
0.0
  0
LINE
  5
44F
330
A
100
AcDbEntity
  8
03
100
AcDbLine
 10
198.9336205615933
 20
543.5569528530209
 30
0.0
 11
200.9336205615936
 21
543.5569528530209
 31
0.0
  0
LINE
  5
450
330
A
100
AcDbEntity
  8
03
100
AcDbLine
 10
216.9336205615933
 20
542.556952853021
 30
0.0
 11
218.9336205615934
 21
542.556952853021
 31
0.0
  0
LINE
  5
451
330
A
100
AcDbEntity
  8
03
100
AcDbLine
 10
216.9336205615933
 20
543.5569528530209
 30
0.0
 11
218.9336205615934
 21
543.5569528530209
 31
0.0
  0
LINE
  5
452
330
A
100
AcDbEntity
  8
03
100
AcDbLine
 10
216.9336205615933
 20
542.5569528530211
 30
0.0
 11
216.9336205615933
 21
543.5569528530209
 31
0.0
  0
LINE
  5
453
330
A
100
AcDbEntity
  8
03
100
AcDbLine
 10
200.9336205615936
 20
542.556952853021
 30
0.0
 11
200.9336205615936
 21
543.5569528530209
 31
0.0
  0
LINE
  5
454
330
A
100
AcDbEntity
  8
03
100
AcDbLine
 10
160.7336205615934
 20
567.556952853021
 30
0.0
 11
162.7336205615935
 21
567.556952853021
 31
0.0
  0
LINE
  5
455
330
A
100
AcDbEntity
  8
03
100
AcDbLine
 10
160.7336205615934
 20
566.5569528530209
 30
0.0
 11
163.7336205615936
 21
566.5569528530209
 31
0.0
  0
LINE
  5
456
330
A
100
AcDbEntity
  8
03
100
AcDbLine
 10
162.7336205615934
 20
567.556952853021
 30
0.0
 11
162.7336205615934
 21
570.556952853021
 31
0.0
  0
LINE
  5
457
330
A
100
AcDbEntity
  8
03
100
AcDbLine
 10
163.7336205615936
 20
566.5569528530209
 30
0.0
 11
163.7336205615936
 21
569.5569528530212
 31
0.0
  0
LINE
  5
458
330
A
100
AcDbEntity
  8
03
100
AcDbLine
 10
163.7336205615936
 20
569.5569528530212
 30
0.0
 11
165.7336205615934
 21
569.5569528530211
 31
0.0
  0
LINE
  5
459
330
A
100
AcDbEntity
  8
03
100
AcDbLine
 10
162.7336205615934
 20
570.556952853021
 30
0.0
 11
165.7336205615934
 21
570.556952853021
 31
0.0
  0
ARC
  5
45A
330
A
100
AcDbEntity
  8
03
100
AcDbCircle
 10
165.7336205615934
 20
570.056952853021
 30
0.0
 40
0.5
100
AcDbArc
 50
269.9999999999999
 51
90.0
  0
LINE
  5
45B
330
A
100
AcDbEntity
  8
03
100
AcDbLine
 10
257.1336205615935
 20
567.5569528530209
 30
0.0
 11
255.1336205615934
 21
567.556952853021
 31
0.0
  0
LINE
  5
45C
330
A
100
AcDbEntity
  8
03
100
AcDbLine
 10
257.1336205615935
 20
566.5569528530209
 30
0.0
 11
254.1336205615933
 21
566.5569528530209
 31
0.0
  0
LINE
  5
45D
330
A
100
AcDbEntity
  8
03
100
AcDbLine
 10
255.1336205615934
 20
567.556952853021
 30
0.0
 11
255.1336205615934
 21
570.556952853021
 31
0.0
  0
LINE
  5
45E
330
A
100
AcDbEntity
  8
03
100
AcDbLine
 10
254.1336205615933
 20
566.5569528530209
 30
0.0
 11
254.1336205615933
 21
569.5569528530212
 31
0.0
  0
LINE
  5
45F
330
A
100
AcDbEntity
  8
03
100
AcDbLine
 10
254.1336205615933
 20
569.5569528530212
 30
0.0
 11
252.1336205615934
 21
569.5569528530211
 31
0.0
  0
LINE
  5
460
330
A
100
AcDbEntity
  8
03
100
AcDbLine
 10
255.1336205615934
 20
570.556952853021
 30
0.0
 11
252.1336205615934
 21
570.556952853021
 31
0.0
  0
ARC
  5
461
330
A
100
AcDbEntity
  8
03
100
AcDbCircle
 10
252.1336205615934
 20
570.056952853021
 30
0.0
 40
0.5
100
AcDbArc
 50
89.99999999999998
 51
270.0
  0
TEXT
  5
477
330
A
100
AcDbEntity
  8
MOJI
100
AcDbText
 10
323.0328349804362
 20
210.0682963672719
 30
0.0
 40
5.0
  1
Ｆ.Ｌ
 50
0.0000000000000545
 41
0.8
  7
0_8
 11
323.0328349804362
 21
212.5682963672719
 31
0.0
100
AcDbText
 73
     2
  0
LINE
  5
54E
330
A
100
AcDbEntity
  8
CHUSIN
100
AcDbLine
 10
163.9330731426618
 20
461.4683034125601
 30
0.0
 11
180.2778625377053
 21
461.4683034125601
 31
0.0
  0
LINE
  5
54F
330
A
100
AcDbEntity
  8
CHUSIN
100
AcDbLine
 10
163.9330731426619
 20
436.46830341256
 30
0.0
 11
180.2778625377053
 21
436.46830341256
 31
0.0
  0
LINE
  5
550
330
A
100
AcDbEntity
  8
CHUSIN
100
AcDbLine
 10
189.6335979853929
 20
495.3688067039183
 30
0.0
 11
189.6335979853929
 21
478.6700115231956
 31
0.0
  0
LINE
  5
5D9
330
A
100
AcDbEntity
  8
03
100
AcDbLine
 10
220.9336205615937
 20
359.9683687902169
 30
0.0
 11
220.9336205615937
 21
334.7683687902168
 31
0.0
  0
LINE
  5
5DA
330
A
100
AcDbEntity
  8
03
100
AcDbLine
 10
228.9336205615937
 20
359.9683687902169
 30
0.0
 11
228.9336205615937
 21
334.7683687902168
 31
0.0
  0
LINE
  5
5DB
330
A
100
AcDbEntity
  8
03
100
AcDbLine
 10
220.9336205615937
 20
334.7683687902168
 30
0.0
 11
222.1336205615937
 21
333.5683687902168
 31
0.0
  0
LINE
  5
5DC
330
A
100
AcDbEntity
  8
03
100
AcDbLine
 10
228.9336205615937
 20
334.7683687902168
 30
0.0
 11
227.7336205615937
 21
333.5683687902168
 31
0.0
  0
LINE
  5
5DD
330
A
100
AcDbEntity
  8
03
100
AcDbLine
 10
227.7336205615937
 20
333.5683687902168
 30
0.0
 11
222.1336205615937
 21
333.5683687902168
 31
0.0
  0
LINE
  5
5DE
330
A
100
AcDbEntity
  8
03
100
AcDbLine
 10
228.9336205615937
 20
355.5683687902168
 30
0.0
 11
220.9336205615937
 21
355.5683687902168
 31
0.0
  0
LINE
  5
5DF
330
A
100
AcDbEntity
  8
03
100
AcDbLine
 10
228.9336205615937
 20
334.7683687902168
 30
0.0
 11
220.9336205615937
 21
334.7683687902168
 31
0.0
  0
LINE
  5
5E0
330
A
100
AcDbEntity
  8
03
100
AcDbLine
 10
220.9336205615937
 20
356.8674075015703
 30
0.0
 11
221.6836205615936
 21
355.5683687902168
 31
0.0
  0
LINE
  5
5E1
330
A
100
AcDbEntity
  8
03
100
AcDbLine
 10
228.9336205615937
 20
356.8674075015703
 30
0.0
 11
228.1836205615936
 21
355.5683687902168
 31
0.0
  0
LINE
  5
5E2
330
A
100
AcDbEntity
  8
03
100
AcDbLine
 10
221.6836205615936
 20
355.5683687902168
 30
0.0
 11
221.6836205615936
 21
334.0183687902168
 31
0.0
  0
LINE
  5
5E3
330
A
100
AcDbEntity
  8
03
100
AcDbLine
 10
228.1836205615936
 20
355.5683687902168
 30
0.0
 11
228.1836205615936
 21
334.0183687902168
 31
0.0
  0
POLYLINE
  5
62C
330
A
100
AcDbEntity
  8
DEFPOINTS
100
AcDb2dPolyline
 66
     1
 10
0.0
 20
0.0
 30
0.0
 70
     1
  0
VERTEX
  5
90DF
330
62C
100
AcDbEntity
  8
DEFPOINTS
100
AcDbVertex
100
AcDb2dVertex
 10
0.0
 20
0.0
 30
0.0
  0
VERTEX
  5
90E0
330
62C
100
AcDbEntity
  8
DEFPOINTS
100
AcDbVertex
100
AcDb2dVertex
 10
420.0
 20
0.0
 30
0.0
  0
VERTEX
  5
90E1
330
62C
100
AcDbEntity
  8
DEFPOINTS
100
AcDbVertex
100
AcDb2dVertex
 10
420.0
 20
594.0
 30
0.0
  0
VERTEX
  5
90E2
330
62C
100
AcDbEntity
  8
DEFPOINTS
100
AcDbVertex
100
AcDb2dVertex
 10
0.0
 20
594.0
 30
0.0
  0
SEQEND
  5
90E3
330
62C
100
AcDbEntity
  8
DEFPOINTS
  0
TEXT
  5
70E
330
A
100
AcDbEntity
  8
MOJI
100
AcDbText
 10
35.0
 20
58.00000000000017
 30
0.0
 40
6.0
  1
※　伝達機構は◎印が標準、○印はオーダーです。
 41
0.8
  7
0_8
 11
35.0
 21
64.00000000000017
 31
0.0
100
AcDbText
 73
     3
  0
TEXT
  5
70F
330
A
100
AcDbEntity
  8
MOJI
100
AcDbText
 10
35.0
 20
49.00000000000014
 30
0.0
 40
6.0
  1
※　台板専用の戸車を使用する為、質量制限をしています。
 41
0.8
  7
0_8
 11
35.0
 21
55.00000000000014
 31
0.0
100
AcDbText
 73
     3
  0
DIMENSION
  5
71D
330
A
100
AcDbEntity
  8
SUNPOU
100
AcDbDimension
  2
*D1
 10
143.9336205615938
 20
270.9682963672719
 30
0.0
 11
139.4336205615935
 21
238.9682963672719
 31
0.0
 70
    32
  1
600
  3
SUNPOU_2
100
AcDbAlignedDimension
 13
161.9336205615937
 23
206.9682963672719
 33
0.0
 14
171.4336205615937
 24
270.9682963672719
 34
0.0
 50
90.0
100
AcDbRotatedDimension
  0
DIMENSION
  5
734
330
A
100
AcDbEntity
  8
SUNPOU
100
AcDbDimension
  2
*D2
 10
233.4336205615938
 20
164.7048603595731
 30
0.0
 11
224.9336205615938
 21
169.2048603595731
 31
0.0
 70
    32
  3
SUNPOU_2
100
AcDbAlignedDimension
 13
216.4336205615938
 23
184.9682963672719
 33
0.0
 14
233.4336205615938
 24
184.9682963672719
 34
0.0
100
AcDbRotatedDimension
  0
DIMENSION
  5
741
330
A
100
AcDbEntity
  8
SUNPOU
100
AcDbDimension
  2
*D3
 10
268.9336205615938
 20
209.9682963672719
 30
0.0
 11
264.4336205615937
 21
197.9682963672719
 31
0.0
 70
    32
  1
25
  3
SUNPOU_2
100
AcDbAlignedDimension
 13
234.4336205615938
 23
185.9682963672719
 33
0.0
 14
249.4336205615938
 24
209.9682963672719
 34
0.0
 50
90.0
100
AcDbRotatedDimension
  0
DIMENSION
  5
74E
330
A
100
AcDbEntity
  8
SUNPOU
100
AcDbDimension
  2
*D4
 10
204.9336205615936
 20
325.6178707664064
 30
0.0
 11
181.9336205615933
 21
330.1178707664063
 31
0.0
 70
    32
  3
SUNPOU_2
100
AcDbAlignedDimension
 13
158.9336205615933
 23
344.4682963672718
 33
0.0
 14
204.9336205615936
 24
344.4682963672718
 34
0.0
100
AcDbRotatedDimension
  0
DIMENSION
  5
75B
330
A
100
AcDbEntity
  8
SUNPOU
100
AcDbDimension
  2
*D5
 10
210.4336205615937
 20
325.6178705190122
 30
0.0
 11
207.6836205615935
 21
321.6260765652026
 31
0.0
 70
   160
  3
SUNPOU_2
100
AcDbAlignedDimension
 13
204.9336205615936
 23
344.4682963672718
 33
0.0
 14
210.4336205615937
 24
354.4682963672718
 34
0.0
100
AcDbRotatedDimension
  0
DIMENSION
  5
78B
330
A
100
AcDbEntity
  8
SUNPOU
100
AcDbDimension
  2
*D6
 10
239.4336205615937
 20
325.6178705190122
 30
0.0
 11
224.9336205615937
 21
330.1178705190124
 31
0.0
 70
    32
  3
SUNPOU_2
100
AcDbAlignedDimension
 13
210.4336205615937
 23
354.4682963672718
 33
0.0
 14
239.4336205615937
 24
354.4682963672718
 34
0.0
100
AcDbRotatedDimension
  0
DIMENSION
  5
7B6
330
A
100
AcDbEntity
  8
SUNPOU
100
AcDbDimension
  2
*D7
 10
258.9336205615933
 20
306.0556508060902
 30
0.0
 11
194.6403807793647
 21
310.5556508060902
 31
0.0
 70
   160
  3
SUNPOU_2
100
AcDbAlignedDimension
 13
158.9336205615933
 23
344.4682963672718
 33
0.0
 14
258.9336205615933
 24
344.4682963672718
 34
0.0
100
AcDbRotatedDimension
  0
DIMENSION
  5
7C3
330
A
100
AcDbEntity
  8
SUNPOU
100
AcDbDimension
  2
*D8
 10
283.9336205615934
 20
216.9682963672719
 30
0.0
 11
279.4336205615933
 21
211.9682963672719
 31
0.0
 70
    32
  3
SUNPOU_2
100
AcDbAlignedDimension
 13
250.4336205615938
 23
206.968296367272
 33
0.0
 14
239.4336205615938
 24
216.9682963672719
 34
0.0
 50
90.0
100
AcDbRotatedDimension
  0
DIMENSION
  5
7D2
330
A
100
AcDbEntity
  8
SUNPOU
100
AcDbDimension
  2
*D9
 10
283.9336205615934
 20
354.468296367272
 30
0.0
 11
279.4336205615933
 21
285.7182963672718
 31
0.0
 70
    32
  1
DH
  3
SUNPOU_2
100
AcDbAlignedDimension
 13
239.4336205615938
 23
216.9682963672719
 33
0.0
 14
239.4336205615937
 24
354.468296367272
 34
0.0
 50
90.0
100
AcDbRotatedDimension
  0
DIMENSION
  5
7E8
330
A
100
AcDbEntity
  8
SUNPOU
100
AcDbDimension
  2
*D10
 10
268.9336205615934
 20
354.468296367272
 30
0.0
 11
264.4336205615934
 21
349.4682963672719
 31
0.0
 70
    32
  3
SUNPOU_2
100
AcDbAlignedDimension
 13
258.9336205615933
 23
344.4682963672718
 33
0.0
 14
239.4336205615937
 24
354.468296367272
 34
0.0
 50
90.0
100
AcDbRotatedDimension
  0
DIMENSION
  5
7F7
330
A
100
AcDbEntity
  8
SUNPOU
100
AcDbDimension
  2
*D11
 10
298.9336205615933
 20
344.4682963672718
 30
0.0
 11
294.4336205615933
 21
287.5958448004123
 31
0.0
 70
   160
  1
H
  3
SUNPOU_2
100
AcDbAlignedDimension
 13
250.4336205615938
 23
206.968296367272
 33
0.0
 14
258.9336205615933
 24
344.4682963672718
 34
0.0
 50
90.0
100
AcDbRotatedDimension
  0
DIMENSION
  5
804
330
A
100
AcDbEntity
  8
SUNPOU
100
AcDbDimension
  2
*D12
 10
298.9336205615935
 20
514.4682963672718
 30
0.0
 11
294.4336205615933
 21
450.4686410434098
 31
0.0
 70
   160
  3
SUNPOU_2
100
AcDbAlignedDimension
 13
258.9336205615933
 23
344.4682963672718
 33
0.0
 14
258.9336205615933
 24
514.4682963672718
 34
0.0
 50
90.0
100
AcDbRotatedDimension
  0
DIMENSION
  5
AD4
330
A
100
AcDbEntity
  8
SUNPOU
100
AcDbDimension
  2
*D13
 10
253.1336175098355
 20
325.6178707664064
 30
0.0
 11
246.2836190357145
 21
321.6365028961213
 31
0.0
 70
   160
  3
SUNPOU_2
100
AcDbAlignedDimension
 13
239.4336205615937
 23
354.468296367272
 33
0.0
 14
253.1336175098355
 24
344.4682963672718
 34
0.0
100
AcDbRotatedDimension
1001
ACAD
1000
DSTYLE
1002
{
1070
     7
1000
DOTSMALL
1070
     5
1000

1070
   173
1070
     1
1070
     6
1000
NONE
1002
}
  0
DIMENSION
  5
AE3
330
A
100
AcDbEntity
  8
SUNPOU
100
AcDbDimension
  2
*D14
 10
258.9336205615933
 20
325.6178707664064
 30
0.0
 11
269.1000019219117
 21
330.165951965213
 31
0.0
 70
   160
  3
SUNPOU_2
100
AcDbAlignedDimension
 13
253.1336175098355
 23
344.4682963672718
 33
0.0
 14
258.9336205615933
 24
344.4682963672718
 34
0.0
100
AcDbRotatedDimension
1001
ACAD
1000
DSTYLE
1002
{
1070
     6
1000
DOTSMALL
1070
     5
1000

1070
   173
1070
     1
1070
     7
1000
OPEN30
1002
}
  0
LEADER
  5
B75
330
A
100
AcDbEntity
  8
HIKIDASI
100
AcDbLeader
  3
SUNPOU_2
 73
     0
 75
     1
 40
21.66666666666666
 41
37.06666666666665
 76
     3
 10
178.1909798744744
 20
275.2109370543911
 30
0.0
 10
141.2946808562942
 20
305.6396770454596
 30
0.0
 10
136.2946808562943
 20
305.6396770454596
 30
0.0
340
B76
213
0.0
223
16.76279479526441
233
0.0
1001
ACAD
1000
DSTYLE
1002
{
1070
     5
1000
OPEN30
1070
    77
1070
     1
1070
   147
1040
1.0
1070
   342
1005
60B
1002
}
1000
LEANOF
1010
0.0
1020
16.76279479526441
1030
0.0
1000
LEANOF
1010
0.0
1020
16.76279479526441
1030
0.0
1000
LEANOF
1010
0.0
1020
16.76279479526441
1030
0.0
  0
MTEXT
  5
B76
330
A
100
AcDbEntity
  8
HIKIDASI
100
AcDbMText
 10
134.2946808562943
 20
290.8768822501952
 30
0.0
 40
5.0
 41
0.0
 71
     9
 72
     1
  1
補助光電スイッチ\P取付穴φ12\P（サッシ工事）
  7
SUNPOU
1001
ACAD
1000
MTEXTBEGIN
1070
    73
1070
     1
1070
    44
1040
1.0
1070
    74
1070
     0
1000
MTEXTEND
1000
MTEXTBEGIN
1070
    73
1070
     1
1070
    44
1040
1.0
1070
    74
1070
     0
1000
MTEXTEND
  0
LEADER
  5
B7A
330
A
100
AcDbEntity
  8
HIKIDASI
100
AcDbLeader
  3
SUNPOU_2
 73
     0
 74
     0
 75
     1
 40
5.0
 41
26.93333333333332
 76
     3
 10
234.6381710171451
 20
336.3661408526338
 30
0.0
 10
308.1029016415985
 20
409.4174970611436
 30
0.0
 10
313.1029016415985
 20
409.4174970611436
 30
0.0
340
B7B
213
0.0
223
-0.0905836692052162
233
0.0
1001
ACAD
1000
DSTYLE
1002
{
1070
     5
1000
OPEN30
1070
    77
1070
     1
1070
   147
1040
1.0
1070
   342
1005
60B
1002
}
1000
LEANOF
1010
0.0
1020
-0.0905836692052162
1030
0.0
1000
LEANOF
1010
0.0
1020
-0.0905836692052162
1030
0.0
1000
LEANOF
1010
0.0
1020
-0.0905836692052162
1030
0.0
  0
MTEXT
  5
B7B
330
A
100
AcDbEntity
  8
HIKIDASI
100
AcDbMText
 10
315.1029016415985
 20
411.5080807303488
 30
0.0
 40
5.0
 41
0.0
 71
     7
 72
     1
  1
スチール補強
  7
SUNPOU
1001
ACAD
1000
MTEXTBEGIN
1070
    73
1070
     1
1070
    44
1040
1.0
1070
    74
1070
     0
1000
MTEXTEND
1000
MTEXTBEGIN
1070
    73
1070
     1
1070
    44
1040
1.0
1070
    74
1070
     0
1000
MTEXTEND
  0
LEADER
  5
B7F
330
A
100
AcDbEntity
  8
HIKIDASI
100
AcDbLeader
  3
SUNPOU_2
 73
     0
 74
     0
 75
     1
 40
13.33333333333333
 41
50.93333333333333
 76
     3
 10
244.7533237091251
 20
209.9682963672719
 30
0.0
 10
308.6152003584108
 20
246.4720643646964
 30
0.0
 10
313.6152003584108
 20
246.4720643646964
 30
0.0
340
B80
213
0.7538130721613358
223
8.616122841309531
233
0.0
1001
ACAD
1000
DSTYLE
1002
{
1070
     5
1000
OPEN30
1070
    77
1070
     1
1070
   147
1040
1.0
1070
   342
1005
60B
1002
}
1000
LEANOF
1010
0.7538130721613358
1020
8.616122841309531
1030
0.0
1000
LEANOF
1010
0.7538130721613358
1020
8.616122841309531
1030
0.0
1000
LEANOF
1010
0.7538130721613358
1020
8.616122841309531
1030
0.0
  0
MTEXT
  5
B80
330
A
100
AcDbEntity
  8
HIKIDASI
100
AcDbMText
 10
314.8613872862495
 20
239.8559415233869
 30
0.0
 40
5.0
 41
0.0
 71
     7
 72
     1
  1
ステンレスガイドレール\P(サッシ工事)
  7
SUNPOU
1001
ACAD
1000
MTEXTBEGIN
1070
    73
1070
     1
1070
    44
1040
1.0
1070
    74
1070
     0
1000
MTEXTEND
1000
MTEXTBEGIN
1070
    73
1070
     1
1070
    44
1040
1.0
1070
    74
1070
     0
1000
MTEXTEND
  0
INSERT
  5
7F5B
330
A
100
AcDbEntity
  8
DEFPOINTS
100
AcDbBlockReference
  2
_NONE
 10
-179.790072526873
 20
326.8659227974399
 30
0.0
  0
POLYLINE
  5
80CA
330
A
100
AcDbEntity
  8
SAISEN
100
AcDb2dPolyline
 66
     1
 10
0.0
 20
0.0
 30
0.0
 70
     1
  0
VERTEX
  5
90E8
330
80CA
100
AcDbEntity
  8
SAISEN
100
AcDbVertex
100
AcDb2dVertex
 10
85.79829617941319
 20
333.1265450579901
 30
0.0
  0
VERTEX
  5
90E9
330
80CA
100
AcDbEntity
  8
SAISEN
100
AcDbVertex
100
AcDb2dVertex
 10
95.79829617941319
 20
333.1265450579901
 30
0.0
  0
VERTEX
  5
90EA
330
80CA
100
AcDbEntity
  8
SAISEN
100
AcDbVertex
100
AcDb2dVertex
 10
95.79829617941319
 20
363.1265450579902
 30
0.0
  0
VERTEX
  5
90EB
330
80CA
100
AcDbEntity
  8
SAISEN
100
AcDbVertex
100
AcDb2dVertex
 10
85.79829617941319
 20
363.1265450579902
 30
0.0
  0
SEQEND
  5
90EC
330
80CA
100
AcDbEntity
  8
SAISEN
  0
MTEXT
  5
80CB
330
A
100
AcDbEntity
  8
MOJI
100
AcDbMText
 10
90.79829617941319
 20
348.1265450579899
 30
0.0
 40
6.0
 41
10.0
 71
     5
 72
     1
  1
外\P\P部
  7
0_8
1001
ACAD
1000
MTEXTBEGIN
1070
    73
1070
     1
1070
    44
1040
1.0
1070
    74
1070
     0
1000
MTEXTEND
1000
MTEXTBEGIN
1070
    73
1070
     1
1070
    44
1040
1.0
1070
    74
1070
     0
1000
MTEXTEND
  0
POLYLINE
  5
80D2
330
A
100
AcDbEntity
  8
SAISEN
100
AcDb2dPolyline
 66
     1
 10
0.0
 20
0.0
 30
0.0
 70
     1
  0
VERTEX
  5
90ED
330
80D2
100
AcDbEntity
  8
SAISEN
100
AcDbVertex
100
AcDb2dVertex
 10
344.6673957563956
 20
333.1265450579901
 30
0.0
  0
VERTEX
  5
90EE
330
80D2
100
AcDbEntity
  8
SAISEN
100
AcDbVertex
100
AcDb2dVertex
 10
354.6673957563956
 20
333.1265450579901
 30
0.0
  0
VERTEX
  5
90EF
330
80D2
100
AcDbEntity
  8
SAISEN
100
AcDbVertex
100
AcDb2dVertex
 10
354.6673957563956
 20
363.1265450579902
 30
0.0
  0
VERTEX
  5
90F0
330
80D2
100
AcDbEntity
  8
SAISEN
100
AcDbVertex
100
AcDb2dVertex
 10
344.6673957563956
 20
363.1265450579902
 30
0.0
  0
SEQEND
  5
90F1
330
80D2
100
AcDbEntity
  8
SAISEN
  0
MTEXT
  5
80D3
330
A
100
AcDbEntity
  8
MOJI
100
AcDbMText
 10
349.6673957563956
 20
348.1265450579899
 30
0.0
 40
6.0
 41
10.0
 71
     5
 72
     1
  1
内\P\P部
  7
0_8
1001
ACAD
1000
MTEXTBEGIN
1070
    73
1070
     1
1070
    44
1040
1.0
1070
    74
1070
     0
1000
MTEXTEND
1000
MTEXTBEGIN
1070
    73
1070
     1
1070
    44
1040
1.0
1070
    74
1070
     0
1000
MTEXTEND
  0
LINE
  5
8336
330
A
100
AcDbEntity
  8
03
100
AcDbLine
 10
213.4336205615936
 20
337.7578898868236
 30
0.0
 11
216.2840270420419
 21
340.6082963672718
 31
0.0
  0
LINE
  5
8338
330
A
100
AcDbEntity
  8
03
100
AcDbLine
 10
228.9336205615937
 20
339.9996377395757
 30
0.0
 11
229.5422791892895
 21
340.6082963672718
 31
0.0
  0
LINE
  5
8339
330
A
100
AcDbEntity
  8
03
100
AcDbLine
 10
213.4336205615936
 20
324.4996377395758
 30
0.0
 11
216.6336205615937
 21
327.6996377395759
 31
0.0
  0
LINE
  5
833A
330
A
100
AcDbEntity
  8
03
100
AcDbLine
 10
228.1836205615936
 20
339.2496377395758
 30
0.0
 11
228.9336205615937
 21
339.9996377395757
 31
0.0
  0
LINE
  5
833B
330
A
100
AcDbEntity
  8
03
100
AcDbLine
 10
226.3422791892898
 20
337.4082963672718
 30
0.0
 11
228.1836205615936
 21
339.2496377395758
 31
0.0
  0
LINE
  5
833C
330
A
100
AcDbEntity
  8
03
100
AcDbLine
 10
213.4336205615936
 20
311.2413855923281
 30
0.0
 11
216.6336205615936
 21
314.4413855923281
 31
0.0
  0
LINE
  5
833D
330
A
100
AcDbEntity
  8
03
100
AcDbLine
 10
233.2336205615937
 20
331.0413855923279
 30
0.0
 11
236.4336205615936
 21
334.2413855923282
 31
0.0
  0
LINE
  5
833E
330
A
100
AcDbEntity
  8
03
100
AcDbLine
 10
233.2336205615936
 20
317.7831334450802
 30
0.0
 11
236.4336205615936
 21
320.9831334450804
 31
0.0
  0
LINE
  5
833F
330
A
100
AcDbEntity
  8
03
100
AcDbLine
 10
235.1770356310328
 20
306.4682963672718
 30
0.0
 11
236.4336205615936
 21
307.7248812978326
 31
0.0
  0
LEADER
  5
8809
330
A
100
AcDbEntity
  8
HIKIDASI
100
AcDbLeader
  3
SUNPOU_2
 73
     0
 74
     0
 75
     1
 40
13.33333333333333
 41
28.0
 76
     3
 10
227.1263001088326
 20
209.5213195390943
 30
0.0
 10
308.6152003584107
 20
291.4497804857608
 30
0.0
 10
313.6152003584108
 20
291.4497804857608
 30
0.0
340
880A
213
0.7538130721613358
223
8.616122841309531
233
0.0
1001
ACAD
1000
DSTYLE
1002
{
1070
     5
1000
OPEN30
1070
    77
1070
     1
1070
   147
1040
1.0
1070
   342
1005
60B
1002
}
1000
LEANOF
1010
0.7538130721613358
1020
8.616122841309531
1030
0.0
1000
LEANOF
1010
0.7538130721613358
1020
8.616122841309531
1030
0.0
1000
LEANOF
1010
0.7538130721613358
1020
8.616122841309531
1030
0.0
  0
MTEXT
  5
880A
330
A
100
AcDbEntity
  8
HIKIDASI
100
AcDbMText
 10
314.8613872862495
 20
284.8336576444513
 30
0.0
 40
5.0
 41
0.0
 71
     7
 72
     1
  1
振れ止め\P(サッシ工事)
  7
SUNPOU
1001
ACAD
1000
MTEXTBEGIN
1070
    73
1070
     1
1070
    44
1040
1.0
1070
    74
1070
     0
1000
MTEXTEND
1000
MTEXTBEGIN
1070
    73
1070
     1
1070
    44
1040
1.0
1070
    74
1070
     0
1000
MTEXTEND
  0
CIRCLE
  5
8825
330
A
100
AcDbEntity
  8
SAISEN
100
AcDbCircle
 10
391.0976380784293
 20
50.54302641223159
 30
0.0
 40
5.0
  0
TEXT
  5
8826
330
A
100
AcDbEntity
  8
MOJI
100
AcDbText
 10
388.0488190392131
 20
46.27151320611589
 30
0.0
 40
8.0
  1
Ｓ
 41
0.8
  7
0_8
 11
388.0488190392131
 21
54.27151320611589
 31
0.0
100
AcDbText
 73
     3
  0
LINE
  5
885B
330
A
100
AcDbEntity
  8
KAKURE
100
AcDbLine
 10
204.9336205615936
 20
206.9682963672719
 30
0.0
 11
204.9336205615938
 21
176.9682963672719
 31
0.0
  0
LINE
  5
885C
330
A
100
AcDbEntity
  8
03
100
AcDbLine
 10
171.4336205615933
 20
344.4682963672718
 30
0.0
 11
193.4336186542448
 21
344.4682963672711
 31
0.0
  0
LINE
  5
8A74
330
A
100
AcDbEntity
  8
SOUZOU
100
AcDbLine
 10
224.9337388496908
 20
380.8875678425229
 30
0.0
 11
224.9336954687958
 21
408.6491093074418
 31
0.0
  0
LINE
  5
8A75
330
A
100
AcDbEntity
  8
SOUZOU
100
AcDbLine
 10
225.4702897388281
 20
378.1551663863968
 30
0.0
 11
225.4702378734476
 21
411.381533677226
 31
0.0
  0
LINE
  5
8A76
330
A
100
AcDbEntity
  8
SOUZOU
100
AcDbLine
 10
210.9335362167596
 20
380.8875569155093
 30
0.0
 11
210.9335362167596
 21
408.6490983804623
 31
0.0
  0
LINE
  5
8A77
330
A
100
AcDbEntity
  8
SOUZOU
100
AcDbLine
 10
210.3969895473471
 20
378.1551546218416
 30
0.0
 11
210.3969895473471
 21
411.381521912711
 31
0.0
  0
LINE
  5
8A78
330
A
100
AcDbEntity
  8
SOUZOU
100
AcDbLine
 10
229.4336598973861
 20
410.0182075502598
 30
0.0
 11
229.433594864177
 21
379.5183347458493
 31
0.0
  0
LINE
  5
8A79
330
A
100
AcDbEntity
  8
SOUZOU
100
AcDbLine
 10
206.4336513442568
 20
379.5183598346375
 30
0.0
 11
206.4336513441507
 21
410.0182506955425
 31
0.0
  0
ARC
  5
8A83
330
A
100
AcDbEntity
  8
SOUZOU
100
AcDbCircle
 10
217.9335597135112
 20
346.7683475818863
 30
0.0
 40
35.0
100
AcDbArc
 50
79.02686695919523
 51
100.9731028972743
  0
LINE
  5
8A8D
330
A
100
AcDbEntity
  8
SOUZOU
100
AcDbLine
 10
207.9336513442568
 20
378.0183598346427
 30
0.0
 11
210.145268618859
 21
378.0183598346878
 31
0.0
  0
ARC
  5
8A90
330
A
100
AcDbEntity
  8
SOUZOU
100
AcDbCircle
 10
207.9336513442568
 20
379.5183598346426
 30
0.0
 40
1.5
100
AcDbArc
 50
180.0000000001985
 51
270.0
  0
LINE
  5
8A99
330
A
100
AcDbEntity
  8
SOUZOU
100
AcDbLine
 10
210.8741456640566
 20
380.7243861521366
 30
0.0
 11
210.44070333413
 21
378.2662674970421
 31
0.0
  0
ARC
  5
8A9B
330
A
100
AcDbEntity
  8
SOUZOU
100
AcDbCircle
 10
210.1452686188554
 20
378.318361772908
 30
0.0
 40
0.3
100
AcDbArc
 50
270.0000000006969
 51
349.9997809654611
  0
ARC
  5
8A9D
330
A
100
AcDbEntity
  8
SOUZOU
100
AcDbCircle
 10
211.366550656515
 20
380.6375599256008
 30
0.0
 40
0.5
100
AcDbArc
 50
100.9731028972749
 51
169.9997809654638
  0
LINE
  5
8AA2
330
A
100
AcDbEntity
  8
SOUZOU
100
AcDbLine
 10
224.9929747998278
 20
380.7243751756735
 30
0.0
 11
225.4264279306962
 21
378.2662425289551
 31
0.0
  0
ARC
  5
8AA3
330
A
100
AcDbEntity
  8
SOUZOU
100
AcDbCircle
 10
224.5005817673209
 20
380.6375629646779
 30
0.0
 40
0.5
100
AcDbArc
 50
10.0000000000018
 51
79.02686695919523
  0
ARC
  5
8AB4
330
A
100
AcDbEntity
  8
SOUZOU
100
AcDbCircle
 10
227.933594864133
 20
379.5183378749707
 30
0.0
 40
1.5
100
AcDbArc
 50
270.0
 51
359.9998804763566
  0
LINE
  5
8AB6
330
A
100
AcDbEntity
  8
SOUZOU
100
AcDbLine
 10
227.9335948641362
 20
378.0183378749709
 30
0.0
 11
225.7218689749385
 21
378.018317164071
 31
0.0
  0
ARC
  5
8AB7
330
A
100
AcDbEntity
  8
SOUZOU
100
AcDbCircle
 10
225.7218668190152
 20
378.3183277628984
 30
0.0
 40
0.3
100
AcDbArc
 50
189.9999928137455
 51
270.0002529843507
  0
ARC
  5
8AE1
330
A
100
AcDbEntity
  8
SOUZOU
100
AcDbCircle
 10
217.9336518013234
 20
442.7682393712265
 30
0.0
 40
35.0
100
AcDbArc
 50
259.026799169081
 51
281.5369261517157
  0
LINE
  5
8AE3
330
A
100
AcDbEntity
  8
SOUZOU
100
AcDbLine
 10
207.9336513441505
 20
411.5182506955478
 30
0.0
 11
210.1453101686806
 21
411.5182506955478
 31
0.0
  0
ARC
  5
8AE4
330
A
100
AcDbEntity
  8
SOUZOU
100
AcDbCircle
 10
207.9336513441505
 20
410.0182506955476
 30
0.0
 40
1.5
100
AcDbArc
 50
90.0
 51
180.0000000001985
  0
ARC
  5
8AE5
330
A
100
AcDbEntity
  8
SOUZOU
100
AcDbCircle
 10
210.1453101686806
 20
411.2182506955478
 30
0.0
 40
0.3
100
AcDbArc
 50
9.999850835435779
 51
90.0
  0
LINE
  5
8AE6
330
A
100
AcDbEntity
  8
SOUZOU
100
AcDbLine
 10
210.4407526302066
 20
411.2703443796895
 30
0.0
 11
210.8741807552476
 21
408.8122139121129
 31
0.0
  0
ARC
  5
8AE7
330
A
100
AcDbEntity
  8
SOUZOU
100
AcDbCircle
 10
211.3665845448941
 20
408.8990366638442
 30
0.0
 40
0.5
100
AcDbArc
 50
189.9998508354325
 51
259.026799169081
  0
LINE
  5
8AF0
330
A
100
AcDbEntity
  8
SOUZOU
100
AcDbLine
 10
225.4701886566133
 20
411.5182743294576
 30
0.0
 11
224.9336173940752
 21
408.4753916439076
 31
0.0
  0
ARC
  5
8AF1
330
A
100
AcDbEntity
  8
SOUZOU
100
AcDbCircle
 10
224.5006146819529
 20
408.8990116345431
 30
0.0
 40
0.5
100
AcDbArc
 50
281.2924527854838
 51
349.9998678763276
  0
ARC
  5
8AF3
330
A
100
AcDbEntity
  8
SOUZOU
100
AcDbCircle
 10
227.9336584893005
 20
410.0182106793816
 30
0.0
 40
1.5
100
AcDbArc
 50
359.9998804763566
 51
90.0
  0
LINE
  5
8AF5
330
A
100
AcDbEntity
  8
SOUZOU
100
AcDbLine
 10
227.9336584893448
 20
411.5182106793817
 30
0.0
 11
225.4701775032661
 21
411.5182530603253
 31
0.0
  0
LINE
  5
8C3D
330
A
100
AcDbEntity
  8
06
100
AcDbLine
 10
223.4336840781707
 20
414.4686854131051
 30
0.0
 11
175.9378984011111
 21
414.4685127414616
 31
0.0
  0
LINE
  5
8C3E
330
A
100
AcDbEntity
  8
02
100
AcDbLine
 10
198.7042722131356
 20
369.0024354524968
 30
0.0
 11
210.6482124299601
 21
377.2795363417257
 31
0.0
  0
LINE
  5
8C3F
330
A
100
AcDbEntity
  8
02
100
AcDbLine
 10
201.0801001248835
 20
361.4682988576461
 30
0.0
 11
196.2338293163486
 21
361.4682880786856
 31
0.0
  0
LINE
  5
8C40
330
A
100
AcDbEntity
  8
02
100
AcDbLine
 10
183.9445624625735
 20
488.9682946557205
 30
0.0
 11
211.8734996064782
 21
488.9682946557063
 31
0.0
  0
LINE
  5
8C41
330
A
100
AcDbEntity
  8
CHUSIN
100
AcDbLine
 10
253.4907580961838
 20
450.4686433136114
 30
0.0
 11
157.4336820659586
 21
450.4687837467163
 31
0.0
  0
LINE
  5
8C42
330
A
100
AcDbEntity
  8
02
100
AcDbLine
 10
167.4350923971784
 20
389.467531395182
 30
0.0
 11
167.4350923971784
 21
380.9676889769685
 31
0.0
  0
LINE
  5
8C43
330
A
100
AcDbEntity
  8
02
100
AcDbLine
 10
182.934973856288
 20
389.467531395182
 30
0.0
 11
182.934973856288
 21
380.9676889769685
 31
0.0
  0
LINE
  5
8C44
330
A
100
AcDbEntity
  8
02
100
AcDbLine
 10
166.4341910497579
 20
396.1410771015038
 30
0.0
 11
166.4342656290951
 21
372.4681205280896
 31
0.0
  0
LINE
  5
8C45
330
A
100
AcDbEntity
  8
02
100
AcDbLine
 10
183.9342695032944
 20
380.4676293904951
 30
0.0
 11
183.934660037074
 21
389.9960161457408
 31
0.0
  0
LINE
  5
8C46
330
A
100
AcDbEntity
  8
02
100
AcDbLine
 10
186.9346695369656
 20
389.9680896064054
 30
0.0
 11
186.9346695369656
 21
379.7854262506894
 31
0.0
  0
LINE
  5
8C47
330
A
100
AcDbEntity
  8
02
100
AcDbLine
 10
161.4336250752909
 20
364.4319984234134
 30
0.0
 11
161.4336404779673
 21
484.4689063222533
 31
0.0
  0
ARC
  5
8C48
330
A
100
AcDbEntity
  8
02
100
AcDbCircle
 10
169.4342608048651
 20
372.4681299792814
 30
0.0
 40
2.999995175784897
100
AcDbArc
 50
180.0001805047575
 51
270.0006036846493
  0
LINE
  5
8C49
330
A
100
AcDbEntity
  8
02
100
AcDbLine
 10
183.6340437325695
 20
361.4682880788797
 30
0.0
 11
164.433405577412
 21
361.4682880788801
 31
0.0
  0
ARC
  5
8C4A
330
A
100
AcDbEntity
  8
02
100
AcDbCircle
 10
164.433405577412
 20
364.4682880788801
 30
0.0
 40
2.999999999999957
100
AcDbArc
 50
180.6930982698889
 51
270.0
  0
LINE
  5
8C4B
330
A
100
AcDbEntity
  8
02
100
AcDbLine
 10
166.435009582118
 20
380.9676889769685
 30
0.0
 11
167.4350923971784
 21
380.9676889769685
 31
0.0
  0
LINE
  5
8C4C
330
A
100
AcDbEntity
  8
02
100
AcDbLine
 10
186.7259384781179
 20
379.1739579663378
 30
0.0
 11
180.9434580427209
 21
371.6911542160137
 31
0.0
  0
LINE
  5
8C4D
330
A
100
AcDbEntity
  8
02
100
AcDbLine
 10
182.5259959250256
 20
368.4682176473106
 30
0.0
 11
185.3565036199288
 21
368.4682176473107
 31
0.0
  0
LINE
  5
8C4E
330
A
100
AcDbEntity
  8
02
100
AcDbLine
 10
184.2338293161543
 20
361.4682880788797
 30
0.0
 11
183.6340437325695
 21
361.4682880788797
 31
0.0
  0
ARC
  5
8C4F
330
A
100
AcDbEntity
  8
02
100
AcDbCircle
 10
174.4370693580403
 20
371.4681820722066
 30
0.0
 40
2.000002155828581
100
AcDbArc
 50
270.0005166657545
 51
322.999969207995
  0
LINE
  5
8C50
330
A
100
AcDbEntity
  8
02
100
AcDbLine
 10
169.4342924136686
 20
369.4681348036628
 30
0.0
 11
174.4370873930968
 21
369.4681799164595
 31
0.0
  0
LINE
  5
8C51
330
A
100
AcDbEntity
  8
02
100
AcDbLine
 10
176.034341452998
 20
370.2645498700833
 30
0.0
 11
183.9342695032944
 21
380.4676293904951
 31
0.0
  0
ARC
  5
8C52
330
A
100
AcDbEntity
  8
02
100
AcDbCircle
 10
182.5259959250254
 20
370.4682176473106
 30
0.0
 40
2.000000000000005
100
AcDbArc
 50
142.3042546317027
 51
270.000000000003
  0
LINE
  5
8C53
330
A
100
AcDbEntity
  8
02
100
AcDbLine
 10
182.934973856288
 20
380.9676889769685
 30
0.0
 11
183.9354662806826
 21
380.9676889769685
 31
0.0
  0
LINE
  5
8C54
330
A
100
AcDbEntity
  8
02
100
AcDbLine
 10
190.511204158308
 20
368.4682176473106
 30
0.0
 11
193.3565036199288
 21
368.4682176473107
 31
0.0
  0
LINE
  5
8C55
330
A
100
AcDbEntity
  8
02
100
AcDbLine
 10
192.2338293161543
 20
361.4682880788797
 30
0.0
 11
191.6340437325693
 21
361.4682880788797
 31
0.0
  0
LINE
  5
8C56
330
A
100
AcDbEntity
  8
02
100
AcDbLine
 10
186.5112041583079
 20
368.4682176473107
 30
0.0
 11
189.3565036199289
 21
368.4682176473107
 31
0.0
  0
LINE
  5
8C57
330
A
100
AcDbEntity
  8
02
100
AcDbLine
 10
188.2338293161543
 20
361.4682880788797
 30
0.0
 11
187.6340437325693
 21
361.4682880788797
 31
0.0
  0
LINE
  5
8C58
330
A
100
AcDbEntity
  8
02
100
AcDbLine
 10
187.6340437325693
 20
361.4682880788797
 30
0.0
 11
184.2338293161543
 21
361.4682880788797
 31
0.0
  0
LINE
  5
8C59
330
A
100
AcDbEntity
  8
02
100
AcDbLine
 10
184.2338293161543
 20
361.4682880788797
 30
0.0
 11
184.2338293161543
 21
361.4682880788797
 31
0.0
  0
LINE
  5
8C5A
330
A
100
AcDbEntity
  8
02
100
AcDbLine
 10
185.3565036199288
 20
368.4682176473107
 30
0.0
 11
186.5112041583079
 21
368.4682176473107
 31
0.0
  0
LINE
  5
8C5B
330
A
100
AcDbEntity
  8
02
100
AcDbLine
 10
186.5112041583079
 20
368.4682176473107
 30
0.0
 11
186.5112041583079
 21
368.4682176473107
 31
0.0
  0
LINE
  5
8C5C
330
A
100
AcDbEntity
  8
02
100
AcDbLine
 10
191.6340437325693
 20
361.4682880788797
 30
0.0
 11
188.2338293161543
 21
361.4682880788797
 31
0.0
  0
LINE
  5
8C5D
330
A
100
AcDbEntity
  8
02
100
AcDbLine
 10
188.2338293161543
 20
361.4682880788797
 30
0.0
 11
188.2338293161543
 21
361.4682880788797
 31
0.0
  0
LINE
  5
8C5E
330
A
100
AcDbEntity
  8
02
100
AcDbLine
 10
189.3565036199289
 20
368.4682176473107
 30
0.0
 11
190.511204158308
 21
368.4682176473106
 31
0.0
  0
LINE
  5
8C5F
330
A
100
AcDbEntity
  8
02
100
AcDbLine
 10
190.511204158308
 20
368.4682176473106
 30
0.0
 11
190.511204158308
 21
368.4682176473106
 31
0.0
  0
ARC
  5
8C60
330
A
100
AcDbEntity
  8
02
100
AcDbCircle
 10
185.9346695369659
 20
379.7854262506894
 30
0.0
 40
0.9999999999997868
100
AcDbArc
 50
322.3042546316938
 51
0.0
  0
LINE
  5
8C61
330
A
100
AcDbEntity
  8
02
100
AcDbLine
 10
194.511204158308
 20
368.4682176473107
 30
0.0
 11
196.995495408594
 21
368.4682176473107
 31
0.0
  0
LINE
  5
8C62
330
A
100
AcDbEntity
  8
02
100
AcDbLine
 10
195.6340437325693
 20
361.4682880788797
 30
0.0
 11
192.2338293161543
 21
361.4682880788797
 31
0.0
  0
LINE
  5
8C63
330
A
100
AcDbEntity
  8
02
100
AcDbLine
 10
192.2338293161543
 20
361.4682880788797
 30
0.0
 11
192.2338293161543
 21
361.4682880788797
 31
0.0
  0
LINE
  5
8C64
330
A
100
AcDbEntity
  8
02
100
AcDbLine
 10
196.2338293163486
 20
361.4682880786856
 30
0.0
 11
196.2338293163486
 21
361.4682880786856
 31
0.0
  0
LINE
  5
8C65
330
A
100
AcDbEntity
  8
02
100
AcDbLine
 10
196.2338293163486
 20
361.4682880786856
 30
0.0
 11
195.6340437325693
 21
361.4682880788797
 31
0.0
  0
LINE
  5
8C66
330
A
100
AcDbEntity
  8
02
100
AcDbLine
 10
193.3565036199288
 20
368.4682176473107
 30
0.0
 11
194.511204158308
 21
368.4682176473107
 31
0.0
  0
LINE
  5
8C67
330
A
100
AcDbEntity
  8
02
100
AcDbLine
 10
194.511204158308
 20
368.4682176473107
 30
0.0
 11
194.511204158308
 21
368.4682176473107
 31
0.0
  0
ARC
  5
8C68
330
A
100
AcDbEntity
  8
02
100
AcDbCircle
 10
196.995495408594
 20
371.468217647311
 30
0.0
 40
3.000000000000283
100
AcDbArc
 50
270.0
 51
304.7217982668776
  0
LINE
  5
8C69
330
A
100
AcDbEntity
  8
02
100
AcDbLine
 10
169.6336242534066
 20
483.9686708924043
 30
0.0
 11
169.6336985371025
 21
413.9685069270133
 31
0.0
  0
LINE
  5
8C6A
330
A
100
AcDbEntity
  8
02
100
AcDbLine
 10
165.4336404932401
 20
483.9680631694022
 30
0.0
 11
165.4336985371025
 21
413.9684302019817
 31
0.0
  0
LINE
  5
8C6B
330
A
100
AcDbEntity
  8
02
100
AcDbLine
 10
167.4349953804906
 20
390.967688977012
 30
0.0
 11
182.935443826094
 21
390.967836868972
 31
0.0
  0
ARC
  5
8C6C
330
A
100
AcDbEntity
  8
02
100
AcDbCircle
 10
167.9350923971784
 20
389.467531395182
 30
0.0
 40
0.5
100
AcDbArc
 50
90.00174400922537
 51
180.0
  0
LINE
  5
8C6D
330
A
100
AcDbEntity
  8
02
100
AcDbLine
 10
165.4336985371025
 20
413.9684302019817
 30
0.0
 11
169.6336985370814
 21
413.9684647624982
 31
0.0
  0
LINE
  5
8C6E
330
A
100
AcDbEntity
  8
02
100
AcDbLine
 10
169.6336049424698
 20
411.568365777291
 30
0.0
 11
165.4335892251362
 21
411.568358272935
 31
0.0
  0
LINE
  5
8C6F
330
A
100
AcDbEntity
  8
02
100
AcDbLine
 10
165.4336038762564
 20
403.3684627979338
 30
0.0
 11
169.6336017464187
 21
403.3683994155148
 31
0.0
  0
LINE
  5
8C70
330
A
100
AcDbEntity
  8
02
100
AcDbLine
 10
171.9336241810148
 20
401.3684969916722
 30
0.0
 11
166.4335127775915
 21
401.3684664736906
 31
0.0
  0
LINE
  5
8C73
330
A
100
AcDbEntity
  8
02
100
AcDbLine
 10
165.4335892251362
 20
411.568358272935
 30
0.0
 11
165.4336038762564
 21
403.3684627979338
 31
0.0
  0
ARC
  5
8C74
330
A
100
AcDbEntity
  8
02
100
AcDbCircle
 10
167.4350049216313
 20
389.9676889770677
 30
0.0
 40
0.9999999999999998
100
AcDbArc
 50
90.00054666709623
 51
180.0
  0
LINE
  5
8C75
330
A
100
AcDbEntity
  8
02
100
AcDbLine
 10
166.4335127775915
 20
401.3684664736906
 30
0.0
 11
166.4333402957735
 21
396.7941763735545
 31
0.0
  0
LINE
  5
8C76
330
A
100
AcDbEntity
  8
02
100
AcDbLine
 10
166.4333402957735
 20
396.7941763735545
 30
0.0
 11
166.4333402957735
 21
396.7941763735545
 31
0.0
  0
LINE
  5
8C77
330
A
100
AcDbEntity
  8
02
100
AcDbLine
 10
166.4333402957735
 20
396.7941763735545
 30
0.0
 11
166.4341910497579
 21
396.1410771015038
 31
0.0
  0
ARC
  5
8C78
330
A
100
AcDbEntity
  8
02
100
AcDbCircle
 10
182.9350613318352
 20
389.9676889770677
 30
0.0
 40
0.9999999999999998
100
AcDbArc
 50
0.0
 51
89.99919302646956
  0
ARC
  5
8C79
330
A
100
AcDbEntity
  8
02
100
AcDbCircle
 10
184.9071332109213
 20
389.9959762876166
 30
0.0
 40
0.9724731746640964
100
AcDbArc
 50
88.40206662141071
 51
179.9976516552194
  0
LINE
  5
8C7A
330
A
100
AcDbEntity
  8
02
100
AcDbLine
 10
182.435408898546
 20
389.9678205727275
 30
0.0
 11
167.935077177827
 21
389.9675313949504
 31
0.0
  0
LINE
  5
8C7B
330
A
100
AcDbEntity
  8
02
100
AcDbLine
 10
169.633702778229
 20
404.8684735385873
 30
0.0
 11
171.933604761864
 21
404.868318637401
 31
0.0
  0
LINE
  5
8C7C
330
A
100
AcDbEntity
  8
02
100
AcDbLine
 10
169.6336017464187
 20
403.3683994155148
 30
0.0
 11
169.633702778229
 21
404.8684735385873
 31
0.0
  0
LINE
  5
8C7D
330
A
100
AcDbEntity
  8
02
100
AcDbLine
 10
171.933604761864
 20
404.868318637401
 30
0.0
 11
171.9336241810148
 21
401.3684969916722
 31
0.0
  0
ARC
  5
8C7E
330
A
100
AcDbEntity
  8
02
100
AcDbCircle
 10
182.4349738562879
 20
389.467531395182
 30
0.0
 40
0.5
100
AcDbArc
 50
0.0
 51
89.99825599077464
  0
LINE
  5
8C7F
330
A
100
AcDbEntity
  8
02
100
AcDbLine
 10
170.9337608177048
 20
416.4685637823442
 30
0.0
 11
171.9337328108928
 21
414.4686133466079
 31
0.0
  0
LINE
  5
8C80
330
A
100
AcDbEntity
  8
02
100
AcDbLine
 10
171.9336870281639
 20
410.0685694106635
 30
0.0
 11
169.6336022459329
 21
410.0684573298062
 31
0.0
  0
LINE
  5
8C81
330
A
100
AcDbEntity
  8
02
100
AcDbLine
 10
169.6336022459329
 20
410.0684573298062
 30
0.0
 11
169.6336049424698
 21
411.568365777291
 31
0.0
  0
LINE
  5
8C82
330
A
100
AcDbEntity
  8
02
100
AcDbLine
 10
169.6336958840018
 20
416.4685558861357
 30
0.0
 11
170.9337608177048
 21
416.4685637823442
 31
0.0
  0
LINE
  5
8C83
330
A
100
AcDbEntity
  8
02
100
AcDbLine
 10
169.6336985370814
 20
413.9684647624982
 30
0.0
 11
169.6336958840018
 21
416.4685558861357
 31
0.0
  0
LINE
  5
8C84
330
A
100
AcDbEntity
  8
02
100
AcDbLine
 10
171.9337328108928
 20
414.4686133466079
 30
0.0
 11
171.9336870281639
 21
410.0685694106635
 31
0.0
  0
ARC
  5
8C85
330
A
100
AcDbEntity
  8
02
100
AcDbCircle
 10
185.9346878469992
 20
389.9681079164388
 30
0.0
 40
0.9999816901340356
100
AcDbArc
 50
359.9989508931414
 51
90.00104910685534
  0
LINE
  5
8C86
330
A
100
AcDbEntity
  8
02
100
AcDbLine
 10
184.9342511927575
 20
390.9680712883766
 30
0.0
 11
185.9346695369654
 21
390.9680896064055
 31
0.0
  0
LINE
  5
8C87
330
A
100
AcDbEntity
  8
02
100
AcDbLine
 10
169.6338481501094
 20
483.9680672135163
 30
0.0
 11
165.4336404932401
 21
483.9680631694022
 31
0.0
  0
ARC
  5
8C88
330
A
100
AcDbEntity
  8
02
100
AcDbCircle
 10
166.0088774291996
 20
116009.1958266903
 30
0.0
 40
115522.7275748033
100
AcDbArc
 50
269.9986972950008
 51
270.0029384961099
  0
ARC
  5
8C89
330
A
100
AcDbEntity
  8
02
100
AcDbCircle
 10
163.433676240159
 20
484.4689060656166
 30
0.0
 40
2.000035762191588
100
AcDbArc
 50
91.47207322026805
 51
179.9999926480247
  0
LINE
  5
8C8A
330
A
100
AcDbEntity
  8
02
100
AcDbLine
 10
174.3740355612648
 20
481.4688355662774
 30
0.0
 11
180.4090285566408
 21
487.5038285616533
 31
0.0
  0
LINE
  5
8C8B
330
A
100
AcDbEntity
  8
02
100
AcDbLine
 10
171.9336401869319
 20
483.4684374371255
 30
0.0
 11
170.9336822342926
 21
481.4685855213379
 31
0.0
  0
LINE
  5
8C8C
330
A
100
AcDbEntity
  8
02
100
AcDbLine
 10
170.9338952934793
 20
481.4688356988439
 30
0.0
 11
174.3740355612648
 21
481.4688355662774
 31
0.0
  0
LINE
  5
8C8D
330
A
100
AcDbEntity
  8
02
100
AcDbLine
 10
170.9336822342926
 20
481.4685855213379
 30
0.0
 11
169.6336030292025
 21
481.4688357877042
 31
0.0
  0
LINE
  5
8C8E
330
A
100
AcDbEntity
  8
02
100
AcDbLine
 10
169.6336030292025
 20
481.4688357877042
 30
0.0
 11
169.6338481501094
 21
483.9680672135163
 31
0.0
  0
LINE
  5
8C8F
330
A
100
AcDbEntity
  8
02
100
AcDbLine
 10
171.9336259598111
 20
486.4684038164829
 30
0.0
 11
171.9336401869319
 21
483.4684374371255
 31
0.0
  0
ARC
  5
8C90
330
A
100
AcDbEntity
  8
02
100
AcDbCircle
 10
183.9445624625735
 20
483.9682946557204
 30
0.0
 40
4.999999999999938
100
AcDbArc
 50
90.0
 51
135.0
  0
LINE
  5
8C95
330
A
100
AcDbEntity
  8
04
100
AcDbLine
 10
232.9336682437955
 20
371.9685421537296
 30
0.0
 11
232.9336687805831
 21
391.563329962032
 31
0.0
  0
LINE
  5
8C96
330
A
100
AcDbEntity
  8
04
100
AcDbLine
 10
237.4336397939257
 20
408.4683760684718
 30
0.0
 11
237.4336398066855
 21
380.4683982784712
 31
0.0
  0
LINE
  5
8C97
330
A
100
AcDbEntity
  8
04
100
AcDbLine
 10
244.4336472653699
 20
386.7683703994933
 30
0.0
 11
244.4336677076814
 21
380.4683982816614
 31
0.0
  0
LINE
  5
8C98
330
A
100
AcDbEntity
  8
CHUSIN
100
AcDbLine
 10
217.933509694044
 20
421.3617138248243
 30
0.0
 11
217.9336587723325
 21
371.5785454464608
 31
0.0
  0
LINE
  5
8C9C
330
A
100
AcDbEntity
  8
04
100
AcDbLine
 10
216.4338192234437
 20
371.4685884770166
 30
0.0
 11
217.4337982146412
 21
371.4685886515031
 31
0.0
  0
ARC
  5
8C9D
330
A
100
AcDbEntity
  8
02
100
AcDbCircle
 10
217.9339962231124
 20
351.4704526376053
 30
0.0
 40
29.99791235358491
100
AcDbArc
 50
78.05843379273824
 51
101.9412216107155
  0
LINE
  5
8C9E
330
A
100
AcDbEntity
  8
02
100
AcDbLine
 10
223.4641235938759
 20
373.4682707067487
 30
0.0
 11
214.7141928074107
 21
373.4683021205043
 31
0.0
  0
LINE
  5
8CA2
330
A
100
AcDbEntity
  8
02
100
AcDbLine
 10
212.5479439863311
 20
372.544129958683
 30
0.0
 11
202.5240687433031
 21
362.0844846423522
 31
0.0
  0
ARC
  5
8CA3
330
A
100
AcDbEntity
  8
02
100
AcDbCircle
 10
201.0800956765308
 20
363.4682988576411
 30
0.0
 40
1.999999999999974
100
AcDbArc
 50
270.000127435914
 51
316.2187368015914
  0
LINE
  5
8CA5
330
A
100
AcDbEntity
  8
04
100
AcDbLine
 10
216.4338039645707
 20
370.4685872752846
 30
0.0
 11
216.4338192234437
 21
371.4685884770166
 31
0.0
  0
LINE
  5
8CA6
330
A
100
AcDbEntity
  8
04
100
AcDbLine
 10
214.9336682437954
 20
360.468388201435
 30
0.0
 11
214.9336682437954
 21
370.4685693139357
 31
0.0
  0
LINE
  5
8CA8
330
A
100
AcDbEntity
  8
04
100
AcDbLine
 10
216.4336265707905
 20
359.9683934905241
 30
0.0
 11
216.4336265707905
 21
360.4683869809159
 31
0.0
  0
LINE
  5
8CAB
330
A
100
AcDbEntity
  8
04
100
AcDbLine
 10
214.9336682437954
 20
370.4685693139357
 30
0.0
 11
216.4338039645707
 21
370.4685872752846
 31
0.0
  0
ARC
  5
8CAC
330
A
100
AcDbEntity
  8
02
100
AcDbCircle
 10
214.714182033693
 20
370.4674102458363
 30
0.0
 40
3.000891874687466
100
AcDbArc
 50
89.99979429830238
 51
136.2086526010829
  0
ARC
  5
8CAE
330
A
100
AcDbEntity
  8
02
100
AcDbCircle
 10
210.0786201617796
 20
378.101463739997
 30
0.0
 40
1.0
100
AcDbArc
 50
304.7217982668803
 51
4.999999999999743
  0
LINE
  5
8CB1
330
A
100
AcDbEntity
  8
02
100
AcDbLine
 10
211.0748148598713
 20
378.1886194827445
 30
0.0
 11
210.9378886769443
 21
379.7536929152196
 31
0.0
  0
ARC
  5
8CB2
330
A
100
AcDbEntity
  8
02
100
AcDbCircle
 10
211.9340950262591
 20
379.8408496773173
 30
0.0
 40
1.000011695728936
100
AcDbArc
 50
101.9412216107155
 51
184.9999999999995
  0
LINE
  5
8CB6
330
A
100
AcDbEntity
  8
04
100
AcDbLine
 10
217.4338035877259
 20
372.9685941271247
 30
0.0
 11
227.433804312975
 21
372.9685950827694
 31
0.0
  0
ARC
  5
8CB7
330
A
100
AcDbEntity
  8
02
100
AcDbCircle
 10
223.934066434385
 20
379.8408059559721
 30
0.0
 40
1.00001949997998
100
AcDbArc
 50
355.0018055028788
 51
78.05843379273824
  0
LINE
  5
8CB8
330
A
100
AcDbEntity
  8
04
100
AcDbLine
 10
217.4337982146412
 20
371.4685886515031
 30
0.0
 11
217.4338035877259
 21
372.9685941271247
 31
0.0
  0
LINE
  5
8CB9
330
A
100
AcDbEntity
  8
02
100
AcDbLine
 10
224.9302833042615
 20
379.7536799064018
 30
0.0
 11
224.4603231233563
 21
374.3811291523325
 31
0.0
  0
ARC
  5
8CBA
330
A
100
AcDbEntity
  8
02
100
AcDbCircle
 10
223.4641271840478
 20
374.4682707067421
 30
0.0
 40
0.9999999999999303
100
AcDbArc
 50
269.9997942982991
 51
355.0008160366461
  0
LINE
  5
8CBB
330
A
100
AcDbEntity
  8
04
100
AcDbLine
 10
232.9336682437955
 20
371.9685421537296
 30
0.0
 11
232.9336682437955
 21
359.9683934905241
 31
0.0
  0
LINE
  5
8CBD
330
A
100
AcDbEntity
  8
04
100
AcDbLine
 10
227.4337994807789
 20
371.9685422340777
 30
0.0
 11
232.9336682437955
 21
371.9685421537296
 31
0.0
  0
LINE
  5
8CBE
330
A
100
AcDbEntity
  8
04
100
AcDbLine
 10
227.433804312975
 20
372.9685950827694
 30
0.0
 11
227.4337994807789
 21
371.9685422340777
 31
0.0
  0
LINE
  5
8CC3
330
A
100
AcDbEntity
  8
CHUSIN
100
AcDbLine
 10
236.4336479985342
 20
364.657021538035
 30
0.0
 11
236.4336479985342
 21
350.9370386906936
 31
0.0
  0
LINE
  5
8CC4
330
A
100
AcDbEntity
  8
04
100
AcDbLine
 10
244.4336677076814
 20
380.4683982816614
 30
0.0
 11
237.4336398066855
 21
380.4683982784712
 31
0.0
  0
LINE
  5
8CC5
330
A
100
AcDbEntity
  8
04
100
AcDbLine
 10
237.433571317103
 20
376.4685636122388
 30
0.0
 11
241.9337212189526
 21
376.4684865557071
 31
0.0
  0
LINE
  5
8CC7
330
A
100
AcDbEntity
  8
04
100
AcDbLine
 10
237.433571317103
 20
376.4685636122388
 30
0.0
 11
237.433571317103
 21
359.9683934905241
 31
0.0
  0
LINE
  5
8CC8
330
A
100
AcDbEntity
  8
04
100
AcDbLine
 10
237.4336398066855
 20
380.4683982784712
 30
0.0
 11
237.433571317103
 21
376.4685636122388
 31
0.0
  0
LINE
  5
8CC9
330
A
100
AcDbEntity
  8
04
100
AcDbLine
 10
247.7336908090271
 20
371.3686599213405
 30
0.0
 11
247.7337660220914
 21
363.5686712495033
 31
0.0
  0
LINE
  5
8CCB
330
A
100
AcDbEntity
  8
04
100
AcDbLine
 10
247.3187762612528
 20
362.8498142396111
 30
0.0
 11
244.2337725569614
 21
362.8497842850233
 31
0.0
  0
LINE
  5
8CCC
330
A
100
AcDbEntity
  8
04
100
AcDbLine
 10
244.2337737840418
 20
362.8685332704376
 30
0.0
 11
242.9337743243975
 21
362.8685205386855
 31
0.0
  0
LINE
  5
8CCD
330
A
100
AcDbEntity
  8
04
100
AcDbLine
 10
242.9337743243975
 20
362.8685205386855
 30
0.0
 11
242.9337760524914
 21
362.4685841762577
 31
0.0
  0
LINE
  5
8CCE
330
A
100
AcDbEntity
  8
04
100
AcDbLine
 10
242.9337760524914
 20
362.4685841762577
 30
0.0
 11
241.9337768004421
 21
362.4685744101729
 31
0.0
  0
LINE
  5
8CCF
330
A
100
AcDbEntity
  8
04
100
AcDbLine
 10
241.9337768004421
 20
362.4685744101729
 30
0.0
 11
241.9337293302576
 21
359.9683632861644
 31
0.0
  0
LINE
  5
8CD0
330
A
100
AcDbEntity
  8
04
100
AcDbLine
 10
244.2337725569614
 20
362.8497842850233
 30
0.0
 11
244.2337737840418
 21
362.8685332704376
 31
0.0
  0
LINE
  5
8CD1
330
A
100
AcDbEntity
  8
04
100
AcDbLine
 10
247.7337660220914
 20
363.5686712495033
 30
0.0
 11
247.3187762612528
 21
362.8498142396111
 31
0.0
  0
LINE
  5
8CD2
330
A
100
AcDbEntity
  8
04
100
AcDbLine
 10
244.2336843923312
 20
372.0874107519723
 30
0.0
 11
247.3186852370973
 21
372.0874443118166
 31
0.0
  0
LINE
  5
8CD3
330
A
100
AcDbEntity
  8
04
100
AcDbLine
 10
242.9336872931489
 20
372.0686041143321
 30
0.0
 11
244.2336837170929
 21
372.0686041143073
 31
0.0
  0
LINE
  5
8CD4
330
A
100
AcDbEntity
  8
04
100
AcDbLine
 10
241.9337212189526
 20
376.4684865557071
 30
0.0
 11
241.933904321234
 21
372.4685586168
 31
0.0
  0
LINE
  5
8CD5
330
A
100
AcDbEntity
  8
04
100
AcDbLine
 10
241.933904321234
 20
372.4685586168
 30
0.0
 11
242.93368030438
 21
372.46861088147
 31
0.0
  0
LINE
  5
8CD6
330
A
100
AcDbEntity
  8
04
100
AcDbLine
 10
242.93368030438
 20
372.46861088147
 30
0.0
 11
242.9336872931489
 21
372.0686041143321
 31
0.0
  0
LINE
  5
8CD7
330
A
100
AcDbEntity
  8
04
100
AcDbLine
 10
244.2336837170929
 20
372.0686041143073
 30
0.0
 11
244.2336843923312
 21
372.0874107519723
 31
0.0
  0
LINE
  5
8CD8
330
A
100
AcDbEntity
  8
04
100
AcDbLine
 10
247.3186852370973
 20
372.0874443118166
 30
0.0
 11
247.7336908090271
 21
371.3686599213405
 31
0.0
  0
LINE
  5
8CD9
330
A
100
AcDbEntity
  8
06
100
AcDbLine
 10
241.8936646287379
 20
474.4690505066912
 30
0.0
 11
245.1736909442853
 21
483.4690409160925
 31
0.0
  0
LINE
  5
8CDA
330
A
100
AcDbEntity
  8
06
100
AcDbLine
 10
232.6736909443388
 20
483.4690774654836
 30
0.0
 11
235.9536646287633
 21
474.4690678749616
 31
0.0
  0
LINE
  5
8CDB
330
A
100
AcDbEntity
  8
06
100
AcDbLine
 10
247.9337094542183
 20
484.7690544885406
 30
0.0
 11
247.9336863682223
 21
460.2835516257933
 31
0.0
  0
LINE
  5
8CDC
330
A
100
AcDbEntity
  8
CHUSIN
100
AcDbLine
 10
238.933696887534
 20
487.8340573717299
 30
0.0
 11
238.933696887534
 21
414.0856296987737
 31
0.0
  0
LINE
  5
8CDD
330
A
100
AcDbEntity
  8
06
100
AcDbLine
 10
223.4336804948941
 20
443.4686310037546
 30
0.0
 11
248.4336801890024
 21
443.4686314420344
 31
0.0
  0
LINE
  5
8CDE
330
A
100
AcDbEntity
  8
04
100
AcDbLine
 10
232.9336692481434
 20
409.4683847106041
 30
0.0
 11
237.43363979347
 21
409.4683847126547
 31
0.0
  0
LINE
  5
8CDF
330
A
100
AcDbEntity
  8
06
100
AcDbLine
 10
245.1736326082813
 20
414.9682984429063
 30
0.0
 11
232.6736326082813
 21
414.9682984429063
 31
0.0
  0
LINE
  5
8CE0
330
A
100
AcDbEntity
  8
06
100
AcDbLine
 10
232.6736326082813
 20
414.9682984429063
 30
0.0
 11
235.9536326082813
 21
423.9682984429063
 31
0.0
  0
LINE
  5
8CE1
330
A
100
AcDbEntity
  8
CHUSIN
100
AcDbLine
 10
202.699606747206
 20
396.4683368659127
 30
0.0
 11
254.1518600938058
 21
396.4683368659127
 31
0.0
  0
LINE
  5
8CE2
330
A
100
AcDbEntity
  8
CHUSIN
100
AcDbLine
 10
229.7039699682704
 20
420.4687171179274
 30
0.0
 11
247.250316991274
 21
420.4687344070043
 31
0.0
  0
LINE
  5
8CE3
330
A
100
AcDbEntity
  8
06
100
AcDbLine
 10
223.43368102185
 20
443.4685052341818
 30
0.0
 11
223.4336842921777
 21
412.4380859109905
 31
0.0
  0
LINE
  5
8CED
330
A
100
AcDbEntity
  8
04
100
AcDbLine
 10
230.9336371917666
 20
408.9683405501808
 30
0.0
 11
230.9335394174241
 21
401.3733365411701
 31
0.0
  0
LINE
  5
8CEE
330
A
100
AcDbEntity
  8
04
100
AcDbLine
 10
232.9336690313361
 20
401.3733365412297
 30
0.0
 11
232.9336692481434
 21
409.4683847106041
 31
0.0
  0
LINE
  5
8CEF
330
A
100
AcDbEntity
  8
04
100
AcDbLine
 10
232.9336690313361
 20
401.3733365412297
 30
0.0
 11
232.9336687805831
 21
391.563329962032
 31
0.0
  0
LINE
  5
8CF0
330
A
100
AcDbEntity
  8
04
100
AcDbLine
 10
230.9337039855275
 20
391.5633222869371
 30
0.0
 11
230.9336490200979
 21
383.9683511548048
 31
0.0
  0
LINE
  5
8CF1
330
A
100
AcDbEntity
  8
04
100
AcDbLine
 10
230.9336490200979
 20
383.9683511548048
 30
0.0
 11
229.433628297083
 21
383.9683543532168
 31
0.0
  0
LINE
  5
8CF2
330
A
100
AcDbEntity
  8
04
100
AcDbLine
 10
232.9336687805831
 20
391.563329962032
 30
0.0
 11
230.9337039855275
 21
391.5633222869371
 31
0.0
  0
LINE
  5
8CF3
330
A
100
AcDbEntity
  8
04
100
AcDbLine
 10
230.9335394174241
 20
401.3733365411701
 30
0.0
 11
232.9336690313361
 21
401.3733365412297
 31
0.0
  0
LINE
  5
8CFB
330
A
100
AcDbEntity
  8
04
100
AcDbLine
 10
229.4336838202418
 20
408.9683405809223
 30
0.0
 11
230.9336371917666
 21
408.9683405501808
 31
0.0
  0
LINE
  5
8CFC
330
A
100
AcDbEntity
  8
06
100
AcDbLine
 10
248.433653771072
 20
440.6536675958371
 30
0.0
 11
248.4336537715653
 21
408.468754005428
 31
0.0
  0
LINE
  5
8CFD
330
A
100
AcDbEntity
  8
04
100
AcDbLine
 10
246.433698749962
 20
401.973931805923
 30
0.0
 11
251.2376147663978
 21
401.9739318059249
 31
0.0
  0
LINE
  5
8CFE
330
A
100
AcDbEntity
  8
04
100
AcDbLine
 10
251.2376218924425
 20
386.9628184060736
 30
0.0
 11
246.4336777225381
 21
386.9628087420821
 31
0.0
  0
LINE
  5
8CFF
330
A
100
AcDbEntity
  8
04
100
AcDbLine
 10
244.4336302834735
 20
408.4683760684718
 30
0.0
 11
244.4336381888756
 21
402.1683943391241
 31
0.0
  0
LINE
  5
8D00
330
A
100
AcDbEntity
  8
04
100
AcDbLine
 10
246.4336796255108
 20
386.7683899758284
 30
0.0
 11
244.4336472653699
 21
386.7683703994933
 31
0.0
  0
LINE
  5
8D01
330
A
100
AcDbEntity
  8
04
100
AcDbLine
 10
246.4336777225381
 20
386.9628087420821
 30
0.0
 11
246.4336796255108
 21
386.7683899758284
 31
0.0
  0
LINE
  5
8D02
330
A
100
AcDbEntity
  8
04
100
AcDbLine
 10
244.4336381888756
 20
402.1683943391241
 30
0.0
 11
246.433698749962
 21
402.1683787645783
 31
0.0
  0
LINE
  5
8D03
330
A
100
AcDbEntity
  8
04
100
AcDbLine
 10
246.433698749962
 20
402.1683787645783
 30
0.0
 11
246.433698749962
 21
401.973931805923
 31
0.0
  0
LINE
  5
8D04
330
A
100
AcDbEntity
  8
04
100
AcDbLine
 10
237.4336397939257
 20
408.4683760684718
 30
0.0
 11
244.4336302834735
 21
408.4683760684718
 31
0.0
  0
LINE
  5
8D05
330
A
100
AcDbEntity
  8
06
100
AcDbLine
 10
235.9536326082813
 20
423.9682984429063
 30
0.0
 11
241.8936326082814
 21
423.9682984429063
 31
0.0
  0
LINE
  5
8D06
330
A
100
AcDbEntity
  8
04
100
AcDbLine
 10
237.43363979347
 20
409.4683847126547
 30
0.0
 11
237.4336397939257
 21
408.4683760684718
 31
0.0
  0
LINE
  5
8D07
330
A
100
AcDbEntity
  8
06
100
AcDbLine
 10
241.8936326082814
 20
423.9682984429063
 30
0.0
 11
245.1736326082813
 21
414.9682984429063
 31
0.0
  0
LINE
  5
8D08
330
A
100
AcDbEntity
  8
06
100
AcDbLine
 10
248.4336537715653
 20
408.468754005428
 30
0.0
 11
245.6039698691796
 21
408.4687540053845
 31
0.0
  0
LINE
  5
8D09
330
A
100
AcDbEntity
  8
04
100
AcDbLine
 10
251.933701584024
 20
400.7684008545265
 30
0.0
 11
251.933649264794
 21
388.1683875933706
 31
0.0
  0
LINE
  5
8D0A
330
A
100
AcDbEntity
  8
04
100
AcDbLine
 10
251.933649264794
 20
388.1683875933706
 30
0.0
 11
251.2376218924425
 21
386.9628184060736
 31
0.0
  0
LINE
  5
8D0B
330
A
100
AcDbEntity
  8
04
100
AcDbLine
 10
251.2376147663978
 20
401.9739318059249
 30
0.0
 11
251.933701584024
 21
400.7684008545265
 31
0.0
  0
LINE
  5
8D0C
330
A
100
AcDbEntity
  8
06
100
AcDbLine
 10
249.5301685002928
 20
460.2837213481235
 30
0.0
 11
250.4336523616025
 21
458.718679394845
 31
0.0
  0
LINE
  5
8D0D
330
A
100
AcDbEntity
  8
06
100
AcDbLine
 10
250.4336639923624
 20
442.2186206166116
 30
0.0
 11
249.5300073569461
 21
440.653455887182
 31
0.0
  0
LINE
  5
8D0E
330
A
100
AcDbEntity
  8
06
100
AcDbLine
 10
248.4336801890024
 20
443.4686314420344
 30
0.0
 11
248.433653771072
 21
440.6536675958371
 31
0.0
  0
LINE
  5
8D0F
330
A
100
AcDbEntity
  8
06
100
AcDbLine
 10
249.5300073569461
 20
440.653455887182
 30
0.0
 11
248.433653771072
 21
440.6536675958371
 31
0.0
  0
LINE
  5
8D10
330
A
100
AcDbEntity
  8
06
100
AcDbLine
 10
235.9536646287633
 20
474.4690678749616
 30
0.0
 11
241.8936646287379
 21
474.4690505066912
 31
0.0
  0
LINE
  5
8D11
330
A
100
AcDbEntity
  8
06
100
AcDbLine
 10
247.9336863682223
 20
460.2835516257933
 30
0.0
 11
249.5301685002928
 21
460.2837213481235
 31
0.0
  0
LINE
  5
8D12
330
A
100
AcDbEntity
  8
06
100
AcDbLine
 10
250.9336962008818
 20
455.4685977773629
 30
0.0
 11
250.9337544116752
 21
445.4685895247908
 31
0.0
  0
LINE
  5
8D13
330
A
100
AcDbEntity
  8
06
100
AcDbLine
 10
250.9337544116752
 20
445.4685895247908
 30
0.0
 11
250.4336840870374
 21
445.4685883274445
 31
0.0
  0
LINE
  5
8D14
330
A
100
AcDbEntity
  8
06
100
AcDbLine
 10
250.4336840870374
 20
445.4685883274445
 30
0.0
 11
250.4336639923624
 21
442.2186206166116
 31
0.0
  0
LINE
  5
8D15
330
A
100
AcDbEntity
  8
06
100
AcDbLine
 10
250.4336523616025
 20
458.718679394845
 30
0.0
 11
250.4331539660302
 21
455.4686973551151
 31
0.0
  0
LINE
  5
8D16
330
A
100
AcDbEntity
  8
06
100
AcDbLine
 10
250.4331539660302
 20
455.4686973551151
 30
0.0
 11
250.9336962008818
 21
455.4685977773629
 31
0.0
  0
LINE
  5
8D17
330
A
100
AcDbEntity
  8
06
100
AcDbLine
 10
245.1736909442853
 20
483.4690409160925
 30
0.0
 11
232.6736909443388
 21
483.4690774654836
 31
0.0
  0
LINE
  5
8D18
330
A
100
AcDbEntity
  8
06
100
AcDbLine
 10
228.1337160425064
 20
485.7694171812561
 30
0.0
 11
246.9336676598421
 21
485.7687684416348
 31
0.0
  0
LINE
  5
8D19
330
A
100
AcDbEntity
  8
CHUSIN
100
AcDbLine
 10
231.203971211734
 20
480.4687244006191
 30
0.0
 11
248.7503169912196
 21
480.4687243992033
 31
0.0
  0
LINE
  5
8D1A
330
A
100
AcDbEntity
  8
06
100
AcDbLine
 10
211.8735030736838
 20
486.4688201446337
 30
0.0
 11
225.1337201679624
 21
486.4685365264246
 31
0.0
  0
LINE
  5
8D1B
330
A
100
AcDbEntity
  8
02
100
AcDbLine
 10
211.8734996064782
 20
488.9682946557063
 30
0.0
 11
211.8735030736838
 21
486.4688201446337
 31
0.0
  0
LINE
  5
8D1C
330
A
100
AcDbEntity
  8
06
100
AcDbLine
 10
225.1337202294336
 20
485.4687054033077
 30
0.0
 11
228.1337118829791
 21
485.4685833332009
 31
0.0
  0
LINE
  5
8D1D
330
A
100
AcDbEntity
  8
06
100
AcDbLine
 10
225.1337201679624
 20
486.4685365264246
 30
0.0
 11
225.1337202294336
 21
485.4687054033077
 31
0.0
  0
LINE
  5
8D1E
330
A
100
AcDbEntity
  8
06
100
AcDbLine
 10
228.1337118829791
 20
485.4685833332009
 30
0.0
 11
228.1337160425064
 21
485.7694171812561
 31
0.0
  0
ARC
  5
8D1F
330
A
100
AcDbEntity
  8
06
100
AcDbCircle
 10
246.9336331496915
 20
484.7686920720356
 30
0.0
 40
1.000076370194728
100
AcDbArc
 50
0.0207633509177839
 51
89.99802286500194
  0
LINE
  5
8D22
330
A
100
AcDbEntity
  8
03
100
AcDbLine
 10
173.4336205615935
 20
361.4682963672718
 30
0.0
 11
193.4336186542448
 21
361.4682963672718
 31
0.0
  0
LINE
  5
8D83
330
A
100
AcDbEntity
  8
02
100
AcDbLine
 10
183.1989830060723
 20
485.7682996114907
 30
0.0
 11
211.8734996064784
 21
485.7682996114909
 31
0.0
  0
LINE
  5
8D84
330
A
100
AcDbEntity
  8
02
100
AcDbLine
 10
183.9445744268553
 20
488.9682946557063
 30
0.0
 11
211.8734996064782
 21
488.9682946557063
 31
0.0
  0
ARC
  5
8D85
330
A
100
AcDbEntity
  8
02
100
AcDbCircle
 10
183.9445624625735
 20
483.9682946557203
 30
0.0
 40
5.0
100
AcDbArc
 50
89.99986289943043
 51
135.0
  0
LINE
  5
8D86
330
A
100
AcDbEntity
  8
02
100
AcDbLine
 10
171.1374588383566
 20
478.2322588433692
 30
0.0
 11
180.4090285566408
 21
487.5038285616533
 31
0.0
  0
LINE
  5
8D87
330
A
100
AcDbEntity
  8
02
100
AcDbLine
 10
172.8729923746537
 20
475.4423089800723
 30
0.0
 11
183.1989830060723
 21
485.7682996114907
 31
0.0
  0
LINE
  5
8D88
330
A
100
AcDbEntity
  8
02
100
AcDbLine
 10
169.6729927442923
 20
474.6967194491085
 30
0.0
 11
169.6730451341308
 21
426.9683051056853
 31
0.0
  0
LINE
  5
8D89
330
A
100
AcDbEntity
  8
02
100
AcDbLine
 10
172.8730036800444
 20
426.9683051056853
 30
0.0
 11
172.8729923746537
 21
475.4423089800723
 31
0.0
  0
LINE
  5
8D8A
330
A
100
AcDbEntity
  8
02
100
AcDbLine
 10
169.6730451341308
 20
426.9683051056853
 30
0.0
 11
172.8730036800444
 21
426.9683051056853
 31
0.0
  0
ARC
  5
8D8B
330
A
100
AcDbEntity
  8
02
100
AcDbCircle
 10
174.6729927442894
 20
474.6967249374365
 30
0.0
 40
5.0
100
AcDbArc
 50
135.0
 51
180.0000628916047
  0
LINE
  5
8D8C
330
A
100
AcDbEntity
  8
02
100
AcDbLine
 10
185.1336219297655
 20
484.9682996114906
 30
0.0
 11
194.1336219297655
 21
484.9682996114906
 31
0.0
  0
LINE
  5
8D8D
330
A
100
AcDbEntity
  8
02
100
AcDbLine
 10
185.1336219297655
 20
485.7682996114907
 30
0.0
 11
194.1336219297655
 21
485.7682996114907
 31
0.0
  0
LINE
  5
8D8E
330
A
100
AcDbEntity
  8
02
100
AcDbLine
 10
185.1336219297655
 20
484.9682996114906
 30
0.0
 11
185.1336219297655
 21
485.7682996114907
 31
0.0
  0
LINE
  5
8D8F
330
A
100
AcDbEntity
  8
02
100
AcDbLine
 10
191.6336219297654
 20
483.9682996114906
 30
0.0
 11
187.6336219297653
 21
483.9682996114906
 31
0.0
  0
ARC
  5
8D90
330
A
100
AcDbEntity
  8
02
100
AcDbCircle
 10
189.6336219297655
 20
490.3682996114907
 30
0.0
 40
9.0
100
AcDbArc
 50
254.5339900465805
 51
285.4660099534192
  0
LINE
  5
8D91
330
A
100
AcDbEntity
  8
02
100
AcDbLine
 10
185.8336219297656
 20
483.9682996114906
 30
0.0
 11
193.4336219297655
 21
483.9682996114906
 31
0.0
  0
LINE
  5
8D92
330
A
100
AcDbEntity
  8
02
100
AcDbLine
 10
185.8336219297656
 20
484.9682996114906
 30
0.0
 11
193.4336219297655
 21
484.9682996114906
 31
0.0
  0
LINE
  5
8D93
330
A
100
AcDbEntity
  8
02
100
AcDbLine
 10
187.6336219297653
 20
483.9682996114906
 30
0.0
 11
186.1336219297655
 21
483.9682996114906
 31
0.0
  0
LINE
  5
8D94
330
A
100
AcDbEntity
  8
02
100
AcDbLine
 10
186.1336219297655
 20
483.9682996114906
 30
0.0
 11
186.1336219297655
 21
483.1398834640904
 31
0.0
  0
LINE
  5
8D95
330
A
100
AcDbEntity
  8
02
100
AcDbLine
 10
185.8336219297656
 20
483.9682996114906
 30
0.0
 11
185.8336219297656
 21
484.9682996114906
 31
0.0
  0
ARC
  5
8D96
330
A
100
AcDbEntity
  8
02
100
AcDbCircle
 10
187.6336219297653
 20
483.1398834640904
 30
0.0
 40
1.5
100
AcDbArc
 50
180.0
 51
254.5339900465805
  0
LINE
  5
8D97
330
A
100
AcDbEntity
  8
02
100
AcDbLine
 10
193.4336219297655
 20
483.9682996114906
 30
0.0
 11
193.4336219297655
 21
484.9682996114906
 31
0.0
  0
LINE
  5
8D98
330
A
100
AcDbEntity
  8
02
100
AcDbLine
 10
193.1336219297655
 20
483.1398834640904
 30
0.0
 11
193.1336219297655
 21
483.9682996114906
 31
0.0
  0
LINE
  5
8D99
330
A
100
AcDbEntity
  8
02
100
AcDbLine
 10
189.7675965259811
 20
483.9682996114906
 30
0.0
 11
189.4996473335499
 21
484.9682996114906
 31
0.0
  0
LINE
  5
8D9A
330
A
100
AcDbEntity
  8
02
100
AcDbLine
 10
189.6336219297655
 20
481.3682996114907
 30
0.0
 11
189.6336219297655
 21
482.7682996114908
 31
0.0
  0
ARC
  5
8D9B
330
A
100
AcDbEntity
  8
02
100
AcDbCircle
 10
191.6336219297654
 20
483.1398834640904
 30
0.0
 40
1.5
100
AcDbArc
 50
285.4660099534192
 51
0.0
  0
LINE
  5
8D9C
330
A
100
AcDbEntity
  8
02
100
AcDbLine
 10
193.1336219297655
 20
483.9682996114906
 30
0.0
 11
191.6336219297654
 21
483.9682996114906
 31
0.0
  0
LINE
  5
8D9D
330
A
100
AcDbEntity
  8
02
100
AcDbLine
 10
194.1336219297655
 20
484.9682996114906
 30
0.0
 11
194.1336219297655
 21
485.7682996114907
 31
0.0
  0
LINE
  5
8D9E
330
A
100
AcDbEntity
  8
02
100
AcDbLine
 10
187.6336219297653
 20
493.9682996114907
 30
0.0
 11
191.6336219297654
 21
493.9682996114907
 31
0.0
  0
LINE
  5
8D9F
330
A
100
AcDbEntity
  8
02
100
AcDbLine
 10
187.983621929766
 20
491.4682946557062
 30
0.0
 11
187.9836219297655
 21
493.9682996114907
 31
0.0
  0
LINE
  5
8DA0
330
A
100
AcDbEntity
  8
02
100
AcDbLine
 10
187.6336219297653
 20
491.4682946557062
 30
0.0
 11
187.6336219297653
 21
493.9682996114907
 31
0.0
  0
LINE
  5
8DA1
330
A
100
AcDbEntity
  8
02
100
AcDbLine
 10
191.2836219297651
 20
491.4682946557062
 30
0.0
 11
191.2836219297656
 21
493.9682996114907
 31
0.0
  0
LINE
  5
8DA2
330
A
100
AcDbEntity
  8
02
100
AcDbLine
 10
191.6336219297658
 20
491.4682946557062
 30
0.0
 11
191.6336219297654
 21
493.9682996114907
 31
0.0
  0
LINE
  5
8DA3
330
A
100
AcDbEntity
  8
02
100
AcDbLine
 10
211.8734996064782
 20
488.9682996114908
 30
0.0
 11
211.8734996064784
 21
485.7682996114909
 31
0.0
  0
LINE
  5
8DAC
330
A
100
AcDbEntity
  8
KAKURE
100
AcDbLine
 10
187.983597985393
 20
485.7682996114907
 30
0.0
 11
187.9835979853933
 21
491.4682946557062
 31
0.0
  0
LINE
  5
8DAD
330
A
100
AcDbEntity
  8
KAKURE
100
AcDbLine
 10
191.2835979853928
 20
485.7682996114907
 30
0.0
 11
191.2835979853931
 21
491.4682946557062
 31
0.0
  0
LINE
  5
8DAE
330
A
100
AcDbEntity
  8
KAKURE
100
AcDbLine
 10
187.6335979853929
 20
485.7682996114907
 30
0.0
 11
187.6335979853933
 21
491.4682946557062
 31
0.0
  0
LINE
  5
8DAF
330
A
100
AcDbEntity
  8
KAKURE
100
AcDbLine
 10
191.6335979853929
 20
485.7682996114907
 30
0.0
 11
191.6335979853927
 21
491.4682946557062
 31
0.0
  0
ARC
  5
8E09
330
A
100
AcDbEntity
  8
04
100
AcDbCircle
 10
211.4335687516323
 20
381.3680343516397
 30
0.0
 40
0.5
100
AcDbArc
 50
179.9998052742103
 51
280.5501310603983
  0
LINE
  5
8E0A
330
A
100
AcDbEntity
  8
04
100
AcDbLine
 10
210.9335687516351
 20
381.3680360509428
 30
0.0
 11
210.9335800829239
 21
411.6756027906927
 31
0.0
  0
ARC
  5
8E0B
330
A
100
AcDbEntity
  8
04
100
AcDbCircle
 10
224.4259554869457
 20
381.3682288297238
 30
0.0
 40
0.5
100
AcDbArc
 50
259.4202683207619
 51
359.970578441126
  0
ARC
  5
8E0C
330
A
100
AcDbEntity
  8
04
100
AcDbCircle
 10
217.933692030227
 20
346.4683475816933
 30
0.0
 40
35.0
100
AcDbArc
 50
79.44969052542379
 51
100.5504195723643
  0
LINE
  5
8E0D
330
A
100
AcDbEntity
  8
04
100
AcDbLine
 10
224.9259554210244
 20
381.3679720781986
 30
0.0
 11
224.9336472461346
 21
411.6756022818883
 31
0.0
  0
ARC
  5
8E0E
330
A
100
AcDbEntity
  8
04
100
AcDbCircle
 10
217.9337011184251
 20
446.4685206897156
 30
0.0
 40
35.0
100
AcDbArc
 50
259.4496110774829
 51
280.5503101203655
  0
ARC
  5
8E0F
330
A
100
AcDbEntity
  8
04
100
AcDbCircle
 10
224.4337095019452
 20
411.568690057637
 30
0.0
 40
0.5
100
AcDbArc
 50
0.0
 51
100.5503101203655
  0
ARC
  5
8E10
330
A
100
AcDbEntity
  8
04
100
AcDbCircle
 10
211.4336367112485
 20
411.5686640932286
 30
0.0
 40
0.5
100
AcDbArc
 50
79.44961107748291
 51
179.9999368636694
  0
TEXT
  5
8F15
330
A
100
AcDbEntity
  8
MOJI
100
AcDbText
 10
108.765
 20
89.70107673323996
 30
0.0
 40
6.0
  1
SOV-160KLDM
 41
0.8
  7
0_8
 11
108.765
 21
95.70107673323995
 31
0.0
100
AcDbText
 73
     3
  0
TEXT
  5
8F16
330
A
100
AcDbEntity
  8
MOJI
100
AcDbText
 10
108.765
 20
80.87607673323997
 30
0.0
 40
6.0
  1
SOV-200KLDM
 41
0.8
  7
0_8
 11
108.765
 21
86.87607673323997
 31
0.0
100
AcDbText
 73
     3
  0
TEXT
  5
8F17
330
A
100
AcDbEntity
  8
MOJI
100
AcDbText
 10
108.765
 20
72.05107673323997
 30
0.0
 40
6.0
  1
SOV-200KNB
 41
0.8
  7
0_8
 11
108.765
 21
78.05107673323997
 31
0.0
100
AcDbText
 73
     3
  0
TEXT
  5
8F18
330
A
100
AcDbEntity
  8
MOJI
100
AcDbText
 10
108.765
 20
107.3510767332398
 30
0.0
 40
6.0
  1
SOV-100KLDM
 41
0.8
  7
0_8
 11
108.765
 21
113.3510767332398
 31
0.0
100
AcDbText
 73
     3
  0
TEXT
  5
8F19
330
A
100
AcDbEntity
  8
MOJI
100
AcDbText
 10
108.765
 20
98.52607673323991
 30
0.0
 40
6.0
  1
SOV-150KLTM
 41
0.8
  7
0_8
 11
108.765
 21
104.5260767332399
 31
0.0
100
AcDbText
 73
     3
  0
TEXT
  5
8F1A
330
A
100
AcDbEntity
  8
MOJI
100
AcDbText
 10
108.765
 20
125.0260767332399
 30
0.0
 40
6.0
  1
SOV-60KLTM
 41
0.8
  7
0_8
 11
108.765
 21
131.0260767332399
 31
0.0
100
AcDbText
 73
     3
  0
TEXT
  5
8F1B
330
A
100
AcDbEntity
  8
MOJI
100
AcDbText
 10
130.7232204896155
 20
138.0681071041633
 30
0.0
 40
6.0
  1
使用機種
 41
0.8
  7
0_8
 11
130.7232204896155
 21
144.0681071041634
 31
0.0
100
AcDbText
 73
     3
  0
TEXT
  5
8F1C
330
A
100
AcDbEntity
  8
MOJI
100
AcDbText
 10
184.7582816256628
 20
143.1556287726356
 30
0.0
 40
6.0
  1
最大ドア質量（kg）
 41
0.8
  7
0_8
 11
184.7582816256628
 21
149.1556287726356
 31
0.0
100
AcDbText
 73
     3
  0
TEXT
  5
8F1D
330
A
100
AcDbEntity
  8
MOJI
100
AcDbText
 10
184.7582816256628
 20
134.3306287726358
 30
0.0
 40
6.0
  1
片引き
 41
0.8
  7
0_8
 11
184.7582816256628
 21
140.3306287726358
 31
0.0
100
AcDbText
 73
     3
  0
TEXT
  5
8F1E
330
A
100
AcDbEntity
  8
MOJI
100
AcDbText
 10
219.8080510112069
 20
134.3306287726358
 30
0.0
 40
6.0
  1
引分け
 41
0.8
  7
0_8
 11
219.8080510112069
 21
140.3306287726358
 31
0.0
100
AcDbText
 73
     3
  0
TEXT
  5
8F1F
330
A
100
AcDbEntity
  8
MOJI
100
AcDbText
 10
182.6122665520595
 20
125.0260767332399
 30
0.0
 40
6.0
  1
６５×１
 41
0.8
  7
0_8
 11
182.6122665520595
 21
131.0260767332399
 31
0.0
100
AcDbText
 73
     3
  0
TEXT
  5
8F20
330
A
100
AcDbEntity
  8
MOJI
100
AcDbText
 10
217.8276249999998
 20
125.0260767332399
 30
0.0
 40
6.0
  1
３０×２
 41
0.8
  7
0_8
 11
217.8276249999998
 21
131.0260767332399
 31
0.0
100
AcDbText
 73
     3
  0
TEXT
  5
8F21
330
A
100
AcDbEntity
  8
MOJI
100
AcDbText
 10
182.6122665520595
 20
107.3510767332398
 30
0.0
 40
6.0
  1
７５×１
 41
0.8
  7
0_8
 11
182.6122665520595
 21
113.3510767332398
 31
0.0
100
AcDbText
 73
     3
  0
TEXT
  5
8F22
330
A
100
AcDbEntity
  8
MOJI
100
AcDbText
 10
217.8276249999998
 20
107.3510767332398
 30
0.0
 40
6.0
  1
５０×２
 41
0.8
  7
0_8
 11
217.8276249999998
 21
113.3510767332398
 31
0.0
100
AcDbText
 73
     3
  0
TEXT
  5
8F23
330
A
100
AcDbEntity
  8
MOJI
100
AcDbText
 10
217.8276249999998
 20
98.52607673323991
 30
0.0
 40
6.0
  1
７５×２
 41
0.8
  7
0_8
 11
217.8276249999998
 21
104.5260767332399
 31
0.0
100
AcDbText
 73
     3
  0
TEXT
  5
8F24
330
A
100
AcDbEntity
  8
MOJI
100
AcDbText
 10
217.8276249999998
 20
89.70107673323996
 30
0.0
 40
6.0
  1
７５×２
 41
0.8
  7
0_8
 11
217.8276249999998
 21
95.70107673323995
 31
0.0
100
AcDbText
 73
     3
  0
TEXT
  5
8F25
330
A
100
AcDbEntity
  8
MOJI
100
AcDbText
 10
217.8276249999998
 20
80.87607673323997
 30
0.0
 40
6.0
  1
７５×２
 41
0.8
  7
0_8
 11
217.8276249999998
 21
86.87607673323997
 31
0.0
100
AcDbText
 73
     3
  0
TEXT
  5
8F26
330
A
100
AcDbEntity
  8
MOJI
100
AcDbText
 10
217.8276249999998
 20
72.05107673323997
 30
0.0
 40
6.0
  1
７５×２
 41
0.8
  7
0_8
 11
217.8276249999998
 21
78.05107673323997
 31
0.0
100
AcDbText
 73
     3
  0
TEXT
  5
8F27
330
A
100
AcDbEntity
  8
MOJI
100
AcDbText
 10
182.6122665520595
 20
98.52607673323991
 30
0.0
 40
6.0
  1
７５×１
 41
0.8
  7
0_8
 11
182.6122665520595
 21
104.5260767332399
 31
0.0
100
AcDbText
 73
     3
  0
TEXT
  5
8F28
330
A
100
AcDbEntity
  8
MOJI
100
AcDbText
 10
182.6122665520595
 20
89.70107673323996
 30
0.0
 40
6.0
  1
７５×１
 41
0.8
  7
0_8
 11
182.6122665520595
 21
95.70107673323995
 31
0.0
100
AcDbText
 73
     3
  0
TEXT
  5
8F29
330
A
100
AcDbEntity
  8
MOJI
100
AcDbText
 10
182.6122665520595
 20
80.87607673323997
 30
0.0
 40
6.0
  1
７５×１
 41
0.8
  7
0_8
 11
182.6122665520595
 21
86.87607673323997
 31
0.0
100
AcDbText
 73
     3
  0
TEXT
  5
8F2A
330
A
100
AcDbEntity
  8
MOJI
100
AcDbText
 10
182.6122665520595
 20
72.05107673323997
 30
0.0
 40
6.0
  1
７５×１
 41
0.8
  7
0_8
 11
182.6122665520595
 21
78.05107673323997
 31
0.0
100
AcDbText
 73
     3
  0
TEXT
  5
8F2B
330
A
100
AcDbEntity
  8
MOJI
100
AcDbText
 10
271.9465600945531
 20
143.1556287726356
 30
0.0
 40
6.0
  1
伝達機構
 41
0.8
  7
0_8
 11
271.9465600945531
 21
149.1556287726356
 31
0.0
100
AcDbText
 73
     3
  0
TEXT
  5
8F2C
330
A
100
AcDbEntity
  8
MOJI
100
AcDbText
 10
252.3775
 20
134.3306287726358
 30
0.0
 40
6.0
  1
Ｖベルト
 41
0.8
  7
0_8
 11
252.3775
 21
140.3306287726358
 31
0.0
100
AcDbText
 73
     3
  0
TEXT
  5
8F2D
330
A
100
AcDbEntity
  8
MOJI
100
AcDbText
 10
283.7439108577863
 20
134.3306287726358
 30
0.0
 40
6.0
  1
歯付きベルト
 41
0.75
  7
0_8
 11
283.7439108577863
 21
140.3306287726358
 31
0.0
100
AcDbText
 73
     3
  0
POLYLINE
  5
8F3D
330
A
100
AcDbEntity
  8
SAISEN
100
AcDb2dPolyline
 66
     1
 10
0.0
 20
0.0
 30
0.0
 70
     1
  0
VERTEX
  5
90F2
330
8F3D
100
AcDbEntity
  8
SAISEN
100
AcDbVertex
100
AcDb2dVertex
 10
105.0
 20
70.38812877263584
 30
0.0
  0
VERTEX
  5
90F3
330
8F3D
100
AcDbEntity
  8
SAISEN
100
AcDbVertex
100
AcDb2dVertex
 10
315.0
 20
70.38812877263584
 30
0.0
  0
VERTEX
  5
90F4
330
8F3D
100
AcDbEntity
  8
SAISEN
100
AcDbVertex
100
AcDb2dVertex
 10
315.0
 20
150.0381287726358
 30
0.0
  0
VERTEX
  5
90F5
330
8F3D
100
AcDbEntity
  8
SAISEN
100
AcDbVertex
100
AcDb2dVertex
 10
105.0
 20
150.0381287726358
 30
0.0
  0
SEQEND
  5
90F6
330
8F3D
100
AcDbEntity
  8
SAISEN
  0
LINE
  5
8F3E
330
A
100
AcDbEntity
  8
SAISEN
100
AcDbLine
 10
105.0
 20
132.3381287726357
 30
0.0
 11
315.0
 21
132.3381287726357
 31
0.0
  0
LINE
  5
8F3F
330
A
100
AcDbEntity
  8
SAISEN
100
AcDbLine
 10
105.0
 20
114.6381287726358
 30
0.0
 11
315.0
 21
114.6381287726358
 31
0.0
  0
LINE
  5
8F40
330
A
100
AcDbEntity
  8
SAISEN
100
AcDbLine
 10
105.0
 20
105.7881287726357
 30
0.0
 11
315.0
 21
105.7881287726357
 31
0.0
  0
LINE
  5
8F41
330
A
100
AcDbEntity
  8
SAISEN
100
AcDbLine
 10
105.0
 20
96.93812877263583
 30
0.0
 11
315.0
 21
96.93812877263583
 31
0.0
  0
LINE
  5
8F42
330
A
100
AcDbEntity
  8
SAISEN
100
AcDbLine
 10
105.0
 20
88.08812877263584
 30
0.0
 11
315.0
 21
88.08812877263584
 31
0.0
  0
LINE
  5
8F43
330
A
100
AcDbEntity
  8
SAISEN
100
AcDbLine
 10
105.0
 20
79.23812877263586
 30
0.0
 11
315.0
 21
79.23812877263586
 31
0.0
  0
LINE
  5
8F44
330
A
100
AcDbEntity
  8
SAISEN
100
AcDbLine
 10
175.0
 20
150.0381287726358
 30
0.0
 11
175.0
 21
70.38812877263584
 31
0.0
  0
LINE
  5
8F45
330
A
100
AcDbEntity
  8
SAISEN
100
AcDbLine
 10
175.0
 20
141.1881287726358
 30
0.0
 11
315.0
 21
141.1881287726358
 31
0.0
  0
LINE
  5
8F46
330
A
100
AcDbEntity
  8
SAISEN
100
AcDbLine
 10
209.9999999999999
 20
141.1881287726358
 30
0.0
 11
209.9999999999999
 21
70.38812877263584
 31
0.0
  0
LINE
  5
8F47
330
A
100
AcDbEntity
  8
SAISEN
100
AcDbLine
 10
244.9999999999999
 20
70.38812877263584
 30
0.0
 11
244.9999999999999
 21
150.0381287726358
 31
0.0
  0
LINE
  5
8F48
330
A
100
AcDbEntity
  8
SAISEN
100
AcDbLine
 10
280.0
 20
70.38812877263584
 30
0.0
 11
280.0
 21
141.1881287726358
 31
0.0
  0
LINE
  5
8F49
330
A
100
AcDbEntity
  8
SAISEN
100
AcDbLine
 10
244.9999999999999
 20
70.38812877263584
 30
0.0
 11
280.0
 21
79.23812877263586
 31
0.0
  0
TEXT
  5
8F4C
330
A
100
AcDbEntity
  8
MOJI
100
AcDbText
 10
316.85
 20
98.9381287726357
 30
0.0
 40
7.0
  1
☆本図
 41
0.8
  7
0_8
 11
316.85
 21
105.9381287726357
 31
0.0
100
AcDbText
 73
     3
  0
LINE
  5
8F4D
330
A
100
AcDbEntity
  8
SAISEN
100
AcDbLine
 10
105.0
 20
123.4881287726357
 30
0.0
 11
315.0
 21
123.4881287726357
 31
0.0
  0
TEXT
  5
8F4E
330
A
100
AcDbEntity
  8
MOJI
100
AcDbText
 10
108.765
 20
116.2010767332398
 30
0.0
 40
6.0
  1
SOV-70KLDM
 41
0.8
  7
0_8
 11
108.765
 21
122.2010767332398
 31
0.0
100
AcDbText
 73
     3
  0
TEXT
  5
8F4F
330
A
100
AcDbEntity
  8
MOJI
100
AcDbText
 10
182.6122665520595
 20
116.2010767332398
 30
0.0
 40
6.0
  1
７０×１
 41
0.8
  7
0_8
 11
182.6122665520595
 21
122.2010767332398
 31
0.0
100
AcDbText
 73
     3
  0
TEXT
  5
8F50
330
A
100
AcDbEntity
  8
MOJI
100
AcDbText
 10
217.8276249999998
 20
116.2010767332398
 30
0.0
 40
6.0
  1
３５×２
 41
0.8
  7
0_8
 11
217.8276249999998
 21
122.2010767332398
 31
0.0
100
AcDbText
 73
     3
  0
CIRCLE
  5
8F83
330
A
100
AcDbEntity
  8
SAISEN
100
AcDbCircle
 10
262.0479553410319
 20
127.4119316524185
 30
0.0
 40
2.647499999999999
  0
CIRCLE
  5
8F84
330
A
100
AcDbEntity
  8
SAISEN
100
AcDbCircle
 10
262.0479553410319
 20
127.4119316524185
 30
0.0
 40
1.764999999999997
  0
CIRCLE
  5
8F85
330
A
100
AcDbEntity
  8
SAISEN
100
AcDbCircle
 10
297.3479553410318
 20
127.4119316524185
 30
0.0
 40
2.647499999999999
  0
CIRCLE
  5
8F86
330
A
100
AcDbEntity
  8
SAISEN
100
AcDbCircle
 10
297.0479553410318
 20
74.41193165241853
 30
0.0
 40
2.647499999999999
  0
CIRCLE
  5
8F87
330
A
100
AcDbEntity
  8
SAISEN
100
AcDbCircle
 10
297.0479553410318
 20
74.41193165241853
 30
0.0
 40
1.764999999999997
  0
CIRCLE
  5
8F88
330
A
100
AcDbEntity
  8
SAISEN
100
AcDbCircle
 10
262.0479553410319
 20
83.26193165241852
 30
0.0
 40
1.764999999999997
  0
CIRCLE
  5
8F89
330
A
100
AcDbEntity
  8
SAISEN
100
AcDbCircle
 10
262.0479553410319
 20
92.08693165241852
 30
0.0
 40
1.764999999999997
  0
CIRCLE
  5
8F8A
330
A
100
AcDbEntity
  8
SAISEN
100
AcDbCircle
 10
262.0479553410319
 20
100.9119316524184
 30
0.0
 40
1.764999999999997
  0
CIRCLE
  5
8F8B
330
A
100
AcDbEntity
  8
SAISEN
100
AcDbCircle
 10
262.0479553410319
 20
109.7369316524185
 30
0.0
 40
1.764999999999997
  0
CIRCLE
  5
8F8C
330
A
100
AcDbEntity
  8
SAISEN
100
AcDbCircle
 10
262.0479553410319
 20
118.5619316524185
 30
0.0
 40
1.764999999999997
  0
CIRCLE
  5
8F8D
330
A
100
AcDbEntity
  8
SAISEN
100
AcDbCircle
 10
297.3479553410318
 20
118.5619316524185
 30
0.0
 40
2.647499999999999
  0
CIRCLE
  5
8F8E
330
A
100
AcDbEntity
  8
SAISEN
100
AcDbCircle
 10
297.3479553410318
 20
109.7369316524185
 30
0.0
 40
2.647499999999999
  0
CIRCLE
  5
8F8F
330
A
100
AcDbEntity
  8
SAISEN
100
AcDbCircle
 10
297.3479553410318
 20
100.9119316524184
 30
0.0
 40
2.647499999999999
  0
CIRCLE
  5
8F90
330
A
100
AcDbEntity
  8
SAISEN
100
AcDbCircle
 10
297.3479553410318
 20
92.08693165241852
 30
0.0
 40
2.647499999999999
  0
CIRCLE
  5
8F91
330
A
100
AcDbEntity
  8
SAISEN
100
AcDbCircle
 10
297.3479553410318
 20
83.26193165241852
 30
0.0
 40
2.647499999999999
  0
CIRCLE
  5
8F92
330
A
100
AcDbEntity
  8
SAISEN
100
AcDbCircle
 10
262.0479553410319
 20
83.26193165241852
 30
0.0
 40
2.647499999999999
  0
CIRCLE
  5
8F93
330
A
100
AcDbEntity
  8
SAISEN
100
AcDbCircle
 10
262.0479553410319
 20
92.08693165241852
 30
0.0
 40
2.647499999999999
  0
CIRCLE
  5
8F94
330
A
100
AcDbEntity
  8
SAISEN
100
AcDbCircle
 10
262.0479553410319
 20
100.9119316524184
 30
0.0
 40
2.647499999999999
  0
CIRCLE
  5
8F95
330
A
100
AcDbEntity
  8
SAISEN
100
AcDbCircle
 10
262.0479553410319
 20
109.7369316524185
 30
0.0
 40
2.647499999999999
  0
CIRCLE
  5
8F96
330
A
100
AcDbEntity
  8
SAISEN
100
AcDbCircle
 10
262.0479553410319
 20
118.5619316524185
 30
0.0
 40
2.647499999999999
  0
LINE
  5
8FBC
330
A
100
AcDbEntity
  8
04
100
AcDbLine
 10
214.9336682437954
 20
360.468388201435
 30
0.0
 11
216.4336265707905
 21
360.4683869809159
 31
0.0
  0
MTEXT
  5
8FDB
102
{ACAD_REACTORS
330
8FDC
102
}
330
A
100
AcDbEntity
  8
HIKIDASI
100
AcDbMText
 10
139.1784290957019
 20
387.2876198799414
 30
0.0
 40
5.0
 41
0.0
 71
     9
 72
     1
  1
方立部φ12穴加工\P（サッシ工事）
  7
SUNPOU
1001
ACAD
1000
MTEXTBEGIN
1070
    73
1070
     1
1070
    44
1040
1.0
1070
    74
1070
     0
1000
MTEXTEND
1000
MTEXTBEGIN
1070
    73
1070
     1
1070
    44
1040
1.0
1070
    74
1070
     0
1000
MTEXTEND
  0
LEADER
  5
8FDC
330
A
100
AcDbEntity
  8
HIKIDASI
100
AcDbLeader
  3
SUNPOU_2
 73
     0
 75
     1
 40
13.33333333333333
 41
38.93333333333333
 76
     3
 10
178.866081680466
 20
360.6878095031057
 30
0.0
 10
146.178429095702
 20
393.3754620878697
 30
0.0
 10
141.178429095702
 20
393.3754620878697
 30
0.0
213
0.0
223
8.087842207928133
233
0.0
1001
ACAD
1000
DSTYLE
1002
{
1070
     5
1000
OPEN30
1070
    77
1070
     1
1070
   147
1040
1.0
1070
   342
1005
60B
1002
}
1000
LEANOF
1010
0.0
1020
8.087842207928133
1030
0.0
1000
LEANOF
1010
0.0
1020
8.087842207928133
1030
0.0
1000
LEANOF
1010
0.0
1020
8.087842207928133
1030
0.0
  0
INSERT
  5
8FDD
330
A
100
AcDbEntity
  8
06
  6
CONTINUOUS
100
AcDbBlockReference
  2
*X17
 10
0.0
 20
0.0
 30
0.0
1001
ACAD
1000
HATCH
1002
{
1070
    19
1000
ANSI31
1040
15.0
1040
0.0
1000
R14_HATCH_DATA
1000
8FDD
1011
1.0
1021
0.0
1031
0.0
1011
0.0
1021
1.0
1031
0.0
1011
0.0
1021
0.0
1031
1.0
1040
0.0
1010
0.0
1020
0.0
1030
1.0
1000
ANSI31
1070
     0
1070
     0
1071
        4
1071
        7
1070
     1
1070
     1
1071
        6
1040
188.866081680466
1040
368.3570613919671
1040
0.0
1040
178.866081680466
1040
368.3570613919673
1040
0.0
1040
178.866081680466
1040
361.3570582729503
1040
0.0
1040
182.1080500889679
1040
361.3570582729503
1040
-0.0010178642420753
1040
182.1243358999681
1040
361.3570582729503
1040
0.0
1040
188.866081680466
1040
361.3570582729502
1040
0.0
1071
        0
1071
        7
1070
     1
1070
     1
1071
        3
1040
182.1080500889704
1040
361.3570582729503
1040
0.0
1040
178.8660816804658
1040
361.3570582729506
1040
0.0
1040
178.8660816804658
1040
359.6887561732908
1040
-0.2411266127170011
1071
        0
1071
        7
1070
     1
1070
     1
1071
       12
1040
188.8660816804659
1040
361.3570582729502
1040
0.0
1040
182.1080500889616
1040
361.3570582729502
1040
0.2411266127164208
1040
178.866081680466
1040
359.6887561732908
1040
0.0
1040
178.866081680466
1040
344.3570665613226
1040
0.0
1040
180.1161929944735
1040
344.3570665613226
1040
0.0
1040
180.1161929944736
1040
345.8570665613227
1040
0.0
1040
183.1161929944736
1040
345.8570665613227
1040
0.0
1040
183.1161929944736
1040
347.8570665613227
1040
0.0
1040
183.1161929944736
1040
352.3570665613227
1040
-1.0
1040
184.1161929944736
1040
352.3570665613227
1040
0.0
1040
184.1161929944736
1040
345.8570665613227
1040
0.0
1040
188.866081680466
1040
345.8570665613227
1040
0.0
1071
        0
1071
       23
1070
     1
1070
     1
1071
        9
1040
188.866081680466
1040
345.8570665613227
1040
0.0
1040
184.1161929944736
1040
345.8570665613227
1040
0.0
1040
184.1161929944736
1040
352.3570665613227
1040
1.0
1040
183.1161929944736
1040
352.3570665613227
1040
0.0
1040
183.1161929944736
1040
347.8570665613227
1040
0.0
1040
183.1161929944736
1040
345.8570665613227
1040
0.0
1040
180.1161929944735
1040
345.8570665613227
1040
0.0
1040
180.1161929944735
1040
344.3570665613226
1040
0.0
1040
188.866081680466
1040
344.3570665613226
1040
0.0
1071
        0
1070
     0
1070
     1
1040
0.0
1040
15.0
1070
     0
1070
     1
1040
0.7853981633974483
1040
8.682572432879936
1040
4.888770194050947
1040
-1.325825214724774
1040
1.325825214724774
1070
     0
1040
0.0528938400161578
1071
        4
1040
185.4699053885122
1040
363.9990649632061
1040
0.0
1040
179.8077315746279
1040
360.9841151348059
1040
0.0
1040
180.2839885704473
1040
359.6617697864305
1040
0.0
1040
183.5119581342465
1040
345.1159626562187
1040
0.0
1002
}
  0
LINE
  5
8FDE
330
A
100
AcDbEntity
  8
KAKURE
100
AcDbLine
 10
188.866081680466
 20
368.357147634942
 30
0.0
 11
188.866081680466
 21
344.3570665613226
 31
0.0
  0
LINE
  5
8FDF
330
A
100
AcDbEntity
  8
KAKURE
100
AcDbLine
 10
178.866081680466
 20
368.3570613919671
 30
0.0
 11
178.866081680466
 21
344.3570665613226
 31
0.0
  0
MTEXT
  5
9094
330
A
100
AcDbEntity
  8
MOJI
100
AcDbMText
 10
255.0
 20
29.00000000000005
 30
0.0
 40
7.0
 41
60.0
 71
     5
 72
     1
  1
片引き又は両引き
  7
0_80
1001
ACAD
1000
MTEXTBEGIN
1070
    73
1070
     1
1070
    44
1040
1.0
1070
    74
1070
     0
1000
MTEXTEND
1000
MTEXTBEGIN
1070
    73
1070
     1
1070
    44
1040
1.0
1070
    74
1070
     0
1000
MTEXTEND
  0
MTEXT
  5
9095
330
A
100
AcDbEntity
  8
MOJI
100
AcDbMText
 10
359.9999999999971
 20
29.00000000000005
 30
0.0
 40
7.0
 41
49.99999999999994
 71
     5
 72
     1
  1
たて断面図　
  7
0_80
1001
ACAD
1000
MTEXTBEGIN
1070
    73
1070
     1
1070
    44
1040
1.0
1070
    74
1070
     0
1000
MTEXTEND
1000
MTEXTBEGIN
1070
    73
1070
     1
1070
    44
1040
1.0
1070
    74
1070
     0
1000
MTEXTEND
  0
MTEXT
  5
9096
330
A
100
AcDbEntity
  8
MOJI
100
AcDbMText
 10
309.999999999997
 20
29.00000000000005
 30
0.0
 40
7.0
 41
50.0
 71
     5
 72
     1
  1
図番１－４
  7
0_80
1001
ACAD
1000
MTEXTBEGIN
1070
    73
1070
     1
1070
    44
1040
1.0
1070
    74
1070
     0
1000
MTEXTEND
1000
MTEXTBEGIN
1070
    73
1070
     1
1070
    44
1040
1.0
1070
    74
1070
     0
1000
MTEXTEND
  0
POLYLINE
  5
9097
330
A
100
AcDbEntity
  8
SAISEN
100
AcDb2dPolyline
 66
     1
 10
0.0
 20
0.0
 30
0.0
 70
     1
  0
VERTEX
  5
90F7
330
9097
100
AcDbEntity
  8
SAISEN
100
AcDbVertex
100
AcDb2dVertex
 10
34.99999999999707
 20
17.0
 30
0.0
  0
VERTEX
  5
90F8
330
9097
100
AcDbEntity
  8
SAISEN
100
AcDbVertex
100
AcDb2dVertex
 10
384.999999999997
 20
17.0
 30
0.0
  0
VERTEX
  5
90F9
330
9097
100
AcDbEntity
  8
SAISEN
100
AcDbVertex
100
AcDb2dVertex
 10
384.999999999997
 20
42.00000000000017
 30
0.0
  0
VERTEX
  5
90FA
330
9097
100
AcDbEntity
  8
SAISEN
100
AcDbVertex
100
AcDb2dVertex
 10
34.99999999999707
 20
42.00000000000017
 30
0.0
  0
SEQEND
  5
90FB
330
9097
100
AcDbEntity
  8
SAISEN
  0
MTEXT
  5
9098
330
A
100
AcDbEntity
  8
MOJI
100
AcDbMText
 10
184.9999999999969
 20
29.50000000000006
 30
0.0
 40
7.0
 41
80.0
 71
     5
 72
     1
  1
Ｍ３台板
  7
0_8
1001
ACAD
1000
MTEXTBEGIN
1070
    73
1070
     1
1070
    44
1040
1.0
1070
    74
1070
     0
1000
MTEXTEND
1000
MTEXTBEGIN
1070
    73
1070
     1
1070
    44
1040
1.0
1070
    74
1070
     0
1000
MTEXTEND
  0
MTEXT
  5
9099
330
A
100
AcDbEntity
  8
MOJI
100
AcDbMText
 10
89.99999999999706
 20
29.50000000000006
 30
0.0
 40
7.0
 41
110.0
 71
     5
 72
     1
  1
アルミフロント１００ｍｍ納り
  7
0_8
1001
ACAD
1000
MTEXTBEGIN
1070
    73
1070
     1
1070
    44
1040
1.0
1070
    74
1070
     0
1000
MTEXTEND
1000
MTEXTBEGIN
1070
    73
1070
     1
1070
    44
1040
1.0
1070
    74
1070
     0
1000
MTEXTEND
  0
LINE
  5
909A
330
A
100
AcDbEntity
  8
SAISEN
100
AcDbLine
 10
284.9999999999968
 20
42.00000000000017
 30
0.0
 11
284.9999999999968
 21
17.0
 31
0.0
  0
LINE
  5
909B
330
A
100
AcDbEntity
  8
SAISEN
100
AcDbLine
 10
224.9999999999968
 20
42.00000000000017
 30
0.0
 11
224.9999999999968
 21
17.0
 31
0.0
  0
LINE
  5
909C
330
A
100
AcDbEntity
  8
SAISEN
100
AcDbLine
 10
144.999999999997
 20
42.00000000000017
 30
0.0
 11
144.999999999997
 21
17.0
 31
0.0
  0
VIEWPORT
  5
7F48
102
{ACAD_XDICTIONARY
360
90CE
102
}
330
B
100
AcDbEntity
 67
     1
  8
0
100
AcDbViewport
 10
197.1643869653487
 20
283.8990142956467
 30
0.0
 40
1030.501132090283
 41
600.4757948072026
 68
     1
 69
     1
1001
ACAD
1000
MVIEW
1002
{
1070
    16
1010
0.0
1020
0.0
1030
0.0
1010
0.0
1020
0.0
1030
1.0
1040
0.0
1040
600.4757948072026
1040
197.1643869653487
1040
283.8990142956467
1040
50.0
1040
0.0
1040
0.0
1070
     0
1070
   100
1070
     1
1070
     1
1070
     0
1070
     0
1070
     0
1070
     0
1040
0.0
1040
0.0
1040
0.0
1040
10.0
1040
10.0
1040
10.0
1040
10.0
1070
     0
1002
{
1002
}
1002
}
  0
VIEWPORT
  5
90B6
102
{ACAD_XDICTIONARY
360
90D4
102
}
330
B
100
AcDbEntity
 67
     1
  8
DEFPOINTS
100
AcDbViewport
 10
197.1643879190635
 20
283.899013341932
 30
0.0
 40
396.4684615431749
 41
570.3811706726329
 68
     2
 69
     2
1001
ACAD
1000
MVIEW
1002
{
1070
    16
1010
0.0
1020
0.0
1030
0.0
1010
0.0
1020
0.0
1030
1.0
1040
0.0
1040
570.3811706726329
1040
210.0
1040
297.0
1040
50.0
1040
0.0
1040
0.0
1070
     0
1070
   100
1070
     1
1070
     1
1070
     0
1070
     0
1070
     0
1070
     0
1040
0.0
1040
0.0
1040
0.0
1040
1.0
1040
1.0
1040
0.0
1040
0.0
1070
     0
1002
{
1002
}
1002
}
  0
ENDSEC
  0
SECTION
  2
OBJECTS
  0
DICTIONARY
  5
19
330
0
100
AcDbDictionary
  3
ACAD_COLOR
350
591
  3
ACAD_GROUP
350
1A
  3
ACAD_LAYOUT
350
592
  3
ACAD_MATERIAL
350
590
  3
ACAD_MLINESTYLE
350
1B
  3
ACAD_PLOTSETTINGS
350
593
  3
ACADDIM
350
B74
  3
ASE_INDEX_DICTIONARY
350
909D
  3
DWGPROPS
350
90CA
1001
ACAD
1000
TREAT_AS_HARD
1070
     0
1000
TREAT_AS_HARD
1070
     0
1000
TREAT_AS_HARD
1070
     0
  0
DICTIONARY
  5
9084
330
2
100
AcDbDictionary
  3
ACAD_LAYERSTATES
350
9085
1001
ACAD
1000
TREAT_AS_HARD
1070
     1
  0
DICTIONARY
  5
8FF3
330
A
100
AcDbDictionary
  3
ACAD_LAYOUTSELFREF
350
90DC
1001
ACAD
1000
TREAT_AS_HARD
1070
     0
1000
TREAT_AS_HARD
1070
     1
  0
DICTIONARY
  5
8FF5
330
B
100
AcDbDictionary
  3
ACAD_LAYOUTSELFREF
350
90DD
1001
ACAD
1000
TREAT_AS_HARD
1070
     0
1000
TREAT_AS_HARD
1070
     1
  0
DICTIONARY
  5
90CE
330
7F48
100
AcDbDictionary
  3
ACAD_XREC_ROUNDTRIP
350
90CF
1001
ACAD
1000
TREAT_AS_HARD
1070
     1
  0
DICTIONARY
  5
90D4
330
90B6
100
AcDbDictionary
  3
ACAD_XREC_ROUNDTRIP
350
90D5
1001
ACAD
1000
TREAT_AS_HARD
1070
     1
  0
DICTIONARY
  5
591
102
{ACAD_REACTORS
330
19
102
}
330
19
100
AcDbDictionary
1001
ACAD
1000
TREAT_AS_HARD
1070
     0
1000
TREAT_AS_HARD
1070
     0
1000
TREAT_AS_HARD
1070
     0
  0
DICTIONARY
  5
1A
102
{ACAD_REACTORS
330
19
102
}
330
19
100
AcDbDictionary
  3
*A1
350
8B31
  3
DAGROUP1FD
350
1FD
  3
DAGROUP203
350
203
  3
DAGROUP209
350
209
  3
DAGROUP20F
350
20F
  3
DAGROUP215
350
215
  3
DAGROUP21B
350
21B
  3
DAGROUP221
350
221
  3
DAGROUP225
350
225
  3
DAGROUP229
350
229
  3
DAGROUP22D
350
22D
  3
DAGROUP231
350
231
1001
ACAD
1000
TREAT_AS_HARD
1070
     0
1000
TREAT_AS_HARD
1070
     0
1000
TREAT_AS_HARD
1070
     0
  0
DICTIONARY
  5
592
102
{ACAD_REACTORS
330
19
102
}
330
19
100
AcDbDictionary
1001
ACAD
1000
TREAT_AS_HARD
1070
     0
1000
TREAT_AS_HARD
1070
     0
1000
TREAT_AS_HARD
1070
     0
  0
DICTIONARY
  5
590
102
{ACAD_REACTORS
330
19
102
}
330
19
100
AcDbDictionary
1001
ACAD
1000
TREAT_AS_HARD
1070
     0
1000
TREAT_AS_HARD
1070
     0
1000
TREAT_AS_HARD
1070
     0
  0
DICTIONARY
  5
1B
102
{ACAD_REACTORS
330
19
102
}
330
19
100
AcDbDictionary
  3
STANDARD
350
1C
1001
ACAD
1000
TREAT_AS_HARD
1070
     0
1000
TREAT_AS_HARD
1070
     0
1000
TREAT_AS_HARD
1070
     0
  0
DICTIONARY
  5
593
102
{ACAD_REACTORS
330
19
102
}
330
19
100
AcDbDictionary
1001
ACAD
1000
TREAT_AS_HARD
1070
     0
1000
TREAT_AS_HARD
1070
     0
1000
TREAT_AS_HARD
1070
     0
  0
XRECORD
  5
B74
102
{ACAD_REACTORS
330
19
102
}
330
19
100
AcDbXrecord
 90
   990106
  3

 60
     0
 61
     0
 62
     4
 63
     4
 64
     1
 65
     0
 66
     0
 67
     3
 68
     1
 69
     0
 70
     0
 71
     0
 72
     0
 40
0.0
170
     2
340
B80
  0
DICTIONARY
  5
909D
102
{ACAD_REACTORS
330
19
102
}
330
19
100
AcDbDictionary
  3
ASEBLOCKHIERARCHYINDEXRECORD
350
909E
1001
DCO15
1040
1508667262.328
1001
ACAD
1000
TREAT_AS_HARD
1070
     0
  0
XRECORD
  5
90CA
102
{ACAD_REACTORS
330
19
102
}
330
19
100
AcDbXrecord
  1
DWGPROPS COOKIE
  2

  3

  4

  6

  7

  8
watanabe
  9

300
=
301
=
302
=
303
=
304
=
305
=
306
=
307
=
308
=
309
=
 40
1.042062002314814
 41
2444972.375
 42
2453265.754020544
  1

 90
        0
  0
DICTIONARY
  5
9085
102
{ACAD_REACTORS
330
9084
102
}
330
9084
100
AcDbDictionary
1001
ACAD
1000
TREAT_AS_HARD
1070
     0
  0
XRECORD
  5
90DC
102
{ACAD_REACTORS
330
8FF3
102
}
330
8FF3
100
AcDbXrecord
340
A
  0
XRECORD
  5
90DD
102
{ACAD_REACTORS
330
8FF5
102
}
330
8FF5
100
AcDbXrecord
340
B
  0
XRECORD
  5
90CF
102
{ACAD_REACTORS
330
90CE
102
}
330
90CE
100
AcDbXrecord
102
SHADEPLOT
 70
     0
  0
XRECORD
  5
90D5
102
{ACAD_REACTORS
330
90D4
102
}
330
90D4
100
AcDbXrecord
102
SHADEPLOT
 70
     0
  0
GROUP
  5
8B31
102
{ACAD_REACTORS
330
1A
102
}
330
1A
100
AcDbGroup
300

 70
     0
 71
     1
  0
GROUP
  5
1FD
102
{ACAD_REACTORS
330
1A
102
}
330
1A
100
AcDbGroup
300

 70
     0
 71
     1
  0
GROUP
  5
203
102
{ACAD_REACTORS
330
1A
102
}
330
1A
100
AcDbGroup
300

 70
     0
 71
     1
  0
GROUP
  5
209
102
{ACAD_REACTORS
330
1A
102
}
330
1A
100
AcDbGroup
300

 70
     0
 71
     1
  0
GROUP
  5
20F
102
{ACAD_REACTORS
330
1A
102
}
330
1A
100
AcDbGroup
300

 70
     0
 71
     1
  0
GROUP
  5
215
102
{ACAD_REACTORS
330
1A
102
}
330
1A
100
AcDbGroup
300

 70
     0
 71
     1
  0
GROUP
  5
21B
102
{ACAD_REACTORS
330
1A
102
}
330
1A
100
AcDbGroup
300

 70
     0
 71
     1
  0
GROUP
  5
221
102
{ACAD_REACTORS
330
1A
102
}
330
1A
100
AcDbGroup
300

 70
     0
 71
     1
  0
GROUP
  5
225
102
{ACAD_REACTORS
330
1A
102
}
330
1A
100
AcDbGroup
300

 70
     0
 71
     1
  0
GROUP
  5
229
102
{ACAD_REACTORS
330
1A
102
}
330
1A
100
AcDbGroup
300

 70
     0
 71
     1
  0
GROUP
  5
22D
102
{ACAD_REACTORS
330
1A
102
}
330
1A
100
AcDbGroup
300

 70
     0
 71
     1
  0
GROUP
  5
231
102
{ACAD_REACTORS
330
1A
102
}
330
1A
100
AcDbGroup
300

 70
     0
 71
     1
  0
MLINESTYLE
  5
1C
102
{ACAD_REACTORS
330
1B
102
}
330
1B
100
AcDbMlineStyle
  2
STANDARD
 70
     0
  3

 62
     0
 51
90.00000000000019
 52
90.00000000000019
 71
     2
 49
0.5
 62
   256
  6
BYLAYER
 49
-0.5
 62
   256
  6
BYLAYER
  0
XRECORD
  5
909E
102
{ACAD_REACTORS
330
909D
102
}
330
909D
100
AcDbXrecord
330
7F5B
330
8FDD
330
8ECB
330
8ECC
330
8EC2
330
8EC3
330
8EB9
330
8EBA
330
8EB0
330
8EB1
330
8EA8
330
8EA9
330
8E9C
330
8E9D
330
8E94
330
8E95
330
8E8A
330
8E8B
330
8E80
330
8E7F
330
8E76
330
8E77
330
8E6C
330
8E6D
330
8E63
330
8E64
330
9001
330
900B
330
900C
  0
ENDSEC
  0
EOF
