  0
SECTION
  2
HEADER
  9
$ACADVER
  1
AC1012
  9
$DWGCODEPAGE
  3
dos932
  9
$INSBASE
 10
0.0
 20
0.0
 30
0.0
  9
$EXTMIN
 10
0.0
 20
0.0
 30
0.0
  9
$EXTMAX
 10
420.0
 20
594.0
 30
0.0
  9
$LIMMIN
 10
0.0
 20
0.0
  9
$LIMMAX
 10
420.0
 20
594.0
  9
$ORTHOMODE
 70
     1
  9
$REGENMODE
 70
     1
  9
$FILLMODE
 70
     1
  9
$QTEXTMODE
 70
     0
  9
$MIRRTEXT
 70
     1
  9
$DRAGMODE
 70
     2
  9
$LTSCALE
 40
0.3
  9
$OSMODE
 70
    37
  9
$ATTMODE
 70
     1
  9
$TEXTSIZE
 40
7.0
  9
$TRACEWID
 40
0.05
  9
$TEXTSTYLE
  7
STANDARD
  9
$CLAYER
  8
DEFPOINTS
  9
$CELTYPE
  6
BYLAYER
  9
$CECOLOR
 62
   256
  9
$CELTSCALE
 40
1.0
  9
$DELOBJ
 70
     1
  9
$DISPSILH
 70
     0
  9
$DIMSCALE
 40
2.0
  9
$DIMASZ
 40
2.5
  9
$DIMEXO
 40
1.5
  9
$DIMDLI
 40
0.0
  9
$DIMRND
 40
0.0
  9
$DIMDLE
 40
0.0
  9
$DIMEXE
 40
1.0
  9
$DIMTP
 40
0.0
  9
$DIMTM
 40
0.0
  9
$DIMTXT
 40
2.5
  9
$DIMCEN
 40
0.0
  9
$DIMTSZ
 40
0.0
  9
$DIMTOL
 70
     0
  9
$DIMLIM
 70
     0
  9
$DIMTIH
 70
     0
  9
$DIMTOH
 70
     0
  9
$DIMSE1
 70
     0
  9
$DIMSE2
 70
     0
  9
$DIMTAD
 70
     1
  9
$DIMZIN
 70
     8
  9
$DIMBLK
  1
OPEN30
  9
$DIMASO
 70
     1
  9
$DIMSHO
 70
     1
  9
$DIMPOST
  1

  9
$DIMAPOST
  1

  9
$DIMALT
 70
     0
  9
$DIMALTD
 70
     2
  9
$DIMALTF
 40
25.4
  9
$DIMLFAC
 40
1.0
  9
$DIMTOFL
 70
     1
  9
$DIMTVP
 40
0.0
  9
$DIMTIX
 70
     0
  9
$DIMSOXD
 70
     0
  9
$DIMSAH
 70
     0
  9
$DIMBLK1
  1

  9
$DIMBLK2
  1

  9
$DIMSTYLE
  2
SUNPOU_2
  9
$DIMCLRD
 70
   256
  9
$DIMCLRE
 70
   256
  9
$DIMCLRT
 70
   256
  9
$DIMTFAC
 40
1.0
  9
$DIMGAP
 40
1.0
  9
$DIMJUST
 70
     0
  9
$DIMSD1
 70
     0
  9
$DIMSD2
 70
     0
  9
$DIMTOLJ
 70
     1
  9
$DIMTZIN
 70
     0
  9
$DIMALTZ
 70
     0
  9
$DIMALTTZ
 70
     0
  9
$DIMFIT
 70
     3
  9
$DIMUPT
 70
     0
  9
$DIMUNIT
 70
     2
  9
$DIMDEC
 70
     1
  9
$DIMTDEC
 70
     1
  9
$DIMALTU
 70
     2
  9
$DIMALTTD
 70
     2
  9
$DIMTXSTY
  7
SUNPOU
  9
$DIMAUNIT
 70
     0
  9
$LUNITS
 70
     2
  9
$LUPREC
 70
     4
  9
$SKETCHINC
 40
0.1
  9
$FILLETRAD
 40
0.0
  9
$AUNITS
 70
     0
  9
$AUPREC
 70
     0
  9
$MENU
  1
acad
  9
$ELEVATION
 40
0.0
  9
$PELEVATION
 40
0.0
  9
$THICKNESS
 40
0.0
  9
$LIMCHECK
 70
     0
  9
$BLIPMODE
 70
     0
  9
$CHAMFERA
 40
0.0
  9
$CHAMFERB
 40
0.0
  9
$CHAMFERC
 40
0.0
  9
$CHAMFERD
 40
0.0
  9
$SKPOLY
 70
     0
  9
$TDCREATE
 40
2444972.375000000
  9
$TDUPDATE
 40
2453266.406718750
  9
$TDINDWG
 40
0.9937053356
  9
$TDUSRTIMER
 40
0.9937053356
  9
$USRTIMER
 70
     1
  9
$ANGBASE
 50
0.0
  9
$ANGDIR
 70
     0
  9
$PDMODE
 70
     0
  9
$PDSIZE
 40
1.0
  9
$PLINEWID
 40
0.0
  9
$COORDS
 70
     1
  9
$SPLFRAME
 70
     0
  9
$SPLINETYPE
 70
     6
  9
$SPLINESEGS
 70
     8
  9
$ATTDIA
 70
     0
  9
$ATTREQ
 70
     1
  9
$HANDLING
 70
-16383
  9
$HANDSEED
  5
1DAC
  9
$SURFTAB1
 70
     6
  9
$SURFTAB2
 70
     6
  9
$SURFTYPE
 70
     6
  9
$SURFU
 70
     6
  9
$SURFV
 70
     6
  9
$UCSNAME
  2

  9
$UCSORG
 10
0.0
 20
0.0
 30
0.0
  9
$UCSXDIR
 10
1.0
 20
0.0
 30
0.0
  9
$UCSYDIR
 10
0.0
 20
1.0
 30
0.0
  9
$PUCSNAME
  2

  9
$PUCSORG
 10
0.0
 20
0.0
 30
0.0
  9
$PUCSXDIR
 10
1.0
 20
0.0
 30
0.0
  9
$PUCSYDIR
 10
0.0
 20
1.0
 30
0.0
  9
$USERI1
 70
     0
  9
$USERI2
 70
     0
  9
$USERI3
 70
     0
  9
$USERI4
 70
     0
  9
$USERI5
 70
     0
  9
$USERR1
 40
0.0
  9
$USERR2
 40
0.0
  9
$USERR3
 40
0.0
  9
$USERR4
 40
0.0
  9
$USERR5
 40
0.0
  9
$WORLDVIEW
 70
     1
  9
$SHADEDGE
 70
     3
  9
$SHADEDIF
 70
    70
  9
$TILEMODE
 70
     1
  9
$MAXACTVP
 70
    16
  9
$PINSBASE
 10
0.0
 20
0.0
 30
0.0
  9
$PLIMCHECK
 70
     0
  9
$PEXTMIN
 10
-0.5343191060952677
 20
-1.305857055439901
 30
-0.0000000000000058
  9
$PEXTMAX
 10
395.9851362548202
 20
569.1038790661841
 30
0.0000000000000104
  9
$PLIMMIN
 10
-12.27068515704807
 20
-13.05443897029453
  9
$PLIMMAX
 10
407.7148016072114
 20
580.8524628885638
  9
$UNITMODE
 70
     0
  9
$VISRETAIN
 70
     0
  9
$PLINEGEN
 70
     1
  9
$PSLTSCALE
 70
     0
  9
$TREEDEPTH
 70
  3020
  9
$PICKSTYLE
 70
     1
  9
$CMLSTYLE
  2
STANDARD
  9
$CMLJUST
 70
     0
  9
$CMLSCALE
 40
1.0
  9
$SAVEIMAGES
 70
     1
  0
ENDSEC
  0
SECTION
  2
CLASSES
  0
CLASS
  1
LWPOLYLINE
  2
AcDbPolyline
  3
AutoCAD 2000
 90
    32768
280
     0
281
     1
  0
CLASS
  1
IMAGE
  2
AcDbRasterImage
  3
ISM
 90
    32895
280
     0
281
     1
  0
CLASS
  1
OLE2FRAME
  2
AcDbOle2Frame
  3
AutoCAD 2000
 90
    32768
280
     0
281
     1
  0
CLASS
  1
HATCH
  2
AcDbHatch
  3
AutoCAD 2000
 90
    32768
280
     0
281
     1
  0
CLASS
  1
DICTIONARYVAR
  2
AcDbDictionaryVar
  3
AutoCAD 2000
 90
    32768
280
     0
281
     0
  0
CLASS
  1
RASTERVARIABLES
  2
AcDbRasterVariables
  3
ISM
 90
    32768
280
     0
281
     0
  0
CLASS
  1
IMAGEDEF
  2
AcDbRasterImageDef
  3
ISM
 90
    32768
280
     0
281
     0
  0
CLASS
  1
IMAGEDEF_REACTOR
  2
AcDbRasterImageDefReactor
  3
ISM
 90
    32769
280
     0
281
     0
  0
CLASS
  1
IDBUFFER
  2
AcDbIdBuffer
  3
AutoCAD 2000
 90
    32768
280
     0
281
     0
  0
CLASS
  1
SPATIAL_FILTER
  2
AcDbSpatialFilter
  3
AutoCAD 2000
 90
    32768
280
     0
281
     0
  0
CLASS
  1
XRECORD
  2
AcDbXrecord
  3
AutoCAD 2000
 90
    32768
280
     0
281
     0
  0
CLASS
  1
SORTENTSTABLE
  2
AcDbSortentsTable
  3
AutoCAD 2000
 90
    32768
280
     0
281
     0
  0
CLASS
  1
LAYER_INDEX
  2
AcDbLayerIndex
  3
AutoCAD 2000
 90
    32768
280
     0
281
     0
  0
CLASS
  1
SPATIAL_INDEX
  2
AcDbSpatialIndex
  3
AutoCAD 2000
 90
    32768
280
     0
281
     0
  0
CLASS
  1
OBJECT_PTR
  2
CAseDLPNTableRecord
  3
ASE-LPNTableRecord
 90
    32769
280
     0
281
     0
  0
CLASS
  1
ACDBDICTIONARYWDFLT
  2
AcDbDictionaryWithDefault
  3
AutoCAD 2000
 90
    32768
280
     0
281
     0
  0
CLASS
  1
ACDBPLACEHOLDER
  2
AcDbPlaceHolder
  3
AutoCAD 2000
 90
    32768
280
     0
281
     0
  0
CLASS
  1
LAYOUT
  2
AcDbLayout
  3
AutoCAD 2000
 90
    32768
280
     0
281
     0
  0
CLASS
  1
LONG_TRANSACTION
  2
AcDbLongTransaction
  3
AutoCAD 2000
 90
    32768
280
     0
281
     0
  0
CLASS
  1
LWPOLYLINE
  2
AcDbPolyline
  3
AutoCAD 2000
 90
    32768
280
     0
281
     1
  0
CLASS
  1
HATCH
  2
AcDbHatch
  3
AutoCAD 2000
 90
    32768
280
     0
281
     1
  0
CLASS
  1
XRECORD
  2
AcDbXrecord
  3
AutoCAD 2000
 90
    32768
280
     0
281
     0
  0
CLASS
  1
LONG_TRANSACTION
  2
AcDbLongTransaction
  3
AutoCAD 2000
 90
    32768
280
     0
281
     0
  0
CLASS
  1
LWPOLYLINE
  2
AcDbPolyline
  3
AutoCAD 2000
 90
    32768
280
     0
281
     1
  0
CLASS
  1
HATCH
  2
AcDbHatch
  3
AutoCAD 2000
 90
    32768
280
     0
281
     1
  0
CLASS
  1
XRECORD
  2
AcDbXrecord
  3
AutoCAD 2000
 90
    32768
280
     0
281
     0
  0
ENDSEC
  0
SECTION
  2
TABLES
  0
TABLE
  2
VPORT
  5
7
330
0
100
AcDbSymbolTable
 70
     2
  0
VPORT
  5
1D94
330
7
100
AcDbSymbolTableRecord
100
AcDbViewportTableRecord
  2
*ACTIVE
 70
     0
 10
0.0
 20
0.0
 11
1.0
 21
1.0
 12
228.3534136753863
 22
297.000001383014
 13
0.0
 23
0.0
 14
1.0
 24
1.0
 15
0.0
 25
0.0
 16
0.0
 26
0.0
 36
1.0
 17
0.0
 27
0.0
 37
0.0
 40
600.7497306300099
 41
1.780442804428044
 42
50.0
 43
0.0
 44
0.0
 50
0.0
 51
0.0
 71
     0
 72
   100
 73
     1
 74
     1
 75
     0
 76
     0
 77
     0
 78
     0
  0
ENDTAB
  0
TABLE
  2
LTYPE
  5
4
330
0
100
AcDbSymbolTable
 70
     3
  0
LTYPE
  5
11
330
4
100
AcDbSymbolTableRecord
100
AcDbLinetypeTableRecord
  2
BYBLOCK
 70
     0
  3

 72
    65
 73
     0
 40
0.0
  0
LTYPE
  5
12
330
4
100
AcDbSymbolTableRecord
100
AcDbLinetypeTableRecord
  2
BYLAYER
 70
     0
  3

 72
    65
 73
     0
 40
0.0
  0
LTYPE
  5
13
330
4
100
AcDbSymbolTableRecord
100
AcDbLinetypeTableRecord
  2
CONTINUOUS
 70
     0
  3
Solid line
 72
    65
 73
     0
 40
0.0
  0
LTYPE
  5
21
330
4
100
AcDbSymbolTableRecord
100
AcDbLinetypeTableRecord
  2
DASHED2
 70
     0
  3
Dashed (.5x) _ _ _ _ _ _ _ _ _ _ _ _ _ _ _ _ _
 72
    65
 73
     2
 40
9.524999999999996
 49
6.349999999999998
 74
     0
 49
-3.174999999999998
 74
     0
  0
LTYPE
  5
8D1
330
4
100
AcDbSymbolTableRecord
100
AcDbLinetypeTableRecord
  2
CENTER2
 70
     0
  3
Center (.5x) ___ _ ___ _ ___ _ ___ _ ___ _ ___
 72
    65
 73
     4
 40
28.57499999999999
 49
19.05
 74
     0
 49
-3.174999999999998
 74
     0
 49
3.174999999999998
 74
     0
 49
-3.174999999999998
 74
     0
  0
ENDTAB
  0
TABLE
  2
LAYER
  5
2
102
{ACAD_XDICTIONARY
360
1D3D
102
}
330
0
100
AcDbSymbolTable
 70
    12
  0
LAYER
  5
14
330
2
100
AcDbSymbolTableRecord
100
AcDbLayerTableRecord
  2
0
 70
     0
 62
     7
  6
CONTINUOUS
  0
LAYER
  5
8D3
330
2
100
AcDbSymbolTableRecord
100
AcDbLayerTableRecord
  2
DEFPOINTS
 70
     0
 62
     7
  6
CONTINUOUS
  0
LAYER
  5
8D6
330
2
100
AcDbSymbolTableRecord
100
AcDbLayerTableRecord
  2
03
 70
     0
 62
     3
  6
CONTINUOUS
  0
LAYER
  5
8D7
330
2
100
AcDbSymbolTableRecord
100
AcDbLayerTableRecord
  2
06
 70
     0
 62
     6
  6
CONTINUOUS
  0
LAYER
  5
8DB
330
2
100
AcDbSymbolTableRecord
100
AcDbLayerTableRecord
  2
CHUSIN
 70
     0
 62
     6
  6
CENTER2
  0
LAYER
  5
8DC
330
2
100
AcDbSymbolTableRecord
100
AcDbLayerTableRecord
  2
HIKIDASI
 70
     0
 62
     6
  6
CONTINUOUS
  0
LAYER
  5
8DD
330
2
100
AcDbSymbolTableRecord
100
AcDbLayerTableRecord
  2
KAKURE
 70
     0
 62
     6
  6
DASHED2
  0
LAYER
  5
8DE
330
2
100
AcDbSymbolTableRecord
100
AcDbLayerTableRecord
  2
MOJI
 70
     0
 62
     3
  6
CONTINUOUS
  0
LAYER
  5
8E0
330
2
100
AcDbSymbolTableRecord
100
AcDbLayerTableRecord
  2
SUNPOU
 70
     0
 62
     6
  6
CONTINUOUS
  0
LAYER
  5
14D8
330
2
100
AcDbSymbolTableRecord
100
AcDbLayerTableRecord
  2
SAISEN
 70
     0
 62
     3
  6
CONTINUOUS
  0
LAYER
  5
1B81
330
2
100
AcDbSymbolTableRecord
100
AcDbLayerTableRecord
  2
02
 70
     0
 62
     2
  6
CONTINUOUS
  0
LAYER
  5
1C70
330
2
100
AcDbSymbolTableRecord
100
AcDbLayerTableRecord
  2
04
 70
     0
 62
     4
  6
CONTINUOUS
  0
ENDTAB
  0
TABLE
  2
STYLE
  5
3
330
0
100
AcDbSymbolTable
 70
     4
  0
STYLE
  5
17
330
3
100
AcDbSymbolTableRecord
100
AcDbTextStyleTableRecord
  2
STANDARD
 70
     0
 40
0.0
 41
0.8
 50
0.0
 71
     0
 42
7.0
  3
txt.shx
  4
bigfont.shx
  0
STYLE
  5
8EB
330
3
100
AcDbSymbolTableRecord
100
AcDbTextStyleTableRecord
  2
SUNPOU
 70
     0
 40
0.0
 41
0.8
 50
0.0
 71
     0
 42
0.2
  3
txt.shx
  4
extfont.shx
  0
STYLE
  5
8F2
330
3
100
AcDbSymbolTableRecord
100
AcDbTextStyleTableRecord
  2
0_8
 70
     0
 40
0.0
 41
0.8
 50
0.0
 71
     0
 42
2.5
  3
txt.shx
  4
extfont.shx
  0
STYLE
  5
1D3B
330
3
100
AcDbSymbolTableRecord
100
AcDbTextStyleTableRecord
  2
0_80
 70
     0
 40
0.0
 41
0.8
 50
0.0
 71
     0
 42
7.0
  3
txt.shx
  4
extfont.shx
  0
ENDTAB
  0
TABLE
  2
VIEW
  5
5
330
0
100
AcDbSymbolTable
 70
     1
  0
VIEW
  5
136
330
5
100
AcDbSymbolTableRecord
100
AcDbViewTableRecord
  2
QQQQ
 70
     0
 40
618.7999999999998
 10
-6.0
 20
-1.0
 41
419.8999999999999
 11
0.0
 21
0.0
 31
1.0
 12
100.0
 22
100.0
 32
0.0
 42
50.0
 43
0.0
 44
0.0
 50
0.0
 71
     0
  0
ENDTAB
  0
TABLE
  2
UCS
  5
6
330
0
100
AcDbSymbolTable
 70
     0
  0
ENDTAB
  0
TABLE
  2
APPID
  5
8
330
0
100
AcDbSymbolTable
 70
     3
  0
APPID
  5
16
330
8
100
AcDbSymbolTableRecord
100
AcDbRegAppTableRecord
  2
ACAD
 70
     0
  0
APPID
  5
8CE
330
8
100
AcDbSymbolTableRecord
100
AcDbRegAppTableRecord
  2
DCO15
 70
     0
  0
APPID
  5
1CFA
330
8
100
AcDbSymbolTableRecord
100
AcDbRegAppTableRecord
  2
CONTENTBLOCKICON
 70
     0
  0
ENDTAB
  0
TABLE
  2
DIMSTYLE
  5
9
330
0
100
AcDbSymbolTable
 70
     2
  0
DIMSTYLE
105
8EC
102
{ACAD_REACTORS
330
90D
330
93F
330
94C
330
959
330
968
330
975
330
984
330
991
330
99E
330
9AB
330
9D4
330
9E1
330
9EE
330
9FB
330
A08
330
A15
330
A22
330
A2F
330
A3C
330
A58
330
AA0
330
AC9
330
BFD
330
C0A
330
B05
330
B08
330
B0B
330
B0D
330
B0F
330
B11
330
923
330
930
102
}
330
9
100
AcDbSymbolTableRecord
100
AcDbDimStyleTableRecord
  2
SUNPOU_2
 70
     0
  3

  4

  5
OPEN30
  6

  7

 40
2.0
 41
2.5
 42
1.5
 43
0.0
 44
1.0
 45
0.0
 46
0.0
 47
0.0
 48
0.0
140
2.5
141
0.0
142
0.0
143
25.4
144
1.0
145
0.0
146
1.0
147
1.0
 71
     0
 72
     0
 73
     0
 74
     0
 75
     0
 76
     0
 77
     1
 78
     8
170
     0
171
     2
172
     1
173
     0
174
     0
175
     0
176
   256
177
   256
178
   256
270
     2
271
     1
272
     1
273
     2
274
     2
340
8EB
275
     0
280
     0
281
     0
282
     0
283
     1
284
     0
285
     0
286
     0
287
     3
288
     0
  0
DIMSTYLE
105
1704
330
9
100
AcDbSymbolTableRecord
100
AcDbDimStyleTableRecord
  2
STANDARD
 70
     0
  3

  4

  5

  6

  7

 40
1.0
 41
0.18
 42
0.0625
 43
0.38
 44
0.18
 45
0.0
 46
0.0
 47
0.0
 48
0.0
140
0.18
141
0.09
142
0.0
143
25.4
144
1.0
145
0.0
146
1.0
147
0.09
 71
     0
 72
     0
 73
     1
 74
     1
 75
     0
 76
     0
 77
     0
 78
     0
170
     0
171
     2
172
     0
173
     0
174
     0
175
     0
176
     0
177
     0
178
     0
270
     2
271
     4
272
     4
273
     2
274
     2
340
17
275
     0
280
     0
281
     0
282
     0
283
     1
284
     0
285
     0
286
     0
287
     3
288
     0
  0
ENDTAB
  0
TABLE
  2
BLOCK_RECORD
  5
1
330
0
100
AcDbSymbolTable
 70
    28
  0
BLOCK_RECORD
  5
A
102
{ACAD_XDICTIONARY
360
1CF6
102
}
330
1
100
AcDbSymbolTableRecord
100
AcDbBlockTableRecord
  2
*MODEL_SPACE
  0
BLOCK_RECORD
  5
B
102
{ACAD_XDICTIONARY
360
1CF8
102
}
330
1
100
AcDbSymbolTableRecord
100
AcDbBlockTableRecord
  2
*PAPER_SPACE
  0
BLOCK_RECORD
  5
8E5
330
1
100
AcDbSymbolTableRecord
100
AcDbBlockTableRecord
  2
_OPEN30
1001
CONTENTBLOCKICON
1071
        0
1004
2800000020000000200000000100080000000000000400000000000000000000000000000000000000000000000080000080000000808000800000008000800080800000C0C0C000C0DCC000F0CAA6000020400000206000002080000020A0000020C0000020E00000400000004020000040400000406000004080000040A0
1004
000040C0000040E00000600000006020000060400000606000006080000060A0000060C0000060E00000800000008020000080400000806000008080000080A0000080C0000080E00000A0000000A0200000A0400000A0600000A0800000A0A00000A0C00000A0E00000C0000000C0200000C0400000C0600000C0800000C0
1004
A00000C0C00000C0E00000E0000000E0200000E0400000E0600000E0800000E0A00000E0C00000E0E00040000000400020004000400040006000400080004000A0004000C0004000E00040200000402020004020400040206000402080004020A0004020C0004020E000404000004040200040404000404060004040800040
1004
40A0004040C0004040E00040600000406020004060400040606000406080004060A0004060C0004060E00040800000408020004080400040806000408080004080A0004080C0004080E00040A0000040A0200040A0400040A0600040A0800040A0A00040A0C00040A0E00040C0000040C0200040C0400040C0600040C08000
1004
40C0A00040C0C00040C0E00040E0000040E0200040E0400040E0600040E0800040E0A00040E0C00040E0E00080000000800020008000400080006000800080008000A0008000C0008000E00080200000802020008020400080206000802080008020A0008020C0008020E00080400000804020008040400080406000804080
1004
008040A0008040C0008040E00080600000806020008060400080606000806080008060A0008060C0008060E00080800000808020008080400080806000808080008080A0008080C0008080E00080A0000080A0200080A0400080A0600080A0800080A0A00080A0C00080A0E00080C0000080C0200080C0400080C0600080C0
1004
800080C0A00080C0C00080C0E00080E0000080E0200080E0400080E0600080E0800080E0A00080E0C00080E0E000C0000000C0002000C0004000C0006000C0008000C000A000C000C000C000E000C0200000C0202000C0204000C0206000C0208000C020A000C020C000C020E000C0400000C0402000C0404000C0406000C0
1004
408000C040A000C040C000C040E000C0600000C0602000C0604000C0606000C0608000C060A000C060C000C060E000C0800000C0802000C0804000C0806000C0808000C080A000C080C000C080E000C0A00000C0A02000C0A04000C0A06000C0A08000C0A0A000C0A0C000C0A0E000C0C00000C0C02000C0C04000C0C06000
1004
C0C08000C0C0A000F0FBFF00A4A0A000808080000000FF0000FF000000FFFF00FF000000FF00FF00FFFF0000FFFFFF0000000000000000000000000000000000000000000000000000000000000000000000000000000000000000000000000000000000000000000000000000000000000000000000000000000000000000
1004
00000000000000000000000000000000000000000000000000000000000000000000000000000000000000000000000000000000000000000000000000000000000000000000000000000000000000000000000000000000000000000000000000000000000000000000000000000000000000000000000000000000000000
1004
000000000000000000000000000000000000000000000000000000000000000000000000000000000000000000000000000000FFFF0000000000000000000000000000000000000000000000000000000000000000FFFFFFFF0000000000000000000000000000000000000000000000000000000000000000FFFFFFFF0000
1004
000000000000000000000000000000000000000000000000000000000000FFFFFF0000000000000000000000000000000000000000000000000000000000000000FFFFFFFF0000000000000000000000000000000000000000000000000000000000000000FFFFFF0000000000000000000000000000000000000000000000
1004
000000000000000000FFFFFFFF0000000000000000000000000000000000000000000000000000000000000000FFFFFFFF00000000FFFFFFFFFFFFFFFFFFFFFFFFFFFFFFFFFFFFFFFFFFFFFFFFFFFFFFFFFFFF00000000000000000000000000000000000000000000000000FFFFFFFF000000000000000000000000000000
1004
000000000000000000FFFFFFFF000000000000000000000000000000000000000000000000FFFFFFFF000000000000000000000000000000000000000000000000FFFFFFFF000000000000000000000000000000000000000000000000FFFFFFFF000000000000000000000000000000000000000000000000FFFFFFFF0000
1004
0000000000000000000000000000000000000000000000FFFFFF0000000000000000000000000000000000000000000000000000000000000000000000000000000000000000000000000000000000000000000000000000000000000000000000000000000000000000000000000000000000000000000000000000000000
1004
00000000000000000000000000000000000000000000000000000000000000000000000000000000000000000000000000000000000000000000000000000000000000000000000000000000000000000000000000000000000000000000000000000000000000000000000000000000000000000000000000000000000000
1004
0000000000000000000000000000000000000000000000000000000000000000000000000000000000000000000000000000000000000000
  0
BLOCK_RECORD
  5
90E
330
1
100
AcDbSymbolTableRecord
100
AcDbBlockTableRecord
  2
*D1
  0
BLOCK_RECORD
  5
924
330
1
100
AcDbSymbolTableRecord
100
AcDbBlockTableRecord
  2
*D2
  0
BLOCK_RECORD
  5
931
330
1
100
AcDbSymbolTableRecord
100
AcDbBlockTableRecord
  2
*D3
  0
BLOCK_RECORD
  5
940
330
1
100
AcDbSymbolTableRecord
100
AcDbBlockTableRecord
  2
*D4
  0
BLOCK_RECORD
  5
94D
330
1
100
AcDbSymbolTableRecord
100
AcDbBlockTableRecord
  2
*D5
  0
BLOCK_RECORD
  5
95A
330
1
100
AcDbSymbolTableRecord
100
AcDbBlockTableRecord
  2
*D6
  0
BLOCK_RECORD
  5
969
330
1
100
AcDbSymbolTableRecord
100
AcDbBlockTableRecord
  2
*D7
  0
BLOCK_RECORD
  5
976
330
1
100
AcDbSymbolTableRecord
100
AcDbBlockTableRecord
  2
*D8
  0
BLOCK_RECORD
  5
985
330
1
100
AcDbSymbolTableRecord
100
AcDbBlockTableRecord
  2
*D9
  0
BLOCK_RECORD
  5
992
330
1
100
AcDbSymbolTableRecord
100
AcDbBlockTableRecord
  2
*D10
  0
BLOCK_RECORD
  5
99F
330
1
100
AcDbSymbolTableRecord
100
AcDbBlockTableRecord
  2
*D11
  0
BLOCK_RECORD
  5
9AC
330
1
100
AcDbSymbolTableRecord
100
AcDbBlockTableRecord
  2
*D12
  0
BLOCK_RECORD
  5
9D5
330
1
100
AcDbSymbolTableRecord
100
AcDbBlockTableRecord
  2
*D13
  0
BLOCK_RECORD
  5
9E2
330
1
100
AcDbSymbolTableRecord
100
AcDbBlockTableRecord
  2
*D14
  0
BLOCK_RECORD
  5
9EF
330
1
100
AcDbSymbolTableRecord
100
AcDbBlockTableRecord
  2
*D15
  0
BLOCK_RECORD
  5
9FC
330
1
100
AcDbSymbolTableRecord
100
AcDbBlockTableRecord
  2
*D16
  0
BLOCK_RECORD
  5
A09
330
1
100
AcDbSymbolTableRecord
100
AcDbBlockTableRecord
  2
*D17
  0
BLOCK_RECORD
  5
A16
330
1
100
AcDbSymbolTableRecord
100
AcDbBlockTableRecord
  2
*D18
  0
BLOCK_RECORD
  5
A23
330
1
100
AcDbSymbolTableRecord
100
AcDbBlockTableRecord
  2
*D19
  0
BLOCK_RECORD
  5
A30
330
1
100
AcDbSymbolTableRecord
100
AcDbBlockTableRecord
  2
*D20
  0
BLOCK_RECORD
  5
A3D
330
1
100
AcDbSymbolTableRecord
100
AcDbBlockTableRecord
  2
*D21
  0
BLOCK_RECORD
  5
A59
330
1
100
AcDbSymbolTableRecord
100
AcDbBlockTableRecord
  2
*D22
  0
BLOCK_RECORD
  5
AA1
330
1
100
AcDbSymbolTableRecord
100
AcDbBlockTableRecord
  2
*D23
  0
BLOCK_RECORD
  5
ACA
330
1
100
AcDbSymbolTableRecord
100
AcDbBlockTableRecord
  2
*D24
  0
BLOCK_RECORD
  5
BFE
330
1
100
AcDbSymbolTableRecord
100
AcDbBlockTableRecord
  2
*D25
  0
BLOCK_RECORD
  5
C0B
330
1
100
AcDbSymbolTableRecord
100
AcDbBlockTableRecord
  2
*D26
  0
BLOCK_RECORD
  5
1D0F
330
1
100
AcDbSymbolTableRecord
100
AcDbBlockTableRecord
  2
*X27
  0
ENDTAB
  0
ENDSEC
  0
SECTION
  2
BLOCKS
  0
BLOCK
  5
D
330
A
100
AcDbEntity
  8
0
100
AcDbBlockBegin
  2
*MODEL_SPACE
 70
     0
 10
0.0
 20
0.0
 30
0.0
  3
*MODEL_SPACE
  1

  0
ENDBLK
  5
E
330
A
100
AcDbEntity
  8
0
100
AcDbBlockEnd
  0
BLOCK
  5
F
330
B
100
AcDbEntity
 67
     1
  8
0
100
AcDbBlockBegin
  2
*PAPER_SPACE
 70
     0
 10
0.0
 20
0.0
 30
0.0
  3
*PAPER_SPACE
  1

  0
ENDBLK
  5
10
330
B
100
AcDbEntity
 67
     1
  8
0
100
AcDbBlockEnd
  0
BLOCK
  5
8E6
330
8E5
100
AcDbEntity
  8
0
100
AcDbBlockBegin
  2
_OPEN30
 70
     0
 10
0.0
 20
0.0
 30
0.0
  3
_OPEN30
  1

  0
LINE
  5
8E7
330
8E5
100
AcDbEntity
  8
0
  6
BYBLOCK
 62
     0
100
AcDbLine
 10
-1.0
 20
0.26794919
 30
0.0
 11
0.0
 21
0.0
 31
0.0
  0
LINE
  5
8E8
330
8E5
100
AcDbEntity
  8
0
  6
BYBLOCK
 62
     0
100
AcDbLine
 10
0.0
 20
0.0
 30
0.0
 11
-1.0
 21
-0.26794919
 31
0.0
  0
LINE
  5
8E9
330
8E5
100
AcDbEntity
  8
0
  6
BYBLOCK
 62
     0
100
AcDbLine
 10
0.0
 20
0.0
 30
0.0
 11
-1.0
 21
0.0
 31
0.0
  0
ENDBLK
  5
8EA
330
8E5
100
AcDbEntity
  8
0
100
AcDbBlockEnd
  0
BLOCK
  5
918
330
90E
100
AcDbEntity
  8
0
100
AcDbBlockBegin
  2
*D1
 70
     1
 10
0.0
 20
0.0
 30
0.0
  3
*D1
  1

  0
LINE
  5
12AB
330
90E
100
AcDbEntity
  8
SUNPOU
100
AcDbLine
 10
80.17299860214984
 20
339.8320754716982
 30
0.0
 11
61.17299860214984
 21
339.8320754716982
 31
0.0
  0
LINE
  5
12AC
330
90E
100
AcDbEntity
  8
SUNPOU
100
AcDbLine
 10
86.47299860268841
 20
356.8320754716981
 30
0.0
 11
61.17299860214984
 21
356.8320754716981
 31
0.0
  0
LINE
  5
12AD
330
90E
100
AcDbEntity
  8
SUNPOU
100
AcDbLine
 10
63.17299860214983
 20
344.8320754716981
 30
0.0
 11
63.17299860214983
 21
351.8320754716981
 31
0.0
  0
INSERT
  5
12AE
330
90E
100
AcDbEntity
  8
SUNPOU
100
AcDbBlockReference
  2
_OPEN30
 10
63.17299860214983
 20
339.8320754716982
 30
0.0
 41
5.0
 42
5.0
 43
5.0
 50
270.0
  0
INSERT
  5
12AF
330
90E
100
AcDbEntity
  8
SUNPOU
100
AcDbBlockReference
  2
_OPEN30
 10
63.17299860214983
 20
356.8320754716981
 30
0.0
 41
5.0
 42
5.0
 43
5.0
 50
90.0
  0
MTEXT
  5
12B0
330
90E
100
AcDbEntity
  8
SUNPOU
100
AcDbMText
 10
58.67299860214979
 20
348.3320754716981
 30
0.0
 40
5.0
 41
0.0
 71
     5
 72
     1
  1
\A1;17
  7
SUNPOU
 11
0.0000000000000001
 21
1.0
 31
0.0
1001
ACAD
1000
MTEXTBEGIN
1070
    73
1070
     1
1070
    44
1040
1.0
1070
    74
1070
     0
1000
MTEXTEND
1000
MTEXTBEGIN
1070
    73
1070
     1
1070
    44
1040
1.0
1070
    74
1070
     0
1000
MTEXTEND
  0
POINT
  5
12B1
330
90E
100
AcDbEntity
  8
DEFPOINTS
 62
     0
100
AcDbPoint
 10
83.17299860214985
 20
339.8320754716982
 30
0.0
  0
POINT
  5
12B2
330
90E
100
AcDbEntity
  8
DEFPOINTS
 62
     0
100
AcDbPoint
 10
89.4729986026884
 20
356.8320754716981
 30
0.0
  0
POINT
  5
12B3
330
90E
100
AcDbEntity
  8
DEFPOINTS
 62
     0
100
AcDbPoint
 10
63.17299860214983
 20
356.8320754716981
 30
0.0
  0
ENDBLK
  5
919
330
90E
100
AcDbEntity
  8
0
100
AcDbBlockEnd
  0
BLOCK
  5
92E
330
924
100
AcDbEntity
  8
0
100
AcDbBlockBegin
  2
*D2
 70
     1
 10
0.0
 20
0.0
 30
0.0
  3
*D2
  1

  0
LINE
  5
12A2
330
924
100
AcDbEntity
  8
SUNPOU
100
AcDbLine
 10
86.47299860268841
 20
356.8320754716981
 30
0.0
 11
61.17299860214984
 21
356.8320754716981
 31
0.0
  0
LINE
  5
12A3
330
924
100
AcDbEntity
  8
SUNPOU
100
AcDbLine
 10
84.17299860573967
 20
461.8320754716982
 30
0.0
 11
61.17299860214987
 21
461.8320754716982
 31
0.0
  0
LINE
  5
12A4
330
924
100
AcDbEntity
  8
SUNPOU
100
AcDbLine
 10
63.17299860214983
 20
361.8320754716981
 30
0.0
 11
63.17299860214987
 21
456.8320754716981
 31
0.0
  0
INSERT
  5
12A5
330
924
100
AcDbEntity
  8
SUNPOU
100
AcDbBlockReference
  2
_OPEN30
 10
63.17299860214983
 20
356.8320754716981
 30
0.0
 41
5.0
 42
5.0
 43
5.0
 50
270.0
  0
INSERT
  5
12A6
330
924
100
AcDbEntity
  8
SUNPOU
100
AcDbBlockReference
  2
_OPEN30
 10
63.17299860214987
 20
461.8320754716982
 30
0.0
 41
5.0
 42
5.0
 43
5.0
 50
90.0
  0
MTEXT
  5
12A7
330
924
100
AcDbEntity
  8
SUNPOU
100
AcDbMText
 10
58.67299860214981
 20
409.3320754716981
 30
0.0
 40
5.0
 41
0.0
 71
     5
 72
     1
  1
\A1;105
  7
SUNPOU
 11
0.0000000000000001
 21
1.0
 31
0.0
1001
ACAD
1000
MTEXTBEGIN
1070
    73
1070
     1
1070
    44
1040
1.0
1070
    74
1070
     0
1000
MTEXTEND
1000
MTEXTBEGIN
1070
    73
1070
     1
1070
    44
1040
1.0
1070
    74
1070
     0
1000
MTEXTEND
  0
POINT
  5
12A8
330
924
100
AcDbEntity
  8
DEFPOINTS
 62
     0
100
AcDbPoint
 10
89.4729986026884
 20
356.8320754716981
 30
0.0
  0
POINT
  5
12A9
330
924
100
AcDbEntity
  8
DEFPOINTS
 62
     0
100
AcDbPoint
 10
87.17299860573964
 20
461.8320754716982
 30
0.0
  0
POINT
  5
12AA
330
924
100
AcDbEntity
  8
DEFPOINTS
 62
     0
100
AcDbPoint
 10
63.17299860214987
 20
461.8320754716982
 30
0.0
  0
ENDBLK
  5
92F
330
924
100
AcDbEntity
  8
0
100
AcDbBlockEnd
  0
BLOCK
  5
93D
330
931
100
AcDbEntity
  8
0
100
AcDbBlockBegin
  2
*D3
 70
     1
 10
0.0
 20
0.0
 30
0.0
  3
*D3
  1

  0
LINE
  5
1297
330
931
100
AcDbEntity
  8
SUNPOU
100
AcDbLine
 10
84.17299860573967
 20
461.8320754716982
 30
0.0
 11
61.17299860214987
 21
461.8320754716982
 31
0.0
  0
LINE
  5
1298
330
931
100
AcDbEntity
  8
SUNPOU
100
AcDbLine
 10
84.1729985949702
 20
464.8320754716981
 30
0.0
 11
61.17299860214989
 21
464.8320754716981
 31
0.0
  0
LINE
  5
1299
330
931
100
AcDbEntity
  8
SUNPOU
100
AcDbLine
 10
63.17299860214987
 20
456.8320754716981
 30
0.0
 11
63.17299860214987
 21
451.8320754716981
 31
0.0
  0
LINE
  5
129A
330
931
100
AcDbEntity
  8
SUNPOU
100
AcDbLine
 10
63.17299860214987
 20
469.8320754716981
 30
0.0
 11
63.17299860214987
 21
474.8320754716981
 31
0.0
  0
MTEXT
  5
129B
330
931
100
AcDbEntity
  8
SUNPOU
100
AcDbMText
 10
55.6729986021498
 20
463.3320754716981
 30
0.0
 40
5.0
 41
0.0
 71
     5
 72
     1
  1
\A1;3
  7
SUNPOU
 11
0.0000000000000001
 21
1.0
 31
0.0
1001
ACAD
1000
MTEXTBEGIN
1070
    73
1070
     1
1070
    44
1040
1.0
1070
    74
1070
     0
1000
MTEXTEND
1000
MTEXTBEGIN
1070
    73
1070
     1
1070
    44
1040
1.0
1070
    74
1070
     0
1000
MTEXTEND
  0
LINE
  5
129C
330
931
100
AcDbEntity
  8
SUNPOU
100
AcDbLine
 10
63.17299860214987
 20
461.8320754716982
 30
0.0
 11
63.17299860214987
 21
464.8320754716981
 31
0.0
  0
INSERT
  5
129D
330
931
100
AcDbEntity
  8
SUNPOU
100
AcDbBlockReference
  2
_OPEN30
 10
63.17299860214987
 20
461.8320754716982
 30
0.0
 41
5.0
 42
5.0
 43
5.0
 50
90.0
  0
INSERT
  5
129E
330
931
100
AcDbEntity
  8
SUNPOU
100
AcDbBlockReference
  2
_OPEN30
 10
63.17299860214987
 20
464.8320754716981
 30
0.0
 41
5.0
 42
5.0
 43
5.0
 50
270.0
  0
POINT
  5
129F
330
931
100
AcDbEntity
  8
DEFPOINTS
 62
     0
100
AcDbPoint
 10
87.17299860573964
 20
461.8320754716982
 30
0.0
  0
POINT
  5
12A0
330
931
100
AcDbEntity
  8
DEFPOINTS
 62
     0
100
AcDbPoint
 10
87.17299859497021
 20
464.8320754716981
 30
0.0
  0
POINT
  5
12A1
330
931
100
AcDbEntity
  8
DEFPOINTS
 62
     0
100
AcDbPoint
 10
63.17299860214987
 20
464.8320754716981
 30
0.0
  0
ENDBLK
  5
93E
330
931
100
AcDbEntity
  8
0
100
AcDbBlockEnd
  0
BLOCK
  5
94A
330
940
100
AcDbEntity
  8
0
100
AcDbBlockBegin
  2
*D4
 70
     1
 10
0.0
 20
0.0
 30
0.0
  3
*D4
  1

  0
LINE
  5
128E
330
940
100
AcDbEntity
  8
SUNPOU
100
AcDbLine
 10
80.17299860214984
 20
339.8320754716982
 30
0.0
 11
45.17299860214982
 21
339.8320754716982
 31
0.0
  0
LINE
  5
128F
330
940
100
AcDbEntity
  8
SUNPOU
100
AcDbLine
 10
80.17299860214984
 20
469.8320754716981
 30
0.0
 11
45.17299860214984
 21
469.8320754716981
 31
0.0
  0
LINE
  5
1290
330
940
100
AcDbEntity
  8
SUNPOU
100
AcDbLine
 10
47.17299860214981
 20
344.8320754716981
 30
0.0
 11
47.17299860214985
 21
464.8320754716981
 31
0.0
  0
INSERT
  5
1291
330
940
100
AcDbEntity
  8
SUNPOU
100
AcDbBlockReference
  2
_OPEN30
 10
47.17299860214981
 20
339.8320754716982
 30
0.0
 41
5.0
 42
5.0
 43
5.0
 50
270.0
  0
INSERT
  5
1292
330
940
100
AcDbEntity
  8
SUNPOU
100
AcDbBlockReference
  2
_OPEN30
 10
47.17299860214985
 20
469.8320754716981
 30
0.0
 41
5.0
 42
5.0
 43
5.0
 50
90.0
  0
MTEXT
  5
1293
330
940
100
AcDbEntity
  8
SUNPOU
100
AcDbMText
 10
42.67299860214976
 20
404.8320754716981
 30
0.0
 40
5.0
 41
0.0
 71
     5
 72
     1
  1
\A1;130
  7
SUNPOU
 11
0.0000000000000001
 21
1.0
 31
0.0
1001
ACAD
1000
MTEXTBEGIN
1070
    73
1070
     1
1070
    44
1040
1.0
1070
    74
1070
     0
1000
MTEXTEND
1000
MTEXTBEGIN
1070
    73
1070
     1
1070
    44
1040
1.0
1070
    74
1070
     0
1000
MTEXTEND
  0
POINT
  5
1294
330
940
100
AcDbEntity
  8
DEFPOINTS
 62
     0
100
AcDbPoint
 10
83.17299860214985
 20
339.8320754716982
 30
0.0
  0
POINT
  5
1295
330
940
100
AcDbEntity
  8
DEFPOINTS
 62
     0
100
AcDbPoint
 10
83.17299860214985
 20
469.8320754716981
 30
0.0
  0
POINT
  5
1296
330
940
100
AcDbEntity
  8
DEFPOINTS
 62
     0
100
AcDbPoint
 10
47.17299860214985
 20
469.8320754716981
 30
0.0
  0
ENDBLK
  5
94B
330
940
100
AcDbEntity
  8
0
100
AcDbBlockEnd
  0
BLOCK
  5
957
330
94D
100
AcDbEntity
  8
0
100
AcDbBlockBegin
  2
*D5
 70
     1
 10
0.0
 20
0.0
 30
0.0
  3
*D5
  1

  0
LINE
  5
1285
330
94D
100
AcDbEntity
  8
SUNPOU
100
AcDbLine
 10
112.1729986021497
 20
169.8320754716981
 30
0.0
 11
61.17299860214981
 21
169.8320754716981
 31
0.0
  0
LINE
  5
1286
330
94D
100
AcDbEntity
  8
SUNPOU
100
AcDbLine
 10
86.94189741762844
 20
277.2754716981131
 30
0.0
 11
61.17299860214984
 21
277.2754716981131
 31
0.0
  0
LINE
  5
1287
330
94D
100
AcDbEntity
  8
SUNPOU
100
AcDbLine
 10
63.17299860214982
 20
174.8320754716981
 30
0.0
 11
63.17299860214983
 21
272.2754716981131
 31
0.0
  0
INSERT
  5
1288
330
94D
100
AcDbEntity
  8
SUNPOU
100
AcDbBlockReference
  2
_OPEN30
 10
63.17299860214982
 20
169.8320754716981
 30
0.0
 41
5.0
 42
5.0
 43
5.0
 50
270.0
  0
INSERT
  5
1289
330
94D
100
AcDbEntity
  8
SUNPOU
100
AcDbBlockReference
  2
_OPEN30
 10
63.17299860214983
 20
277.2754716981131
 30
0.0
 41
5.0
 42
5.0
 43
5.0
 50
90.0
  0
MTEXT
  5
128A
330
94D
100
AcDbEntity
  8
SUNPOU
100
AcDbMText
 10
58.67299860214981
 20
223.5537735849057
 30
0.0
 40
5.0
 41
0.0
 71
     5
 72
     1
  1
\A1;600
  7
SUNPOU
 11
0.0000000000000001
 21
1.0
 31
0.0
1001
ACAD
1000
MTEXTBEGIN
1070
    73
1070
     1
1070
    44
1040
1.0
1070
    74
1070
     0
1000
MTEXTEND
1000
MTEXTBEGIN
1070
    73
1070
     1
1070
    44
1040
1.0
1070
    74
1070
     0
1000
MTEXTEND
  0
POINT
  5
128B
330
94D
100
AcDbEntity
  8
DEFPOINTS
 62
     0
100
AcDbPoint
 10
115.1729986021498
 20
169.8320754716981
 30
0.0
  0
POINT
  5
128C
330
94D
100
AcDbEntity
  8
DEFPOINTS
 62
     0
100
AcDbPoint
 10
89.94189741762843
 20
277.2754716981131
 30
0.0
  0
POINT
  5
128D
330
94D
100
AcDbEntity
  8
DEFPOINTS
 62
     0
100
AcDbPoint
 10
63.17299860214983
 20
277.2754716981131
 30
0.0
  0
ENDBLK
  5
958
330
94D
100
AcDbEntity
  8
0
100
AcDbBlockEnd
  0
BLOCK
  5
966
330
95A
100
AcDbEntity
  8
0
100
AcDbBlockBegin
  2
*D6
 70
     1
 10
0.0
 20
0.0
 30
0.0
  3
*D6
  1

  0
LINE
  5
127A
330
95A
100
AcDbEntity
  8
SUNPOU
100
AcDbLine
 10
156.1729986021498
 20
169.8320754716981
 30
0.0
 11
187.1729986021498
 21
169.8320754716981
 31
0.0
  0
LINE
  5
127B
330
95A
100
AcDbEntity
  8
SUNPOU
100
AcDbLine
 10
150.1729986021498
 20
179.832075471698
 30
0.0
 11
187.1729986021498
 21
179.832075471698
 31
0.0
  0
LINE
  5
127C
330
95A
100
AcDbEntity
  8
SUNPOU
100
AcDbLine
 10
185.1729986021498
 20
164.832075471698
 30
0.0
 11
185.1729986021498
 21
159.832075471698
 31
0.0
  0
LINE
  5
127D
330
95A
100
AcDbEntity
  8
SUNPOU
100
AcDbLine
 10
185.1729986021498
 20
184.8320754716979
 30
0.0
 11
185.1729986021498
 21
189.832075471698
 31
0.0
  0
LINE
  5
127E
330
95A
100
AcDbEntity
  8
SUNPOU
100
AcDbLine
 10
185.1729986021498
 20
169.8320754716981
 30
0.0
 11
185.1729986021498
 21
179.832075471698
 31
0.0
  0
INSERT
  5
127F
330
95A
100
AcDbEntity
  8
SUNPOU
100
AcDbBlockReference
  2
_OPEN30
 10
185.1729986021498
 20
169.8320754716981
 30
0.0
 41
5.0
 42
5.0
 43
5.0
 50
90.0
  0
INSERT
  5
1280
330
95A
100
AcDbEntity
  8
SUNPOU
100
AcDbBlockReference
  2
_OPEN30
 10
185.1729986021498
 20
179.832075471698
 30
0.0
 41
5.0
 42
5.0
 43
5.0
 50
270.0
  0
MTEXT
  5
1281
330
95A
100
AcDbEntity
  8
SUNPOU
100
AcDbMText
 10
180.6729986021498
 20
174.8320754716981
 30
0.0
 40
5.0
 41
0.0
 71
     5
 72
     1
  1
\A1;10
  7
SUNPOU
 11
0.0000000000000001
 21
1.0
 31
0.0
1001
ACAD
1000
MTEXTBEGIN
1070
    73
1070
     1
1070
    44
1040
1.0
1070
    74
1070
     0
1000
MTEXTEND
1000
MTEXTBEGIN
1070
    73
1070
     1
1070
    44
1040
1.0
1070
    74
1070
     0
1000
MTEXTEND
  0
POINT
  5
1282
330
95A
100
AcDbEntity
  8
DEFPOINTS
 62
     0
100
AcDbPoint
 10
153.1729986021498
 20
169.8320754716981
 30
0.0
  0
POINT
  5
1283
330
95A
100
AcDbEntity
  8
DEFPOINTS
 62
     0
100
AcDbPoint
 10
147.1729986021498
 20
179.832075471698
 30
0.0
  0
POINT
  5
1284
330
95A
100
AcDbEntity
  8
DEFPOINTS
 62
     0
100
AcDbPoint
 10
185.1729986021498
 20
179.832075471698
 30
0.0
  0
ENDBLK
  5
967
330
95A
100
AcDbEntity
  8
0
100
AcDbBlockEnd
  0
BLOCK
  5
973
330
969
100
AcDbEntity
  8
0
100
AcDbBlockBegin
  2
*D7
 70
     1
 10
0.0
 20
0.0
 30
0.0
  3
*D7
  1

  0
LINE
  5
1271
330
969
100
AcDbEntity
  8
SUNPOU
100
AcDbLine
 10
150.1729986021498
 20
179.832075471698
 30
0.0
 11
187.1729986021498
 21
179.832075471698
 31
0.0
  0
LINE
  5
1272
330
969
100
AcDbEntity
  8
SUNPOU
100
AcDbLine
 10
156.1729986021498
 20
339.8320754716982
 30
0.0
 11
187.1729986021499
 21
339.8320754716982
 31
0.0
  0
LINE
  5
1273
330
969
100
AcDbEntity
  8
SUNPOU
100
AcDbLine
 10
185.1729986021498
 20
184.8320754716979
 30
0.0
 11
185.1729986021499
 21
334.8320754716981
 31
0.0
  0
INSERT
  5
1274
330
969
100
AcDbEntity
  8
SUNPOU
100
AcDbBlockReference
  2
_OPEN30
 10
185.1729986021498
 20
179.832075471698
 30
0.0
 41
5.0
 42
5.0
 43
5.0
 50
270.0
  0
INSERT
  5
1275
330
969
100
AcDbEntity
  8
SUNPOU
100
AcDbBlockReference
  2
_OPEN30
 10
185.1729986021499
 20
339.8320754716982
 30
0.0
 41
5.0
 42
5.0
 43
5.0
 50
90.0
  0
MTEXT
  5
1276
330
969
100
AcDbEntity
  8
SUNPOU
100
AcDbMText
 10
180.6729986021498
 20
259.8320754716981
 30
0.0
 40
5.0
 41
0.0
 71
     5
 72
     1
  1
\A1;DH
  7
SUNPOU
 11
0.0000000000000001
 21
1.0
 31
0.0
1001
ACAD
1000
MTEXTBEGIN
1070
    73
1070
     1
1070
    44
1040
1.0
1070
    74
1070
     0
1000
MTEXTEND
1000
MTEXTBEGIN
1070
    73
1070
     1
1070
    44
1040
1.0
1070
    74
1070
     0
1000
MTEXTEND
  0
POINT
  5
1277
330
969
100
AcDbEntity
  8
DEFPOINTS
 62
     0
100
AcDbPoint
 10
147.1729986021498
 20
179.832075471698
 30
0.0
  0
POINT
  5
1278
330
969
100
AcDbEntity
  8
DEFPOINTS
 62
     0
100
AcDbPoint
 10
153.1729986021498
 20
339.8320754716982
 30
0.0
  0
POINT
  5
1279
330
969
100
AcDbEntity
  8
DEFPOINTS
 62
     0
100
AcDbPoint
 10
185.1729986021499
 20
339.8320754716982
 30
0.0
  0
ENDBLK
  5
974
330
969
100
AcDbEntity
  8
0
100
AcDbBlockEnd
  0
BLOCK
  5
982
330
976
100
AcDbEntity
  8
0
100
AcDbBlockBegin
  2
*D8
 70
     1
 10
0.0
 20
0.0
 30
0.0
  3
*D8
  1

  0
LINE
  5
1266
330
976
100
AcDbEntity
  8
SUNPOU
100
AcDbLine
 10
156.1729986021498
 20
339.8320754716982
 30
0.0
 11
187.1729986021499
 21
339.8320754716982
 31
0.0
  0
LINE
  5
1267
330
976
100
AcDbEntity
  8
SUNPOU
100
AcDbLine
 10
150.1729986021498
 20
349.8320754716981
 30
0.0
 11
187.1729986021499
 21
349.8320754716981
 31
0.0
  0
LINE
  5
1268
330
976
100
AcDbEntity
  8
SUNPOU
100
AcDbLine
 10
185.1729986021499
 20
334.8320754716981
 30
0.0
 11
185.1729986021499
 21
329.8320754716982
 31
0.0
  0
LINE
  5
1269
330
976
100
AcDbEntity
  8
SUNPOU
100
AcDbLine
 10
185.1729986021499
 20
354.8320754716981
 30
0.0
 11
185.1729986021499
 21
359.8320754716981
 31
0.0
  0
LINE
  5
126A
330
976
100
AcDbEntity
  8
SUNPOU
100
AcDbLine
 10
185.1729986021499
 20
339.8320754716982
 30
0.0
 11
185.1729986021499
 21
349.8320754716981
 31
0.0
  0
INSERT
  5
126B
330
976
100
AcDbEntity
  8
SUNPOU
100
AcDbBlockReference
  2
_OPEN30
 10
185.1729986021499
 20
339.8320754716982
 30
0.0
 41
5.0
 42
5.0
 43
5.0
 50
90.0
  0
INSERT
  5
126C
330
976
100
AcDbEntity
  8
SUNPOU
100
AcDbBlockReference
  2
_OPEN30
 10
185.1729986021499
 20
349.8320754716981
 30
0.0
 41
5.0
 42
5.0
 43
5.0
 50
270.0
  0
MTEXT
  5
126D
330
976
100
AcDbEntity
  8
SUNPOU
100
AcDbMText
 10
180.6729986021498
 20
344.8320754716981
 30
0.0
 40
5.0
 41
0.0
 71
     5
 72
     1
  1
\A1;10
  7
SUNPOU
 11
0.0000000000000001
 21
1.0
 31
0.0
1001
ACAD
1000
MTEXTBEGIN
1070
    73
1070
     1
1070
    44
1040
1.0
1070
    74
1070
     0
1000
MTEXTEND
1000
MTEXTBEGIN
1070
    73
1070
     1
1070
    44
1040
1.0
1070
    74
1070
     0
1000
MTEXTEND
  0
POINT
  5
126E
330
976
100
AcDbEntity
  8
DEFPOINTS
 62
     0
100
AcDbPoint
 10
153.1729986021498
 20
339.8320754716982
 30
0.0
  0
POINT
  5
126F
330
976
100
AcDbEntity
  8
DEFPOINTS
 62
     0
100
AcDbPoint
 10
147.1729986021498
 20
349.8320754716981
 30
0.0
  0
POINT
  5
1270
330
976
100
AcDbEntity
  8
DEFPOINTS
 62
     0
100
AcDbPoint
 10
185.1729986021499
 20
349.8320754716981
 30
0.0
  0
ENDBLK
  5
983
330
976
100
AcDbEntity
  8
0
100
AcDbBlockEnd
  0
BLOCK
  5
98F
330
985
100
AcDbEntity
  8
0
100
AcDbBlockBegin
  2
*D9
 70
     1
 10
0.0
 20
0.0
 30
0.0
  3
*D9
  1

  0
LINE
  5
125D
330
985
100
AcDbEntity
  8
SUNPOU
100
AcDbLine
 10
198.1729986021498
 20
169.8320754716981
 30
0.0
 11
199.1729986021496
 21
169.8320754716981
 31
0.0
  0
LINE
  5
125E
330
985
100
AcDbEntity
  8
SUNPOU
100
AcDbLine
 10
156.1729986021498
 20
339.8320754716982
 30
0.0
 11
203.1729986021498
 21
339.8320754716982
 31
0.0
  0
LINE
  5
125F
330
985
100
AcDbEntity
  8
SUNPOU
100
AcDbLine
 10
201.1729986021498
 20
174.8320754716981
 30
0.0
 11
201.1729986021498
 21
334.8320754716981
 31
0.0
  0
INSERT
  5
1260
330
985
100
AcDbEntity
  8
SUNPOU
100
AcDbBlockReference
  2
_OPEN30
 10
201.1729986021498
 20
169.8320754716981
 30
0.0
 41
5.0
 42
5.0
 43
5.0
 50
270.0
  0
INSERT
  5
1261
330
985
100
AcDbEntity
  8
SUNPOU
100
AcDbBlockReference
  2
_OPEN30
 10
201.1729986021498
 20
339.8320754716982
 30
0.0
 41
5.0
 42
5.0
 43
5.0
 50
90.0
  0
MTEXT
  5
1262
330
985
100
AcDbEntity
  8
SUNPOU
100
AcDbMText
 10
196.6729986021498
 20
254.8320754716981
 30
0.0
 40
5.0
 41
0.0
 71
     5
 72
     1
  1
\A1;H
  7
SUNPOU
 11
0.0000000000000001
 21
1.0
 31
0.0
1001
ACAD
1000
MTEXTBEGIN
1070
    73
1070
     1
1070
    44
1040
1.0
1070
    74
1070
     0
1000
MTEXTEND
1000
MTEXTBEGIN
1070
    73
1070
     1
1070
    44
1040
1.0
1070
    74
1070
     0
1000
MTEXTEND
  0
POINT
  5
1263
330
985
100
AcDbEntity
  8
DEFPOINTS
 62
     0
100
AcDbPoint
 10
201.1729986021498
 20
169.8320754716981
 30
0.0
  0
POINT
  5
1264
330
985
100
AcDbEntity
  8
DEFPOINTS
 62
     0
100
AcDbPoint
 10
153.1729986021498
 20
339.8320754716982
 30
0.0
  0
POINT
  5
1265
330
985
100
AcDbEntity
  8
DEFPOINTS
 62
     0
100
AcDbPoint
 10
201.1729986021498
 20
339.8320754716982
 30
0.0
  0
ENDBLK
  5
990
330
985
100
AcDbEntity
  8
0
100
AcDbBlockEnd
  0
BLOCK
  5
99C
330
992
100
AcDbEntity
  8
0
100
AcDbBlockBegin
  2
*D10
 70
     1
 10
0.0
 20
0.0
 30
0.0
  3
*D10
  1

  0
LINE
  5
1254
330
992
100
AcDbEntity
  8
SUNPOU
100
AcDbLine
 10
156.1729986021498
 20
339.8320754716982
 30
0.0
 11
203.1729986021498
 21
339.8320754716982
 31
0.0
  0
LINE
  5
1255
330
992
100
AcDbEntity
  8
SUNPOU
100
AcDbLine
 10
156.1729986021498
 20
489.8320754716981
 30
0.0
 11
203.1729986021498
 21
489.8320754716981
 31
0.0
  0
LINE
  5
1256
330
992
100
AcDbEntity
  8
SUNPOU
100
AcDbLine
 10
201.1729986021498
 20
344.8320754716981
 30
0.0
 11
201.1729986021498
 21
484.8320754716981
 31
0.0
  0
INSERT
  5
1257
330
992
100
AcDbEntity
  8
SUNPOU
100
AcDbBlockReference
  2
_OPEN30
 10
201.1729986021498
 20
339.8320754716982
 30
0.0
 41
5.0
 42
5.0
 43
5.0
 50
270.0
  0
INSERT
  5
1258
330
992
100
AcDbEntity
  8
SUNPOU
100
AcDbBlockReference
  2
_OPEN30
 10
201.1729986021498
 20
489.8320754716981
 30
0.0
 41
5.0
 42
5.0
 43
5.0
 50
90.0
  0
MTEXT
  5
1259
330
992
100
AcDbEntity
  8
SUNPOU
100
AcDbMText
 10
196.6729986021498
 20
414.8320754716981
 30
0.0
 40
5.0
 41
0.0
 71
     5
 72
     1
  1
\A1;150
  7
SUNPOU
 11
0.0000000000000001
 21
1.0
 31
0.0
1001
ACAD
1000
MTEXTBEGIN
1070
    73
1070
     1
1070
    44
1040
1.0
1070
    74
1070
     0
1000
MTEXTEND
1000
MTEXTBEGIN
1070
    73
1070
     1
1070
    44
1040
1.0
1070
    74
1070
     0
1000
MTEXTEND
  0
POINT
  5
125A
330
992
100
AcDbEntity
  8
DEFPOINTS
 62
     0
100
AcDbPoint
 10
153.1729986021498
 20
339.8320754716982
 30
0.0
  0
POINT
  5
125B
330
992
100
AcDbEntity
  8
DEFPOINTS
 62
     0
100
AcDbPoint
 10
153.1729986021498
 20
489.8320754716981
 30
0.0
  0
POINT
  5
125C
330
992
100
AcDbEntity
  8
DEFPOINTS
 62
     0
100
AcDbPoint
 10
201.1729986021498
 20
489.8320754716981
 30
0.0
  0
ENDBLK
  5
99D
330
992
100
AcDbEntity
  8
0
100
AcDbBlockEnd
  0
BLOCK
  5
9A9
330
99F
100
AcDbEntity
  8
0
100
AcDbBlockBegin
  2
*D11
 70
     1
 10
0.0
 20
0.0
 30
0.0
  3
*D11
  1

  0
LINE
  5
124B
330
99F
100
AcDbEntity
  8
SUNPOU
100
AcDbLine
 10
83.17299860214985
 20
336.8320754716982
 30
0.0
 11
83.17299860214985
 21
317.0634648370496
 31
0.0
  0
LINE
  5
124C
330
99F
100
AcDbEntity
  8
SUNPOU
100
AcDbLine
 10
132.6729986021497
 20
322.0634648370496
 30
0.0
 11
132.6729986021497
 21
321.0634648370496
 31
0.0
  0
LINE
  5
124D
330
99F
100
AcDbEntity
  8
SUNPOU
100
AcDbLine
 10
88.17299860214985
 20
319.0634648370496
 30
0.0
 11
127.6729986021498
 21
319.0634648370496
 31
0.0
  0
INSERT
  5
124E
330
99F
100
AcDbEntity
  8
SUNPOU
100
AcDbBlockReference
  2
_OPEN30
 10
83.17299860214985
 20
319.0634648370496
 30
0.0
 41
5.0
 42
5.0
 43
5.0
 50
180.0
  0
INSERT
  5
124F
330
99F
100
AcDbEntity
  8
SUNPOU
100
AcDbBlockReference
  2
_OPEN30
 10
132.6729986021497
 20
319.0634648370496
 30
0.0
 41
5.0
 42
5.0
 43
5.0
  0
MTEXT
  5
1250
330
99F
100
AcDbEntity
  8
SUNPOU
100
AcDbMText
 10
107.9229986021498
 20
323.5634648370496
 30
0.0
 40
5.0
 41
0.0
 71
     5
 72
     1
  1
\A1;49.5
  7
SUNPOU
1001
ACAD
1000
MTEXTBEGIN
1070
    73
1070
     1
1070
    44
1040
1.0
1070
    74
1070
     0
1000
MTEXTEND
1000
MTEXTBEGIN
1070
    73
1070
     1
1070
    44
1040
1.0
1070
    74
1070
     0
1000
MTEXTEND
  0
POINT
  5
1251
330
99F
100
AcDbEntity
  8
DEFPOINTS
 62
     0
100
AcDbPoint
 10
83.17299860214985
 20
339.8320754716982
 30
0.0
  0
POINT
  5
1252
330
99F
100
AcDbEntity
  8
DEFPOINTS
 62
     0
100
AcDbPoint
 10
132.6729986021497
 20
319.0634648370496
 30
0.0
  0
POINT
  5
1253
330
99F
100
AcDbEntity
  8
DEFPOINTS
 62
     0
100
AcDbPoint
 10
132.6729986021497
 20
319.0634648370496
 30
0.0
  0
ENDBLK
  5
9AA
330
99F
100
AcDbEntity
  8
0
100
AcDbBlockEnd
  0
BLOCK
  5
9B6
330
9AC
100
AcDbEntity
  8
0
100
AcDbBlockBegin
  2
*D12
 70
     1
 10
0.0
 20
0.0
 30
0.0
  3
*D12
  1

  0
LINE
  5
1242
330
9AC
100
AcDbEntity
  8
SUNPOU
100
AcDbLine
 10
132.6729986021497
 20
322.0634648370496
 30
0.0
 11
132.6729986021497
 21
321.0634648370496
 31
0.0
  0
LINE
  5
1243
330
9AC
100
AcDbEntity
  8
SUNPOU
100
AcDbLine
 10
153.1729986021498
 20
336.8320754716982
 30
0.0
 11
153.1729986021498
 21
317.0634648370496
 31
0.0
  0
LINE
  5
1244
330
9AC
100
AcDbEntity
  8
SUNPOU
100
AcDbLine
 10
137.6729986021497
 20
319.0634648370496
 30
0.0
 11
148.1729986021498
 21
319.0634648370496
 31
0.0
  0
INSERT
  5
1245
330
9AC
100
AcDbEntity
  8
SUNPOU
100
AcDbBlockReference
  2
_OPEN30
 10
132.6729986021497
 20
319.0634648370496
 30
0.0
 41
5.0
 42
5.0
 43
5.0
 50
180.0
  0
INSERT
  5
1246
330
9AC
100
AcDbEntity
  8
SUNPOU
100
AcDbBlockReference
  2
_OPEN30
 10
153.1729986021498
 20
319.0634648370496
 30
0.0
 41
5.0
 42
5.0
 43
5.0
  0
MTEXT
  5
1247
330
9AC
100
AcDbEntity
  8
SUNPOU
100
AcDbMText
 10
142.9229986021498
 20
323.5634648370496
 30
0.0
 40
5.0
 41
0.0
 71
     5
 72
     1
  1
\A1;20.5
  7
SUNPOU
1001
ACAD
1000
MTEXTBEGIN
1070
    73
1070
     1
1070
    44
1040
1.0
1070
    74
1070
     0
1000
MTEXTEND
1000
MTEXTBEGIN
1070
    73
1070
     1
1070
    44
1040
1.0
1070
    74
1070
     0
1000
MTEXTEND
  0
POINT
  5
1248
330
9AC
100
AcDbEntity
  8
DEFPOINTS
 62
     0
100
AcDbPoint
 10
132.6729986021497
 20
319.0634648370496
 30
0.0
  0
POINT
  5
1249
330
9AC
100
AcDbEntity
  8
DEFPOINTS
 62
     0
100
AcDbPoint
 10
153.1729986021498
 20
339.8320754716982
 30
0.0
  0
POINT
  5
124A
330
9AC
100
AcDbEntity
  8
DEFPOINTS
 62
     0
100
AcDbPoint
 10
153.1729986021498
 20
319.0634648370496
 30
0.0
  0
ENDBLK
  5
9B7
330
9AC
100
AcDbEntity
  8
0
100
AcDbBlockEnd
  0
BLOCK
  5
9DF
330
9D5
100
AcDbEntity
  8
0
100
AcDbBlockBegin
  2
*D13
 70
     1
 10
0.0
 20
0.0
 30
0.0
  3
*D13
  1

  0
LINE
  5
1239
330
9D5
100
AcDbEntity
  8
SUNPOU
100
AcDbLine
 10
247.1286489076625
 20
339.8320754716982
 30
0.0
 11
228.1286489076625
 21
339.8320754716982
 31
0.0
  0
LINE
  5
123A
330
9D5
100
AcDbEntity
  8
SUNPOU
100
AcDbLine
 10
237.3538752561031
 20
412.3320754716981
 30
0.0
 11
228.1286489076625
 21
412.3320754716981
 31
0.0
  0
LINE
  5
123B
330
9D5
100
AcDbEntity
  8
SUNPOU
100
AcDbLine
 10
230.1286489076625
 20
344.8320754716981
 30
0.0
 11
230.1286489076625
 21
407.3320754716981
 31
0.0
  0
INSERT
  5
123C
330
9D5
100
AcDbEntity
  8
SUNPOU
100
AcDbBlockReference
  2
_OPEN30
 10
230.1286489076625
 20
339.8320754716982
 30
0.0
 41
5.0
 42
5.0
 43
5.0
 50
270.0
  0
INSERT
  5
123D
330
9D5
100
AcDbEntity
  8
SUNPOU
100
AcDbBlockReference
  2
_OPEN30
 10
230.1286489076625
 20
412.3320754716981
 30
0.0
 41
5.0
 42
5.0
 43
5.0
 50
90.0
  0
MTEXT
  5
123E
330
9D5
100
AcDbEntity
  8
SUNPOU
100
AcDbMText
 10
225.6286489076623
 20
376.0820754716981
 30
0.0
 40
5.0
 41
0.0
 71
     5
 72
     1
  1
\A1;72.5
  7
SUNPOU
 11
0.0000000000000001
 21
1.0
 31
0.0
1001
ACAD
1000
MTEXTBEGIN
1070
    73
1070
     1
1070
    44
1040
1.0
1070
    74
1070
     0
1000
MTEXTEND
1000
MTEXTBEGIN
1070
    73
1070
     1
1070
    44
1040
1.0
1070
    74
1070
     0
1000
MTEXTEND
  0
POINT
  5
123F
330
9D5
100
AcDbEntity
  8
DEFPOINTS
 62
     0
100
AcDbPoint
 10
250.1286489076623
 20
339.8320754716982
 30
0.0
  0
POINT
  5
1240
330
9D5
100
AcDbEntity
  8
DEFPOINTS
 62
     0
100
AcDbPoint
 10
240.353875256103
 20
412.3320754716981
 30
0.0
  0
POINT
  5
1241
330
9D5
100
AcDbEntity
  8
DEFPOINTS
 62
     0
100
AcDbPoint
 10
230.1286489076625
 20
412.3320754716981
 30
0.0
  0
ENDBLK
  5
9E0
330
9D5
100
AcDbEntity
  8
0
100
AcDbBlockEnd
  0
BLOCK
  5
9EC
330
9E2
100
AcDbEntity
  8
0
100
AcDbBlockBegin
  2
*D14
 70
     1
 10
0.0
 20
0.0
 30
0.0
  3
*D14
  1

  0
LINE
  5
1230
330
9E2
100
AcDbEntity
  8
SUNPOU
100
AcDbLine
 10
250.1286489076623
 20
336.8320754716982
 30
0.0
 11
250.1286489076623
 21
317.4885764499121
 31
0.0
  0
LINE
  5
1231
330
9E2
100
AcDbEntity
  8
SUNPOU
100
AcDbLine
 10
305.1286489076625
 20
359.1729559748427
 30
0.0
 11
305.1286489076625
 21
317.4885764499121
 31
0.0
  0
LINE
  5
1232
330
9E2
100
AcDbEntity
  8
SUNPOU
100
AcDbLine
 10
255.1286489076625
 20
319.4885764499121
 30
0.0
 11
300.1286489076625
 21
319.4885764499121
 31
0.0
  0
INSERT
  5
1233
330
9E2
100
AcDbEntity
  8
SUNPOU
100
AcDbBlockReference
  2
_OPEN30
 10
250.1286489076623
 20
319.4885764499121
 30
0.0
 41
5.0
 42
5.0
 43
5.0
 50
180.0
  0
INSERT
  5
1234
330
9E2
100
AcDbEntity
  8
SUNPOU
100
AcDbBlockReference
  2
_OPEN30
 10
305.1286489076625
 20
319.4885764499121
 30
0.0
 41
5.0
 42
5.0
 43
5.0
  0
MTEXT
  5
1235
330
9E2
100
AcDbEntity
  8
SUNPOU
100
AcDbMText
 10
277.6286489076625
 20
323.9885764499121
 30
0.0
 40
5.0
 41
0.0
 71
     5
 72
     1
  1
\A1;55
  7
SUNPOU
1001
ACAD
1000
MTEXTBEGIN
1070
    73
1070
     1
1070
    44
1040
1.0
1070
    74
1070
     0
1000
MTEXTEND
1000
MTEXTBEGIN
1070
    73
1070
     1
1070
    44
1040
1.0
1070
    74
1070
     0
1000
MTEXTEND
  0
POINT
  5
1236
330
9E2
100
AcDbEntity
  8
DEFPOINTS
 62
     0
100
AcDbPoint
 10
250.1286489076623
 20
339.8320754716982
 30
0.0
  0
POINT
  5
1237
330
9E2
100
AcDbEntity
  8
DEFPOINTS
 62
     0
100
AcDbPoint
 10
305.1286489076625
 20
362.1729559748426
 30
0.0
  0
POINT
  5
1238
330
9E2
100
AcDbEntity
  8
DEFPOINTS
 62
     0
100
AcDbPoint
 10
305.1286489076625
 20
319.4885764499121
 30
0.0
  0
ENDBLK
  5
9ED
330
9E2
100
AcDbEntity
  8
0
100
AcDbBlockEnd
  0
BLOCK
  5
9F9
330
9EF
100
AcDbEntity
  8
0
100
AcDbBlockBegin
  2
*D15
 70
     1
 10
0.0
 20
0.0
 30
0.0
  3
*D15
  1

  0
LINE
  5
1227
330
9EF
100
AcDbEntity
  8
SUNPOU
100
AcDbLine
 10
305.1286489076625
 20
359.1729559748427
 30
0.0
 11
305.1286489076625
 21
317.4885764499121
 31
0.0
  0
LINE
  5
1228
330
9EF
100
AcDbEntity
  8
SUNPOU
100
AcDbLine
 10
320.1286489076625
 20
336.8320754716982
 30
0.0
 11
320.1286489076625
 21
317.4885764499121
 31
0.0
  0
LINE
  5
1229
330
9EF
100
AcDbEntity
  8
SUNPOU
100
AcDbLine
 10
310.1286489076625
 20
319.4885764499121
 30
0.0
 11
315.1286489076625
 21
319.4885764499121
 31
0.0
  0
INSERT
  5
122A
330
9EF
100
AcDbEntity
  8
SUNPOU
100
AcDbBlockReference
  2
_OPEN30
 10
305.1286489076625
 20
319.4885764499121
 30
0.0
 41
5.0
 42
5.0
 43
5.0
 50
180.0
  0
INSERT
  5
122B
330
9EF
100
AcDbEntity
  8
SUNPOU
100
AcDbBlockReference
  2
_OPEN30
 10
320.1286489076625
 20
319.4885764499121
 30
0.0
 41
5.0
 42
5.0
 43
5.0
  0
MTEXT
  5
122C
330
9EF
100
AcDbEntity
  8
SUNPOU
100
AcDbMText
 10
312.6286489076625
 20
323.9885764499121
 30
0.0
 40
5.0
 41
0.0
 71
     5
 72
     1
  1
\A1;15
  7
SUNPOU
1001
ACAD
1000
MTEXTBEGIN
1070
    73
1070
     1
1070
    44
1040
1.0
1070
    74
1070
     0
1000
MTEXTEND
1000
MTEXTBEGIN
1070
    73
1070
     1
1070
    44
1040
1.0
1070
    74
1070
     0
1000
MTEXTEND
  0
POINT
  5
122D
330
9EF
100
AcDbEntity
  8
DEFPOINTS
 62
     0
100
AcDbPoint
 10
305.1286489076625
 20
362.1729559748426
 30
0.0
  0
POINT
  5
122E
330
9EF
100
AcDbEntity
  8
DEFPOINTS
 62
     0
100
AcDbPoint
 10
320.1286489076625
 20
339.8320754716982
 30
0.0
  0
POINT
  5
122F
330
9EF
100
AcDbEntity
  8
DEFPOINTS
 62
     0
100
AcDbPoint
 10
320.1286489076625
 20
319.4885764499121
 30
0.0
  0
ENDBLK
  5
9FA
330
9EF
100
AcDbEntity
  8
0
100
AcDbBlockEnd
  0
BLOCK
  5
A06
330
9FC
100
AcDbEntity
  8
0
100
AcDbBlockBegin
  2
*D16
 70
     1
 10
0.0
 20
0.0
 30
0.0
  3
*D16
  1

  0
LINE
  5
1313
330
9FC
100
AcDbEntity
  8
SUNPOU
100
AcDbLine
 10
323.1286489076625
 20
339.8320754716982
 30
0.0
 11
342.1286489076625
 21
339.8320754716982
 31
0.0
  0
LINE
  5
1314
330
9FC
100
AcDbEntity
  8
SUNPOU
100
AcDbLine
 10
317.4886489076623
 20
377.3320754716981
 30
0.0
 11
342.1286489076625
 21
377.3320754716981
 31
0.0
  0
LINE
  5
1315
330
9FC
100
AcDbEntity
  8
SUNPOU
100
AcDbLine
 10
340.1286489076625
 20
344.8320754716981
 30
0.0
 11
340.1286489076625
 21
372.3320754716981
 31
0.0
  0
MTEXT
  5
1316
330
9FC
100
AcDbEntity
  8
SUNPOU
100
AcDbMText
 10
335.6286489076623
 20
354.0509947411107
 30
0.0
 40
5.0
 41
0.0
 71
     5
 72
     1
  1
\A1;37.5
  7
SUNPOU
 11
0.0000000000000001
 21
1.0
 31
0.0
1001
ACAD
1000
MTEXTBEGIN
1070
    73
1070
     1
1070
    44
1040
1.0
1070
    74
1070
     0
1000
MTEXTEND
1000
MTEXTBEGIN
1070
    73
1070
     1
1070
    44
1040
1.0
1070
    74
1070
     0
1000
MTEXTEND
  0
INSERT
  5
1317
330
9FC
100
AcDbEntity
  8
SUNPOU
100
AcDbBlockReference
  2
_OPEN30
 10
340.1286489076625
 20
339.8320754716982
 30
0.0
 41
5.0
 42
5.0
 43
5.0
 50
270.0
  0
INSERT
  5
1318
330
9FC
100
AcDbEntity
  8
SUNPOU
100
AcDbBlockReference
  2
_OPEN30
 10
340.1286489076625
 20
377.3320754716981
 30
0.0
 41
5.0
 42
5.0
 43
5.0
 50
90.0
  0
POINT
  5
1319
330
9FC
100
AcDbEntity
  8
DEFPOINTS
 62
     0
100
AcDbPoint
 10
320.1286489076625
 20
339.8320754716982
 30
0.0
  0
POINT
  5
131A
330
9FC
100
AcDbEntity
  8
DEFPOINTS
 62
     0
100
AcDbPoint
 10
314.4886489076625
 20
377.3320754716981
 30
0.0
  0
POINT
  5
131B
330
9FC
100
AcDbEntity
  8
DEFPOINTS
 62
     0
100
AcDbPoint
 10
340.1286489076625
 20
377.3320754716981
 30
0.0
  0
ENDBLK
  5
A07
330
9FC
100
AcDbEntity
  8
0
100
AcDbBlockEnd
  0
BLOCK
  5
A13
330
A09
100
AcDbEntity
  8
0
100
AcDbBlockBegin
  2
*D17
 70
     1
 10
0.0
 20
0.0
 30
0.0
  3
*D17
  1

  0
LINE
  5
1215
330
A09
100
AcDbEntity
  8
SUNPOU
100
AcDbLine
 10
317.4886489076623
 20
377.3320754716981
 30
0.0
 11
342.1286489076625
 21
377.3320754716981
 31
0.0
  0
LINE
  5
1216
330
A09
100
AcDbEntity
  8
SUNPOU
100
AcDbLine
 10
316.4086489076625
 20
392.3320754716981
 30
0.0
 11
342.1286489076625
 21
392.3320754716981
 31
0.0
  0
LINE
  5
1217
330
A09
100
AcDbEntity
  8
SUNPOU
100
AcDbLine
 10
340.1286489076625
 20
382.3320754716981
 30
0.0
 11
340.1286489076625
 21
387.3320754716981
 31
0.0
  0
INSERT
  5
1218
330
A09
100
AcDbEntity
  8
SUNPOU
100
AcDbBlockReference
  2
_OPEN30
 10
340.1286489076625
 20
377.3320754716981
 30
0.0
 41
5.0
 42
5.0
 43
5.0
 50
270.0
  0
INSERT
  5
1219
330
A09
100
AcDbEntity
  8
SUNPOU
100
AcDbBlockReference
  2
_OPEN30
 10
340.1286489076625
 20
392.3320754716981
 30
0.0
 41
5.0
 42
5.0
 43
5.0
 50
90.0
  0
MTEXT
  5
121A
330
A09
100
AcDbEntity
  8
SUNPOU
100
AcDbMText
 10
335.6286489076623
 20
384.8320754716981
 30
0.0
 40
5.0
 41
0.0
 71
     5
 72
     1
  1
\A1;15
  7
SUNPOU
 11
0.0000000000000001
 21
1.0
 31
0.0
1001
ACAD
1000
MTEXTBEGIN
1070
    73
1070
     1
1070
    44
1040
1.0
1070
    74
1070
     0
1000
MTEXTEND
1000
MTEXTBEGIN
1070
    73
1070
     1
1070
    44
1040
1.0
1070
    74
1070
     0
1000
MTEXTEND
  0
POINT
  5
121B
330
A09
100
AcDbEntity
  8
DEFPOINTS
 62
     0
100
AcDbPoint
 10
314.4886489076625
 20
377.3320754716981
 30
0.0
  0
POINT
  5
121C
330
A09
100
AcDbEntity
  8
DEFPOINTS
 62
     0
100
AcDbPoint
 10
313.4086489076624
 20
392.3320754716981
 30
0.0
  0
POINT
  5
121D
330
A09
100
AcDbEntity
  8
DEFPOINTS
 62
     0
100
AcDbPoint
 10
340.1286489076625
 20
392.3320754716981
 30
0.0
  0
ENDBLK
  5
A14
330
A09
100
AcDbEntity
  8
0
100
AcDbBlockEnd
  0
BLOCK
  5
A20
330
A16
100
AcDbEntity
  8
0
100
AcDbBlockBegin
  2
*D18
 70
     1
 10
0.0
 20
0.0
 30
0.0
  3
*D18
  1

  0
LINE
  5
120C
330
A16
100
AcDbEntity
  8
SUNPOU
100
AcDbLine
 10
316.4086489076625
 20
392.3320754716981
 30
0.0
 11
342.1286489076625
 21
392.3320754716981
 31
0.0
  0
LINE
  5
120D
330
A16
100
AcDbEntity
  8
SUNPOU
100
AcDbLine
 10
316.4086489076625
 20
432.3320754716981
 30
0.0
 11
342.1286489076625
 21
432.3320754716981
 31
0.0
  0
LINE
  5
120E
330
A16
100
AcDbEntity
  8
SUNPOU
100
AcDbLine
 10
340.1286489076625
 20
397.3320754716981
 30
0.0
 11
340.1286489076625
 21
427.3320754716981
 31
0.0
  0
INSERT
  5
120F
330
A16
100
AcDbEntity
  8
SUNPOU
100
AcDbBlockReference
  2
_OPEN30
 10
340.1286489076625
 20
392.3320754716981
 30
0.0
 41
5.0
 42
5.0
 43
5.0
 50
270.0
  0
INSERT
  5
1210
330
A16
100
AcDbEntity
  8
SUNPOU
100
AcDbBlockReference
  2
_OPEN30
 10
340.1286489076625
 20
432.3320754716981
 30
0.0
 41
5.0
 42
5.0
 43
5.0
 50
90.0
  0
MTEXT
  5
1211
330
A16
100
AcDbEntity
  8
SUNPOU
100
AcDbMText
 10
335.6286489076623
 20
412.3320754716981
 30
0.0
 40
5.0
 41
0.0
 71
     5
 72
     1
  1
\A1;40
  7
SUNPOU
 11
0.0000000000000001
 21
1.0
 31
0.0
1001
ACAD
1000
MTEXTBEGIN
1070
    73
1070
     1
1070
    44
1040
1.0
1070
    74
1070
     0
1000
MTEXTEND
1000
MTEXTBEGIN
1070
    73
1070
     1
1070
    44
1040
1.0
1070
    74
1070
     0
1000
MTEXTEND
  0
POINT
  5
1212
330
A16
100
AcDbEntity
  8
DEFPOINTS
 62
     0
100
AcDbPoint
 10
313.4086489076624
 20
392.3320754716981
 30
0.0
  0
POINT
  5
1213
330
A16
100
AcDbEntity
  8
DEFPOINTS
 62
     0
100
AcDbPoint
 10
313.4086489076624
 20
432.3320754716981
 30
0.0
  0
POINT
  5
1214
330
A16
100
AcDbEntity
  8
DEFPOINTS
 62
     0
100
AcDbPoint
 10
340.1286489076625
 20
432.3320754716981
 30
0.0
  0
ENDBLK
  5
A21
330
A16
100
AcDbEntity
  8
0
100
AcDbBlockEnd
  0
BLOCK
  5
A2D
330
A23
100
AcDbEntity
  8
0
100
AcDbBlockBegin
  2
*D19
 70
     1
 10
0.0
 20
0.0
 30
0.0
  3
*D19
  1

  0
LINE
  5
1203
330
A23
100
AcDbEntity
  8
SUNPOU
100
AcDbLine
 10
316.4086489076625
 20
432.3320754716981
 30
0.0
 11
342.1286489076625
 21
432.3320754716981
 31
0.0
  0
LINE
  5
1204
330
A23
100
AcDbEntity
  8
SUNPOU
100
AcDbLine
 10
317.4886489076623
 20
447.3320754716981
 30
0.0
 11
342.1286489076625
 21
447.3320754716981
 31
0.0
  0
LINE
  5
1205
330
A23
100
AcDbEntity
  8
SUNPOU
100
AcDbLine
 10
340.1286489076625
 20
437.3320754716981
 30
0.0
 11
340.1286489076625
 21
442.3320754716981
 31
0.0
  0
INSERT
  5
1206
330
A23
100
AcDbEntity
  8
SUNPOU
100
AcDbBlockReference
  2
_OPEN30
 10
340.1286489076625
 20
432.3320754716981
 30
0.0
 41
5.0
 42
5.0
 43
5.0
 50
270.0
  0
INSERT
  5
1207
330
A23
100
AcDbEntity
  8
SUNPOU
100
AcDbBlockReference
  2
_OPEN30
 10
340.1286489076625
 20
447.3320754716981
 30
0.0
 41
5.0
 42
5.0
 43
5.0
 50
90.0
  0
MTEXT
  5
1208
330
A23
100
AcDbEntity
  8
SUNPOU
100
AcDbMText
 10
335.6286489076623
 20
439.8320754716983
 30
0.0
 40
5.0
 41
0.0
 71
     5
 72
     1
  1
\A1;15
  7
SUNPOU
 11
0.0000000000000001
 21
1.0
 31
0.0
1001
ACAD
1000
MTEXTBEGIN
1070
    73
1070
     1
1070
    44
1040
1.0
1070
    74
1070
     0
1000
MTEXTEND
1000
MTEXTBEGIN
1070
    73
1070
     1
1070
    44
1040
1.0
1070
    74
1070
     0
1000
MTEXTEND
  0
POINT
  5
1209
330
A23
100
AcDbEntity
  8
DEFPOINTS
 62
     0
100
AcDbPoint
 10
313.4086489076624
 20
432.3320754716981
 30
0.0
  0
POINT
  5
120A
330
A23
100
AcDbEntity
  8
DEFPOINTS
 62
     0
100
AcDbPoint
 10
314.4886489076625
 20
447.3320754716981
 30
0.0
  0
POINT
  5
120B
330
A23
100
AcDbEntity
  8
DEFPOINTS
 62
     0
100
AcDbPoint
 10
340.1286489076625
 20
447.3320754716981
 30
0.0
  0
ENDBLK
  5
A2E
330
A23
100
AcDbEntity
  8
0
100
AcDbBlockEnd
  0
BLOCK
  5
A3A
330
A30
100
AcDbEntity
  8
0
100
AcDbBlockBegin
  2
*D20
 70
     1
 10
0.0
 20
0.0
 30
0.0
  3
*D20
  1

  0
LINE
  5
11FA
330
A30
100
AcDbEntity
  8
SUNPOU
100
AcDbLine
 10
314.6286489076625
 20
362.3320754716981
 30
0.0
 11
358.1286489076623
 21
362.3320754716981
 31
0.0
  0
LINE
  5
11FB
330
A30
100
AcDbEntity
  8
SUNPOU
100
AcDbLine
 10
314.6286489076625
 20
462.3320754716981
 30
0.0
 11
358.1286489076625
 21
462.3320754716981
 31
0.0
  0
LINE
  5
11FC
330
A30
100
AcDbEntity
  8
SUNPOU
100
AcDbLine
 10
356.1286489076623
 20
367.3320754716981
 30
0.0
 11
356.1286489076625
 21
457.3320754716981
 31
0.0
  0
INSERT
  5
11FD
330
A30
100
AcDbEntity
  8
SUNPOU
100
AcDbBlockReference
  2
_OPEN30
 10
356.1286489076623
 20
362.3320754716981
 30
0.0
 41
5.0
 42
5.0
 43
5.0
 50
270.0
  0
INSERT
  5
11FE
330
A30
100
AcDbEntity
  8
SUNPOU
100
AcDbBlockReference
  2
_OPEN30
 10
356.1286489076625
 20
462.3320754716981
 30
0.0
 41
5.0
 42
5.0
 43
5.0
 50
90.0
  0
MTEXT
  5
11FF
330
A30
100
AcDbEntity
  8
SUNPOU
100
AcDbMText
 10
351.6286489076623
 20
412.3320754716981
 30
0.0
 40
5.0
 41
0.0
 71
     5
 72
     1
  1
\A1;100
  7
SUNPOU
 11
0.0000000000000001
 21
1.0
 31
0.0
1001
ACAD
1000
MTEXTBEGIN
1070
    73
1070
     1
1070
    44
1040
1.0
1070
    74
1070
     0
1000
MTEXTEND
1000
MTEXTBEGIN
1070
    73
1070
     1
1070
    44
1040
1.0
1070
    74
1070
     0
1000
MTEXTEND
  0
POINT
  5
1200
330
A30
100
AcDbEntity
  8
DEFPOINTS
 62
     0
100
AcDbPoint
 10
311.6286489076625
 20
362.3320754716981
 30
0.0
  0
POINT
  5
1201
330
A30
100
AcDbEntity
  8
DEFPOINTS
 62
     0
100
AcDbPoint
 10
311.6286489076625
 20
462.3320754716981
 30
0.0
  0
POINT
  5
1202
330
A30
100
AcDbEntity
  8
DEFPOINTS
 62
     0
100
AcDbPoint
 10
356.1286489076625
 20
462.3320754716981
 30
0.0
  0
ENDBLK
  5
A3B
330
A30
100
AcDbEntity
  8
0
100
AcDbBlockEnd
  0
BLOCK
  5
A49
330
A3D
100
AcDbEntity
  8
0
100
AcDbBlockBegin
  2
*D21
 70
     1
 10
0.0
 20
0.0
 30
0.0
  3
*D21
  1

  0
LINE
  5
11EF
330
A3D
100
AcDbEntity
  8
SUNPOU
100
AcDbLine
 10
282.8286489076625
 20
356.8320754716981
 30
0.0
 11
292.3078715290282
 21
356.8320754716981
 31
0.0
  0
LINE
  5
11F0
330
A3D
100
AcDbEntity
  8
SUNPOU
100
AcDbLine
 10
287.3078715290282
 20
359.8320754716981
 30
0.0
 11
288.3078715290281
 21
359.8320754716981
 31
0.0
  0
LINE
  5
11F1
330
A3D
100
AcDbEntity
  8
SUNPOU
100
AcDbLine
 10
290.3078715290281
 20
351.8320754716981
 30
0.0
 11
290.3078715290281
 21
346.8320754716981
 31
0.0
  0
LINE
  5
11F2
330
A3D
100
AcDbEntity
  8
SUNPOU
100
AcDbLine
 10
290.3078715290281
 20
364.8320754716981
 30
0.0
 11
290.3078715290281
 21
369.8320754716981
 31
0.0
  0
MTEXT
  5
11F3
330
A3D
100
AcDbEntity
  8
SUNPOU
100
AcDbMText
 10
285.8464559363728
 20
349.7495758584093
 30
0.0
 40
5.0
 41
0.0
 71
     5
 72
     1
  1
\A1;3
  7
SUNPOU
 11
0.0000000000000001
 21
1.0
 31
0.0
1001
ACAD
1000
MTEXTBEGIN
1070
    73
1070
     1
1070
    44
1040
1.0
1070
    74
1070
     0
1000
MTEXTEND
1000
MTEXTBEGIN
1070
    73
1070
     1
1070
    44
1040
1.0
1070
    74
1070
     0
1000
MTEXTEND
  0
LINE
  5
11F4
330
A3D
100
AcDbEntity
  8
SUNPOU
100
AcDbLine
 10
290.3078715290281
 20
356.8320754716981
 30
0.0
 11
290.3078715290281
 21
359.8320754716981
 31
0.0
  0
INSERT
  5
11F5
330
A3D
100
AcDbEntity
  8
SUNPOU
100
AcDbBlockReference
  2
_OPEN30
 10
290.3078715290281
 20
356.8320754716981
 30
0.0
 41
5.0
 42
5.0
 43
5.0
 50
90.0
  0
INSERT
  5
11F6
330
A3D
100
AcDbEntity
  8
SUNPOU
100
AcDbBlockReference
  2
_OPEN30
 10
290.3078715290281
 20
359.8320754716981
 30
0.0
 41
5.0
 42
5.0
 43
5.0
 50
270.0
  0
POINT
  5
11F7
330
A3D
100
AcDbEntity
  8
DEFPOINTS
 62
     0
100
AcDbPoint
 10
279.8286489076625
 20
356.8320754716981
 30
0.0
  0
POINT
  5
11F8
330
A3D
100
AcDbEntity
  8
DEFPOINTS
 62
     0
100
AcDbPoint
 10
290.3078715290281
 20
359.8320754716981
 30
0.0
  0
POINT
  5
11F9
330
A3D
100
AcDbEntity
  8
DEFPOINTS
 62
     0
100
AcDbPoint
 10
290.3078715290281
 20
359.8320754716981
 30
0.0
  0
ENDBLK
  5
A4A
330
A3D
100
AcDbEntity
  8
0
100
AcDbBlockEnd
  0
BLOCK
  5
A63
330
A59
100
AcDbEntity
  8
0
100
AcDbBlockBegin
  2
*D22
 70
     1
 10
0.0
 20
0.0
 30
0.0
  3
*D22
  1

  0
LINE
  5
12D5
330
A59
100
AcDbEntity
  8
SUNPOU
100
AcDbLine
 10
250.1286489076623
 20
392.0931217082628
 30
0.0
 11
250.1286489076623
 21
391.0931217082628
 31
0.0
  0
LINE
  5
12D6
330
A59
100
AcDbEntity
  8
SUNPOU
100
AcDbLine
 10
279.6286489076625
 20
392.0931217082628
 30
0.0
 11
279.6286489076625
 21
391.0931217082628
 31
0.0
  0
LINE
  5
12D7
330
A59
100
AcDbEntity
  8
SUNPOU
100
AcDbLine
 10
255.1286489076623
 20
389.0931217082627
 30
0.0
 11
274.6286489076625
 21
389.0931217082627
 31
0.0
  0
INSERT
  5
12D8
330
A59
100
AcDbEntity
  8
SUNPOU
100
AcDbBlockReference
  2
_OPEN30
 10
250.1286489076623
 20
389.0931217082627
 30
0.0
 41
5.0
 42
5.0
 43
5.0
 50
180.0
  0
INSERT
  5
12D9
330
A59
100
AcDbEntity
  8
SUNPOU
100
AcDbBlockReference
  2
_OPEN30
 10
279.6286489076625
 20
389.0931217082627
 30
0.0
 41
5.0
 42
5.0
 43
5.0
  0
MTEXT
  5
12DA
330
A59
100
AcDbEntity
  8
SUNPOU
100
AcDbMText
 10
264.8786489076625
 20
393.5931217082627
 30
0.0
 40
5.0
 41
0.0
 71
     5
 72
     1
  1
\A1;29.5
  7
SUNPOU
1001
ACAD
1000
MTEXTBEGIN
1070
    73
1070
     1
1070
    44
1040
1.0
1070
    74
1070
     0
1000
MTEXTEND
1000
MTEXTBEGIN
1070
    73
1070
     1
1070
    44
1040
1.0
1070
    74
1070
     0
1000
MTEXTEND
  0
POINT
  5
12DB
330
A59
100
AcDbEntity
  8
DEFPOINTS
 62
     0
100
AcDbPoint
 10
250.1286489076623
 20
389.0931217082627
 30
0.0
  0
POINT
  5
12DC
330
A59
100
AcDbEntity
  8
DEFPOINTS
 62
     0
100
AcDbPoint
 10
279.6286489076625
 20
389.0931217082627
 30
0.0
  0
POINT
  5
12DD
330
A59
100
AcDbEntity
  8
DEFPOINTS
 62
     0
100
AcDbPoint
 10
279.6286489076625
 20
389.0931217082627
 30
0.0
  0
ENDBLK
  5
A64
330
A59
100
AcDbEntity
  8
0
100
AcDbBlockEnd
  0
BLOCK
  5
AAB
330
AA1
100
AcDbEntity
  8
0
100
AcDbBlockBegin
  2
*D23
 70
     1
 10
0.0
 20
0.0
 30
0.0
  3
*D23
  1

  0
LINE
  5
11DD
330
AA1
100
AcDbEntity
  8
SUNPOU
100
AcDbLine
 10
124.1729986021497
 20
144.832075471698
 30
0.0
 11
124.1729986021497
 21
117.8320754716982
 31
0.0
  0
LINE
  5
11DE
330
AA1
100
AcDbEntity
  8
SUNPOU
100
AcDbLine
 10
141.1729986021498
 20
144.832075471698
 30
0.0
 11
141.1729986021498
 21
117.8320754716982
 31
0.0
  0
LINE
  5
11DF
330
AA1
100
AcDbEntity
  8
SUNPOU
100
AcDbLine
 10
129.1729986021497
 20
119.8320754716982
 30
0.0
 11
136.1729986021497
 21
119.8320754716982
 31
0.0
  0
INSERT
  5
11E0
330
AA1
100
AcDbEntity
  8
SUNPOU
100
AcDbBlockReference
  2
_OPEN30
 10
124.1729986021497
 20
119.8320754716982
 30
0.0
 41
5.0
 42
5.0
 43
5.0
 50
180.0
  0
INSERT
  5
11E1
330
AA1
100
AcDbEntity
  8
SUNPOU
100
AcDbBlockReference
  2
_OPEN30
 10
141.1729986021498
 20
119.8320754716982
 30
0.0
 41
5.0
 42
5.0
 43
5.0
  0
MTEXT
  5
11E2
330
AA1
100
AcDbEntity
  8
SUNPOU
100
AcDbMText
 10
132.6729986021497
 20
124.3320754716982
 30
0.0
 40
5.0
 41
0.0
 71
     5
 72
     1
  1
\A1;17
  7
SUNPOU
1001
ACAD
1000
MTEXTBEGIN
1070
    73
1070
     1
1070
    44
1040
1.0
1070
    74
1070
     0
1000
MTEXTEND
1000
MTEXTBEGIN
1070
    73
1070
     1
1070
    44
1040
1.0
1070
    74
1070
     0
1000
MTEXTEND
  0
POINT
  5
11E3
330
AA1
100
AcDbEntity
  8
DEFPOINTS
 62
     0
100
AcDbPoint
 10
124.1729986021497
 20
147.832075471698
 30
0.0
  0
POINT
  5
11E4
330
AA1
100
AcDbEntity
  8
DEFPOINTS
 62
     0
100
AcDbPoint
 10
141.1729986021498
 20
147.832075471698
 30
0.0
  0
POINT
  5
11E5
330
AA1
100
AcDbEntity
  8
DEFPOINTS
 62
     0
100
AcDbPoint
 10
141.1729986021498
 20
119.8320754716982
 30
0.0
  0
ENDBLK
  5
AAC
330
AA1
100
AcDbEntity
  8
0
100
AcDbBlockEnd
  0
BLOCK
  5
AD4
330
ACA
100
AcDbEntity
  8
0
100
AcDbBlockBegin
  2
*D24
 70
     1
 10
0.0
 20
0.0
 30
0.0
  3
*D24
  1

  0
LINE
  5
12F8
330
ACA
100
AcDbEntity
  8
SUNPOU
100
AcDbLine
 10
83.17299860214985
 20
336.8320754716982
 30
0.0
 11
83.17299860214985
 21
301.0634648370496
 31
0.0
  0
LINE
  5
12F9
330
ACA
100
AcDbEntity
  8
SUNPOU
100
AcDbLine
 10
153.1729986021498
 20
336.8320754716981
 30
0.0
 11
153.1729986021498
 21
301.0634648370496
 31
0.0
  0
LINE
  5
12FA
330
ACA
100
AcDbEntity
  8
SUNPOU
100
AcDbLine
 10
88.17299860214985
 20
303.0634648370496
 30
0.0
 11
148.1729986021498
 21
303.0634648370496
 31
0.0
  0
MTEXT
  5
12FB
330
ACA
100
AcDbEntity
  8
SUNPOU
100
AcDbMText
 10
109.5369392773309
 20
307.5634648370496
 30
0.0
 40
5.0
 41
0.0
 71
     5
 72
     1
  1
\A1;70
  7
SUNPOU
1001
ACAD
1000
MTEXTBEGIN
1070
    73
1070
     1
1070
    44
1040
1.0
1070
    74
1070
     0
1000
MTEXTEND
1000
MTEXTBEGIN
1070
    73
1070
     1
1070
    44
1040
1.0
1070
    74
1070
     0
1000
MTEXTEND
  0
INSERT
  5
12FC
330
ACA
100
AcDbEntity
  8
SUNPOU
100
AcDbBlockReference
  2
_OPEN30
 10
83.17299860214985
 20
303.0634648370496
 30
0.0
 41
5.0
 42
5.0
 43
5.0
 50
180.0
  0
INSERT
  5
12FD
330
ACA
100
AcDbEntity
  8
SUNPOU
100
AcDbBlockReference
  2
_OPEN30
 10
153.1729986021498
 20
303.0634648370496
 30
0.0
 41
5.0
 42
5.0
 43
5.0
  0
POINT
  5
12FE
330
ACA
100
AcDbEntity
  8
DEFPOINTS
 62
     0
100
AcDbPoint
 10
83.17299860214985
 20
339.8320754716982
 30
0.0
  0
POINT
  5
12FF
330
ACA
100
AcDbEntity
  8
DEFPOINTS
 62
     0
100
AcDbPoint
 10
153.1729986021498
 20
339.832075471698
 30
0.0
  0
POINT
  5
1300
330
ACA
100
AcDbEntity
  8
DEFPOINTS
 62
     0
100
AcDbPoint
 10
153.1729986021498
 20
303.0634648370496
 30
0.0
  0
ENDBLK
  5
AD5
330
ACA
100
AcDbEntity
  8
0
100
AcDbBlockEnd
  0
BLOCK
  5
C08
330
BFE
100
AcDbEntity
  8
0
100
AcDbBlockBegin
  2
*D25
 70
     1
 10
0.0
 20
0.0
 30
0.0
  3
*D25
  1

  0
LINE
  5
130A
330
BFE
100
AcDbEntity
  8
SUNPOU
100
AcDbLine
 10
286.6286489076625
 20
397.3320754716981
 30
0.0
 11
287.6286489076625
 21
397.3320754716981
 31
0.0
  0
LINE
  5
130B
330
BFE
100
AcDbEntity
  8
SUNPOU
100
AcDbLine
 10
286.6286489076625
 20
427.3320754716981
 30
0.0
 11
287.6286489076625
 21
427.3320754716981
 31
0.0
  0
LINE
  5
130C
330
BFE
100
AcDbEntity
  8
SUNPOU
100
AcDbLine
 10
289.6286489076625
 20
402.3320754716981
 30
0.0
 11
289.6286489076625
 21
422.3320754716981
 31
0.0
  0
MTEXT
  5
130D
330
BFE
100
AcDbEntity
  8
SUNPOU
100
AcDbMText
 10
285.1286489076624
 20
416.9402390090927
 30
0.0
 40
5.0
 41
0.0
 71
     5
 72
     1
  1
\A1;30
  7
SUNPOU
 11
0.0000000000000001
 21
1.0
 31
0.0
1001
ACAD
1000
MTEXTBEGIN
1070
    73
1070
     1
1070
    44
1040
1.0
1070
    74
1070
     0
1000
MTEXTEND
1000
MTEXTBEGIN
1070
    73
1070
     1
1070
    44
1040
1.0
1070
    74
1070
     0
1000
MTEXTEND
  0
INSERT
  5
130E
330
BFE
100
AcDbEntity
  8
SUNPOU
100
AcDbBlockReference
  2
_OPEN30
 10
289.6286489076625
 20
397.3320754716981
 30
0.0
 41
5.0
 42
5.0
 43
5.0
 50
270.0
  0
INSERT
  5
130F
330
BFE
100
AcDbEntity
  8
SUNPOU
100
AcDbBlockReference
  2
_OPEN30
 10
289.6286489076625
 20
427.3320754716981
 30
0.0
 41
5.0
 42
5.0
 43
5.0
 50
90.0
  0
POINT
  5
1310
330
BFE
100
AcDbEntity
  8
DEFPOINTS
 62
     0
100
AcDbPoint
 10
289.6286489076625
 20
397.3320754716981
 30
0.0
  0
POINT
  5
1311
330
BFE
100
AcDbEntity
  8
DEFPOINTS
 62
     0
100
AcDbPoint
 10
289.6286489076625
 20
427.3320754716981
 30
0.0
  0
POINT
  5
1312
330
BFE
100
AcDbEntity
  8
DEFPOINTS
 62
     0
100
AcDbPoint
 10
289.6286489076625
 20
427.3320754716981
 30
0.0
  0
ENDBLK
  5
C09
330
BFE
100
AcDbEntity
  8
0
100
AcDbBlockEnd
  0
BLOCK
  5
C15
330
C0B
100
AcDbEntity
  8
0
100
AcDbBlockBegin
  2
*D26
 70
     1
 10
0.0
 20
0.0
 30
0.0
  3
*D26
  1

  0
LINE
  5
1301
330
C0B
100
AcDbEntity
  8
SUNPOU
100
AcDbLine
 10
264.6286489076625
 20
405.3320754716981
 30
0.0
 11
264.6286489076625
 21
404.3320754716981
 31
0.0
  0
LINE
  5
1302
330
C0B
100
AcDbEntity
  8
SUNPOU
100
AcDbLine
 10
294.6286489076625
 20
405.3320754716981
 30
0.0
 11
294.6286489076625
 21
404.3320754716981
 31
0.0
  0
LINE
  5
1303
330
C0B
100
AcDbEntity
  8
SUNPOU
100
AcDbLine
 10
269.6286489076625
 20
402.3320754716981
 30
0.0
 11
289.6286489076625
 21
402.3320754716981
 31
0.0
  0
MTEXT
  5
1304
330
C0B
100
AcDbEntity
  8
SUNPOU
100
AcDbMText
 10
274.58634375407
 20
406.8320754716981
 30
0.0
 40
5.0
 41
0.0
 71
     5
 72
     1
  1
\A1;30
  7
SUNPOU
1001
ACAD
1000
MTEXTBEGIN
1070
    73
1070
     1
1070
    44
1040
1.0
1070
    74
1070
     0
1000
MTEXTEND
1000
MTEXTBEGIN
1070
    73
1070
     1
1070
    44
1040
1.0
1070
    74
1070
     0
1000
MTEXTEND
  0
INSERT
  5
1305
330
C0B
100
AcDbEntity
  8
SUNPOU
100
AcDbBlockReference
  2
_OPEN30
 10
264.6286489076625
 20
402.3320754716981
 30
0.0
 41
5.0
 42
5.0
 43
5.0
 50
180.0
  0
INSERT
  5
1306
330
C0B
100
AcDbEntity
  8
SUNPOU
100
AcDbBlockReference
  2
_OPEN30
 10
294.6286489076625
 20
402.3320754716981
 30
0.0
 41
5.0
 42
5.0
 43
5.0
  0
POINT
  5
1307
330
C0B
100
AcDbEntity
  8
DEFPOINTS
 62
     0
100
AcDbPoint
 10
264.6286489076625
 20
402.3320754716981
 30
0.0
  0
POINT
  5
1308
330
C0B
100
AcDbEntity
  8
DEFPOINTS
 62
     0
100
AcDbPoint
 10
294.6286489076625
 20
402.3320754716981
 30
0.0
  0
POINT
  5
1309
330
C0B
100
AcDbEntity
  8
DEFPOINTS
 62
     0
100
AcDbPoint
 10
294.6286489076625
 20
402.3320754716981
 30
0.0
  0
ENDBLK
  5
C16
330
C0B
100
AcDbEntity
  8
0
100
AcDbBlockEnd
  0
BLOCK
  5
1D2A
330
1D0F
100
AcDbEntity
  8
0
100
AcDbBlockBegin
  2
*X27
 70
     1
 10
0.0
 20
0.0
 30
0.0
  3
*X27
  1

  0
LINE
  5
1D10
330
1D0F
100
AcDbEntity
  8
0
 62
     0
100
AcDbLine
 10
104.3447020564065
 20
351.8320754716981
 30
0.0
 11
105.1729985999196
 21
352.6603720152114
 31
0.0
  0
LINE
  5
1D11
330
1D0F
100
AcDbEntity
  8
0
 62
     0
100
AcDbLine
 10
102.5769351034401
 20
351.8320754716981
 30
0.0
 11
104.5769351034401
 21
353.8320754716981
 31
0.0
  0
LINE
  5
1D12
330
1D0F
100
AcDbEntity
  8
0
 62
     0
100
AcDbLine
 10
100.9910833763117
 20
352.0139906975361
 30
0.0
 11
102.859559761198
 21
353.8824670824224
 31
0.0
  0
LINE
  5
1D13
330
1D0F
100
AcDbEntity
  8
0
 62
     0
100
AcDbLine
 10
100.8091681504738
 20
351.8320754716981
 30
0.0
 11
100.9910833763117
 21
352.0139906975361
 31
0.0
  0
LINE
  5
1D14
330
1D0F
100
AcDbEntity
  8
0
 62
     0
100
AcDbLine
 10
100.0414011975073
 20
352.8320754716981
 30
0.0
 11
100.1729986021497
 21
352.9636728763406
 31
0.0
  0
LINE
  5
1D15
330
1D0F
100
AcDbEntity
  8
0
 62
     0
100
AcDbLine
 10
100.1729986021497
 20
352.9636728763406
 30
0.0
 11
102.1729986021497
 21
354.9636728763406
 31
0.0
  0
LINE
  5
1D16
330
1D0F
100
AcDbEntity
  8
0
 62
     0
100
AcDbLine
 10
99.04140119750742
 20
351.8320754716981
 30
0.0
 11
100.0414011975073
 21
352.8320754716981
 31
0.0
  0
LINE
  5
1D17
330
1D0F
100
AcDbEntity
  8
0
 62
     0
100
AcDbLine
 10
98.27363424454102
 20
352.8320754716979
 30
0.0
 11
99.83299860214987
 21
354.3914398293068
 31
0.0
  0
LINE
  5
1D18
330
1D0F
100
AcDbEntity
  8
0
 62
     0
100
AcDbLine
 10
99.83299860214987
 20
354.3914398293068
 30
0.0
 11
100.1729986021497
 21
354.7314398293068
 31
0.0
  0
LINE
  5
1D19
330
1D0F
100
AcDbEntity
  8
0
 62
     0
100
AcDbLine
 10
98.17299860214987
 20
352.7314398293068
 30
0.0
 11
98.27363424454102
 21
352.8320754716979
 31
0.0
  0
LINE
  5
1D1A
330
1D0F
100
AcDbEntity
  8
0
 62
     0
100
AcDbLine
 10
100.1729986021497
 20
354.7314398293068
 30
0.0
 11
102.1293943621699
 21
356.6878355893269
 31
0.0
  0
LINE
  5
1D1B
330
1D0F
100
AcDbEntity
  8
0
 62
     0
100
AcDbLine
 10
97.27363424454113
 20
351.8320754716981
 30
0.0
 11
98.17299860214985
 21
352.7314398293068
 31
0.0
  0
LINE
  5
1D1C
330
1D0F
100
AcDbEntity
  8
0
 62
     0
100
AcDbLine
 10
99.75346136687171
 20
356.0796695469951
 30
0.0
 11
99.83299860214987
 21
356.1592067822733
 31
0.0
  0
LINE
  5
1D1D
330
1D0F
100
AcDbEntity
  8
0
 62
     0
100
AcDbLine
 10
96.51299860214987
 20
352.8392067822733
 30
0.0
 11
97.41426474741778
 21
353.7404729275412
 31
0.0
  0
LINE
  5
1D1E
330
1D0F
100
AcDbEntity
  8
0
 62
     0
100
AcDbLine
 10
99.83299860214987
 20
356.1592067822733
 30
0.0
 11
100.1729986021497
 21
356.4992067822732
 31
0.0
  0
LINE
  5
1D1F
330
1D0F
100
AcDbEntity
  8
0
 62
     0
100
AcDbLine
 10
96.50586729157481
 20
352.8320754716983
 30
0.0
 11
96.51299860214985
 21
352.8392067822731
 31
0.0
  0
LINE
  5
1D20
330
1D0F
100
AcDbEntity
  8
0
 62
     0
100
AcDbLine
 10
100.1729986021497
 20
356.4992067822732
 30
0.0
 11
100.5058672915747
 21
356.8320754716981
 31
0.0
  0
LINE
  5
1D21
330
1D0F
100
AcDbEntity
  8
0
 62
     0
100
AcDbLine
 10
95.50586729157473
 20
351.8320754716981
 30
0.0
 11
96.50586729157474
 21
352.8320754716981
 31
0.0
  0
LINE
  5
1D22
330
1D0F
100
AcDbEntity
  8
0
 62
     0
100
AcDbLine
 10
96.17299860214984
 20
354.2669737352397
 30
0.0
 11
96.51299860214985
 21
354.6069737352397
 31
0.0
  0
LINE
  5
1D23
330
1D0F
100
AcDbEntity
  8
0
 62
     0
100
AcDbLine
 10
96.51299860214987
 20
354.6069737352397
 30
0.0
 11
96.54787309035953
 21
354.6418482234493
 31
0.0
  0
LINE
  5
1D24
330
1D0F
100
AcDbEntity
  8
0
 62
     0
100
AcDbLine
 10
94.17677379875014
 20
352.27074893184
 30
0.0
 11
96.17299860214982
 21
354.2669737352396
 31
0.0
  0
LINE
  5
1D25
330
1D0F
100
AcDbEntity
  8
0
 62
     0
100
AcDbLine
 10
96.17299860214984
 20
356.034740688206
 30
0.0
 11
96.51299860214985
 21
356.374740688206
 31
0.0
  0
LINE
  5
1D26
330
1D0F
100
AcDbEntity
  8
0
 62
     0
100
AcDbLine
 10
96.51299860214985
 20
356.374740688206
 30
0.0
 11
96.97033338564194
 21
356.8320754716981
 31
0.0
  0
LINE
  5
1D27
330
1D0F
100
AcDbEntity
  8
0
 62
     0
100
AcDbLine
 10
94.1556731092279
 20
354.0174151952841
 30
0.0
 11
96.17299860214982
 21
356.034740688206
 31
0.0
  0
LINE
  5
1D28
330
1D0F
100
AcDbEntity
  8
0
 62
     0
100
AcDbLine
 10
93.20214168289188
 20
354.8316507219143
 30
0.0
 11
95.20256643267556
 21
356.8320754716979
 31
0.0
  0
LINE
  5
1D29
330
1D0F
100
AcDbEntity
  8
0
 62
     0
100
AcDbLine
 10
93.17299860394475
 20
356.5702745959337
 30
0.0
 11
93.43479947970925
 21
356.8320754716981
 31
0.0
  0
ENDBLK
  5
1D2B
330
1D0F
100
AcDbEntity
  8
0
100
AcDbBlockEnd
  0
ENDSEC
  0
SECTION
  2
ENTITIES
  0
LINE
  5
297
330
A
100
AcDbEntity
  8
03
100
AcDbLine
 10
118.1729986021497
 20
349.8320754716981
 30
0.0
 11
147.1729986021498
 21
349.8320754716981
 31
0.0
  0
LINE
  5
298
330
A
100
AcDbEntity
  8
03
100
AcDbLine
 10
147.1729986021498
 20
179.832075471698
 30
0.0
 11
147.1729986021498
 21
222.6953225678074
 31
0.0
  0
LINE
  5
299
330
A
100
AcDbEntity
  8
03
100
AcDbLine
 10
147.1729986021498
 20
259.7171444022936
 30
0.0
 11
147.1729986021498
 21
349.8320754716981
 31
0.0
  0
LINE
  5
29A
330
A
100
AcDbEntity
  8
03
100
AcDbLine
 10
118.1729986021497
 20
349.8320754716981
 30
0.0
 11
118.1729986021497
 21
259.7171444022936
 31
0.0
  0
LINE
  5
29B
330
A
100
AcDbEntity
  8
03
100
AcDbLine
 10
118.1729986021497
 20
256.7171444022938
 30
0.0
 11
118.1729986021497
 21
225.6953225678075
 31
0.0
  0
LINE
  5
29C
330
A
100
AcDbEntity
  8
03
100
AcDbLine
 10
118.1729986021497
 20
179.8320754716981
 30
0.0
 11
147.1729986021498
 21
179.832075471698
 31
0.0
  0
LINE
  5
29D
330
A
100
AcDbEntity
  8
03
100
AcDbLine
 10
107.1729986021497
 20
341.3320754716981
 30
0.0
 11
107.1729986021497
 21
339.8320754716982
 31
0.0
  0
LINE
  5
29E
330
A
100
AcDbEntity
  8
03
100
AcDbLine
 10
107.1729986021497
 20
341.3320754716981
 30
0.0
 11
104.1729986021497
 21
341.3320754716981
 31
0.0
  0
LINE
  5
29F
330
A
100
AcDbEntity
  8
03
100
AcDbLine
 10
85.17299860214984
 20
341.3320754716981
 30
0.0
 11
85.17299860214984
 21
339.8320754716982
 31
0.0
  0
LINE
  5
2A0
330
A
100
AcDbEntity
  8
03
100
AcDbLine
 10
88.17299860214985
 20
343.3320754716981
 30
0.0
 11
88.17299860214985
 21
341.3320754716981
 31
0.0
  0
LINE
  5
2A1
330
A
100
AcDbEntity
  8
03
100
AcDbLine
 10
104.1729986021497
 20
343.3320754716981
 30
0.0
 11
104.1729986021497
 21
341.3320754716981
 31
0.0
  0
LINE
  5
2A2
330
A
100
AcDbEntity
  8
03
100
AcDbLine
 10
88.17299860214985
 20
341.3320754716981
 30
0.0
 11
85.17299860214984
 21
341.3320754716981
 31
0.0
  0
LINE
  5
2A3
330
A
100
AcDbEntity
  8
03
100
AcDbLine
 10
83.17299860214985
 20
339.8320754716982
 30
0.0
 11
83.17299860214983
 21
259.7171444022937
 31
0.0
  0
LINE
  5
2A4
330
A
100
AcDbEntity
  8
03
100
AcDbLine
 10
83.17299860214985
 20
256.7171444022938
 30
0.0
 11
83.17299860214985
 21
225.6953225678075
 31
0.0
  0
LINE
  5
2A5
330
A
100
AcDbEntity
  8
03
100
AcDbLine
 10
115.1729986021498
 20
256.7171444022938
 30
0.0
 11
115.1729986021498
 21
225.6953225678075
 31
0.0
  0
LINE
  5
2A6
330
A
100
AcDbEntity
  8
03
100
AcDbLine
 10
85.17299860214984
 20
462.8320754716981
 30
0.0
 11
85.17299860214984
 21
353.8320754716981
 31
0.0
  0
ARC
  5
2A7
330
A
100
AcDbEntity
  8
03
100
AcDbCircle
 10
87.17299860214984
 20
462.8320754716981
 30
0.0
 40
2.0
100
AcDbArc
 50
89.99999989716
 51
179.9999997943199
  0
LINE
  5
2A8
330
A
100
AcDbEntity
  8
03
100
AcDbLine
 10
153.1729986021498
 20
339.8320754716982
 30
0.0
 11
149.6729986021498
 21
339.8320754716982
 31
0.0
  0
LINE
  5
2A9
330
A
100
AcDbEntity
  8
03
100
AcDbLine
 10
149.6729986021498
 20
339.8320754716982
 30
0.0
 11
149.6729986021498
 21
342.3320754716982
 31
0.0
  0
LINE
  5
2AA
330
A
100
AcDbEntity
  8
03
100
AcDbLine
 10
149.6729986021498
 20
346.3320754716981
 30
0.0
 11
149.6729986021498
 21
348.8320754716981
 31
0.0
  0
LINE
  5
2AB
330
A
100
AcDbEntity
  8
03
100
AcDbLine
 10
149.6729986021498
 20
348.8320754716981
 30
0.0
 11
151.1729986021498
 21
348.8320754716981
 31
0.0
  0
LINE
  5
2AC
330
A
100
AcDbEntity
  8
03
100
AcDbLine
 10
151.6729986021498
 20
347.3320754716981
 30
0.0
 11
151.6729986021498
 21
341.3320754716981
 31
0.0
  0
LINE
  5
2AD
330
A
100
AcDbEntity
  8
03
100
AcDbLine
 10
151.6729986021498
 20
341.3320754716981
 30
0.0
 11
150.4729986021497
 21
341.3320754716981
 31
0.0
  0
LINE
  5
2AE
330
A
100
AcDbEntity
  8
03
100
AcDbLine
 10
151.6729986021498
 20
347.3320754716981
 30
0.0
 11
150.4729986021497
 21
347.3320754716981
 31
0.0
  0
LINE
  5
2AF
330
A
100
AcDbEntity
  8
03
100
AcDbLine
 10
149.6729986021498
 20
346.3320754716981
 30
0.0
 11
150.1729986021498
 21
346.3320754716981
 31
0.0
  0
LINE
  5
2B0
330
A
100
AcDbEntity
  8
03
100
AcDbLine
 10
150.1729986021498
 20
342.3320754716982
 30
0.0
 11
149.6729986021498
 21
342.3320754716982
 31
0.0
  0
LINE
  5
2B1
330
A
100
AcDbEntity
  8
03
100
AcDbLine
 10
150.1729986021498
 20
346.3320754716981
 30
0.0
 11
150.4729986021497
 21
347.3320754716981
 31
0.0
  0
LINE
  5
2B2
330
A
100
AcDbEntity
  8
03
100
AcDbLine
 10
150.4729986021497
 20
341.3320754716981
 30
0.0
 11
150.1729986021498
 21
342.3320754716982
 31
0.0
  0
LINE
  5
2B3
330
A
100
AcDbEntity
  8
03
100
AcDbLine
 10
153.1729986021498
 20
489.8320754716981
 30
0.0
 11
153.1729986021498
 21
339.8320754716982
 31
0.0
  0
LINE
  5
2B4
330
A
100
AcDbEntity
  8
03
100
AcDbLine
 10
151.1729986021498
 20
466.8320754716981
 30
0.0
 11
151.1729986021498
 21
466.3320754716981
 31
0.0
  0
LINE
  5
2B5
330
A
100
AcDbEntity
  8
03
100
AcDbLine
 10
151.1729986021498
 20
464.3320754716981
 30
0.0
 11
151.1729986021498
 21
348.8320754716981
 31
0.0
  0
LINE
  5
2B6
330
A
100
AcDbEntity
  8
03
100
AcDbLine
 10
83.17299860214985
 20
339.8320754716982
 30
0.0
 11
83.17299860214985
 21
496.9120754716981
 31
0.0
  0
LINE
  5
2B7
330
A
100
AcDbEntity
  8
03
100
AcDbLine
 10
83.17299860214985
 20
339.8320754716982
 30
0.0
 11
85.17299860214984
 21
339.8320754716982
 31
0.0
  0
LINE
  5
2B8
330
A
100
AcDbEntity
  8
03
100
AcDbLine
 10
112.6729986021497
 20
339.8320754716982
 30
0.0
 11
107.1729986021497
 21
339.8320754716982
 31
0.0
  0
ARC
  5
2B9
330
A
100
AcDbEntity
  8
03
100
AcDbCircle
 10
112.6729986021497
 20
340.3320754716982
 30
0.0
 40
0.5
100
AcDbArc
 50
269.99999969148
 51
359.9999995886399
  0
LINE
  5
2BA
330
A
100
AcDbEntity
  8
03
100
AcDbLine
 10
88.17299860214985
 20
343.3320754716981
 30
0.0
 11
85.17299860214984
 21
343.3320754716981
 31
0.0
  0
LINE
  5
2BB
330
A
100
AcDbEntity
  8
03
100
AcDbLine
 10
85.17299860214984
 20
343.3320754716981
 30
0.0
 11
85.17299860214984
 21
350.3320754716981
 31
0.0
  0
ARC
  5
2BC
330
A
100
AcDbEntity
  8
03
100
AcDbCircle
 10
86.67299860214985
 20
350.3320754716981
 30
0.0
 40
1.5
100
AcDbArc
 50
89.99999989716
 51
179.9999997943199
  0
LINE
  5
2BD
330
A
100
AcDbEntity
  8
03
100
AcDbLine
 10
104.1729986021497
 20
343.3320754716981
 30
0.0
 11
109.1729986021497
 21
343.3320754716981
 31
0.0
  0
LINE
  5
2BE
330
A
100
AcDbEntity
  8
03
100
AcDbLine
 10
112.8729986021497
 20
356.8320754716981
 30
0.0
 11
106.4729986021497
 21
356.8320754716981
 31
0.0
  0
ARC
  5
2BF
330
A
100
AcDbEntity
  8
03
100
AcDbCircle
 10
112.8729986021497
 20
356.5320754716981
 30
0.0
 40
0.3
100
AcDbArc
 50
0.0
 51
89.99999989716
  0
ARC
  5
2C0
330
A
100
AcDbEntity
  8
03
100
AcDbCircle
 10
106.4729986021497
 20
356.5320754716981
 30
0.0
 40
0.3
100
AcDbArc
 50
89.99999989716
 51
179.9999997943199
  0
LINE
  5
2C1
330
A
100
AcDbEntity
  8
03
100
AcDbLine
 10
101.8729986021498
 20
356.8320754716981
 30
0.0
 11
99.31299860214984
 21
356.8320754716981
 31
0.0
  0
ARC
  5
2C2
330
A
100
AcDbEntity
  8
03
100
AcDbCircle
 10
101.8729986021498
 20
356.5320754716981
 30
0.0
 40
0.3
100
AcDbArc
 50
0.0
 51
89.99999989716
  0
LINE
  5
2C3
330
A
100
AcDbEntity
  8
03
100
AcDbLine
 10
97.01299860214987
 20
356.8320754716981
 30
0.0
 11
89.47299860214981
 21
356.8320754716981
 31
0.0
  0
LINE
  5
2C5
330
A
100
AcDbEntity
  8
03
100
AcDbLine
 10
113.1729986021497
 20
356.5320754716981
 30
0.0
 11
113.1729986021497
 21
355.3320754716981
 31
0.0
  0
ARC
  5
2C6
330
A
100
AcDbEntity
  8
03
100
AcDbCircle
 10
112.6729986021497
 20
355.3320754716981
 30
0.0
 40
0.5
100
AcDbArc
 50
269.99999969148
 51
359.9999995886399
  0
LINE
  5
2C7
330
A
100
AcDbEntity
  8
03
100
AcDbLine
 10
112.6729986021497
 20
354.8320754716981
 30
0.0
 11
109.4529986021497
 21
354.8320754716981
 31
0.0
  0
ARC
  5
2C8
330
A
100
AcDbEntity
  8
03
100
AcDbCircle
 10
109.4529986021497
 20
354.5320754716981
 30
0.0
 40
0.3
100
AcDbArc
 50
89.99999989716
 51
179.9999997943199
  0
LINE
  5
2C9
330
A
100
AcDbEntity
  8
03
100
AcDbLine
 10
106.1729986021497
 20
356.5320754716981
 30
0.0
 11
106.1729986021497
 21
354.8320754716981
 31
0.0
  0
ARC
  5
2CA
330
A
100
AcDbEntity
  8
03
100
AcDbCircle
 10
105.1729986021497
 20
354.8320754716981
 30
0.0
 40
1.0
100
AcDbArc
 50
269.99999969148
 51
359.9999995886399
  0
LINE
  5
2CB
330
A
100
AcDbEntity
  8
03
100
AcDbLine
 10
102.1729986021497
 20
356.5320754716981
 30
0.0
 11
102.1729986021497
 21
354.8320754716981
 31
0.0
  0
ARC
  5
2CC
330
A
100
AcDbEntity
  8
03
100
AcDbCircle
 10
103.1729986021497
 20
354.8320754716981
 30
0.0
 40
1.0
100
AcDbArc
 50
179.9999997943199
 51
269.99999969148
  0
LINE
  5
2CD
330
A
100
AcDbEntity
  8
03
100
AcDbLine
 10
89.17299860214985
 20
353.8320754716981
 30
0.0
 11
89.17299860214985
 21
356.5320754716981
 31
0.0
  0
LINE
  5
2CE
330
A
100
AcDbEntity
  8
03
100
AcDbLine
 10
91.17299860214984
 20
353.8320754716981
 30
0.0
 11
91.17299860214984
 21
352.3320754716981
 31
0.0
  0
ARC
  5
2CF
330
A
100
AcDbEntity
  8
03
100
AcDbCircle
 10
90.67299860214985
 20
352.3320754716981
 30
0.0
 40
0.5
100
AcDbArc
 50
269.99999969148
 51
359.9999995886399
  0
ARC
  5
2D0
330
A
100
AcDbEntity
  8
03
100
AcDbCircle
 10
92.17299860214984
 20
353.8320754716981
 30
0.0
 40
1.0
100
AcDbArc
 50
89.99999989716
 51
179.9999997943199
  0
LINE
  5
2D1
330
A
100
AcDbEntity
  8
03
100
AcDbLine
 10
94.17299860214985
 20
352.3320754716981
 30
0.0
 11
94.17299860214985
 21
353.8320754716981
 31
0.0
  0
ARC
  5
2D2
330
A
100
AcDbEntity
  8
03
100
AcDbCircle
 10
94.67299860214984
 20
352.3320754716981
 30
0.0
 40
0.5
100
AcDbArc
 50
179.9999997943199
 51
269.99999969148
  0
ARC
  5
2D3
330
A
100
AcDbEntity
  8
03
100
AcDbCircle
 10
93.17299860214985
 20
353.8320754716981
 30
0.0
 40
1.0
100
AcDbArc
 50
0.0
 51
89.99999989716
  0
LINE
  5
2D4
330
A
100
AcDbEntity
  8
03
100
AcDbLine
 10
92.17299860214984
 20
354.8320754716981
 30
0.0
 11
93.17299860214985
 21
354.8320754716981
 31
0.0
  0
LINE
  5
2D5
330
A
100
AcDbEntity
  8
03
100
AcDbLine
 10
86.67299860214985
 20
351.8320754716981
 30
0.0
 11
90.67299860214985
 21
351.8320754716981
 31
0.0
  0
LINE
  5
2D6
330
A
100
AcDbEntity
  8
03
100
AcDbLine
 10
85.17299860214984
 20
353.8320754716981
 30
0.0
 11
89.17299860214985
 21
353.8320754716981
 31
0.0
  0
LINE
  5
2D7
330
A
100
AcDbEntity
  8
03
100
AcDbLine
 10
94.67299860214984
 20
351.8320754716981
 30
0.0
 11
97.87299860214986
 21
351.8320754716981
 31
0.0
  0
LINE
  5
2D8
330
A
100
AcDbEntity
  8
03
100
AcDbLine
 10
98.47299860214985
 20
351.8320754716981
 30
0.0
 11
106.6729986021497
 21
351.8320754716981
 31
0.0
  0
ARC
  5
2D9
330
A
100
AcDbEntity
  8
03
100
AcDbCircle
 10
106.6729986021497
 20
351.3320754716981
 30
0.0
 40
0.5
100
AcDbArc
 50
0.0
 51
89.99999989716
  0
LINE
  5
2DA
330
A
100
AcDbEntity
  8
03
100
AcDbLine
 10
113.1729986021497
 20
340.3320754716982
 30
0.0
 11
113.1729986021497
 21
342.5320754716981
 31
0.0
  0
LINE
  5
2DB
330
A
100
AcDbEntity
  8
03
100
AcDbLine
 10
113.1729986021497
 20
347.1320754716981
 30
0.0
 11
113.1729986021497
 21
349.3320754716981
 31
0.0
  0
ARC
  5
2DC
330
A
100
AcDbEntity
  8
03
100
AcDbCircle
 10
112.6729986021497
 20
349.3320754716981
 30
0.0
 40
0.5
100
AcDbArc
 50
0.0
 51
89.99999989716
  0
LINE
  5
2DD
330
A
100
AcDbEntity
  8
03
100
AcDbLine
 10
111.1529986021497
 20
341.8320754716982
 30
0.0
 11
111.1529986021497
 21
347.8320754716981
 31
0.0
  0
LINE
  5
2DE
330
A
100
AcDbEntity
  8
03
100
AcDbLine
 10
109.1529986021497
 20
343.3320754716981
 30
0.0
 11
109.1529986021497
 21
347.8320754716981
 31
0.0
  0
LINE
  5
2DF
330
A
100
AcDbEntity
  8
03
100
AcDbLine
 10
109.1529986021497
 20
350.1320754716981
 30
0.0
 11
109.1529986021497
 21
354.5320754716981
 31
0.0
  0
ARC
  5
2E0
330
A
100
AcDbEntity
  8
03
100
AcDbCircle
 10
109.4529986021497
 20
350.1320754716981
 30
0.0
 40
0.3
100
AcDbArc
 50
179.9999997943199
 51
269.99999969148
  0
LINE
  5
2E1
330
A
100
AcDbEntity
  8
03
100
AcDbLine
 10
111.1529986021497
 20
347.8320754716981
 30
0.0
 11
112.3729986021497
 21
347.8320754716981
 31
0.0
  0
LINE
  5
2E2
330
A
100
AcDbEntity
  8
03
100
AcDbLine
 10
111.1529986021497
 20
341.8320754716982
 30
0.0
 11
112.3729986021497
 21
341.8320754716982
 31
0.0
  0
LINE
  5
2E3
330
A
100
AcDbEntity
  8
03
100
AcDbLine
 10
112.6729986021497
 20
349.8320754716981
 30
0.0
 11
109.4529986021497
 21
349.8320754716981
 31
0.0
  0
ARC
  5
2E4
330
A
100
AcDbEntity
  8
03
100
AcDbCircle
 10
112.8729986021497
 20
342.5320754716981
 30
0.0
 40
0.3
100
AcDbArc
 50
0.0
 51
179.9999997943199
  0
ARC
  5
2E5
330
A
100
AcDbEntity
  8
03
100
AcDbCircle
 10
112.8729986021497
 20
347.1320754716981
 30
0.0
 40
0.3
100
AcDbArc
 50
179.9999997943199
 51
359.9999995886399
  0
LINE
  5
2E6
330
A
100
AcDbEntity
  8
03
100
AcDbLine
 10
112.3729986021497
 20
341.8320754716982
 30
0.0
 11
112.5729986021497
 21
342.6120754716981
 31
0.0
  0
LINE
  5
2E7
330
A
100
AcDbEntity
  8
03
100
AcDbLine
 10
112.3729986021497
 20
347.8320754716981
 30
0.0
 11
112.5729986021497
 21
347.0520754716981
 31
0.0
  0
LINE
  5
2E8
330
A
100
AcDbEntity
  8
03
100
AcDbLine
 10
109.1529986021497
 20
347.8320754716981
 30
0.0
 11
107.6729986021497
 21
347.8320754716981
 31
0.0
  0
ARC
  5
2E9
330
A
100
AcDbEntity
  8
03
100
AcDbCircle
 10
107.6729986021497
 20
348.3320754716981
 30
0.0
 40
0.5
100
AcDbArc
 50
179.9999997943199
 51
269.99999969148
  0
LINE
  5
2EA
330
A
100
AcDbEntity
  8
03
100
AcDbLine
 10
107.1729986021497
 20
348.3320754716981
 30
0.0
 11
107.1729986021497
 21
351.3320754716981
 31
0.0
  0
LINE
  5
2EB
330
A
100
AcDbEntity
  8
03
100
AcDbLine
 10
105.1729986021497
 20
353.8320754716981
 30
0.0
 11
103.1729986021497
 21
353.8320754716981
 31
0.0
  0
LINE
  5
2EC
330
A
100
AcDbEntity
  8
03
100
AcDbLine
 10
99.31299860214984
 20
356.8320754716981
 30
0.0
 11
99.31299860214984
 21
356.6520754716981
 31
0.0
  0
LINE
  5
2ED
330
A
100
AcDbEntity
  8
03
100
AcDbLine
 10
97.01299860214987
 20
356.8320754716981
 30
0.0
 11
97.01299860214987
 21
356.6520754716981
 31
0.0
  0
ARC
  5
2EE
330
A
100
AcDbEntity
  8
03
100
AcDbCircle
 10
98.17299860214985
 20
355.3320754716981
 30
0.0
 40
1.759999999999999
100
AcDbArc
 50
131.066666516901
 51
48.93333327741888
  0
LINE
  5
2EF
330
A
100
AcDbEntity
  8
03
100
AcDbLine
 10
98.17299860214985
 20
352.1320754716981
 30
0.0
 11
97.87299860214986
 21
351.8320754716981
 31
0.0
  0
LINE
  5
2F0
330
A
100
AcDbEntity
  8
03
100
AcDbLine
 10
98.17299860214985
 20
352.1320754716981
 30
0.0
 11
98.47299860214985
 21
351.8320754716981
 31
0.0
  0
LINE
  5
2F1
330
A
100
AcDbEntity
  8
03
100
AcDbLine
 10
129.1729986021497
 20
489.8320754716981
 30
0.0
 11
153.1729986021498
 21
489.8320754716981
 31
0.0
  0
LINE
  5
2F2
330
A
100
AcDbEntity
  8
03
100
AcDbLine
 10
83.17299860214985
 20
469.8320754716981
 30
0.0
 11
86.17299860214984
 21
469.8320754716981
 31
0.0
  0
LINE
  5
2F3
330
A
100
AcDbEntity
  8
03
100
AcDbLine
 10
86.17299860214984
 20
469.8320754716981
 30
0.0
 11
84.43299860214983
 21
466.8320754716981
 31
0.0
  0
LINE
  5
2F4
330
A
100
AcDbEntity
  8
03
100
AcDbLine
 10
84.43299860214983
 20
466.8320754716981
 30
0.0
 11
94.17299860214985
 21
466.8320754716981
 31
0.0
  0
LINE
  5
2F5
330
A
100
AcDbEntity
  8
03
100
AcDbLine
 10
102.1729986021497
 20
466.8320754716981
 30
0.0
 11
117.6729986021497
 21
466.8320754716981
 31
0.0
  0
LINE
  5
2F6
330
A
100
AcDbEntity
  8
03
100
AcDbLine
 10
87.17299860214984
 20
464.8320754716981
 30
0.0
 11
97.01299860214987
 21
464.8320754716981
 31
0.0
  0
LINE
  5
2F7
330
A
100
AcDbEntity
  8
03
100
AcDbLine
 10
99.31299860214984
 20
464.8320754716981
 30
0.0
 11
122.1729986021497
 21
464.8320754716981
 31
0.0
  0
ARC
  5
2F8
330
A
100
AcDbEntity
  8
03
100
AcDbCircle
 10
122.1729986021497
 20
465.3320754716981
 30
0.0
 40
0.5
100
AcDbArc
 50
269.99999969148
 51
359.9999995886399
  0
LINE
  5
2F9
330
A
100
AcDbEntity
  8
03
100
AcDbLine
 10
129.1729986021497
 20
464.8320754716981
 30
0.0
 11
132.1729986021497
 21
464.8320754716981
 31
0.0
  0
ARC
  5
2FA
330
A
100
AcDbEntity
  8
03
100
AcDbCircle
 10
129.1729986021497
 20
465.3320754716981
 30
0.0
 40
0.5
100
AcDbArc
 50
179.9999997943199
 51
269.99999969148
  0
ARC
  5
2FB
330
A
100
AcDbEntity
  8
03
100
AcDbCircle
 10
132.1729986021497
 20
465.8320754716981
 30
0.0
 40
1.0
100
AcDbArc
 50
269.99999969148
 51
359.9999995886399
  0
ARC
  5
2FC
330
A
100
AcDbEntity
  8
03
100
AcDbCircle
 10
98.17299860214985
 20
466.3320754716981
 30
0.0
 40
1.759999999999999
100
AcDbArc
 50
311.0666663112211
 51
228.9333330717388
  0
LINE
  5
2FD
330
A
100
AcDbEntity
  8
03
100
AcDbLine
 10
99.31299860214984
 20
465.0120754716981
 30
0.0
 11
99.31299860214984
 21
464.8320754716981
 31
0.0
  0
LINE
  5
2FE
330
A
100
AcDbEntity
  8
03
100
AcDbLine
 10
97.01299860214987
 20
465.0120754716981
 30
0.0
 11
97.01299860214987
 21
464.8320754716981
 31
0.0
  0
LINE
  5
2FF
330
A
100
AcDbEntity
  8
03
100
AcDbLine
 10
101.6729986021498
 20
469.8320754716981
 30
0.0
 11
98.47299860214985
 21
469.8320754716981
 31
0.0
  0
ARC
  5
300
330
A
100
AcDbEntity
  8
03
100
AcDbCircle
 10
101.6729986021498
 20
469.3320754716981
 30
0.0
 40
0.5
100
AcDbArc
 50
0.0
 51
89.99999989716
  0
LINE
  5
301
330
A
100
AcDbEntity
  8
03
100
AcDbLine
 10
97.87299860214986
 20
469.8320754716981
 30
0.0
 11
94.67299860214984
 21
469.8320754716981
 31
0.0
  0
ARC
  5
302
330
A
100
AcDbEntity
  8
03
100
AcDbCircle
 10
94.67299860214984
 20
469.3320754716981
 30
0.0
 40
0.5
100
AcDbArc
 50
89.99999989716
 51
179.9999997943199
  0
LINE
  5
303
330
A
100
AcDbEntity
  8
03
100
AcDbLine
 10
102.1729986021497
 20
469.3320754716981
 30
0.0
 11
102.1729986021497
 21
466.8320754716981
 31
0.0
  0
LINE
  5
304
330
A
100
AcDbEntity
  8
03
100
AcDbLine
 10
94.17299860214985
 20
469.3320754716981
 30
0.0
 11
94.17299860214985
 21
466.8320754716981
 31
0.0
  0
LINE
  5
305
330
A
100
AcDbEntity
  8
03
100
AcDbLine
 10
98.17299860214985
 20
469.5320754716981
 30
0.0
 11
97.87299860214986
 21
469.8320754716981
 31
0.0
  0
LINE
  5
306
330
A
100
AcDbEntity
  8
03
100
AcDbLine
 10
98.17299860214985
 20
469.5320754716981
 30
0.0
 11
98.47299860214985
 21
469.8320754716981
 31
0.0
  0
LINE
  5
307
330
A
100
AcDbEntity
  8
03
100
AcDbLine
 10
126.1729986021497
 20
477.5320754716981
 30
0.0
 11
126.1729986021497
 21
477.1320754716981
 31
0.0
  0
ARC
  5
308
330
A
100
AcDbEntity
  8
03
100
AcDbCircle
 10
126.4729986021497
 20
477.1320754716981
 30
0.0
 40
0.3
100
AcDbArc
 50
179.9999997943199
 51
269.99999969148
  0
ARC
  5
309
330
A
100
AcDbEntity
  8
03
100
AcDbCircle
 10
126.4729986021497
 20
477.5320754716981
 30
0.0
 40
0.3
100
AcDbArc
 50
89.99999989716
 51
179.9999997943199
  0
LINE
  5
30A
330
A
100
AcDbEntity
  8
03
100
AcDbLine
 10
129.1729986021497
 20
486.3320754716981
 30
0.0
 11
129.1729986021497
 21
477.8320754716981
 31
0.0
  0
LINE
  5
30B
330
A
100
AcDbEntity
  8
03
100
AcDbLine
 10
129.1729986021497
 20
476.8320754716981
 30
0.0
 11
129.1729986021497
 21
471.8320754716981
 31
0.0
  0
ARC
  5
30C
330
A
100
AcDbEntity
  8
03
100
AcDbCircle
 10
128.1729986021497
 20
471.8320754716981
 30
0.0
 40
1.0
100
AcDbArc
 50
269.99999969148
 51
359.9999995886399
  0
LINE
  5
30D
330
A
100
AcDbEntity
  8
03
100
AcDbLine
 10
129.1729986021497
 20
488.3320754716981
 30
0.0
 11
126.6729986021498
 21
488.3320754716981
 31
0.0
  0
LINE
  5
30E
330
A
100
AcDbEntity
  8
03
100
AcDbLine
 10
129.1729986021497
 20
486.3320754716981
 30
0.0
 11
126.1729986021497
 21
486.3320754716981
 31
0.0
  0
LINE
  5
30F
330
A
100
AcDbEntity
  8
03
100
AcDbLine
 10
129.1729986021497
 20
477.8320754716981
 30
0.0
 11
126.4729986021497
 21
477.8320754716981
 31
0.0
  0
LINE
  5
310
330
A
100
AcDbEntity
  8
03
100
AcDbLine
 10
129.1729986021497
 20
476.8320754716981
 30
0.0
 11
126.4729986021497
 21
476.8320754716981
 31
0.0
  0
LINE
  5
311
330
A
100
AcDbEntity
  8
03
100
AcDbLine
 10
117.6729986021497
 20
468.8320754716981
 30
0.0
 11
117.6729986021497
 21
466.8320754716981
 31
0.0
  0
LINE
  5
312
330
A
100
AcDbEntity
  8
03
100
AcDbLine
 10
114.1729986021498
 20
472.8320754716981
 30
0.0
 11
114.1729986021498
 21
469.3320754716981
 31
0.0
  0
ARC
  5
313
330
A
100
AcDbEntity
  8
03
100
AcDbCircle
 10
114.6729986021497
 20
469.3320754716981
 30
0.0
 40
0.5
100
AcDbArc
 50
179.9999997943199
 51
269.99999969148
  0
LINE
  5
314
330
A
100
AcDbEntity
  8
03
100
AcDbLine
 10
119.6729986021497
 20
466.3320754716981
 30
0.0
 11
119.6729986021497
 21
468.8320754716981
 31
0.0
  0
LINE
  5
315
330
A
100
AcDbEntity
  8
03
100
AcDbLine
 10
122.6729986021497
 20
465.3320754716981
 30
0.0
 11
122.6729986021497
 21
466.3320754716981
 31
0.0
  0
LINE
  5
316
330
A
100
AcDbEntity
  8
03
100
AcDbLine
 10
128.6729986021498
 20
465.3320754716981
 30
0.0
 11
128.6729986021498
 21
466.3320754716981
 31
0.0
  0
LINE
  5
317
330
A
100
AcDbEntity
  8
03
100
AcDbLine
 10
131.6729986021497
 20
466.3320754716981
 30
0.0
 11
131.6729986021497
 21
468.8320754716981
 31
0.0
  0
LINE
  5
318
330
A
100
AcDbEntity
  8
03
100
AcDbLine
 10
131.6729986021497
 20
466.3320754716981
 30
0.0
 11
128.6729986021498
 21
466.3320754716981
 31
0.0
  0
LINE
  5
319
330
A
100
AcDbEntity
  8
03
100
AcDbLine
 10
122.6729986021497
 20
466.3320754716981
 30
0.0
 11
119.6729986021497
 21
466.3320754716981
 31
0.0
  0
LINE
  5
31A
330
A
100
AcDbEntity
  8
03
100
AcDbLine
 10
133.1729986021497
 20
465.8320754716981
 30
0.0
 11
133.1729986021497
 21
469.8320754716981
 31
0.0
  0
ARC
  5
31B
330
A
100
AcDbEntity
  8
03
100
AcDbCircle
 10
132.1729986021497
 20
469.8320754716981
 30
0.0
 40
1.0
100
AcDbArc
 50
0.0
 51
89.99999989716
  0
LINE
  5
31C
330
A
100
AcDbEntity
  8
03
100
AcDbLine
 10
131.6729986021497
 20
468.8320754716981
 30
0.0
 11
119.6729986021497
 21
468.8320754716981
 31
0.0
  0
ARC
  5
31D
330
A
100
AcDbEntity
  8
03
100
AcDbCircle
 10
132.0729986021498
 20
471.7320754716981
 30
0.0
 40
0.9
100
AcDbArc
 50
179.9999997943199
 51
269.99999969148
  0
LINE
  5
31E
330
A
100
AcDbEntity
  8
03
100
AcDbLine
 10
131.1729986021497
 20
486.8320754716982
 30
0.0
 11
131.1729986021497
 21
471.7320754716981
 31
0.0
  0
ARC
  5
31F
330
A
100
AcDbEntity
  8
03
100
AcDbCircle
 10
132.1729986021497
 20
486.8320754716982
 30
0.0
 40
1.0
100
AcDbArc
 50
89.99999989716
 51
179.9999997943199
  0
LINE
  5
320
330
A
100
AcDbEntity
  8
03
100
AcDbLine
 10
117.6729986021497
 20
468.8320754716981
 30
0.0
 11
114.6729986021497
 21
468.8320754716981
 31
0.0
  0
LINE
  5
321
330
A
100
AcDbEntity
  8
03
100
AcDbLine
 10
114.1729986021498
 20
472.8320754716981
 30
0.0
 11
116.1729986021498
 21
472.8320754716981
 31
0.0
  0
LINE
  5
322
330
A
100
AcDbEntity
  8
03
100
AcDbLine
 10
116.1729986021498
 20
472.8320754716981
 30
0.0
 11
116.1729986021498
 21
471.1320754716981
 31
0.0
  0
ARC
  5
323
330
A
100
AcDbEntity
  8
03
100
AcDbCircle
 10
116.4729986021497
 20
471.1320754716981
 30
0.0
 40
0.3
100
AcDbArc
 50
179.9999997943199
 51
269.99999969148
  0
LINE
  5
324
330
A
100
AcDbEntity
  8
03
100
AcDbLine
 10
116.4729986021497
 20
470.8320754716981
 30
0.0
 11
119.8729986021497
 21
470.8320754716981
 31
0.0
  0
ARC
  5
325
330
A
100
AcDbEntity
  8
03
100
AcDbCircle
 10
119.8729986021497
 20
471.1320754716981
 30
0.0
 40
0.3
100
AcDbArc
 50
269.99999969148
 51
359.9999995886399
  0
LINE
  5
326
330
A
100
AcDbEntity
  8
03
100
AcDbLine
 10
120.1729986021497
 20
471.1320754716981
 30
0.0
 11
120.1729986021497
 21
472.8320754716981
 31
0.0
  0
LINE
  5
327
330
A
100
AcDbEntity
  8
03
100
AcDbLine
 10
120.1729986021497
 20
472.8320754716981
 30
0.0
 11
122.1729986021497
 21
472.8320754716981
 31
0.0
  0
LINE
  5
328
330
A
100
AcDbEntity
  8
03
100
AcDbLine
 10
122.1729986021497
 20
472.8320754716981
 30
0.0
 11
122.1729986021497
 21
471.8320754716981
 31
0.0
  0
ARC
  5
329
330
A
100
AcDbEntity
  8
03
100
AcDbCircle
 10
123.1729986021497
 20
471.8320754716981
 30
0.0
 40
1.0
100
AcDbArc
 50
179.9999997943199
 51
269.99999969148
  0
LINE
  5
32A
330
A
100
AcDbEntity
  8
03
100
AcDbLine
 10
123.1729986021497
 20
470.8320754716981
 30
0.0
 11
128.1729986021497
 21
470.8320754716981
 31
0.0
  0
LINE
  5
32B
330
A
100
AcDbEntity
  8
03
100
AcDbLine
 10
132.1729986021497
 20
487.8320754716981
 30
0.0
 11
134.5529986021497
 21
487.8320754716981
 31
0.0
  0
LINE
  5
32C
330
A
100
AcDbEntity
  8
03
100
AcDbLine
 10
141.7729986021498
 20
487.8320754716981
 30
0.0
 11
150.1729986021498
 21
487.8320754716981
 31
0.0
  0
ARC
  5
32D
330
A
100
AcDbEntity
  8
03
100
AcDbCircle
 10
150.1729986021498
 20
486.8320754716982
 30
0.0
 40
1.0
100
AcDbArc
 50
0.0
 51
89.99999989716
  0
ARC
  5
32E
330
A
100
AcDbEntity
  8
03
100
AcDbCircle
 10
138.1729986021498
 20
486.3320754716981
 30
0.0
 40
1.759999999999999
100
AcDbArc
 50
317.5444440815969
 51
222.4555553013629
  0
ARC
  5
32F
330
A
100
AcDbEntity
  8
03
100
AcDbCircle
 10
138.1729986021498
 20
486.3320754716981
 30
0.0
 40
3.259999999999998
100
AcDbArc
 50
164.5222220342281
 51
220.9999997474705
  0
ARC
  5
330
330
A
100
AcDbEntity
  8
03
100
AcDbCircle
 10
134.5529986021497
 20
487.3320754716981
 30
0.0
 40
0.5
100
AcDbArc
 50
344.5222218285481
 51
89.99999989716
  0
ARC
  5
331
330
A
100
AcDbEntity
  8
03
100
AcDbCircle
 10
138.1729986021498
 20
486.3320754716981
 30
0.0
 40
3.259999999999998
100
AcDbArc
 50
319.7444440790831
 51
15.47777776009188
  0
ARC
  5
332
330
A
100
AcDbEntity
  8
03
100
AcDbCircle
 10
141.7729986021498
 20
487.3320754716981
 30
0.0
 40
0.5
100
AcDbArc
 50
89.99999989716
 51
195.4777775544118
  0
LINE
  5
333
330
A
100
AcDbEntity
  8
03
100
AcDbLine
 10
151.1729986021498
 20
486.8320754716982
 30
0.0
 11
151.1729986021498
 21
478.8320754716981
 31
0.0
  0
ARC
  5
334
330
A
100
AcDbEntity
  8
03
100
AcDbCircle
 10
150.1729986021498
 20
478.8320754716981
 30
0.0
 40
1.0
100
AcDbArc
 50
269.99999969148
 51
359.9999995886399
  0
LINE
  5
335
330
A
100
AcDbEntity
  8
03
100
AcDbLine
 10
150.4729986021497
 20
464.3320754716981
 30
0.0
 11
145.6729986021498
 21
464.3320754716981
 31
0.0
  0
ARC
  5
336
330
A
100
AcDbEntity
  8
03
100
AcDbCircle
 10
150.4729986021497
 20
464.8320754716981
 30
0.0
 40
0.5
100
AcDbArc
 50
269.99999969148
 51
359.9999995886399
  0
ARC
  5
337
330
A
100
AcDbEntity
  8
03
100
AcDbCircle
 10
145.6729986021498
 20
465.3320754716981
 30
0.0
 40
1.0
100
AcDbArc
 50
179.9999997943199
 51
269.99999969148
  0
LINE
  5
338
330
A
100
AcDbEntity
  8
03
100
AcDbLine
 10
149.9729986021498
 20
466.3320754716981
 30
0.0
 11
146.6729986021498
 21
466.3320754716981
 31
0.0
  0
LINE
  5
339
330
A
100
AcDbEntity
  8
03
100
AcDbLine
 10
153.1729986021498
 20
475.8320754716981
 30
0.0
 11
146.6729986021498
 21
475.8320754716981
 31
0.0
  0
LINE
  5
33A
330
A
100
AcDbEntity
  8
03
100
AcDbLine
 10
150.1729986021498
 20
477.8320754716981
 30
0.0
 11
145.6729986021498
 21
477.8320754716981
 31
0.0
  0
ARC
  5
33B
330
A
100
AcDbEntity
  8
03
100
AcDbCircle
 10
145.6729986021498
 20
476.8320754716981
 30
0.0
 40
1.0
100
AcDbArc
 50
89.99999989716
 51
179.9999997943199
  0
LINE
  5
33C
330
A
100
AcDbEntity
  8
03
100
AcDbLine
 10
146.6729986021498
 20
475.8320754716981
 30
0.0
 11
146.6729986021498
 21
466.3320754716981
 31
0.0
  0
LINE
  5
33D
330
A
100
AcDbEntity
  8
03
100
AcDbLine
 10
144.6729986021498
 20
476.8320754716981
 30
0.0
 11
144.6729986021498
 21
475.5320754716981
 31
0.0
  0
LINE
  5
33E
330
A
100
AcDbEntity
  8
03
100
AcDbLine
 10
144.6729986021498
 20
467.5320754716981
 30
0.0
 11
144.6729986021498
 21
465.3320754716981
 31
0.0
  0
LINE
  5
33F
330
A
100
AcDbEntity
  8
03
100
AcDbLine
 10
143.6729986021498
 20
474.5320754716981
 30
0.0
 11
143.6729986021498
 21
468.5320754716981
 31
0.0
  0
ARC
  5
340
330
A
100
AcDbEntity
  8
03
100
AcDbCircle
 10
140.0729986021497
 20
484.7120754716981
 30
0.0
 40
0.76
100
AcDbArc
 50
144.1999998352273
 51
320.3888885227911
  0
ARC
  5
341
330
A
100
AcDbEntity
  8
03
100
AcDbCircle
 10
136.2729986021497
 20
484.7120754716981
 30
0.0
 40
0.76
100
AcDbArc
 50
222.8444441898075
 51
35.79999995909256
  0
LINE
  5
342
330
A
100
AcDbEntity
  8
03
100
AcDbLine
 10
143.6729986021498
 20
474.5320754716981
 30
0.0
 11
144.6729986021498
 21
475.5320754716981
 31
0.0
  0
LINE
  5
343
330
A
100
AcDbEntity
  8
03
100
AcDbLine
 10
143.6729986021498
 20
468.5320754716981
 30
0.0
 11
144.6729986021498
 21
467.5320754716981
 31
0.0
  0
LINE
  5
344
330
A
100
AcDbEntity
  8
03
100
AcDbLine
 10
151.1729986021498
 20
473.8320754716981
 30
0.0
 11
147.6729986021498
 21
473.8320754716981
 31
0.0
  0
LINE
  5
345
330
A
100
AcDbEntity
  8
03
100
AcDbLine
 10
151.1729986021498
 20
466.8320754716981
 30
0.0
 11
150.9729986021498
 21
466.8320754716981
 31
0.0
  0
LINE
  5
346
330
A
100
AcDbEntity
  8
03
100
AcDbLine
 10
149.9729986021498
 20
466.8320754716981
 30
0.0
 11
147.6729986021498
 21
466.8320754716981
 31
0.0
  0
LINE
  5
347
330
A
100
AcDbEntity
  8
03
100
AcDbLine
 10
151.1729986021498
 20
468.8320754716981
 30
0.0
 11
147.6729986021498
 21
468.8320754716981
 31
0.0
  0
LINE
  5
348
330
A
100
AcDbEntity
  8
03
100
AcDbLine
 10
151.1729986021498
 20
473.8320754716981
 30
0.0
 11
151.1729986021498
 21
468.8320754716981
 31
0.0
  0
ARC
  5
349
330
A
100
AcDbEntity
  8
03
100
AcDbCircle
 10
147.6729986021498
 20
474.8320754716981
 30
0.0
 40
1.0
100
AcDbArc
 50
89.99999989716
 51
269.99999969148
  0
ARC
  5
34A
330
A
100
AcDbEntity
  8
03
100
AcDbCircle
 10
147.6729986021498
 20
467.8320754716981
 30
0.0
 40
1.0
100
AcDbArc
 50
89.99999989716
 51
269.99999969148
  0
ARC
  5
34B
330
A
100
AcDbEntity
  8
03
100
AcDbCircle
 10
150.4729986021497
 20
466.3320754716981
 30
0.0
 40
0.5
100
AcDbArc
 50
0.0
 51
179.9999997943199
  0
ARC
  5
34C
330
A
100
AcDbEntity
  8
03
100
AcDbCircle
 10
150.4729986021497
 20
466.8320754716981
 30
0.0
 40
0.5
100
AcDbArc
 50
0.0
 51
179.9999997943199
  0
LINE
  5
34D
330
A
100
AcDbEntity
  8
03
100
AcDbLine
 10
150.9729986021498
 20
466.3320754716981
 30
0.0
 11
150.9729986021498
 21
464.8320754716981
 31
0.0
  0
ARC
  5
34E
330
A
100
AcDbEntity
  8
03
100
AcDbCircle
 10
153.4529986021498
 20
465.3320754716981
 30
0.0
 40
2.5
100
AcDbArc
 50
156.4222220434836
 51
203.5777775451562
  0
LINE
  5
34F
330
A
100
AcDbEntity
  8
03
100
AcDbLine
 10
252.1286489076624
 20
462.8320754716981
 30
0.0
 11
252.1286489076624
 21
353.8320754716981
 31
0.0
  0
ARC
  5
350
330
A
100
AcDbEntity
  8
03
100
AcDbCircle
 10
254.1286489076624
 20
462.8320754716981
 30
0.0
 40
2.0
100
AcDbArc
 50
89.99999989716
 51
179.9999997943199
  0
LINE
  5
351
330
A
100
AcDbEntity
  8
03
100
AcDbLine
 10
320.1286489076625
 20
339.8320754716982
 30
0.0
 11
316.6286489076625
 21
339.8320754716982
 31
0.0
  0
LINE
  5
352
330
A
100
AcDbEntity
  8
03
100
AcDbLine
 10
316.6286489076625
 20
339.8320754716982
 30
0.0
 11
316.6286489076625
 21
342.3320754716982
 31
0.0
  0
LINE
  5
353
330
A
100
AcDbEntity
  8
03
100
AcDbLine
 10
316.6286489076625
 20
346.3320754716981
 30
0.0
 11
316.6286489076625
 21
348.8320754716981
 31
0.0
  0
LINE
  5
354
330
A
100
AcDbEntity
  8
03
100
AcDbLine
 10
316.6286489076625
 20
348.8320754716981
 30
0.0
 11
318.1286489076625
 21
348.8320754716981
 31
0.0
  0
LINE
  5
355
330
A
100
AcDbEntity
  8
03
100
AcDbLine
 10
318.6286489076625
 20
347.3320754716981
 30
0.0
 11
318.6286489076625
 21
341.3320754716981
 31
0.0
  0
LINE
  5
356
330
A
100
AcDbEntity
  8
03
100
AcDbLine
 10
318.6286489076625
 20
341.3320754716981
 30
0.0
 11
317.4286489076623
 21
341.3320754716981
 31
0.0
  0
LINE
  5
357
330
A
100
AcDbEntity
  8
03
100
AcDbLine
 10
318.6286489076625
 20
347.3320754716981
 30
0.0
 11
317.4286489076623
 21
347.3320754716981
 31
0.0
  0
LINE
  5
358
330
A
100
AcDbEntity
  8
03
100
AcDbLine
 10
316.6286489076625
 20
346.3320754716981
 30
0.0
 11
317.1286489076625
 21
346.3320754716981
 31
0.0
  0
LINE
  5
359
330
A
100
AcDbEntity
  8
03
100
AcDbLine
 10
317.1286489076625
 20
342.3320754716982
 30
0.0
 11
316.6286489076625
 21
342.3320754716982
 31
0.0
  0
LINE
  5
35A
330
A
100
AcDbEntity
  8
03
100
AcDbLine
 10
317.1286489076625
 20
346.3320754716981
 30
0.0
 11
317.4286489076623
 21
347.3320754716981
 31
0.0
  0
LINE
  5
35B
330
A
100
AcDbEntity
  8
03
100
AcDbLine
 10
317.4286489076623
 20
341.3320754716981
 30
0.0
 11
317.1286489076625
 21
342.3320754716982
 31
0.0
  0
LINE
  5
35C
330
A
100
AcDbEntity
  8
03
100
AcDbLine
 10
320.1286489076625
 20
489.5320754716981
 30
0.0
 11
320.1286489076625
 21
339.8320754716982
 31
0.0
  0
ARC
  5
35D
330
A
100
AcDbEntity
  8
03
100
AcDbCircle
 10
319.8286489076624
 20
489.5320754716981
 30
0.0
 40
0.3
100
AcDbArc
 50
0.0
 51
89.99999989716
  0
LINE
  5
35E
330
A
100
AcDbEntity
  8
03
100
AcDbLine
 10
318.1286489076625
 20
466.8320754716981
 30
0.0
 11
318.1286489076625
 21
466.3320754716981
 31
0.0
  0
LINE
  5
35F
330
A
100
AcDbEntity
  8
03
100
AcDbLine
 10
318.1286489076625
 20
464.3320754716981
 30
0.0
 11
318.1286489076625
 21
348.8320754716981
 31
0.0
  0
LINE
  5
360
330
A
100
AcDbEntity
  8
03
100
AcDbLine
 10
250.1286489076623
 20
339.8320754716982
 30
0.0
 11
250.1286489076623
 21
469.8320754716981
 31
0.0
  0
LINE
  5
361
330
A
100
AcDbEntity
  8
03
100
AcDbLine
 10
250.1286489076623
 20
339.8320754716982
 30
0.0
 11
252.1286489076624
 21
339.8320754716982
 31
0.0
  0
LINE
  5
362
330
A
100
AcDbEntity
  8
03
100
AcDbLine
 10
279.6286489076625
 20
339.8320754716982
 30
0.0
 11
274.1286489076625
 21
339.8320754716982
 31
0.0
  0
ARC
  5
363
330
A
100
AcDbEntity
  8
03
100
AcDbCircle
 10
279.6286489076625
 20
340.3320754716982
 30
0.0
 40
0.5
100
AcDbArc
 50
269.99999969148
 51
359.9999995886399
  0
LINE
  5
364
330
A
100
AcDbEntity
  8
03
100
AcDbLine
 10
252.1286489076624
 20
339.8320754716982
 30
0.0
 11
252.1286489076624
 21
341.3320754716981
 31
0.0
  0
LINE
  5
365
330
A
100
AcDbEntity
  8
03
100
AcDbLine
 10
252.1286489076624
 20
341.3320754716981
 30
0.0
 11
254.8286489076625
 21
341.3320754716981
 31
0.0
  0
ARC
  5
366
330
A
100
AcDbEntity
  8
03
100
AcDbCircle
 10
254.8286489076625
 20
341.6320754716981
 30
0.0
 40
0.3
100
AcDbArc
 50
269.99999969148
 51
359.9999995886399
  0
LINE
  5
367
330
A
100
AcDbEntity
  8
03
100
AcDbLine
 10
255.1286489076625
 20
341.6320754716981
 30
0.0
 11
255.1286489076625
 21
343.3320754716981
 31
0.0
  0
LINE
  5
368
330
A
100
AcDbEntity
  8
03
100
AcDbLine
 10
255.1286489076625
 20
343.3320754716981
 30
0.0
 11
252.1286489076624
 21
343.3320754716981
 31
0.0
  0
LINE
  5
369
330
A
100
AcDbEntity
  8
03
100
AcDbLine
 10
252.1286489076624
 20
343.3320754716981
 30
0.0
 11
252.1286489076624
 21
350.3320754716981
 31
0.0
  0
ARC
  5
36A
330
A
100
AcDbEntity
  8
03
100
AcDbCircle
 10
253.6286489076625
 20
350.3320754716981
 30
0.0
 40
1.5
100
AcDbArc
 50
89.99999989716
 51
179.9999997943199
  0
LINE
  5
36B
330
A
100
AcDbEntity
  8
03
100
AcDbLine
 10
274.1286489076625
 20
339.8320754716982
 30
0.0
 11
274.1286489076625
 21
341.3320754716981
 31
0.0
  0
LINE
  5
36C
330
A
100
AcDbEntity
  8
03
100
AcDbLine
 10
274.1286489076625
 20
341.3320754716981
 30
0.0
 11
271.4286489076623
 21
341.3320754716981
 31
0.0
  0
ARC
  5
36D
330
A
100
AcDbEntity
  8
03
100
AcDbCircle
 10
271.4286489076623
 20
341.6320754716981
 30
0.0
 40
0.3
100
AcDbArc
 50
179.9999997943199
 51
269.99999969148
  0
LINE
  5
36E
330
A
100
AcDbEntity
  8
03
100
AcDbLine
 10
271.1286489076625
 20
341.6320754716981
 30
0.0
 11
271.1286489076625
 21
343.3320754716981
 31
0.0
  0
LINE
  5
36F
330
A
100
AcDbEntity
  8
03
100
AcDbLine
 10
271.1286489076625
 20
343.3320754716981
 30
0.0
 11
276.1286489076625
 21
343.3320754716981
 31
0.0
  0
LINE
  5
370
330
A
100
AcDbEntity
  8
03
100
AcDbLine
 10
279.8286489076625
 20
356.8320754716981
 30
0.0
 11
273.4286489076623
 21
356.8320754716981
 31
0.0
  0
ARC
  5
371
330
A
100
AcDbEntity
  8
03
100
AcDbCircle
 10
279.8286489076625
 20
356.5320754716981
 30
0.0
 40
0.3
100
AcDbArc
 50
0.0
 51
89.99999989716
  0
ARC
  5
372
330
A
100
AcDbEntity
  8
03
100
AcDbCircle
 10
273.4286489076623
 20
356.5320754716981
 30
0.0
 40
0.3
100
AcDbArc
 50
89.99999989716
 51
179.9999997943199
  0
ARC
  5
373
330
A
100
AcDbEntity
  8
03
100
AcDbCircle
 10
268.8286489076625
 20
356.5320754716981
 30
0.0
 40
0.3
100
AcDbArc
 50
0.0
 51
89.99999989716
  0
LINE
  5
374
330
A
100
AcDbEntity
  8
03
100
AcDbLine
 10
272.1286489076625
 20
356.8320754716981
 30
0.0
 11
252.1286489076624
 21
356.8320754716981
 31
0.0
  0
ARC
  5
375
330
A
100
AcDbEntity
  8
03
100
AcDbCircle
 10
256.4286489076625
 20
356.5320754716981
 30
0.0
 40
0.3
100
AcDbArc
 50
89.99999989716
 51
179.9999997943199
  0
LINE
  5
376
330
A
100
AcDbEntity
  8
03
100
AcDbLine
 10
280.1286489076625
 20
356.5320754716981
 30
0.0
 11
280.1286489076625
 21
355.3320754716981
 31
0.0
  0
ARC
  5
377
330
A
100
AcDbEntity
  8
03
100
AcDbCircle
 10
279.6286489076625
 20
355.3320754716981
 30
0.0
 40
0.5
100
AcDbArc
 50
269.99999969148
 51
359.9999995886399
  0
LINE
  5
378
330
A
100
AcDbEntity
  8
03
100
AcDbLine
 10
279.6286489076625
 20
354.8320754716981
 30
0.0
 11
276.4286489076623
 21
354.8320754716981
 31
0.0
  0
ARC
  5
379
330
A
100
AcDbEntity
  8
03
100
AcDbCircle
 10
276.4286489076623
 20
354.5320754716981
 30
0.0
 40
0.3
100
AcDbArc
 50
89.99999989716
 51
179.9999997943199
  0
LINE
  5
37A
330
A
100
AcDbEntity
  8
03
100
AcDbLine
 10
273.1286489076625
 20
356.5320754716981
 30
0.0
 11
273.1286489076625
 21
354.8320754716981
 31
0.0
  0
ARC
  5
37B
330
A
100
AcDbEntity
  8
03
100
AcDbCircle
 10
272.1286489076625
 20
354.8320754716981
 30
0.0
 40
1.0
100
AcDbArc
 50
269.99999969148
 51
359.9999995886399
  0
LINE
  5
37C
330
A
100
AcDbEntity
  8
03
100
AcDbLine
 10
269.1286489076625
 20
356.5320754716981
 30
0.0
 11
269.1286489076625
 21
354.8320754716981
 31
0.0
  0
ARC
  5
37D
330
A
100
AcDbEntity
  8
03
100
AcDbCircle
 10
270.1286489076625
 20
354.8320754716981
 30
0.0
 40
1.0
100
AcDbArc
 50
179.9999997943199
 51
269.99999969148
  0
LINE
  5
37E
330
A
100
AcDbEntity
  8
03
100
AcDbLine
 10
256.1286489076625
 20
353.8320754716981
 30
0.0
 11
256.1286489076625
 21
356.5320754716981
 31
0.0
  0
LINE
  5
37F
330
A
100
AcDbEntity
  8
03
100
AcDbLine
 10
258.1286489076625
 20
353.8320754716981
 30
0.0
 11
258.1286489076625
 21
352.3320754716981
 31
0.0
  0
ARC
  5
380
330
A
100
AcDbEntity
  8
03
100
AcDbCircle
 10
257.6286489076625
 20
352.3320754716981
 30
0.0
 40
0.5
100
AcDbArc
 50
269.99999969148
 51
359.9999995886399
  0
ARC
  5
381
330
A
100
AcDbEntity
  8
03
100
AcDbCircle
 10
259.1286489076625
 20
353.8320754716981
 30
0.0
 40
1.0
100
AcDbArc
 50
89.99999989716
 51
179.9999997943199
  0
LINE
  5
382
330
A
100
AcDbEntity
  8
03
100
AcDbLine
 10
261.1286489076625
 20
352.3320754716981
 30
0.0
 11
261.1286489076625
 21
353.8320754716981
 31
0.0
  0
ARC
  5
383
330
A
100
AcDbEntity
  8
03
100
AcDbCircle
 10
261.6286489076625
 20
352.3320754716981
 30
0.0
 40
0.5
100
AcDbArc
 50
179.9999997943199
 51
269.99999969148
  0
ARC
  5
384
330
A
100
AcDbEntity
  8
03
100
AcDbCircle
 10
260.1286489076625
 20
353.8320754716981
 30
0.0
 40
1.0
100
AcDbArc
 50
0.0
 51
89.99999989716
  0
LINE
  5
385
330
A
100
AcDbEntity
  8
03
100
AcDbLine
 10
259.1286489076625
 20
354.8320754716981
 30
0.0
 11
260.1286489076625
 21
354.8320754716981
 31
0.0
  0
LINE
  5
386
330
A
100
AcDbEntity
  8
03
100
AcDbLine
 10
253.6286489076625
 20
351.8320754716981
 30
0.0
 11
257.6286489076625
 21
351.8320754716981
 31
0.0
  0
LINE
  5
387
330
A
100
AcDbEntity
  8
03
100
AcDbLine
 10
252.1286489076624
 20
353.8320754716981
 30
0.0
 11
256.1286489076625
 21
353.8320754716981
 31
0.0
  0
LINE
  5
388
330
A
100
AcDbEntity
  8
03
100
AcDbLine
 10
261.6286489076625
 20
351.8320754716981
 30
0.0
 11
264.8286489076625
 21
351.8320754716981
 31
0.0
  0
LINE
  5
389
330
A
100
AcDbEntity
  8
03
100
AcDbLine
 10
265.4286489076623
 20
351.8320754716981
 30
0.0
 11
273.6286489076625
 21
351.8320754716981
 31
0.0
  0
ARC
  5
38A
330
A
100
AcDbEntity
  8
03
100
AcDbCircle
 10
273.6286489076625
 20
351.3320754716981
 30
0.0
 40
0.5
100
AcDbArc
 50
0.0
 51
89.99999989716
  0
LINE
  5
38B
330
A
100
AcDbEntity
  8
03
100
AcDbLine
 10
280.1286489076625
 20
340.3320754716982
 30
0.0
 11
280.1286489076625
 21
342.5320754716981
 31
0.0
  0
LINE
  5
38C
330
A
100
AcDbEntity
  8
03
100
AcDbLine
 10
280.1286489076625
 20
347.1320754716981
 30
0.0
 11
280.1286489076625
 21
349.3320754716981
 31
0.0
  0
ARC
  5
38D
330
A
100
AcDbEntity
  8
03
100
AcDbCircle
 10
279.6286489076625
 20
349.3320754716981
 30
0.0
 40
0.5
100
AcDbArc
 50
0.0
 51
89.99999989716
  0
LINE
  5
38E
330
A
100
AcDbEntity
  8
03
100
AcDbLine
 10
278.1286489076625
 20
341.8320754716982
 30
0.0
 11
278.1286489076625
 21
347.8320754716981
 31
0.0
  0
LINE
  5
38F
330
A
100
AcDbEntity
  8
03
100
AcDbLine
 10
276.1286489076625
 20
343.3320754716981
 30
0.0
 11
276.1286489076625
 21
347.8320754716981
 31
0.0
  0
LINE
  5
390
330
A
100
AcDbEntity
  8
03
100
AcDbLine
 10
276.1286489076625
 20
350.1320754716981
 30
0.0
 11
276.1286489076625
 21
354.5320754716981
 31
0.0
  0
ARC
  5
391
330
A
100
AcDbEntity
  8
03
100
AcDbCircle
 10
276.4286489076623
 20
350.1320754716981
 30
0.0
 40
0.3
100
AcDbArc
 50
179.9999997943199
 51
269.99999969148
  0
LINE
  5
392
330
A
100
AcDbEntity
  8
03
100
AcDbLine
 10
278.1286489076625
 20
347.8320754716981
 30
0.0
 11
279.3286489076625
 21
347.8320754716981
 31
0.0
  0
LINE
  5
393
330
A
100
AcDbEntity
  8
03
100
AcDbLine
 10
278.1286489076625
 20
341.8320754716982
 30
0.0
 11
279.3286489076625
 21
341.8320754716982
 31
0.0
  0
LINE
  5
394
330
A
100
AcDbEntity
  8
03
100
AcDbLine
 10
279.6286489076625
 20
349.8320754716981
 30
0.0
 11
276.4286489076623
 21
349.8320754716981
 31
0.0
  0
ARC
  5
395
330
A
100
AcDbEntity
  8
03
100
AcDbCircle
 10
279.8286489076625
 20
342.5320754716981
 30
0.0
 40
0.3
100
AcDbArc
 50
0.0
 51
179.9999997943199
  0
ARC
  5
396
330
A
100
AcDbEntity
  8
03
100
AcDbCircle
 10
279.8286489076625
 20
347.1320754716981
 30
0.0
 40
0.3
100
AcDbArc
 50
179.9999997943199
 51
359.9999995886399
  0
LINE
  5
397
330
A
100
AcDbEntity
  8
03
100
AcDbLine
 10
279.3286489076625
 20
341.8320754716982
 30
0.0
 11
279.5486489076623
 21
342.6120754716981
 31
0.0
  0
LINE
  5
398
330
A
100
AcDbEntity
  8
03
100
AcDbLine
 10
279.3286489076625
 20
347.8320754716981
 30
0.0
 11
279.5486489076623
 21
347.0520754716981
 31
0.0
  0
LINE
  5
399
330
A
100
AcDbEntity
  8
03
100
AcDbLine
 10
276.1286489076625
 20
347.8320754716981
 30
0.0
 11
274.6286489076625
 21
347.8320754716981
 31
0.0
  0
ARC
  5
39A
330
A
100
AcDbEntity
  8
03
100
AcDbCircle
 10
274.6286489076625
 20
348.3320754716981
 30
0.0
 40
0.5
100
AcDbArc
 50
179.9999997943199
 51
269.99999969148
  0
LINE
  5
39B
330
A
100
AcDbEntity
  8
03
100
AcDbLine
 10
274.1286489076625
 20
348.3320754716981
 30
0.0
 11
274.1286489076625
 21
351.3320754716981
 31
0.0
  0
LINE
  5
39C
330
A
100
AcDbEntity
  8
03
100
AcDbLine
 10
272.1286489076625
 20
353.8320754716981
 30
0.0
 11
270.1286489076625
 21
353.8320754716981
 31
0.0
  0
LINE
  5
39D
330
A
100
AcDbEntity
  8
03
100
AcDbLine
 10
265.1286489076625
 20
352.1320754716981
 30
0.0
 11
264.8286489076625
 21
351.8320754716981
 31
0.0
  0
LINE
  5
39E
330
A
100
AcDbEntity
  8
03
100
AcDbLine
 10
265.1286489076625
 20
352.1320754716981
 30
0.0
 11
265.4286489076623
 21
351.8320754716981
 31
0.0
  0
LINE
  5
39F
330
A
100
AcDbEntity
  8
03
100
AcDbLine
 10
296.1286489076625
 20
489.8320754716981
 30
0.0
 11
319.8286489076624
 21
489.8320754716981
 31
0.0
  0
LINE
  5
3A0
330
A
100
AcDbEntity
  8
03
100
AcDbLine
 10
250.1286489076623
 20
469.8320754716981
 30
0.0
 11
253.1286489076625
 21
469.8320754716981
 31
0.0
  0
LINE
  5
3A1
330
A
100
AcDbEntity
  8
03
100
AcDbLine
 10
253.1286489076625
 20
469.8320754716981
 30
0.0
 11
251.4086489076623
 21
466.8320754716981
 31
0.0
  0
LINE
  5
3A2
330
A
100
AcDbEntity
  8
03
100
AcDbLine
 10
251.4086489076623
 20
466.8320754716981
 30
0.0
 11
261.1286489076625
 21
466.8320754716981
 31
0.0
  0
LINE
  5
3A3
330
A
100
AcDbEntity
  8
03
100
AcDbLine
 10
269.1286489076625
 20
466.8320754716981
 30
0.0
 11
284.6286489076625
 21
466.8320754716981
 31
0.0
  0
LINE
  5
3A4
330
A
100
AcDbEntity
  8
03
100
AcDbLine
 10
254.1286489076624
 20
464.8320754716981
 30
0.0
 11
263.9886489076623
 21
464.8320754716981
 31
0.0
  0
LINE
  5
3A5
330
A
100
AcDbEntity
  8
03
100
AcDbLine
 10
266.2886489076623
 20
464.8320754716981
 30
0.0
 11
289.1286489076625
 21
464.8320754716981
 31
0.0
  0
ARC
  5
3A6
330
A
100
AcDbEntity
  8
03
100
AcDbCircle
 10
289.1286489076625
 20
465.3320754716981
 30
0.0
 40
0.5
100
AcDbArc
 50
269.99999969148
 51
359.9999995886399
  0
LINE
  5
3A7
330
A
100
AcDbEntity
  8
03
100
AcDbLine
 10
296.1286489076625
 20
464.8320754716981
 30
0.0
 11
299.1286489076625
 21
464.8320754716981
 31
0.0
  0
ARC
  5
3A8
330
A
100
AcDbEntity
  8
03
100
AcDbCircle
 10
299.1286489076625
 20
465.8320754716981
 30
0.0
 40
1.0
100
AcDbArc
 50
269.99999969148
 51
359.9999995886399
  0
ARC
  5
3A9
330
A
100
AcDbEntity
  8
03
100
AcDbCircle
 10
265.1286489076625
 20
466.3320754716981
 30
0.0
 40
1.759999999999999
100
AcDbArc
 50
311.0666663112211
 51
228.9333330717388
  0
LINE
  5
3AA
330
A
100
AcDbEntity
  8
03
100
AcDbLine
 10
266.2886489076623
 20
465.0120754716981
 30
0.0
 11
266.2886489076623
 21
464.8320754716981
 31
0.0
  0
LINE
  5
3AB
330
A
100
AcDbEntity
  8
03
100
AcDbLine
 10
263.9886489076623
 20
465.0120754716981
 30
0.0
 11
263.9886489076623
 21
464.8320754716981
 31
0.0
  0
LINE
  5
3AC
330
A
100
AcDbEntity
  8
03
100
AcDbLine
 10
268.6286489076625
 20
469.8320754716981
 30
0.0
 11
265.4286489076623
 21
469.8320754716981
 31
0.0
  0
ARC
  5
3AD
330
A
100
AcDbEntity
  8
03
100
AcDbCircle
 10
268.6286489076625
 20
469.3320754716981
 30
0.0
 40
0.5
100
AcDbArc
 50
0.0
 51
89.99999989716
  0
LINE
  5
3AE
330
A
100
AcDbEntity
  8
03
100
AcDbLine
 10
264.8286489076625
 20
469.8320754716981
 30
0.0
 11
261.6286489076625
 21
469.8320754716981
 31
0.0
  0
ARC
  5
3AF
330
A
100
AcDbEntity
  8
03
100
AcDbCircle
 10
261.6286489076625
 20
469.3320754716981
 30
0.0
 40
0.5
100
AcDbArc
 50
89.99999989716
 51
179.9999997943199
  0
LINE
  5
3B0
330
A
100
AcDbEntity
  8
03
100
AcDbLine
 10
269.1286489076625
 20
469.3320754716981
 30
0.0
 11
269.1286489076625
 21
466.8320754716981
 31
0.0
  0
LINE
  5
3B1
330
A
100
AcDbEntity
  8
03
100
AcDbLine
 10
261.1286489076625
 20
469.3320754716981
 30
0.0
 11
261.1286489076625
 21
466.8320754716981
 31
0.0
  0
LINE
  5
3B2
330
A
100
AcDbEntity
  8
03
100
AcDbLine
 10
265.1286489076625
 20
469.5320754716981
 30
0.0
 11
264.8286489076625
 21
469.8320754716981
 31
0.0
  0
LINE
  5
3B3
330
A
100
AcDbEntity
  8
03
100
AcDbLine
 10
265.1286489076625
 20
469.5320754716981
 30
0.0
 11
265.4286489076623
 21
469.8320754716981
 31
0.0
  0
LINE
  5
3B4
330
A
100
AcDbEntity
  8
03
100
AcDbLine
 10
293.1286489076625
 20
487.8320754716981
 30
0.0
 11
293.1286489076625
 21
486.3320754716981
 31
0.0
  0
ARC
  5
3B5
330
A
100
AcDbEntity
  8
03
100
AcDbCircle
 10
293.6286489076625
 20
487.8320754716981
 30
0.0
 40
0.5
100
AcDbArc
 50
89.99999989716
 51
179.9999997943199
  0
LINE
  5
3B6
330
A
100
AcDbEntity
  8
03
100
AcDbLine
 10
293.1286489076625
 20
477.5320754716981
 30
0.0
 11
293.1286489076625
 21
477.1320754716981
 31
0.0
  0
ARC
  5
3B7
330
A
100
AcDbEntity
  8
03
100
AcDbCircle
 10
293.4286489076623
 20
477.1320754716981
 30
0.0
 40
0.3
100
AcDbArc
 50
179.9999997943199
 51
269.99999969148
  0
ARC
  5
3B8
330
A
100
AcDbEntity
  8
03
100
AcDbCircle
 10
293.4286489076623
 20
477.5320754716981
 30
0.0
 40
0.3
100
AcDbArc
 50
89.99999989716
 51
179.9999997943199
  0
LINE
  5
3B9
330
A
100
AcDbEntity
  8
03
100
AcDbLine
 10
296.1286489076625
 20
489.8320754716981
 30
0.0
 11
296.1286489076625
 21
488.3320754716981
 31
0.0
  0
LINE
  5
3BA
330
A
100
AcDbEntity
  8
03
100
AcDbLine
 10
296.1286489076625
 20
486.3320754716981
 30
0.0
 11
296.1286489076625
 21
477.8320754716981
 31
0.0
  0
LINE
  5
3BB
330
A
100
AcDbEntity
  8
03
100
AcDbLine
 10
296.1286489076625
 20
476.8320754716981
 30
0.0
 11
296.1286489076625
 21
471.8320754716981
 31
0.0
  0
ARC
  5
3BC
330
A
100
AcDbEntity
  8
03
100
AcDbCircle
 10
295.1286489076625
 20
471.8320754716981
 30
0.0
 40
1.0
100
AcDbArc
 50
269.99999969148
 51
359.9999995886399
  0
LINE
  5
3BD
330
A
100
AcDbEntity
  8
03
100
AcDbLine
 10
296.1286489076625
 20
488.3320754716981
 30
0.0
 11
293.6286489076625
 21
488.3320754716981
 31
0.0
  0
LINE
  5
3BE
330
A
100
AcDbEntity
  8
03
100
AcDbLine
 10
296.1286489076625
 20
486.3320754716981
 30
0.0
 11
293.1286489076625
 21
486.3320754716981
 31
0.0
  0
LINE
  5
3BF
330
A
100
AcDbEntity
  8
03
100
AcDbLine
 10
296.1286489076625
 20
477.8320754716981
 30
0.0
 11
293.4286489076623
 21
477.8320754716981
 31
0.0
  0
LINE
  5
3C0
330
A
100
AcDbEntity
  8
03
100
AcDbLine
 10
296.1286489076625
 20
476.8320754716981
 30
0.0
 11
293.4286489076623
 21
476.8320754716981
 31
0.0
  0
LINE
  5
3C1
330
A
100
AcDbEntity
  8
03
100
AcDbLine
 10
284.6286489076625
 20
468.8320754716981
 30
0.0
 11
284.6286489076625
 21
466.8320754716981
 31
0.0
  0
LINE
  5
3C2
330
A
100
AcDbEntity
  8
03
100
AcDbLine
 10
281.1286489076625
 20
472.8320754716981
 30
0.0
 11
281.1286489076625
 21
469.3320754716981
 31
0.0
  0
ARC
  5
3C3
330
A
100
AcDbEntity
  8
03
100
AcDbCircle
 10
281.6286489076625
 20
469.3320754716981
 30
0.0
 40
0.5
100
AcDbArc
 50
179.9999997943199
 51
269.99999969148
  0
LINE
  5
3C4
330
A
100
AcDbEntity
  8
03
100
AcDbLine
 10
286.6286489076625
 20
466.3320754716981
 30
0.0
 11
286.6286489076625
 21
468.8320754716981
 31
0.0
  0
LINE
  5
3C5
330
A
100
AcDbEntity
  8
03
100
AcDbLine
 10
289.6286489076625
 20
465.3320754716981
 30
0.0
 11
289.6286489076625
 21
466.3320754716981
 31
0.0
  0
LINE
  5
3C6
330
A
100
AcDbEntity
  8
03
100
AcDbLine
 10
295.6286489076625
 20
465.3320754716981
 30
0.0
 11
295.6286489076625
 21
466.3320754716981
 31
0.0
  0
LINE
  5
3C7
330
A
100
AcDbEntity
  8
03
100
AcDbLine
 10
298.6286489076625
 20
466.3320754716981
 30
0.0
 11
298.6286489076625
 21
468.8320754716981
 31
0.0
  0
LINE
  5
3C8
330
A
100
AcDbEntity
  8
03
100
AcDbLine
 10
298.6286489076625
 20
466.3320754716981
 30
0.0
 11
295.6286489076625
 21
466.3320754716981
 31
0.0
  0
LINE
  5
3C9
330
A
100
AcDbEntity
  8
03
100
AcDbLine
 10
289.6286489076625
 20
466.3320754716981
 30
0.0
 11
286.6286489076625
 21
466.3320754716981
 31
0.0
  0
LINE
  5
3CA
330
A
100
AcDbEntity
  8
03
100
AcDbLine
 10
300.1286489076625
 20
465.8320754716981
 30
0.0
 11
300.1286489076625
 21
469.8320754716981
 31
0.0
  0
ARC
  5
3CB
330
A
100
AcDbEntity
  8
03
100
AcDbCircle
 10
299.1286489076625
 20
469.8320754716981
 30
0.0
 40
1.0
100
AcDbArc
 50
0.0
 51
89.99999989716
  0
LINE
  5
3CC
330
A
100
AcDbEntity
  8
03
100
AcDbLine
 10
298.6286489076625
 20
468.8320754716981
 30
0.0
 11
286.6286489076625
 21
468.8320754716981
 31
0.0
  0
ARC
  5
3CD
330
A
100
AcDbEntity
  8
03
100
AcDbCircle
 10
299.0286489076625
 20
471.7320754716981
 30
0.0
 40
0.9
100
AcDbArc
 50
179.9999997943199
 51
269.99999969148
  0
LINE
  5
3CE
330
A
100
AcDbEntity
  8
03
100
AcDbLine
 10
298.1286489076625
 20
486.8320754716982
 30
0.0
 11
298.1286489076625
 21
471.7320754716981
 31
0.0
  0
ARC
  5
3CF
330
A
100
AcDbEntity
  8
03
100
AcDbCircle
 10
299.1286489076625
 20
486.8320754716982
 30
0.0
 40
1.0
100
AcDbArc
 50
89.99999989716
 51
179.9999997943199
  0
LINE
  5
3D0
330
A
100
AcDbEntity
  8
03
100
AcDbLine
 10
284.6286489076625
 20
468.8320754716981
 30
0.0
 11
281.6286489076625
 21
468.8320754716981
 31
0.0
  0
LINE
  5
3D1
330
A
100
AcDbEntity
  8
03
100
AcDbLine
 10
281.1286489076625
 20
472.8320754716981
 30
0.0
 11
283.1286489076625
 21
472.8320754716981
 31
0.0
  0
LINE
  5
3D2
330
A
100
AcDbEntity
  8
03
100
AcDbLine
 10
283.1286489076625
 20
472.8320754716981
 30
0.0
 11
283.1286489076625
 21
471.1320754716981
 31
0.0
  0
ARC
  5
3D3
330
A
100
AcDbEntity
  8
03
100
AcDbCircle
 10
283.4286489076623
 20
471.1320754716981
 30
0.0
 40
0.3
100
AcDbArc
 50
179.9999997943199
 51
269.99999969148
  0
LINE
  5
3D4
330
A
100
AcDbEntity
  8
03
100
AcDbLine
 10
283.4286489076623
 20
470.8320754716981
 30
0.0
 11
286.8286489076625
 21
470.8320754716981
 31
0.0
  0
ARC
  5
3D5
330
A
100
AcDbEntity
  8
03
100
AcDbCircle
 10
286.8286489076625
 20
471.1320754716981
 30
0.0
 40
0.3
100
AcDbArc
 50
269.99999969148
 51
359.9999995886399
  0
LINE
  5
3D6
330
A
100
AcDbEntity
  8
03
100
AcDbLine
 10
287.1286489076625
 20
471.1320754716981
 30
0.0
 11
287.1286489076625
 21
472.8320754716981
 31
0.0
  0
LINE
  5
3D7
330
A
100
AcDbEntity
  8
03
100
AcDbLine
 10
287.1286489076625
 20
472.8320754716981
 30
0.0
 11
289.1286489076625
 21
472.8320754716981
 31
0.0
  0
LINE
  5
3D8
330
A
100
AcDbEntity
  8
03
100
AcDbLine
 10
289.1286489076625
 20
472.8320754716981
 30
0.0
 11
289.1286489076625
 21
471.8320754716981
 31
0.0
  0
ARC
  5
3D9
330
A
100
AcDbEntity
  8
03
100
AcDbCircle
 10
290.1286489076625
 20
471.8320754716981
 30
0.0
 40
1.0
100
AcDbArc
 50
179.9999997943199
 51
269.99999969148
  0
LINE
  5
3DA
330
A
100
AcDbEntity
  8
03
100
AcDbLine
 10
290.1286489076625
 20
470.8320754716981
 30
0.0
 11
295.1286489076625
 21
470.8320754716981
 31
0.0
  0
LINE
  5
3DB
330
A
100
AcDbEntity
  8
03
100
AcDbLine
 10
299.1286489076625
 20
487.8320754716981
 30
0.0
 11
301.5286489076625
 21
487.8320754716981
 31
0.0
  0
LINE
  5
3DC
330
A
100
AcDbEntity
  8
03
100
AcDbLine
 10
308.7486489076625
 20
487.8320754716981
 30
0.0
 11
317.1286489076625
 21
487.8320754716981
 31
0.0
  0
ARC
  5
3DD
330
A
100
AcDbEntity
  8
03
100
AcDbCircle
 10
317.1286489076625
 20
486.8320754716982
 30
0.0
 40
1.0
100
AcDbArc
 50
0.0
 51
89.99999989716
  0
ARC
  5
3DE
330
A
100
AcDbEntity
  8
03
100
AcDbCircle
 10
305.1286489076625
 20
486.3320754716981
 30
0.0
 40
1.759999999999999
100
AcDbArc
 50
317.5444440815969
 51
222.4555553013629
  0
ARC
  5
3DF
330
A
100
AcDbEntity
  8
03
100
AcDbCircle
 10
305.1286489076625
 20
486.3320754716981
 30
0.0
 40
3.259999999999998
100
AcDbArc
 50
164.5222220342281
 51
220.9999997474705
  0
ARC
  5
3E0
330
A
100
AcDbEntity
  8
03
100
AcDbCircle
 10
301.5286489076625
 20
487.3320754716981
 30
0.0
 40
0.5
100
AcDbArc
 50
344.5222218285481
 51
89.99999989716
  0
ARC
  5
3E1
330
A
100
AcDbEntity
  8
03
100
AcDbCircle
 10
305.1286489076625
 20
486.3320754716981
 30
0.0
 40
3.259999999999998
100
AcDbArc
 50
319.7444440790831
 51
15.47777776009188
  0
ARC
  5
3E2
330
A
100
AcDbEntity
  8
03
100
AcDbCircle
 10
308.7486489076625
 20
487.3320754716981
 30
0.0
 40
0.5
100
AcDbArc
 50
89.99999989716
 51
195.4777775544118
  0
LINE
  5
3E3
330
A
100
AcDbEntity
  8
03
100
AcDbLine
 10
318.1286489076625
 20
486.8320754716982
 30
0.0
 11
318.1286489076625
 21
478.8320754716981
 31
0.0
  0
ARC
  5
3E4
330
A
100
AcDbEntity
  8
03
100
AcDbCircle
 10
317.1286489076625
 20
478.8320754716981
 30
0.0
 40
1.0
100
AcDbArc
 50
269.99999969148
 51
359.9999995886399
  0
LINE
  5
3E5
330
A
100
AcDbEntity
  8
03
100
AcDbLine
 10
317.4286489076623
 20
464.3320754716981
 30
0.0
 11
312.6286489076625
 21
464.3320754716981
 31
0.0
  0
ARC
  5
3E6
330
A
100
AcDbEntity
  8
03
100
AcDbCircle
 10
317.4286489076623
 20
464.8320754716981
 30
0.0
 40
0.5
100
AcDbArc
 50
269.99999969148
 51
359.9999995886399
  0
ARC
  5
3E7
330
A
100
AcDbEntity
  8
03
100
AcDbCircle
 10
312.6286489076625
 20
465.3320754716981
 30
0.0
 40
1.0
100
AcDbArc
 50
179.9999997943199
 51
269.99999969148
  0
LINE
  5
3E8
330
A
100
AcDbEntity
  8
03
100
AcDbLine
 10
316.9286489076625
 20
466.3320754716981
 30
0.0
 11
313.6286489076625
 21
466.3320754716981
 31
0.0
  0
LINE
  5
3E9
330
A
100
AcDbEntity
  8
03
100
AcDbLine
 10
320.1286489076625
 20
475.8320754716981
 30
0.0
 11
313.6286489076625
 21
475.8320754716981
 31
0.0
  0
LINE
  5
3EA
330
A
100
AcDbEntity
  8
03
100
AcDbLine
 10
317.1286489076625
 20
477.8320754716981
 30
0.0
 11
312.6286489076625
 21
477.8320754716981
 31
0.0
  0
ARC
  5
3EB
330
A
100
AcDbEntity
  8
03
100
AcDbCircle
 10
312.6286489076625
 20
476.8320754716981
 30
0.0
 40
1.0
100
AcDbArc
 50
89.99999989716
 51
179.9999997943199
  0
LINE
  5
3EC
330
A
100
AcDbEntity
  8
03
100
AcDbLine
 10
313.6286489076625
 20
475.8320754716981
 30
0.0
 11
313.6286489076625
 21
466.3320754716981
 31
0.0
  0
LINE
  5
3ED
330
A
100
AcDbEntity
  8
03
100
AcDbLine
 10
311.6286489076625
 20
476.8320754716981
 30
0.0
 11
311.6286489076625
 21
475.5320754716981
 31
0.0
  0
LINE
  5
3EE
330
A
100
AcDbEntity
  8
03
100
AcDbLine
 10
311.6286489076625
 20
467.5320754716981
 30
0.0
 11
311.6286489076625
 21
465.3320754716981
 31
0.0
  0
LINE
  5
3EF
330
A
100
AcDbEntity
  8
03
100
AcDbLine
 10
310.6286489076625
 20
474.5320754716981
 30
0.0
 11
310.6286489076625
 21
468.5320754716981
 31
0.0
  0
ARC
  5
3F0
330
A
100
AcDbEntity
  8
03
100
AcDbCircle
 10
307.0286489076625
 20
484.7120754716981
 30
0.0
 40
0.76
100
AcDbArc
 50
144.1999998352273
 51
320.3888885227911
  0
ARC
  5
3F1
330
A
100
AcDbEntity
  8
03
100
AcDbCircle
 10
303.2286489076625
 20
484.7120754716981
 30
0.0
 40
0.76
100
AcDbArc
 50
222.8444441898075
 51
35.79999995909256
  0
LINE
  5
3F2
330
A
100
AcDbEntity
  8
03
100
AcDbLine
 10
310.6286489076625
 20
474.5320754716981
 30
0.0
 11
311.6286489076625
 21
475.5320754716981
 31
0.0
  0
LINE
  5
3F3
330
A
100
AcDbEntity
  8
03
100
AcDbLine
 10
310.6286489076625
 20
468.5320754716981
 30
0.0
 11
311.6286489076625
 21
467.5320754716981
 31
0.0
  0
LINE
  5
3F4
330
A
100
AcDbEntity
  8
03
100
AcDbLine
 10
318.1286489076625
 20
473.8320754716981
 30
0.0
 11
314.6286489076625
 21
473.8320754716981
 31
0.0
  0
LINE
  5
3F5
330
A
100
AcDbEntity
  8
03
100
AcDbLine
 10
316.9286489076625
 20
466.8320754716981
 30
0.0
 11
314.6286489076625
 21
466.8320754716981
 31
0.0
  0
LINE
  5
3F6
330
A
100
AcDbEntity
  8
03
100
AcDbLine
 10
318.1286489076625
 20
468.8320754716981
 30
0.0
 11
314.6286489076625
 21
468.8320754716981
 31
0.0
  0
LINE
  5
3F7
330
A
100
AcDbEntity
  8
03
100
AcDbLine
 10
318.1286489076625
 20
473.8320754716981
 30
0.0
 11
318.1286489076625
 21
468.8320754716981
 31
0.0
  0
ARC
  5
3F8
330
A
100
AcDbEntity
  8
03
100
AcDbCircle
 10
314.6286489076625
 20
474.8320754716981
 30
0.0
 40
1.0
100
AcDbArc
 50
89.99999989716
 51
269.99999969148
  0
ARC
  5
3F9
330
A
100
AcDbEntity
  8
03
100
AcDbCircle
 10
314.6286489076625
 20
467.8320754716981
 30
0.0
 40
1.0
100
AcDbArc
 50
89.99999989716
 51
269.99999969148
  0
ARC
  5
3FA
330
A
100
AcDbEntity
  8
03
100
AcDbCircle
 10
317.4286489076623
 20
466.3320754716981
 30
0.0
 40
0.5
100
AcDbArc
 50
0.0
 51
179.9999997943199
  0
ARC
  5
3FB
330
A
100
AcDbEntity
  8
03
100
AcDbCircle
 10
317.4286489076623
 20
466.8320754716981
 30
0.0
 40
0.5
100
AcDbArc
 50
0.0
 51
179.9999997943199
  0
LINE
  5
3FC
330
A
100
AcDbEntity
  8
03
100
AcDbLine
 10
317.9286489076623
 20
466.3320754716981
 30
0.0
 11
317.9286489076623
 21
464.8320754716981
 31
0.0
  0
ARC
  5
3FD
330
A
100
AcDbEntity
  8
03
100
AcDbCircle
 10
320.4286489076623
 20
465.3320754716981
 30
0.0
 40
2.5
100
AcDbArc
 50
156.4222220434836
 51
203.5777775451562
  0
LINE
  5
3FE
330
A
100
AcDbEntity
  8
SAISEN
100
AcDbLine
 10
37.17299860214986
 20
169.8320754716981
 30
0.0
 11
115.1729986021496
 21
169.8320754716981
 31
0.0
  0
LINE
  5
3FF
330
A
100
AcDbEntity
  8
SAISEN
100
AcDbLine
 10
153.1729986021499
 20
169.8320754716981
 30
0.0
 11
211.2049200966896
 21
169.8320754716981
 31
0.0
  0
LINE
  5
400
330
A
100
AcDbEntity
  8
03
100
AcDbLine
 10
115.1729986021498
 20
339.8320754716982
 30
0.0
 11
115.1729986021498
 21
259.7171444022936
 31
0.0
  0
LINE
  5
401
330
A
100
AcDbEntity
  8
03
100
AcDbLine
 10
83.17299860214959
 20
474.8320754716981
 30
0.0
 11
83.17299860214985
 21
469.8320754716981
 31
0.0
  0
LINE
  5
402
330
A
100
AcDbEntity
  8
03
100
AcDbLine
 10
83.17299860214985
 20
469.8320754716981
 30
0.0
 11
86.17299860214982
 21
469.8320754716981
 31
0.0
  0
LINE
  5
403
330
A
100
AcDbEntity
  8
03
100
AcDbLine
 10
86.17299860214982
 20
469.8320754716981
 30
0.0
 11
84.72299860214983
 21
467.3320754716981
 31
0.0
  0
LINE
  5
404
330
A
100
AcDbEntity
  8
03
100
AcDbLine
 10
112.6729985994574
 20
339.8320754716982
 30
0.0
 11
115.1729986021498
 21
339.8320754716982
 31
0.0
  0
LINE
  5
412
330
A
100
AcDbEntity
  8
KAKURE
100
AcDbLine
 10
83.17299860214987
 20
139.8320754716982
 30
0.0
 11
153.1729986021498
 21
139.8320754716982
 31
0.0
  0
LINE
  5
413
330
A
100
AcDbEntity
  8
KAKURE
100
AcDbLine
 10
83.17299860214987
 20
169.8320754716981
 30
0.0
 11
83.17299860214987
 21
139.8320754716982
 31
0.0
  0
LINE
  5
414
330
A
100
AcDbEntity
  8
KAKURE
100
AcDbLine
 10
153.1729986021498
 20
162.832075471698
 30
0.0
 11
153.1729986021498
 21
139.8320754716982
 31
0.0
  0
LINE
  5
415
330
A
100
AcDbEntity
  8
KAKURE
100
AcDbLine
 10
83.17299860214992
 20
149.8320754716981
 30
0.0
 11
115.1729986021498
 21
149.8320754716981
 31
0.0
  0
LINE
  5
416
330
A
100
AcDbEntity
  8
KAKURE
100
AcDbLine
 10
115.1729986021498
 20
162.832075471698
 30
0.0
 11
115.1729986021498
 21
149.8320754716981
 31
0.0
  0
LINE
  5
417
330
A
100
AcDbEntity
  8
03
100
AcDbLine
 10
145.6729986021498
 20
259.7171444022936
 30
0.0
 11
145.6729986021498
 21
349.8320754716981
 31
0.0
  0
LINE
  5
418
330
A
100
AcDbEntity
  8
03
100
AcDbLine
 10
144.1729986021499
 20
259.7171444022936
 30
0.0
 11
144.1729986021498
 21
332.8320754716981
 31
0.0
  0
ARC
  5
419
330
A
100
AcDbEntity
  8
03
100
AcDbCircle
 10
143.6729986021498
 20
332.8320754716981
 30
0.0
 40
0.5
100
AcDbArc
 50
0.0
 51
89.99999989716
  0
LINE
  5
41A
330
A
100
AcDbEntity
  8
03
100
AcDbLine
 10
121.1729986021497
 20
259.7171444022937
 30
0.0
 11
121.1729986021497
 21
332.8320754716981
 31
0.0
  0
ARC
  5
41B
330
A
100
AcDbEntity
  8
03
100
AcDbCircle
 10
121.6729986021497
 20
332.8320754716981
 30
0.0
 40
0.5
100
AcDbArc
 50
89.99999989716
 51
179.9999997943199
  0
LINE
  5
41C
330
A
100
AcDbEntity
  8
03
100
AcDbLine
 10
121.1729986021497
 20
334.8320754716981
 30
0.0
 11
144.1729986021498
 21
334.8320754716981
 31
0.0
  0
LINE
  5
41D
330
A
100
AcDbEntity
  8
03
100
AcDbLine
 10
121.6729986021497
 20
333.3320754716982
 30
0.0
 11
128.5529986021497
 21
333.3320754716982
 31
0.0
  0
LINE
  5
41E
330
A
100
AcDbEntity
  8
03
100
AcDbLine
 10
136.8129986021498
 20
333.3320754716982
 30
0.0
 11
143.6729986021498
 21
333.3320754716982
 31
0.0
  0
ARC
  5
41F
330
A
100
AcDbEntity
  8
03
100
AcDbCircle
 10
132.6729986021497
 20
331.3320754716982
 30
0.0
 40
1.759999999999999
100
AcDbArc
 50
316.3888885273618
 51
222.911110856398
  0
ARC
  5
420
330
A
100
AcDbEntity
  8
03
100
AcDbCircle
 10
132.6729986021497
 20
331.3320754716982
 30
0.0
 40
3.259999999999998
100
AcDbArc
 50
315.7444440836538
 51
13.61111109555815
  0
ARC
  5
421
330
A
100
AcDbEntity
  8
03
100
AcDbCircle
 10
136.8129986021498
 20
332.3320754716982
 30
0.0
 40
1.0
100
AcDbArc
 50
89.99999989716
 51
193.6111108898781
  0
ARC
  5
422
330
A
100
AcDbEntity
  8
03
100
AcDbCircle
 10
132.6729986021497
 20
331.3320754716982
 30
0.0
 40
3.259999999999998
100
AcDbArc
 50
166.3888886987618
 51
223.6222219666965
  0
ARC
  5
423
330
A
100
AcDbEntity
  8
03
100
AcDbCircle
 10
128.5529986021497
 20
332.3320754716982
 30
0.0
 40
1.0
100
AcDbArc
 50
346.3888884930818
 51
89.99999989716
  0
ARC
  5
424
330
A
100
AcDbEntity
  8
03
100
AcDbCircle
 10
130.8329986021497
 20
329.5720754716982
 30
0.0
 40
0.7
100
AcDbArc
 50
223.7222219665823
 51
329.9888885118216
  0
ARC
  5
425
330
A
100
AcDbEntity
  8
03
100
AcDbCircle
 10
134.5129986021498
 20
329.5520754716982
 30
0.0
 40
0.7
100
AcDbArc
 50
210.0333330933351
 51
315.7888885280474
  0
LINE
  5
426
330
A
100
AcDbEntity
  8
03
100
AcDbLine
 10
119.6729986021497
 20
349.8320754716981
 30
0.0
 11
119.6729986021497
 21
259.7171444022936
 31
0.0
  0
ARC
  5
427
330
A
100
AcDbEntity
  8
03
100
AcDbCircle
 10
130.8929986021498
 20
329.6720754716981
 30
0.0
 40
0.7
100
AcDbArc
 50
329.9888885118216
 51
43.01111106196377
  0
ARC
  5
428
330
A
100
AcDbEntity
  8
03
100
AcDbCircle
 10
134.4529986021497
 20
329.6520754716981
 30
0.0
 40
0.7
100
AcDbArc
 50
136.4888887329275
 51
210.0333330933351
  0
LINE
  5
429
330
A
100
AcDbEntity
  8
03
100
AcDbLine
 10
120.6729986021497
 20
245.7737481758786
 30
0.0
 11
127.6729986021498
 21
245.7737481758786
 31
0.0
  0
ARC
  5
42A
330
A
100
AcDbEntity
  8
03
100
AcDbCircle
 10
120.6729986021497
 20
244.7737481758786
 30
0.0
 40
1.0
100
AcDbArc
 50
89.99999989716
 51
179.9999997943199
  0
LINE
  5
42B
330
A
100
AcDbEntity
  8
03
100
AcDbLine
 10
137.6729986021497
 20
245.7737481758786
 30
0.0
 11
144.6729986021498
 21
245.7737481758786
 31
0.0
  0
ARC
  5
42C
330
A
100
AcDbEntity
  8
03
100
AcDbCircle
 10
144.6729986021498
 20
244.7737481758786
 30
0.0
 40
1.0
100
AcDbArc
 50
0.0
 51
89.99999989716
  0
LINE
  5
42D
330
A
100
AcDbEntity
  8
03
100
AcDbLine
 10
145.6729986021498
 20
256.7171444022936
 30
0.0
 11
145.6729986021498
 21
225.6953225678075
 31
0.0
  0
LINE
  5
42E
330
A
100
AcDbEntity
  8
03
100
AcDbLine
 10
127.6729986021498
 20
245.7737481758786
 30
0.0
 11
127.6729986021498
 21
244.2737481758786
 31
0.0
  0
LINE
  5
42F
330
A
100
AcDbEntity
  8
03
100
AcDbLine
 10
127.6729986021498
 20
244.2737481758786
 30
0.0
 11
121.1729986021497
 21
244.2737481758786
 31
0.0
  0
LINE
  5
430
330
A
100
AcDbEntity
  8
03
100
AcDbLine
 10
121.1729986021497
 20
244.2737481758786
 30
0.0
 11
121.1729986021497
 21
235.2737481758786
 31
0.0
  0
LINE
  5
431
330
A
100
AcDbEntity
  8
03
100
AcDbLine
 10
121.1729986021497
 20
235.2737481758786
 30
0.0
 11
144.1729986021498
 21
235.2737481758786
 31
0.0
  0
LINE
  5
432
330
A
100
AcDbEntity
  8
03
100
AcDbLine
 10
137.6729986021497
 20
245.7737481758786
 30
0.0
 11
137.6729986021497
 21
244.2737481758786
 31
0.0
  0
LINE
  5
433
330
A
100
AcDbEntity
  8
03
100
AcDbLine
 10
137.6729986021497
 20
244.2737481758786
 30
0.0
 11
144.1729986021498
 21
244.2737481758786
 31
0.0
  0
LINE
  5
434
330
A
100
AcDbEntity
  8
03
100
AcDbLine
 10
144.1729986021498
 20
244.2737481758786
 30
0.0
 11
144.1729986021498
 21
235.2737481758786
 31
0.0
  0
ARC
  5
436
330
A
100
AcDbEntity
  8
03
100
AcDbCircle
 10
143.6729986021498
 20
196.8320754716981
 30
0.0
 40
0.5
100
AcDbArc
 50
269.99999969148
 51
359.9999995886399
  0
ARC
  5
438
330
A
100
AcDbEntity
  8
03
100
AcDbCircle
 10
121.6729986021497
 20
196.8320754716981
 30
0.0
 40
0.5
100
AcDbArc
 50
179.9999997943199
 51
269.99999969148
  0
LINE
  5
439
330
A
100
AcDbEntity
  8
03
100
AcDbLine
 10
121.6729986021497
 20
233.7737481758786
 30
0.0
 11
128.5329986021497
 21
233.7737481758786
 31
0.0
  0
ARC
  5
43A
330
A
100
AcDbEntity
  8
03
100
AcDbCircle
 10
121.6729986021497
 20
233.2737481758786
 30
0.0
 40
0.5
100
AcDbArc
 50
89.99999989716
 51
179.9999997943199
  0
ARC
  5
43B
330
A
100
AcDbEntity
  8
03
100
AcDbCircle
 10
128.5329986021497
 20
232.7737481758786
 30
0.0
 40
1.0
100
AcDbArc
 50
346.3888884930818
 51
89.99999989716
  0
LINE
  5
43C
330
A
100
AcDbEntity
  8
03
100
AcDbLine
 10
136.7929986021497
 20
233.7737481758786
 30
0.0
 11
143.6729986021498
 21
233.7737481758786
 31
0.0
  0
ARC
  5
43D
330
A
100
AcDbEntity
  8
03
100
AcDbCircle
 10
143.6729986021498
 20
233.2737481758786
 30
0.0
 40
0.5
100
AcDbArc
 50
0.0
 51
89.99999989716
  0
ARC
  5
43E
330
A
100
AcDbEntity
  8
03
100
AcDbCircle
 10
136.7929986021497
 20
232.7737481758786
 30
0.0
 40
1.0
100
AcDbArc
 50
89.99999989716
 51
193.6111108898781
  0
LINE
  5
43F
330
A
100
AcDbEntity
  8
03
100
AcDbLine
 10
122.1729986021497
 20
194.8320754716981
 30
0.0
 11
143.1729986021498
 21
194.8320754716981
 31
0.0
  0
LINE
  5
440
330
A
100
AcDbEntity
  8
03
100
AcDbLine
 10
121.6729986021497
 20
196.3320754716981
 30
0.0
 11
128.5329986021497
 21
196.3320754716981
 31
0.0
  0
LINE
  5
441
330
A
100
AcDbEntity
  8
03
100
AcDbLine
 10
136.7929986021497
 20
196.3320754716981
 30
0.0
 11
143.6729986021498
 21
196.3320754716981
 31
0.0
  0
ARC
  5
442
330
A
100
AcDbEntity
  8
03
100
AcDbCircle
 10
132.6729986021497
 20
231.7737481758786
 30
0.0
 40
1.759999999999999
100
AcDbArc
 50
316.6222218604285
 51
223.3777775225314
  0
ARC
  5
443
330
A
100
AcDbEntity
  8
03
100
AcDbCircle
 10
130.8929986021498
 20
230.0937481758786
 30
0.0
 40
0.7
100
AcDbArc
 50
329.99999962292
 51
43.34444439491623
  0
ARC
  5
444
330
A
100
AcDbEntity
  8
03
100
AcDbCircle
 10
134.4529986021497
 20
230.0937481758786
 30
0.0
 40
0.7
100
AcDbArc
 50
136.6555553994037
 51
209.9888886489416
  0
ARC
  5
445
330
A
100
AcDbEntity
  8
03
100
AcDbCircle
 10
132.6729986021497
 20
231.7737481758786
 30
0.0
 40
3.259999999999998
100
AcDbArc
 50
166.3888886987618
 51
224.1222219661251
  0
ARC
  5
446
330
A
100
AcDbEntity
  8
03
100
AcDbCircle
 10
132.6729986021497
 20
231.7737481758786
 30
0.0
 40
3.259999999999998
100
AcDbArc
 50
315.8777774168348
 51
13.61111109555815
  0
ARC
  5
447
330
A
100
AcDbEntity
  8
03
100
AcDbCircle
 10
134.4929986021497
 20
230.0137481758786
 30
0.0
 40
0.7
100
AcDbArc
 50
209.9888886489416
 51
315.9555551945237
  0
ARC
  5
448
330
A
100
AcDbEntity
  8
03
100
AcDbCircle
 10
132.6729986021497
 20
198.3320754716981
 30
0.0
 40
1.759999999999999
100
AcDbArc
 50
137.088888732242
 51
43.61111106127817
  0
ARC
  5
449
330
A
100
AcDbEntity
  8
03
100
AcDbCircle
 10
132.6729986021497
 20
198.3320754716981
 30
0.0
 40
3.259999999999998
100
AcDbArc
 50
346.3888884930818
 51
44.25555550498624
  0
ARC
  5
44A
330
A
100
AcDbEntity
  8
03
100
AcDbCircle
 10
136.7929986021497
 20
197.3320754716981
 30
0.0
 40
1.0
100
AcDbArc
 50
166.3888886987618
 51
269.99999969148
  0
ARC
  5
44B
330
A
100
AcDbEntity
  8
03
100
AcDbCircle
 10
132.6729986021497
 20
198.3320754716981
 30
0.0
 40
3.259999999999998
100
AcDbArc
 50
136.3777776219434
 51
193.6111108898781
  0
ARC
  5
44C
330
A
100
AcDbEntity
  8
03
100
AcDbCircle
 10
128.5329986021497
 20
197.3320754716981
 30
0.0
 40
1.0
100
AcDbArc
 50
269.99999969148
 51
13.61111109555815
  0
ARC
  5
44D
330
A
100
AcDbEntity
  8
03
100
AcDbCircle
 10
130.8329986021497
 20
200.0920754716982
 30
0.0
 40
0.7
100
AcDbArc
 50
30.01111107681841
 51
136.2777776220577
  0
ARC
  5
44E
330
A
100
AcDbEntity
  8
03
100
AcDbCircle
 10
134.4929986021497
 20
200.1120754716981
 30
0.0
 40
0.7
100
AcDbArc
 50
44.21111106059254
 51
149.9666664953046
  0
LINE
  5
44F
330
A
100
AcDbEntity
  8
03
100
AcDbLine
 10
119.6729986021497
 20
179.8320754716981
 30
0.0
 11
119.6729986021497
 21
222.6953225678074
 31
0.0
  0
ARC
  5
450
330
A
100
AcDbEntity
  8
03
100
AcDbCircle
 10
130.8729986021497
 20
200.0120754716981
 30
0.0
 40
0.7
100
AcDbArc
 50
316.9888885266763
 51
30.01111107681843
  0
ARC
  5
451
330
A
100
AcDbEntity
  8
03
100
AcDbCircle
 10
134.4529986021497
 20
200.0320754716982
 30
0.0
 40
0.7
100
AcDbArc
 50
149.9666664953046
 51
223.5111108557124
  0
ARC
  5
452
330
A
100
AcDbEntity
  8
03
100
AcDbCircle
 10
130.8329986021497
 20
230.0137481758786
 30
0.0
 40
0.7
100
AcDbArc
 50
224.0444441884363
 51
329.99999962292
  0
LINE
  5
453
330
A
100
AcDbEntity
  8
03
100
AcDbLine
 10
121.1729986021497
 20
190.3320754716981
 30
0.0
 11
121.1729986021497
 21
193.8320754716981
 31
0.0
  0
ARC
  5
454
330
A
100
AcDbEntity
  8
03
100
AcDbCircle
 10
122.1729986021497
 20
193.8320754716981
 30
0.0
 40
1.0
100
AcDbArc
 50
89.99999989716
 51
179.9999997943199
  0
LINE
  5
455
330
A
100
AcDbEntity
  8
03
100
AcDbLine
 10
144.1729986021498
 20
190.3320754716981
 30
0.0
 11
144.1729986021498
 21
193.8320754716981
 31
0.0
  0
ARC
  5
456
330
A
100
AcDbEntity
  8
03
100
AcDbCircle
 10
143.1729986021498
 20
193.8320754716981
 30
0.0
 40
1.0
100
AcDbArc
 50
0.0
 51
89.99999989716
  0
LINE
  5
457
330
A
100
AcDbEntity
  8
03
100
AcDbLine
 10
137.6729986021497
 20
349.8320754716981
 30
0.0
 11
137.6729986021497
 21
348.3320754716981
 31
0.0
  0
LINE
  5
458
330
A
100
AcDbEntity
  8
03
100
AcDbLine
 10
127.6729986021498
 20
349.8320754716981
 30
0.0
 11
127.6729986021498
 21
348.3320754716981
 31
0.0
  0
LINE
  5
459
330
A
100
AcDbEntity
  8
03
100
AcDbLine
 10
140.1729986021497
 20
348.3320754716981
 30
0.0
 11
140.1729986021497
 21
346.8320754716981
 31
0.0
  0
LINE
  5
45A
330
A
100
AcDbEntity
  8
03
100
AcDbLine
 10
125.1729986021497
 20
348.3320754716981
 30
0.0
 11
125.1729986021497
 21
346.8320754716981
 31
0.0
  0
LINE
  5
45B
330
A
100
AcDbEntity
  8
03
100
AcDbLine
 10
127.6729986021498
 20
348.3320754716981
 30
0.0
 11
125.1729986021497
 21
348.3320754716981
 31
0.0
  0
LINE
  5
45C
330
A
100
AcDbEntity
  8
03
100
AcDbLine
 10
137.6729986021497
 20
348.3320754716981
 30
0.0
 11
140.1729986021497
 21
348.3320754716981
 31
0.0
  0
LINE
  5
45D
330
A
100
AcDbEntity
  8
03
100
AcDbLine
 10
140.1729986021497
 20
346.8320754716981
 30
0.0
 11
143.1729986021498
 21
346.8320754716981
 31
0.0
  0
LINE
  5
45E
330
A
100
AcDbEntity
  8
03
100
AcDbLine
 10
125.1729986021497
 20
346.8320754716981
 30
0.0
 11
122.1729986021497
 21
346.8320754716981
 31
0.0
  0
LINE
  5
45F
330
A
100
AcDbEntity
  8
03
100
AcDbLine
 10
144.1729986021498
 20
339.3320754716981
 30
0.0
 11
144.1729986021498
 21
334.8320754716981
 31
0.0
  0
LINE
  5
460
330
A
100
AcDbEntity
  8
03
100
AcDbLine
 10
121.1729986021497
 20
339.3320754716981
 30
0.0
 11
121.1729986021497
 21
334.8320754716981
 31
0.0
  0
LINE
  5
461
330
A
100
AcDbEntity
  8
03
100
AcDbLine
 10
143.1729986021498
 20
346.8320754716981
 30
0.0
 11
143.1729986021498
 21
340.3320754716982
 31
0.0
  0
LINE
  5
462
330
A
100
AcDbEntity
  8
03
100
AcDbLine
 10
122.1729986021497
 20
346.8320754716981
 30
0.0
 11
122.1729986021497
 21
340.3320754716982
 31
0.0
  0
LINE
  5
463
330
A
100
AcDbEntity
  8
03
100
AcDbLine
 10
141.6729986021498
 20
340.3320754716982
 30
0.0
 11
143.1729986021498
 21
340.3320754716982
 31
0.0
  0
LINE
  5
464
330
A
100
AcDbEntity
  8
03
100
AcDbLine
 10
122.1729986021497
 20
340.3320754716982
 30
0.0
 11
123.6729986021497
 21
340.3320754716982
 31
0.0
  0
LINE
  5
465
330
A
100
AcDbEntity
  8
03
100
AcDbLine
 10
121.1729986021497
 20
339.3320754716981
 30
0.0
 11
123.6729986021497
 21
339.3320754716981
 31
0.0
  0
LINE
  5
466
330
A
100
AcDbEntity
  8
03
100
AcDbLine
 10
141.6729986021498
 20
339.3320754716981
 30
0.0
 11
144.1729986021498
 21
339.3320754716981
 31
0.0
  0
ARC
  5
467
330
A
100
AcDbEntity
  8
03
100
AcDbCircle
 10
123.6729986021497
 20
339.8320754716982
 30
0.0
 40
0.5
100
AcDbArc
 50
269.99999969148
 51
89.99999989716
  0
ARC
  5
468
330
A
100
AcDbEntity
  8
03
100
AcDbCircle
 10
141.6729986021498
 20
339.8320754716982
 30
0.0
 40
0.5
100
AcDbArc
 50
89.99999989716
 51
269.99999969148
  0
LINE
  5
469
330
A
100
AcDbEntity
  8
03
100
AcDbLine
 10
127.6729986021498
 20
179.8320754716981
 30
0.0
 11
127.6729986021498
 21
181.3320754716981
 31
0.0
  0
LINE
  5
46A
330
A
100
AcDbEntity
  8
03
100
AcDbLine
 10
137.6729986021497
 20
179.8320754716981
 30
0.0
 11
137.6729986021497
 21
181.3320754716981
 31
0.0
  0
LINE
  5
46B
330
A
100
AcDbEntity
  8
03
100
AcDbLine
 10
140.1729986021497
 20
181.3320754716981
 30
0.0
 11
140.1729986021497
 21
182.8320754716981
 31
0.0
  0
LINE
  5
46C
330
A
100
AcDbEntity
  8
03
100
AcDbLine
 10
125.1729986021497
 20
181.3320754716981
 30
0.0
 11
125.1729986021497
 21
182.8320754716981
 31
0.0
  0
LINE
  5
46D
330
A
100
AcDbEntity
  8
03
100
AcDbLine
 10
125.1729986021497
 20
181.3320754716981
 30
0.0
 11
127.6729986021498
 21
181.3320754716981
 31
0.0
  0
LINE
  5
46E
330
A
100
AcDbEntity
  8
03
100
AcDbLine
 10
137.6729986021497
 20
181.3320754716981
 30
0.0
 11
140.1729986021497
 21
181.3320754716981
 31
0.0
  0
LINE
  5
46F
330
A
100
AcDbEntity
  8
03
100
AcDbLine
 10
122.1729986021497
 20
182.8320754716981
 30
0.0
 11
125.1729986021497
 21
182.8320754716981
 31
0.0
  0
LINE
  5
470
330
A
100
AcDbEntity
  8
03
100
AcDbLine
 10
122.1729986021497
 20
189.3320754716981
 30
0.0
 11
124.1729986021497
 21
189.3320754716981
 31
0.0
  0
LINE
  5
471
330
A
100
AcDbEntity
  8
03
100
AcDbLine
 10
141.1729986021498
 20
189.3320754716981
 30
0.0
 11
143.1729986021498
 21
189.3320754716981
 31
0.0
  0
LINE
  5
472
330
A
100
AcDbEntity
  8
03
100
AcDbLine
 10
121.1729986021497
 20
190.3320754716981
 30
0.0
 11
124.1729986021497
 21
190.3320754716981
 31
0.0
  0
LINE
  5
473
330
A
100
AcDbEntity
  8
03
100
AcDbLine
 10
141.1729986021498
 20
190.3320754716981
 30
0.0
 11
144.1729986021498
 21
190.3320754716981
 31
0.0
  0
LINE
  5
474
330
A
100
AcDbEntity
  8
03
100
AcDbLine
 10
141.1729986021498
 20
190.3320754716981
 30
0.0
 11
141.1729986021498
 21
189.3320754716981
 31
0.0
  0
LINE
  5
475
330
A
100
AcDbEntity
  8
03
100
AcDbLine
 10
124.1729986021497
 20
190.3320754716981
 30
0.0
 11
124.1729986021497
 21
189.3320754716981
 31
0.0
  0
LINE
  5
476
330
A
100
AcDbEntity
  8
03
100
AcDbLine
 10
122.1729986021497
 20
182.8320754716981
 30
0.0
 11
122.1729986021497
 21
189.3320754716981
 31
0.0
  0
LINE
  5
477
330
A
100
AcDbEntity
  8
03
100
AcDbLine
 10
143.1729986021498
 20
182.8320754716981
 30
0.0
 11
143.1729986021498
 21
189.3320754716981
 31
0.0
  0
LINE
  5
478
330
A
100
AcDbEntity
  8
03
100
AcDbLine
 10
140.1729986021497
 20
182.8320754716981
 30
0.0
 11
143.1729986021498
 21
182.8320754716981
 31
0.0
  0
LINE
  5
479
330
A
100
AcDbEntity
  8
06
100
AcDbLine
 10
252.1286489076624
 20
460.8320754716981
 30
0.0
 11
252.1286489076624
 21
363.8320754716981
 31
0.0
  0
ARC
  5
47A
330
A
100
AcDbEntity
  8
06
100
AcDbCircle
 10
256.1286489076625
 20
460.8320754716981
 30
0.0
 40
4.0
100
AcDbArc
 50
89.99999989716
 51
179.9999997943199
  0
LINE
  5
47B
330
A
100
AcDbEntity
  8
06
100
AcDbLine
 10
256.1286488861237
 20
359.8320754716981
 30
0.0
 11
307.1286489076625
 21
359.8320754716981
 31
0.0
  0
ARC
  5
47C
330
A
100
AcDbEntity
  8
06
100
AcDbCircle
 10
256.1286489076625
 20
363.8320754716981
 30
0.0
 40
4.0
100
AcDbArc
 50
179.9999997943199
 51
269.99999969148
  0
LINE
  5
47D
330
A
100
AcDbEntity
  8
06
100
AcDbLine
 10
307.1286489076625
 20
359.8320754716981
 30
0.0
 11
315.1286489076625
 21
367.8320754716981
 31
0.0
  0
LINE
  5
47E
330
A
100
AcDbEntity
  8
06
100
AcDbLine
 10
315.1286489076625
 20
456.8320754716981
 30
0.0
 11
315.1286489076625
 21
418.3320754716981
 31
0.0
  0
LINE
  5
47F
330
A
100
AcDbEntity
  8
06
100
AcDbLine
 10
315.1286489076625
 20
406.3320754716981
 30
0.0
 11
315.1286489076625
 21
367.8320754716981
 31
0.0
  0
LINE
  5
480
330
A
100
AcDbEntity
  8
06
100
AcDbLine
 10
315.1286489076625
 20
456.8320754716981
 30
0.0
 11
307.1286489076625
 21
464.8320754716981
 31
0.0
  0
LINE
  5
481
330
A
100
AcDbEntity
  8
06
100
AcDbLine
 10
256.1286489076625
 20
464.8320754716981
 30
0.0
 11
307.1286489076625
 21
464.8320754716981
 31
0.0
  0
LINE
  5
482
330
A
100
AcDbEntity
  8
06
100
AcDbLine
 10
264.6286489076625
 20
422.3320754716981
 30
0.0
 11
264.6286489076625
 21
402.3320754716981
 31
0.0
  0
ARC
  5
483
330
A
100
AcDbEntity
  8
06
100
AcDbCircle
 10
269.6286489076625
 20
402.3320754716981
 30
0.0
 40
5.0
100
AcDbArc
 50
179.9999997943199
 51
269.99999969148
  0
LINE
  5
484
330
A
100
AcDbEntity
  8
06
100
AcDbLine
 10
269.6286489076625
 20
397.3320754716981
 30
0.0
 11
289.6286489076625
 21
397.3320754716981
 31
0.0
  0
ARC
  5
485
330
A
100
AcDbEntity
  8
06
100
AcDbCircle
 10
289.6286489076625
 20
402.3320754716981
 30
0.0
 40
5.0
100
AcDbArc
 50
269.99999969148
 51
359.9999995886399
  0
LINE
  5
486
330
A
100
AcDbEntity
  8
06
100
AcDbLine
 10
294.6286489076625
 20
402.3320754716981
 30
0.0
 11
294.6286489076625
 21
422.3320754716981
 31
0.0
  0
ARC
  5
487
330
A
100
AcDbEntity
  8
06
100
AcDbCircle
 10
289.6286489076625
 20
422.3320754716981
 30
0.0
 40
5.0
100
AcDbArc
 50
0.0
 51
89.99999989716
  0
LINE
  5
488
330
A
100
AcDbEntity
  8
06
100
AcDbLine
 10
289.6286489076625
 20
427.3320754716981
 30
0.0
 11
269.6286489076625
 21
427.3320754716981
 31
0.0
  0
ARC
  5
489
330
A
100
AcDbEntity
  8
06
100
AcDbCircle
 10
269.6286489076625
 20
422.3320754716981
 30
0.0
 40
5.0
100
AcDbArc
 50
89.99999989716
 51
179.9999997943199
  0
LINE
  5
48A
330
A
100
AcDbEntity
  8
06
100
AcDbLine
 10
272.1286489076625
 20
464.8320754716981
 30
0.0
 11
272.1286489076625
 21
460.8320754716981
 31
0.0
  0
LINE
  5
48B
330
A
100
AcDbEntity
  8
06
100
AcDbLine
 10
272.1286489076625
 20
460.8320754716981
 30
0.0
 11
256.1286489076625
 21
460.8320754716981
 31
0.0
  0
LINE
  5
48C
330
A
100
AcDbEntity
  8
06
100
AcDbLine
 10
256.1286489076625
 20
460.8320754716981
 30
0.0
 11
256.1286489076625
 21
363.8320754716981
 31
0.0
  0
LINE
  5
48D
330
A
100
AcDbEntity
  8
06
100
AcDbLine
 10
256.1286489076625
 20
363.8320754716981
 30
0.0
 11
272.1286489076625
 21
363.8320754716981
 31
0.0
  0
LINE
  5
48E
330
A
100
AcDbEntity
  8
06
100
AcDbLine
 10
272.1286489076625
 20
363.8320754716981
 30
0.0
 11
272.1286489076625
 21
359.8320754716981
 31
0.0
  0
LINE
  5
48F
330
A
100
AcDbEntity
  8
03
100
AcDbLine
 10
124.1729986021497
 20
172.0820754716981
 30
0.0
 11
124.1729986021497
 21
147.832075471698
 31
0.0
  0
LINE
  5
490
330
A
100
AcDbEntity
  8
03
100
AcDbLine
 10
115.1729986021498
 20
172.0820754716979
 30
0.0
 11
115.1729986021498
 21
162.832075471698
 31
0.0
  0
LINE
  5
491
330
A
100
AcDbEntity
  8
03
100
AcDbLine
 10
141.1729986021498
 20
172.082075471698
 30
0.0
 11
141.1729986021498
 21
147.832075471698
 31
0.0
  0
LINE
  5
492
330
A
100
AcDbEntity
  8
03
100
AcDbLine
 10
153.1729986021498
 20
172.082075471698
 30
0.0
 11
153.1729986021498
 21
162.832075471698
 31
0.0
  0
LINE
  5
493
330
A
100
AcDbEntity
  8
03
100
AcDbLine
 10
115.9229986021497
 20
172.8320754716979
 30
0.0
 11
123.4229986021498
 21
172.8320754716981
 31
0.0
  0
ARC
  5
494
330
A
100
AcDbEntity
  8
03
100
AcDbCircle
 10
123.4229986021498
 20
172.0820754716981
 30
0.0
 40
0.75
100
AcDbArc
 50
0.0
 51
90.00000000000117
  0
ARC
  5
495
330
A
100
AcDbEntity
  8
03
100
AcDbCircle
 10
115.9229986021497
 20
172.0820754716979
 30
0.0
 40
0.75
100
AcDbArc
 50
90.0000000000004
 51
179.9999999999999
  0
LINE
  5
496
330
A
100
AcDbEntity
  8
03
100
AcDbLine
 10
141.9229986021496
 20
172.832075471698
 30
0.0
 11
152.4229986021498
 21
172.832075471698
 31
0.0
  0
ARC
  5
497
330
A
100
AcDbEntity
  8
03
100
AcDbCircle
 10
141.9229986021496
 20
172.082075471698
 30
0.0
 40
0.75
100
AcDbArc
 50
89.99999999999998
 51
179.9999999999999
  0
ARC
  5
498
330
A
100
AcDbEntity
  8
03
100
AcDbCircle
 10
152.4229986021498
 20
172.082075471698
 30
0.0
 40
0.75
100
AcDbArc
 50
0.0
 51
89.99999999999998
  0
LINE
  5
499
330
A
100
AcDbEntity
  8
03
100
AcDbLine
 10
124.1729986021497
 20
147.832075471698
 30
0.0
 11
141.1729986021499
 21
147.832075471698
 31
0.0
  0
LINE
  5
49A
330
A
100
AcDbEntity
  8
03
100
AcDbLine
 10
118.9729986021497
 20
146.3320754716979
 30
0.0
 11
149.3729986021499
 21
146.3320754716978
 31
0.0
  0
LINE
  5
49B
330
A
100
AcDbEntity
  8
03
100
AcDbLine
 10
116.6729986021497
 20
171.3320754716979
 30
0.0
 11
116.6729986021497
 21
145.0320754716979
 31
0.0
  0
LINE
  5
49C
330
A
100
AcDbEntity
  8
03
100
AcDbLine
 10
151.6729986021499
 20
171.3320754716979
 30
0.0
 11
151.6729986021499
 21
145.0320754716979
 31
0.0
  0
LINE
  5
49D
330
A
100
AcDbEntity
  8
03
100
AcDbLine
 10
142.6729986021499
 20
171.3320754716979
 30
0.0
 11
142.6729986021499
 21
147.082075471698
 31
0.0
  0
ARC
  5
49E
330
A
100
AcDbEntity
  8
03
100
AcDbCircle
 10
141.9229986021498
 20
147.082075471698
 30
0.0
 40
0.75
100
AcDbArc
 50
269.9999999999998
 51
0.0
  0
LINE
  5
49F
330
A
100
AcDbEntity
  8
03
100
AcDbLine
 10
122.6729986021497
 20
171.3320754716979
 30
0.0
 11
122.6729986021499
 21
147.082075471698
 31
0.0
  0
ARC
  5
4A0
330
A
100
AcDbEntity
  8
03
100
AcDbCircle
 10
123.4229986021499
 20
147.082075471698
 30
0.0
 40
0.75
100
AcDbArc
 50
179.9999999999999
 51
269.9999999999997
  0
LINE
  5
4A1
330
A
100
AcDbEntity
  8
03
100
AcDbLine
 10
115.1729986021498
 20
162.832075471698
 30
0.0
 11
116.6729986021499
 21
162.832075471698
 31
0.0
  0
LINE
  5
4A2
330
A
100
AcDbEntity
  8
03
100
AcDbLine
 10
151.6729986021499
 20
162.832075471698
 30
0.0
 11
153.1729986021498
 21
162.832075471698
 31
0.0
  0
LINE
  5
4A3
330
A
100
AcDbEntity
  8
03
100
AcDbLine
 10
116.6729986021497
 20
171.3320754716979
 30
0.0
 11
122.6729986021497
 21
171.3320754716979
 31
0.0
  0
LINE
  5
4A4
330
A
100
AcDbEntity
  8
03
100
AcDbLine
 10
142.6729986021499
 20
171.3320754716979
 30
0.0
 11
151.6729986021499
 21
171.3320754716979
 31
0.0
  0
LINE
  5
4A5
330
A
100
AcDbEntity
  8
03
100
AcDbLine
 10
117.6729986021497
 20
144.032075471698
 30
0.0
 11
150.6729986021499
 21
144.032075471698
 31
0.0
  0
ARC
  5
4A6
330
A
100
AcDbEntity
  8
03
100
AcDbCircle
 10
150.6729986021499
 20
145.0320754716979
 30
0.0
 40
1.0
100
AcDbArc
 50
269.9999999999999
 51
0.0
  0
ARC
  5
4A7
330
A
100
AcDbEntity
  8
03
100
AcDbCircle
 10
117.6729986021497
 20
145.0320754716979
 30
0.0
 40
1.0
100
AcDbArc
 50
179.9999999999999
 51
269.9999999999999
  0
LINE
  5
4A8
330
A
100
AcDbEntity
  8
03
100
AcDbLine
 10
118.9729986021497
 20
171.3320754716979
 30
0.0
 11
118.9729986021497
 21
146.3320754716979
 31
0.0
  0
LINE
  5
4A9
330
A
100
AcDbEntity
  8
03
100
AcDbLine
 10
149.3729986021499
 20
171.3320754716979
 30
0.0
 11
149.3729986021499
 21
146.3320754716978
 31
0.0
  0
LINE
  5
4AA
330
A
100
AcDbEntity
  8
CHUSIN
100
AcDbLine
 10
132.6729986021497
 20
136.6320754716982
 30
0.0
 11
132.6729986021497
 21
232.8207713367268
 31
0.0
  0
LINE
  5
4AB
330
A
100
AcDbEntity
  8
CHUSIN
100
AcDbLine
 10
139.2129986021497
 20
331.3320754716982
 30
0.0
 11
126.7129986021497
 21
331.3320754716982
 31
0.0
  0
LINE
  5
4AC
330
A
100
AcDbEntity
  8
CHUSIN
100
AcDbLine
 10
126.1729986021497
 20
231.7737481758786
 30
0.0
 11
138.6729986021497
 21
231.7737481758786
 31
0.0
  0
LINE
  5
4AD
330
A
100
AcDbEntity
  8
CHUSIN
100
AcDbLine
 10
139.1729986021498
 20
198.3320754716981
 30
0.0
 11
126.6729986021498
 21
198.3320754716981
 31
0.0
  0
LINE
  5
4AE
330
A
100
AcDbEntity
  8
CHUSIN
100
AcDbLine
 10
98.17299860214985
 20
364.7320754716981
 30
0.0
 11
98.17299860214985
 21
350.2520754716981
 31
0.0
  0
LINE
  5
4AF
330
A
100
AcDbEntity
  8
CHUSIN
 48
0.7
100
AcDbLine
 10
95.27299860214986
 20
355.3320754716981
 30
0.0
 11
101.5729986021497
 21
355.3320754716981
 31
0.0
  0
LINE
  5
4B0
330
A
100
AcDbEntity
  8
CHUSIN
100
AcDbLine
 10
98.17299860214985
 20
470.9320754716982
 30
0.0
 11
98.17299860214985
 21
456.7920754716981
 31
0.0
  0
LINE
  5
4B1
330
A
100
AcDbEntity
  8
CHUSIN
 48
0.7
100
AcDbLine
 10
95.05299860214986
 20
466.3320754716981
 30
0.0
 11
101.8129986021497
 21
466.3320754716981
 31
0.0
  0
LINE
  5
4B2
330
A
100
AcDbEntity
  8
CHUSIN
 48
0.8
100
AcDbLine
 10
138.1729986021498
 20
490.8520754716981
 30
0.0
 11
138.1729986021498
 21
483.5120754716981
 31
0.0
  0
LINE
  5
4B3
330
A
100
AcDbEntity
  8
CHUSIN
 48
0.9
100
AcDbLine
 10
133.9729986021497
 20
486.3320754716981
 30
0.0
 11
142.2729986021498
 21
486.3320754716981
 31
0.0
  0
LINE
  5
4B4
330
A
100
AcDbEntity
  8
CHUSIN
100
AcDbLine
 10
141.4929986021498
 20
471.5320754716981
 30
0.0
 11
157.1881431253981
 21
471.5320754716981
 31
0.0
  0
LINE
  5
4B5
330
A
100
AcDbEntity
  8
CHUSIN
100
AcDbLine
 10
240.353875256103
 20
412.3320754716981
 30
0.0
 11
328.9292036985037
 21
412.3320754716981
 31
0.0
  0
LINE
  5
4B6
330
A
100
AcDbEntity
  8
CHUSIN
100
AcDbLine
 10
302.1286489076625
 20
425.6920754716981
 30
0.0
 11
302.1286489076625
 21
398.7920754716981
 31
0.0
  0
LINE
  5
4B7
330
A
100
AcDbEntity
  8
CHUSIN
100
AcDbLine
 10
305.1286489076625
 20
457.3320754716981
 30
0.0
 11
305.1286489076625
 21
362.1729559748426
 31
0.0
  0
LINE
  5
4B8
330
A
100
AcDbEntity
  8
CHUSIN
100
AcDbLine
 10
297.6486489076624
 20
432.3320754716981
 30
0.0
 11
313.4086489076624
 21
432.3320754716981
 31
0.0
  0
LINE
  5
4B9
330
A
100
AcDbEntity
  8
CHUSIN
100
AcDbLine
 10
297.6486489076624
 20
392.3320754716981
 30
0.0
 11
313.4086489076624
 21
392.3320754716981
 31
0.0
  0
LINE
  5
4BA
330
A
100
AcDbEntity
  8
CHUSIN
100
AcDbLine
 10
294.9286489076623
 20
447.3320754716981
 30
0.0
 11
314.4886489076625
 21
447.3320754716981
 31
0.0
  0
LINE
  5
4BB
330
A
100
AcDbEntity
  8
CHUSIN
100
AcDbLine
 10
294.9286489076623
 20
377.3320754716981
 30
0.0
 11
314.4886489076625
 21
377.3320754716981
 31
0.0
  0
LINE
  5
4BC
330
A
100
AcDbEntity
  8
CHUSIN
100
AcDbLine
 10
252.8877278490439
 20
442.3320754716981
 30
0.0
 11
280.1886489076624
 21
442.3320754716981
 31
0.0
  0
LINE
  5
4BD
330
A
100
AcDbEntity
  8
CHUSIN
100
AcDbLine
 10
252.8877278490439
 20
382.3320754716981
 30
0.0
 11
280.1886489076624
 21
382.3320754716981
 31
0.0
  0
LINE
  5
4BE
330
A
100
AcDbEntity
  8
CHUSIN
100
AcDbLine
 10
297.1286489076625
 20
420.8320754716981
 30
0.0
 11
307.1286489076625
 21
420.8320754716981
 31
0.0
  0
LINE
  5
4BF
330
A
100
AcDbEntity
  8
CHUSIN
100
AcDbLine
 10
307.1286489076625
 20
403.8320754716981
 30
0.0
 11
297.1286489076625
 21
403.8320754716981
 31
0.0
  0
LINE
  5
4C0
330
A
100
AcDbEntity
  8
CHUSIN
100
AcDbLine
 10
279.6286489076625
 20
428.2950141892237
 30
0.0
 11
279.6286489076625
 21
387.0931217082627
 31
0.0
  0
LINE
  5
4C1
330
A
100
AcDbEntity
  8
CHUSIN
100
AcDbLine
 10
265.1286489076625
 20
368.4520754716981
 30
0.0
 11
265.1286489076625
 21
350.2520754716981
 31
0.0
  0
LINE
  5
4C2
330
A
100
AcDbEntity
  8
CHUSIN
 48
0.7
100
AcDbLine
 10
262.2486489076625
 20
355.3320754716981
 30
0.0
 11
268.5486489076625
 21
355.3320754716981
 31
0.0
  0
LINE
  5
4C3
330
A
100
AcDbEntity
  8
CHUSIN
100
AcDbLine
 10
265.1286489076625
 20
471.9120754716981
 30
0.0
 11
265.1286489076625
 21
452.732075471698
 31
0.0
  0
LINE
  5
4C4
330
A
100
AcDbEntity
  8
CHUSIN
 48
0.7
100
AcDbLine
 10
262.0086489076625
 20
466.3320754716981
 30
0.0
 11
268.7686489076625
 21
466.3320754716981
 31
0.0
  0
LINE
  5
4C5
330
A
100
AcDbEntity
  8
CHUSIN
 48
0.8
100
AcDbLine
 10
305.1286489076625
 20
490.8520754716981
 30
0.0
 11
305.1286489076625
 21
483.5120754716981
 31
0.0
  0
LINE
  5
4C6
330
A
100
AcDbEntity
  8
CHUSIN
 48
0.8
100
AcDbLine
 10
300.9286489076623
 20
486.3320754716981
 30
0.0
 11
309.2486489076625
 21
486.3320754716981
 31
0.0
  0
LINE
  5
4C7
330
A
100
AcDbEntity
  8
CHUSIN
100
AcDbLine
 10
308.4686489076625
 20
471.5320754716981
 30
0.0
 11
322.3686489076624
 21
471.5320754716981
 31
0.0
  0
LINE
  5
4C8
330
A
100
AcDbEntity
  8
CHUSIN
100
AcDbLine
 10
89.94189741762843
 20
277.2754716981131
 30
0.0
 11
108.2240073325524
 21
277.2754716981131
 31
0.0
  0
LINE
  5
4C9
330
A
100
AcDbEntity
  8
CHUSIN
100
AcDbLine
 10
99.17299860214985
 20
289.286959391257
 30
0.0
 11
99.17299860214985
 21
265.6487887258326
 31
0.0
  0
LINE
  5
4CF
330
A
100
AcDbEntity
  8
03
100
AcDbLine
 10
130.1729986021497
 20
238.7737481758786
 30
0.0
 11
135.1729986021497
 21
238.7737481758786
 31
0.0
  0
LINE
  5
4D0
330
A
100
AcDbEntity
  8
03
100
AcDbLine
 10
135.1729986021497
 20
256.7171444022936
 30
0.0
 11
135.1729986021497
 21
238.7737481758786
 31
0.0
  0
LINE
  5
4D1
330
A
100
AcDbEntity
  8
03
100
AcDbLine
 10
130.1729986021497
 20
256.7171444022936
 30
0.0
 11
130.1729986021497
 21
238.7737481758786
 31
0.0
  0
LINE
  5
4D2
330
A
100
AcDbEntity
  8
03
100
AcDbLine
 10
134.3729986021497
 20
256.7171444022936
 30
0.0
 11
134.3729986021497
 21
239.5737481758786
 31
0.0
  0
LINE
  5
4D3
330
A
100
AcDbEntity
  8
03
100
AcDbLine
 10
130.9729986021497
 20
256.7171444022936
 30
0.0
 11
130.9729986021497
 21
239.5737481758786
 31
0.0
  0
LINE
  5
4D4
330
A
100
AcDbEntity
  8
03
100
AcDbLine
 10
130.9729986021497
 20
239.5737481758786
 30
0.0
 11
134.3729986021497
 21
239.5737481758786
 31
0.0
  0
LINE
  5
4E3
330
A
100
AcDbEntity
  8
03
100
AcDbLine
 10
98.63299860214986
 20
348.8120754716981
 30
0.0
 11
93.63299860214985
 21
348.8120754716981
 31
0.0
  0
LINE
  5
4E4
330
A
100
AcDbEntity
  8
03
100
AcDbLine
 10
93.63299860214985
 20
347.4221240150062
 30
0.0
 11
98.63299860214986
 21
347.4221240150062
 31
0.0
  0
LINE
  5
4E5
330
A
100
AcDbEntity
  8
03
100
AcDbLine
 10
107.1729986021497
 20
339.8320754716982
 30
0.0
 11
98.63299860214986
 21
339.8320754716982
 31
0.0
  0
LINE
  5
4E6
330
A
100
AcDbEntity
  8
03
100
AcDbLine
 10
85.17299860214984
 20
339.8320754716982
 30
0.0
 11
98.63299860214986
 21
339.8320754716982
 31
0.0
  0
LINE
  5
4E7
330
A
100
AcDbEntity
  8
03
100
AcDbLine
 10
88.17299860214985
 20
343.3320754716981
 30
0.0
 11
87.67299860214984
 21
343.3320754716981
 31
0.0
  0
LINE
  5
4E8
330
A
100
AcDbEntity
  8
03
100
AcDbLine
 10
104.1729986021497
 20
343.3320754716981
 30
0.0
 11
104.6729986021497
 21
343.3320754716981
 31
0.0
  0
LINE
  5
4E9
330
A
100
AcDbEntity
  8
03
100
AcDbLine
 10
98.63299860214986
 20
348.8120754716981
 30
0.0
 11
99.67299860214987
 21
348.8120754716981
 31
0.0
  0
LINE
  5
4EA
330
A
100
AcDbEntity
  8
03
100
AcDbLine
 10
93.63299860214985
 20
348.8120754716981
 30
0.0
 11
92.67299860214984
 21
348.8120754716981
 31
0.0
  0
LINE
  5
4EB
330
A
100
AcDbEntity
  8
03
100
AcDbLine
 10
104.6729986021497
 20
343.8120754716981
 30
0.0
 11
104.6729986021497
 21
343.3320754716981
 31
0.0
  0
ARC
  5
4EC
330
A
100
AcDbEntity
  8
03
100
AcDbCircle
 10
99.67299860214987
 20
343.8120754716981
 30
0.0
 40
5.0
100
AcDbArc
 50
0.0
 51
89.99999989716
  0
LINE
  5
4ED
330
A
100
AcDbEntity
  8
03
100
AcDbLine
 10
87.67299860214984
 20
343.8120754716981
 30
0.0
 11
87.67299860214984
 21
343.3320754716981
 31
0.0
  0
ARC
  5
4EE
330
A
100
AcDbEntity
  8
03
100
AcDbCircle
 10
92.67299860214984
 20
343.8120754716981
 30
0.0
 40
5.0
100
AcDbArc
 50
89.99999989716
 51
179.9999997943199
  0
ARC
  5
4F0
330
A
100
AcDbEntity
  8
03
100
AcDbCircle
 10
95.59536566905709
 20
344.9297730167771
 30
0.0
 40
3.172175594707116
100
AcDbArc
 50
128.2153329070484
 51
144.4953250248134
  0
LINE
  5
4F5
330
A
100
AcDbEntity
  8
03
100
AcDbLine
 10
93.01299860214985
 20
346.7720754716981
 30
0.0
 11
93.63299860214985
 21
346.4120754716981
 31
0.0
  0
LINE
  5
4F6
330
A
100
AcDbEntity
  8
03
100
AcDbLine
 10
92.51267286474648
 20
345.9837439505778
 30
0.0
 11
93.63299860214979
 21
345.3405939902165
 31
0.0
  0
LINE
  5
4FD
330
A
100
AcDbEntity
  8
03
100
AcDbLine
 10
93.63299860214985
 20
341.24202692839
 30
0.0
 11
92.33299860214984
 21
339.8320754716982
 31
0.0
  0
LINE
  5
506
330
A
100
AcDbEntity
  8
03
100
AcDbLine
 10
153.1729986021498
 20
339.8320754716982
 30
0.0
 11
153.1729986021498
 21
259.7171444022936
 31
0.0
  0
LINE
  5
507
330
A
100
AcDbEntity
  8
03
100
AcDbLine
 10
153.1729986021498
 20
256.7171444022936
 30
0.0
 11
153.1729986021498
 21
225.6953225678075
 31
0.0
  0
LINE
  5
50D
330
A
100
AcDbEntity
  8
03
100
AcDbLine
 10
85.17299860214984
 20
339.8320754716982
 30
0.0
 11
85.17299860214984
 21
341.3320754716981
 31
0.0
  0
LINE
  5
50E
330
A
100
AcDbEntity
  8
03
100
AcDbLine
 10
85.17299860214984
 20
341.3320754716981
 30
0.0
 11
87.87299860214984
 21
341.3320754716981
 31
0.0
  0
ARC
  5
50F
330
A
100
AcDbEntity
  8
03
100
AcDbCircle
 10
87.87299860214984
 20
341.6320754716982
 30
0.0
 40
0.3
100
AcDbArc
 50
269.99999969148
 51
359.9999995886399
  0
LINE
  5
510
330
A
100
AcDbEntity
  8
03
100
AcDbLine
 10
88.17299860214985
 20
341.6320754716982
 30
0.0
 11
88.17299860214985
 21
343.3320754716981
 31
0.0
  0
LINE
  5
511
330
A
100
AcDbEntity
  8
03
100
AcDbLine
 10
107.1729986021497
 20
339.8320754716982
 30
0.0
 11
107.1729986021497
 21
341.3320754716981
 31
0.0
  0
LINE
  5
512
330
A
100
AcDbEntity
  8
03
100
AcDbLine
 10
107.1729986021497
 20
341.3320754716981
 30
0.0
 11
104.4729986021497
 21
341.3320754716981
 31
0.0
  0
ARC
  5
513
330
A
100
AcDbEntity
  8
03
100
AcDbCircle
 10
104.4729986021497
 20
341.6320754716982
 30
0.0
 40
0.3
100
AcDbArc
 50
179.9999997943199
 51
269.99999969148
  0
LINE
  5
514
330
A
100
AcDbEntity
  8
03
100
AcDbLine
 10
104.1729986021497
 20
341.6320754716982
 30
0.0
 11
104.1729986021497
 21
343.3320754716981
 31
0.0
  0
LINE
  5
515
330
A
100
AcDbEntity
  8
03
100
AcDbLine
 10
126.1729986021497
 20
487.8320754716981
 30
0.0
 11
126.1729986021497
 21
486.3320754716981
 31
0.0
  0
ARC
  5
516
330
A
100
AcDbEntity
  8
03
100
AcDbCircle
 10
126.6729986021498
 20
487.8320754716981
 30
0.0
 40
0.5
100
AcDbArc
 50
89.99999989716
 51
179.9999997943199
  0
LINE
  5
517
330
A
100
AcDbEntity
  8
03
100
AcDbLine
 10
129.1729986021497
 20
489.8320754716981
 30
0.0
 11
129.1729986021497
 21
488.3320754716981
 31
0.0
  0
LINE
  5
51E
330
A
100
AcDbEntity
  8
03
100
AcDbLine
 10
275.9286489076623
 20
446.3320754716981
 30
0.0
 11
275.9286489076623
 21
438.3320754716981
 31
0.0
  0
LINE
  5
51F
330
A
100
AcDbEntity
  8
03
100
AcDbLine
 10
256.1286489076625
 20
439.0720754716981
 30
0.0
 11
276.6886489076624
 21
439.0720754716981
 31
0.0
  0
LINE
  5
520
330
A
100
AcDbEntity
  8
03
100
AcDbLine
 10
256.1286489076625
 20
445.5920754716981
 30
0.0
 11
276.6886489076624
 21
445.5920754716981
 31
0.0
  0
LINE
  5
521
330
A
100
AcDbEntity
  8
03
100
AcDbLine
 10
275.9286489076623
 20
386.3320754716981
 30
0.0
 11
275.9286489076623
 21
378.3320754716981
 31
0.0
  0
LINE
  5
522
330
A
100
AcDbEntity
  8
03
100
AcDbLine
 10
256.1286489076625
 20
379.0720754716981
 30
0.0
 11
276.6886489076624
 21
379.0720754716981
 31
0.0
  0
LINE
  5
523
330
A
100
AcDbEntity
  8
03
100
AcDbLine
 10
256.1286489076625
 20
385.5920754716981
 30
0.0
 11
276.6886489076624
 21
385.5920754716981
 31
0.0
  0
LINE
  5
525
330
A
100
AcDbEntity
  8
03
100
AcDbLine
 10
318.1286489076625
 20
418.3320754716981
 30
0.0
 11
313.6286489076625
 21
418.3320754716981
 31
0.0
  0
LINE
  5
526
330
A
100
AcDbEntity
  8
03
100
AcDbLine
 10
313.6286489076625
 20
406.3320754716981
 30
0.0
 11
318.1286489076625
 21
406.3320754716981
 31
0.0
  0
LINE
  5
527
330
A
100
AcDbEntity
  8
03
100
AcDbLine
 10
306.6286489076625
 20
414.8320754716981
 30
0.0
 11
306.6286489076625
 21
409.8320754716981
 31
0.0
  0
LINE
  5
528
330
A
100
AcDbEntity
  8
03
100
AcDbLine
 10
311.6286489076625
 20
417.3320754716981
 30
0.0
 11
306.6286489076625
 21
414.8320754716981
 31
0.0
  0
LINE
  5
529
330
A
100
AcDbEntity
  8
03
100
AcDbLine
 10
311.6286489076625
 20
407.3320754716981
 30
0.0
 11
306.6286489076625
 21
409.8320754716981
 31
0.0
  0
LINE
  5
52A
330
A
100
AcDbEntity
  8
03
100
AcDbLine
 10
266.2886489076623
 20
356.8320754716981
 30
0.0
 11
266.2886489076623
 21
356.6520754716981
 31
0.0
  0
LINE
  5
52B
330
A
100
AcDbEntity
  8
03
100
AcDbLine
 10
263.9886489076623
 20
356.8320754716981
 30
0.0
 11
263.9886489076623
 21
356.6520754716981
 31
0.0
  0
ARC
  5
52C
330
A
100
AcDbEntity
  8
03
100
AcDbCircle
 10
265.1286489076625
 20
355.3320754716981
 30
0.0
 40
1.759999999999999
100
AcDbArc
 50
131.066666516901
 51
48.93333327741888
  0
ARC
  5
52D
330
A
100
AcDbEntity
  8
03
100
AcDbCircle
 10
296.1286489076625
 20
465.3320754716981
 30
0.0
 40
0.5
100
AcDbArc
 50
179.9999997943199
 51
269.99999969148
  0
LINE
  5
52E
330
A
100
AcDbEntity
  8
03
100
AcDbLine
 10
299.0286489076625
 20
470.8320754716981
 30
0.0
 11
299.1286489076625
 21
470.8320754716981
 31
0.0
  0
LINE
  5
52F
330
A
100
AcDbEntity
  8
03
100
AcDbLine
 10
318.1286489076625
 20
466.8320754716981
 30
0.0
 11
317.9286489076623
 21
466.8320754716981
 31
0.0
  0
LINE
  5
530
330
A
100
AcDbEntity
  8
03
100
AcDbLine
 10
266.7886489076625
 20
363.8320754716981
 30
0.0
 11
266.7886489076625
 21
366.8120754716981
 31
0.0
  0
LINE
  5
531
330
A
100
AcDbEntity
  8
03
100
AcDbLine
 10
263.4686489076623
 20
363.8320754716981
 30
0.0
 11
263.4686489076623
 21
366.8120754716981
 31
0.0
  0
LINE
  5
532
330
A
100
AcDbEntity
  8
03
100
AcDbLine
 10
263.4686489076623
 20
460.8320754716981
 30
0.0
 11
263.4686489076623
 21
454.8320754716981
 31
0.0
  0
LINE
  5
533
330
A
100
AcDbEntity
  8
03
100
AcDbLine
 10
266.7886489076625
 20
460.8320754716981
 30
0.0
 11
266.7886489076625
 21
454.8320754716981
 31
0.0
  0
LINE
  5
54C
330
A
100
AcDbEntity
  8
03
100
AcDbLine
 10
121.4050245021292
 20
172.8320754716979
 30
0.0
 11
119.9050245021292
 21
171.3320754716978
 31
0.0
  0
LINE
  5
54D
330
A
100
AcDbEntity
  8
03
100
AcDbLine
 10
147.5617051201675
 20
172.832075471698
 30
0.0
 11
146.0617051201676
 21
171.3320754716979
 31
0.0
  0
LINE
  5
54E
330
A
100
AcDbEntity
  8
03
100
AcDbLine
 10
136.0114283723706
 20
147.8320754716978
 30
0.0
 11
134.5114283723708
 21
146.3320754716979
 31
0.0
  0
LINE
  5
54F
330
A
100
AcDbEntity
  8
03
100
AcDbLine
 10
124.1729986021497
 20
160.487085738349
 30
0.0
 11
122.6729986021496
 21
158.987085738349
 31
0.0
  0
LINE
  5
550
330
A
100
AcDbEntity
  8
03
100
AcDbLine
 10
142.6729986021498
 20
160.3168678134478
 30
0.0
 11
141.1729986021498
 21
158.8168678134478
 31
0.0
  0
LINE
  5
551
330
A
100
AcDbEntity
  8
03
100
AcDbLine
 10
153.1729986021498
 20
167.021662841023
 30
0.0
 11
151.6729986021499
 21
165.5216628410231
 31
0.0
  0
LINE
  5
552
330
A
100
AcDbEntity
  8
03
100
AcDbLine
 10
116.6729986021497
 20
167.3626702577148
 30
0.0
 11
115.1729986021498
 21
165.8626702577147
 31
0.0
  0
LINE
  5
553
330
A
100
AcDbEntity
  8
03
100
AcDbLine
 10
116.6729986021497
 20
158.4582964239558
 30
0.0
 11
118.9729986021497
 21
160.7582964239558
 31
0.0
  0
LINE
  5
554
330
A
100
AcDbEntity
  8
03
100
AcDbLine
 10
116.6729986021497
 20
156.4582964239558
 30
0.0
 11
118.9729986021497
 21
158.7582964239558
 31
0.0
  0
LINE
  5
555
330
A
100
AcDbEntity
  8
03
100
AcDbLine
 10
126.8721032440687
 20
146.3320754716979
 30
0.0
 11
124.5721032440687
 21
144.032075471698
 31
0.0
  0
LINE
  5
556
330
A
100
AcDbEntity
  8
03
100
AcDbLine
 10
146.3909674382836
 20
146.3320754716979
 30
0.0
 11
144.0909674382836
 21
144.0320754716981
 31
0.0
  0
LINE
  5
557
330
A
100
AcDbEntity
  8
03
100
AcDbLine
 10
151.6729986021499
 20
157.8921442918332
 30
0.0
 11
149.3729986021499
 21
155.5921442918331
 31
0.0
  0
LINE
  5
558
330
A
100
AcDbEntity
  8
03
100
AcDbLine
 10
128.8721032440687
 20
146.3320754716979
 30
0.0
 11
126.5721032440688
 21
144.032075471698
 31
0.0
  0
LINE
  5
559
330
A
100
AcDbEntity
  8
03
100
AcDbLine
 10
148.3909674382837
 20
146.3320754716979
 30
0.0
 11
146.0909674382836
 21
144.0320754716981
 31
0.0
  0
LINE
  5
55A
330
A
100
AcDbEntity
  8
03
100
AcDbLine
 10
151.6729986021499
 20
159.8921442918332
 30
0.0
 11
149.3729986021499
 21
157.5921442918331
 31
0.0
  0
CIRCLE
  5
56A
330
A
100
AcDbEntity
  8
03
100
AcDbCircle
 10
99.17299860214985
 20
277.2754716981131
 30
0.0
 40
6.0
  0
LINE
  5
581
330
A
100
AcDbEntity
  8
KAKURE
 48
0.4
100
AcDbLine
 10
101.1729986021497
 20
351.8320754716981
 30
0.0
 11
100.1729986021497
 21
352.8320754716981
 31
0.0
  0
LINE
  5
582
330
A
100
AcDbEntity
  8
KAKURE
 48
0.4
100
AcDbLine
 10
95.17299860214984
 20
351.8320754716981
 30
0.0
 11
96.17299860214984
 21
352.8320754716981
 31
0.0
  0
LINE
  5
583
330
A
100
AcDbEntity
  8
KAKURE
100
AcDbLine
 10
99.83299860214984
 20
352.8320754716981
 30
0.0
 11
99.83299860214984
 21
359.8320754716981
 31
0.0
  0
LINE
  5
584
330
A
100
AcDbEntity
  8
KAKURE
100
AcDbLine
 10
96.51299860214985
 20
352.8320754716981
 30
0.0
 11
96.51299860214985
 21
359.8320754716981
 31
0.0
  0
LINE
  5
585
330
A
100
AcDbEntity
  8
KAKURE
100
AcDbLine
 10
100.1729986021497
 20
352.8320754716981
 30
0.0
 11
100.1729986021497
 21
359.8320754716981
 31
0.0
  0
LINE
  5
586
330
A
100
AcDbEntity
  8
KAKURE
100
AcDbLine
 10
96.17299860214984
 20
352.8320754716981
 30
0.0
 11
96.17299860214984
 21
359.8320754716981
 31
0.0
  0
LINE
  5
587
330
A
100
AcDbEntity
  8
KAKURE
100
AcDbLine
 10
96.17299860214984
 20
352.8320754716981
 30
0.0
 11
100.1729986021497
 21
352.8320754716981
 31
0.0
  0
LINE
  5
588
330
A
100
AcDbEntity
  8
KAKURE
100
AcDbLine
 10
266.7886489076625
 20
352.8120754716981
 30
0.0
 11
266.7886489076625
 21
363.8320754716981
 31
0.0
  0
LINE
  5
589
330
A
100
AcDbEntity
  8
KAKURE
100
AcDbLine
 10
263.4686489076623
 20
352.8120754716981
 30
0.0
 11
263.4686489076623
 21
363.8320754716981
 31
0.0
  0
LINE
  5
58A
330
A
100
AcDbEntity
  8
KAKURE
100
AcDbLine
 10
263.4686489076623
 20
468.8320754716981
 30
0.0
 11
263.4686489076623
 21
460.8320754716981
 31
0.0
  0
LINE
  5
58B
330
A
100
AcDbEntity
  8
KAKURE
100
AcDbLine
 10
266.7886489076625
 20
468.8320754716981
 30
0.0
 11
266.7886489076625
 21
460.8320754716981
 31
0.0
  0
LINE
  5
62A
330
A
100
AcDbEntity
  8
03
100
AcDbLine
 10
139.6729986021497
 20
245.7737481758786
 30
0.0
 11
139.6729986021497
 21
256.7171444022936
 31
0.0
  0
ARC
  5
62B
330
A
100
AcDbEntity
  8
03
100
AcDbCircle
 10
138.6729986021497
 20
245.7737481758786
 30
0.0
 40
1.0
100
AcDbArc
 50
0.0
 51
89.99999989716
  0
LINE
  5
62C
330
A
100
AcDbEntity
  8
03
100
AcDbLine
 10
125.6729986021497
 20
256.7171444022936
 30
0.0
 11
125.6729986021497
 21
245.7737481758786
 31
0.0
  0
ARC
  5
62D
330
A
100
AcDbEntity
  8
03
100
AcDbCircle
 10
126.6729986021498
 20
245.7737481758786
 30
0.0
 40
1.0
100
AcDbArc
 50
89.99999989716
 51
179.9999997943199
  0
LINE
  5
62E
330
A
100
AcDbEntity
  8
03
100
AcDbLine
 10
138.6729986021497
 20
246.7737481758786
 30
0.0
 11
135.1729986021497
 21
246.7737481758786
 31
0.0
  0
LINE
  5
62F
330
A
100
AcDbEntity
  8
03
100
AcDbLine
 10
130.1729986021497
 20
246.7737481758786
 30
0.0
 11
126.6729986021498
 21
246.7737481758786
 31
0.0
  0
LINE
  5
630
330
A
100
AcDbEntity
  8
03
100
AcDbLine
 10
129.6729986021498
 20
237.7737481758786
 30
0.0
 11
135.6729986021497
 21
237.7737481758786
 31
0.0
  0
LINE
  5
631
330
A
100
AcDbEntity
  8
03
100
AcDbLine
 10
139.1729986021498
 20
244.2737481758786
 30
0.0
 11
135.6729986021497
 21
237.7737481758786
 31
0.0
  0
LINE
  5
632
330
A
100
AcDbEntity
  8
03
100
AcDbLine
 10
129.6729986021498
 20
237.7737481758786
 30
0.0
 11
126.1729986021497
 21
244.2737481758786
 31
0.0
  0
LINE
  5
633
330
A
100
AcDbEntity
  8
03
100
AcDbLine
 10
96.17299860214984
 20
464.8320754716981
 30
0.0
 11
96.17299860214984
 21
457.8320754716981
 31
0.0
  0
LINE
  5
634
330
A
100
AcDbEntity
  8
03
100
AcDbLine
 10
100.1729986021497
 20
464.8320754716981
 30
0.0
 11
100.1729986021497
 21
457.8320754716981
 31
0.0
  0
LINE
  5
635
330
A
100
AcDbEntity
  8
03
100
AcDbLine
 10
96.17299860214984
 20
457.8320754716981
 30
0.0
 11
100.1729986021497
 21
457.8320754716981
 31
0.0
  0
LINE
  5
636
330
A
100
AcDbEntity
  8
03
100
AcDbLine
 10
99.83299860214984
 20
464.8320754716981
 30
0.0
 11
99.83299860214984
 21
461.8320754716982
 31
0.0
  0
LINE
  5
637
330
A
100
AcDbEntity
  8
03
100
AcDbLine
 10
96.51299860214985
 20
464.8320754716981
 30
0.0
 11
96.51299860214985
 21
461.8320754716982
 31
0.0
  0
LINE
  5
638
330
A
100
AcDbEntity
  8
03
100
AcDbLine
 10
96.51299860214985
 20
459.3320754716981
 30
0.0
 11
96.51299860214985
 21
457.8320754716981
 31
0.0
  0
LINE
  5
639
330
A
100
AcDbEntity
  8
03
100
AcDbLine
 10
99.83299860214984
 20
459.3320754716981
 30
0.0
 11
99.83299860214984
 21
457.8320754716981
 31
0.0
  0
ARC
  5
63A
330
A
100
AcDbEntity
  8
03
100
AcDbCircle
 10
127.4229986021497
 20
156.832075471698
 30
0.0
 40
2.0
100
AcDbArc
 50
179.9999996914799
 51
269.99999958864
  0
LINE
  5
63B
330
A
100
AcDbEntity
  8
03
100
AcDbLine
 10
127.4229986021497
 20
154.832075471698
 30
0.0
 11
137.9229986021497
 21
154.832075471698
 31
0.0
  0
ARC
  5
63C
330
A
100
AcDbEntity
  8
03
100
AcDbCircle
 10
137.9229986021497
 20
156.832075471698
 30
0.0
 40
2.0
100
AcDbArc
 50
270.0
 51
359.99999989716
  0
LINE
  5
63D
330
A
100
AcDbEntity
  8
03
100
AcDbLine
 10
125.4229986021497
 20
156.832075471698
 30
0.0
 11
125.4229986021497
 21
179.8320754716981
 31
0.0
  0
LINE
  5
63E
330
A
100
AcDbEntity
  8
03
100
AcDbLine
 10
139.9229986021497
 20
156.8320754681083
 30
0.0
 11
139.9229986021497
 21
179.8320754716981
 31
0.0
  0
LINE
  5
63F
330
A
100
AcDbEntity
  8
03
100
AcDbLine
 10
312.6286489076625
 20
447.3320754716981
 30
0.0
 11
308.8886489076624
 21
453.8320754716981
 31
0.0
  0
LINE
  5
640
330
A
100
AcDbEntity
  8
03
100
AcDbLine
 10
308.8886489076624
 20
453.8320754716981
 30
0.0
 11
301.3686489076624
 21
453.8320754716981
 31
0.0
  0
LINE
  5
641
330
A
100
AcDbEntity
  8
03
100
AcDbLine
 10
301.3686489076624
 20
453.8320754716981
 30
0.0
 11
297.6286489076625
 21
447.3320754716981
 31
0.0
  0
LINE
  5
642
330
A
100
AcDbEntity
  8
03
100
AcDbLine
 10
297.6286489076625
 20
447.3320754716981
 30
0.0
 11
301.3686489076624
 21
440.8320754716981
 31
0.0
  0
LINE
  5
643
330
A
100
AcDbEntity
  8
03
100
AcDbLine
 10
301.3686489076624
 20
440.8320754716981
 30
0.0
 11
308.8886489076624
 21
440.8320754716981
 31
0.0
  0
LINE
  5
644
330
A
100
AcDbEntity
  8
03
100
AcDbLine
 10
308.8886489076624
 20
440.8320754716981
 30
0.0
 11
312.6286489076625
 21
447.3320754716981
 31
0.0
  0
CIRCLE
  5
645
330
A
100
AcDbEntity
  8
03
100
AcDbCircle
 10
305.1286489076625
 20
447.3320754716981
 30
0.0
 40
6.299999999999998
  0
LINE
  5
646
330
A
100
AcDbEntity
  8
03
100
AcDbLine
 10
312.6286489076625
 20
377.3320754716981
 30
0.0
 11
308.8886489076624
 21
383.8320754716981
 31
0.0
  0
LINE
  5
647
330
A
100
AcDbEntity
  8
03
100
AcDbLine
 10
308.8886489076624
 20
383.8320754716981
 30
0.0
 11
301.3686489076624
 21
383.8320754716981
 31
0.0
  0
LINE
  5
648
330
A
100
AcDbEntity
  8
03
100
AcDbLine
 10
301.3686489076624
 20
383.8320754716981
 30
0.0
 11
297.6286489076625
 21
377.3320754716981
 31
0.0
  0
LINE
  5
649
330
A
100
AcDbEntity
  8
03
100
AcDbLine
 10
297.6286489076625
 20
377.3320754716981
 30
0.0
 11
301.3686489076624
 21
370.8320754716981
 31
0.0
  0
LINE
  5
64A
330
A
100
AcDbEntity
  8
03
100
AcDbLine
 10
301.3686489076624
 20
370.8320754716981
 30
0.0
 11
308.8886489076624
 21
370.8320754716981
 31
0.0
  0
LINE
  5
64B
330
A
100
AcDbEntity
  8
03
100
AcDbLine
 10
308.8886489076624
 20
370.8320754716981
 30
0.0
 11
312.6286489076625
 21
377.3320754716981
 31
0.0
  0
CIRCLE
  5
64C
330
A
100
AcDbEntity
  8
03
100
AcDbCircle
 10
305.1286489076625
 20
377.3320754716981
 30
0.0
 40
6.299999999999998
  0
LINE
  5
64D
330
A
100
AcDbEntity
  8
03
100
AcDbLine
 10
256.1286489076625
 20
438.3320754716981
 30
0.0
 11
275.9286489076623
 21
438.3320754716981
 31
0.0
  0
LINE
  5
64E
330
A
100
AcDbEntity
  8
03
100
AcDbLine
 10
256.1286489076625
 20
446.3320754716981
 30
0.0
 11
275.9286489076623
 21
446.3320754716981
 31
0.0
  0
LINE
  5
64F
330
A
100
AcDbEntity
  8
03
100
AcDbLine
 10
275.9286489076623
 20
438.3320754716981
 30
0.0
 11
277.1286489076625
 21
439.5320754716981
 31
0.0
  0
LINE
  5
650
330
A
100
AcDbEntity
  8
03
100
AcDbLine
 10
275.9286489076623
 20
446.3320754716981
 30
0.0
 11
277.1286489076625
 21
445.1320754716981
 31
0.0
  0
LINE
  5
651
330
A
100
AcDbEntity
  8
03
100
AcDbLine
 10
277.1286489076625
 20
445.1320754716981
 30
0.0
 11
277.1286489076625
 21
439.5320754716981
 31
0.0
  0
LINE
  5
652
330
A
100
AcDbEntity
  8
03
100
AcDbLine
 10
256.1286489076625
 20
378.3320754716981
 30
0.0
 11
275.9286489076623
 21
378.3320754716981
 31
0.0
  0
LINE
  5
653
330
A
100
AcDbEntity
  8
03
100
AcDbLine
 10
256.1286489076625
 20
386.3320754716981
 30
0.0
 11
275.9286489076623
 21
386.3320754716981
 31
0.0
  0
LINE
  5
654
330
A
100
AcDbEntity
  8
03
100
AcDbLine
 10
275.9286489076623
 20
378.3320754716981
 30
0.0
 11
277.1286489076625
 21
379.5320754716981
 31
0.0
  0
LINE
  5
655
330
A
100
AcDbEntity
  8
03
100
AcDbLine
 10
275.9286489076623
 20
386.3320754716981
 30
0.0
 11
277.1286489076625
 21
385.1320754716981
 31
0.0
  0
LINE
  5
656
330
A
100
AcDbEntity
  8
03
100
AcDbLine
 10
277.1286489076625
 20
385.1320754716981
 30
0.0
 11
277.1286489076625
 21
379.5320754716981
 31
0.0
  0
ARC
  5
657
330
A
100
AcDbEntity
  8
03
100
AcDbCircle
 10
302.1286489076625
 20
403.8320754716981
 30
0.0
 40
2.0
100
AcDbArc
 50
75.54444435812233
 51
104.4555554361975
  0
ARC
  5
658
330
A
100
AcDbEntity
  8
03
100
AcDbCircle
 10
302.1286489076625
 20
403.8320754716981
 30
0.0
 40
2.0
100
AcDbArc
 50
165.5444442552823
 51
194.4555553333575
  0
ARC
  5
659
330
A
100
AcDbEntity
  8
03
100
AcDbCircle
 10
302.1286489076625
 20
403.8320754716981
 30
0.0
 40
2.0
100
AcDbArc
 50
255.5444441524423
 51
284.4555552305176
  0
ARC
  5
65A
330
A
100
AcDbEntity
  8
03
100
AcDbCircle
 10
302.1286489076625
 20
403.8320754716981
 30
0.0
 40
2.0
100
AcDbArc
 50
345.5444440496023
 51
14.4555555390377
  0
LINE
  5
65B
330
A
100
AcDbEntity
  8
03
100
AcDbLine
 10
301.6286489076625
 20
405.7720754716981
 30
0.0
 11
301.6286489076625
 21
404.8320754716981
 31
0.0
  0
LINE
  5
65C
330
A
100
AcDbEntity
  8
03
100
AcDbLine
 10
301.6286489076625
 20
404.8320754716981
 30
0.0
 11
301.1286489076625
 21
404.3320754716981
 31
0.0
  0
LINE
  5
65D
330
A
100
AcDbEntity
  8
03
100
AcDbLine
 10
301.6286489076625
 20
401.8920754716981
 30
0.0
 11
301.6286489076625
 21
402.8320754716981
 31
0.0
  0
LINE
  5
65E
330
A
100
AcDbEntity
  8
03
100
AcDbLine
 10
301.6286489076625
 20
402.8320754716981
 30
0.0
 11
301.1286489076625
 21
403.3320754716981
 31
0.0
  0
LINE
  5
65F
330
A
100
AcDbEntity
  8
03
100
AcDbLine
 10
302.6286489076625
 20
405.7720754716981
 30
0.0
 11
302.6286489076625
 21
404.8320754716981
 31
0.0
  0
LINE
  5
660
330
A
100
AcDbEntity
  8
03
100
AcDbLine
 10
302.6286489076625
 20
404.8320754716981
 30
0.0
 11
303.1286489076625
 21
404.3320754716981
 31
0.0
  0
LINE
  5
661
330
A
100
AcDbEntity
  8
03
100
AcDbLine
 10
302.6286489076625
 20
401.8920754716981
 30
0.0
 11
302.6286489076625
 21
402.8320754716981
 31
0.0
  0
LINE
  5
662
330
A
100
AcDbEntity
  8
03
100
AcDbLine
 10
302.6286489076625
 20
402.8320754716981
 30
0.0
 11
303.1286489076625
 21
403.3320754716981
 31
0.0
  0
LINE
  5
663
330
A
100
AcDbEntity
  8
03
100
AcDbLine
 10
300.1886489076625
 20
404.3320754716981
 30
0.0
 11
301.1286489076625
 21
404.3320754716981
 31
0.0
  0
LINE
  5
664
330
A
100
AcDbEntity
  8
03
100
AcDbLine
 10
304.0686489076624
 20
404.3320754716981
 30
0.0
 11
303.1286489076625
 21
404.3320754716981
 31
0.0
  0
LINE
  5
665
330
A
100
AcDbEntity
  8
03
100
AcDbLine
 10
300.1886489076625
 20
403.3320754716981
 30
0.0
 11
301.1286489076625
 21
403.3320754716981
 31
0.0
  0
LINE
  5
666
330
A
100
AcDbEntity
  8
03
100
AcDbLine
 10
304.0686489076624
 20
403.3320754716981
 30
0.0
 11
303.1286489076625
 21
403.3320754716981
 31
0.0
  0
ARC
  5
667
330
A
100
AcDbEntity
  8
03
100
AcDbCircle
 10
302.1286489076625
 20
420.8320754716981
 30
0.0
 40
2.0
100
AcDbArc
 50
75.54444435812233
 51
104.4555554361975
  0
ARC
  5
668
330
A
100
AcDbEntity
  8
03
100
AcDbCircle
 10
302.1286489076625
 20
420.8320754716981
 30
0.0
 40
2.0
100
AcDbArc
 50
165.5444442552823
 51
194.4555553333575
  0
ARC
  5
669
330
A
100
AcDbEntity
  8
03
100
AcDbCircle
 10
302.1286489076625
 20
420.8320754716981
 30
0.0
 40
2.0
100
AcDbArc
 50
255.5444441524423
 51
284.4555552305176
  0
ARC
  5
66A
330
A
100
AcDbEntity
  8
03
100
AcDbCircle
 10
302.1286489076625
 20
420.8320754716981
 30
0.0
 40
2.0
100
AcDbArc
 50
345.5444440496023
 51
14.4555555390377
  0
LINE
  5
66B
330
A
100
AcDbEntity
  8
03
100
AcDbLine
 10
301.6286489076625
 20
422.7720754716981
 30
0.0
 11
301.6286489076625
 21
421.8320754716981
 31
0.0
  0
LINE
  5
66C
330
A
100
AcDbEntity
  8
03
100
AcDbLine
 10
301.6286489076625
 20
421.8320754716981
 30
0.0
 11
301.1286489076625
 21
421.3320754716981
 31
0.0
  0
LINE
  5
66D
330
A
100
AcDbEntity
  8
03
100
AcDbLine
 10
301.6286489076625
 20
418.8920754716981
 30
0.0
 11
301.6286489076625
 21
419.8320754716981
 31
0.0
  0
LINE
  5
66E
330
A
100
AcDbEntity
  8
03
100
AcDbLine
 10
301.6286489076625
 20
419.8320754716981
 30
0.0
 11
301.1286489076625
 21
420.3320754716981
 31
0.0
  0
LINE
  5
66F
330
A
100
AcDbEntity
  8
03
100
AcDbLine
 10
302.6286489076625
 20
422.7720754716981
 30
0.0
 11
302.6286489076625
 21
421.8320754716981
 31
0.0
  0
LINE
  5
670
330
A
100
AcDbEntity
  8
03
100
AcDbLine
 10
302.6286489076625
 20
421.8320754716981
 30
0.0
 11
303.1286489076625
 21
421.3320754716981
 31
0.0
  0
LINE
  5
671
330
A
100
AcDbEntity
  8
03
100
AcDbLine
 10
302.6286489076625
 20
418.8920754716981
 30
0.0
 11
302.6286489076625
 21
419.8320754716981
 31
0.0
  0
LINE
  5
672
330
A
100
AcDbEntity
  8
03
100
AcDbLine
 10
302.6286489076625
 20
419.8320754716981
 30
0.0
 11
303.1286489076625
 21
420.3320754716981
 31
0.0
  0
LINE
  5
673
330
A
100
AcDbEntity
  8
03
100
AcDbLine
 10
300.1886489076625
 20
421.3320754716981
 30
0.0
 11
301.1286489076625
 21
421.3320754716981
 31
0.0
  0
LINE
  5
674
330
A
100
AcDbEntity
  8
03
100
AcDbLine
 10
304.0686489076624
 20
421.3320754716981
 30
0.0
 11
303.1286489076625
 21
421.3320754716981
 31
0.0
  0
LINE
  5
675
330
A
100
AcDbEntity
  8
03
100
AcDbLine
 10
300.1886489076625
 20
420.3320754716981
 30
0.0
 11
301.1286489076625
 21
420.3320754716981
 31
0.0
  0
LINE
  5
676
330
A
100
AcDbEntity
  8
03
100
AcDbLine
 10
304.0686489076624
 20
420.3320754716981
 30
0.0
 11
303.1286489076625
 21
420.3320754716981
 31
0.0
  0
CIRCLE
  5
677
330
A
100
AcDbEntity
  8
03
100
AcDbCircle
 10
302.1286489076625
 20
403.8320754716981
 30
0.0
 40
3.5
  0
CIRCLE
  5
678
330
A
100
AcDbEntity
  8
03
100
AcDbCircle
 10
302.1286489076625
 20
420.8320754716981
 30
0.0
 40
3.5
  0
LINE
  5
679
330
A
100
AcDbEntity
  8
03
100
AcDbLine
 10
313.6286489076625
 20
427.3320754716981
 30
0.0
 11
313.6286489076625
 21
397.3320754716981
 31
0.0
  0
LINE
  5
67A
330
A
100
AcDbEntity
  8
03
100
AcDbLine
 10
313.6286489076625
 20
397.3320754716981
 30
0.0
 11
295.6286489076625
 21
397.3320754716981
 31
0.0
  0
LINE
  5
67B
330
A
100
AcDbEntity
  8
03
100
AcDbLine
 10
295.6286489076625
 20
397.3320754716981
 30
0.0
 11
295.6286489076625
 21
427.3320754716981
 31
0.0
  0
LINE
  5
67C
330
A
100
AcDbEntity
  8
03
100
AcDbLine
 10
295.6286489076625
 20
427.3320754716981
 30
0.0
 11
313.6286489076625
 21
427.3320754716981
 31
0.0
  0
LINE
  5
67D
330
A
100
AcDbEntity
  8
03
100
AcDbLine
 10
311.6286489076625
 20
427.3320754716981
 30
0.0
 11
311.6286489076625
 21
397.3320754716981
 31
0.0
  0
CIRCLE
  5
67E
330
A
100
AcDbEntity
  8
03
100
AcDbCircle
 10
302.1286489076625
 20
420.8320754716981
 30
0.0
 40
4.5
  0
CIRCLE
  5
67F
330
A
100
AcDbEntity
  8
03
100
AcDbCircle
 10
302.1286489076625
 20
403.8320754716981
 30
0.0
 40
4.5
  0
CIRCLE
  5
680
330
A
100
AcDbEntity
  8
03
100
AcDbCircle
 10
305.1286489076625
 20
447.3320754716981
 30
0.0
 40
8.5
  0
CIRCLE
  5
681
330
A
100
AcDbEntity
  8
03
100
AcDbCircle
 10
305.1286489076625
 20
377.3320754716981
 30
0.0
 40
8.5
  0
LINE
  5
682
330
A
100
AcDbEntity
  8
03
100
AcDbLine
 10
267.1286489076625
 20
363.8320754716981
 30
0.0
 11
267.1286489076625
 21
366.8120754716981
 31
0.0
  0
LINE
  5
683
330
A
100
AcDbEntity
  8
03
100
AcDbLine
 10
263.1286489076625
 20
363.8320754716981
 30
0.0
 11
263.1286489076625
 21
366.8120754716981
 31
0.0
  0
LINE
  5
684
330
A
100
AcDbEntity
  8
03
100
AcDbLine
 10
267.1286489076625
 20
366.8120754716981
 30
0.0
 11
263.1286489076625
 21
366.8120754716981
 31
0.0
  0
LINE
  5
685
330
A
100
AcDbEntity
  8
03
100
AcDbLine
 10
263.1286489076625
 20
460.8320754716981
 30
0.0
 11
263.1286489076625
 21
454.8320754716981
 31
0.0
  0
LINE
  5
686
330
A
100
AcDbEntity
  8
03
100
AcDbLine
 10
267.1286489076625
 20
460.8320754716981
 30
0.0
 11
267.1286489076625
 21
454.8320754716981
 31
0.0
  0
LINE
  5
687
330
A
100
AcDbEntity
  8
03
100
AcDbLine
 10
263.1286489076625
 20
454.8320754716981
 30
0.0
 11
267.1286489076625
 21
454.8320754716981
 31
0.0
  0
LINE
  5
688
330
A
100
AcDbEntity
  8
03
100
AcDbLine
 10
142.1729986021498
 20
182.8320754716981
 30
0.0
 11
142.1729986021498
 21
188.8320754716981
 31
0.0
  0
LINE
  5
689
330
A
100
AcDbEntity
  8
03
100
AcDbLine
 10
142.1729986021498
 20
188.8320754716981
 30
0.0
 11
123.1729986021497
 21
188.8320754716981
 31
0.0
  0
LINE
  5
68A
330
A
100
AcDbEntity
  8
03
100
AcDbLine
 10
123.1729986021497
 20
188.8320754716981
 30
0.0
 11
123.1729986021497
 21
182.8320754716981
 31
0.0
  0
LINE
  5
68B
330
A
100
AcDbEntity
  8
03
100
AcDbLine
 10
123.1729986021497
 20
182.8320754716981
 30
0.0
 11
142.1729986021498
 21
182.8320754716981
 31
0.0
  0
LINE
  5
68C
330
A
100
AcDbEntity
  8
03
100
AcDbLine
 10
142.1729986021498
 20
340.8320754716982
 30
0.0
 11
142.1729986021498
 21
346.8320754716981
 31
0.0
  0
LINE
  5
68D
330
A
100
AcDbEntity
  8
03
100
AcDbLine
 10
142.1729986021498
 20
346.8320754716981
 30
0.0
 11
123.1729986021497
 21
346.8320754716981
 31
0.0
  0
LINE
  5
68E
330
A
100
AcDbEntity
  8
03
100
AcDbLine
 10
123.1729986021497
 20
346.8320754716981
 30
0.0
 11
123.1729986021497
 21
340.8320754716982
 31
0.0
  0
LINE
  5
68F
330
A
100
AcDbEntity
  8
03
100
AcDbLine
 10
123.1729986021497
 20
340.8320754716982
 30
0.0
 11
142.1729986021498
 21
340.8320754716982
 31
0.0
  0
LINE
  5
6A1
330
A
100
AcDbEntity
  8
03
100
AcDbLine
 10
101.1729986021497
 20
469.8320754716981
 30
0.0
 11
100.1729986021497
 21
468.8320754716981
 31
0.0
  0
LINE
  5
6A2
330
A
100
AcDbEntity
  8
03
100
AcDbLine
 10
95.17299860214984
 20
469.8320754716981
 30
0.0
 11
96.17299860214984
 21
468.8320754716981
 31
0.0
  0
LINE
  5
6A3
330
A
100
AcDbEntity
  8
03
100
AcDbLine
 10
96.51299860214985
 20
468.8320754716981
 30
0.0
 11
96.51299860214985
 21
464.8320754716981
 31
0.0
  0
LINE
  5
6A4
330
A
100
AcDbEntity
  8
03
100
AcDbLine
 10
99.83299860214984
 20
468.8320754716981
 30
0.0
 11
99.83299860214984
 21
464.8320754716981
 31
0.0
  0
LINE
  5
6A5
330
A
100
AcDbEntity
  8
03
100
AcDbLine
 10
96.17299860214984
 20
468.8320754716981
 30
0.0
 11
96.17299860214984
 21
464.8320754716981
 31
0.0
  0
LINE
  5
6A6
330
A
100
AcDbEntity
  8
03
100
AcDbLine
 10
100.1729986021497
 20
468.8320754716981
 30
0.0
 11
100.1729986021497
 21
464.8320754716981
 31
0.0
  0
LINE
  5
6A7
330
A
100
AcDbEntity
  8
03
100
AcDbLine
 10
96.17299860214984
 20
468.8320754716981
 30
0.0
 11
100.1729986021497
 21
468.8320754716981
 31
0.0
  0
LINE
  5
6A8
330
A
100
AcDbEntity
  8
03
100
AcDbLine
 10
99.83299860214984
 20
461.8320754716982
 30
0.0
 11
99.83299860214984
 21
459.3320754716981
 31
0.0
  0
LINE
  5
6A9
330
A
100
AcDbEntity
  8
03
100
AcDbLine
 10
96.51299860214985
 20
461.8320754716982
 30
0.0
 11
96.51299860214985
 21
459.3320754716981
 31
0.0
  0
CIRCLE
  5
6AA
330
A
100
AcDbEntity
  8
03
100
AcDbCircle
 10
305.1286489076625
 20
432.3320754716981
 30
0.0
 40
3.5
  0
CIRCLE
  5
6AB
330
A
100
AcDbEntity
  8
03
100
AcDbCircle
 10
305.1286489076625
 20
392.3320754716981
 30
0.0
 40
3.5
  0
ARC
  5
6AC
330
A
100
AcDbEntity
  8
03
100
AcDbCircle
 10
305.1286489076625
 20
432.3320754716981
 30
0.0
 40
2.0
100
AcDbArc
 50
75.54444435812233
 51
104.4555554361975
  0
ARC
  5
6AD
330
A
100
AcDbEntity
  8
03
100
AcDbCircle
 10
305.1286489076625
 20
432.3320754716981
 30
0.0
 40
2.0
100
AcDbArc
 50
165.5444442552823
 51
194.4555553333575
  0
ARC
  5
6AE
330
A
100
AcDbEntity
  8
03
100
AcDbCircle
 10
305.1286489076625
 20
432.3320754716981
 30
0.0
 40
2.0
100
AcDbArc
 50
255.5444441524423
 51
284.4555552305176
  0
ARC
  5
6AF
330
A
100
AcDbEntity
  8
03
100
AcDbCircle
 10
305.1286489076625
 20
432.3320754716981
 30
0.0
 40
2.0
100
AcDbArc
 50
345.5444440496023
 51
14.4555555390377
  0
LINE
  5
6B0
330
A
100
AcDbEntity
  8
03
100
AcDbLine
 10
304.6286489076625
 20
434.2720754716981
 30
0.0
 11
304.6286489076625
 21
433.3320754716981
 31
0.0
  0
LINE
  5
6B1
330
A
100
AcDbEntity
  8
03
100
AcDbLine
 10
304.6286489076625
 20
433.3320754716981
 30
0.0
 11
304.1286489076625
 21
432.8320754716981
 31
0.0
  0
LINE
  5
6B2
330
A
100
AcDbEntity
  8
03
100
AcDbLine
 10
304.6286489076625
 20
430.3920754716981
 30
0.0
 11
304.6286489076625
 21
431.3320754716981
 31
0.0
  0
LINE
  5
6B3
330
A
100
AcDbEntity
  8
03
100
AcDbLine
 10
304.6286489076625
 20
431.3320754716981
 30
0.0
 11
304.1286489076625
 21
431.8320754716981
 31
0.0
  0
LINE
  5
6B4
330
A
100
AcDbEntity
  8
03
100
AcDbLine
 10
305.6286489076625
 20
434.2720754716981
 30
0.0
 11
305.6286489076625
 21
433.3320754716981
 31
0.0
  0
LINE
  5
6B5
330
A
100
AcDbEntity
  8
03
100
AcDbLine
 10
305.6286489076625
 20
433.3320754716981
 30
0.0
 11
306.1286489076625
 21
432.8320754716981
 31
0.0
  0
LINE
  5
6B6
330
A
100
AcDbEntity
  8
03
100
AcDbLine
 10
305.6286489076625
 20
430.3920754716981
 30
0.0
 11
305.6286489076625
 21
431.3320754716981
 31
0.0
  0
LINE
  5
6B7
330
A
100
AcDbEntity
  8
03
100
AcDbLine
 10
305.6286489076625
 20
431.3320754716981
 30
0.0
 11
306.1286489076625
 21
431.8320754716981
 31
0.0
  0
LINE
  5
6B8
330
A
100
AcDbEntity
  8
03
100
AcDbLine
 10
303.1886489076624
 20
432.8320754716981
 30
0.0
 11
304.1286489076625
 21
432.8320754716981
 31
0.0
  0
LINE
  5
6B9
330
A
100
AcDbEntity
  8
03
100
AcDbLine
 10
307.0686489076624
 20
432.8320754716981
 30
0.0
 11
306.1286489076625
 21
432.8320754716981
 31
0.0
  0
LINE
  5
6BA
330
A
100
AcDbEntity
  8
03
100
AcDbLine
 10
303.1886489076624
 20
431.8320754716981
 30
0.0
 11
304.1286489076625
 21
431.8320754716981
 31
0.0
  0
LINE
  5
6BB
330
A
100
AcDbEntity
  8
03
100
AcDbLine
 10
307.0686489076624
 20
431.8320754716981
 30
0.0
 11
306.1286489076625
 21
431.8320754716981
 31
0.0
  0
ARC
  5
6BC
330
A
100
AcDbEntity
  8
03
100
AcDbCircle
 10
305.1286489076625
 20
392.3320754716981
 30
0.0
 40
2.0
100
AcDbArc
 50
75.54444435812233
 51
104.4555554361975
  0
ARC
  5
6BD
330
A
100
AcDbEntity
  8
03
100
AcDbCircle
 10
305.1286489076625
 20
392.3320754716981
 30
0.0
 40
2.0
100
AcDbArc
 50
165.5444442552823
 51
194.4555553333575
  0
ARC
  5
6BE
330
A
100
AcDbEntity
  8
03
100
AcDbCircle
 10
305.1286489076625
 20
392.3320754716981
 30
0.0
 40
2.0
100
AcDbArc
 50
255.5444441524423
 51
284.4555552305176
  0
ARC
  5
6BF
330
A
100
AcDbEntity
  8
03
100
AcDbCircle
 10
305.1286489076625
 20
392.3320754716981
 30
0.0
 40
2.0
100
AcDbArc
 50
345.5444440496023
 51
14.4555555390377
  0
LINE
  5
6C0
330
A
100
AcDbEntity
  8
03
100
AcDbLine
 10
304.6286489076625
 20
394.2720754716981
 30
0.0
 11
304.6286489076625
 21
393.3320754716981
 31
0.0
  0
LINE
  5
6C1
330
A
100
AcDbEntity
  8
03
100
AcDbLine
 10
304.6286489076625
 20
393.3320754716981
 30
0.0
 11
304.1286489076625
 21
392.8320754716981
 31
0.0
  0
LINE
  5
6C2
330
A
100
AcDbEntity
  8
03
100
AcDbLine
 10
304.6286489076625
 20
390.3920754716981
 30
0.0
 11
304.6286489076625
 21
391.3320754716981
 31
0.0
  0
LINE
  5
6C3
330
A
100
AcDbEntity
  8
03
100
AcDbLine
 10
304.6286489076625
 20
391.3320754716981
 30
0.0
 11
304.1286489076625
 21
391.8320754716981
 31
0.0
  0
LINE
  5
6C4
330
A
100
AcDbEntity
  8
03
100
AcDbLine
 10
305.6286489076625
 20
394.2720754716981
 30
0.0
 11
305.6286489076625
 21
393.3320754716981
 31
0.0
  0
LINE
  5
6C5
330
A
100
AcDbEntity
  8
03
100
AcDbLine
 10
305.6286489076625
 20
393.3320754716981
 30
0.0
 11
306.1286489076625
 21
392.8320754716981
 31
0.0
  0
LINE
  5
6C6
330
A
100
AcDbEntity
  8
03
100
AcDbLine
 10
305.6286489076625
 20
390.3920754716981
 30
0.0
 11
305.6286489076625
 21
391.3320754716981
 31
0.0
  0
LINE
  5
6C7
330
A
100
AcDbEntity
  8
03
100
AcDbLine
 10
305.6286489076625
 20
391.3320754716981
 30
0.0
 11
306.1286489076625
 21
391.8320754716981
 31
0.0
  0
LINE
  5
6C8
330
A
100
AcDbEntity
  8
03
100
AcDbLine
 10
303.1886489076624
 20
392.8320754716981
 30
0.0
 11
304.1286489076625
 21
392.8320754716981
 31
0.0
  0
LINE
  5
6C9
330
A
100
AcDbEntity
  8
03
100
AcDbLine
 10
307.0686489076624
 20
392.8320754716981
 30
0.0
 11
306.1286489076625
 21
392.8320754716981
 31
0.0
  0
LINE
  5
6CA
330
A
100
AcDbEntity
  8
03
100
AcDbLine
 10
303.1886489076624
 20
391.8320754716981
 30
0.0
 11
304.1286489076625
 21
391.8320754716981
 31
0.0
  0
LINE
  5
6CB
330
A
100
AcDbEntity
  8
03
100
AcDbLine
 10
307.0686489076624
 20
391.8320754716981
 30
0.0
 11
306.1286489076625
 21
391.8320754716981
 31
0.0
  0
LINE
  5
6CC
330
A
100
AcDbEntity
  8
03
100
AcDbLine
 10
267.1286489076625
 20
352.8120754716981
 30
0.0
 11
267.1286489076625
 21
363.8320754716981
 31
0.0
  0
LINE
  5
6CD
330
A
100
AcDbEntity
  8
03
100
AcDbLine
 10
263.1286489076625
 20
352.8120754716981
 30
0.0
 11
263.1286489076625
 21
363.8320754716981
 31
0.0
  0
LINE
  5
6CE
330
A
100
AcDbEntity
  8
03
100
AcDbLine
 10
262.1286489076625
 20
351.8120754716981
 30
0.0
 11
263.1286489076625
 21
352.8120754716981
 31
0.0
  0
LINE
  5
6CF
330
A
100
AcDbEntity
  8
03
100
AcDbLine
 10
268.1286489076625
 20
351.8120754716981
 30
0.0
 11
267.1286489076625
 21
352.8120754716981
 31
0.0
  0
LINE
  5
6D0
330
A
100
AcDbEntity
  8
03
100
AcDbLine
 10
263.1286489076625
 20
352.8120754716981
 30
0.0
 11
267.1286489076625
 21
352.8120754716981
 31
0.0
  0
LINE
  5
6D1
330
A
100
AcDbEntity
  8
03
100
AcDbLine
 10
268.1286489076625
 20
469.8320754716981
 30
0.0
 11
267.1286489076625
 21
468.8320754716981
 31
0.0
  0
LINE
  5
6D2
330
A
100
AcDbEntity
  8
03
100
AcDbLine
 10
262.1286489076625
 20
469.8320754716981
 30
0.0
 11
263.1286489076625
 21
468.8320754716981
 31
0.0
  0
LINE
  5
6D3
330
A
100
AcDbEntity
  8
03
100
AcDbLine
 10
263.1286489076625
 20
468.8320754716981
 30
0.0
 11
263.1286489076625
 21
460.8320754716981
 31
0.0
  0
LINE
  5
6D4
330
A
100
AcDbEntity
  8
03
100
AcDbLine
 10
267.1286489076625
 20
468.8320754716981
 30
0.0
 11
267.1286489076625
 21
460.8320754716981
 31
0.0
  0
LINE
  5
6D5
330
A
100
AcDbEntity
  8
03
100
AcDbLine
 10
263.1286489076625
 20
468.8320754716981
 30
0.0
 11
267.1286489076625
 21
468.8320754716981
 31
0.0
  0
LINE
  5
6D6
330
A
100
AcDbEntity
  8
KAKURE
100
AcDbLine
 10
298.6286489076625
 20
462.3320754716981
 30
0.0
 11
311.6286489076625
 21
462.3320754716981
 31
0.0
  0
LINE
  5
6D7
330
A
100
AcDbEntity
  8
KAKURE
100
AcDbLine
 10
311.6286489076625
 20
462.3320754716981
 30
0.0
 11
311.6286489076625
 21
362.3320754716981
 31
0.0
  0
LINE
  5
6D8
330
A
100
AcDbEntity
  8
KAKURE
100
AcDbLine
 10
311.6286489076625
 20
362.3320754716981
 30
0.0
 11
298.6286489076625
 21
362.3320754716981
 31
0.0
  0
LINE
  5
6D9
330
A
100
AcDbEntity
  8
KAKURE
100
AcDbLine
 10
298.6286489076625
 20
362.3320754716981
 30
0.0
 11
298.6286489076625
 21
462.3320754716981
 31
0.0
  0
TEXT
  5
6E7
330
A
100
AcDbEntity
  8
MOJI
100
AcDbText
 10
273.1944431558981
 20
429.1199576315084
 30
0.0
 40
5.0
  1
通線口
 41
0.8
  7
0_8
 11
273.1944431558981
 21
431.6199576315083
 31
0.0
100
AcDbText
 73
     2
  0
TEXT
  5
6FF
330
A
100
AcDbEntity
  8
MOJI
100
AcDbText
 10
144.9999999999999
 20
73.03569140143659
 30
0.0
 40
6.0
  1
片引扉質量　５０ｋｇ×１
 41
0.8
  7
0_8
 11
144.9999999999999
 21
76.03569140143659
 31
0.0
100
AcDbText
 73
     2
  0
TEXT
  5
701
330
A
100
AcDbEntity
  8
MOJI
100
AcDbText
 10
144.9999999999999
 20
63.03569140143659
 30
0.0
 40
6.0
  1
両引扉質量　３０ｋｇ×２
 41
0.8
  7
0_8
 11
144.9999999999999
 21
66.03569140143659
 31
0.0
100
AcDbText
 73
     2
  0
LINE
  5
703
330
A
100
AcDbEntity
  8
03
100
AcDbLine
 10
120.6729986021495
 20
480.8520754716981
 30
0.0
 11
115.6729986021495
 21
480.8520754716981
 31
0.0
  0
LINE
  5
704
330
A
100
AcDbEntity
  8
03
100
AcDbLine
 10
120.6729986021495
 20
480.8520754716981
 30
0.0
 11
122.6729986021497
 21
480.8520754716981
 31
0.0
  0
LINE
  5
705
330
A
100
AcDbEntity
  8
03
100
AcDbLine
 10
122.6729986021497
 20
480.8520754716981
 30
0.0
 11
123.6729986021497
 21
479.8520754716981
 31
0.0
  0
ARC
  5
706
330
A
100
AcDbEntity
  8
03
100
AcDbCircle
 10
118.2129986021499
 20
485.3320754716981
 30
0.0
 40
4.0
100
AcDbArc
 50
217.6777775290446
 51
230.6666664030915
  0
ARC
  5
707
330
A
100
AcDbEntity
  8
03
100
AcDbCircle
 10
118.2129986021499
 20
485.3320754716981
 30
0.0
 40
4.0
100
AcDbArc
 50
335.7444440608005
 51
52.09999994046704
  0
ARC
  5
708
330
A
100
AcDbEntity
  8
03
100
AcDbCircle
 10
118.2129986021499
 20
485.3320754716981
 30
0.0
 40
4.0
100
AcDbArc
 50
307.899999648173
 51
322.3222218539153
  0
LINE
  5
709
330
A
100
AcDbEntity
  8
03
100
AcDbLine
 10
121.3729986021497
 20
482.8920754716981
 30
0.0
 11
120.6729986021495
 21
483.2920754716981
 31
0.0
  0
LINE
  5
70A
330
A
100
AcDbEntity
  8
03
100
AcDbLine
 10
121.8529986021497
 20
483.6920754716981
 30
0.0
 11
120.6529986021497
 21
484.3720754716981
 31
0.0
  0
LINE
  5
70B
330
A
100
AcDbEntity
  8
03
100
AcDbLine
 10
115.0529986021499
 20
482.8920754716981
 30
0.0
 11
115.6729986021495
 21
483.2520754716981
 31
0.0
  0
LINE
  5
70C
330
A
100
AcDbEntity
  8
03
100
AcDbLine
 10
114.5729986021499
 20
483.6920754716981
 30
0.0
 11
115.6529986021497
 21
484.3120754716982
 31
0.0
  0
LINE
  5
70D
330
A
100
AcDbEntity
  8
03
100
AcDbLine
 10
123.6729986021497
 20
471.8920754716982
 30
0.0
 11
123.6729986021497
 21
479.8520754716981
 31
0.0
  0
LINE
  5
70E
330
A
100
AcDbEntity
  8
03
100
AcDbLine
 10
113.6729986021497
 20
472.8920754716981
 30
0.0
 11
122.6729986021497
 21
472.8920754716981
 31
0.0
  0
LINE
  5
70F
330
A
100
AcDbEntity
  8
03
100
AcDbLine
 10
122.6729986021497
 20
471.8920754716982
 30
0.0
 11
122.6729986021497
 21
472.8920754716981
 31
0.0
  0
LINE
  5
710
330
A
100
AcDbEntity
  8
03
100
AcDbLine
 10
122.6729986021497
 20
471.8920754716982
 30
0.0
 11
123.6729986021497
 21
471.8920754716982
 31
0.0
  0
LINE
  5
711
330
A
100
AcDbEntity
  8
03
100
AcDbLine
 10
113.6729986021497
 20
471.8920754716982
 30
0.0
 11
113.6729986021497
 21
472.8920754716981
 31
0.0
  0
LINE
  5
712
330
A
100
AcDbEntity
  8
03
100
AcDbLine
 10
112.6729986021497
 20
471.8920754716982
 30
0.0
 11
113.6729986021497
 21
471.8920754716982
 31
0.0
  0
LINE
  5
713
330
A
100
AcDbEntity
  8
03
100
AcDbLine
 10
112.6729986021497
 20
471.8920754716982
 30
0.0
 11
112.6729986021497
 21
479.8520754716981
 31
0.0
  0
LINE
  5
714
330
A
100
AcDbEntity
  8
03
100
AcDbLine
 10
115.6729986021495
 20
480.8520754716981
 30
0.0
 11
113.6729986021497
 21
480.8520754716981
 31
0.0
  0
LINE
  5
715
330
A
100
AcDbEntity
  8
03
100
AcDbLine
 10
113.6729986021497
 20
480.8520754716981
 30
0.0
 11
112.6729986021497
 21
479.8520754716981
 31
0.0
  0
LINE
  5
716
330
A
100
AcDbEntity
  8
03
100
AcDbLine
 10
123.1129986021501
 20
480.3920754716981
 30
0.0
 11
112.6729986021497
 21
471.8920754716982
 31
0.0
  0
LINE
  5
717
330
A
100
AcDbEntity
  8
03
100
AcDbLine
 10
107.2129986021499
 20
489.8320754716981
 30
0.0
 11
107.2129986021499
 21
488.3320754716981
 31
0.0
  0
LINE
  5
718
330
A
100
AcDbEntity
  8
03
100
AcDbLine
 10
110.2129986021497
 20
486.3320754716981
 30
0.0
 11
110.2129986021497
 21
488.3320754716981
 31
0.0
  0
LINE
  5
719
330
A
100
AcDbEntity
  8
03
100
AcDbLine
 10
110.2129986021497
 20
488.3320754716981
 30
0.0
 11
107.2129986021499
 21
488.3320754716981
 31
0.0
  0
LINE
  5
71A
330
A
100
AcDbEntity
  8
03
100
AcDbLine
 10
110.2129986021497
 20
486.3320754716981
 30
0.0
 11
109.71299860215
 21
486.3320754716981
 31
0.0
  0
LINE
  5
71B
330
A
100
AcDbEntity
  8
03
100
AcDbLine
 10
109.71299860215
 20
485.8520754716981
 30
0.0
 11
109.71299860215
 21
486.3320754716981
 31
0.0
  0
LINE
  5
71C
330
A
100
AcDbEntity
  8
03
100
AcDbLine
 10
111.8529986021497
 20
481.7520754716981
 30
0.0
 11
110.6129986021501
 21
482.9920754716981
 31
0.0
  0
LINE
  5
71D
330
A
100
AcDbEntity
  8
03
100
AcDbLine
 10
107.2129986021499
 20
489.8320754716981
 30
0.0
 11
115.6729986021495
 21
489.8320754716981
 31
0.0
  0
ARC
  5
71E
330
A
100
AcDbEntity
  8
03
100
AcDbCircle
 10
114.71299860215
 20
485.8520754716981
 30
0.0
 40
5.0
100
AcDbArc
 50
179.9999997943199
 51
269.99999969148
  0
ARC
  5
71F
330
A
100
AcDbEntity
  8
03
100
AcDbCircle
 10
118.2129986021499
 20
485.3320754716981
 30
0.0
 40
4.0
100
AcDbArc
 50
129.3333331855484
 51
204.2555553221594
  0
LINE
  5
720
330
A
100
AcDbEntity
  8
03
100
AcDbLine
 10
129.2129986021496
 20
489.8320754716981
 30
0.0
 11
120.6729986021495
 21
489.8320754716981
 31
0.0
  0
LINE
  5
721
330
A
100
AcDbEntity
  8
03
100
AcDbLine
 10
126.2129986021496
 20
486.3320754716981
 30
0.0
 11
126.7129986021497
 21
486.3320754716981
 31
0.0
  0
LINE
  5
722
330
A
100
AcDbEntity
  8
03
100
AcDbLine
 10
126.7129986021497
 20
485.8520754716981
 30
0.0
 11
126.7129986021497
 21
486.3320754716981
 31
0.0
  0
ARC
  5
723
330
A
100
AcDbEntity
  8
03
100
AcDbCircle
 10
121.7129986021497
 20
485.8520754716981
 30
0.0
 40
5.0
100
AcDbArc
 50
269.99999969148
 51
359.9999995886399
  0
LINE
  5
724
330
A
100
AcDbEntity
  8
03
100
AcDbLine
 10
129.2129986021496
 20
488.3320754716981
 30
0.0
 11
129.2129986021496
 21
489.8320754716981
 31
0.0
  0
LINE
  5
725
330
A
100
AcDbEntity
  8
03
100
AcDbLine
 10
150.4329986021498
 20
341.5320754716982
 30
0.0
 11
150.4329986021498
 21
347.1320754716981
 31
0.0
  0
LINE
  5
726
330
A
100
AcDbEntity
  8
03
100
AcDbLine
 10
150.4329986021498
 20
347.1320754716981
 30
0.0
 11
151.43299860215
 21
347.1320754716981
 31
0.0
  0
LINE
  5
727
330
A
100
AcDbEntity
  8
03
100
AcDbLine
 10
151.43299860215
 20
347.1320754716981
 30
0.0
 11
151.43299860215
 21
341.5320754716982
 31
0.0
  0
LINE
  5
728
330
A
100
AcDbEntity
  8
03
100
AcDbLine
 10
150.4329986021498
 20
341.5320754716982
 30
0.0
 11
151.43299860215
 21
341.5320754716982
 31
0.0
  0
LINE
  5
729
330
A
100
AcDbEntity
  8
03
100
AcDbLine
 10
147.1729986021498
 20
342.8320754716981
 30
0.0
 11
150.43299860215
 21
342.8320754716981
 31
0.0
  0
LINE
  5
72A
330
A
100
AcDbEntity
  8
03
100
AcDbLine
 10
147.1729986021498
 20
343.3320754716981
 30
0.0
 11
150.43299860215
 21
343.3320754716981
 31
0.0
  0
LINE
  5
72B
330
A
100
AcDbEntity
  8
03
100
AcDbLine
 10
147.1729986021498
 20
344.3320754716981
 30
0.0
 11
150.43299860215
 21
344.3320754716981
 31
0.0
  0
LINE
  5
72C
330
A
100
AcDbEntity
  8
03
100
AcDbLine
 10
147.1729986021498
 20
344.8320754716981
 30
0.0
 11
150.43299860215
 21
344.8320754716981
 31
0.0
  0
LINE
  5
72D
330
A
100
AcDbEntity
  8
03
100
AcDbLine
 10
147.1729986021498
 20
345.3320754716981
 30
0.0
 11
150.43299860215
 21
345.3320754716981
 31
0.0
  0
LINE
  5
72E
330
A
100
AcDbEntity
  8
03
100
AcDbLine
 10
147.1729986021498
 20
345.8320754716981
 30
0.0
 11
150.43299860215
 21
345.8320754716981
 31
0.0
  0
LINE
  5
72F
330
A
100
AcDbEntity
  8
03
100
AcDbLine
 10
147.1729986021498
 20
343.8320754716981
 30
0.0
 11
150.43299860215
 21
343.8320754716981
 31
0.0
  0
LINE
  5
73D
330
A
100
AcDbEntity
  8
03
100
AcDbLine
 10
116.4729986021497
 20
481.6520754716981
 30
0.0
 11
119.8729986021497
 21
481.6520754716981
 31
0.0
  0
LINE
  5
741
330
A
100
AcDbEntity
  8
03
100
AcDbLine
 10
120.6729986021495
 20
480.8520754716981
 30
0.0
 11
120.6729986021495
 21
496.9120754716981
 31
0.0
  0
LINE
  5
742
330
A
100
AcDbEntity
  8
03
100
AcDbLine
 10
115.6729986021495
 20
480.8520754716981
 30
0.0
 11
115.6729986021495
 21
496.9120754716981
 31
0.0
  0
LINE
  5
743
330
A
100
AcDbEntity
  8
03
100
AcDbLine
 10
119.8729986021497
 20
481.6520754716981
 30
0.0
 11
119.8729986021497
 21
496.9120754716981
 31
0.0
  0
LINE
  5
744
330
A
100
AcDbEntity
  8
03
100
AcDbLine
 10
116.4729986021497
 20
481.6520754716981
 30
0.0
 11
116.4729986021497
 21
496.9120754716981
 31
0.0
  0
LINE
  5
750
330
A
100
AcDbEntity
  8
CHUSIN
100
AcDbLine
 10
118.1729986021496
 20
499.7520754716981
 30
0.0
 11
118.1729986021496
 21
458.5720754716981
 31
0.0
  0
LINE
  5
755
330
A
100
AcDbEntity
  8
03
100
AcDbLine
 10
104.17299860215
 20
489.8320754716981
 30
0.0
 11
107.1729986021497
 21
489.8320754716981
 31
0.0
  0
LINE
  5
756
330
A
100
AcDbEntity
  8
03
100
AcDbLine
 10
106.2129986021496
 20
488.8320754716981
 30
0.0
 11
104.4929986021496
 21
488.8320754716981
 31
0.0
  0
LINE
  5
757
330
A
100
AcDbEntity
  8
03
100
AcDbLine
 10
107.2129986021499
 20
488.3320754716981
 30
0.0
 11
110.2129986021497
 21
488.3320754716981
 31
0.0
  0
LINE
  5
758
330
A
100
AcDbEntity
  8
03
100
AcDbLine
 10
110.2129986021497
 20
488.3320754716981
 30
0.0
 11
110.2129986021497
 21
486.3320754716981
 31
0.0
  0
LINE
  5
759
330
A
100
AcDbEntity
  8
03
100
AcDbLine
 10
110.2129986021497
 20
486.3320754716981
 30
0.0
 11
107.2129986021499
 21
486.3320754716981
 31
0.0
  0
LINE
  5
75A
330
A
100
AcDbEntity
  8
03
100
AcDbLine
 10
107.2129986021499
 20
496.9120754716981
 30
0.0
 11
107.2129986021499
 21
488.3320754716981
 31
0.0
  0
LINE
  5
75B
330
A
100
AcDbEntity
  8
03
100
AcDbLine
 10
129.2129986021496
 20
488.3320754716981
 30
0.0
 11
126.2129986021496
 21
488.3320754716981
 31
0.0
  0
LINE
  5
75C
330
A
100
AcDbEntity
  8
03
100
AcDbLine
 10
126.2129986021496
 20
486.3320754716981
 30
0.0
 11
126.2129986021496
 21
488.3320754716981
 31
0.0
  0
LINE
  5
75D
330
A
100
AcDbEntity
  8
03
100
AcDbLine
 10
106.2129986021496
 20
488.8320754716981
 30
0.0
 11
106.2129986021496
 21
467.3920754716981
 31
0.0
  0
ARC
  5
75E
330
A
100
AcDbEntity
  8
03
100
AcDbCircle
 10
106.7129986021496
 20
467.3920754716981
 30
0.0
 40
0.5
100
AcDbArc
 50
179.9999997943199
 51
275.7333330182621
  0
LINE
  5
75F
330
A
100
AcDbEntity
  8
03
100
AcDbLine
 10
107.2129986021499
 20
486.3320754716981
 30
0.0
 11
107.2129986021499
 21
467.7320754716981
 31
0.0
  0
LINE
  5
760
330
A
100
AcDbEntity
  8
03
100
AcDbLine
 10
116.1729986021498
 20
468.6520754716981
 30
0.0
 11
116.1729986021498
 21
467.8320754716981
 31
0.0
  0
LINE
  5
761
330
A
100
AcDbEntity
  8
03
100
AcDbLine
 10
116.1729986021498
 20
467.8320754716981
 30
0.0
 11
106.7529986021497
 21
466.8920754716981
 31
0.0
  0
LINE
  5
762
330
A
100
AcDbEntity
  8
03
100
AcDbLine
 10
116.1729986021498
 20
468.6520754716981
 30
0.0
 11
107.2129986021499
 21
467.7320754716981
 31
0.0
  0
LINE
  5
763
330
A
100
AcDbEntity
  8
03
100
AcDbLine
 10
83.17299860214959
 20
474.8320754716981
 30
0.0
 11
104.17299860215
 21
489.8320754716981
 31
0.0
  0
LINE
  5
764
330
A
100
AcDbEntity
  8
03
100
AcDbLine
 10
104.4929986021496
 20
488.8320754716981
 30
0.0
 11
84.17299860215004
 21
474.3120754716981
 31
0.0
  0
LINE
  5
765
330
A
100
AcDbEntity
  8
03
100
AcDbLine
 10
84.17299860215004
 20
470.8320754716981
 30
0.0
 11
84.17299860215004
 21
474.3120754716981
 31
0.0
  0
LINE
  5
766
330
A
100
AcDbEntity
  8
03
100
AcDbLine
 10
84.17299860215004
 20
470.8320754716981
 30
0.0
 11
86.17299860214982
 21
470.8320754716981
 31
0.0
  0
LINE
  5
767
330
A
100
AcDbEntity
  8
03
100
AcDbLine
 10
84.71299860214953
 20
467.3320754716981
 30
0.0
 11
85.87299860214988
 21
467.3320754716981
 31
0.0
  0
ARC
  5
768
330
A
100
AcDbEntity
  8
03
100
AcDbCircle
 10
86.17299860214982
 20
469.8320754716981
 30
0.0
 40
1.0
100
AcDbArc
 50
330.0111107340183
 51
89.99999989716
  0
LINE
  5
769
330
A
100
AcDbEntity
  8
03
100
AcDbLine
 10
85.87299860214988
 20
467.3320754716981
 30
0.0
 11
87.03299860214995
 21
469.3320754716981
 31
0.0
  0
LINE
  5
76A
330
A
100
AcDbEntity
  8
03
100
AcDbLine
 10
129.1729986021497
 20
496.9120754716981
 30
0.0
 11
129.1729986021497
 21
488.3320754716981
 31
0.0
  0
LINE
  5
76B
330
A
100
AcDbEntity
  8
03
100
AcDbLine
 10
117.6129986021497
 20
346.8320754716983
 30
0.0
 11
112.1129986021497
 21
346.8320754716983
 31
0.0
  0
LINE
  5
76C
330
A
100
AcDbEntity
  8
03
100
AcDbLine
 10
117.6129986021497
 20
345.8320754716981
 30
0.0
 11
112.1129986021497
 21
345.8320754716981
 31
0.0
  0
ARC
  5
76D
330
A
100
AcDbEntity
  8
03
100
AcDbCircle
 10
117.6129986021497
 20
346.3320754716981
 30
0.0
 40
0.5
100
AcDbArc
 50
269.9999999999997
 51
89.99999999999992
  0
ARC
  5
76E
330
A
100
AcDbEntity
  8
03
100
AcDbCircle
 10
111.6129986021497
 20
347.3320754716983
 30
0.0
 40
0.5
100
AcDbArc
 50
359.9999999999996
 51
179.9999999999996
  0
LINE
  5
76F
330
A
100
AcDbEntity
  8
03
100
AcDbLine
 10
112.1129986021497
 20
347.3320754716983
 30
0.0
 11
112.1129986021497
 21
346.8320754716983
 31
0.0
  0
LINE
  5
770
330
A
100
AcDbEntity
  8
03
100
AcDbLine
 10
112.1129986021497
 20
345.8320754716981
 30
0.0
 11
112.1129986021497
 21
343.8320754716979
 31
0.0
  0
LINE
  5
771
330
A
100
AcDbEntity
  8
03
100
AcDbLine
 10
111.1129986021497
 20
342.3320754716983
 30
0.0
 11
111.1129986021497
 21
347.3320754716983
 31
0.0
  0
ARC
  5
772
330
A
100
AcDbEntity
  8
03
100
AcDbCircle
 10
111.6129986021497
 20
342.3320754716983
 30
0.0
 40
0.5
100
AcDbArc
 50
179.9999999999996
 51
359.9999999999996
  0
LINE
  5
773
330
A
100
AcDbEntity
  8
03
100
AcDbLine
 10
112.1129986021497
 20
342.8320754716983
 30
0.0
 11
112.1129986021497
 21
342.3320754716983
 31
0.0
  0
LINE
  5
774
330
A
100
AcDbEntity
  8
03
100
AcDbLine
 10
117.6129986021497
 20
342.8320754716983
 30
0.0
 11
112.1129986021497
 21
342.8320754716983
 31
0.0
  0
LINE
  5
775
330
A
100
AcDbEntity
  8
03
100
AcDbLine
 10
117.6129986021497
 20
343.8320754716981
 30
0.0
 11
112.1129986021497
 21
343.8320754716979
 31
0.0
  0
ARC
  5
776
330
A
100
AcDbEntity
  8
03
100
AcDbCircle
 10
117.6129986021497
 20
343.3320754716981
 30
0.0
 40
0.5
100
AcDbArc
 50
269.9999999999997
 51
89.99999999999992
  0
POLYLINE
  5
906
330
A
100
AcDbEntity
  8
DEFPOINTS
100
AcDb2dPolyline
 66
     1
 10
0.0
 20
0.0
 30
0.0
 70
     1
  0
VERTEX
  5
1D98
330
906
100
AcDbEntity
  8
DEFPOINTS
100
AcDbVertex
100
AcDb2dVertex
 10
0.0
 20
0.0
 30
0.0
  0
VERTEX
  5
1D99
330
906
100
AcDbEntity
  8
DEFPOINTS
100
AcDbVertex
100
AcDb2dVertex
 10
420.0
 20
0.0
 30
0.0
  0
VERTEX
  5
1D9A
330
906
100
AcDbEntity
  8
DEFPOINTS
100
AcDbVertex
100
AcDb2dVertex
 10
420.0
 20
594.0
 30
0.0
  0
VERTEX
  5
1D9B
330
906
100
AcDbEntity
  8
DEFPOINTS
100
AcDbVertex
100
AcDb2dVertex
 10
0.0
 20
594.0
 30
0.0
  0
SEQEND
  5
1D9C
330
906
100
AcDbEntity
  8
DEFPOINTS
  0
DIMENSION
  5
90D
330
A
100
AcDbEntity
  8
SUNPOU
100
AcDbDimension
  2
*D1
 10
63.17299860214983
 20
356.8320754716981
 30
0.0
 11
58.67299860214979
 21
348.3320754716981
 31
0.0
 70
    32
  3
SUNPOU_2
100
AcDbAlignedDimension
 13
83.17299860214985
 23
339.8320754716982
 33
0.0
 14
89.4729986026884
 24
356.8320754716981
 34
0.0
 50
90.0
100
AcDbRotatedDimension
  0
DIMENSION
  5
923
330
A
100
AcDbEntity
  8
SUNPOU
100
AcDbDimension
  2
*D2
 10
63.17299860214987
 20
461.8320754716982
 30
0.0
 11
58.67299860214981
 21
409.3320754716981
 31
0.0
 70
    32
  3
SUNPOU_2
100
AcDbAlignedDimension
 13
89.4729986026884
 23
356.8320754716981
 33
0.0
 14
87.17299860573964
 24
461.8320754716982
 34
0.0
 50
90.0
100
AcDbRotatedDimension
  0
DIMENSION
  5
930
330
A
100
AcDbEntity
  8
SUNPOU
100
AcDbDimension
  2
*D3
 10
63.17299860214987
 20
464.8320754716981
 30
0.0
 11
55.6729986021498
 21
463.3320754716981
 31
0.0
 70
    32
  3
SUNPOU_2
100
AcDbAlignedDimension
 13
87.17299860573964
 23
461.8320754716982
 33
0.0
 14
87.17299859497021
 24
464.8320754716981
 34
0.0
 50
90.0
100
AcDbRotatedDimension
  0
DIMENSION
  5
93F
330
A
100
AcDbEntity
  8
SUNPOU
100
AcDbDimension
  2
*D4
 10
47.17299860214985
 20
469.8320754716981
 30
0.0
 11
42.67299860214976
 21
404.8320754716981
 31
0.0
 70
    32
  3
SUNPOU_2
100
AcDbAlignedDimension
 13
83.17299860214985
 23
339.8320754716982
 33
0.0
 14
83.17299860214985
 24
469.8320754716981
 34
0.0
 50
90.0
100
AcDbRotatedDimension
  0
DIMENSION
  5
94C
330
A
100
AcDbEntity
  8
SUNPOU
100
AcDbDimension
  2
*D5
 10
63.17299860214983
 20
277.2754716981131
 30
0.0
 11
58.67299860214981
 21
223.5537735849057
 31
0.0
 70
    32
  1
600
  3
SUNPOU_2
100
AcDbAlignedDimension
 13
115.1729986021498
 23
169.8320754716981
 33
0.0
 14
89.94189741762843
 24
277.2754716981131
 34
0.0
 50
90.0
100
AcDbRotatedDimension
  0
DIMENSION
  5
959
330
A
100
AcDbEntity
  8
SUNPOU
100
AcDbDimension
  2
*D6
 10
185.1729986021498
 20
179.832075471698
 30
0.0
 11
180.6729986021498
 21
174.8320754716981
 31
0.0
 70
    32
  3
SUNPOU_2
100
AcDbAlignedDimension
 13
153.1729986021498
 23
169.8320754716981
 33
0.0
 14
147.1729986021498
 24
179.832075471698
 34
0.0
 50
90.0
100
AcDbRotatedDimension
  0
DIMENSION
  5
968
330
A
100
AcDbEntity
  8
SUNPOU
100
AcDbDimension
  2
*D7
 10
185.1729986021499
 20
339.8320754716982
 30
0.0
 11
180.6729986021498
 21
259.8320754716981
 31
0.0
 70
    32
  1
DH
  3
SUNPOU_2
100
AcDbAlignedDimension
 13
147.1729986021498
 23
179.832075471698
 33
0.0
 14
153.1729986021498
 24
339.8320754716982
 34
0.0
 50
90.0
100
AcDbRotatedDimension
  0
DIMENSION
  5
975
330
A
100
AcDbEntity
  8
SUNPOU
100
AcDbDimension
  2
*D8
 10
185.1729986021499
 20
349.8320754716981
 30
0.0
 11
180.6729986021498
 21
344.8320754716981
 31
0.0
 70
    32
  3
SUNPOU_2
100
AcDbAlignedDimension
 13
153.1729986021498
 23
339.8320754716982
 33
0.0
 14
147.1729986021498
 24
349.8320754716981
 34
0.0
 50
90.0
100
AcDbRotatedDimension
  0
DIMENSION
  5
984
330
A
100
AcDbEntity
  8
SUNPOU
100
AcDbDimension
  2
*D9
 10
201.1729986021498
 20
339.8320754716982
 30
0.0
 11
196.6729986021498
 21
254.8320754716981
 31
0.0
 70
    32
  1
H
  3
SUNPOU_2
100
AcDbAlignedDimension
 13
201.1729986021498
 23
169.8320754716981
 33
0.0
 14
153.1729986021498
 24
339.8320754716982
 34
0.0
 50
90.0
100
AcDbRotatedDimension
  0
DIMENSION
  5
991
330
A
100
AcDbEntity
  8
SUNPOU
100
AcDbDimension
  2
*D10
 10
201.1729986021498
 20
489.8320754716981
 30
0.0
 11
196.6729986021498
 21
414.8320754716981
 31
0.0
 70
    32
  3
SUNPOU_2
100
AcDbAlignedDimension
 13
153.1729986021498
 23
339.8320754716982
 33
0.0
 14
153.1729986021498
 24
489.8320754716981
 34
0.0
 50
90.0
100
AcDbRotatedDimension
  0
DIMENSION
  5
99E
330
A
100
AcDbEntity
  8
SUNPOU
100
AcDbDimension
  2
*D11
 10
132.6729986021497
 20
319.0634648370496
 30
0.0
 11
107.9229986021498
 21
323.5634648370496
 31
0.0
 70
    32
  3
SUNPOU_2
100
AcDbAlignedDimension
 13
83.17299860214985
 23
339.8320754716982
 33
0.0
 14
132.6729986021497
 24
319.0634648370496
 34
0.0
100
AcDbRotatedDimension
  0
DIMENSION
  5
9AB
330
A
100
AcDbEntity
  8
SUNPOU
100
AcDbDimension
  2
*D12
 10
153.1729986021498
 20
319.0634648370496
 30
0.0
 11
142.9229986021498
 21
323.5634648370496
 31
0.0
 70
    32
  3
SUNPOU_2
100
AcDbAlignedDimension
 13
132.6729986021497
 23
319.0634648370496
 33
0.0
 14
153.1729986021498
 24
339.8320754716982
 34
0.0
100
AcDbRotatedDimension
  0
DIMENSION
  5
9D4
330
A
100
AcDbEntity
  8
SUNPOU
100
AcDbDimension
  2
*D13
 10
230.1286489076625
 20
412.3320754716981
 30
0.0
 11
225.6286489076623
 21
376.0820754716981
 31
0.0
 70
    32
  3
SUNPOU_2
100
AcDbAlignedDimension
 13
250.1286489076623
 23
339.8320754716982
 33
0.0
 14
240.353875256103
 24
412.3320754716981
 34
0.0
 50
90.0
100
AcDbRotatedDimension
  0
DIMENSION
  5
9E1
330
A
100
AcDbEntity
  8
SUNPOU
100
AcDbDimension
  2
*D14
 10
305.1286489076625
 20
319.4885764499121
 30
0.0
 11
277.6286489076625
 21
323.9885764499121
 31
0.0
 70
    32
  3
SUNPOU_2
100
AcDbAlignedDimension
 13
250.1286489076623
 23
339.8320754716982
 33
0.0
 14
305.1286489076625
 24
362.1729559748426
 34
0.0
100
AcDbRotatedDimension
  0
DIMENSION
  5
9EE
330
A
100
AcDbEntity
  8
SUNPOU
100
AcDbDimension
  2
*D15
 10
320.1286489076625
 20
319.4885764499121
 30
0.0
 11
312.6286489076625
 21
323.9885764499121
 31
0.0
 70
    32
  3
SUNPOU_2
100
AcDbAlignedDimension
 13
305.1286489076625
 23
362.1729559748426
 33
0.0
 14
320.1286489076625
 24
339.8320754716982
 34
0.0
100
AcDbRotatedDimension
  0
DIMENSION
  5
9FB
330
A
100
AcDbEntity
  8
SUNPOU
100
AcDbDimension
  2
*D16
 10
340.1286489076625
 20
377.3320754716981
 30
0.0
 11
335.6286489076623
 21
354.0509947411107
 31
0.0
 70
   160
  3
SUNPOU_2
100
AcDbAlignedDimension
 13
320.1286489076625
 23
339.8320754716982
 33
0.0
 14
314.4886489076625
 24
377.3320754716981
 34
0.0
 50
90.0
100
AcDbRotatedDimension
  0
DIMENSION
  5
A08
330
A
100
AcDbEntity
  8
SUNPOU
100
AcDbDimension
  2
*D17
 10
340.1286489076625
 20
392.3320754716981
 30
0.0
 11
335.6286489076623
 21
384.8320754716981
 31
0.0
 70
    32
  3
SUNPOU_2
100
AcDbAlignedDimension
 13
314.4886489076625
 23
377.3320754716981
 33
0.0
 14
313.4086489076624
 24
392.3320754716981
 34
0.0
 50
90.0
100
AcDbRotatedDimension
  0
DIMENSION
  5
A15
330
A
100
AcDbEntity
  8
SUNPOU
100
AcDbDimension
  2
*D18
 10
340.1286489076625
 20
432.3320754716981
 30
0.0
 11
335.6286489076623
 21
412.3320754716981
 31
0.0
 70
    32
  3
SUNPOU_2
100
AcDbAlignedDimension
 13
313.4086489076624
 23
392.3320754716981
 33
0.0
 14
313.4086489076624
 24
432.3320754716981
 34
0.0
 50
90.0
100
AcDbRotatedDimension
  0
DIMENSION
  5
A22
330
A
100
AcDbEntity
  8
SUNPOU
100
AcDbDimension
  2
*D19
 10
340.1286489076625
 20
447.3320754716981
 30
0.0
 11
335.6286489076623
 21
439.8320754716983
 31
0.0
 70
    32
  3
SUNPOU_2
100
AcDbAlignedDimension
 13
313.4086489076624
 23
432.3320754716981
 33
0.0
 14
314.4886489076625
 24
447.3320754716981
 34
0.0
 50
90.0
100
AcDbRotatedDimension
  0
DIMENSION
  5
A2F
330
A
100
AcDbEntity
  8
SUNPOU
100
AcDbDimension
  2
*D20
 10
356.1286489076625
 20
462.3320754716981
 30
0.0
 11
351.6286489076623
 21
412.3320754716981
 31
0.0
 70
    32
  3
SUNPOU_2
100
AcDbAlignedDimension
 13
311.6286489076625
 23
362.3320754716981
 33
0.0
 14
311.6286489076625
 24
462.3320754716981
 34
0.0
 50
90.0
100
AcDbRotatedDimension
  0
DIMENSION
  5
A3C
330
A
100
AcDbEntity
  8
SUNPOU
100
AcDbDimension
  2
*D21
 10
290.3078715290281
 20
359.8320754716981
 30
0.0
 11
285.8464559363728
 21
349.7495758584093
 31
0.0
 70
   160
  3
SUNPOU_2
100
AcDbAlignedDimension
 13
279.8286489076625
 23
356.8320754716981
 33
0.0
 14
290.3078715290281
 24
359.8320754716981
 34
0.0
 50
90.0
100
AcDbRotatedDimension
  0
DIMENSION
  5
A58
330
A
100
AcDbEntity
  8
SUNPOU
100
AcDbDimension
  2
*D22
 10
279.6286489076625
 20
389.0931217082627
 30
0.0
 11
264.8786489076625
 21
393.5931217082627
 31
0.0
 70
    32
  3
SUNPOU_2
100
AcDbAlignedDimension
 13
250.1286489076623
 23
389.0931217082627
 33
0.0
 14
279.6286489076625
 24
389.0931217082627
 34
0.0
100
AcDbRotatedDimension
  0
DIMENSION
  5
AA0
330
A
100
AcDbEntity
  8
SUNPOU
100
AcDbDimension
  2
*D23
 10
141.1729986021498
 20
119.8320754716982
 30
0.0
 11
132.6729986021497
 21
124.3320754716982
 31
0.0
 70
    32
  3
SUNPOU_2
100
AcDbAlignedDimension
 13
124.1729986021497
 23
147.832075471698
 33
0.0
 14
141.1729986021498
 24
147.832075471698
 34
0.0
100
AcDbRotatedDimension
  0
DIMENSION
  5
AC9
330
A
100
AcDbEntity
  8
SUNPOU
100
AcDbDimension
  2
*D24
 10
153.1729986021498
 20
303.0634648370496
 30
0.0
 11
109.5369392773309
 21
307.5634648370496
 31
0.0
 70
   160
  3
SUNPOU_2
100
AcDbAlignedDimension
 13
83.17299860214985
 23
339.8320754716982
 33
0.0
 14
153.1729986021498
 24
339.832075471698
 34
0.0
100
AcDbRotatedDimension
  0
MTEXT
  5
B03
330
A
100
AcDbEntity
  8
HIKIDASI
100
AcDbMText
 10
164.6294462621242
 20
372.3320754716981
 30
0.0
 40
5.0
 41
0.0
 71
     1
 72
     1
  1
\A1;
  7
SUNPOU
1001
ACAD
1000
MTEXTBEGIN
1070
    73
1070
     1
1070
    44
1040
1.0
1070
    74
1070
     0
1000
MTEXTEND
1000
MTEXTBEGIN
1070
    73
1070
     1
1070
    44
1040
1.0
1070
    74
1070
     0
1000
MTEXTEND
  0
LEADER
  5
B05
330
A
100
AcDbEntity
  8
HIKIDASI
100
AcDbLeader
  3
SUNPOU_2
 73
     0
 74
     0
 75
     1
 40
13.33333333333333
 41
28.0
 76
     3
 10
132.5729986021499
 20
346.8320754716981
 30
0.0
 10
156.1755885226483
 20
370.2156145032025
 30
0.0
 10
161.1755885226483
 20
370.2156145032025
 30
0.0
340
B06
213
2.588402414849412
223
7.999873922115397
233
0.0
1001
ACAD
1000
DSTYLE
1002
{
1070
     5
1000
OPEN30
1070
    77
1070
     1
1070
   147
1040
1.0
1070
   342
1005
8E5
1002
}
1000
LEANOF
1010
2.588402414849412
1020
7.999873922115397
1030
0.0
1000
LEANOF
1010
2.588402414849412
1020
7.999873922115397
1030
0.0
  0
MTEXT
  5
B06
330
A
100
AcDbEntity
  8
HIKIDASI
100
AcDbMText
 10
160.5871861077989
 20
364.2157405810871
 30
0.0
 40
5.0
 41
0.0
 71
     7
 72
     1
  1
M8タップ\P(サッシ工事)
  7
SUNPOU
1001
ACAD
1000
MTEXTBEGIN
1070
    73
1070
     1
1070
    44
1040
1.0
1070
    74
1070
     0
1000
MTEXTEND
1000
MTEXTBEGIN
1070
    73
1070
     1
1070
    44
1040
1.0
1070
    74
1070
     0
1000
MTEXTEND
  0
LEADER
  5
B08
330
A
100
AcDbEntity
  8
HIKIDASI
100
AcDbLeader
  3
SUNPOU_2
 73
     0
 75
     1
 40
21.66666666666666
 41
37.06666666666665
 76
     3
 10
93.61079272796265
 20
279.9962311671512
 30
0.0
 10
79.5863987352509
 20
303.4243427291584
 30
0.0
 10
74.5863987352509
 20
303.4243427291584
 30
0.0
340
B09
213
-5.072971534093226
223
16.86820392042681
233
0.0
1001
ACAD
1000
DSTYLE
1002
{
1070
     5
1000
OPEN30
1070
    77
1070
     1
1070
   147
1040
1.0
1070
   342
1005
8E5
1002
}
1000
LEANOF
1010
-5.072971534093226
1020
16.86820392042681
1030
0.0
1000
LEANOF
1010
-5.072971534093226
1020
16.86820392042681
1030
0.0
  0
MTEXT
  5
B09
330
A
100
AcDbEntity
  8
HIKIDASI
100
AcDbMText
 10
77.65937026934413
 20
288.5561388087316
 30
0.0
 40
5.0
 41
0.0
 71
     9
 72
     1
  1
補助光電スイッチ\P取付穴φ12\P（サッシ工事）
  7
SUNPOU
1001
ACAD
1000
MTEXTBEGIN
1070
    73
1070
     1
1070
    44
1040
1.0
1070
    74
1070
     0
1000
MTEXTEND
1000
MTEXTBEGIN
1070
    73
1070
     1
1070
    44
1040
1.0
1070
    74
1070
     0
1000
MTEXTEND
  0
LEADER
  5
B0B
330
A
100
AcDbEntity
  8
HIKIDASI
100
AcDbLeader
  3
SUNPOU_2
 73
     0
 74
     0
 75
     1
 40
13.33333333333333
 41
50.93333333333333
 76
     3
 10
151.6729986021499
 20
157.8921442918332
 30
0.0
 10
166.8108473740022
 20
131.9053991252098
 30
0.0
 10
171.8108473740023
 20
131.9053991252098
 30
0.0
340
B0C
213
0.0
223
8.371044635484151
233
0.0
1001
ACAD
1000
DSTYLE
1002
{
1070
     5
1000
OPEN30
1070
    77
1070
     1
1070
   147
1040
1.0
1070
   342
1005
8E5
1002
}
1000
LEANOF
1010
0.0
1020
8.371044635484151
1030
0.0
1000
LEANOF
1010
0.0
1020
8.371044635484151
1030
0.0
  0
MTEXT
  5
B0C
330
A
100
AcDbEntity
  8
HIKIDASI
100
AcDbMText
 10
173.8108473740022
 20
125.5343544897256
 30
0.0
 40
5.0
 41
0.0
 71
     7
 72
     1
  1
ステンレスガイドレール\P（サッシ工事）
  7
SUNPOU
1001
ACAD
1000
MTEXTBEGIN
1070
    73
1070
     1
1070
    44
1040
1.0
1070
    74
1070
     0
1000
MTEXTEND
1000
MTEXTBEGIN
1070
    73
1070
     1
1070
    44
1040
1.0
1070
    74
1070
     0
1000
MTEXTEND
  0
LEADER
  5
B0D
330
A
100
AcDbEntity
  8
HIKIDASI
100
AcDbLeader
  3
SUNPOU_2
 73
     0
 74
     0
 75
     1
 40
13.33333333333333
 41
50.93333333333331
 76
     3
 10
304.571721664107
 20
462.3320754716981
 30
0.0
 10
320.3680186557785
 20
503.9384869591858
 30
0.0
 10
325.3680186557784
 20
503.9384869591858
 30
0.0
340
B0E
213
0.0
223
8.393608452929298
233
0.0
1001
ACAD
1000
DSTYLE
1002
{
1070
     5
1000
OPEN30
1070
    77
1070
     1
1070
   147
1040
1.0
1070
   342
1005
8E5
1002
}
1000
LEANOF
1010
0.0
1020
8.393608452929298
1030
0.0
1000
LEANOF
1010
0.0
1020
8.393608452929298
1030
0.0
  0
MTEXT
  5
B0E
330
A
100
AcDbEntity
  8
HIKIDASI
100
AcDbMText
 10
327.3680186557784
 20
497.5448785062565
 30
0.0
 40
5.0
 41
0.0
 71
     7
 72
     1
  1
コーナーブラケット裏板\P(寺岡支給）
  7
SUNPOU
1001
ACAD
1000
MTEXTBEGIN
1070
    73
1070
     1
1070
    44
1040
1.0
1070
    74
1070
     0
1000
MTEXTEND
1000
MTEXTBEGIN
1070
    73
1070
     1
1070
    44
1040
1.0
1070
    74
1070
     0
1000
MTEXTEND
  0
LEADER
  5
B0F
330
A
100
AcDbEntity
  8
HIKIDASI
100
AcDbLeader
  3
SUNPOU_2
 73
     0
 75
     1
 40
13.33333333333333
 41
43.73333333333333
 76
     3
 10
300.1352585709943
 20
453.8320754716981
 30
0.0
 10
265.2277196756475
 20
514.0372806846634
 30
0.0
 10
260.2277196756475
 20
514.0372806846634
 30
0.0
340
B10
213
0.0
223
8.205205212965267
233
0.0
1001
ACAD
1000
DSTYLE
1002
{
1070
     5
1000
OPEN30
1070
    77
1070
     1
1070
   147
1040
1.0
1070
   342
1005
8E5
1002
}
1000
LEANOF
1010
0.0
1020
8.205205212965267
1030
0.0
1000
LEANOF
1010
0.0
1020
8.205205212965267
1030
0.0
  0
MTEXT
  5
B10
330
A
100
AcDbEntity
  8
HIKIDASI
100
AcDbMText
 10
258.2277196756475
 20
507.8320754716981
 30
0.0
 40
5.0
 41
0.0
 71
     9
 72
     1
  1
たて枠穴加工（φ9)\P（サッシ工事）
  7
SUNPOU
1001
ACAD
1000
MTEXTBEGIN
1070
    73
1070
     1
1070
    44
1040
1.0
1070
    74
1070
     0
1000
MTEXTEND
1000
MTEXTBEGIN
1070
    73
1070
     1
1070
    44
1040
1.0
1070
    74
1070
     0
1000
MTEXTEND
  0
LEADER
  5
B11
330
A
100
AcDbEntity
  8
HIKIDASI
100
AcDbLeader
  3
SUNPOU_2
 73
     0
 75
     1
 40
13.33333333333333
 41
51.2
 76
     3
 10
304.1286489076625
 20
435.0835093489076
 30
0.0
 10
273.473447739747
 20
489.9102894665179
 30
0.0
 10
268.473447739747
 20
489.9102894665179
 30
0.0
340
B12
213
0.0
223
8.582534554522567
233
0.0
1001
ACAD
1000
DSTYLE
1002
{
1070
     5
1000
OPEN30
1070
    77
1070
     1
1070
   147
1040
1.0
1070
   342
1005
8E5
1002
}
1000
LEANOF
1010
0.0
1020
8.582534554522567
1030
0.0
1000
LEANOF
1010
0.0
1020
8.582534554522567
1030
0.0
  0
MTEXT
  5
B12
330
A
100
AcDbEntity
  8
HIKIDASI
100
AcDbMText
 10
266.473447739747
 20
483.3277549119953
 30
0.0
 40
5.0
 41
0.0
 71
     9
 72
     1
  1
たて枠穴加工（φ4.5）\P（サッシ工事）
  7
SUNPOU
1001
ACAD
1000
MTEXTBEGIN
1070
    73
1070
     1
1070
    44
1040
1.0
1070
    74
1070
     0
1000
MTEXTEND
1000
MTEXTBEGIN
1070
    73
1070
     1
1070
    44
1040
1.0
1070
    74
1070
     0
1000
MTEXTEND
  0
DIMENSION
  5
BFD
330
A
100
AcDbEntity
  8
SUNPOU
100
AcDbDimension
  2
*D25
 10
289.6286489076625
 20
427.3320754716981
 30
0.0
 11
285.1286489076624
 21
416.9402390090927
 31
0.0
 70
   160
  3
SUNPOU_2
100
AcDbAlignedDimension
 13
289.6286489076625
 23
397.3320754716981
 33
0.0
 14
289.6286489076625
 24
427.3320754716981
 34
0.0
 50
90.0
100
AcDbRotatedDimension
  0
DIMENSION
  5
C0A
330
A
100
AcDbEntity
  8
SUNPOU
100
AcDbDimension
  2
*D26
 10
294.6286489076625
 20
402.3320754716981
 30
0.0
 11
274.58634375407
 21
406.8320754716981
 31
0.0
 70
   160
  3
SUNPOU_2
100
AcDbAlignedDimension
 13
264.6286489076625
 23
402.3320754716981
 33
0.0
 14
294.6286489076625
 24
402.3320754716981
 34
0.0
100
AcDbRotatedDimension
  0
TEXT
  5
10BD
330
A
100
AcDbEntity
  8
MOJI
100
AcDbText
 10
93.69068674536675
 20
172.9320754716981
 30
0.0
 40
5.0
  1
Ｆ.Ｌ
 41
0.8
  7
0_8
 11
93.69068674536675
 21
175.4320754716981
 31
0.0
100
AcDbText
 73
     2
  0
POLYLINE
  5
10C4
330
A
100
AcDbEntity
  8
SAISEN
100
AcDb2dPolyline
 66
     1
 10
0.0
 20
0.0
 30
0.0
 70
     1
  0
VERTEX
  5
1D9D
330
10C4
100
AcDbEntity
  8
SAISEN
100
AcDbVertex
100
AcDb2dVertex
 10
216.1729986021498
 20
257.6229458783656
 30
0.0
  0
VERTEX
  5
1D9E
330
10C4
100
AcDbEntity
  8
SAISEN
100
AcDbVertex
100
AcDb2dVertex
 10
226.1729986021498
 20
257.6229458783656
 30
0.0
  0
VERTEX
  5
1D9F
330
10C4
100
AcDbEntity
  8
SAISEN
100
AcDbVertex
100
AcDb2dVertex
 10
226.1729986021498
 20
287.6229458783658
 30
0.0
  0
VERTEX
  5
1DA0
330
10C4
100
AcDbEntity
  8
SAISEN
100
AcDbVertex
100
AcDb2dVertex
 10
216.1729986021498
 20
287.6229458783658
 30
0.0
  0
SEQEND
  5
1DA1
330
10C4
100
AcDbEntity
  8
SAISEN
  0
MTEXT
  5
10C5
330
A
100
AcDbEntity
  8
MOJI
100
AcDbMText
 10
221.1729986021498
 20
272.6229458783656
 30
0.0
 40
6.0
 41
10.0
 71
     5
 72
     1
  1
内\P\P部
  7
0_8
1001
ACAD
1000
MTEXTBEGIN
1070
    73
1070
     1
1070
    44
1040
1.0
1070
    74
1070
     0
1000
MTEXTEND
1000
MTEXTBEGIN
1070
    73
1070
     1
1070
    44
1040
1.0
1070
    74
1070
     0
1000
MTEXTEND
  0
POLYLINE
  5
10CC
330
A
100
AcDbEntity
  8
SAISEN
100
AcDb2dPolyline
 66
     1
 10
0.0
 20
0.0
 30
0.0
 70
     1
  0
VERTEX
  5
1DA2
330
10CC
100
AcDbEntity
  8
SAISEN
100
AcDbVertex
100
AcDb2dVertex
 10
36.97299860214989
 20
257.6229458783656
 30
0.0
  0
VERTEX
  5
1DA3
330
10CC
100
AcDbEntity
  8
SAISEN
100
AcDbVertex
100
AcDb2dVertex
 10
46.97299860214989
 20
257.6229458783656
 30
0.0
  0
VERTEX
  5
1DA4
330
10CC
100
AcDbEntity
  8
SAISEN
100
AcDbVertex
100
AcDb2dVertex
 10
46.97299860214989
 20
287.6229458783658
 30
0.0
  0
VERTEX
  5
1DA5
330
10CC
100
AcDbEntity
  8
SAISEN
100
AcDbVertex
100
AcDb2dVertex
 10
36.97299860214989
 20
287.6229458783658
 30
0.0
  0
SEQEND
  5
1DA6
330
10CC
100
AcDbEntity
  8
SAISEN
  0
MTEXT
  5
10CD
330
A
100
AcDbEntity
  8
MOJI
100
AcDbMText
 10
41.97299860214989
 20
272.6229458783656
 30
0.0
 40
6.0
 41
10.0
 71
     5
 72
     1
  1
外\P\P部
  7
0_8
1001
ACAD
1000
MTEXTBEGIN
1070
    73
1070
     1
1070
    44
1040
1.0
1070
    74
1070
     0
1000
MTEXTEND
1000
MTEXTBEGIN
1070
    73
1070
     1
1070
    44
1040
1.0
1070
    74
1070
     0
1000
MTEXTEND
  0
LINE
  5
1449
330
A
100
AcDbEntity
  8
SAISEN
100
AcDbLine
 10
81.55299860214984
 20
222.6953225678074
 30
0.0
 11
161.3492832203048
 21
222.6953225678074
 31
0.0
  0
LINE
  5
144A
330
A
100
AcDbEntity
  8
SAISEN
100
AcDbLine
 10
161.3492832203048
 20
225.6953225678075
 30
0.0
 11
81.55299860214984
 21
225.6953225678075
 31
0.0
  0
LINE
  5
144C
330
A
100
AcDbEntity
  8
03
100
AcDbLine
 10
153.1729986021498
 20
222.6953225678074
 30
0.0
 11
153.1729986021498
 21
172.082075471698
 31
0.0
  0
LINE
  5
144D
330
A
100
AcDbEntity
  8
CHUSIN
100
AcDbLine
 10
132.6729986021497
 20
235.8207713367268
 30
0.0
 11
132.6729986021497
 21
367.8720754716981
 31
0.0
  0
LINE
  5
144E
330
A
100
AcDbEntity
  8
03
100
AcDbLine
 10
119.6729986021497
 20
225.6953225678075
 30
0.0
 11
119.6729986021497
 21
256.7171444022938
 31
0.0
  0
LINE
  5
144F
330
A
100
AcDbEntity
  8
03
100
AcDbLine
 10
121.1729986021497
 20
233.2737481758786
 30
0.0
 11
121.1729986021497
 21
225.6953225678075
 31
0.0
  0
LINE
  5
1450
330
A
100
AcDbEntity
  8
03
100
AcDbLine
 10
144.1729986021498
 20
233.2737481758786
 30
0.0
 11
144.1729986021498
 21
225.6953225678075
 31
0.0
  0
LINE
  5
1451
330
A
100
AcDbEntity
  8
03
100
AcDbLine
 10
115.1729986021498
 20
222.6953225678074
 30
0.0
 11
115.1729986021498
 21
172.0820754716979
 31
0.0
  0
LINE
  5
1452
330
A
100
AcDbEntity
  8
03
100
AcDbLine
 10
83.17299860214985
 20
222.6953225678074
 30
0.0
 11
83.17299860214987
 21
169.8320754716981
 31
0.0
  0
LINE
  5
1453
330
A
100
AcDbEntity
  8
03
100
AcDbLine
 10
118.1729986021497
 20
222.6953225678074
 30
0.0
 11
118.1729986021497
 21
179.8320754716981
 31
0.0
  0
LINE
  5
1454
330
A
100
AcDbEntity
  8
03
100
AcDbLine
 10
145.6729986021498
 20
222.6953225678074
 30
0.0
 11
145.6729986021498
 21
179.8320754716981
 31
0.0
  0
LINE
  5
1455
330
A
100
AcDbEntity
  8
03
100
AcDbLine
 10
147.1729986021498
 20
225.6953225678075
 30
0.0
 11
147.1729986021498
 21
256.7171444022936
 31
0.0
  0
LINE
  5
15BC
330
A
100
AcDbEntity
  8
03
100
AcDbLine
 10
121.1729986021497
 20
222.6953225678074
 30
0.0
 11
121.1729986021497
 21
196.8320754716981
 31
0.0
  0
LINE
  5
15BD
330
A
100
AcDbEntity
  8
03
100
AcDbLine
 10
144.1729986021498
 20
222.6953225678073
 30
0.0
 11
144.1729986021498
 21
196.8320754716981
 31
0.0
  0
LINE
  5
15BE
330
A
100
AcDbEntity
  8
SAISEN
100
AcDbLine
 10
161.3492832203048
 20
259.7171444022936
 30
0.0
 11
81.55299860214984
 21
259.7171444022937
 31
0.0
  0
LINE
  5
15BF
330
A
100
AcDbEntity
  8
SAISEN
100
AcDbLine
 10
81.55299860214984
 20
256.7171444022938
 30
0.0
 11
161.3492832203048
 21
256.7171444022938
 31
0.0
  0
LINE
  5
15E7
330
A
100
AcDbEntity
  8
03
100
AcDbLine
 10
98.62832248597731
 20
341.2381891124255
 30
0.0
 11
99.93299860214982
 21
339.8320754716982
 31
0.0
  0
LINE
  5
15E8
330
A
100
AcDbEntity
  8
03
100
AcDbLine
 10
99.75359393563941
 20
345.9838987187014
 30
0.0
 11
98.63299860214979
 21
345.3405939902166
 31
0.0
  0
LINE
  5
15E9
330
A
100
AcDbEntity
  8
03
100
AcDbLine
 10
99.25299860214979
 20
346.7720754716981
 30
0.0
 11
98.63299860214986
 21
346.4120754716981
 31
0.0
  0
ARC
  5
15EA
330
A
100
AcDbEntity
  8
03
100
AcDbCircle
 10
96.05317365903239
 20
344.3550547515056
 30
0.0
 40
4.043048712666529
100
AcDbArc
 50
309.5634567291611
 51
23.75804318440077
  0
LINE
  5
15EF
330
A
100
AcDbEntity
  8
03
100
AcDbLine
 10
93.63299860214985
 20
346.4120754716981
 30
0.0
 11
93.63299860214979
 21
345.3405939902165
 31
0.0
  0
LINE
  5
15F0
330
A
100
AcDbEntity
  8
03
100
AcDbLine
 10
98.63299860214986
 20
346.4120754716981
 30
0.0
 11
98.63299860214979
 21
345.3405939902166
 31
0.0
  0
ARC
  5
15F1
330
A
100
AcDbEntity
  8
03
100
AcDbCircle
 10
96.21212458673031
 20
344.3546257198433
 30
0.0
 40
4.042272783101201
100
AcDbArc
 50
156.2328679585503
 51
230.4403075944964
  0
ARC
  5
15F2
330
A
100
AcDbEntity
  8
03
100
AcDbCircle
 10
96.67801103758673
 20
344.9368114010648
 30
0.0
 40
3.162080828601971
100
AcDbArc
 50
35.47851137935172
 51
51.81083068878248
  0
MTEXT
  5
169F
330
A
100
AcDbEntity
  8
HIKIDASI
100
AcDbMText
 10
170.6573750423124
 20
107.0646892386985
 30
0.0
 40
5.0
 41
0.0
 71
     7
 72
     1
  1
振れ止め\P（サッシ工事）
  7
SUNPOU
1001
ACAD
1000
MTEXTBEGIN
1070
    73
1070
     1
1070
    44
1040
1.0
1070
    74
1070
     0
1000
MTEXTEND
1000
MTEXTBEGIN
1070
    73
1070
     1
1070
    44
1040
1.0
1070
    74
1070
     0
1000
MTEXTEND
  0
LEADER
  5
16A0
330
A
100
AcDbEntity
  8
HIKIDASI
100
AcDbLeader
  3
SUNPOU_2
 73
     0
 74
     0
 75
     1
 40
13.33333333333333
 41
29.86666666666666
 76
     3
 10
135.7634015931368
 20
161.516735089613
 30
0.0
 10
163.6573750423124
 20
113.4357338741827
 30
0.0
 10
168.6573750423124
 20
113.4357338741827
 30
0.0
340
169F
213
0.0
223
8.371044635484151
233
0.0
1001
ACAD
1000
DSTYLE
1002
{
1070
     5
1000
OPEN30
1070
    77
1070
     1
1070
   147
1040
1.0
1070
   342
1005
8E5
1002
}
1000
LEANOF
1010
0.0
1020
8.371044635484151
1030
0.0
1000
LEANOF
1010
0.0
1020
8.371044635484151
1030
0.0
  0
CIRCLE
  5
16BA
330
A
100
AcDbEntity
  8
SAISEN
100
AcDbCircle
 10
391.0976380784293
 20
65.54302641223159
 30
0.0
 40
5.0
  0
TEXT
  5
16BB
330
A
100
AcDbEntity
  8
MOJI
100
AcDbText
 10
388.0488190392131
 20
61.2715132061159
 30
0.0
 40
8.0
  1
Ｓ
 41
0.8
  7
0_8
 11
388.0488190392131
 21
69.2715132061159
 31
0.0
100
AcDbText
 73
     3
  0
LINE
  5
16CD
330
A
100
AcDbEntity
  8
03
100
AcDbLine
 10
142.1729986021498
 20
346.8320754716981
 30
0.0
 11
123.1729986021497
 21
340.8320754716982
 31
0.0
  0
LINE
  5
1A34
330
A
100
AcDbEntity
  8
03
100
AcDbLine
 10
272.1286489076625
 20
359.8320754716981
 30
0.0
 11
272.1286489076625
 21
356.8320754716981
 31
0.0
  0
LINE
  5
1A35
330
A
100
AcDbEntity
  8
03
100
AcDbLine
 10
263.1286489076625
 20
359.8320754716981
 30
0.0
 11
252.1286489076624
 21
359.8320754716981
 31
0.0
  0
LINE
  5
1A36
330
A
100
AcDbEntity
  8
03
100
AcDbLine
 10
267.1286489076625
 20
359.8320754716981
 30
0.0
 11
272.1286489076625
 21
359.8320754716981
 31
0.0
  0
LINE
  5
1B5A
330
A
100
AcDbEntity
  8
CHUSIN
100
AcDbLine
 10
81.21626823904831
 20
429.8320754716981
 30
0.0
 11
155.8048523754455
 21
429.8320754716981
 31
0.0
  0
LINE
  5
1B5B
330
A
100
AcDbEntity
  8
CHUSIN
100
AcDbLine
 10
106.2929986021499
 20
382.3320754716978
 30
0.0
 11
137.6729986021497
 21
382.3320754716978
 31
0.0
  0
LINE
  5
1B5C
330
A
100
AcDbEntity
  8
CHUSIN
100
AcDbLine
 10
116.5729986021499
 20
365.932075471698
 30
0.0
 11
116.5729986021499
 21
399.032075471698
 31
0.0
  0
LINE
  5
1B5D
330
A
100
AcDbEntity
  8
CHUSIN
100
AcDbLine
 10
86.8729986021499
 20
379.8320754716981
 30
0.0
 11
105.1329986021497
 21
379.8320754716981
 31
0.0
  0
LINE
  5
1B5F
330
A
100
AcDbEntity
  8
CHUSIN
100
AcDbLine
 10
146.5729986021499
 20
382.3320754716978
 30
0.0
 11
131.5729986021499
 21
382.3320754716978
 31
0.0
  0
LINE
  5
1B60
330
A
100
AcDbEntity
  8
CHUSIN
100
AcDbLine
 10
141.6729986021499
 20
459.2903377775088
 30
0.0
 11
141.6729986021499
 21
403.3482475213095
 31
0.0
  0
LINE
  5
1B79
330
A
100
AcDbEntity
  8
03
100
AcDbLine
 10
118.5729986021499
 20
350.8320754716981
 30
0.0
 11
146.5729986021499
 21
350.8320754716981
 31
0.0
  0
LINE
  5
1B7A
330
A
100
AcDbEntity
  8
03
100
AcDbLine
 10
146.5729986021499
 20
352.3320754716978
 30
0.0
 11
146.5729986021499
 21
349.8320754716981
 31
0.0
  0
LINE
  5
1B7B
330
A
100
AcDbEntity
  8
03
100
AcDbLine
 10
118.5729986021499
 20
351.8320754716981
 30
0.0
 11
146.5729986021499
 21
351.8320754716981
 31
0.0
  0
LINE
  5
1B7C
330
A
100
AcDbEntity
  8
03
100
AcDbLine
 10
118.5729986021499
 20
352.3320754716978
 30
0.0
 11
118.5729986021499
 21
349.8320754716981
 31
0.0
  0
INSERT
  5
1BAB
330
A
100
AcDbEntity
  8
03
  6
CONTINUOUS
100
AcDbBlockReference
  2
*X27
 10
0.0
 20
0.0
 30
0.0
1001
ACAD
1000
HATCH
1002
{
1070
    19
1000
ANSI31
1040
10.0
1040
0.0
1000
R14_HATCH_DATA
1000
1BAB
1011
1.0
1021
0.0
1031
0.0
1011
0.0
1021
1.0
1031
0.0
1011
0.0
1021
0.0
1031
1.0
1040
0.0
1010
0.0
1020
0.0
1030
1.0
1000
ANSI31
1070
     0
1070
     0
1071
       12
1071
        7
1070
     1
1070
     1
1071
        8
1040
96.17299860214979
1040
356.8320754716981
1040
0.0
1040
93.17299860394472
1040
356.8320754716981
1040
0.0
1040
93.17299860394472
1040
354.8320754716981
1040
-0.4142135618473806
1040
94.1729986021498
1040
353.8320754716981
1040
0.0
1040
94.1729986021498
1040
352.3320754716981
1040
0.4142135623731011
1040
94.67299860214982
1040
351.8320754716981
1040
0.0
1040
95.17299860214979
1040
351.8320754716981
1040
0.0
1040
96.17299860214982
1040
352.8320754716981
1040
0.0
1071
        0
1071
        7
1070
     1
1070
     1
1071
        5
1040
96.51299860214979
1040
356.8320754716981
1040
0.0
1040
96.17299860214984
1040
356.8320754716981
1040
0.0
1040
96.17299860214982
1040
355.3320754716981
1040
0.0
1040
96.40791366780977
1040
355.3320754716981
1040
-0.0866874277010346
1040
96.51299860214985
1040
355.9275638278823
1040
0.0
1071
        0
1071
        7
1070
     1
1070
     1
1071
        4
1040
97.0129986021498
1040
356.655737581013
1040
0.0
1040
97.01299860214986
1040
356.8320754716981
1040
0.0
1040
96.51299860214985
1040
356.8320754716981
1040
0.0
1040
96.51299860214985
1040
355.9275638278823
1040
-0.127736402403966
1071
        0
1071
        7
1070
     1
1070
     1
1071
        5
1040
96.4079136678098
1040
355.3320754716981
1040
0.0
1040
96.17299860214979
1040
355.3320754716981
1040
0.0
1040
96.17299860214984
1040
352.8320754716981
1040
0.0
1040
96.51299860214985
1040
352.8320754716983
1040
0.0
1040
96.51299860214985
1040
354.730516201304
1040
-0.0875578113613035
1071
        0
1071
        7
1070
     1
1070
     1
1071
        4
1040
98.17299860214985
1040
353.572075471713
1040
-0.3169667975350344
1040
96.51299860214985
1040
354.7305162013039
1040
0.0
1040
96.51299860214985
1040
352.8320754716981
1040
0.0
1040
98.17299860214985
1040
352.8320754716981
1040
0.0
1071
        0
1071
        7
1070
     0
1070
     1
1071
        5
1040
98.17299860214985
1040
352.8320754716981
1040
96.17299860214982
1040
352.8320754716981
1040
95.17299860214979
1040
351.8320754716981
1040
97.87299860214986
1040
351.8320754716981
1040
98.17299860214982
1040
352.1320754716981
1071
        0
1071
        7
1070
     0
1070
     1
1071
        5
1040
100.1729986021497
1040
352.8320754716981
1040
98.17299860214982
1040
352.8320754716981
1040
98.17299860214985
1040
352.1320754716981
1040
98.47299860214985
1040
351.8320754716981
1040
101.1729986021497
1040
351.8320754716981
1071
        0
1071
        7
1070
     1
1070
     1
1071
        4
1040
99.83299860214982
1040
354.7772990837183
1040
-0.3221896042426259
1040
98.17299860214982
1040
353.572075471713
1040
0.0
1040
98.17299860214982
1040
352.8320754716981
1040
0.0
1040
99.83299860214982
1040
352.8320754716981
1040
0.0
1071
        0
1071
        7
1070
     1
1070
     1
1071
        5
1040
100.1729986021497
1040
355.3320754716981
1040
0.0
1040
99.92187489182974
1040
355.3320754716981
1040
-0.0804629112597024
1040
99.83299860214982
1040
354.7772990837183
1040
0.0
1040
99.83299860214982
1040
352.8320754716981
1040
0.0
1040
100.1729986021497
1040
352.8320754716981
1040
0.0
1071
        0
1071
        7
1070
     1
1070
     1
1071
        5
1040
100.1729986021497
1040
356.8320754716981
1040
0.0
1040
99.83299860214984
1040
356.8320754716981
1040
0.0
1040
99.83299860214984
1040
355.8807809454679
1040
-0.0795935519536886
1040
99.92187489182974
1040
355.3320754716981
1040
0.0
1040
100.1729986021497
1040
355.3320754716981
1040
0.0
1071
        0
1071
        7
1070
     1
1070
     1
1071
        4
1040
99.83299860214982
1040
356.8320754716981
1040
0.0
1040
99.31299860214979
1040
356.8320754716981
1040
0.0
1040
99.31299860214979
1040
356.6590199204661
1040
-0.1356296791995748
1040
99.83299860214982
1040
355.8807809454679
1040
0.0
1071
        0
1071
        7
1070
     1
1070
     1
1071
        9
1040
102.1729986021497
1040
356.5320754716981
1040
0.4142135623731094
1040
101.8729986021498
1040
356.8320754716981
1040
0.0
1040
100.1729986021497
1040
356.8320754716981
1040
0.0
1040
100.1729986021497
1040
352.8320754716981
1040
0.0
1040
101.1729986021497
1040
351.8320754716981
1040
0.0
1040
105.1729986021497
1040
351.8320754716981
1040
0.0
1040
105.172998596765
1040
353.8320754716981
1040
0.0
1040
103.1729986021497
1040
353.8320754716981
1040
-0.4142135623730968
1040
102.1729986021497
1040
354.8320754716981
1040
0.0
1071
        0
1070
     0
1070
     1
1040
0.0
1040
10.0
1070
     0
1070
     1
1040
0.7853981633974483
1040
-0.0000000000000284
1040
0.0
1040
-0.8838834764831842
1040
0.8838834764831844
1070
     0
1040
0.0255929255925442
1071
       12
1040
94.46765961248123
1040
355.4670204025965
1040
0.0
1040
96.31177481197788
1040
356.2348082264421
1040
0.0
1040
96.56790209140895
1040
356.567516367546
1040
0.0
1040
96.31177481197788
1040
355.0831267429856
1040
0.0
1040
97.13138175975538
1040
353.2660284726978
1040
0.0
1040
97.02893154078751
1040
352.3958691072141
1040
0.0
1040
99.30846320191765
1040
352.4726481419106
1040
0.0
1040
99.35968917740737
1040
353.3172144958288
1040
0.0
1040
100.0256190647215
1040
353.6243296253669
1040
0.0
1040
100.0000069429824
1040
356.0812506616731
1040
0.0
1040
99.64142857857764
1040
356.6187018860531
1040
0.0
1040
101.2038043769038
1040
356.2859942495732
1040
0.0
1002
}
  0
LINE
  5
1BB3
330
A
100
AcDbEntity
  8
02
100
AcDbLine
 10
87.17299860214991
 20
461.8320754716982
 30
0.0
 11
114.6729986021499
 21
461.8320754716982
 31
0.0
  0
LINE
  5
1BB4
330
A
100
AcDbEntity
  8
04
100
AcDbLine
 10
108.5729986021497
 20
365.8320754716981
 30
0.0
 11
108.5729986021499
 21
398.8320754716981
 31
0.0
  0
LINE
  5
1BB5
330
A
100
AcDbEntity
  8
04
100
AcDbLine
 10
108.5729986021499
 20
398.8320754716981
 30
0.0
 11
110.903125621072
 21
398.8320754716981
 31
0.0
  0
LINE
  5
1BB6
330
A
100
AcDbEntity
  8
04
100
AcDbLine
 10
111.5729986021499
 20
396.3320754716981
 30
0.0
 11
110.903125621072
 21
398.8320754716981
 31
0.0
  0
LINE
  5
1BB7
330
A
100
AcDbEntity
  8
04
100
AcDbLine
 10
121.5729986021499
 20
396.3320754716981
 30
0.0
 11
111.5729986021499
 21
396.3320754716981
 31
0.0
  0
LINE
  5
1BB8
330
A
100
AcDbEntity
  8
04
100
AcDbLine
 10
124.5729986021499
 20
398.8320754716981
 30
0.0
 11
122.2428715832277
 21
398.8320754716978
 31
0.0
  0
LINE
  5
1BB9
330
A
100
AcDbEntity
  8
04
100
AcDbLine
 10
121.5729986021499
 20
396.3320754716981
 30
0.0
 11
122.2428715832277
 21
398.8320754716978
 31
0.0
  0
LINE
  5
1BBA
330
A
100
AcDbEntity
  8
04
100
AcDbLine
 10
124.5729986021499
 20
398.8320754716981
 30
0.0
 11
124.5729986021499
 21
365.8320754716981
 31
0.0
  0
LINE
  5
1BBB
330
A
100
AcDbEntity
  8
04
100
AcDbLine
 10
124.5729986021499
 20
365.8320754716981
 30
0.0
 11
122.2428715832277
 21
365.8320754716981
 31
0.0
  0
LINE
  5
1BBC
330
A
100
AcDbEntity
  8
04
100
AcDbLine
 10
121.5729986021499
 20
368.3320754716981
 30
0.0
 11
122.2428715832277
 21
365.8320754716981
 31
0.0
  0
LINE
  5
1BBD
330
A
100
AcDbEntity
  8
04
100
AcDbLine
 10
121.5729986021499
 20
368.3320754716981
 30
0.0
 11
111.5729986021499
 21
368.3320754716981
 31
0.0
  0
LINE
  5
1BBE
330
A
100
AcDbEntity
  8
04
100
AcDbLine
 10
108.5729986021497
 20
365.8320754716981
 30
0.0
 11
110.903125621072
 21
365.8320754716981
 31
0.0
  0
LINE
  5
1BBF
330
A
100
AcDbEntity
  8
04
100
AcDbLine
 10
111.5729986021499
 20
368.3320754716981
 30
0.0
 11
110.903125621072
 21
365.8320754716981
 31
0.0
  0
LINE
  5
1BC0
330
A
100
AcDbEntity
  8
04
100
AcDbLine
 10
126.5729986021499
 20
394.8320754716978
 30
0.0
 11
132.5729986021499
 21
394.8320754716978
 31
0.0
  0
LINE
  5
1BC1
330
A
100
AcDbEntity
  8
04
100
AcDbLine
 10
124.5729986021499
 20
392.3320754716978
 30
0.0
 11
126.5729986021499
 21
392.3320754716978
 31
0.0
  0
LINE
  5
1BC2
330
A
100
AcDbEntity
  8
04
100
AcDbLine
 10
135.0729986021499
 20
393.3320754716978
 30
0.0
 11
132.5729986021499
 21
393.3320754716978
 31
0.0
  0
LINE
  5
1BC3
330
A
100
AcDbEntity
  8
04
100
AcDbLine
 10
133.7729986021499
 20
371.3320754716978
 30
0.0
 11
132.5729986021499
 21
371.3320754716978
 31
0.0
  0
LINE
  5
1BC4
330
A
100
AcDbEntity
  8
04
100
AcDbLine
 10
132.5729986021499
 20
369.8320754716978
 30
0.0
 11
126.5729986021499
 21
369.8320754716978
 31
0.0
  0
LINE
  5
1BC5
330
A
100
AcDbEntity
  8
04
100
AcDbLine
 10
124.5729986021499
 20
372.3320754716978
 30
0.0
 11
126.5729986021499
 21
372.3320754716978
 31
0.0
  0
LINE
  5
1BC6
330
A
100
AcDbEntity
  8
04
100
AcDbLine
 10
139.0729986021499
 20
378.3320754716978
 30
0.0
 11
143.0729986021499
 21
378.3320754716978
 31
0.0
  0
LINE
  5
1BC7
330
A
100
AcDbEntity
  8
04
100
AcDbLine
 10
143.0729986021499
 20
378.3320754716978
 30
0.0
 11
143.0729986021499
 21
361.3320754716978
 31
0.0
  0
LINE
  5
1BC8
330
A
100
AcDbEntity
  8
04
100
AcDbLine
 10
116.0729986021497
 20
357.3320754716978
 30
0.0
 11
116.0729986021497
 21
362.3320754716978
 31
0.0
  0
ARC
  5
1BC9
330
A
100
AcDbEntity
  8
04
100
AcDbCircle
 10
117.0729986021497
 20
362.3320754716978
 30
0.0
 40
1.0
100
AcDbArc
 50
89.9999998971605
 51
179.9999997943209
  0
LINE
  5
1BCA
330
A
100
AcDbEntity
  8
04
100
AcDbLine
 10
117.0729986021497
 20
363.3320754716978
 30
0.0
 11
123.0729986039446
 21
363.3320754716978
 31
0.0
  0
ARC
  5
1BCB
330
A
100
AcDbEntity
  8
04
100
AcDbCircle
 10
123.0729986021497
 20
362.3320754716978
 30
0.0
 40
1.0
100
AcDbArc
 50
0.0
 51
89.9999998971605
  0
LINE
  5
1BCC
330
A
100
AcDbEntity
  8
04
100
AcDbLine
 10
124.0729986021497
 20
362.3320754716978
 30
0.0
 11
124.0729986021497
 21
361.3320754716978
 31
0.0
  0
LINE
  5
1BCD
330
A
100
AcDbEntity
  8
04
100
AcDbLine
 10
116.0729986021497
 20
357.3320754716978
 30
0.0
 11
124.0729986021499
 21
357.3320754716978
 31
0.0
  0
ARC
  5
1BCE
330
A
100
AcDbEntity
  8
04
100
AcDbCircle
 10
139.0729986021499
 20
361.3320754716978
 30
0.0
 40
4.0
100
AcDbArc
 50
300.0000000000005
 51
359.9999995886386
  0
ARC
  5
1BCF
330
A
100
AcDbEntity
  8
06
100
AcDbCircle
 10
145.8729986021498
 20
454.8320754716981
 30
0.0
 40
0.9999999999999998
100
AcDbArc
 50
0.0
 51
90.0
  0
LINE
  5
1BD0
330
A
100
AcDbEntity
  8
06
100
AcDbLine
 10
145.8729986021498
 20
455.8320754716981
 30
0.0
 11
132.6729986021499
 21
455.8320754716981
 31
0.0
  0
LINE
  5
1BD1
330
A
100
AcDbEntity
  8
06
100
AcDbLine
 10
146.8729986021498
 20
454.8320754716981
 30
0.0
 11
146.8729986021498
 21
452.1120754716982
 31
0.0
  0
LINE
  5
1BD2
330
A
100
AcDbEntity
  8
06
100
AcDbLine
 10
147.1729986021498
 20
450.3920754716981
 30
0.0
 11
136.1729986021499
 21
450.3920754716981
 31
0.0
  0
LINE
  5
1BD3
330
A
100
AcDbEntity
  8
06
100
AcDbLine
 10
149.1729986021498
 20
453.8320754716981
 30
0.0
 11
147.8229986021498
 21
453.8320754716981
 31
0.0
  0
LINE
  5
1BD4
330
A
100
AcDbEntity
  8
06
100
AcDbLine
 10
148.5229986021498
 20
450.3920754716981
 30
0.0
 11
149.1729986021498
 21
453.8320754716981
 31
0.0
  0
LINE
  5
1BD5
330
A
100
AcDbEntity
  8
06
100
AcDbLine
 10
147.1729986021498
 20
450.3920754716981
 30
0.0
 11
147.8229986021498
 21
453.8320754716981
 31
0.0
  0
LINE
  5
1BD6
330
A
100
AcDbEntity
  8
06
100
AcDbLine
 10
134.1729986021499
 20
453.8320754716981
 30
0.0
 11
135.5229986021497
 21
453.8320754716981
 31
0.0
  0
LINE
  5
1BD7
330
A
100
AcDbEntity
  8
06
100
AcDbLine
 10
134.8229986021497
 20
450.3920754716981
 30
0.0
 11
134.1729986021499
 21
453.8320754716981
 31
0.0
  0
LINE
  5
1BD8
330
A
100
AcDbEntity
  8
06
100
AcDbLine
 10
136.1729986021499
 20
450.3920754716981
 30
0.0
 11
135.5229986021497
 21
453.8320754716981
 31
0.0
  0
LINE
  5
1BD9
330
A
100
AcDbEntity
  8
02
100
AcDbLine
 10
88.87299860214989
 20
458.3320754716981
 30
0.0
 11
92.87299860214986
 21
458.3320754716981
 31
0.0
  0
LINE
  5
1BDA
330
A
100
AcDbEntity
  8
02
100
AcDbLine
 10
92.87299860214986
 20
458.3320754716981
 30
0.0
 11
92.87299860214986
 21
387.3320754716981
 31
0.0
  0
LINE
  5
1BDB
330
A
100
AcDbEntity
  8
06
100
AcDbLine
 10
94.87299860214987
 20
457.8320754716981
 30
0.0
 11
132.6729986021499
 21
457.8320754716981
 31
0.0
  0
LINE
  5
1BDC
330
A
100
AcDbEntity
  8
06
100
AcDbLine
 10
97.17299860214993
 20
396.3320754716981
 30
0.0
 11
102.1729986021499
 21
396.3320754716981
 31
0.0
  0
LINE
  5
1BDD
330
A
100
AcDbEntity
  8
06
100
AcDbLine
 10
102.1729986021499
 20
401.8320754716981
 30
0.0
 11
102.1729986021499
 21
396.3320754716981
 31
0.0
  0
LINE
  5
1BDE
330
A
100
AcDbEntity
  8
06
100
AcDbLine
 10
97.17299860214993
 20
396.3320754716981
 30
0.0
 11
97.17299860214993
 21
401.8320754716981
 31
0.0
  0
LINE
  5
1BDF
330
A
100
AcDbEntity
  8
02
100
AcDbLine
 10
97.87299860214986
 20
374.8320754716981
 30
0.0
 11
97.87299860214986
 21
384.8320754716981
 31
0.0
  0
LINE
  5
1BE0
330
A
100
AcDbEntity
  8
02
100
AcDbLine
 10
94.87299860214987
 20
393.8320754716981
 30
0.0
 11
101.3729986021497
 21
393.8320754716981
 31
0.0
  0
LINE
  5
1BE1
330
A
100
AcDbEntity
  8
02
100
AcDbLine
 10
101.3729986021497
 20
390.8320754716981
 30
0.0
 11
97.87299860214986
 21
390.8320754716981
 31
0.0
  0
ARC
  5
1BE2
330
A
100
AcDbEntity
  8
02
100
AcDbCircle
 10
95.87299860214987
 20
369.8320754716981
 30
0.0
 40
1.0
100
AcDbArc
 50
179.9999997943209
 51
269.9999996914799
  0
LINE
  5
1BE3
330
A
100
AcDbEntity
  8
02
100
AcDbLine
 10
101.0729986021499
 20
368.8320754716981
 30
0.0
 11
101.0729986021499
 21
359.8320754716981
 31
0.0
  0
LINE
  5
1BE4
330
A
100
AcDbEntity
  8
02
100
AcDbLine
 10
121.5729986021499
 20
365.3320754716981
 30
0.0
 11
121.5729986021499
 21
367.3320754716981
 31
0.0
  0
ARC
  5
1BE5
330
A
100
AcDbEntity
  8
02
100
AcDbCircle
 10
120.5729986021499
 20
365.3320754716981
 30
0.0
 40
1.0
100
AcDbArc
 50
269.9999996914799
 51
359.9999995886386
  0
ARC
  5
1BE6
330
A
100
AcDbEntity
  8
02
100
AcDbCircle
 10
120.5729986021499
 20
367.3320754716981
 30
0.0
 40
1.0
100
AcDbArc
 50
0.0
 51
89.9999998971605
  0
LINE
  5
1BE7
330
A
100
AcDbEntity
  8
02
100
AcDbLine
 10
120.5729986021499
 20
368.3320754716981
 30
0.0
 11
112.5729986021499
 21
368.3320754716981
 31
0.0
  0
ARC
  5
1BE8
330
A
100
AcDbEntity
  8
02
100
AcDbCircle
 10
112.5729986021499
 20
367.3320754716981
 30
0.0
 40
1.0
100
AcDbArc
 50
89.9999998971605
 51
179.9999997943209
  0
LINE
  5
1BE9
330
A
100
AcDbEntity
  8
02
100
AcDbLine
 10
111.5729986021499
 20
367.3320754716981
 30
0.0
 11
111.5729986021499
 21
363.8320754716981
 31
0.0
  0
ARC
  5
1BEA
330
A
100
AcDbEntity
  8
02
100
AcDbCircle
 10
116.3929986021499
 20
363.3320754716981
 30
0.0
 40
1.0
100
AcDbArc
 50
89.9999998971605
 51
167.4666664753084
  0
LINE
  5
1BEB
330
A
100
AcDbEntity
  8
02
100
AcDbLine
 10
104.0729986021499
 20
364.8320754716981
 30
0.0
 11
104.0729986021499
 21
370.8320754716981
 31
0.0
  0
ARC
  5
1BEC
330
A
100
AcDbEntity
  8
02
100
AcDbCircle
 10
105.0729986021499
 20
364.8320754716981
 30
0.0
 40
1.0
100
AcDbArc
 50
179.9999997943209
 51
269.9999996914799
  0
ARC
  5
1BED
330
A
100
AcDbEntity
  8
02
100
AcDbCircle
 10
103.0729986021499
 20
370.8320754716981
 30
0.0
 40
1.0
100
AcDbArc
 50
0.0
 51
89.9999998971605
  0
LINE
  5
1BEE
330
A
100
AcDbEntity
  8
02
100
AcDbLine
 10
105.0729986021499
 20
363.8320754716981
 30
0.0
 11
111.5729986021499
 21
363.8320754716981
 31
0.0
  0
LINE
  5
1BEF
330
A
100
AcDbEntity
  8
02
100
AcDbLine
 10
97.87299860214986
 20
371.8320754716981
 30
0.0
 11
97.87299860214986
 21
379.5320754716981
 31
0.0
  0
LINE
  5
1BF0
330
A
100
AcDbEntity
  8
02
100
AcDbLine
 10
97.87299860214986
 20
380.1320754716981
 30
0.0
 11
97.87299860214986
 21
390.8320754716981
 31
0.0
  0
LINE
  5
1BF1
330
A
100
AcDbEntity
  8
02
100
AcDbLine
 10
97.87299860214986
 20
371.8320754716981
 30
0.0
 11
103.0729986021499
 21
371.8320754716981
 31
0.0
  0
ARC
  5
1BF2
330
A
100
AcDbEntity
  8
02
100
AcDbCircle
 10
101.3729986021497
 20
392.3320754716981
 30
0.0
 40
1.5
100
AcDbArc
 50
269.9999996914799
 51
89.9999998971605
  0
LINE
  5
1BF3
330
A
100
AcDbEntity
  8
02
100
AcDbLine
 10
120.5729986021499
 20
364.3320754716981
 30
0.0
 11
116.3929986021499
 21
364.3320754716981
 31
0.0
  0
LINE
  5
1BF4
330
A
100
AcDbEntity
  8
02
100
AcDbLine
 10
115.4129986021499
 20
363.5520754716981
 30
0.0
 11
114.5729986021499
 21
359.8320754716981
 31
0.0
  0
LINE
  5
1BF5
330
A
100
AcDbEntity
  8
02
100
AcDbLine
 10
101.0729986021499
 20
368.8320754716981
 30
0.0
 11
95.87299860214987
 21
368.8320754716981
 31
0.0
  0
LINE
  5
1BF6
330
A
100
AcDbEntity
  8
02
100
AcDbLine
 10
94.87299860214987
 20
393.8320754716981
 30
0.0
 11
94.87299860214987
 21
369.8320754716981
 31
0.0
  0
LINE
  5
1BF7
330
A
100
AcDbEntity
  8
02
100
AcDbLine
 10
101.0729986021499
 20
359.8320754716981
 30
0.0
 11
114.5729986021499
 21
359.8320754716981
 31
0.0
  0
ARC
  5
1BF8
330
A
100
AcDbEntity
  8
02
100
AcDbCircle
 10
87.17299860214991
 20
459.8320754716981
 30
0.0
 40
2.0
100
AcDbArc
 50
89.9999998971605
 51
179.9999997943209
  0
LINE
  5
1BF9
330
A
100
AcDbEntity
  8
02
100
AcDbLine
 10
114.6729986021499
 20
461.8320754716982
 30
0.0
 11
114.6729986021499
 21
459.3320754716981
 31
0.0
  0
LINE
  5
1BFA
330
A
100
AcDbEntity
  8
02
100
AcDbLine
 10
114.6729986021499
 20
459.3320754716981
 30
0.0
 11
94.87299860214987
 21
459.3320754716981
 31
0.0
  0
LINE
  5
1BFB
330
A
100
AcDbEntity
  8
02
100
AcDbLine
 10
94.87299860214987
 20
459.3320754716981
 30
0.0
 11
94.87299860214987
 21
456.3320754716981
 31
0.0
  0
LINE
  5
1BFC
330
A
100
AcDbEntity
  8
02
100
AcDbLine
 10
94.87299860214987
 20
456.3320754716981
 30
0.0
 11
92.87299860214986
 21
456.3320754716981
 31
0.0
  0
LINE
  5
1BFD
330
A
100
AcDbEntity
  8
02
100
AcDbLine
 10
92.87299860214986
 20
456.3320754716981
 30
0.0
 11
92.87299860214986
 21
459.3320754716981
 31
0.0
  0
LINE
  5
1BFE
330
A
100
AcDbEntity
  8
02
100
AcDbLine
 10
92.87299860214986
 20
459.3320754716981
 30
0.0
 11
88.67299860214989
 21
459.3320754716981
 31
0.0
  0
LINE
  5
1BFF
330
A
100
AcDbEntity
  8
02
100
AcDbLine
 10
92.87299860214986
 20
382.4320754716982
 30
0.0
 11
94.87299860214987
 21
382.4320754716982
 31
0.0
  0
LINE
  5
1C00
330
A
100
AcDbEntity
  8
02
100
AcDbLine
 10
92.87299860214986
 20
383.8320754716981
 30
0.0
 11
92.87299860214986
 21
382.4320754716982
 31
0.0
  0
LINE
  5
1C01
330
A
100
AcDbEntity
  8
02
100
AcDbLine
 10
89.67299860214991
 20
372.8320754716981
 30
0.0
 11
94.87299860214987
 21
372.8320754716981
 31
0.0
  0
ARC
  5
1C02
330
A
100
AcDbEntity
  8
02
100
AcDbCircle
 10
90.67299860214992
 20
361.8320754716981
 30
0.0
 40
2.0
100
AcDbArc
 50
179.9999997943209
 51
269.9999996914799
  0
LINE
  5
1C03
330
A
100
AcDbEntity
  8
02
100
AcDbLine
 10
88.67299860214989
 20
361.8320754716981
 30
0.0
 11
88.67299860214989
 21
371.8320754716981
 31
0.0
  0
ARC
  5
1C04
330
A
100
AcDbEntity
  8
02
100
AcDbCircle
 10
89.67299860214991
 20
371.8320754716981
 30
0.0
 40
1.0
100
AcDbArc
 50
89.9999998971605
 51
179.9999997943209
  0
ARC
  5
1C05
330
A
100
AcDbEntity
  8
02
100
AcDbCircle
 10
89.4729986021499
 20
356.5320754716981
 30
0.0
 40
0.3
100
AcDbArc
 50
89.9999998971605
 51
179.9999997943209
  0
LINE
  5
1C06
330
A
100
AcDbEntity
  8
02
100
AcDbLine
 10
89.1729986021499
 20
356.3320754716983
 30
0.0
 11
89.1729986021499
 21
356.5320754727752
 31
0.0
  0
LINE
  5
1C07
330
A
100
AcDbEntity
  8
02
100
AcDbLine
 10
88.67299860215002
 20
355.8320754716983
 30
0.0
 11
85.67299860214996
 21
355.8320754716983
 31
0.0
  0
ARC
  5
1C08
330
A
100
AcDbEntity
  8
02
100
AcDbCircle
 10
88.67299860215002
 20
356.3320754716983
 30
0.0
 40
0.5
100
AcDbArc
 50
269.9999999999982
 51
0.0
  0
ARC
  5
1C09
330
A
100
AcDbEntity
  8
02
100
AcDbCircle
 10
85.67299860214996
 20
356.3320754716983
 30
0.0
 40
0.5
100
AcDbArc
 50
180.0
 51
269.9999999999982
  0
LINE
  5
1C0A
330
A
100
AcDbEntity
  8
02
100
AcDbLine
 10
88.67299860214989
 20
387.3320754716981
 30
0.0
 11
92.87299860214986
 21
387.3320754716981
 31
0.0
  0
LINE
  5
1C0B
330
A
100
AcDbEntity
  8
02
100
AcDbLine
 10
92.87299860214986
 20
387.3320754716981
 30
0.0
 11
92.87299860214986
 21
390.3320754716981
 31
0.0
  0
LINE
  5
1C0C
330
A
100
AcDbEntity
  8
02
100
AcDbLine
 10
92.87299860214986
 20
390.3320754716981
 30
0.0
 11
94.87299860214987
 21
390.3320754716981
 31
0.0
  0
LINE
  5
1C0D
330
A
100
AcDbEntity
  8
02
100
AcDbLine
 10
88.67299860214989
 20
383.9320754716981
 30
0.0
 11
88.67299860214989
 21
375.7320754716981
 31
0.0
  0
LINE
  5
1C0E
330
A
100
AcDbEntity
  8
02
100
AcDbLine
 10
88.67299860214989
 20
383.9320754716981
 30
0.0
 11
92.87299860214986
 21
383.9320754716981
 31
0.0
  0
LINE
  5
1C0F
330
A
100
AcDbEntity
  8
02
100
AcDbLine
 10
88.67299860214989
 20
375.7320754716981
 30
0.0
 11
92.87299860214986
 21
375.7320754716981
 31
0.0
  0
LINE
  5
1C10
330
A
100
AcDbEntity
  8
02
100
AcDbLine
 10
92.87299860214986
 20
377.2320754716981
 30
0.0
 11
92.87299860214986
 21
375.7320754716981
 31
0.0
  0
LINE
  5
1C11
330
A
100
AcDbEntity
  8
02
100
AcDbLine
 10
94.87299860214987
 20
377.2320754716981
 30
0.0
 11
92.87299860214986
 21
377.2320754716981
 31
0.0
  0
LINE
  5
1C12
330
A
100
AcDbEntity
  8
02
100
AcDbLine
 10
114.6729986021499
 20
359.8320754716981
 30
0.0
 11
90.67299860214992
 21
359.8320754716981
 31
0.0
  0
LINE
  5
1C13
330
A
100
AcDbEntity
  8
02
100
AcDbLine
 10
114.6729986021499
 20
356.8320754716981
 30
0.0
 11
89.4729986021499
 21
356.8320754716981
 31
0.0
  0
LINE
  5
1C14
330
A
100
AcDbEntity
  8
02
100
AcDbLine
 10
114.6729986021499
 20
356.8320754716981
 30
0.0
 11
114.6729986021499
 21
359.8320754716981
 31
0.0
  0
LINE
  5
1C15
330
A
100
AcDbEntity
  8
02
100
AcDbLine
 10
85.1729986021499
 20
459.8320754788778
 30
0.0
 11
85.17299860214995
 21
356.3320754716983
 31
0.0
  0
LINE
  5
1C16
330
A
100
AcDbEntity
  8
02
100
AcDbLine
 10
94.87299860214987
 20
390.3320754716981
 30
0.0
 11
94.87299860214987
 21
382.4320754716982
 31
0.0
  0
LINE
  5
1C17
330
A
100
AcDbEntity
  8
02
100
AcDbLine
 10
94.87299860214987
 20
377.2320754716981
 30
0.0
 11
94.87299860214987
 21
372.8320754716981
 31
0.0
  0
LINE
  5
1C18
330
A
100
AcDbEntity
  8
02
100
AcDbLine
 10
92.87299860214986
 20
383.9320754716981
 30
0.0
 11
92.87299860214986
 21
382.4320754716982
 31
0.0
  0
LINE
  5
1C19
330
A
100
AcDbEntity
  8
04
100
AcDbLine
 10
140.0729986021499
 20
359.932075471698
 30
0.0
 11
140.0729986021499
 21
364.7392551486703
 31
0.0
  0
LINE
  5
1C1A
330
A
100
AcDbEntity
  8
04
100
AcDbLine
 10
138.1966102272835
 20
365.432075471698
 30
0.0
 11
126.9493869770162
 21
365.432075471698
 31
0.0
  0
LINE
  5
1C1B
330
A
100
AcDbEntity
  8
04
100
AcDbLine
 10
140.2729986021499
 20
357.932075471698
 30
0.0
 11
140.2729986021499
 21
359.932075471698
 31
0.0
  0
LINE
  5
1C1C
330
A
100
AcDbEntity
  8
04
100
AcDbLine
 10
124.0729986021499
 20
356.3320754716978
 30
0.0
 11
141.0729986021499
 21
356.3320754716978
 31
0.0
  0
LINE
  5
1C1D
330
A
100
AcDbEntity
  8
04
100
AcDbLine
 10
141.0729986021499
 20
356.3320754716978
 30
0.0
 11
141.0729986021499
 21
357.932075471698
 31
0.0
  0
LINE
  5
1C1E
330
A
100
AcDbEntity
  8
04
100
AcDbLine
 10
145.3729986021499
 20
364.7320754716978
 30
0.0
 11
148.4688534137172
 21
364.7320754716978
 31
0.0
  0
LINE
  5
1C1F
330
A
100
AcDbEntity
  8
04
100
AcDbLine
 10
148.8729986021499
 20
365.8867760100771
 30
0.0
 11
148.8729986021499
 21
372.7773749333187
 31
0.0
  0
LINE
  5
1C20
330
A
100
AcDbEntity
  8
04
100
AcDbLine
 10
145.3729986021499
 20
373.9320754716978
 30
0.0
 11
148.4688534137172
 21
373.9320754716978
 31
0.0
  0
ARC
  5
1C21
330
A
100
AcDbEntity
  8
04
100
AcDbCircle
 10
147.0213538102489
 20
365.8867760100771
 30
0.0
 40
1.851644791901012
100
AcDbArc
 50
321.4199075616216
 51
0.0
  0
LINE
  5
1C22
330
A
100
AcDbEntity
  8
04
100
AcDbLine
 10
145.3729986021499
 20
373.9320754716978
 30
0.0
 11
144.0729986021499
 21
373.9320754716978
 31
0.0
  0
LINE
  5
1C23
330
A
100
AcDbEntity
  8
04
100
AcDbLine
 10
144.0729986021499
 20
364.7320754716978
 30
0.0
 11
145.3729986021499
 21
364.7320754716978
 31
0.0
  0
LINE
  5
1C24
330
A
100
AcDbEntity
  8
04
100
AcDbLine
 10
144.0729986021499
 20
374.3320754716978
 30
0.0
 11
143.0729986021499
 21
374.3320754716978
 31
0.0
  0
LINE
  5
1C25
330
A
100
AcDbEntity
  8
04
100
AcDbLine
 10
143.0729986021499
 20
364.3320754716978
 30
0.0
 11
144.0729986021499
 21
364.3320754716978
 31
0.0
  0
LINE
  5
1C26
330
A
100
AcDbEntity
  8
04
100
AcDbLine
 10
135.0729986021499
 20
366.832075471698
 30
0.0
 11
134.2729986021498
 21
366.832075471698
 31
0.0
  0
LINE
  5
1C27
330
A
100
AcDbEntity
  8
04
100
AcDbLine
 10
133.3729986021499
 20
367.7320754716978
 30
0.0
 11
133.3729986021499
 21
370.9320754716978
 31
0.0
  0
LINE
  5
1C28
330
A
100
AcDbEntity
  8
04
100
AcDbLine
 10
134.2729986021498
 20
366.832075471698
 30
0.0
 11
133.3729986021499
 21
367.7320754716978
 31
0.0
  0
LINE
  5
1C29
330
A
100
AcDbEntity
  8
06
100
AcDbLine
 10
92.87299860214986
 20
454.8320754716981
 30
0.0
 11
94.87299860214987
 21
454.8320754716981
 31
0.0
  0
LINE
  5
1C2A
330
A
100
AcDbEntity
  8
06
100
AcDbLine
 10
92.87299860214986
 20
404.8320754716981
 30
0.0
 11
94.87299860214987
 21
404.8320754716981
 31
0.0
  0
LINE
  5
1C2B
330
A
100
AcDbEntity
  8
06
100
AcDbLine
 10
94.87299860214987
 20
401.8320754716981
 30
0.0
 11
94.87299860214987
 21
404.8320754716981
 31
0.0
  0
LINE
  5
1C2C
330
A
100
AcDbEntity
  8
06
100
AcDbLine
 10
94.87299860214987
 20
454.8320754716981
 30
0.0
 11
94.87299860214987
 21
457.8320754716981
 31
0.0
  0
LINE
  5
1C2D
330
A
100
AcDbEntity
  8
04
100
AcDbLine
 10
135.0729986021499
 20
365.432075471698
 30
0.0
 11
135.0729986021499
 21
397.3320754716978
 31
0.0
  0
LINE
  5
1C2E
330
A
100
AcDbEntity
  8
04
100
AcDbLine
 10
135.0729986021499
 20
397.3320754716978
 30
0.0
 11
139.0729986021499
 21
397.3320754716978
 31
0.0
  0
LINE
  5
1C2F
330
A
100
AcDbEntity
  8
04
100
AcDbLine
 10
139.0729986021499
 20
397.3320754716978
 30
0.0
 11
139.0729986021499
 21
365.2958587270613
 31
0.0
  0
LINE
  5
1C30
330
A
100
AcDbEntity
  8
04
100
AcDbLine
 10
146.5729986021499
 20
352.332075471698
 30
0.0
 11
146.5729986021499
 21
356.3320754716978
 31
0.0
  0
LINE
  5
1C31
330
A
100
AcDbEntity
  8
04
100
AcDbLine
 10
118.5729986021499
 20
352.332075471698
 30
0.0
 11
146.5729986021499
 21
352.332075471698
 31
0.0
  0
LINE
  5
1C32
330
A
100
AcDbEntity
  8
04
100
AcDbLine
 10
146.5729986021499
 20
356.3320754716978
 30
0.0
 11
118.5729986021499
 21
356.3320754716978
 31
0.0
  0
LINE
  5
1C33
330
A
100
AcDbEntity
  8
04
100
AcDbLine
 10
118.5729986021499
 20
356.3320754716978
 30
0.0
 11
118.5729986021499
 21
352.332075471698
 31
0.0
  0
LINE
  5
1C34
330
A
100
AcDbEntity
  8
04
100
AcDbLine
 10
135.7729986021499
 20
406.8320754716978
 30
0.0
 11
145.0729986021499
 21
406.8320754716978
 31
0.0
  0
LINE
  5
1C35
330
A
100
AcDbEntity
  8
04
100
AcDbLine
 10
148.2729986021499
 20
380.8320754716978
 30
0.0
 11
139.0729986021499
 21
380.8320754716978
 31
0.0
  0
LINE
  5
1C36
330
A
100
AcDbEntity
  8
04
100
AcDbLine
 10
135.7729986021499
 20
403.6320754716978
 30
0.0
 11
135.7729986021499
 21
406.8320754716978
 31
0.0
  0
LINE
  5
1C37
330
A
100
AcDbEntity
  8
04
100
AcDbLine
 10
148.2729986021499
 20
403.6320754716978
 30
0.0
 11
148.2729986021499
 21
380.8320754716978
 31
0.0
  0
LINE
  5
1C38
330
A
100
AcDbEntity
  8
04
100
AcDbLine
 10
135.7729986021499
 20
403.6320754716978
 30
0.0
 11
145.0729986021499
 21
403.6320754716978
 31
0.0
  0
LINE
  5
1C39
330
A
100
AcDbEntity
  8
04
100
AcDbLine
 10
145.0729986021499
 20
400.8320754716979
 30
0.0
 11
145.0729986021499
 21
403.6320754716978
 31
0.0
  0
LINE
  5
1C3A
330
A
100
AcDbEntity
  8
04
100
AcDbLine
 10
139.0729986021499
 20
380.8320754716978
 30
0.0
 11
139.0729986021499
 21
400.8320754716979
 31
0.0
  0
LINE
  5
1C3B
330
A
100
AcDbEntity
  8
04
100
AcDbLine
 10
142.2729986021499
 20
400.8320754716979
 30
0.0
 11
142.2729986021499
 21
380.8320754716978
 31
0.0
  0
LINE
  5
1C3C
330
A
100
AcDbEntity
  8
04
100
AcDbLine
 10
139.0729986021499
 20
400.8320754716979
 30
0.0
 11
148.2729986021499
 21
400.8320754716979
 31
0.0
  0
ARC
  5
1C3D
330
A
100
AcDbEntity
  8
04
100
AcDbCircle
 10
145.0729986021499
 20
403.6320754716978
 30
0.0
 40
3.2
100
AcDbArc
 50
0.0
 51
90.0
  0
LINE
  5
1C3E
330
A
100
AcDbEntity
  8
02
100
AcDbLine
 10
88.67299860214989
 20
459.3320754716981
 30
0.0
 11
88.67299860214989
 21
387.3320754716981
 31
0.0
  0
LINE
  5
1C3F
330
A
100
AcDbEntity
  8
06
100
AcDbLine
 10
94.87299860214987
 20
401.8320754716981
 30
0.0
 11
97.17299860214993
 21
401.8320754716981
 31
0.0
  0
LINE
  5
1C40
330
A
100
AcDbEntity
  8
06
100
AcDbLine
 10
102.1729986021499
 20
401.8320754716981
 30
0.0
 11
132.6729986021499
 21
401.8320754716981
 31
0.0
  0
ARC
  5
1C41
330
A
100
AcDbEntity
  8
04
100
AcDbCircle
 10
147.0213538102488
 20
372.7773749333187
 30
0.0
 40
1.851644791901012
100
AcDbArc
 50
0.0
 51
38.58009243837836
  0
LINE
  5
1C42
330
A
100
AcDbEntity
  8
04
100
AcDbLine
 10
144.0729986021499
 20
374.3320754716978
 30
0.0
 11
144.0729986021499
 21
373.9320754716978
 31
0.0
  0
LINE
  5
1C43
330
A
100
AcDbEntity
  8
04
100
AcDbLine
 10
144.0729986021499
 20
364.3320754716978
 30
0.0
 11
144.0729986021499
 21
364.7320754716978
 31
0.0
  0
LINE
  5
1C44
330
A
100
AcDbEntity
  8
04
100
AcDbLine
 10
124.0729986021497
 20
361.3320754716978
 30
0.0
 11
125.0729986021499
 21
361.3320754716978
 31
0.0
  0
LINE
  5
1C45
330
A
100
AcDbEntity
  8
04
100
AcDbLine
 10
140.2729986021499
 20
357.932075471698
 30
0.0
 11
141.0729986021499
 21
357.932075471698
 31
0.0
  0
ARC
  5
1C46
330
A
100
AcDbEntity
  8
04
100
AcDbCircle
 10
126.9493869770162
 20
362.5447227192193
 30
0.0
 40
2.887352752478531
100
AcDbArc
 50
90.0
 51
130.5313949418967
  0
ARC
  5
1C47
330
A
100
AcDbEntity
  8
04
100
AcDbCircle
 10
138.1966102272835
 20
362.5447227192193
 30
0.0
 40
2.887352752478529
100
AcDbArc
 50
49.46860505810329
 51
90.0
  0
LINE
  5
1C48
330
A
100
AcDbEntity
  8
04
100
AcDbLine
 10
140.0729986021499
 20
359.932075471698
 30
0.0
 11
140.2729986021499
 21
359.932075471698
 31
0.0
  0
LINE
  5
1C49
330
A
100
AcDbEntity
  8
04
100
AcDbLine
 10
126.5729986021499
 20
394.8320754716978
 30
0.0
 11
126.5729986021499
 21
392.3320754716978
 31
0.0
  0
LINE
  5
1C4A
330
A
100
AcDbEntity
  8
04
100
AcDbLine
 10
132.5729986021499
 20
394.8320754716978
 30
0.0
 11
132.5729986021499
 21
393.3320754716978
 31
0.0
  0
LINE
  5
1C4B
330
A
100
AcDbEntity
  8
04
100
AcDbLine
 10
126.5729986021499
 20
372.3320754716978
 30
0.0
 11
126.5729986021499
 21
369.8320754716978
 31
0.0
  0
LINE
  5
1C4C
330
A
100
AcDbEntity
  8
04
100
AcDbLine
 10
132.5729986021499
 20
371.3320754716978
 30
0.0
 11
132.5729986021499
 21
369.8320754716978
 31
0.0
  0
LINE
  5
1C4D
330
A
100
AcDbEntity
  8
04
100
AcDbLine
 10
133.7729986021499
 20
371.3320754716978
 30
0.0
 11
133.3729986021499
 21
370.9320754716978
 31
0.0
  0
LINE
  5
1C4E
330
A
100
AcDbEntity
  8
06
100
AcDbLine
 10
132.6729986021499
 20
457.8320754716981
 30
0.0
 11
132.6729986021499
 21
455.8320754716981
 31
0.0
  0
LINE
  5
1C4F
330
A
100
AcDbEntity
  8
06
100
AcDbLine
 10
136.6729986021497
 20
406.8320754716978
 30
0.0
 11
136.6729986021497
 21
409.2720754716983
 31
0.0
  0
LINE
  5
1C50
330
A
100
AcDbEntity
  8
06
100
AcDbLine
 10
146.6729986021499
 20
406.8320754716976
 30
0.0
 11
146.6729986021499
 21
409.2720754716983
 31
0.0
  0
LINE
  5
1C51
330
A
100
AcDbEntity
  8
06
100
AcDbLine
 10
146.6729986021499
 20
409.2720754716983
 30
0.0
 11
136.6729986021497
 21
409.2720754716983
 31
0.0
  0
LINE
  5
1C52
330
A
100
AcDbEntity
  8
06
100
AcDbLine
 10
146.6729986021499
 20
406.8320754716976
 30
0.0
 11
136.6729986021497
 21
406.8320754716978
 31
0.0
  0
LINE
  5
1C53
330
A
100
AcDbEntity
  8
04
100
AcDbLine
 10
124.0729986021499
 20
357.3320754716978
 30
0.0
 11
124.0729986021499
 21
356.3320754716978
 31
0.0
  0
LINE
  5
1C54
330
A
100
AcDbEntity
  8
04
100
AcDbLine
 10
125.0729986021499
 20
364.7392551486703
 30
0.0
 11
125.0729986021499
 21
361.3320754716978
 31
0.0
  0
LINE
  5
1C55
330
A
100
AcDbEntity
  8
06
100
AcDbLine
 10
146.6729986021499
 20
452.8320754716985
 30
0.0
 11
136.6729986021498
 21
452.8320754716985
 31
0.0
  0
LINE
  5
1C56
330
A
100
AcDbEntity
  8
06
100
AcDbLine
 10
136.6729986021498
 20
452.8320754716985
 30
0.0
 11
136.6729986021498
 21
450.3920754716981
 31
0.0
  0
LINE
  5
1C57
330
A
100
AcDbEntity
  8
06
100
AcDbLine
 10
146.6729986021499
 20
452.8320754716985
 30
0.0
 11
146.6729986021499
 21
450.3920754716981
 31
0.0
  0
LINE
  5
1C58
330
A
100
AcDbEntity
  8
06
100
AcDbLine
 10
136.6729986021498
 20
450.3920754716981
 30
0.0
 11
146.6729986021499
 21
450.3920754716981
 31
0.0
  0
LINE
  5
1C59
330
A
100
AcDbEntity
  8
06
100
AcDbLine
 10
148.5229986021498
 20
409.2720754716983
 30
0.0
 11
149.1729986021498
 21
405.8320754716983
 31
0.0
  0
LINE
  5
1C5A
330
A
100
AcDbEntity
  8
06
100
AcDbLine
 10
149.1729986021498
 20
405.8320754716983
 30
0.0
 11
147.8229986021498
 21
405.8320754716983
 31
0.0
  0
LINE
  5
1C5B
330
A
100
AcDbEntity
  8
06
100
AcDbLine
 10
147.1729986021498
 20
409.2720754716983
 30
0.0
 11
147.8229986021498
 21
405.8320754716983
 31
0.0
  0
LINE
  5
1C5C
330
A
100
AcDbEntity
  8
06
100
AcDbLine
 10
136.1729986021499
 20
409.2720754716983
 30
0.0
 11
135.5229986021497
 21
405.8320754716983
 31
0.0
  0
LINE
  5
1C5D
330
A
100
AcDbEntity
  8
06
100
AcDbLine
 10
134.8229986021497
 20
409.2720754716983
 30
0.0
 11
134.1729986021499
 21
405.8320754716983
 31
0.0
  0
LINE
  5
1C5E
330
A
100
AcDbEntity
  8
06
100
AcDbLine
 10
134.1729986021499
 20
405.8320754716983
 30
0.0
 11
135.5229986021497
 21
405.8320754716983
 31
0.0
  0
LINE
  5
1C5F
330
A
100
AcDbEntity
  8
06
100
AcDbLine
 10
134.8229986021497
 20
450.3920754716981
 30
0.0
 11
134.8229986021497
 21
409.2720754716983
 31
0.0
  0
LINE
  5
1C60
330
A
100
AcDbEntity
  8
06
100
AcDbLine
 10
148.5229986021498
 20
450.3920754716981
 30
0.0
 11
148.5229986021498
 21
409.2720754716983
 31
0.0
  0
LINE
  5
1C61
330
A
100
AcDbEntity
  8
06
100
AcDbLine
 10
147.1729986021498
 20
409.2720754716983
 30
0.0
 11
136.1729986021499
 21
409.2720754716983
 31
0.0
  0
LINE
  5
1CCF
330
A
100
AcDbEntity
  8
KAKURE
100
AcDbLine
 10
105.1729986021497
 20
353.8320754716981
 30
0.0
 11
105.1729985999196
 21
339.832075471698
 31
0.0
  0
LINE
  5
1CD0
330
A
100
AcDbEntity
  8
KAKURE
100
AcDbLine
 10
93.17299860394472
 20
356.8320754716981
 30
0.0
 11
93.17299860394472
 21
339.8320754716982
 31
0.0
  0
MTEXT
  5
1D4D
330
A
100
AcDbEntity
  8
MOJI
100
AcDbMText
 10
255.0
 20
44.00000000000005
 30
0.0
 40
7.0
 41
60.0
 71
     5
 72
     1
  1
片引き又は両引き
  7
0_80
1001
ACAD
1000
MTEXTBEGIN
1070
    73
1070
     1
1070
    44
1040
1.0
1070
    74
1070
     0
1000
MTEXTEND
1000
MTEXTBEGIN
1070
    73
1070
     1
1070
    44
1040
1.0
1070
    74
1070
     0
1000
MTEXTEND
  0
MTEXT
  5
1D4E
330
A
100
AcDbEntity
  8
MOJI
100
AcDbMText
 10
309.9999999999969
 20
44.00000000000005
 30
0.0
 40
7.0
 41
50.0
 71
     5
 72
     1
  1
図番１－２
  7
0_80
1001
ACAD
1000
MTEXTBEGIN
1070
    73
1070
     1
1070
    44
1040
1.0
1070
    74
1070
     0
1000
MTEXTEND
1000
MTEXTBEGIN
1070
    73
1070
     1
1070
    44
1040
1.0
1070
    74
1070
     0
1000
MTEXTEND
  0
MTEXT
  5
1D4F
330
A
100
AcDbEntity
  8
MOJI
100
AcDbMText
 10
359.9999999999971
 20
44.00000000000005
 30
0.0
 40
7.0
 41
49.99999999999994
 71
     5
 72
     1
  1
たて断面図　
  7
0_80
1001
ACAD
1000
MTEXTBEGIN
1070
    73
1070
     1
1070
    44
1040
1.0
1070
    74
1070
     0
1000
MTEXTEND
1000
MTEXTBEGIN
1070
    73
1070
     1
1070
    44
1040
1.0
1070
    74
1070
     0
1000
MTEXTEND
  0
LINE
  5
1D50
330
A
100
AcDbEntity
  8
SAISEN
100
AcDbLine
 10
144.999999999997
 20
57.00000000000017
 30
0.0
 11
144.999999999997
 21
32.0
 31
0.0
  0
LINE
  5
1D51
330
A
100
AcDbEntity
  8
SAISEN
100
AcDbLine
 10
224.9999999999969
 20
57.00000000000017
 30
0.0
 11
224.9999999999969
 21
32.0
 31
0.0
  0
LINE
  5
1D52
330
A
100
AcDbEntity
  8
SAISEN
100
AcDbLine
 10
284.9999999999969
 20
57.00000000000017
 30
0.0
 11
284.9999999999969
 21
32.0
 31
0.0
  0
MTEXT
  5
1D53
330
A
100
AcDbEntity
  8
MOJI
100
AcDbMText
 10
89.89194499017385
 20
44.52455795677809
 30
0.0
 40
7.0
 41
110.0
 71
     5
 72
     1
  1
アルミフロント７０ｍｍ納り
  7
0_8
1001
ACAD
1000
MTEXTBEGIN
1070
    73
1070
     1
1070
    44
1040
1.0
1070
    74
1070
     0
1000
MTEXTEND
1000
MTEXTBEGIN
1070
    73
1070
     1
1070
    44
1040
1.0
1070
    74
1070
     0
1000
MTEXTEND
  0
MTEXT
  5
1D54
330
A
100
AcDbEntity
  8
MOJI
100
AcDbMText
 10
184.9999999999969
 20
44.50000000000011
 30
0.0
 40
7.0
 41
80.0
 71
     5
 72
     1
  1
ＳＯＴ－Ｔ６０ＫＮＢ
  7
0_8
1001
ACAD
1000
MTEXTBEGIN
1070
    73
1070
     1
1070
    44
1040
1.0
1070
    74
1070
     0
1000
MTEXTEND
1000
MTEXTBEGIN
1070
    73
1070
     1
1070
    44
1040
1.0
1070
    74
1070
     0
1000
MTEXTEND
  0
POLYLINE
  5
1D55
330
A
100
AcDbEntity
  8
SAISEN
100
AcDb2dPolyline
 66
     1
 10
0.0
 20
0.0
 30
0.0
 70
     1
  0
VERTEX
  5
1DA7
330
1D55
100
AcDbEntity
  8
SAISEN
100
AcDbVertex
100
AcDb2dVertex
 10
34.99999999999703
 20
32.0
 30
0.0
  0
VERTEX
  5
1DA8
330
1D55
100
AcDbEntity
  8
SAISEN
100
AcDbVertex
100
AcDb2dVertex
 10
384.999999999997
 20
32.0
 30
0.0
  0
VERTEX
  5
1DA9
330
1D55
100
AcDbEntity
  8
SAISEN
100
AcDbVertex
100
AcDb2dVertex
 10
384.999999999997
 20
57.00000000000017
 30
0.0
  0
VERTEX
  5
1DAA
330
1D55
100
AcDbEntity
  8
SAISEN
100
AcDbVertex
100
AcDb2dVertex
 10
34.99999999999703
 20
57.00000000000017
 30
0.0
  0
SEQEND
  5
1DAB
330
1D55
100
AcDbEntity
  8
SAISEN
  0
VIEWPORT
  5
C4B
102
{ACAD_XDICTIONARY
360
1D87
102
}
330
B
100
AcDbEntity
 67
     1
  8
0
100
AcDbViewport
 10
197.7220582250818
 20
283.8990119591347
 30
0.0
 40
1030.552740959996
 41
600.5058674350679
 68
     1
 69
     1
1001
ACAD
1000
MVIEW
1002
{
1070
    16
1010
0.0
1020
0.0
1030
0.0
1010
0.0
1020
0.0
1030
1.0
1040
0.0
1040
600.5058674350679
1040
197.7220582250818
1040
283.8990119591347
1040
50.0
1040
0.0
1040
0.0
1070
     0
1070
   100
1070
     1
1070
     1
1070
     0
1070
     0
1070
     0
1070
     0
1040
0.0
1040
0.0
1040
0.0
1040
10.0
1040
10.0
1040
10.0
1040
10.0
1070
     0
1002
{
1002
}
1002
}
  0
VIEWPORT
  5
1D6F
102
{ACAD_XDICTIONARY
360
1D8D
102
}
330
B
100
AcDbEntity
 67
     1
  8
DEFPOINTS
100
AcDbViewport
 10
197.7220591788442
 20
283.8990110053721
 30
0.0
 40
396.4883172119752
 41
570.409736121624
 68
     2
 69
     2
1001
ACAD
1000
MVIEW
1002
{
1070
    16
1010
0.0
1020
0.0
1030
0.0
1010
0.0
1020
0.0
1030
1.0
1040
0.0
1040
570.409736121624
1040
210.0
1040
297.0
1040
50.0
1040
0.0
1040
0.0
1070
     0
1070
   100
1070
     1
1070
     1
1070
     0
1070
     0
1070
     0
1070
     0
1040
0.0
1040
0.0
1040
0.0
1040
1.0
1040
1.0
1040
0.0
1040
0.0
1070
     0
1002
{
1002
}
1002
}
  0
ENDSEC
  0
SECTION
  2
OBJECTS
  0
DICTIONARY
  5
19
330
0
100
AcDbDictionary
  3
ACAD_COLOR
350
7A6
  3
ACAD_GROUP
350
1A
  3
ACAD_LAYOUT
350
7A7
  3
ACAD_MATERIAL
350
7A5
  3
ACAD_MLINESTYLE
350
1B
  3
ACAD_PLOTSETTINGS
350
7A8
  3
ACADDIM
350
B04
  3
ASE_INDEX_DICTIONARY
350
1D56
  3
DWGPROPS
350
1D83
1001
ACAD
1000
TREAT_AS_HARD
1070
     0
1000
TREAT_AS_HARD
1070
     0
  0
DICTIONARY
  5
1D3D
330
2
100
AcDbDictionary
  3
ACAD_LAYERSTATES
350
1D3E
1001
ACAD
1000
TREAT_AS_HARD
1070
     1
  0
DICTIONARY
  5
1CF6
330
A
100
AcDbDictionary
  3
ACAD_LAYOUTSELFREF
350
1D95
1001
ACAD
1000
TREAT_AS_HARD
1070
     1
  0
DICTIONARY
  5
1CF8
330
B
100
AcDbDictionary
  3
ACAD_LAYOUTSELFREF
350
1D96
1001
ACAD
1000
TREAT_AS_HARD
1070
     1
  0
DICTIONARY
  5
1D87
330
C4B
100
AcDbDictionary
  3
ACAD_XREC_ROUNDTRIP
350
1D88
1001
ACAD
1000
TREAT_AS_HARD
1070
     1
  0
DICTIONARY
  5
1D8D
330
1D6F
100
AcDbDictionary
  3
ACAD_XREC_ROUNDTRIP
350
1D8E
1001
ACAD
1000
TREAT_AS_HARD
1070
     1
  0
DICTIONARY
  5
7A6
102
{ACAD_REACTORS
330
19
102
}
330
19
100
AcDbDictionary
1001
ACAD
1000
TREAT_AS_HARD
1070
     0
1000
TREAT_AS_HARD
1070
     0
  0
DICTIONARY
  5
1A
102
{ACAD_REACTORS
330
19
102
}
330
19
100
AcDbDictionary
  3
60KNB
350
1B63
  3
DAGROUP591
350
591
  3
DAGROUP597
350
597
  3
DAGROUP59D
350
59D
  3
DAGROUP5A3
350
5A3
  3
DAGROUP5A9
350
5A9
  3
DAGROUP5AF
350
5AF
  3
DAGROUP5B5
350
5B5
  3
DAGROUP5BB
350
5BB
  3
DAGROUP5C1
350
5C1
  3
DAGROUP5C7
350
5C7
  3
DAGROUP5CD
350
5CD
  3
DAGROUP5D3
350
5D3
  3
DAGROUP5D9
350
5D9
  3
DAGROUP5DF
350
5DF
  3
DAGROUP5E5
350
5E5
  3
DAGROUP5EB
350
5EB
  3
DAGROUP5F1
350
5F1
  3
DAGROUP5F7
350
5F7
  3
DAGROUP5FD
350
5FD
  3
DAGROUP603
350
603
  3
DAGROUP609
350
609
  3
DAGROUP60D
350
60D
  3
DAGROUP611
350
611
  3
DAGROUP615
350
615
  3
DAGROUP619
350
619
  3
DAGROUP61D
350
61D
  3
DAGROUP621
350
621
  3
DAGROUP625
350
625
  3
DAGROUP629
350
629
1001
ACAD
1000
TREAT_AS_HARD
1070
     0
1000
TREAT_AS_HARD
1070
     0
  0
DICTIONARY
  5
7A7
102
{ACAD_REACTORS
330
19
102
}
330
19
100
AcDbDictionary
1001
ACAD
1000
TREAT_AS_HARD
1070
     0
1000
TREAT_AS_HARD
1070
     0
  0
DICTIONARY
  5
7A5
102
{ACAD_REACTORS
330
19
102
}
330
19
100
AcDbDictionary
1001
ACAD
1000
TREAT_AS_HARD
1070
     0
1000
TREAT_AS_HARD
1070
     0
  0
DICTIONARY
  5
1B
102
{ACAD_REACTORS
330
19
102
}
330
19
100
AcDbDictionary
  3
STANDARD
350
1C
1001
ACAD
1000
TREAT_AS_HARD
1070
     0
1000
TREAT_AS_HARD
1070
     0
  0
DICTIONARY
  5
7A8
102
{ACAD_REACTORS
330
19
102
}
330
19
100
AcDbDictionary
1001
ACAD
1000
TREAT_AS_HARD
1070
     0
1000
TREAT_AS_HARD
1070
     0
  0
XRECORD
  5
B04
102
{ACAD_REACTORS
330
19
102
}
330
19
100
AcDbXrecord
 90
   990106
  3

 60
     0
 61
     0
 62
     1
 63
     3
 64
     1
 65
     0
 66
     0
 67
     3
 68
     1
 69
     0
 70
     0
 71
     0
 72
     0
 40
0.0
170
     2
340
B12
  0
DICTIONARY
  5
1D56
102
{ACAD_REACTORS
330
19
102
}
330
19
100
AcDbDictionary
  3
ASEBLOCKHIERARCHYINDEXRECORD
350
1D57
1001
DCO15
1040
1508667197.530999
1001
ACAD
1000
TREAT_AS_HARD
1070
     0
  0
XRECORD
  5
1D83
102
{ACAD_REACTORS
330
19
102
}
330
19
100
AcDbXrecord
  1
DWGPROPS COOKIE
  2

  3

  4

  6

  7

  8
watanabe
  9

300
=
301
=
302
=
303
=
304
=
305
=
306
=
307
=
308
=
309
=
 40
0.9838321064814813
 41
2444972.375
 42
2453265.754898541
  1

 90
        0
  0
DICTIONARY
  5
1D3E
102
{ACAD_REACTORS
330
1D3D
102
}
330
1D3D
100
AcDbDictionary
1001
ACAD
1000
TREAT_AS_HARD
1070
     0
  0
XRECORD
  5
1D95
102
{ACAD_REACTORS
330
1CF6
102
}
330
1CF6
100
AcDbXrecord
340
A
  0
XRECORD
  5
1D96
102
{ACAD_REACTORS
330
1CF8
102
}
330
1CF8
100
AcDbXrecord
340
B
  0
XRECORD
  5
1D88
102
{ACAD_REACTORS
330
1D87
102
}
330
1D87
100
AcDbXrecord
102
SHADEPLOT
 70
     0
  0
XRECORD
  5
1D8E
102
{ACAD_REACTORS
330
1D8D
102
}
330
1D8D
100
AcDbXrecord
102
SHADEPLOT
 70
     0
  0
GROUP
  5
1B63
102
{ACAD_REACTORS
330
1A
102
}
330
1A
100
AcDbGroup
300

 70
     0
 71
     1
340
1B5C
340
1B5D
340
1B5B
340
1B60
340
1B5F
340
1B5A
  0
GROUP
  5
591
102
{ACAD_REACTORS
330
1A
102
}
330
1A
100
AcDbGroup
300

 70
     0
 71
     1
  0
GROUP
  5
597
102
{ACAD_REACTORS
330
1A
102
}
330
1A
100
AcDbGroup
300

 70
     0
 71
     1
  0
GROUP
  5
59D
102
{ACAD_REACTORS
330
1A
102
}
330
1A
100
AcDbGroup
300

 70
     0
 71
     1
  0
GROUP
  5
5A3
102
{ACAD_REACTORS
330
1A
102
}
330
1A
100
AcDbGroup
300

 70
     0
 71
     1
  0
GROUP
  5
5A9
102
{ACAD_REACTORS
330
1A
102
}
330
1A
100
AcDbGroup
300

 70
     0
 71
     1
  0
GROUP
  5
5AF
102
{ACAD_REACTORS
330
1A
102
}
330
1A
100
AcDbGroup
300

 70
     0
 71
     1
  0
GROUP
  5
5B5
102
{ACAD_REACTORS
330
1A
102
}
330
1A
100
AcDbGroup
300

 70
     0
 71
     1
  0
GROUP
  5
5BB
102
{ACAD_REACTORS
330
1A
102
}
330
1A
100
AcDbGroup
300

 70
     0
 71
     1
  0
GROUP
  5
5C1
102
{ACAD_REACTORS
330
1A
102
}
330
1A
100
AcDbGroup
300

 70
     0
 71
     1
  0
GROUP
  5
5C7
102
{ACAD_REACTORS
330
1A
102
}
330
1A
100
AcDbGroup
300

 70
     0
 71
     1
  0
GROUP
  5
5CD
102
{ACAD_REACTORS
330
1A
102
}
330
1A
100
AcDbGroup
300

 70
     0
 71
     1
  0
GROUP
  5
5D3
102
{ACAD_REACTORS
330
1A
102
}
330
1A
100
AcDbGroup
300

 70
     0
 71
     1
  0
GROUP
  5
5D9
102
{ACAD_REACTORS
330
1A
102
}
330
1A
100
AcDbGroup
300

 70
     0
 71
     1
  0
GROUP
  5
5DF
102
{ACAD_REACTORS
330
1A
102
}
330
1A
100
AcDbGroup
300

 70
     0
 71
     1
  0
GROUP
  5
5E5
102
{ACAD_REACTORS
330
1A
102
}
330
1A
100
AcDbGroup
300

 70
     0
 71
     1
  0
GROUP
  5
5EB
102
{ACAD_REACTORS
330
1A
102
}
330
1A
100
AcDbGroup
300

 70
     0
 71
     1
  0
GROUP
  5
5F1
102
{ACAD_REACTORS
330
1A
102
}
330
1A
100
AcDbGroup
300

 70
     0
 71
     1
  0
GROUP
  5
5F7
102
{ACAD_REACTORS
330
1A
102
}
330
1A
100
AcDbGroup
300

 70
     0
 71
     1
  0
GROUP
  5
5FD
102
{ACAD_REACTORS
330
1A
102
}
330
1A
100
AcDbGroup
300

 70
     0
 71
     1
  0
GROUP
  5
603
102
{ACAD_REACTORS
330
1A
102
}
330
1A
100
AcDbGroup
300

 70
     0
 71
     1
  0
GROUP
  5
609
102
{ACAD_REACTORS
330
1A
102
}
330
1A
100
AcDbGroup
300

 70
     0
 71
     1
  0
GROUP
  5
60D
102
{ACAD_REACTORS
330
1A
102
}
330
1A
100
AcDbGroup
300

 70
     0
 71
     1
  0
GROUP
  5
611
102
{ACAD_REACTORS
330
1A
102
}
330
1A
100
AcDbGroup
300

 70
     0
 71
     1
  0
GROUP
  5
615
102
{ACAD_REACTORS
330
1A
102
}
330
1A
100
AcDbGroup
300

 70
     0
 71
     1
  0
GROUP
  5
619
102
{ACAD_REACTORS
330
1A
102
}
330
1A
100
AcDbGroup
300

 70
     0
 71
     1
  0
GROUP
  5
61D
102
{ACAD_REACTORS
330
1A
102
}
330
1A
100
AcDbGroup
300

 70
     0
 71
     1
  0
GROUP
  5
621
102
{ACAD_REACTORS
330
1A
102
}
330
1A
100
AcDbGroup
300

 70
     0
 71
     1
  0
GROUP
  5
625
102
{ACAD_REACTORS
330
1A
102
}
330
1A
100
AcDbGroup
300

 70
     0
 71
     1
  0
GROUP
  5
629
102
{ACAD_REACTORS
330
1A
102
}
330
1A
100
AcDbGroup
300

 70
     0
 71
     1
  0
MLINESTYLE
  5
1C
102
{ACAD_REACTORS
330
1B
102
}
330
1B
100
AcDbMlineStyle
  2
STANDARD
 70
     0
  3

 62
     0
 51
90.00000000000019
 52
90.00000000000019
 71
     2
 49
0.5
 62
   256
  6
BYLAYER
 49
-0.5
 62
   256
  6
BYLAYER
  0
XRECORD
  5
1D57
102
{ACAD_REACTORS
330
1D56
102
}
330
1D56
100
AcDbXrecord
330
1BAB
330
12AE
330
12AF
330
12A5
330
12A6
330
129D
330
129E
330
1291
330
1292
330
1288
330
1289
330
1280
330
127F
330
1274
330
1275
330
126B
330
126C
330
1260
330
1261
330
1258
330
1257
330
124E
330
124F
330
1245
330
1246
330
123C
330
123D
330
1233
330
1234
330
122A
330
122B
330
1317
330
1318
330
1218
330
1219
330
1210
330
120F
330
1206
330
1207
330
11FD
330
11FE
330
11F5
330
11F6
330
12D8
330
12D9
330
11E0
330
11E1
330
12FC
330
12FD
330
130E
330
130F
330
1305
330
1306
  0
ENDSEC
  0
EOF
