  0
SECTION
  2
HEADER
  9
$ACADVER
  1
AC1012
  9
$DWGCODEPAGE
  3
dos932
  9
$INSBASE
 10
0.0
 20
0.0
 30
0.0
  9
$EXTMIN
 10
0.0
 20
0.0
 30
0.0
  9
$EXTMAX
 10
420.0
 20
594.0
 30
0.0
  9
$LIMMIN
 10
0.0
 20
0.0
  9
$LIMMAX
 10
420.0
 20
594.0
  9
$ORTHOMODE
 70
     1
  9
$REGENMODE
 70
     1
  9
$FILLMODE
 70
     1
  9
$QTEXTMODE
 70
     0
  9
$MIRRTEXT
 70
     1
  9
$DRAGMODE
 70
     2
  9
$LTSCALE
 40
0.3
  9
$OSMODE
 70
    37
  9
$ATTMODE
 70
     1
  9
$TEXTSIZE
 40
8.0
  9
$TRACEWID
 40
0.05
  9
$TEXTSTYLE
  7
STANDARD
  9
$CLAYER
  8
DEFPOINTS
  9
$CELTYPE
  6
BYLAYER
  9
$CECOLOR
 62
   256
  9
$CELTSCALE
 40
1.0
  9
$DELOBJ
 70
     1
  9
$DISPSILH
 70
     0
  9
$DIMSCALE
 40
2.0
  9
$DIMASZ
 40
2.5
  9
$DIMEXO
 40
1.5
  9
$DIMDLI
 40
0.0
  9
$DIMRND
 40
0.0
  9
$DIMDLE
 40
0.0
  9
$DIMEXE
 40
1.0
  9
$DIMTP
 40
0.0
  9
$DIMTM
 40
0.0
  9
$DIMTXT
 40
2.5
  9
$DIMCEN
 40
0.0
  9
$DIMTSZ
 40
0.0
  9
$DIMTOL
 70
     0
  9
$DIMLIM
 70
     0
  9
$DIMTIH
 70
     0
  9
$DIMTOH
 70
     0
  9
$DIMSE1
 70
     0
  9
$DIMSE2
 70
     0
  9
$DIMTAD
 70
     1
  9
$DIMZIN
 70
     8
  9
$DIMBLK
  1
OPEN30
  9
$DIMASO
 70
     1
  9
$DIMSHO
 70
     1
  9
$DIMPOST
  1

  9
$DIMAPOST
  1

  9
$DIMALT
 70
     0
  9
$DIMALTD
 70
     2
  9
$DIMALTF
 40
25.4
  9
$DIMLFAC
 40
1.0
  9
$DIMTOFL
 70
     1
  9
$DIMTVP
 40
0.0
  9
$DIMTIX
 70
     1
  9
$DIMSOXD
 70
     0
  9
$DIMSAH
 70
     0
  9
$DIMBLK1
  1

  9
$DIMBLK2
  1

  9
$DIMSTYLE
  2
SUNPOU_2
  9
$DIMCLRD
 70
   256
  9
$DIMCLRE
 70
   256
  9
$DIMCLRT
 70
   256
  9
$DIMTFAC
 40
1.0
  9
$DIMGAP
 40
1.0
  9
$DIMJUST
 70
     0
  9
$DIMSD1
 70
     0
  9
$DIMSD2
 70
     0
  9
$DIMTOLJ
 70
     1
  9
$DIMTZIN
 70
     0
  9
$DIMALTZ
 70
     0
  9
$DIMALTTZ
 70
     0
  9
$DIMFIT
 70
     3
  9
$DIMUPT
 70
     0
  9
$DIMUNIT
 70
     2
  9
$DIMDEC
 70
     1
  9
$DIMTDEC
 70
     1
  9
$DIMALTU
 70
     2
  9
$DIMALTTD
 70
     2
  9
$DIMTXSTY
  7
SUNPOU
  9
$DIMAUNIT
 70
     0
  9
$LUNITS
 70
     2
  9
$LUPREC
 70
     4
  9
$SKETCHINC
 40
0.1
  9
$FILLETRAD
 40
0.0
  9
$AUNITS
 70
     0
  9
$AUPREC
 70
     0
  9
$MENU
  1
acad
  9
$ELEVATION
 40
0.0
  9
$PELEVATION
 40
0.0
  9
$THICKNESS
 40
0.0
  9
$LIMCHECK
 70
     0
  9
$BLIPMODE
 70
     0
  9
$CHAMFERA
 40
0.0
  9
$CHAMFERB
 40
0.0
  9
$CHAMFERC
 40
0.0
  9
$CHAMFERD
 40
0.0
  9
$SKPOLY
 70
     0
  9
$TDCREATE
 40
2444972.375000000
  9
$TDUPDATE
 40
2453266.404482963
  9
$TDINDWG
 40
0.2179365625
  9
$TDUSRTIMER
 40
0.2179365625
  9
$USRTIMER
 70
     1
  9
$ANGBASE
 50
0.0
  9
$ANGDIR
 70
     0
  9
$PDMODE
 70
     0
  9
$PDSIZE
 40
1.0
  9
$PLINEWID
 40
0.0
  9
$COORDS
 70
     1
  9
$SPLFRAME
 70
     0
  9
$SPLINETYPE
 70
     6
  9
$SPLINESEGS
 70
     8
  9
$ATTDIA
 70
     0
  9
$ATTREQ
 70
     1
  9
$HANDLING
 70
-16383
  9
$HANDSEED
  5
12EC
  9
$SURFTAB1
 70
     6
  9
$SURFTAB2
 70
     6
  9
$SURFTYPE
 70
     6
  9
$SURFU
 70
     6
  9
$SURFV
 70
     6
  9
$UCSNAME
  2

  9
$UCSORG
 10
0.0
 20
0.0
 30
0.0
  9
$UCSXDIR
 10
1.0
 20
0.0
 30
0.0
  9
$UCSYDIR
 10
0.0
 20
1.0
 30
0.0
  9
$PUCSNAME
  2

  9
$PUCSORG
 10
0.0
 20
0.0
 30
0.0
  9
$PUCSXDIR
 10
1.0
 20
0.0
 30
0.0
  9
$PUCSYDIR
 10
0.0
 20
1.0
 30
0.0
  9
$USERI1
 70
     0
  9
$USERI2
 70
     0
  9
$USERI3
 70
     0
  9
$USERI4
 70
     0
  9
$USERI5
 70
     0
  9
$USERR1
 40
0.0
  9
$USERR2
 40
0.0
  9
$USERR3
 40
0.0
  9
$USERR4
 40
0.0
  9
$USERR5
 40
0.0
  9
$WORLDVIEW
 70
     1
  9
$SHADEDGE
 70
     3
  9
$SHADEDIF
 70
    70
  9
$TILEMODE
 70
     1
  9
$MAXACTVP
 70
    16
  9
$PINSBASE
 10
0.0
 20
0.0
 30
0.0
  9
$PLIMCHECK
 70
     0
  9
$PEXTMIN
 10
-0.2055473772918503
 20
-0.0174202791267817
 30
-0.0015258207003583
  9
$PEXTMAX
 10
396.3139079836237
 20
570.3923158424973
 30
0.0000000349246037
  9
$PLIMMIN
 10
-11.94191342824454
 20
-11.76600219398141
  9
$PLIMMAX
 10
408.0435733360149
 20
582.1408996648768
  9
$UNITMODE
 70
     0
  9
$VISRETAIN
 70
     0
  9
$PLINEGEN
 70
     1
  9
$PSLTSCALE
 70
     0
  9
$TREEDEPTH
 70
  3020
  9
$PICKSTYLE
 70
     1
  9
$CMLSTYLE
  2
STANDARD
  9
$CMLJUST
 70
     0
  9
$CMLSCALE
 40
1.0
  9
$SAVEIMAGES
 70
     1
  0
ENDSEC
  0
SECTION
  2
CLASSES
  0
CLASS
  1
LWPOLYLINE
  2
AcDbPolyline
  3
AutoCAD 2000
 90
    32768
280
     0
281
     1
  0
CLASS
  1
IMAGE
  2
AcDbRasterImage
  3
ISM
 90
    32895
280
     0
281
     1
  0
CLASS
  1
OLE2FRAME
  2
AcDbOle2Frame
  3
AutoCAD 2000
 90
    32768
280
     0
281
     1
  0
CLASS
  1
HATCH
  2
AcDbHatch
  3
AutoCAD 2000
 90
    32768
280
     0
281
     1
  0
CLASS
  1
DICTIONARYVAR
  2
AcDbDictionaryVar
  3
AutoCAD 2000
 90
    32768
280
     0
281
     0
  0
CLASS
  1
RASTERVARIABLES
  2
AcDbRasterVariables
  3
ISM
 90
    32768
280
     0
281
     0
  0
CLASS
  1
IMAGEDEF
  2
AcDbRasterImageDef
  3
ISM
 90
    32768
280
     0
281
     0
  0
CLASS
  1
IMAGEDEF_REACTOR
  2
AcDbRasterImageDefReactor
  3
ISM
 90
    32769
280
     0
281
     0
  0
CLASS
  1
IDBUFFER
  2
AcDbIdBuffer
  3
AutoCAD 2000
 90
    32768
280
     0
281
     0
  0
CLASS
  1
SPATIAL_FILTER
  2
AcDbSpatialFilter
  3
AutoCAD 2000
 90
    32768
280
     0
281
     0
  0
CLASS
  1
XRECORD
  2
AcDbXrecord
  3
AutoCAD 2000
 90
    32768
280
     0
281
     0
  0
CLASS
  1
SORTENTSTABLE
  2
AcDbSortentsTable
  3
AutoCAD 2000
 90
    32768
280
     0
281
     0
  0
CLASS
  1
LAYER_INDEX
  2
AcDbLayerIndex
  3
AutoCAD 2000
 90
    32768
280
     0
281
     0
  0
CLASS
  1
SPATIAL_INDEX
  2
AcDbSpatialIndex
  3
AutoCAD 2000
 90
    32768
280
     0
281
     0
  0
CLASS
  1
OBJECT_PTR
  2
CAseDLPNTableRecord
  3
ASE-LPNTableRecord
 90
    32769
280
     0
281
     0
  0
CLASS
  1
ACDBDICTIONARYWDFLT
  2
AcDbDictionaryWithDefault
  3
AutoCAD 2000
 90
    32768
280
     0
281
     0
  0
CLASS
  1
ACDBPLACEHOLDER
  2
AcDbPlaceHolder
  3
AutoCAD 2000
 90
    32768
280
     0
281
     0
  0
CLASS
  1
LAYOUT
  2
AcDbLayout
  3
AutoCAD 2000
 90
    32768
280
     0
281
     0
  0
CLASS
  1
LONG_TRANSACTION
  2
AcDbLongTransaction
  3
AutoCAD 2000
 90
    32768
280
     0
281
     0
  0
CLASS
  1
LWPOLYLINE
  2
AcDbPolyline
  3
AutoCAD 2000
 90
    32768
280
     0
281
     1
  0
CLASS
  1
HATCH
  2
AcDbHatch
  3
AutoCAD 2000
 90
    32768
280
     0
281
     1
  0
CLASS
  1
XRECORD
  2
AcDbXrecord
  3
AutoCAD 2000
 90
    32768
280
     0
281
     0
  0
CLASS
  1
LONG_TRANSACTION
  2
AcDbLongTransaction
  3
AutoCAD 2000
 90
    32768
280
     0
281
     0
  0
CLASS
  1
LWPOLYLINE
  2
AcDbPolyline
  3
AutoCAD 2000
 90
    32768
280
     0
281
     1
  0
CLASS
  1
HATCH
  2
AcDbHatch
  3
AutoCAD 2000
 90
    32768
280
     0
281
     1
  0
CLASS
  1
XRECORD
  2
AcDbXrecord
  3
AutoCAD 2000
 90
    32768
280
     0
281
     0
  0
ENDSEC
  0
SECTION
  2
TABLES
  0
TABLE
  2
VPORT
  5
7
330
0
100
AcDbSymbolTable
 70
     2
  0
VPORT
  5
12DE
330
7
100
AcDbSymbolTableRecord
100
AcDbViewportTableRecord
  2
*ACTIVE
 70
     0
 10
0.0
 20
0.0
 11
1.0
 21
1.0
 12
229.2952905834688
 22
296.977352109311
 13
0.0
 23
0.0
 14
1.0
 24
1.0
 15
0.0
 25
0.0
 16
0.0
 26
0.0
 36
1.0
 17
0.0
 27
0.0
 37
0.0
 40
601.0973302210402
 41
1.780442804428044
 42
50.0
 43
0.0
 44
0.0
 50
0.0
 51
0.0
 71
     0
 72
   100
 73
     1
 74
     1
 75
     0
 76
     0
 77
     0
 78
     0
  0
ENDTAB
  0
TABLE
  2
LTYPE
  5
4
330
0
100
AcDbSymbolTable
 70
     4
  0
LTYPE
  5
11
330
4
100
AcDbSymbolTableRecord
100
AcDbLinetypeTableRecord
  2
BYBLOCK
 70
     0
  3

 72
    65
 73
     0
 40
0.0
  0
LTYPE
  5
12
330
4
100
AcDbSymbolTableRecord
100
AcDbLinetypeTableRecord
  2
BYLAYER
 70
     0
  3

 72
    65
 73
     0
 40
0.0
  0
LTYPE
  5
13
330
4
100
AcDbSymbolTableRecord
100
AcDbLinetypeTableRecord
  2
CONTINUOUS
 70
     0
  3
Solid line
 72
    65
 73
     0
 40
0.0
  0
LTYPE
  5
53E
330
4
100
AcDbSymbolTableRecord
100
AcDbLinetypeTableRecord
  2
CENTER2
 70
     0
  3
Center (.5x) ___ _ ___ _ ___ _ ___ _ ___ _ ___
 72
    65
 73
     4
 40
28.57499999999999
 49
19.05
 74
     0
 49
-3.174999999999998
 74
     0
 49
3.174999999999998
 74
     0
 49
-3.174999999999998
 74
     0
  0
LTYPE
  5
53F
330
4
100
AcDbSymbolTableRecord
100
AcDbLinetypeTableRecord
  2
DASHED2
 70
     0
  3
Dashed (.5x) _ _ _ _ _ _ _ _ _ _ _ _ _ _ _ _ _
 72
    65
 73
     2
 40
9.524999999999996
 49
6.349999999999998
 74
     0
 49
-3.174999999999998
 74
     0
  0
LTYPE
  5
540
330
4
100
AcDbSymbolTableRecord
100
AcDbLinetypeTableRecord
  2
PHANTOM2
 70
     0
  3
Phantom (.5x) ___ _ _ ___ _ _ ___ _ _ ___ _ _
 72
    65
 73
     6
 40
31.75
 49
15.875
 74
     0
 49
-3.174999999999998
 74
     0
 49
3.174999999999998
 74
     0
 49
-3.174999999999998
 74
     0
 49
3.174999999999998
 74
     0
 49
-3.174999999999998
 74
     0
  0
ENDTAB
  0
TABLE
  2
LAYER
  5
2
102
{ACAD_XDICTIONARY
360
128A
102
}
330
0
100
AcDbSymbolTable
 70
    13
  0
LAYER
  5
14
330
2
100
AcDbSymbolTableRecord
100
AcDbLayerTableRecord
  2
0
 70
     0
 62
     7
  6
CONTINUOUS
  0
LAYER
  5
541
330
2
100
AcDbSymbolTableRecord
100
AcDbLayerTableRecord
  2
DEFPOINTS
 70
     0
 62
     7
  6
CONTINUOUS
  0
LAYER
  5
542
330
2
100
AcDbSymbolTableRecord
100
AcDbLayerTableRecord
  2
03
 70
     0
 62
     3
  6
CONTINUOUS
  0
LAYER
  5
543
330
2
100
AcDbSymbolTableRecord
100
AcDbLayerTableRecord
  2
04
 70
     0
 62
     4
  6
CONTINUOUS
  0
LAYER
  5
544
330
2
100
AcDbSymbolTableRecord
100
AcDbLayerTableRecord
  2
06
 70
     0
 62
     6
  6
CONTINUOUS
  0
LAYER
  5
545
330
2
100
AcDbSymbolTableRecord
100
AcDbLayerTableRecord
  2
CHUSIN
 70
     0
 62
     6
  6
CENTER2
  0
LAYER
  5
546
330
2
100
AcDbSymbolTableRecord
100
AcDbLayerTableRecord
  2
HIKIDASI
 70
     0
 62
     6
  6
CONTINUOUS
  0
LAYER
  5
547
330
2
100
AcDbSymbolTableRecord
100
AcDbLayerTableRecord
  2
KAKURE
 70
     0
 62
     6
  6
DASHED2
  0
LAYER
  5
548
330
2
100
AcDbSymbolTableRecord
100
AcDbLayerTableRecord
  2
MOJI
 70
     0
 62
     3
  6
CONTINUOUS
  0
LAYER
  5
549
330
2
100
AcDbSymbolTableRecord
100
AcDbLayerTableRecord
  2
SOUZOU
 70
     0
 62
     6
  6
PHANTOM2
  0
LAYER
  5
54A
330
2
100
AcDbSymbolTableRecord
100
AcDbLayerTableRecord
  2
SUNPOU
 70
     0
 62
     6
  6
CONTINUOUS
  0
LAYER
  5
54B
330
2
100
AcDbSymbolTableRecord
100
AcDbLayerTableRecord
  2
SAISEN
 70
     0
 62
     3
  6
CONTINUOUS
  0
LAYER
  5
F9C
330
2
100
AcDbSymbolTableRecord
100
AcDbLayerTableRecord
  2
02
 70
     0
 62
     2
  6
CONTINUOUS
  0
ENDTAB
  0
TABLE
  2
STYLE
  5
3
330
0
100
AcDbSymbolTable
 70
     4
  0
STYLE
  5
17
330
3
100
AcDbSymbolTableRecord
100
AcDbTextStyleTableRecord
  2
STANDARD
 70
     0
 40
0.0
 41
0.8
 50
0.0
 71
     0
 42
8.0
  3
txt.shx
  4
bigfont.shx
  0
STYLE
  5
556
330
3
100
AcDbSymbolTableRecord
100
AcDbTextStyleTableRecord
  2
SUNPOU
 70
     0
 40
0.0
 41
0.8
 50
0.0
 71
     0
 42
3.5
  3
txt.shx
  4
extfont.shx
  0
STYLE
  5
55D
330
3
100
AcDbSymbolTableRecord
100
AcDbTextStyleTableRecord
  2
0_8
 70
     0
 40
0.0
 41
0.8
 50
0.0
 71
     0
 42
6.0
  3
txt.shx
  4
extfont.shx
  0
STYLE
  5
1288
330
3
100
AcDbSymbolTableRecord
100
AcDbTextStyleTableRecord
  2
0_80
 70
     0
 40
0.0
 41
0.8
 50
0.0
 71
     0
 42
5.0
  3
txt.shx
  4
extfont.shx
  0
ENDTAB
  0
TABLE
  2
VIEW
  5
5
330
0
100
AcDbSymbolTable
 70
     1
  0
VIEW
  5
135
330
5
100
AcDbSymbolTableRecord
100
AcDbViewTableRecord
  2
QQQQ
 70
     0
 40
505.1188800929629
 10
-1.000000000000085
 20
-30.43942077241487
 41
386.7499999999997
 11
0.0
 21
0.0
 31
1.0
 12
100.0
 22
100.0
 32
0.0
 42
50.0
 43
0.0
 44
0.0
 50
0.0
 71
     0
  0
ENDTAB
  0
TABLE
  2
UCS
  5
6
330
0
100
AcDbSymbolTable
 70
     0
  0
ENDTAB
  0
TABLE
  2
APPID
  5
8
330
0
100
AcDbSymbolTable
 70
     3
  0
APPID
  5
16
330
8
100
AcDbSymbolTableRecord
100
AcDbRegAppTableRecord
  2
ACAD
 70
     0
  0
APPID
  5
FD0
330
8
100
AcDbSymbolTableRecord
100
AcDbRegAppTableRecord
  2
DCO15
 70
     0
  0
APPID
  5
126E
330
8
100
AcDbSymbolTableRecord
100
AcDbRegAppTableRecord
  2
CONTENTBLOCKICON
 70
     0
  0
ENDTAB
  0
TABLE
  2
DIMSTYLE
  5
9
330
0
100
AcDbSymbolTable
 70
     2
  0
DIMSTYLE
105
557
102
{ACAD_REACTORS
330
56A
330
598
330
61C
330
62B
330
638
330
645
330
66A
330
6F1
330
707
330
714
330
721
330
72E
330
73B
330
748
102
}
330
9
100
AcDbSymbolTableRecord
100
AcDbDimStyleTableRecord
  2
SUNPOU_2
 70
     0
  3

  4

  5
OPEN30
  6

  7

 40
2.0
 41
2.5
 42
1.5
 43
0.0
 44
1.0
 45
0.0
 46
0.0
 47
0.0
 48
0.0
140
2.5
141
0.0
142
0.0
143
25.4
144
1.0
145
0.0
146
1.0
147
1.0
 71
     0
 72
     0
 73
     0
 74
     0
 75
     0
 76
     0
 77
     1
 78
     8
170
     0
171
     2
172
     1
173
     0
174
     1
175
     0
176
   256
177
   256
178
   256
270
     2
271
     1
272
     1
273
     2
274
     2
340
556
275
     0
280
     0
281
     0
282
     0
283
     1
284
     0
285
     0
286
     0
287
     3
288
     0
  0
DIMSTYLE
105
B7F
330
9
100
AcDbSymbolTableRecord
100
AcDbDimStyleTableRecord
  2
STANDARD
 70
     0
  3

  4

  5

  6

  7

 40
1.0
 41
0.18
 42
0.0625
 43
0.38
 44
0.18
 45
0.0
 46
0.0
 47
0.0
 48
0.0
140
0.18
141
0.09
142
0.0
143
25.4
144
1.0
145
0.0
146
1.0
147
0.09
 71
     0
 72
     0
 73
     1
 74
     1
 75
     0
 76
     0
 77
     0
 78
     0
170
     0
171
     2
172
     0
173
     0
174
     0
175
     0
176
     0
177
     0
178
     0
270
     2
271
     4
272
     4
273
     2
274
     2
340
17
275
     0
280
     0
281
     0
282
     0
283
     1
284
     0
285
     0
286
     0
287
     3
288
     0
  0
ENDTAB
  0
TABLE
  2
BLOCK_RECORD
  5
1
330
0
100
AcDbSymbolTable
 70
    15
  0
BLOCK_RECORD
  5
A
102
{ACAD_XDICTIONARY
360
126A
102
}
330
1
100
AcDbSymbolTableRecord
100
AcDbBlockTableRecord
  2
*MODEL_SPACE
  0
BLOCK_RECORD
  5
B
102
{ACAD_XDICTIONARY
360
126C
102
}
330
1
100
AcDbSymbolTableRecord
100
AcDbBlockTableRecord
  2
*PAPER_SPACE
  0
BLOCK_RECORD
  5
550
330
1
100
AcDbSymbolTableRecord
100
AcDbBlockTableRecord
  2
_OPEN30
1001
CONTENTBLOCKICON
1071
        0
1004
2800000020000000200000000100080000000000000400000000000000000000000000000000000000000000000080000080000000808000800000008000800080800000C0C0C000C0DCC000F0CAA6000020400000206000002080000020A0000020C0000020E00000400000004020000040400000406000004080000040A0
1004
000040C0000040E00000600000006020000060400000606000006080000060A0000060C0000060E00000800000008020000080400000806000008080000080A0000080C0000080E00000A0000000A0200000A0400000A0600000A0800000A0A00000A0C00000A0E00000C0000000C0200000C0400000C0600000C0800000C0
1004
A00000C0C00000C0E00000E0000000E0200000E0400000E0600000E0800000E0A00000E0C00000E0E00040000000400020004000400040006000400080004000A0004000C0004000E00040200000402020004020400040206000402080004020A0004020C0004020E000404000004040200040404000404060004040800040
1004
40A0004040C0004040E00040600000406020004060400040606000406080004060A0004060C0004060E00040800000408020004080400040806000408080004080A0004080C0004080E00040A0000040A0200040A0400040A0600040A0800040A0A00040A0C00040A0E00040C0000040C0200040C0400040C0600040C08000
1004
40C0A00040C0C00040C0E00040E0000040E0200040E0400040E0600040E0800040E0A00040E0C00040E0E00080000000800020008000400080006000800080008000A0008000C0008000E00080200000802020008020400080206000802080008020A0008020C0008020E00080400000804020008040400080406000804080
1004
008040A0008040C0008040E00080600000806020008060400080606000806080008060A0008060C0008060E00080800000808020008080400080806000808080008080A0008080C0008080E00080A0000080A0200080A0400080A0600080A0800080A0A00080A0C00080A0E00080C0000080C0200080C0400080C0600080C0
1004
800080C0A00080C0C00080C0E00080E0000080E0200080E0400080E0600080E0800080E0A00080E0C00080E0E000C0000000C0002000C0004000C0006000C0008000C000A000C000C000C000E000C0200000C0202000C0204000C0206000C0208000C020A000C020C000C020E000C0400000C0402000C0404000C0406000C0
1004
408000C040A000C040C000C040E000C0600000C0602000C0604000C0606000C0608000C060A000C060C000C060E000C0800000C0802000C0804000C0806000C0808000C080A000C080C000C080E000C0A00000C0A02000C0A04000C0A06000C0A08000C0A0A000C0A0C000C0A0E000C0C00000C0C02000C0C04000C0C06000
1004
C0C08000C0C0A000F0FBFF00A4A0A000808080000000FF0000FF000000FFFF00FF000000FF00FF00FFFF0000FFFFFF0000000000000000000000000000000000000000000000000000000000000000000000000000000000000000000000000000000000000000000000000000000000000000000000000000000000000000
1004
00000000000000000000000000000000000000000000000000000000000000000000000000000000000000000000000000000000000000000000000000000000000000000000000000000000000000000000000000000000000000000000000000000000000000000000000000000000000000000000000000000000000000
1004
000000000000000000000000000000000000000000000000000000000000000000000000000000000000000000000000000000FFFF0000000000000000000000000000000000000000000000000000000000000000FFFFFFFF0000000000000000000000000000000000000000000000000000000000000000FFFFFFFF0000
1004
000000000000000000000000000000000000000000000000000000000000FFFFFF0000000000000000000000000000000000000000000000000000000000000000FFFFFFFF0000000000000000000000000000000000000000000000000000000000000000FFFFFF0000000000000000000000000000000000000000000000
1004
000000000000000000FFFFFFFF0000000000000000000000000000000000000000000000000000000000000000FFFFFFFF00000000FFFFFFFFFFFFFFFFFFFFFFFFFFFFFFFFFFFFFFFFFFFFFFFFFFFFFFFFFFFF00000000000000000000000000000000000000000000000000FFFFFFFF000000000000000000000000000000
1004
000000000000000000FFFFFFFF000000000000000000000000000000000000000000000000FFFFFFFF000000000000000000000000000000000000000000000000FFFFFFFF000000000000000000000000000000000000000000000000FFFFFFFF000000000000000000000000000000000000000000000000FFFFFFFF0000
1004
0000000000000000000000000000000000000000000000FFFFFF0000000000000000000000000000000000000000000000000000000000000000000000000000000000000000000000000000000000000000000000000000000000000000000000000000000000000000000000000000000000000000000000000000000000
1004
00000000000000000000000000000000000000000000000000000000000000000000000000000000000000000000000000000000000000000000000000000000000000000000000000000000000000000000000000000000000000000000000000000000000000000000000000000000000000000000000000000000000000
1004
0000000000000000000000000000000000000000000000000000000000000000000000000000000000000000000000000000000000000000
  0
BLOCK_RECORD
  5
56B
330
1
100
AcDbSymbolTableRecord
100
AcDbBlockTableRecord
  2
*D1
  0
BLOCK_RECORD
  5
599
330
1
100
AcDbSymbolTableRecord
100
AcDbBlockTableRecord
  2
*D2
  0
BLOCK_RECORD
  5
61D
330
1
100
AcDbSymbolTableRecord
100
AcDbBlockTableRecord
  2
*D3
  0
BLOCK_RECORD
  5
62C
330
1
100
AcDbSymbolTableRecord
100
AcDbBlockTableRecord
  2
*D4
  0
BLOCK_RECORD
  5
639
330
1
100
AcDbSymbolTableRecord
100
AcDbBlockTableRecord
  2
*D5
  0
BLOCK_RECORD
  5
646
330
1
100
AcDbSymbolTableRecord
100
AcDbBlockTableRecord
  2
*D6
  0
BLOCK_RECORD
  5
66B
330
1
100
AcDbSymbolTableRecord
100
AcDbBlockTableRecord
  2
*D7
  0
BLOCK_RECORD
  5
6F2
330
1
100
AcDbSymbolTableRecord
100
AcDbBlockTableRecord
  2
*D8
  0
BLOCK_RECORD
  5
708
330
1
100
AcDbSymbolTableRecord
100
AcDbBlockTableRecord
  2
*D9
  0
BLOCK_RECORD
  5
715
330
1
100
AcDbSymbolTableRecord
100
AcDbBlockTableRecord
  2
*D10
  0
BLOCK_RECORD
  5
722
330
1
100
AcDbSymbolTableRecord
100
AcDbBlockTableRecord
  2
*D11
  0
BLOCK_RECORD
  5
72F
330
1
100
AcDbSymbolTableRecord
100
AcDbBlockTableRecord
  2
*D12
  0
BLOCK_RECORD
  5
73C
330
1
100
AcDbSymbolTableRecord
100
AcDbBlockTableRecord
  2
*D13
  0
BLOCK_RECORD
  5
749
330
1
100
AcDbSymbolTableRecord
100
AcDbBlockTableRecord
  2
*D14
  0
ENDTAB
  0
ENDSEC
  0
SECTION
  2
BLOCKS
  0
BLOCK
  5
D
330
A
100
AcDbEntity
  8
0
100
AcDbBlockBegin
  2
*MODEL_SPACE
 70
     0
 10
0.0
 20
0.0
 30
0.0
  3
*MODEL_SPACE
  1

  0
ENDBLK
  5
E
330
A
100
AcDbEntity
  8
0
100
AcDbBlockEnd
  0
BLOCK
  5
F
330
B
100
AcDbEntity
 67
     1
  8
0
100
AcDbBlockBegin
  2
*PAPER_SPACE
 70
     0
 10
0.0
 20
0.0
 30
0.0
  3
*PAPER_SPACE
  1

  0
ENDBLK
  5
10
330
B
100
AcDbEntity
 67
     1
  8
0
100
AcDbBlockEnd
  0
BLOCK
  5
554
330
550
100
AcDbEntity
  8
0
100
AcDbBlockBegin
  2
_OPEN30
 70
     0
 10
0.0
 20
0.0
 30
0.0
  3
_OPEN30
  1

  0
LINE
  5
551
330
550
100
AcDbEntity
  8
0
  6
BYBLOCK
 62
     0
100
AcDbLine
 10
-1.0
 20
0.26794919
 30
0.0
 11
0.0
 21
0.0
 31
0.0
  0
LINE
  5
552
330
550
100
AcDbEntity
  8
0
  6
BYBLOCK
 62
     0
100
AcDbLine
 10
0.0
 20
0.0
 30
0.0
 11
-1.0
 21
-0.26794919
 31
0.0
  0
LINE
  5
553
330
550
100
AcDbEntity
  8
0
  6
BYBLOCK
 62
     0
100
AcDbLine
 10
0.0
 20
0.0
 30
0.0
 11
-1.0
 21
0.0
 31
0.0
  0
ENDBLK
  5
555
330
550
100
AcDbEntity
  8
0
100
AcDbBlockEnd
  0
BLOCK
  5
575
330
56B
100
AcDbEntity
  8
0
100
AcDbBlockBegin
  2
*D1
 70
     1
 10
0.0
 20
0.0
 30
0.0
  3
*D1
  1

  0
LINE
  5
1060
330
56B
100
AcDbEntity
  8
SUNPOU
100
AcDbLine
 10
170.2385760655205
 20
483.2333237692084
 30
0.0
 11
170.2385760655205
 21
482.2333237692084
 31
0.0
  0
LINE
  5
1061
330
56B
100
AcDbEntity
  8
SUNPOU
100
AcDbLine
 10
272.7385760655204
 20
429.6211584551699
 30
0.0
 11
272.7385760655204
 21
482.2333237692084
 31
0.0
  0
LINE
  5
1062
330
56B
100
AcDbEntity
  8
SUNPOU
100
AcDbLine
 10
175.2385760655205
 20
480.2333237692082
 30
0.0
 11
267.7385760655204
 21
480.2333237692082
 31
0.0
  0
INSERT
  5
1063
330
56B
100
AcDbEntity
  8
SUNPOU
100
AcDbBlockReference
  2
_OPEN30
 10
170.2385760655205
 20
480.2333237692082
 30
0.0
 41
5.0
 42
5.0
 43
5.0
 50
180.0
  0
INSERT
  5
1064
330
56B
100
AcDbEntity
  8
SUNPOU
100
AcDbBlockReference
  2
_OPEN30
 10
272.7385760655204
 20
480.2333237692082
 30
0.0
 41
5.0
 42
5.0
 43
5.0
  0
MTEXT
  5
1065
330
56B
100
AcDbEntity
  8
SUNPOU
100
AcDbMText
 10
221.4885760655205
 20
484.7333237692082
 30
0.0
 40
5.0
 41
0.0
 71
     5
 72
     1
  1
\A1;102.5
  7
SUNPOU
1001
ACAD
1000
MTEXTBEGIN
1070
    73
1070
     1
1070
    44
1040
1.0
1070
    74
1070
     0
1000
MTEXTEND
1000
MTEXTBEGIN
1070
    73
1070
     1
1070
    44
1040
1.0
1070
    74
1070
     0
1000
MTEXTEND
  0
POINT
  5
1066
330
56B
100
AcDbEntity
  8
DEFPOINTS
 62
     0
100
AcDbPoint
 10
170.2385760655205
 20
480.2333237692082
 30
0.0
  0
POINT
  5
1067
330
56B
100
AcDbEntity
  8
DEFPOINTS
 62
     0
100
AcDbPoint
 10
272.7385760655204
 20
426.6211584551699
 30
0.0
  0
POINT
  5
1068
330
56B
100
AcDbEntity
  8
DEFPOINTS
 62
     0
100
AcDbPoint
 10
272.7385760655204
 20
480.2333237692082
 30
0.0
  0
ENDBLK
  5
576
330
56B
100
AcDbEntity
  8
0
100
AcDbBlockEnd
  0
BLOCK
  5
5A3
330
599
100
AcDbEntity
  8
0
100
AcDbBlockBegin
  2
*D2
 70
     1
 10
0.0
 20
0.0
 30
0.0
  3
*D2
  1

  0
LINE
  5
10FD
330
599
100
AcDbEntity
  8
SUNPOU
100
AcDbLine
 10
209.2385760655203
 20
180.8711584551699
 30
0.0
 11
209.2385760655203
 21
179.8711584551698
 31
0.0
  0
LINE
  5
10FE
330
599
100
AcDbEntity
  8
SUNPOU
100
AcDbLine
 10
249.2385760655203
 20
180.8711584551699
 30
0.0
 11
249.2385760655203
 21
179.8711584551698
 31
0.0
  0
LINE
  5
10FF
330
599
100
AcDbEntity
  8
SUNPOU
100
AcDbLine
 10
214.2385760655203
 20
177.8711584551698
 30
0.0
 11
244.2385760655203
 21
177.8711584551698
 31
0.0
  0
MTEXT
  5
1100
330
599
100
AcDbEntity
  8
SUNPOU
100
AcDbMText
 10
233.3856421167971
 20
182.3711584551699
 30
0.0
 40
5.0
 41
0.0
 71
     5
 72
     1
  1
\A1;40
  7
SUNPOU
1001
ACAD
1000
MTEXTBEGIN
1070
    73
1070
     1
1070
    44
1040
1.0
1070
    74
1070
     0
1000
MTEXTEND
1000
MTEXTBEGIN
1070
    73
1070
     1
1070
    44
1040
1.0
1070
    74
1070
     0
1000
MTEXTEND
  0
INSERT
  5
1101
330
599
100
AcDbEntity
  8
SUNPOU
100
AcDbBlockReference
  2
_OPEN30
 10
209.2385760655203
 20
177.8711584551698
 30
0.0
 41
5.0
 42
5.0
 43
5.0
 50
180.0
  0
INSERT
  5
1102
330
599
100
AcDbEntity
  8
SUNPOU
100
AcDbBlockReference
  2
_OPEN30
 10
249.2385760655203
 20
177.8711584551698
 30
0.0
 41
5.0
 42
5.0
 43
5.0
  0
POINT
  5
1103
330
599
100
AcDbEntity
  8
DEFPOINTS
 62
     0
100
AcDbPoint
 10
209.2385760655203
 20
177.8711584551698
 30
0.0
  0
POINT
  5
1104
330
599
100
AcDbEntity
  8
DEFPOINTS
 62
     0
100
AcDbPoint
 10
249.2385760655203
 20
177.8711584551698
 30
0.0
  0
POINT
  5
1105
330
599
100
AcDbEntity
  8
DEFPOINTS
 62
     0
100
AcDbPoint
 10
249.2385760655203
 20
177.8711584551698
 30
0.0
  0
ENDBLK
  5
5A4
330
599
100
AcDbEntity
  8
0
100
AcDbBlockEnd
  0
BLOCK
  5
629
330
61D
100
AcDbEntity
  8
0
100
AcDbBlockBegin
  2
*D3
 70
     1
 10
0.0
 20
0.0
 30
0.0
  3
*D3
  1

  0
LINE
  5
88C
330
61D
100
AcDbEntity
  8
SUNPOU
100
AcDbLine
 10
142.2385760655203
 20
165.8711584551699
 30
0.0
 11
142.2385760655203
 21
164.8846203490375
 31
0.0
  0
LINE
  5
88D
330
61D
100
AcDbEntity
  8
SUNPOU
100
AcDbLine
 10
145.2385760655204
 20
195.6211584551701
 30
0.0
 11
145.2385760655204
 21
160.8846203490374
 31
0.0
  0
LINE
  5
88E
330
61D
100
AcDbEntity
  8
SUNPOU
100
AcDbLine
 10
137.2385760655203
 20
162.8846203490375
 30
0.0
 11
132.2385760655203
 21
162.8846203490375
 31
0.0
  0
LINE
  5
88F
330
61D
100
AcDbEntity
  8
SUNPOU
100
AcDbLine
 10
150.2385760655204
 20
162.8846203490375
 30
0.0
 11
155.2385760655203
 21
162.8846203490375
 31
0.0
  0
MTEXT
  5
890
330
61D
100
AcDbEntity
  8
SUNPOU
100
AcDbMText
 10
134.3828147741757
 20
167.3711584551699
 30
0.0
 40
5.0
 41
0.0
 71
     5
 72
     1
  1
\A1;3
  7
SUNPOU
1001
ACAD
1000
MTEXTBEGIN
1070
    73
1070
     1
1070
    44
1040
1.0
1070
    74
1070
     0
1000
MTEXTEND
1000
MTEXTBEGIN
1070
    73
1070
     1
1070
    44
1040
1.0
1070
    74
1070
     0
1000
MTEXTEND
  0
LINE
  5
891
330
61D
100
AcDbEntity
  8
SUNPOU
100
AcDbLine
 10
142.2385760655203
 20
162.8846203490375
 30
0.0
 11
145.2385760655204
 21
162.8846203490375
 31
0.0
  0
INSERT
  5
892
330
61D
100
AcDbEntity
  8
SUNPOU
100
AcDbBlockReference
  2
_OPEN30
 10
142.2385760655203
 20
162.8846203490375
 30
0.0
 41
5.0
 42
5.0
 43
5.0
  0
INSERT
  5
893
330
61D
100
AcDbEntity
  8
SUNPOU
100
AcDbBlockReference
  2
_OPEN30
 10
145.2385760655204
 20
162.8846203490375
 30
0.0
 41
5.0
 42
5.0
 43
5.0
 50
180.0
  0
POINT
  5
894
330
61D
100
AcDbEntity
  8
DEFPOINTS
 62
     0
100
AcDbPoint
 10
142.2385760655203
 20
162.8711584551699
 30
0.0
  0
POINT
  5
895
330
61D
100
AcDbEntity
  8
DEFPOINTS
 62
     0
100
AcDbPoint
 10
145.2385760655204
 20
198.6211584551701
 30
0.0
  0
POINT
  5
896
330
61D
100
AcDbEntity
  8
DEFPOINTS
 62
     0
100
AcDbPoint
 10
145.2385760655204
 20
162.8846203490375
 30
0.0
  0
ENDBLK
  5
62A
330
61D
100
AcDbEntity
  8
0
100
AcDbBlockEnd
  0
BLOCK
  5
636
330
62C
100
AcDbEntity
  8
0
100
AcDbBlockBegin
  2
*D4
 70
     1
 10
0.0
 20
0.0
 30
0.0
  3
*D4
  1

  0
LINE
  5
883
330
62C
100
AcDbEntity
  8
SUNPOU
100
AcDbLine
 10
145.2385760655204
 20
195.6211584551701
 30
0.0
 11
145.2385760655204
 21
160.8837185731552
 31
0.0
  0
LINE
  5
884
330
62C
100
AcDbEntity
  8
SUNPOU
100
AcDbLine
 10
229.2385760655203
 20
160.0211584551699
 30
0.0
 11
229.2385760655203
 21
160.8837185731552
 31
0.0
  0
LINE
  5
885
330
62C
100
AcDbEntity
  8
SUNPOU
100
AcDbLine
 10
150.2385760655204
 20
162.8837185731551
 30
0.0
 11
224.2385760655203
 21
162.8837185731551
 31
0.0
  0
INSERT
  5
886
330
62C
100
AcDbEntity
  8
SUNPOU
100
AcDbBlockReference
  2
_OPEN30
 10
145.2385760655204
 20
162.8837185731551
 30
0.0
 41
5.0
 42
5.0
 43
5.0
 50
180.0
  0
INSERT
  5
887
330
62C
100
AcDbEntity
  8
SUNPOU
100
AcDbBlockReference
  2
_OPEN30
 10
229.2385760655203
 20
162.8837185731551
 30
0.0
 41
5.0
 42
5.0
 43
5.0
  0
MTEXT
  5
888
330
62C
100
AcDbEntity
  8
SUNPOU
100
AcDbMText
 10
187.2385760655203
 20
167.3837185731551
 30
0.0
 40
5.0
 41
0.0
 71
     5
 72
     1
  1
\A1;84
  7
SUNPOU
1001
ACAD
1000
MTEXTBEGIN
1070
    73
1070
     1
1070
    44
1040
1.0
1070
    74
1070
     0
1000
MTEXTEND
1000
MTEXTBEGIN
1070
    73
1070
     1
1070
    44
1040
1.0
1070
    74
1070
     0
1000
MTEXTEND
  0
POINT
  5
889
330
62C
100
AcDbEntity
  8
DEFPOINTS
 62
     0
100
AcDbPoint
 10
145.2385760655204
 20
198.6211584551701
 30
0.0
  0
POINT
  5
88A
330
62C
100
AcDbEntity
  8
DEFPOINTS
 62
     0
100
AcDbPoint
 10
229.2385760655203
 20
163.0211584551699
 30
0.0
  0
POINT
  5
88B
330
62C
100
AcDbEntity
  8
DEFPOINTS
 62
     0
100
AcDbPoint
 10
229.2385760655203
 20
162.8837185731551
 30
0.0
  0
ENDBLK
  5
637
330
62C
100
AcDbEntity
  8
0
100
AcDbBlockEnd
  0
BLOCK
  5
643
330
639
100
AcDbEntity
  8
0
100
AcDbBlockBegin
  2
*D5
 70
     1
 10
0.0
 20
0.0
 30
0.0
  3
*D5
  1

  0
LINE
  5
100F
330
639
100
AcDbEntity
  8
SUNPOU
100
AcDbLine
 10
229.2385760655203
 20
160.0211584551699
 30
0.0
 11
229.2385760655203
 21
160.8711584551699
 31
0.0
  0
LINE
  5
1010
330
639
100
AcDbEntity
  8
SUNPOU
100
AcDbLine
 10
289.2385760655205
 20
180.6211584551699
 30
0.0
 11
289.2385760655205
 21
160.8711584551699
 31
0.0
  0
LINE
  5
1011
330
639
100
AcDbEntity
  8
SUNPOU
100
AcDbLine
 10
234.2385760655203
 20
162.8711584551699
 30
0.0
 11
284.2385760655203
 21
162.8711584551699
 31
0.0
  0
INSERT
  5
1012
330
639
100
AcDbEntity
  8
SUNPOU
100
AcDbBlockReference
  2
_OPEN30
 10
229.2385760655203
 20
162.8711584551699
 30
0.0
 41
5.0
 42
5.0
 43
5.0
 50
180.0
  0
INSERT
  5
1013
330
639
100
AcDbEntity
  8
SUNPOU
100
AcDbBlockReference
  2
_OPEN30
 10
289.2385760655205
 20
162.8711584551699
 30
0.0
 41
5.0
 42
5.0
 43
5.0
  0
MTEXT
  5
1014
330
639
100
AcDbEntity
  8
SUNPOU
100
AcDbMText
 10
259.2385760655204
 20
167.3711584551699
 30
0.0
 40
5.0
 41
0.0
 71
     5
 72
     1
  1
\A1;60
  7
SUNPOU
1001
ACAD
1000
MTEXTBEGIN
1070
    73
1070
     1
1070
    44
1040
1.0
1070
    74
1070
     0
1000
MTEXTEND
1000
MTEXTBEGIN
1070
    73
1070
     1
1070
    44
1040
1.0
1070
    74
1070
     0
1000
MTEXTEND
  0
POINT
  5
1015
330
639
100
AcDbEntity
  8
DEFPOINTS
 62
     0
100
AcDbPoint
 10
229.2385760655203
 20
163.0211584551699
 30
0.0
  0
POINT
  5
1016
330
639
100
AcDbEntity
  8
DEFPOINTS
 62
     0
100
AcDbPoint
 10
289.2385760655205
 20
183.6211584551699
 30
0.0
  0
POINT
  5
1017
330
639
100
AcDbEntity
  8
DEFPOINTS
 62
     0
100
AcDbPoint
 10
289.2385760655205
 20
162.8711584551699
 30
0.0
  0
ENDBLK
  5
644
330
639
100
AcDbEntity
  8
0
100
AcDbBlockEnd
  0
BLOCK
  5
652
330
646
100
AcDbEntity
  8
0
100
AcDbBlockBegin
  2
*D6
 70
     1
 10
0.0
 20
0.0
 30
0.0
  3
*D6
  1

  0
LINE
  5
1004
330
646
100
AcDbEntity
  8
SUNPOU
100
AcDbLine
 10
289.2385760655203
 20
179.8711584551699
 30
0.0
 11
289.2385760655203
 21
160.8711584551699
 31
0.0
  0
LINE
  5
1005
330
646
100
AcDbEntity
  8
SUNPOU
100
AcDbLine
 10
292.2385760655203
 20
165.8711584551699
 30
0.0
 11
292.2385760655203
 21
164.8711584551699
 31
0.0
  0
LINE
  5
1006
330
646
100
AcDbEntity
  8
SUNPOU
100
AcDbLine
 10
284.2385760655203
 20
162.8711584551699
 30
0.0
 11
279.2385760655204
 21
162.8711584551699
 31
0.0
  0
LINE
  5
1007
330
646
100
AcDbEntity
  8
SUNPOU
100
AcDbLine
 10
297.2385760655203
 20
162.8711584551699
 30
0.0
 11
302.2385760655203
 21
162.8711584551699
 31
0.0
  0
MTEXT
  5
1008
330
646
100
AcDbEntity
  8
SUNPOU
100
AcDbMText
 10
299.991942925331
 20
167.3711584551699
 30
0.0
 40
5.0
 41
0.0
 71
     5
 72
     1
  1
\A1;3
  7
SUNPOU
1001
ACAD
1000
MTEXTBEGIN
1070
    73
1070
     1
1070
    44
1040
1.0
1070
    74
1070
     0
1000
MTEXTEND
1000
MTEXTBEGIN
1070
    73
1070
     1
1070
    44
1040
1.0
1070
    74
1070
     0
1000
MTEXTEND
  0
LINE
  5
1009
330
646
100
AcDbEntity
  8
SUNPOU
100
AcDbLine
 10
289.2385760655203
 20
162.8711584551699
 30
0.0
 11
292.2385760655203
 21
162.8711584551699
 31
0.0
  0
INSERT
  5
100A
330
646
100
AcDbEntity
  8
SUNPOU
100
AcDbBlockReference
  2
_OPEN30
 10
289.2385760655203
 20
162.8711584551699
 30
0.0
 41
5.0
 42
5.0
 43
5.0
  0
INSERT
  5
100B
330
646
100
AcDbEntity
  8
SUNPOU
100
AcDbBlockReference
  2
_OPEN30
 10
292.2385760655203
 20
162.8711584551699
 30
0.0
 41
5.0
 42
5.0
 43
5.0
 50
180.0
  0
POINT
  5
100C
330
646
100
AcDbEntity
  8
DEFPOINTS
 62
     0
100
AcDbPoint
 10
289.2385760655203
 20
182.8711584551699
 30
0.0
  0
POINT
  5
100D
330
646
100
AcDbEntity
  8
DEFPOINTS
 62
     0
100
AcDbPoint
 10
292.2385760655203
 20
162.8711584551699
 30
0.0
  0
POINT
  5
100E
330
646
100
AcDbEntity
  8
DEFPOINTS
 62
     0
100
AcDbPoint
 10
292.2385760655203
 20
162.8711584551699
 30
0.0
  0
ENDBLK
  5
653
330
646
100
AcDbEntity
  8
0
100
AcDbBlockEnd
  0
BLOCK
  5
675
330
66B
100
AcDbEntity
  8
0
100
AcDbBlockBegin
  2
*D7
 70
     1
 10
0.0
 20
0.0
 30
0.0
  3
*D7
  1

  0
LINE
  5
866
330
66B
100
AcDbEntity
  8
SUNPOU
100
AcDbLine
 10
142.2385760655203
 20
144.8711584551699
 30
0.0
 11
142.2385760655203
 21
145.8711584551699
 31
0.0
  0
LINE
  5
867
330
66B
100
AcDbEntity
  8
SUNPOU
100
AcDbLine
 10
292.2385760655203
 20
150.8711584551699
 30
0.0
 11
292.2385760655203
 21
149.8711584551699
 31
0.0
  0
LINE
  5
868
330
66B
100
AcDbEntity
  8
SUNPOU
100
AcDbLine
 10
147.2385760655203
 20
147.8711584551699
 30
0.0
 11
287.2385760655203
 21
147.8711584551699
 31
0.0
  0
INSERT
  5
869
330
66B
100
AcDbEntity
  8
SUNPOU
100
AcDbBlockReference
  2
_OPEN30
 10
142.2385760655203
 20
147.8711584551699
 30
0.0
 41
5.0
 42
5.0
 43
5.0
 50
180.0
  0
INSERT
  5
86A
330
66B
100
AcDbEntity
  8
SUNPOU
100
AcDbBlockReference
  2
_OPEN30
 10
292.2385760655203
 20
147.8711584551699
 30
0.0
 41
5.0
 42
5.0
 43
5.0
  0
MTEXT
  5
86B
330
66B
100
AcDbEntity
  8
SUNPOU
100
AcDbMText
 10
217.2385760655203
 20
152.3711584551699
 30
0.0
 40
5.0
 41
0.0
 71
     5
 72
     1
  1
\A1;150
  7
SUNPOU
1001
ACAD
1000
MTEXTBEGIN
1070
    73
1070
     1
1070
    44
1040
1.0
1070
    74
1070
     0
1000
MTEXTEND
1000
MTEXTBEGIN
1070
    73
1070
     1
1070
    44
1040
1.0
1070
    74
1070
     0
1000
MTEXTEND
  0
POINT
  5
86C
330
66B
100
AcDbEntity
  8
DEFPOINTS
 62
     0
100
AcDbPoint
 10
142.2385760655203
 20
147.8711584551699
 30
0.0
  0
POINT
  5
86D
330
66B
100
AcDbEntity
  8
DEFPOINTS
 62
     0
100
AcDbPoint
 10
292.2385760655203
 20
147.8711584551699
 30
0.0
  0
POINT
  5
86E
330
66B
100
AcDbEntity
  8
DEFPOINTS
 62
     0
100
AcDbPoint
 10
292.2385760655203
 20
147.8711584551699
 30
0.0
  0
ENDBLK
  5
676
330
66B
100
AcDbEntity
  8
0
100
AcDbBlockEnd
  0
BLOCK
  5
6FC
330
6F2
100
AcDbEntity
  8
0
100
AcDbBlockBegin
  2
*D8
 70
     1
 10
0.0
 20
0.0
 30
0.0
  3
*D8
  1

  0
LINE
  5
85D
330
6F2
100
AcDbEntity
  8
SUNPOU
100
AcDbLine
 10
181.2385760655203
 20
363.1211584551699
 30
0.0
 11
198.6170581630443
 21
363.1211584551699
 31
0.0
  0
LINE
  5
85E
330
6F2
100
AcDbEntity
  8
SUNPOU
100
AcDbLine
 10
181.2385760655222
 20
461.1211584551699
 30
0.0
 11
198.6170581630443
 21
461.1211584551699
 31
0.0
  0
LINE
  5
85F
330
6F2
100
AcDbEntity
  8
SUNPOU
100
AcDbLine
 10
196.6170581630443
 20
368.1211584551699
 30
0.0
 11
196.6170581630444
 21
456.1211584551699
 31
0.0
  0
MTEXT
  5
860
330
6F2
100
AcDbEntity
  8
SUNPOU
100
AcDbMText
 10
192.1170581630443
 20
417.4078937382482
 30
0.0
 40
5.0
 41
0.0
 71
     5
 72
     1
  1
\A1;98
  7
SUNPOU
 11
0.0000000000000001
 21
1.0
 31
0.0
1001
ACAD
1000
MTEXTBEGIN
1070
    73
1070
     1
1070
    44
1040
1.0
1070
    74
1070
     0
1000
MTEXTEND
1000
MTEXTBEGIN
1070
    73
1070
     1
1070
    44
1040
1.0
1070
    74
1070
     0
1000
MTEXTEND
  0
INSERT
  5
861
330
6F2
100
AcDbEntity
  8
SUNPOU
100
AcDbBlockReference
  2
_OPEN30
 10
196.6170581630443
 20
363.1211584551699
 30
0.0
 41
5.0
 42
5.0
 43
5.0
 50
270.0
  0
INSERT
  5
862
330
6F2
100
AcDbEntity
  8
SUNPOU
100
AcDbBlockReference
  2
_OPEN30
 10
196.6170581630444
 20
461.1211584551699
 30
0.0
 41
5.0
 42
5.0
 43
5.0
 50
90.0
  0
POINT
  5
863
330
6F2
100
AcDbEntity
  8
DEFPOINTS
 62
     0
100
AcDbPoint
 10
178.2385760655204
 20
363.1211584551699
 30
0.0
  0
POINT
  5
864
330
6F2
100
AcDbEntity
  8
DEFPOINTS
 62
     0
100
AcDbPoint
 10
178.2385760655222
 20
461.1211584551699
 30
0.0
  0
POINT
  5
865
330
6F2
100
AcDbEntity
  8
DEFPOINTS
 62
     0
100
AcDbPoint
 10
196.6170581630444
 20
461.1211584551699
 30
0.0
  0
ENDBLK
  5
6FD
330
6F2
100
AcDbEntity
  8
0
100
AcDbBlockEnd
  0
BLOCK
  5
712
330
708
100
AcDbEntity
  8
0
100
AcDbBlockBegin
  2
*D9
 70
     1
 10
0.0
 20
0.0
 30
0.0
  3
*D9
  1

  0
LINE
  5
104B
330
708
100
AcDbEntity
  8
SUNPOU
100
AcDbLine
 10
142.9885760655204
 20
182.1211584551701
 30
0.0
 11
120.2385760655203
 21
182.1211584551701
 31
0.0
  0
LINE
  5
104C
330
708
100
AcDbEntity
  8
SUNPOU
100
AcDbLine
 10
159.1030728312751
 20
291.12115845517
 30
0.0
 11
120.2385760655203
 21
291.1211584551701
 31
0.0
  0
LINE
  5
104D
330
708
100
AcDbEntity
  8
SUNPOU
100
AcDbLine
 10
122.2385760655203
 20
187.1211584551701
 30
0.0
 11
122.2385760655203
 21
286.1211584551701
 31
0.0
  0
INSERT
  5
104E
330
708
100
AcDbEntity
  8
SUNPOU
100
AcDbBlockReference
  2
_OPEN30
 10
122.2385760655203
 20
182.1211584551701
 30
0.0
 41
5.0
 42
5.0
 43
5.0
 50
270.0
  0
INSERT
  5
104F
330
708
100
AcDbEntity
  8
SUNPOU
100
AcDbBlockReference
  2
_OPEN30
 10
122.2385760655203
 20
291.1211584551701
 30
0.0
 41
5.0
 42
5.0
 43
5.0
 50
90.0
  0
MTEXT
  5
1050
330
708
100
AcDbEntity
  8
SUNPOU
100
AcDbMText
 10
117.7385760655203
 20
236.6211584551701
 30
0.0
 40
5.0
 41
0.0
 71
     5
 72
     1
  1
\A1;109
  7
SUNPOU
 11
0.0000000000000001
 21
1.0
 31
0.0
1001
ACAD
1000
MTEXTBEGIN
1070
    73
1070
     1
1070
    44
1040
1.0
1070
    74
1070
     0
1000
MTEXTEND
1000
MTEXTBEGIN
1070
    73
1070
     1
1070
    44
1040
1.0
1070
    74
1070
     0
1000
MTEXTEND
  0
POINT
  5
1051
330
708
100
AcDbEntity
  8
DEFPOINTS
 62
     0
100
AcDbPoint
 10
145.9885760655204
 20
182.1211584551701
 30
0.0
  0
POINT
  5
1052
330
708
100
AcDbEntity
  8
DEFPOINTS
 62
     0
100
AcDbPoint
 10
162.1030728312751
 20
291.12115845517
 30
0.0
  0
POINT
  5
1053
330
708
100
AcDbEntity
  8
DEFPOINTS
 62
     0
100
AcDbPoint
 10
122.2385760655203
 20
291.1211584551701
 30
0.0
  0
ENDBLK
  5
713
330
708
100
AcDbEntity
  8
0
100
AcDbBlockEnd
  0
BLOCK
  5
71F
330
715
100
AcDbEntity
  8
0
100
AcDbBlockBegin
  2
*D10
 70
     1
 10
0.0
 20
0.0
 30
0.0
  3
*D10
  1

  0
LINE
  5
84B
330
715
100
AcDbEntity
  8
SUNPOU
100
AcDbLine
 10
159.1030728312751
 20
291.12115845517
 30
0.0
 11
120.2385760655203
 21
291.1211584551701
 31
0.0
  0
LINE
  5
84C
330
715
100
AcDbEntity
  8
SUNPOU
100
AcDbLine
 10
159.1030728312751
 20
336.12115845517
 30
0.0
 11
120.2385760655203
 21
336.1211584551701
 31
0.0
  0
LINE
  5
84D
330
715
100
AcDbEntity
  8
SUNPOU
100
AcDbLine
 10
122.2385760655203
 20
296.1211584551701
 30
0.0
 11
122.2385760655203
 21
331.1211584551701
 31
0.0
  0
INSERT
  5
84E
330
715
100
AcDbEntity
  8
SUNPOU
100
AcDbBlockReference
  2
_OPEN30
 10
122.2385760655203
 20
291.1211584551701
 30
0.0
 41
5.0
 42
5.0
 43
5.0
 50
270.0
  0
INSERT
  5
84F
330
715
100
AcDbEntity
  8
SUNPOU
100
AcDbBlockReference
  2
_OPEN30
 10
122.2385760655203
 20
336.1211584551701
 30
0.0
 41
5.0
 42
5.0
 43
5.0
 50
90.0
  0
MTEXT
  5
850
330
715
100
AcDbEntity
  8
SUNPOU
100
AcDbMText
 10
117.7385760655203
 20
313.6211584551701
 30
0.0
 40
5.0
 41
0.0
 71
     5
 72
     1
  1
\A1;45
  7
SUNPOU
 11
0.0000000000000001
 21
1.0
 31
0.0
1001
ACAD
1000
MTEXTBEGIN
1070
    73
1070
     1
1070
    44
1040
1.0
1070
    74
1070
     0
1000
MTEXTEND
1000
MTEXTBEGIN
1070
    73
1070
     1
1070
    44
1040
1.0
1070
    74
1070
     0
1000
MTEXTEND
  0
POINT
  5
851
330
715
100
AcDbEntity
  8
DEFPOINTS
 62
     0
100
AcDbPoint
 10
162.1030728312751
 20
291.12115845517
 30
0.0
  0
POINT
  5
852
330
715
100
AcDbEntity
  8
DEFPOINTS
 62
     0
100
AcDbPoint
 10
162.1030728312751
 20
336.12115845517
 30
0.0
  0
POINT
  5
853
330
715
100
AcDbEntity
  8
DEFPOINTS
 62
     0
100
AcDbPoint
 10
122.2385760655203
 20
336.1211584551701
 30
0.0
  0
ENDBLK
  5
720
330
715
100
AcDbEntity
  8
0
100
AcDbBlockEnd
  0
BLOCK
  5
72C
330
722
100
AcDbEntity
  8
0
100
AcDbBlockBegin
  2
*D11
 70
     1
 10
0.0
 20
0.0
 30
0.0
  3
*D11
  1

  0
LINE
  5
1042
330
722
100
AcDbEntity
  8
SUNPOU
100
AcDbLine
 10
142.9885760655204
 20
182.1211584551701
 30
0.0
 11
105.2385760655203
 21
182.1211584551701
 31
0.0
  0
LINE
  5
1043
330
722
100
AcDbEntity
  8
SUNPOU
100
AcDbLine
 10
170.2383565677714
 20
227.12115845517
 30
0.0
 11
105.2385760655203
 21
227.12115845517
 31
0.0
  0
LINE
  5
1044
330
722
100
AcDbEntity
  8
SUNPOU
100
AcDbLine
 10
107.2385760655203
 20
187.1211584551701
 30
0.0
 11
107.2385760655203
 21
222.12115845517
 31
0.0
  0
INSERT
  5
1045
330
722
100
AcDbEntity
  8
SUNPOU
100
AcDbBlockReference
  2
_OPEN30
 10
107.2385760655203
 20
182.1211584551701
 30
0.0
 41
5.0
 42
5.0
 43
5.0
 50
270.0
  0
INSERT
  5
1046
330
722
100
AcDbEntity
  8
SUNPOU
100
AcDbBlockReference
  2
_OPEN30
 10
107.2385760655203
 20
227.12115845517
 30
0.0
 41
5.0
 42
5.0
 43
5.0
 50
90.0
  0
MTEXT
  5
1047
330
722
100
AcDbEntity
  8
SUNPOU
100
AcDbMText
 10
102.7385760655203
 20
204.6211584551701
 30
0.0
 40
5.0
 41
0.0
 71
     5
 72
     1
  1
\A1;45
  7
SUNPOU
 11
0.0000000000000001
 21
1.0
 31
0.0
1001
ACAD
1000
MTEXTBEGIN
1070
    73
1070
     1
1070
    44
1040
1.0
1070
    74
1070
     0
1000
MTEXTEND
1000
MTEXTBEGIN
1070
    73
1070
     1
1070
    44
1040
1.0
1070
    74
1070
     0
1000
MTEXTEND
  0
POINT
  5
1048
330
722
100
AcDbEntity
  8
DEFPOINTS
 62
     0
100
AcDbPoint
 10
145.9885760655204
 20
182.1211584551701
 30
0.0
  0
POINT
  5
1049
330
722
100
AcDbEntity
  8
DEFPOINTS
 62
     0
100
AcDbPoint
 10
173.2383565677714
 20
227.12115845517
 30
0.0
  0
POINT
  5
104A
330
722
100
AcDbEntity
  8
DEFPOINTS
 62
     0
100
AcDbPoint
 10
107.2385760655203
 20
227.12115845517
 30
0.0
  0
ENDBLK
  5
72D
330
722
100
AcDbEntity
  8
0
100
AcDbBlockEnd
  0
BLOCK
  5
739
330
72F
100
AcDbEntity
  8
0
100
AcDbBlockBegin
  2
*D12
 70
     1
 10
0.0
 20
0.0
 30
0.0
  3
*D12
  1

  0
LINE
  5
839
330
72F
100
AcDbEntity
  8
SUNPOU
100
AcDbLine
 10
170.2383565677714
 20
227.12115845517
 30
0.0
 11
105.2385760655203
 21
227.12115845517
 31
0.0
  0
LINE
  5
83A
330
72F
100
AcDbEntity
  8
SUNPOU
100
AcDbLine
 10
169.1872469158254
 20
352.1211521227896
 30
0.0
 11
105.2385760655204
 21
352.1211521227898
 31
0.0
  0
LINE
  5
83B
330
72F
100
AcDbEntity
  8
SUNPOU
100
AcDbLine
 10
107.2385760655203
 20
232.12115845517
 30
0.0
 11
107.2385760655204
 21
347.1211521227898
 31
0.0
  0
INSERT
  5
83C
330
72F
100
AcDbEntity
  8
SUNPOU
100
AcDbBlockReference
  2
_OPEN30
 10
107.2385760655203
 20
227.12115845517
 30
0.0
 41
5.0
 42
5.0
 43
5.0
 50
270.0
  0
INSERT
  5
83D
330
72F
100
AcDbEntity
  8
SUNPOU
100
AcDbBlockReference
  2
_OPEN30
 10
107.2385760655204
 20
352.1211521227898
 30
0.0
 41
5.0
 42
5.0
 43
5.0
 50
90.0
  0
MTEXT
  5
83E
330
72F
100
AcDbEntity
  8
SUNPOU
100
AcDbMText
 10
102.7385760655203
 20
289.6211552889798
 30
0.0
 40
5.0
 41
0.0
 71
     5
 72
     1
  1
\A1;125
  7
SUNPOU
 11
0.0000000000000001
 21
1.0
 31
0.0
1001
ACAD
1000
MTEXTBEGIN
1070
    73
1070
     1
1070
    44
1040
1.0
1070
    74
1070
     0
1000
MTEXTEND
1000
MTEXTBEGIN
1070
    73
1070
     1
1070
    44
1040
1.0
1070
    74
1070
     0
1000
MTEXTEND
  0
POINT
  5
83F
330
72F
100
AcDbEntity
  8
DEFPOINTS
 62
     0
100
AcDbPoint
 10
173.2383565677714
 20
227.12115845517
 30
0.0
  0
POINT
  5
840
330
72F
100
AcDbEntity
  8
DEFPOINTS
 62
     0
100
AcDbPoint
 10
172.1872469158254
 20
352.1211521227896
 30
0.0
  0
POINT
  5
841
330
72F
100
AcDbEntity
  8
DEFPOINTS
 62
     0
100
AcDbPoint
 10
107.2385760655204
 20
352.1211521227898
 30
0.0
  0
ENDBLK
  5
73A
330
72F
100
AcDbEntity
  8
0
100
AcDbBlockEnd
  0
BLOCK
  5
746
330
73C
100
AcDbEntity
  8
0
100
AcDbBlockBegin
  2
*D13
 70
     1
 10
0.0
 20
0.0
 30
0.0
  3
*D13
  1

  0
LINE
  5
1039
330
73C
100
AcDbEntity
  8
SUNPOU
100
AcDbLine
 10
142.9885760655204
 20
182.1211584551701
 30
0.0
 11
90.23857606552047
 21
182.1211584551701
 31
0.0
  0
LINE
  5
103A
330
73C
100
AcDbEntity
  8
SUNPOU
100
AcDbLine
 10
152.7823933117391
 20
412.1211584551701
 30
0.0
 11
90.23857606552054
 21
412.1211584551701
 31
0.0
  0
LINE
  5
103B
330
73C
100
AcDbEntity
  8
SUNPOU
100
AcDbLine
 10
92.2385760655205
 20
187.1211584551701
 30
0.0
 11
92.23857606552051
 21
407.1211584551701
 31
0.0
  0
INSERT
  5
103C
330
73C
100
AcDbEntity
  8
SUNPOU
100
AcDbBlockReference
  2
_OPEN30
 10
92.2385760655205
 20
182.1211584551701
 30
0.0
 41
5.0
 42
5.0
 43
5.0
 50
270.0
  0
INSERT
  5
103D
330
73C
100
AcDbEntity
  8
SUNPOU
100
AcDbBlockReference
  2
_OPEN30
 10
92.23857606552051
 20
412.1211584551701
 30
0.0
 41
5.0
 42
5.0
 43
5.0
 50
90.0
  0
MTEXT
  5
103E
330
73C
100
AcDbEntity
  8
SUNPOU
100
AcDbMText
 10
87.73857606552047
 20
297.1211584551701
 30
0.0
 40
5.0
 41
0.0
 71
     5
 72
     1
  1
\A1;230
  7
SUNPOU
 11
0.0000000000000001
 21
1.0
 31
0.0
1001
ACAD
1000
MTEXTBEGIN
1070
    73
1070
     1
1070
    44
1040
1.0
1070
    74
1070
     0
1000
MTEXTEND
1000
MTEXTBEGIN
1070
    73
1070
     1
1070
    44
1040
1.0
1070
    74
1070
     0
1000
MTEXTEND
  0
POINT
  5
103F
330
73C
100
AcDbEntity
  8
DEFPOINTS
 62
     0
100
AcDbPoint
 10
145.9885760655204
 20
182.1211584551701
 30
0.0
  0
POINT
  5
1040
330
73C
100
AcDbEntity
  8
DEFPOINTS
 62
     0
100
AcDbPoint
 10
155.7823933117391
 20
412.1211584551701
 30
0.0
  0
POINT
  5
1041
330
73C
100
AcDbEntity
  8
DEFPOINTS
 62
     0
100
AcDbPoint
 10
92.23857606552051
 20
412.1211584551701
 30
0.0
  0
ENDBLK
  5
747
330
73C
100
AcDbEntity
  8
0
100
AcDbBlockEnd
  0
BLOCK
  5
753
330
749
100
AcDbEntity
  8
0
100
AcDbBlockBegin
  2
*D14
 70
     1
 10
0.0
 20
0.0
 30
0.0
  3
*D14
  1

  0
LINE
  5
10CC
330
749
100
AcDbEntity
  8
SUNPOU
100
AcDbLine
 10
142.9885760655204
 20
182.1211584551701
 30
0.0
 11
75.23857606552052
 21
182.1211584551701
 31
0.0
  0
LINE
  5
10CD
330
749
100
AcDbEntity
  8
SUNPOU
100
AcDbLine
 10
139.2385760655205
 20
512.1211584551701
 30
0.0
 11
75.23857606552059
 21
512.1211584551701
 31
0.0
  0
LINE
  5
10CE
330
749
100
AcDbEntity
  8
SUNPOU
100
AcDbLine
 10
77.23857606552051
 20
187.1211584551701
 30
0.0
 11
77.23857606552058
 21
507.1211584551702
 31
0.0
  0
INSERT
  5
10CF
330
749
100
AcDbEntity
  8
SUNPOU
100
AcDbBlockReference
  2
_OPEN30
 10
77.23857606552051
 20
182.1211584551701
 30
0.0
 41
5.0
 42
5.0
 43
5.0
 50
270.0
  0
INSERT
  5
10D0
330
749
100
AcDbEntity
  8
SUNPOU
100
AcDbBlockReference
  2
_OPEN30
 10
77.23857606552058
 20
512.1211584551701
 30
0.0
 41
5.0
 42
5.0
 43
5.0
 50
90.0
  0
MTEXT
  5
10D1
330
749
100
AcDbEntity
  8
SUNPOU
100
AcDbMText
 10
72.73857606552049
 20
347.1211584551701
 30
0.0
 40
5.0
 41
0.0
 71
     5
 72
     1
  1
\A1;330
  7
SUNPOU
 11
0.0000000000000001
 21
1.0
 31
0.0
1001
ACAD
1000
MTEXTBEGIN
1070
    73
1070
     1
1070
    44
1040
1.0
1070
    74
1070
     0
1000
MTEXTEND
1000
MTEXTBEGIN
1070
    73
1070
     1
1070
    44
1040
1.0
1070
    74
1070
     0
1000
MTEXTEND
  0
POINT
  5
10D2
330
749
100
AcDbEntity
  8
DEFPOINTS
 62
     0
100
AcDbPoint
 10
145.9885760655204
 20
182.1211584551701
 30
0.0
  0
POINT
  5
10D3
330
749
100
AcDbEntity
  8
DEFPOINTS
 62
     0
100
AcDbPoint
 10
142.2385760655205
 20
512.1211584551701
 30
0.0
  0
POINT
  5
10D4
330
749
100
AcDbEntity
  8
DEFPOINTS
 62
     0
100
AcDbPoint
 10
77.23857606552058
 20
512.1211584551701
 30
0.0
  0
ENDBLK
  5
754
330
749
100
AcDbEntity
  8
0
100
AcDbBlockEnd
  0
ENDSEC
  0
SECTION
  2
ENTITIES
  0
LINE
  5
23F
330
A
100
AcDbEntity
  8
04
100
AcDbLine
 10
220.4388103961599
 20
227.2198407765731
 30
0.0
 11
220.4388162839224
 21
225.6212327596043
 31
0.0
  0
LINE
  5
240
330
A
100
AcDbEntity
  8
04
100
AcDbLine
 10
238.4388108167074
 20
225.6212778521343
 30
0.0
 11
238.4388243093126
 21
227.2197618914556
 31
0.0
  0
LINE
  5
241
330
A
100
AcDbEntity
  8
04
100
AcDbLine
 10
238.4388231494644
 20
227.2197654749287
 30
0.0
 11
220.4388127782718
 21
227.2199233172166
 31
0.0
  0
LINE
  5
242
330
A
100
AcDbEntity
  8
04
100
AcDbLine
 10
237.138824737541
 20
228.8198225404386
 30
0.0
 11
221.7388134336013
 21
228.819853058021
 31
0.0
  0
LINE
  5
243
330
A
100
AcDbEntity
  8
04
100
AcDbLine
 10
221.9332652402507
 20
228.8197822356337
 30
0.0
 11
221.9332618566846
 21
233.6247809076992
 31
0.0
  0
LINE
  5
244
330
A
100
AcDbEntity
  8
04
100
AcDbLine
 10
236.9444530703078
 20
228.819768756295
 30
0.0
 11
236.9443189922854
 21
233.6248277072098
 31
0.0
  0
LINE
  5
245
330
A
100
AcDbEntity
  8
04
100
AcDbLine
 10
221.9332060114308
 20
233.62489304072
 30
0.0
 11
223.1387942147196
 21
234.3207135282986
 31
0.0
  0
LINE
  5
246
330
A
100
AcDbEntity
  8
04
100
AcDbLine
 10
236.9443665550068
 20
233.6247601591373
 30
0.0
 11
235.7388025369068
 21
234.3207879779702
 31
0.0
  0
LINE
  5
247
330
A
100
AcDbEntity
  8
04
100
AcDbLine
 10
235.7388137840114
 20
234.3208184955808
 30
0.0
 11
223.1388074261154
 21
234.3208490126966
 31
0.0
  0
ARC
  5
248
330
A
100
AcDbEntity
  8
04
100
AcDbCircle
 10
229.4388130241701
 20
223.8557315486501
 30
0.0
 40
10.46498680114746
100
AcDbArc
 50
68.98557764221592
 51
111.0144223577844
  0
ARC
  5
249
330
A
100
AcDbEntity
  8
04
100
AcDbCircle
 10
235.0679801493738
 20
230.3748364084773
 30
0.0
 40
3.752776384353636
100
AcDbArc
 50
60.00000888460435
 51
119.9999911153946
  0
ARC
  5
24A
330
A
100
AcDbEntity
  8
04
100
AcDbCircle
 10
223.8096638941192
 20
230.3747448557379
 30
0.0
 40
3.752776384353636
100
AcDbArc
 50
60.00000888460435
 51
119.9999911153946
  0
LINE
  5
24D
330
A
100
AcDbEntity
  8
04
100
AcDbLine
 10
221.738812417629
 20
228.8197269446913
 30
0.0
 11
221.7388097474521
 21
227.2197975035572
 31
0.0
  0
LINE
  5
24E
330
A
100
AcDbEntity
  8
04
100
AcDbLine
 10
237.1388129886681
 20
228.819864642099
 30
0.0
 11
237.1388102450354
 21
227.2198259221211
 31
0.0
  0
LINE
  5
24F
330
A
100
AcDbEntity
  8
04
100
AcDbLine
 10
229.4388473772142
 20
228.8198290815145
 30
0.0
 11
228.7387545197832
 21
227.2197970659691
 31
0.0
  0
LINE
  5
250
330
A
100
AcDbEntity
  8
04
100
AcDbLine
 10
228.7388104561791
 20
227.2197665483738
 30
0.0
 11
228.0388112767446
 21
228.8197809691698
 31
0.0
  0
LINE
  5
251
330
A
100
AcDbEntity
  8
04
100
AcDbLine
 10
228.0386893020095
 20
228.8198047149848
 30
0.0
 11
227.338802558002
 21
227.2197979293679
 31
0.0
  0
LINE
  5
252
330
A
100
AcDbEntity
  8
04
100
AcDbLine
 10
227.3388105521768
 20
227.2197909821441
 30
0.0
 11
226.6388255999848
 21
228.8198879904024
 31
0.0
  0
LINE
  5
253
330
A
100
AcDbEntity
  8
04
100
AcDbLine
 10
226.6388234789701
 20
228.8197820366246
 30
0.0
 11
226.0387484772951
 21
227.2197358261441
 31
0.0
  0
LINE
  5
254
330
A
100
AcDbEntity
  8
04
100
AcDbLine
 10
226.0388158101712
 20
227.2198257349959
 30
0.0
 11
225.4387946172681
 21
228.8198181905856
 31
0.0
  0
LINE
  5
255
330
A
100
AcDbEntity
  8
04
100
AcDbLine
 10
225.4388100043431
 20
228.8198487081578
 30
0.0
 11
224.8387985776269
 21
227.2197815692549
 31
0.0
  0
LINE
  5
256
330
A
100
AcDbEntity
  8
04
100
AcDbLine
 10
224.8388113010456
 20
227.2197510516714
 30
0.0
 11
224.3388254842195
 21
228.8198753125151
 31
0.0
  0
LINE
  5
257
330
A
100
AcDbEntity
  8
04
100
AcDbLine
 10
224.3388239635162
 20
228.8198081248585
 30
0.0
 11
223.838808591254
 21
227.2196990352627
 31
0.0
  0
LINE
  5
258
330
A
100
AcDbEntity
  8
04
100
AcDbLine
 10
223.8388039791673
 20
227.2197299721302
 30
0.0
 11
223.3388139796056
 21
228.8197945154755
 31
0.0
  0
LINE
  5
259
330
A
100
AcDbEntity
  8
04
100
AcDbLine
 10
223.3388045804117
 20
228.8198075930106
 30
0.0
 11
222.9388680889706
 21
227.2198628472226
 31
0.0
  0
LINE
  5
25A
330
A
100
AcDbEntity
  8
04
100
AcDbLine
 10
222.9388251231968
 20
227.2197843234781
 30
0.0
 11
222.5388022398175
 21
228.8198197801329
 31
0.0
  0
LINE
  5
25B
330
A
100
AcDbEntity
  8
04
100
AcDbLine
 10
222.5388140267346
 20
228.8198263514675
 30
0.0
 11
222.1388258494445
 21
227.2198692164968
 31
0.0
  0
LINE
  5
25C
330
A
100
AcDbEntity
  8
04
100
AcDbLine
 10
222.1388256558333
 20
227.2198079284846
 30
0.0
 11
221.8387971126342
 21
228.8197513625954
 31
0.0
  0
LINE
  5
25D
330
A
100
AcDbEntity
  8
04
100
AcDbLine
 10
229.4388449440803
 20
228.8197986066455
 30
0.0
 11
230.1388190722126
 21
227.2198405764831
 31
0.0
  0
LINE
  5
25E
330
A
100
AcDbEntity
  8
04
100
AcDbLine
 10
230.138822550375
 20
227.2198577426201
 30
0.0
 11
230.8387404231194
 21
228.8198634920116
 31
0.0
  0
LINE
  5
25F
330
A
100
AcDbEntity
  8
04
100
AcDbLine
 10
230.8388014114574
 20
228.8197416901266
 30
0.0
 11
231.5388073585459
 21
227.2197880631788
 31
0.0
  0
LINE
  5
260
330
A
100
AcDbEntity
  8
04
100
AcDbLine
 10
231.5388178983448
 20
227.2198109874461
 30
0.0
 11
232.2388143297902
 21
228.819805001361
 31
0.0
  0
LINE
  5
261
330
A
100
AcDbEntity
  8
04
100
AcDbLine
 10
232.2388149684608
 20
228.8198356022361
 30
0.0
 11
232.8388344492573
 21
227.2197688904749
 31
0.0
  0
LINE
  5
262
330
A
100
AcDbEntity
  8
04
100
AcDbLine
 10
232.8388150865869
 20
227.2198523868751
 30
0.0
 11
233.4388064250771
 21
228.8198287586156
 31
0.0
  0
LINE
  5
263
330
A
100
AcDbEntity
  8
04
100
AcDbLine
 10
233.4388052899174
 20
228.8198287586121
 30
0.0
 11
234.0388444775583
 21
227.219822591942
 31
0.0
  0
LINE
  5
264
330
A
100
AcDbEntity
  8
04
100
AcDbLine
 10
234.0388058451666
 20
227.2197863523315
 30
0.0
 11
234.5388167196524
 21
228.8198277446495
 31
0.0
  0
LINE
  5
265
330
A
100
AcDbEntity
  8
04
100
AcDbLine
 10
234.5388183409978
 20
228.8198079243975
 30
0.0
 11
235.0387885119736
 21
227.2197630832822
 31
0.0
  0
LINE
  5
266
330
A
100
AcDbEntity
  8
04
100
AcDbLine
 10
235.0387889215513
 20
227.2198236446071
 30
0.0
 11
235.5388111750851
 21
228.8198297477268
 31
0.0
  0
LINE
  5
267
330
A
100
AcDbEntity
  8
04
100
AcDbLine
 10
235.5388148563349
 20
228.8198410328188
 30
0.0
 11
235.938843775976
 21
227.219792520152
 31
0.0
  0
LINE
  5
268
330
A
100
AcDbEntity
  8
04
100
AcDbLine
 10
235.9388048924008
 20
227.2198838336191
 30
0.0
 11
236.3387453977241
 21
228.8197985305457
 31
0.0
  0
LINE
  5
269
330
A
100
AcDbEntity
  8
04
100
AcDbLine
 10
236.3388150796931
 20
228.8198636544205
 30
0.0
 11
236.7388160392398
 21
227.2197952685008
 31
0.0
  0
LINE
  5
26A
330
A
100
AcDbEntity
  8
04
100
AcDbLine
 10
236.7388147998884
 20
227.2198251261774
 30
0.0
 11
237.0388154424663
 21
228.8198609988183
 31
0.0
  0
LINE
  5
2BA
330
A
100
AcDbEntity
  8
04
100
AcDbLine
 10
264.7385760655204
 20
271.62115845517
 30
0.0
 11
253.2388001409277
 21
271.62115845517
 31
0.0
  0
ARC
  5
2BB
330
A
100
AcDbEntity
  8
04
100
AcDbCircle
 10
264.7385760655204
 20
273.62115845517
 30
0.0
 40
2.0
100
AcDbArc
 50
269.9999999999999
 51
0.0
  0
LINE
  5
2BC
330
A
100
AcDbEntity
  8
04
100
AcDbLine
 10
263.5385760655203
 20
274.82115845517
 30
0.0
 11
252.0776510277648
 21
274.82115845517
 31
0.0
  0
LINE
  5
2BD
330
A
100
AcDbEntity
  8
03
100
AcDbLine
 10
142.2385760655205
 20
512.1211584551701
 30
0.0
 11
142.2385760655203
 21
135.3331820009074
 31
0.0
  0
LINE
  5
2BE
330
A
100
AcDbEntity
  8
03
100
AcDbLine
 10
145.2385760655205
 20
509.7711584551701
 30
0.0
 11
145.2385760655203
 21
182.8711584551701
 31
0.0
  0
LINE
  5
2BF
330
A
100
AcDbEntity
  8
03
100
AcDbLine
 10
288.4885760655203
 20
182.1211584551699
 30
0.0
 11
252.4885760655203
 21
182.1211584551699
 31
0.0
  0
LINE
  5
2C0
330
A
100
AcDbEntity
  8
03
100
AcDbLine
 10
205.9885760655203
 20
182.1211584551699
 30
0.0
 11
145.9885760655203
 21
182.1211584551701
 31
0.0
  0
ARC
  5
2C1
330
A
100
AcDbEntity
  8
03
100
AcDbCircle
 10
145.9885760655203
 20
182.8711584551701
 30
0.0
 40
0.75
100
AcDbArc
 50
179.9999999999998
 51
269.9999999999999
  0
LINE
  5
2C2
330
A
100
AcDbEntity
  8
03
100
AcDbLine
 10
287.7385760655203
 20
183.6211584551699
 30
0.0
 11
253.2385760655203
 21
183.6211584551699
 31
0.0
  0
LINE
  5
2C3
330
A
100
AcDbEntity
  8
03
100
AcDbLine
 10
205.2385760655203
 20
197.1211584551701
 30
0.0
 11
205.2385760655203
 21
183.6211584551699
 31
0.0
  0
ARC
  5
2C4
330
A
100
AcDbEntity
  8
03
100
AcDbCircle
 10
205.9885760655203
 20
182.8711584551699
 30
0.0
 40
0.75
100
AcDbArc
 50
269.9999999999999
 51
0.0
  0
LINE
  5
2C5
330
A
100
AcDbEntity
  8
03
100
AcDbLine
 10
206.7385760655203
 20
197.1211584551699
 30
0.0
 11
205.2385760655203
 21
197.1211584551701
 31
0.0
  0
LINE
  5
2C8
330
A
100
AcDbEntity
  8
06
100
AcDbLine
 10
209.2385760655203
 20
207.1211584551699
 30
0.0
 11
209.2385760655201
 21
135.3331820009072
 31
0.0
  0
LINE
  5
2C9
330
A
100
AcDbEntity
  8
06
100
AcDbLine
 10
249.2385760655203
 20
207.1211584551699
 30
0.0
 11
249.2385760655201
 21
135.3331820009072
 31
0.0
  0
LINE
  5
2CC
330
A
100
AcDbEntity
  8
03
100
AcDbLine
 10
249.2385760655203
 20
207.1211584551699
 30
0.0
 11
209.2385760655203
 21
207.1211584551699
 31
0.0
  0
LINE
  5
2CD
330
A
100
AcDbEntity
  8
03
100
AcDbLine
 10
292.2385760655206
 20
512.12115845517
 30
0.0
 11
292.2385760655203
 21
135.3331820009072
 31
0.0
  0
LINE
  5
2CE
330
A
100
AcDbEntity
  8
03
100
AcDbLine
 10
289.2385760655205
 20
511.3711584551698
 30
0.0
 11
289.2385760655205
 21
487.8711584551699
 31
0.0
  0
LINE
  5
2CF
330
A
100
AcDbEntity
  8
03
100
AcDbLine
 10
289.2385760655205
 20
481.37115845517
 30
0.0
 11
289.2385760655203
 21
182.8711584551699
 31
0.0
  0
ARC
  5
2D0
330
A
100
AcDbEntity
  8
03
100
AcDbCircle
 10
288.4885760655203
 20
182.8711584551699
 30
0.0
 40
0.75
100
AcDbArc
 50
269.9999999999999
 51
0.0
  0
LINE
  5
2D1
330
A
100
AcDbEntity
  8
03
100
AcDbLine
 10
287.7385760655205
 20
510.6211584551699
 30
0.0
 11
287.7385760655205
 21
488.6211584551698
 31
0.0
  0
LINE
  5
2D2
330
A
100
AcDbEntity
  8
03
100
AcDbLine
 10
287.7385760655205
 20
480.6211584551698
 30
0.0
 11
287.7385760655203
 21
183.6211584551699
 31
0.0
  0
LINE
  5
2D3
330
A
100
AcDbEntity
  8
03
100
AcDbLine
 10
288.4885760655206
 20
512.12115845517
 30
0.0
 11
259.2385760655205
 21
512.1211584551701
 31
0.0
  0
ARC
  5
2D4
330
A
100
AcDbEntity
  8
03
100
AcDbCircle
 10
288.4885760655206
 20
511.3711584551698
 30
0.0
 40
0.75
100
AcDbArc
 50
0.0
 51
89.99999999999992
  0
LINE
  5
2D5
330
A
100
AcDbEntity
  8
03
100
AcDbLine
 10
273.2385760655205
 20
510.6211584551699
 30
0.0
 11
145.9885760655206
 21
510.6211584551699
 31
0.0
  0
ARC
  5
2D6
330
A
100
AcDbEntity
  8
03
100
AcDbCircle
 10
145.9885760655206
 20
509.8711584551701
 30
0.0
 40
0.75
100
AcDbArc
 50
89.99999999999992
 51
179.9999999999998
  0
LINE
  5
2D7
330
A
100
AcDbEntity
  8
03
100
AcDbLine
 10
287.7385760655205
 20
510.6211584551699
 30
0.0
 11
259.2385760655205
 21
510.6211584551699
 31
0.0
  0
LINE
  5
2D8
330
A
100
AcDbEntity
  8
03
100
AcDbLine
 10
259.2385760655205
 20
512.1211584551701
 30
0.0
 11
259.2385760655205
 21
510.6211584551699
 31
0.0
  0
LINE
  5
2DA
330
A
100
AcDbEntity
  8
03
100
AcDbLine
 10
288.4885760655205
 20
487.12115845517
 30
0.0
 11
275.7385760655207
 21
487.1211584551701
 31
0.0
  0
ARC
  5
2DB
330
A
100
AcDbEntity
  8
03
100
AcDbCircle
 10
288.4885760655205
 20
487.8711584551699
 30
0.0
 40
0.75
100
AcDbArc
 50
269.9999999999999
 51
0.0
  0
LINE
  5
2DC
330
A
100
AcDbEntity
  8
03
100
AcDbLine
 10
288.4885760655205
 20
482.1211584551699
 30
0.0
 11
277.2385760655205
 21
482.1211584551699
 31
0.0
  0
ARC
  5
2DD
330
A
100
AcDbEntity
  8
03
100
AcDbCircle
 10
288.4885760655205
 20
481.37115845517
 30
0.0
 40
0.75
100
AcDbArc
 50
0.0
 51
89.99999999999992
  0
LINE
  5
2DE
330
A
100
AcDbEntity
  8
03
100
AcDbLine
 10
287.7385760655205
 20
488.6211584551698
 30
0.0
 11
274.9885760655205
 21
488.6211584551698
 31
0.0
  0
LINE
  5
2DF
330
A
100
AcDbEntity
  8
03
100
AcDbLine
 10
287.7385760655205
 20
480.6211584551698
 30
0.0
 11
277.2385760655205
 21
480.6211584551698
 31
0.0
  0
ARC
  5
2E0
330
A
100
AcDbEntity
  8
03
100
AcDbCircle
 10
274.9885760655205
 20
487.8711584551699
 30
0.0
 40
0.75
100
AcDbArc
 50
89.99999999999992
 51
179.9999999999998
  0
LINE
  5
2E1
330
A
100
AcDbEntity
  8
03
100
AcDbLine
 10
275.7385760655205
 20
473.6211584551699
 30
0.0
 11
275.7385760655206
 21
487.12115845517
 31
0.0
  0
LINE
  5
2E2
330
A
100
AcDbEntity
  8
03
100
AcDbLine
 10
277.2385760655205
 20
482.1211584551699
 30
0.0
 11
277.2385760655205
 21
480.6211584551698
 31
0.0
  0
LINE
  5
2E3
330
A
100
AcDbEntity
  8
03
100
AcDbLine
 10
275.7385760655205
 20
473.6211584551699
 30
0.0
 11
274.2385760655205
 21
473.6211584551699
 31
0.0
  0
LINE
  5
2E4
330
A
100
AcDbEntity
  8
03
100
AcDbLine
 10
274.2385760655205
 20
473.6211584551699
 30
0.0
 11
272.6385760655205
 21
473.6211584551699
 31
0.0
  0
LINE
  5
2F0
330
A
100
AcDbEntity
  8
02
100
AcDbLine
 10
170.2385760655205
 20
503.0211584551699
 30
0.0
 11
170.2385760655204
 21
189.6211584551701
 31
0.0
  0
LINE
  5
2F1
330
A
100
AcDbEntity
  8
02
100
AcDbLine
 10
164.2385760655205
 20
503.0211584551699
 30
0.0
 11
164.2385760655202
 21
189.6211584551701
 31
0.0
  0
ARC
  5
2F8
330
A
100
AcDbEntity
  8
KAKURE
100
AcDbCircle
 10
240.0541557832165
 20
227.6212239928907
 30
0.0
 40
6.5
100
AcDbArc
 50
270.0000000000012
 51
342.079596279103
  0
LINE
  5
2F9
330
A
100
AcDbEntity
  8
03
100
AcDbLine
 10
146.7385760655204
 20
509.02115845517
 30
0.0
 11
146.7385760655202
 21
183.6211584551701
 31
0.0
  0
LINE
  5
2FB
330
A
100
AcDbEntity
  8
03
100
AcDbLine
 10
205.2385760655203
 20
183.6211584551699
 30
0.0
 11
146.7385760655202
 21
183.6211584551701
 31
0.0
  0
LINE
  5
305
330
A
100
AcDbEntity
  8
03
100
AcDbLine
 10
272.6385760655205
 20
509.02115845517
 30
0.0
 11
146.7385760655204
 21
509.02115845517
 31
0.0
  0
LINE
  5
306
330
A
100
AcDbEntity
  8
03
100
AcDbLine
 10
274.2385760655205
 20
473.6211584551699
 30
0.0
 11
274.2385760655206
 21
509.6211584551698
 31
0.0
  0
ARC
  5
307
330
A
100
AcDbEntity
  8
03
100
AcDbCircle
 10
273.2385760655205
 20
509.6211584551698
 30
0.0
 40
1.0
100
AcDbArc
 50
359.9999999999998
 51
89.99999999999992
  0
LINE
  5
308
330
A
100
AcDbEntity
  8
03
100
AcDbLine
 10
272.6385760655205
 20
473.6211584551699
 30
0.0
 11
272.6385760655205
 21
509.02115845517
 31
0.0
  0
LINE
  5
41F
330
A
100
AcDbEntity
  8
06
100
AcDbLine
 10
241.7385760655203
 20
221.121260693231
 30
0.0
 11
241.7385760655203
 21
208.7211584551701
 31
0.0
  0
LINE
  5
420
330
A
100
AcDbEntity
  8
06
100
AcDbLine
 10
216.7385760655204
 20
221.1212367315265
 30
0.0
 11
216.7385760655204
 21
208.7211584551699
 31
0.0
  0
LINE
  5
421
330
A
100
AcDbEntity
  8
06
100
AcDbLine
 10
241.7385760655203
 20
217.1211584551699
 30
0.0
 11
216.7385760655204
 21
217.1211584551699
 31
0.0
  0
LINE
  5
422
330
A
100
AcDbEntity
  8
06
100
AcDbLine
 10
241.7385760655203
 20
218.12115845517
 30
0.0
 11
216.7385760655204
 21
218.12115845517
 31
0.0
  0
LINE
  5
423
330
A
100
AcDbEntity
  8
06
100
AcDbLine
 10
241.7385760655203
 20
219.1211584551699
 30
0.0
 11
216.7385760655204
 21
219.1211584551699
 31
0.0
  0
LINE
  5
424
330
A
100
AcDbEntity
  8
06
100
AcDbLine
 10
241.7385760655203
 20
220.12115845517
 30
0.0
 11
216.7385760655204
 21
220.12115845517
 31
0.0
  0
LINE
  5
436
330
A
100
AcDbEntity
  8
CHUSIN
100
AcDbLine
 10
229.2385760655203
 20
239.1211519630491
 30
0.0
 11
229.2385760655203
 21
135.3331820009072
 31
0.0
  0
LINE
  5
444
330
A
100
AcDbEntity
  8
CHUSIN
100
AcDbLine
 10
262.2957168921611
 20
316.1215114196803
 30
0.0
 11
166.238640861936
 21
316.1216518527853
 31
0.0
  0
LINE
  5
448
330
A
100
AcDbEntity
  8
CHUSIN
100
AcDbLine
 10
210.8726670050571
 20
262.1212010291975
 30
0.0
 11
248.7542928051956
 21
262.1212315467829
 31
0.0
  0
LINE
  5
449
330
A
100
AcDbEntity
  8
CHUSIN
100
AcDbLine
 10
176.9737926076553
 20
291.12115845517
 30
0.0
 11
162.1030728312751
 21
291.12115845517
 31
0.0
  0
LINE
  5
44A
330
A
100
AcDbEntity
  8
CHUSIN
100
AcDbLine
 10
176.9737926076553
 20
336.12115845517
 30
0.0
 11
162.1030728312751
 21
336.12115845517
 31
0.0
  0
LINE
  5
44B
330
A
100
AcDbEntity
  8
SOUZOU
100
AcDbLine
 10
266.7385760655204
 20
426.6211584551699
 30
0.0
 11
266.7385760655204
 21
273.62115845517
 31
0.0
  0
LINE
  5
44C
330
A
100
AcDbEntity
  8
SOUZOU
100
AcDbLine
 10
263.5385760655203
 20
426.6211584551699
 30
0.0
 11
263.5385760655203
 21
274.82115845517
 31
0.0
  0
LINE
  5
44D
330
A
100
AcDbEntity
  8
KAKURE
100
AcDbLine
 10
175.2385760655205
 20
416.1211584551701
 30
0.0
 11
160.0385760655204
 21
416.1211584551701
 31
0.0
  0
LINE
  5
44E
330
A
100
AcDbEntity
  8
KAKURE
100
AcDbLine
 10
175.2385760655205
 20
408.12115845517
 30
0.0
 11
160.0385760655204
 21
408.12115845517
 31
0.0
  0
LINE
  5
44F
330
A
100
AcDbEntity
  8
KAKURE
100
AcDbLine
 10
160.0385760655204
 20
416.1211584551701
 30
0.0
 11
158.8385760655205
 21
414.9211584551699
 31
0.0
  0
LINE
  5
450
330
A
100
AcDbEntity
  8
KAKURE
100
AcDbLine
 10
160.0385760655204
 20
408.12115845517
 30
0.0
 11
158.8385760655205
 21
409.32115845517
 31
0.0
  0
LINE
  5
451
330
A
100
AcDbEntity
  8
KAKURE
100
AcDbLine
 10
158.8385760655205
 20
409.32115845517
 30
0.0
 11
158.8385760655205
 21
414.9211584551699
 31
0.0
  0
LINE
  5
455
330
A
100
AcDbEntity
  8
KAKURE
100
AcDbLine
 10
170.2385760655204
 20
294.12115845517
 30
0.0
 11
164.2385760655203
 21
294.12115845517
 31
0.0
  0
LINE
  5
456
330
A
100
AcDbEntity
  8
KAKURE
100
AcDbLine
 10
170.2385760655204
 20
288.12115845517
 30
0.0
 11
164.2385760655203
 21
288.12115845517
 31
0.0
  0
LINE
  5
457
330
A
100
AcDbEntity
  8
KAKURE
100
AcDbLine
 10
170.2385760655204
 20
288.62115845517
 30
0.0
 11
164.2385760655203
 21
288.62115845517
 31
0.0
  0
LINE
  5
458
330
A
100
AcDbEntity
  8
KAKURE
100
AcDbLine
 10
170.2385760655204
 20
293.6211584551701
 30
0.0
 11
164.2385760655203
 21
293.6211584551701
 31
0.0
  0
LINE
  5
459
330
A
100
AcDbEntity
  8
KAKURE
100
AcDbLine
 10
170.2385760655204
 20
339.1211584551701
 30
0.0
 11
164.2385760655203
 21
339.1211584551701
 31
0.0
  0
LINE
  5
45A
330
A
100
AcDbEntity
  8
KAKURE
100
AcDbLine
 10
170.2385760655204
 20
333.12115845517
 30
0.0
 11
164.2385760655203
 21
333.12115845517
 31
0.0
  0
LINE
  5
45B
330
A
100
AcDbEntity
  8
KAKURE
100
AcDbLine
 10
170.2385760655204
 20
333.62115845517
 30
0.0
 11
164.2385760655203
 21
333.62115845517
 31
0.0
  0
LINE
  5
45C
330
A
100
AcDbEntity
  8
KAKURE
100
AcDbLine
 10
170.2385760655204
 20
338.62115845517
 30
0.0
 11
164.2385760655203
 21
338.62115845517
 31
0.0
  0
POLYLINE
  5
566
330
A
100
AcDbEntity
  8
DEFPOINTS
100
AcDb2dPolyline
 66
     1
 10
0.0
 20
0.0
 30
0.0
 70
     1
  0
VERTEX
  5
12E2
330
566
100
AcDbEntity
  8
DEFPOINTS
100
AcDbVertex
100
AcDb2dVertex
 10
0.0
 20
0.0
 30
0.0
  0
VERTEX
  5
12E3
330
566
100
AcDbEntity
  8
DEFPOINTS
100
AcDbVertex
100
AcDb2dVertex
 10
420.0
 20
0.0
 30
0.0
  0
VERTEX
  5
12E4
330
566
100
AcDbEntity
  8
DEFPOINTS
100
AcDbVertex
100
AcDb2dVertex
 10
420.0
 20
594.0
 30
0.0
  0
VERTEX
  5
12E5
330
566
100
AcDbEntity
  8
DEFPOINTS
100
AcDbVertex
100
AcDb2dVertex
 10
0.0
 20
594.0
 30
0.0
  0
SEQEND
  5
12E6
330
566
100
AcDbEntity
  8
DEFPOINTS
  0
DIMENSION
  5
56A
330
A
100
AcDbEntity
  8
SUNPOU
100
AcDbDimension
  2
*D1
 10
272.7385760655204
 20
480.2333237692082
 30
0.0
 11
221.4885760655205
 21
484.7333237692082
 31
0.0
 70
    32
  3
SUNPOU_2
100
AcDbAlignedDimension
 13
170.2385760655205
 23
480.2333237692082
 33
0.0
 14
272.7385760655204
 24
426.6211584551699
 34
0.0
100
AcDbRotatedDimension
  0
DIMENSION
  5
598
330
A
100
AcDbEntity
  8
SUNPOU
100
AcDbDimension
  2
*D2
 10
249.2385760655203
 20
177.8711584551698
 30
0.0
 11
233.3856421167971
 21
182.3711584551699
 31
0.0
 70
   160
  3
SUNPOU_2
100
AcDbAlignedDimension
 13
209.2385760655203
 23
177.8711584551698
 33
0.0
 14
249.2385760655203
 24
177.8711584551698
 34
0.0
100
AcDbRotatedDimension
  0
DIMENSION
  5
61C
330
A
100
AcDbEntity
  8
SUNPOU
100
AcDbDimension
  2
*D3
 10
145.2385760655204
 20
162.8846203490375
 30
0.0
 11
134.3828147741757
 21
167.3711584551699
 31
0.0
 70
   160
  3
SUNPOU_2
100
AcDbAlignedDimension
 13
142.2385760655203
 23
162.8711584551699
 33
0.0
 14
145.2385760655204
 24
198.6211584551701
 34
0.0
100
AcDbRotatedDimension
  0
DIMENSION
  5
62B
330
A
100
AcDbEntity
  8
SUNPOU
100
AcDbDimension
  2
*D4
 10
229.2385760655203
 20
162.8837185731551
 30
0.0
 11
187.2385760655203
 21
167.3837185731551
 31
0.0
 70
    32
  3
SUNPOU_2
100
AcDbAlignedDimension
 13
145.2385760655204
 23
198.6211584551701
 33
0.0
 14
229.2385760655203
 24
163.0211584551699
 34
0.0
100
AcDbRotatedDimension
  0
DIMENSION
  5
638
330
A
100
AcDbEntity
  8
SUNPOU
100
AcDbDimension
  2
*D5
 10
289.2385760655205
 20
162.8711584551699
 30
0.0
 11
259.2385760655204
 21
167.3711584551699
 31
0.0
 70
    32
  3
SUNPOU_2
100
AcDbAlignedDimension
 13
229.2385760655203
 23
163.0211584551699
 33
0.0
 14
289.2385760655205
 24
183.6211584551699
 34
0.0
100
AcDbRotatedDimension
  0
DIMENSION
  5
645
330
A
100
AcDbEntity
  8
SUNPOU
100
AcDbDimension
  2
*D6
 10
292.2385760655203
 20
162.8711584551699
 30
0.0
 11
299.991942925331
 21
167.3711584551699
 31
0.0
 70
   160
  3
SUNPOU_2
100
AcDbAlignedDimension
 13
289.2385760655203
 23
182.8711584551699
 33
0.0
 14
292.2385760655203
 24
162.8711584551699
 34
0.0
100
AcDbRotatedDimension
  0
DIMENSION
  5
66A
330
A
100
AcDbEntity
  8
SUNPOU
100
AcDbDimension
  2
*D7
 10
292.2385760655203
 20
147.8711584551699
 30
0.0
 11
217.2385760655203
 21
152.3711584551699
 31
0.0
 70
    32
  3
SUNPOU_2
100
AcDbAlignedDimension
 13
142.2385760655203
 23
147.8711584551699
 33
0.0
 14
292.2385760655203
 24
147.8711584551699
 34
0.0
100
AcDbRotatedDimension
  0
DIMENSION
  5
6F1
330
A
100
AcDbEntity
  8
SUNPOU
100
AcDbDimension
  2
*D8
 10
196.6170581630444
 20
461.1211584551699
 30
0.0
 11
192.1170581630443
 21
417.4078937382482
 31
0.0
 70
   160
  3
SUNPOU_2
100
AcDbAlignedDimension
 13
178.2385760655204
 23
363.1211584551699
 33
0.0
 14
178.2385760655222
 24
461.1211584551699
 34
0.0
 50
90.0
100
AcDbRotatedDimension
  0
DIMENSION
  5
707
330
A
100
AcDbEntity
  8
SUNPOU
100
AcDbDimension
  2
*D9
 10
122.2385760655203
 20
291.1211584551701
 30
0.0
 11
117.7385760655203
 21
236.6211584551701
 31
0.0
 70
    32
  3
SUNPOU_2
100
AcDbAlignedDimension
 13
145.9885760655204
 23
182.1211584551701
 33
0.0
 14
162.1030728312751
 24
291.12115845517
 34
0.0
 50
90.0
100
AcDbRotatedDimension
  0
DIMENSION
  5
714
330
A
100
AcDbEntity
  8
SUNPOU
100
AcDbDimension
  2
*D10
 10
122.2385760655203
 20
336.1211584551701
 30
0.0
 11
117.7385760655203
 21
313.6211584551701
 31
0.0
 70
    32
  3
SUNPOU_2
100
AcDbAlignedDimension
 13
162.1030728312751
 23
291.12115845517
 33
0.0
 14
162.1030728312751
 24
336.12115845517
 34
0.0
 50
90.0
100
AcDbRotatedDimension
  0
DIMENSION
  5
721
330
A
100
AcDbEntity
  8
SUNPOU
100
AcDbDimension
  2
*D11
 10
107.2385760655203
 20
227.12115845517
 30
0.0
 11
102.7385760655203
 21
204.6211584551701
 31
0.0
 70
    32
  3
SUNPOU_2
100
AcDbAlignedDimension
 13
145.9885760655204
 23
182.1211584551701
 33
0.0
 14
173.2383565677714
 24
227.12115845517
 34
0.0
 50
90.0
100
AcDbRotatedDimension
  0
DIMENSION
  5
72E
330
A
100
AcDbEntity
  8
SUNPOU
100
AcDbDimension
  2
*D12
 10
107.2385760655204
 20
352.1211521227898
 30
0.0
 11
102.7385760655203
 21
289.6211552889798
 31
0.0
 70
    32
  3
SUNPOU_2
100
AcDbAlignedDimension
 13
173.2383565677714
 23
227.12115845517
 33
0.0
 14
172.1872469158254
 24
352.1211521227896
 34
0.0
 50
90.0
100
AcDbRotatedDimension
  0
DIMENSION
  5
73B
330
A
100
AcDbEntity
  8
SUNPOU
100
AcDbDimension
  2
*D13
 10
92.23857606552051
 20
412.1211584551701
 30
0.0
 11
87.73857606552047
 21
297.1211584551701
 31
0.0
 70
    32
  3
SUNPOU_2
100
AcDbAlignedDimension
 13
145.9885760655204
 23
182.1211584551701
 33
0.0
 14
155.7823933117391
 24
412.1211584551701
 34
0.0
 50
90.0
100
AcDbRotatedDimension
  0
DIMENSION
  5
748
330
A
100
AcDbEntity
  8
SUNPOU
100
AcDbDimension
  2
*D14
 10
77.23857606552058
 20
512.1211584551701
 30
0.0
 11
72.73857606552049
 21
347.1211584551701
 31
0.0
 70
    32
  3
SUNPOU_2
100
AcDbAlignedDimension
 13
145.9885760655204
 23
182.1211584551701
 33
0.0
 14
142.2385760655205
 24
512.1211584551701
 34
0.0
 50
90.0
100
AcDbRotatedDimension
  0
MTEXT
  5
75A
330
A
100
AcDbEntity
  8
HIKIDASI
100
AcDbMText
 10
95.32312795171376
 20
363.2478199615864
 30
0.0
 40
5.0
 41
0.0
 71
     7
 72
     1
  1
M6タップ\P(サッシ工事)
  7
SUNPOU
1001
ACAD
1000
MTEXTBEGIN
1070
    73
1070
     1
1070
    44
1040
1.0
1070
    74
1070
     0
1000
MTEXTEND
1000
MTEXTBEGIN
1070
    73
1070
     1
1070
    44
1040
1.0
1070
    74
1070
     0
1000
MTEXTEND
  0
LEADER
  5
75B
330
A
100
AcDbEntity
  8
HIKIDASI
100
AcDbLeader
  3
SUNPOU_2
 73
     0
 75
     1
 40
13.33333333333333
 41
28.0
 76
     3
 10
167.2385760655203
 20
294.12115845517
 30
0.0
 10
130.3231279517137
 20
370.0372325268427
 30
0.0
 10
125.3231279517136
 20
370.0372325268427
 30
0.0
340
75A
213
0.0
223
8.789412565256496
233
0.0
1001
ACAD
1000
DSTYLE
1002
{
1070
     5
1000
OPEN30
1070
    77
1070
     1
1070
   147
1040
1.0
1070
   342
1005
550
1002
}
1000
LEANOF
1010
0.0
1020
8.789412565256496
1030
0.0
1000
LEANOF
1010
0.0
1020
8.789412565256496
1030
0.0
  0
MTEXT
  5
75D
330
A
100
AcDbEntity
  8
HIKIDASI
100
AcDbMText
 10
95.41966174182524
 20
433.6840815837802
 30
0.0
 40
5.0
 41
0.0
 71
     7
 72
     1
  1
M8タップ\P(サッシ工事)
  7
SUNPOU
1001
ACAD
1000
MTEXTBEGIN
1070
    73
1070
     1
1070
    44
1040
1.0
1070
    74
1070
     0
1000
MTEXTEND
1000
MTEXTBEGIN
1070
    73
1070
     1
1070
    44
1040
1.0
1070
    74
1070
     0
1000
MTEXTEND
  0
LEADER
  5
75E
330
A
100
AcDbEntity
  8
HIKIDASI
100
AcDbLeader
  3
SUNPOU_2
 73
     0
 75
     1
 40
13.33333333333333
 41
28.0
 76
     3
 10
158.8385760655205
 20
412.1211584551701
 30
0.0
 10
130.4196617418251
 20
440.5065433207877
 30
0.0
 10
125.4196617418251
 20
440.5065433207877
 30
0.0
340
75D
213
0.0
223
8.822461737007413
233
0.0
1001
ACAD
1000
DSTYLE
1002
{
1070
     5
1000
OPEN30
1070
    77
1070
     1
1070
   147
1040
1.0
1070
   342
1005
550
1002
}
1000
LEANOF
1010
0.0
1020
8.822461737007413
1030
0.0
1000
LEANOF
1010
0.0
1020
8.822461737007413
1030
0.0
  0
LEADER
  5
764
330
A
100
AcDbEntity
  8
HIKIDASI
100
AcDbLeader
  3
SUNPOU_2
 73
     0
 74
     0
 75
     1
 40
13.33333333333333
 41
29.33333333333333
 76
     3
 10
256.1725457440025
 20
422.4667158423273
 30
0.0
 10
303.0890347771063
 20
449.4445599622052
 30
0.0
 10
308.0890347771063
 20
449.4445599622052
 30
0.0
340
765
213
0.0
223
8.590658137539094
233
0.0
1001
ACAD
1000
DSTYLE
1002
{
1070
     5
1000
OPEN30
1070
    77
1070
     1
1070
   147
1040
1.0
1070
   342
1005
550
1002
}
1000
LEANOF
1010
0.0
1020
8.590658137539094
1030
0.0
1000
LEANOF
1010
0.0
1020
8.590658137539094
1030
0.0
  0
MTEXT
  5
765
330
A
100
AcDbEntity
  8
HIKIDASI
100
AcDbMText
 10
310.0890347771063
 20
442.8539018246659
 30
0.0
 40
5.0
 41
0.0
 71
     7
 72
     1
  1
自動閉鎖装置{\Ftxt.shx|c0;\P}（{\Ftxt.shx|c0;FPS-I}型）
  7
SUNPOU
1001
ACAD
1000
MTEXTBEGIN
1070
    73
1070
     1
1070
    44
1040
1.0
1070
    74
1070
     0
1000
MTEXTEND
1000
MTEXTBEGIN
1070
    73
1070
     1
1070
    44
1040
1.0
1070
    74
1070
     0
1000
MTEXTEND
  0
LEADER
  5
767
330
A
100
AcDbEntity
  8
HIKIDASI
100
AcDbLeader
  3
SUNPOU_2
 73
     0
 74
     0
 75
     1
 40
5.0
 41
19.19999999999999
 76
     3
 10
266.7385760655204
 20
350.1211584551699
 30
0.0
 10
303.0575406691648
 20
371.2914774018536
 30
0.0
 10
308.0575406691648
 20
371.2914774018536
 30
0.0
340
768
1001
ACAD
1000
DSTYLE
1002
{
1070
     5
1000
OPEN30
1070
    77
1070
     1
1070
   147
1040
1.0
1070
   342
1005
550
1002
}
1000
LEANOF
1010
0.0
1020
0.0
1030
0.0
1000
LEANOF
1010
0.0
1020
0.0
1030
0.0
  0
MTEXT
  5
768
330
A
100
AcDbEntity
  8
HIKIDASI
100
AcDbMText
 10
310.0575406691648
 20
373.2914774018536
 30
0.0
 40
5.0
 41
0.0
 71
     7
 72
     1
  1
駆動金具
  7
SUNPOU
1001
ACAD
1000
MTEXTBEGIN
1070
    73
1070
     1
1070
    44
1040
1.0
1070
    74
1070
     0
1000
MTEXTEND
1000
MTEXTBEGIN
1070
    73
1070
     1
1070
    44
1040
1.0
1070
    74
1070
     0
1000
MTEXTEND
  0
LEADER
  5
76E
330
A
100
AcDbEntity
  8
HIKIDASI
100
AcDbLeader
  3
SUNPOU_2
 73
     0
 74
     0
 75
     1
 40
5.0
 41
31.73333333333333
 76
     3
 10
209.4835753574961
 20
426.8630615206778
 30
0.0
 10
225.1930949151475
 20
454.9226518622046
 30
0.0
 10
230.1930949151475
 20
454.9226518622046
 30
0.0
340
76F
1001
ACAD
1000
DSTYLE
1002
{
1070
     5
1000
OPEN30
1070
    77
1070
     1
1070
   147
1040
1.0
1070
   342
1005
550
1002
}
1000
LEANOF
1010
0.0
1020
0.0
1030
0.0
1000
LEANOF
1010
0.0
1020
0.0
1030
0.0
  0
MTEXT
  5
76F
330
A
100
AcDbEntity
  8
HIKIDASI
100
AcDbMText
 10
232.1930949151475
 20
456.9226518622046
 30
0.0
 40
5.0
 41
0.0
 71
     7
 72
     1
  1
コンストンバネ
  7
SUNPOU
1001
ACAD
1000
MTEXTBEGIN
1070
    73
1070
     1
1070
    44
1040
1.0
1070
    74
1070
     0
1000
MTEXTEND
1000
MTEXTBEGIN
1070
    73
1070
     1
1070
    44
1040
1.0
1070
    74
1070
     0
1000
MTEXTEND
  0
LINE
  5
C6B
330
A
100
AcDbEntity
  8
02
100
AcDbLine
 10
209.885286476685
 20
227.1211730579111
 30
0.0
 11
205.0390156681503
 21
227.1211622789504
 31
0.0
  0
LINE
  5
C6C
330
A
100
AcDbEntity
  8
02
100
AcDbLine
 10
207.5094585649371
 20
234.6553096527618
 30
0.0
 11
219.4533987817617
 21
242.9324105419906
 31
0.0
  0
LINE
  5
C6D
330
A
100
AcDbEntity
  8
06
100
AcDbLine
 10
232.2388704299723
 20
280.1215596133701
 30
0.0
 11
184.7430847529126
 21
280.1213869417267
 31
0.0
  0
LINE
  5
C6E
330
A
100
AcDbEntity
  8
02
100
AcDbLine
 10
170.2388114270925
 20
230.0848726236785
 30
0.0
 11
170.238826829769
 21
350.1217805225186
 31
0.0
  0
LINE
  5
C6F
330
A
100
AcDbEntity
  8
02
100
AcDbLine
 10
195.7398558887673
 20
255.6209638066704
 30
0.0
 11
195.7398558887673
 21
245.4383004509545
 31
0.0
  0
LINE
  5
C70
330
A
100
AcDbEntity
  8
02
100
AcDbLine
 10
192.739455855096
 20
246.12050359076
 30
0.0
 11
192.7398463888755
 21
255.6488903460059
 31
0.0
  0
LINE
  5
C71
330
A
100
AcDbEntity
  8
02
100
AcDbLine
 10
175.2393774015595
 20
261.7939513017688
 30
0.0
 11
175.2394519808968
 21
238.1209947283545
 31
0.0
  0
LINE
  5
C72
330
A
100
AcDbEntity
  8
02
100
AcDbLine
 10
191.7401602080896
 20
255.120405595447
 30
0.0
 11
191.7401602080895
 21
246.6205631772335
 31
0.0
  0
LINE
  5
C73
330
A
100
AcDbEntity
  8
02
100
AcDbLine
 10
176.2402787489801
 20
255.120405595447
 30
0.0
 11
176.2402787489801
 21
246.6205631772335
 31
0.0
  0
LINE
  5
C74
330
A
100
AcDbEntity
  8
02
100
AcDbLine
 10
192.439230084371
 20
227.121162279145
 30
0.0
 11
173.2385919292136
 21
227.1211622791452
 31
0.0
  0
ARC
  5
C75
330
A
100
AcDbEntity
  8
02
100
AcDbCircle
 10
178.2394471566667
 20
238.1210041795462
 30
0.0
 40
2.999995175784897
100
AcDbArc
 50
180.0001805047559
 51
270.0006036846493
  0
ARC
  5
C76
330
A
100
AcDbEntity
  8
02
100
AcDbCircle
 10
173.2385919292136
 20
230.1211622791452
 30
0.0
 40
2.999999999999957
100
AcDbArc
 50
180.6930982698889
 51
270.0
  0
LINE
  5
C77
330
A
100
AcDbEntity
  8
02
100
AcDbLine
 10
175.2401959339196
 20
246.6205631772337
 30
0.0
 11
176.2402787489801
 21
246.6205631772335
 31
0.0
  0
LINE
  5
C78
330
A
100
AcDbEntity
  8
02
100
AcDbLine
 10
193.0390156679559
 20
227.121162279145
 30
0.0
 11
192.439230084371
 21
227.121162279145
 31
0.0
  0
LINE
  5
C79
330
A
100
AcDbEntity
  8
02
100
AcDbLine
 10
191.3311822768272
 20
234.1210918475757
 30
0.0
 11
194.1616899717304
 21
234.1210918475757
 31
0.0
  0
LINE
  5
C7A
330
A
100
AcDbEntity
  8
02
100
AcDbLine
 10
195.5311248299194
 20
244.8268321666029
 30
0.0
 11
189.7486443945225
 21
237.3440284162787
 31
0.0
  0
ARC
  5
C7B
330
A
100
AcDbEntity
  8
02
100
AcDbCircle
 10
183.2422557098419
 20
237.1210562724717
 30
0.0
 40
2.000002155828582
100
AcDbArc
 50
270.0005166657545
 51
322.999969207994
  0
LINE
  5
C7C
330
A
100
AcDbEntity
  8
02
100
AcDbLine
 10
178.2394787654703
 20
235.121009003928
 30
0.0
 11
183.2422737448984
 21
235.1210541167245
 31
0.0
  0
ARC
  5
C7D
330
A
100
AcDbEntity
  8
02
100
AcDbCircle
 10
191.331182276827
 20
236.1210918475757
 30
0.0
 40
2.000000000000006
100
AcDbArc
 50
142.3042546317016
 51
270.0000000000049
  0
LINE
  5
C7E
330
A
100
AcDbEntity
  8
02
100
AcDbLine
 10
184.8395278047996
 20
235.9174240703485
 30
0.0
 11
192.739455855096
 21
246.12050359076
 31
0.0
  0
LINE
  5
C7F
330
A
100
AcDbEntity
  8
02
100
AcDbLine
 10
191.7401602080895
 20
246.6205631772335
 30
0.0
 11
192.7406526324841
 21
246.6205631772335
 31
0.0
  0
LINE
  5
C80
330
A
100
AcDbEntity
  8
02
100
AcDbLine
 10
201.0390156679559
 20
227.121162279145
 30
0.0
 11
200.439230084371
 21
227.121162279145
 31
0.0
  0
LINE
  5
C81
330
A
100
AcDbEntity
  8
02
100
AcDbLine
 10
199.3163905101095
 20
234.1210918475757
 30
0.0
 11
202.1616899717304
 21
234.1210918475757
 31
0.0
  0
LINE
  5
C82
330
A
100
AcDbEntity
  8
02
100
AcDbLine
 10
197.0390156679559
 20
227.121162279145
 30
0.0
 11
196.4392300843711
 21
227.121162279145
 31
0.0
  0
LINE
  5
C83
330
A
100
AcDbEntity
  8
02
100
AcDbLine
 10
195.3163905101095
 20
234.1210918475757
 30
0.0
 11
198.1616899717304
 21
234.1210918475757
 31
0.0
  0
LINE
  5
C84
330
A
100
AcDbEntity
  8
02
100
AcDbLine
 10
196.4392300843711
 20
227.121162279145
 30
0.0
 11
193.0390156679559
 21
227.121162279145
 31
0.0
  0
LINE
  5
C85
330
A
100
AcDbEntity
  8
02
100
AcDbLine
 10
193.0390156679559
 20
227.121162279145
 30
0.0
 11
193.0390156679559
 21
227.121162279145
 31
0.0
  0
LINE
  5
C86
330
A
100
AcDbEntity
  8
02
100
AcDbLine
 10
194.1616899717304
 20
234.1210918475757
 30
0.0
 11
195.3163905101095
 21
234.1210918475757
 31
0.0
  0
LINE
  5
C87
330
A
100
AcDbEntity
  8
02
100
AcDbLine
 10
195.3163905101095
 20
234.1210918475757
 30
0.0
 11
195.3163905101095
 21
234.1210918475757
 31
0.0
  0
LINE
  5
C88
330
A
100
AcDbEntity
  8
02
100
AcDbLine
 10
200.439230084371
 20
227.121162279145
 30
0.0
 11
197.0390156679559
 21
227.121162279145
 31
0.0
  0
LINE
  5
C89
330
A
100
AcDbEntity
  8
02
100
AcDbLine
 10
197.0390156679559
 20
227.121162279145
 30
0.0
 11
197.0390156679559
 21
227.121162279145
 31
0.0
  0
LINE
  5
C8A
330
A
100
AcDbEntity
  8
02
100
AcDbLine
 10
198.1616899717304
 20
234.1210918475757
 30
0.0
 11
199.3163905101095
 21
234.1210918475757
 31
0.0
  0
LINE
  5
C8B
330
A
100
AcDbEntity
  8
02
100
AcDbLine
 10
199.3163905101095
 20
234.1210918475757
 30
0.0
 11
199.3163905101095
 21
234.1210918475757
 31
0.0
  0
ARC
  5
C8C
330
A
100
AcDbEntity
  8
02
100
AcDbCircle
 10
194.7398558887675
 20
245.4383004509545
 30
0.0
 40
0.9999999999997868
100
AcDbArc
 50
322.3042546316911
 51
0.0
  0
LINE
  5
C8D
330
A
100
AcDbEntity
  8
02
100
AcDbLine
 10
203.3163905101095
 20
234.1210918475757
 30
0.0
 11
205.8006817603958
 21
234.1210918475757
 31
0.0
  0
LINE
  5
C8E
330
A
100
AcDbEntity
  8
02
100
AcDbLine
 10
204.4392300843709
 20
227.121162279145
 30
0.0
 11
201.0390156679559
 21
227.121162279145
 31
0.0
  0
LINE
  5
C8F
330
A
100
AcDbEntity
  8
02
100
AcDbLine
 10
201.0390156679559
 20
227.121162279145
 30
0.0
 11
201.0390156679559
 21
227.121162279145
 31
0.0
  0
LINE
  5
C90
330
A
100
AcDbEntity
  8
02
100
AcDbLine
 10
205.0390156681503
 20
227.1211622789504
 30
0.0
 11
204.4392300843709
 21
227.121162279145
 31
0.0
  0
LINE
  5
C91
330
A
100
AcDbEntity
  8
02
100
AcDbLine
 10
205.0390156681503
 20
227.1211622789504
 30
0.0
 11
205.0390156681503
 21
227.1211622789504
 31
0.0
  0
LINE
  5
C92
330
A
100
AcDbEntity
  8
02
100
AcDbLine
 10
202.1616899717304
 20
234.1210918475757
 30
0.0
 11
203.3163905101095
 21
234.1210918475757
 31
0.0
  0
LINE
  5
C93
330
A
100
AcDbEntity
  8
02
100
AcDbLine
 10
203.3163905101095
 20
234.1210918475757
 30
0.0
 11
203.3163905101095
 21
234.1210918475757
 31
0.0
  0
ARC
  5
C94
330
A
100
AcDbEntity
  8
02
100
AcDbCircle
 10
205.8006817603958
 20
237.1210918475759
 30
0.0
 40
3.000000000000283
100
AcDbArc
 50
270.0
 51
304.7217982668776
  0
LINE
  5
C95
330
A
100
AcDbEntity
  8
02
100
AcDbLine
 10
174.2388268450418
 20
349.6209373696673
 30
0.0
 11
174.2388848889041
 21
279.6213044022467
 31
0.0
  0
LINE
  5
C96
330
A
100
AcDbEntity
  8
02
100
AcDbLine
 10
178.4388106052082
 20
349.6215450926693
 30
0.0
 11
178.4388848889042
 21
279.6213811272784
 31
0.0
  0
LINE
  5
C97
330
A
100
AcDbEntity
  8
02
100
AcDbLine
 10
180.7388105328163
 20
267.0213711919371
 30
0.0
 11
175.2386991293931
 21
267.0213406739557
 31
0.0
  0
LINE
  5
C98
330
A
100
AcDbEntity
  8
02
100
AcDbLine
 10
174.238790228058
 20
269.0213369981989
 30
0.0
 11
178.4387880982203
 21
269.0212736157799
 31
0.0
  0
LINE
  5
C99
330
A
100
AcDbEntity
  8
02
100
AcDbLine
 10
178.4387912942714
 20
277.2212399775562
 30
0.0
 11
174.2387755769378
 21
277.2212324732001
 31
0.0
  0
LINE
  5
C9A
330
A
100
AcDbEntity
  8
02
100
AcDbLine
 10
174.2388848889041
 20
279.6213044022467
 30
0.0
 11
178.438884888883
 21
279.6213389627631
 31
0.0
  0
ARC
  5
C9B
330
A
100
AcDbEntity
  8
02
100
AcDbCircle
 10
176.7402787489803
 20
255.120405595447
 30
0.0
 40
0.5
100
AcDbArc
 50
90.00174400922373
 51
180.0
  0
LINE
  5
C9C
330
A
100
AcDbEntity
  8
02
100
AcDbLine
 10
176.2401817322921
 20
256.620563177277
 30
0.0
 11
191.7406301778957
 21
256.620711069237
 31
0.0
  0
LINE
  5
C9D
330
A
100
AcDbEntity
  8
02
100
AcDbLine
 10
174.2387755769378
 20
277.2212324732001
 30
0.0
 11
174.238790228058
 21
269.0213369981989
 31
0.0
  0
ARC
  5
C9E
330
A
100
AcDbEntity
  8
02
100
AcDbCircle
 10
176.2401912734329
 20
255.6205631773329
 30
0.0
 40
0.9999999999999998
100
AcDbArc
 50
90.00054666709623
 51
180.0
  0
LINE
  5
C9F
330
A
100
AcDbEntity
  8
02
100
AcDbLine
 10
175.2386991293931
 20
267.0213406739557
 30
0.0
 11
175.2385266475751
 21
262.4470505738197
 31
0.0
  0
LINE
  5
CA0
330
A
100
AcDbEntity
  8
02
100
AcDbLine
 10
175.2385266475751
 20
262.4470505738197
 30
0.0
 11
175.2393774015595
 21
261.7939513017688
 31
0.0
  0
LINE
  5
CA1
330
A
100
AcDbEntity
  8
02
100
AcDbLine
 10
175.2385266475751
 20
262.4470505738197
 30
0.0
 11
175.2385266475751
 21
262.4470505738197
 31
0.0
  0
ARC
  5
CA2
330
A
100
AcDbEntity
  8
02
100
AcDbCircle
 10
193.7123195627228
 20
255.6488504878815
 30
0.0
 40
0.9724731746640964
100
AcDbArc
 50
88.40206662141076
 51
179.9976516552178
  0
ARC
  5
CA3
330
A
100
AcDbEntity
  8
02
100
AcDbCircle
 10
191.7402476836368
 20
255.6205631773329
 30
0.0
 40
0.9999999999999998
100
AcDbArc
 50
0.0
 51
89.99919302646956
  0
LINE
  5
CA4
330
A
100
AcDbEntity
  8
02
100
AcDbLine
 10
191.2405952503475
 20
255.6206947729925
 30
0.0
 11
176.7402635296286
 21
255.6204055952154
 31
0.0
  0
LINE
  5
CA5
330
A
100
AcDbEntity
  8
02
100
AcDbLine
 10
178.4388891300306
 20
270.5213477388525
 30
0.0
 11
180.7387911136655
 21
270.5211928376662
 31
0.0
  0
LINE
  5
CA6
330
A
100
AcDbEntity
  8
02
100
AcDbLine
 10
178.4387880982203
 20
269.0212736157799
 30
0.0
 11
178.4388891300306
 21
270.5213477388525
 31
0.0
  0
LINE
  5
CA7
330
A
100
AcDbEntity
  8
02
100
AcDbLine
 10
180.7387911136655
 20
270.5211928376662
 30
0.0
 11
180.7388105328163
 21
267.0213711919371
 31
0.0
  0
ARC
  5
CA8
330
A
100
AcDbEntity
  8
02
100
AcDbCircle
 10
191.2401602080896
 20
255.120405595447
 30
0.0
 40
0.5
100
AcDbArc
 50
0.0
 51
89.99825599077464
  0
LINE
  5
CA9
330
A
100
AcDbEntity
  8
02
100
AcDbLine
 10
180.7388733799655
 20
275.7214436109285
 30
0.0
 11
178.4387885977344
 21
275.7213315300713
 31
0.0
  0
LINE
  5
CAA
330
A
100
AcDbEntity
  8
02
100
AcDbLine
 10
179.7389471695064
 20
282.1214379826091
 30
0.0
 11
180.7389191626945
 21
280.121487546873
 31
0.0
  0
LINE
  5
CAB
330
A
100
AcDbEntity
  8
02
100
AcDbLine
 10
178.4387885977344
 20
275.7213315300713
 30
0.0
 11
178.4387912942714
 21
277.2212399775562
 31
0.0
  0
LINE
  5
CAC
330
A
100
AcDbEntity
  8
02
100
AcDbLine
 10
178.4388822358033
 20
282.1214300864006
 30
0.0
 11
179.7389471695064
 21
282.1214379826091
 31
0.0
  0
LINE
  5
CAD
330
A
100
AcDbEntity
  8
02
100
AcDbLine
 10
178.438884888883
 20
279.6213389627631
 30
0.0
 11
178.4388822358033
 21
282.1214300864006
 31
0.0
  0
LINE
  5
CAE
330
A
100
AcDbEntity
  8
02
100
AcDbLine
 10
180.7389191626945
 20
280.121487546873
 30
0.0
 11
180.7388733799655
 21
275.7214436109285
 31
0.0
  0
ARC
  5
CAF
330
A
100
AcDbEntity
  8
02
100
AcDbCircle
 10
194.7398741988008
 20
255.620982116704
 30
0.0
 40
0.9999816901340356
100
AcDbArc
 50
359.9989508931414
 51
90.00104910685697
  0
LINE
  5
CB0
330
A
100
AcDbEntity
  8
02
100
AcDbLine
 10
193.739437544559
 20
256.6209454886416
 30
0.0
 11
194.7398558887672
 21
256.6209638066704
 31
0.0
  0
ARC
  5
CB1
330
A
100
AcDbEntity
  8
02
100
AcDbCircle
 10
174.8140637810012
 20
115874.8487008905
 30
0.0
 40
115522.7275748033
100
AcDbArc
 50
269.9986972950008
 51
270.0029384961099
  0
LINE
  5
CB2
330
A
100
AcDbEntity
  8
02
100
AcDbLine
 10
178.439034501911
 20
349.6209414137816
 30
0.0
 11
174.2388268450418
 21
349.6209373696673
 31
0.0
  0
ARC
  5
CB3
330
A
100
AcDbEntity
  8
02
100
AcDbCircle
 10
172.2388625919606
 20
350.1217802658816
 30
0.0
 40
2.000035762191588
100
AcDbArc
 50
91.47207322026968
 51
179.999992648023
  0
LINE
  5
CB6
330
A
100
AcDbEntity
  8
02
100
AcDbLine
 10
180.7388265387334
 20
349.1213116373906
 30
0.0
 11
179.7388685860941
 21
347.1214597216031
 31
0.0
  0
LINE
  5
CB7
330
A
100
AcDbEntity
  8
02
100
AcDbLine
 10
179.7388685860941
 20
347.1214597216031
 30
0.0
 11
178.4387893810041
 21
347.121709987969
 31
0.0
  0
LINE
  5
CB8
330
A
100
AcDbEntity
  8
02
100
AcDbLine
 10
178.4387893810041
 20
347.121709987969
 30
0.0
 11
178.439034501911
 21
349.6209414137816
 31
0.0
  0
LINE
  5
CB9
330
A
100
AcDbEntity
  8
02
100
AcDbLine
 10
180.7388123116126
 20
352.1212780167477
 30
0.0
 11
180.7388265387334
 21
349.1213116373906
 31
0.0
  0
LINE
  5
CBB
330
A
100
AcDbEntity
  8
04
100
AcDbLine
 10
253.2388336171714
 20
252.4212445997584
 30
0.0
 11
253.2388540594829
 21
246.1212724819264
 31
0.0
  0
LINE
  5
CBC
330
A
100
AcDbEntity
  8
04
100
AcDbLine
 10
246.2388261457272
 20
274.1212502687369
 30
0.0
 11
246.2388261584873
 21
246.1212724787364
 31
0.0
  0
LINE
  5
CBD
330
A
100
AcDbEntity
  8
04
100
AcDbLine
 10
241.738854595597
 20
237.6214163539946
 30
0.0
 11
241.7388551323846
 21
257.2162041622971
 31
0.0
  0
LINE
  5
CC0
330
A
100
AcDbEntity
  8
04
100
AcDbLine
 10
233.7389491458649
 20
246.5404420427685
 30
0.0
 11
233.7389057649699
 21
274.3019835076876
 31
0.0
  0
LINE
  5
CC1
330
A
100
AcDbEntity
  8
04
100
AcDbLine
 10
219.7387465129338
 20
246.5404311157548
 30
0.0
 11
219.7387465129339
 21
274.3019725807077
 31
0.0
  0
LINE
  5
CC2
330
A
100
AcDbEntity
  8
04
100
AcDbLine
 10
222.7388129225923
 20
225.6212676907892
 30
0.0
 11
245.2388421559536
 21
225.6212676907892
 31
0.0
  0
LINE
  5
CC3
330
A
100
AcDbEntity
  8
04
100
AcDbLine
 10
255.2388062759573
 20
221.1212904423665
 30
0.0
 11
217.238830857768
 21
221.1212585610561
 31
0.0
  0
LINE
  5
CC4
330
A
100
AcDbEntity
  8
02
100
AcDbLine
 10
232.2693099456774
 20
239.1211449070137
 30
0.0
 11
223.5193791592123
 21
239.1211763207694
 31
0.0
  0
ARC
  5
CC5
330
A
100
AcDbEntity
  8
02
100
AcDbCircle
 10
226.739182574914
 20
217.1233268378705
 30
0.0
 40
29.99791235358491
100
AcDbArc
 50
78.05843379273824
 51
101.9412216107142
  0
LINE
  5
CC6
330
A
100
AcDbEntity
  8
04
100
AcDbLine
 10
225.2388812852446
 20
237.1214626772816
 30
0.0
 11
226.2388602764421
 21
237.1214628517681
 31
0.0
  0
LINE
  5
CC8
330
A
100
AcDbEntity
  8
04
100
AcDbLine
 10
217.238830857768
 20
221.1212585610561
 30
0.0
 11
217.2388225246312
 21
225.6212676907891
 31
0.0
  0
LINE
  5
CC9
330
A
100
AcDbEntity
  8
02
100
AcDbLine
 10
221.3531303381325
 20
238.1970041589481
 30
0.0
 11
211.3292550951049
 21
227.7373588426172
 31
0.0
  0
LINE
  5
CCA
330
A
100
AcDbEntity
  8
04
100
AcDbLine
 10
217.2388225246312
 20
225.6212676907891
 30
0.0
 11
222.7388129225923
 21
225.6212676907892
 31
0.0
  0
ARC
  5
CCC
330
A
100
AcDbEntity
  8
02
100
AcDbCircle
 10
209.8852820283324
 20
229.1211730579061
 30
0.0
 40
1.999999999999975
100
AcDbArc
 50
270.000127435914
 51
316.2187368015938
  0
LINE
  5
CCE
330
A
100
AcDbEntity
  8
04
100
AcDbLine
 10
225.2388660263716
 20
236.1214614755495
 30
0.0
 11
225.2388812852446
 21
237.1214626772816
 31
0.0
  0
LINE
  5
CCF
330
A
100
AcDbEntity
  8
04
100
AcDbLine
 10
223.7388442182273
 20
234.3208475594122
 30
0.0
 11
223.7387303055963
 21
236.1214435142007
 31
0.0
  0
LINE
  5
CD4
330
A
100
AcDbEntity
  8
04
100
AcDbLine
 10
223.7387303055963
 20
236.1214435142007
 30
0.0
 11
225.2388660263716
 21
236.1214614755495
 31
0.0
  0
ARC
  5
CD5
330
A
100
AcDbEntity
  8
02
100
AcDbCircle
 10
223.5193683854945
 20
236.1202844461013
 30
0.0
 40
3.000891874687466
100
AcDbArc
 50
89.99979429830238
 51
136.2086526010829
  0
ARC
  5
CD6
330
A
100
AcDbEntity
  8
02
100
AcDbCircle
 10
218.8838065135813
 20
243.7543379402619
 30
0.0
 40
1.0
100
AcDbArc
 50
304.7217982668799
 51
5.000000000001365
  0
ARC
  5
CD9
330
A
100
AcDbEntity
  8
02
100
AcDbCircle
 10
220.7392813780608
 20
245.4937238775823
 30
0.0
 40
1.000011695728936
100
AcDbArc
 50
101.9412216107142
 51
184.9999999999996
  0
LINE
  5
CDA
330
A
100
AcDbEntity
  8
02
100
AcDbLine
 10
219.880001211673
 20
243.8414936830096
 30
0.0
 11
219.7430750287459
 21
245.4065671154847
 31
0.0
  0
ARC
  5
CDC
330
A
100
AcDbEntity
  8
02
100
AcDbCircle
 10
232.7392527861868
 20
245.4936801562371
 30
0.0
 40
1.00001949997998
100
AcDbArc
 50
355.0018055028822
 51
78.05843379273824
  0
LINE
  5
CDD
330
A
100
AcDbEntity
  8
04
100
AcDbLine
 10
226.2388656495267
 20
238.6214683273899
 30
0.0
 11
236.238866374776
 21
238.6214692830344
 31
0.0
  0
LINE
  5
CE0
330
A
100
AcDbEntity
  8
04
100
AcDbLine
 10
226.2388602764421
 20
237.1214628517681
 30
0.0
 11
226.2388656495267
 21
238.6214683273899
 31
0.0
  0
LINE
  5
CE1
330
A
100
AcDbEntity
  8
02
100
AcDbLine
 10
233.7354696560633
 20
245.406554106667
 30
0.0
 11
233.2655094751578
 21
240.0340033525974
 31
0.0
  0
ARC
  5
CE2
330
A
100
AcDbEntity
  8
02
100
AcDbCircle
 10
232.2693135358492
 20
240.1211449070071
 30
0.0
 40
0.9999999999999303
100
AcDbArc
 50
269.9997942983006
 51
355.0008160366442
  0
LINE
  5
CE3
330
A
100
AcDbEntity
  8
04
100
AcDbLine
 10
241.738854595597
 20
237.6214163539946
 30
0.0
 11
241.738854595597
 21
225.6212676907892
 31
0.0
  0
LINE
  5
CE4
330
A
100
AcDbEntity
  8
04
100
AcDbLine
 10
236.2388615425803
 20
237.6214165012995
 30
0.0
 11
241.738854595597
 21
237.6214163539946
 31
0.0
  0
LINE
  5
CE6
330
A
100
AcDbEntity
  8
04
100
AcDbLine
 10
236.238866374776
 20
238.6214692830344
 30
0.0
 11
236.2388615425803
 21
237.6214165012995
 31
0.0
  0
LINE
  5
CE9
330
A
100
AcDbEntity
  8
04
100
AcDbLine
 10
255.2388371709928
 20
225.6212448992401
 30
0.0
 11
255.2388062759573
 21
221.1212904423665
 31
0.0
  0
LINE
  5
CEA
330
A
100
AcDbEntity
  8
04
  6
DASHED2
 48
0.5
100
AcDbLine
 10
245.2388421559536
 20
225.6212676907892
 30
0.0
 11
245.2388421559536
 21
221.1212820525726
 31
0.0
  0
LINE
  5
CEB
330
A
100
AcDbEntity
  8
04
100
AcDbLine
 10
245.2388421559536
 20
225.6212676907892
 30
0.0
 11
250.7389156820591
 21
225.6212374864293
 31
0.0
  0
LINE
  5
CEC
330
A
100
AcDbEntity
  8
04
100
AcDbLine
 10
246.2387576689049
 20
242.1214378125039
 30
0.0
 11
250.7389075707543
 21
242.1213607559719
 31
0.0
  0
LINE
  5
CED
330
A
100
AcDbEntity
  8
04
100
AcDbLine
 10
253.2388540594829
 20
246.1212724819264
 30
0.0
 11
246.2388261584873
 21
246.1212724787364
 31
0.0
  0
LINE
  5
CEE
330
A
100
AcDbEntity
  8
04
100
AcDbLine
 10
246.2387576689049
 20
242.1214378125039
 30
0.0
 11
246.2387576689049
 21
225.6212676907892
 31
0.0
  0
LINE
  5
CEF
330
A
100
AcDbEntity
  8
04
100
AcDbLine
 10
246.2388261584873
 20
246.1212724787364
 30
0.0
 11
246.2387576689049
 21
242.1214378125039
 31
0.0
  0
LINE
  5
CF0
330
A
100
AcDbEntity
  8
04
100
AcDbLine
 10
256.5388771608287
 20
237.0215341216054
 30
0.0
 11
256.5389523738931
 21
229.2215454497684
 31
0.0
  0
LINE
  5
CF1
330
A
100
AcDbEntity
  8
04
100
AcDbLine
 10
256.1239626130545
 20
228.5026884398761
 30
0.0
 11
253.038958908763
 21
228.5026584852885
 31
0.0
  0
LINE
  5
CF2
330
A
100
AcDbEntity
  8
04
100
AcDbLine
 10
250.7389156820591
 20
225.6212374864293
 30
0.0
 11
255.2388371709928
 21
225.6212448992401
 31
0.0
  0
LINE
  5
CF3
330
A
100
AcDbEntity
  8
04
100
AcDbLine
 10
253.0389601358435
 20
228.5214074707028
 30
0.0
 11
251.738960676199
 21
228.5213947389506
 31
0.0
  0
LINE
  5
CF4
330
A
100
AcDbEntity
  8
04
100
AcDbLine
 10
250.7389631522438
 20
228.1214486104378
 30
0.0
 11
250.7389156820591
 21
225.6212374864293
 31
0.0
  0
LINE
  5
CF5
330
A
100
AcDbEntity
  8
04
100
AcDbLine
 10
251.7389624042931
 20
228.1214583765226
 30
0.0
 11
250.7389631522438
 21
228.1214486104378
 31
0.0
  0
LINE
  5
CF6
330
A
100
AcDbEntity
  8
04
100
AcDbLine
 10
251.738960676199
 20
228.5213947389506
 30
0.0
 11
251.7389624042931
 21
228.1214583765226
 31
0.0
  0
LINE
  5
CF7
330
A
100
AcDbEntity
  8
04
100
AcDbLine
 10
253.038958908763
 20
228.5026584852885
 30
0.0
 11
253.0389601358435
 21
228.5214074707028
 31
0.0
  0
LINE
  5
CF8
330
A
100
AcDbEntity
  8
04
100
AcDbLine
 10
256.5389523738931
 20
229.2215454497684
 30
0.0
 11
256.1239626130545
 21
228.5026884398761
 31
0.0
  0
LINE
  5
CF9
330
A
100
AcDbEntity
  8
04
100
AcDbLine
 10
253.0388707441328
 20
237.7402849522372
 30
0.0
 11
256.123871588899
 21
237.7403185120816
 31
0.0
  0
LINE
  5
CFA
330
A
100
AcDbEntity
  8
04
100
AcDbLine
 10
251.7388736449505
 20
237.7214783145972
 30
0.0
 11
253.0388700688944
 21
237.7214783145721
 31
0.0
  0
LINE
  5
CFB
330
A
100
AcDbEntity
  8
04
100
AcDbLine
 10
251.7388666561816
 20
238.1214850817349
 30
0.0
 11
251.7388736449505
 21
237.7214783145972
 31
0.0
  0
LINE
  5
CFC
330
A
100
AcDbEntity
  8
04
100
AcDbLine
 10
250.7390906730357
 20
238.121432817065
 30
0.0
 11
251.7388666561816
 21
238.1214850817349
 31
0.0
  0
LINE
  5
CFD
330
A
100
AcDbEntity
  8
04
100
AcDbLine
 10
250.7389075707543
 20
242.1213607559719
 30
0.0
 11
250.7390906730357
 21
238.121432817065
 31
0.0
  0
LINE
  5
CFE
330
A
100
AcDbEntity
  8
04
100
AcDbLine
 10
253.0388700688944
 20
237.7214783145721
 30
0.0
 11
253.0388707441328
 21
237.7402849522372
 31
0.0
  0
LINE
  5
CFF
330
A
100
AcDbEntity
  8
04
100
AcDbLine
 10
256.123871588899
 20
237.7403185120816
 30
0.0
 11
256.5388771608287
 21
237.0215341216054
 31
0.0
  0
LINE
  5
D00
330
A
100
AcDbEntity
  8
06
100
AcDbLine
 10
256.7388958060198
 20
350.4219286888058
 30
0.0
 11
256.7388727200238
 21
325.9364258260583
 31
0.0
  0
LINE
  5
D01
330
A
100
AcDbEntity
  8
06
100
AcDbLine
 10
241.478818960083
 20
280.6211726431715
 30
0.0
 11
244.758818960083
 21
289.6211726431715
 31
0.0
  0
LINE
  5
D02
330
A
100
AcDbEntity
  8
06
100
AcDbLine
 10
253.978818960083
 20
280.6211726431715
 30
0.0
 11
241.478818960083
 21
280.6211726431715
 31
0.0
  0
LINE
  5
D03
330
A
100
AcDbEntity
  8
04
100
AcDbLine
 10
241.7388555999453
 20
275.1212589108691
 30
0.0
 11
246.2388261452716
 21
275.1212589129198
 31
0.0
  0
LINE
  5
D04
330
A
100
AcDbEntity
  8
06
100
AcDbLine
 10
232.2388668466956
 20
309.1215052040197
 30
0.0
 11
257.2388665408039
 21
309.1215056422996
 31
0.0
  0
LINE
  5
D05
330
A
100
AcDbEntity
  8
06
100
AcDbLine
 10
232.2388673736515
 20
309.1213794344469
 30
0.0
 11
232.2388706439793
 21
278.0909601112556
 31
0.0
  0
ARC
  5
D07
330
A
100
AcDbEntity
  8
04
100
AcDbCircle
 10
226.7388975648244
 20
312.1214163764763
 30
0.0
 40
35.0
100
AcDbArc
 50
259.4496110774826
 51
280.5503101203651
  0
LINE
  5
D0B
330
A
100
AcDbEntity
  8
04
100
AcDbLine
 10
219.738781623777
 20
274.3019097216734
 30
0.0
 11
219.7388331576483
 21
277.2215603309577
 31
0.0
  0
ARC
  5
D0E
330
A
100
AcDbEntity
  8
04
100
AcDbCircle
 10
220.238833157648
 20
277.2215597799893
 30
0.0
 40
0.5
100
AcDbArc
 50
79.4496110774826
 51
179.9999368636709
  0
LINE
  5
D0F
330
A
100
AcDbEntity
  8
04
100
AcDbLine
 10
241.7388553831377
 20
267.0262107414948
 30
0.0
 11
241.7388555999453
 21
275.1212589108691
 31
0.0
  0
LINE
  5
D10
330
A
100
AcDbEntity
  8
04
100
AcDbLine
 10
239.7388235435681
 20
274.621214750446
 30
0.0
 11
239.7387257692257
 21
267.026210741435
 31
0.0
  0
LINE
  5
D11
330
A
100
AcDbEntity
  8
04
100
AcDbLine
 10
241.7388553831377
 20
267.0262107414948
 30
0.0
 11
241.7388551323846
 21
257.2162041622971
 31
0.0
  0
LINE
  5
D12
330
A
100
AcDbEntity
  8
04
100
AcDbLine
 10
239.7388903373291
 20
257.2161964872019
 30
0.0
 11
239.7388353718997
 21
249.6212253550698
 31
0.0
  0
LINE
  5
D13
330
A
100
AcDbEntity
  8
04
100
AcDbLine
 10
239.7388353718997
 20
249.6212253550698
 30
0.0
 11
238.2388146488846
 21
249.6212285534819
 31
0.0
  0
LINE
  5
D14
330
A
100
AcDbEntity
  8
04
100
AcDbLine
 10
241.7388551323846
 20
257.2162041622971
 30
0.0
 11
239.7388903373291
 21
257.2161964872019
 31
0.0
  0
LINE
  5
D15
330
A
100
AcDbEntity
  8
04
100
AcDbLine
 10
239.7387257692257
 20
267.026210741435
 30
0.0
 11
241.7388553831377
 21
267.0262107414948
 31
0.0
  0
ARC
  5
D16
330
A
100
AcDbEntity
  8
04
100
AcDbCircle
 10
233.2389059483447
 20
277.2215857443979
 30
0.0
 40
0.5
100
AcDbArc
 50
0.0
 51
100.5503101203651
  0
LINE
  5
D19
330
A
100
AcDbEntity
  8
04
100
AcDbLine
 10
233.7388471168766
 20
274.3005120114006
 30
0.0
 11
233.7388438045261
 21
277.2294686345221
 31
0.0
  0
LINE
  5
D1D
330
A
100
AcDbEntity
  8
04
100
AcDbLine
 10
238.2388701720434
 20
274.6212147811871
 30
0.0
 11
239.7388235435681
 21
274.621214750446
 31
0.0
  0
LINE
  5
D1E
330
A
100
AcDbEntity
  8
06
100
AcDbLine
 10
257.2388401228736
 20
306.3065417961023
 30
0.0
 11
257.2388401233669
 21
274.121628205693
 31
0.0
  0
LINE
  5
D1F
330
A
100
AcDbEntity
  8
04
100
AcDbLine
 10
260.0428082442442
 20
252.6156926063385
 30
0.0
 11
255.2388640743397
 21
252.6156829423471
 31
0.0
  0
LINE
  5
D20
330
A
100
AcDbEntity
  8
04
100
AcDbLine
 10
255.2388851017636
 20
267.626806006188
 30
0.0
 11
260.0428011181995
 21
267.62680600619
 31
0.0
  0
LINE
  5
D21
330
A
100
AcDbEntity
  8
04
100
AcDbLine
 10
253.238816635275
 20
274.121250268737
 30
0.0
 11
253.238824540677
 21
267.8212685393893
 31
0.0
  0
LINE
  5
D22
330
A
100
AcDbEntity
  8
04
100
AcDbLine
 10
255.2388659773124
 20
252.4212641760934
 30
0.0
 11
253.2388336171714
 21
252.4212445997584
 31
0.0
  0
LINE
  5
D23
330
A
100
AcDbEntity
  8
04
100
AcDbLine
 10
255.2388640743397
 20
252.6156829423471
 30
0.0
 11
255.2388659773124
 21
252.4212641760934
 31
0.0
  0
LINE
  5
D24
330
A
100
AcDbEntity
  8
04
100
AcDbLine
 10
253.238824540677
 20
267.8212685393893
 30
0.0
 11
255.2388851017636
 21
267.8212529648433
 31
0.0
  0
LINE
  5
D25
330
A
100
AcDbEntity
  8
04
100
AcDbLine
 10
255.2388851017636
 20
267.8212529648433
 30
0.0
 11
255.2388851017636
 21
267.626806006188
 31
0.0
  0
LINE
  5
D26
330
A
100
AcDbEntity
  8
06
100
AcDbLine
 10
244.758818960083
 20
289.6211726431715
 30
0.0
 11
250.6988189600829
 21
289.6211726431717
 31
0.0
  0
LINE
  5
D27
330
A
100
AcDbEntity
  8
04
100
AcDbLine
 10
246.2388261457272
 20
274.1212502687369
 30
0.0
 11
253.238816635275
 21
274.121250268737
 31
0.0
  0
LINE
  5
D28
330
A
100
AcDbEntity
  8
04
100
AcDbLine
 10
246.2388261452716
 20
275.1212589129198
 30
0.0
 11
246.2388261457272
 21
274.1212502687369
 31
0.0
  0
LINE
  5
D29
330
A
100
AcDbEntity
  8
06
100
AcDbLine
 10
250.6988189600829
 20
289.6211726431717
 30
0.0
 11
253.978818960083
 21
280.6211726431715
 31
0.0
  0
LINE
  5
D2A
330
A
100
AcDbEntity
  8
06
100
AcDbLine
 10
257.2388401233669
 20
274.121628205693
 30
0.0
 11
254.4091562209814
 21
274.1216282056496
 31
0.0
  0
LINE
  5
D2B
330
A
100
AcDbEntity
  8
04
100
AcDbLine
 10
260.7388879358257
 20
266.4212750547915
 30
0.0
 11
260.7388356165956
 21
253.8212617936356
 31
0.0
  0
LINE
  5
D2C
330
A
100
AcDbEntity
  8
04
100
AcDbLine
 10
260.7388356165956
 20
253.8212617936356
 30
0.0
 11
260.0428082442442
 21
252.6156926063385
 31
0.0
  0
LINE
  5
D2D
330
A
100
AcDbEntity
  8
04
100
AcDbLine
 10
260.0428011181995
 20
267.62680600619
 30
0.0
 11
260.7388879358257
 21
266.4212750547915
 31
0.0
  0
LINE
  5
D2E
330
A
100
AcDbEntity
  8
06
100
AcDbLine
 10
259.238850344164
 20
307.8714948168766
 30
0.0
 11
258.3351937087478
 21
306.306330087447
 31
0.0
  0
LINE
  5
D2F
330
A
100
AcDbEntity
  8
06
100
AcDbLine
 10
258.3353548520944
 20
325.9365955483884
 30
0.0
 11
259.238838713404
 21
324.3715535951098
 31
0.0
  0
LINE
  5
D30
330
A
100
AcDbEntity
  8
06
100
AcDbLine
 10
258.3351937087478
 20
306.306330087447
 30
0.0
 11
257.2388401228736
 21
306.3065417961023
 31
0.0
  0
LINE
  5
D31
330
A
100
AcDbEntity
  8
06
100
AcDbLine
 10
257.2388665408039
 20
309.1215056422996
 30
0.0
 11
257.2388401228736
 21
306.3065417961023
 31
0.0
  0
LINE
  5
D32
330
A
100
AcDbEntity
  8
06
100
AcDbLine
 10
256.7388727200238
 20
325.9364258260583
 30
0.0
 11
258.3353548520944
 21
325.9365955483884
 31
0.0
  0
LINE
  5
D33
330
A
100
AcDbEntity
  8
06
100
AcDbLine
 10
259.7388825526834
 20
321.1214719776279
 30
0.0
 11
259.7389407634768
 21
311.1214637250558
 31
0.0
  0
LINE
  5
D34
330
A
100
AcDbEntity
  8
06
100
AcDbLine
 10
259.2388704388389
 20
311.1214625277094
 30
0.0
 11
259.238850344164
 21
307.8714948168766
 31
0.0
  0
LINE
  5
D35
330
A
100
AcDbEntity
  8
06
100
AcDbLine
 10
259.7389407634768
 20
311.1214637250558
 30
0.0
 11
259.2388704388389
 21
311.1214625277094
 31
0.0
  0
LINE
  5
D36
330
A
100
AcDbEntity
  8
06
100
AcDbLine
 10
259.238838713404
 20
324.3715535951098
 30
0.0
 11
259.2383403178317
 21
321.1215715553801
 31
0.0
  0
LINE
  5
D37
330
A
100
AcDbEntity
  8
06
100
AcDbLine
 10
259.2383403178317
 20
321.1215715553801
 30
0.0
 11
259.7388825526834
 21
321.1214719776279
 31
0.0
  0
LINE
  5
D3A
330
A
100
AcDbEntity
  8
06
100
AcDbLine
 10
236.9389023943079
 20
351.4222913815213
 30
0.0
 11
255.7388540116438
 21
351.4216426419
 31
0.0
  0
LINE
  5
D3B
330
A
100
AcDbEntity
  8
06
100
AcDbLine
 10
220.6786894254854
 20
352.1216943448988
 30
0.0
 11
233.9389065197639
 21
352.1214107266897
 31
0.0
  0
LINE
  5
D3D
330
A
100
AcDbEntity
  8
06
100
AcDbLine
 10
233.9389065812353
 20
351.1215796035728
 30
0.0
 11
236.9388982347805
 21
351.121457533466
 31
0.0
  0
LINE
  5
D3E
330
A
100
AcDbEntity
  8
06
100
AcDbLine
 10
233.9389065197639
 20
352.1214107266897
 30
0.0
 11
233.9389065812353
 21
351.1215796035728
 31
0.0
  0
LINE
  5
D3F
330
A
100
AcDbEntity
  8
06
100
AcDbLine
 10
236.9388982347805
 20
351.121457533466
 30
0.0
 11
236.9389023943079
 21
351.4222913815213
 31
0.0
  0
ARC
  5
D42
330
A
100
AcDbEntity
  8
06
100
AcDbCircle
 10
255.7388195014929
 20
350.4215662723006
 30
0.0
 40
1.000076370194728
100
AcDbArc
 50
0.0207633509177839
 51
89.9980228650036
  0
LINE
  5
E0A
330
A
100
AcDbEntity
  8
03
100
AcDbLine
 10
272.6385760655205
 20
473.6211584551699
 30
0.0
 11
274.2385760655205
 21
473.6211584551699
 31
0.0
  0
CIRCLE
  5
F54
330
A
100
AcDbEntity
  8
SAISEN
100
AcDbCircle
 10
391.0976380784321
 20
52.54302641223159
 30
0.0
 40
5.0
  0
TEXT
  5
F55
330
A
100
AcDbEntity
  8
MOJI
100
AcDbText
 10
388.0488190392161
 20
48.27151320611588
 30
0.0
 40
8.0
  1
Ｓ
 41
0.8
  7
0_8
 11
388.0488190392161
 21
56.27151320611588
 31
0.0
100
AcDbText
 73
     3
  0
LINE
  5
FAC
330
A
100
AcDbEntity
  8
03
100
AcDbLine
 10
201.7385760655203
 20
192.1211584551699
 30
0.0
 11
200.1385760655203
 21
192.1211584551699
 31
0.0
  0
LINE
  5
FAD
330
A
100
AcDbEntity
  8
03
100
AcDbLine
 10
200.1385760655203
 20
192.1211584551699
 30
0.0
 11
200.1385760655203
 21
207.1211584551699
 31
0.0
  0
LINE
  5
FAE
330
A
100
AcDbEntity
  8
03
100
AcDbLine
 10
201.7385760655203
 20
192.1211584551699
 30
0.0
 11
201.7385760655203
 21
207.1211584551699
 31
0.0
  0
ARC
  5
FAF
330
A
100
AcDbEntity
  8
03
100
AcDbCircle
 10
201.7385760655203
 20
207.1211584551699
 30
0.0
 40
1.6
100
AcDbArc
 50
90.0
 51
180.0
  0
LINE
  5
FB0
330
A
100
AcDbEntity
  8
03
100
AcDbLine
 10
201.7385760655203
 20
208.7211584551699
 30
0.0
 11
256.7385760655203
 21
208.7211584551701
 31
0.0
  0
LINE
  5
FB1
330
A
100
AcDbEntity
  8
03
100
AcDbLine
 10
201.7385760655203
 20
207.1211584551699
 30
0.0
 11
256.7385760655203
 21
207.1211584551699
 31
0.0
  0
LINE
  5
FF7
330
A
100
AcDbEntity
  8
03
100
AcDbLine
 10
206.7385760655203
 20
197.1211584551699
 30
0.0
 11
206.7385760655203
 21
182.8711584551699
 31
0.0
  0
LINE
  5
1018
330
A
100
AcDbEntity
  8
03
100
AcDbLine
 10
256.7385760655203
 20
198.1211584551701
 30
0.0
 11
256.7385760655203
 21
207.1211584551701
 31
0.0
  0
LINE
  5
1019
330
A
100
AcDbEntity
  8
03
100
AcDbLine
 10
258.3385760655203
 20
198.1211584551701
 30
0.0
 11
258.3385760655203
 21
207.1211584551701
 31
0.0
  0
LINE
  5
101A
330
A
100
AcDbEntity
  8
03
100
AcDbLine
 10
256.7385760655203
 20
198.1211584551701
 30
0.0
 11
258.3385760655203
 21
198.1211584551701
 31
0.0
  0
ARC
  5
101B
330
A
100
AcDbEntity
  8
03
100
AcDbCircle
 10
256.7385760655203
 20
207.1211584551701
 30
0.0
 40
1.6
100
AcDbArc
 50
0.0000000000001126
 51
90.0000000000001
  0
ARC
  5
107D
330
A
100
AcDbEntity
  8
02
100
AcDbCircle
 10
148.7385760655203
 20
229.6211584551701
 30
0.0
 40
4.0
100
AcDbArc
 50
0.0
 51
90.0
  0
LINE
  5
107E
330
A
100
AcDbEntity
  8
02
100
AcDbLine
 10
148.7385760655203
 20
233.6211584551701
 30
0.0
 11
146.7385760655203
 21
233.6211584551701
 31
0.0
  0
LINE
  5
107F
330
A
100
AcDbEntity
  8
02
100
AcDbLine
 10
152.7385760655203
 20
229.6211584551701
 30
0.0
 11
152.7385760655203
 21
197.62115845517
 31
0.0
  0
ARC
  5
1080
330
A
100
AcDbEntity
  8
02
100
AcDbCircle
 10
160.7385760655203
 20
197.62115845517
 30
0.0
 40
8.0
100
AcDbArc
 50
180.0
 51
270.0
  0
ARC
  5
1081
330
A
100
AcDbEntity
  8
02
100
AcDbCircle
 10
192.7385760655203
 20
185.6211584551701
 30
0.0
 40
4.0
100
AcDbArc
 50
0.0000000000016284
 51
90.0
  0
LINE
  5
1082
330
A
100
AcDbEntity
  8
02
100
AcDbLine
 10
196.7385760655203
 20
184.6211584551701
 30
0.0
 11
196.7385760655203
 21
183.6211584551701
 31
0.0
  0
LINE
  5
1083
330
A
100
AcDbEntity
  8
02
100
AcDbLine
 10
196.7385760655203
 20
185.6211584551701
 30
0.0
 11
196.7385760655203
 21
184.6211584551701
 31
0.0
  0
LINE
  5
1084
330
A
100
AcDbEntity
  8
02
100
AcDbLine
 10
160.7385760655203
 20
189.6211584551701
 30
0.0
 11
192.7385760655203
 21
189.6211584551701
 31
0.0
  0
LINE
  5
1085
330
A
100
AcDbEntity
  8
03
100
AcDbLine
 10
251.7385760655203
 20
197.1211584551701
 30
0.0
 11
251.7385760655204
 21
182.8711584551701
 31
0.0
  0
LINE
  5
1086
330
A
100
AcDbEntity
  8
03
100
AcDbLine
 10
251.7385760655203
 20
197.1211584551701
 30
0.0
 11
253.2385760655203
 21
197.1211584551701
 31
0.0
  0
ARC
  5
1087
330
A
100
AcDbEntity
  8
03
100
AcDbCircle
 10
252.4885760655203
 20
182.8711584551701
 30
0.0
 40
0.75
100
AcDbArc
 50
180.0000000000001
 51
270.0
  0
LINE
  5
1088
330
A
100
AcDbEntity
  8
03
100
AcDbLine
 10
253.2385760655203
 20
197.1211584551701
 30
0.0
 11
253.2385760655203
 21
183.6211584551701
 31
0.0
  0
LINE
  5
10BC
330
A
100
AcDbEntity
  8
06
100
AcDbLine
 10
250.6988509805395
 20
340.1219247069561
 30
0.0
 11
253.9788772960869
 21
349.1219151163576
 31
0.0
  0
LINE
  5
10BD
330
A
100
AcDbEntity
  8
06
100
AcDbLine
 10
244.7588509805649
 20
340.1219420752267
 30
0.0
 11
250.6988509805395
 21
340.1219247069561
 31
0.0
  0
LINE
  5
10BE
330
A
100
AcDbEntity
  8
06
100
AcDbLine
 10
253.9788772960869
 20
349.1219151163576
 30
0.0
 11
241.4788772961404
 21
349.1219516657486
 31
0.0
  0
LINE
  5
10BF
330
A
100
AcDbEntity
  8
06
100
AcDbLine
 10
241.4788772961404
 20
349.1219516657486
 30
0.0
 11
244.7588509805649
 21
340.1219420752267
 31
0.0
  0
LINE
  5
10D7
330
A
100
AcDbEntity
  8
02
100
AcDbLine
 10
152.7385760655203
 20
463.0211584551698
 30
0.0
 11
152.7385760655203
 21
495.0211584551698
 31
0.0
  0
ARC
  5
10D8
330
A
100
AcDbEntity
  8
02
100
AcDbCircle
 10
148.7385760655203
 20
463.0211584551698
 30
0.0
 40
4.0
100
AcDbArc
 50
270.0
 51
0.0
  0
ARC
  5
10D9
330
A
100
AcDbEntity
  8
02
100
AcDbCircle
 10
160.7385760655203
 20
495.0211584551698
 30
0.0
 40
8.0
100
AcDbArc
 50
90.00000000000005
 51
180.0
  0
LINE
  5
10DA
330
A
100
AcDbEntity
  8
02
100
AcDbLine
 10
160.7385760655203
 20
503.0211584551699
 30
0.0
 11
192.7385760655203
 21
503.0211584551699
 31
0.0
  0
LINE
  5
10DB
330
A
100
AcDbEntity
  8
02
100
AcDbLine
 10
196.7385760655203
 20
507.0211584551699
 30
0.0
 11
196.7385760655203
 21
508.0211584551699
 31
0.0
  0
LINE
  5
10DC
330
A
100
AcDbEntity
  8
02
100
AcDbLine
 10
196.7385760655203
 20
508.0211584551699
 30
0.0
 11
196.7385760655203
 21
509.02115845517
 31
0.0
  0
ARC
  5
10DD
330
A
100
AcDbEntity
  8
02
100
AcDbCircle
 10
192.7385760655203
 20
507.0211584551699
 30
0.0
 40
4.0
100
AcDbArc
 50
270.0
 51
359.9999999999983
  0
LINE
  5
10DE
330
A
100
AcDbEntity
  8
02
100
AcDbLine
 10
148.7385760655203
 20
459.0211584551698
 30
0.0
 11
146.7385760655203
 21
459.0211584551698
 31
0.0
  0
LINE
  5
111E
330
A
100
AcDbEntity
  8
02
100
AcDbLine
 10
146.7385760655204
 20
509.02115845517
 30
0.0
 11
196.7385760655203
 21
509.02115845517
 31
0.0
  0
LINE
  5
111F
330
A
100
AcDbEntity
  8
02
100
AcDbLine
 10
146.7385760655204
 20
509.02115845517
 30
0.0
 11
146.7385760655203
 21
459.0211584551698
 31
0.0
  0
LINE
  5
1120
330
A
100
AcDbEntity
  8
02
100
AcDbLine
 10
146.7385760655202
 20
233.6211584551701
 30
0.0
 11
146.7385760655202
 21
183.6211584551701
 31
0.0
  0
LINE
  5
1121
330
A
100
AcDbEntity
  8
02
100
AcDbLine
 10
146.7385760655202
 20
183.6211584551701
 30
0.0
 11
196.7385760655203
 21
183.6211584551699
 31
0.0
  0
LINE
  5
1122
330
A
100
AcDbEntity
  8
02
100
AcDbLine
 10
164.2385760655202
 20
189.6211584551701
 30
0.0
 11
170.2385760655204
 21
189.6211584551701
 31
0.0
  0
LINE
  5
1123
330
A
100
AcDbEntity
  8
02
100
AcDbLine
 10
164.2385760655205
 20
503.0211584551699
 30
0.0
 11
170.2385760655205
 21
503.0211584551699
 31
0.0
  0
LINE
  5
114D
330
A
100
AcDbEntity
  8
06
100
AcDbLine
 10
189.9389039488131
 20
352.1216517035538
 30
0.0
 11
233.9388584615651
 21
352.121712739139
 31
0.0
  0
LINE
  5
114E
330
A
100
AcDbEntity
  8
06
100
AcDbLine
 10
220.6787053774306
 20
352.1216943450018
 30
0.0
 11
233.9388584615649
 21
352.121712739139
 31
0.0
  0
LINE
  5
1150
330
A
100
AcDbEntity
  8
04
100
AcDbLine
 10
210.2385760655205
 20
381.52115845517
 30
0.0
 11
209.2385760655206
 21
380.5211584551699
 31
0.0
  0
LINE
  5
1151
330
A
100
AcDbEntity
  8
04
100
AcDbLine
 10
179.7385760655205
 20
438.6211584551699
 30
0.0
 11
220.0888801353786
 21
438.6211584551699
 31
0.0
  0
LINE
  5
1152
330
A
100
AcDbEntity
  8
04
100
AcDbLine
 10
181.3385760655205
 20
440.2211584551699
 30
0.0
 11
220.0888801353786
 21
440.2211584551699
 31
0.0
  0
LINE
  5
1153
330
A
100
AcDbEntity
  8
04
100
AcDbLine
 10
220.0888801353785
 20
384.0211584551699
 30
0.0
 11
181.3385760655204
 21
384.0211584551699
 31
0.0
  0
LINE
  5
1154
330
A
100
AcDbEntity
  8
04
100
AcDbLine
 10
220.0888801353785
 20
385.6211584551699
 30
0.0
 11
179.7385760655203
 21
385.6211584551699
 31
0.0
  0
LINE
  5
1155
330
A
100
AcDbEntity
  8
04
100
AcDbLine
 10
209.2385760655203
 20
443.7211584551699
 30
0.0
 11
210.2385760655208
 21
442.7211584551695
 31
0.0
  0
LINE
  5
1156
330
A
100
AcDbEntity
  8
04
100
AcDbLine
 10
210.2385760655207
 20
371.5211584551699
 30
0.0
 11
203.7385760655207
 21
371.5211584551699
 31
0.0
  0
LINE
  5
1157
330
A
100
AcDbEntity
  8
CHUSIN
100
AcDbLine
 10
277.238963867795
 20
412.12115845517
 30
0.0
 11
155.7823933117391
 21
412.1211584551701
 31
0.0
  0
LINE
  5
1158
330
A
100
AcDbEntity
  8
04
100
AcDbLine
 10
179.7385760655205
 20
455.6211584551699
 30
0.0
 11
179.7385760655203
 21
368.6211584551699
 31
0.0
  0
LINE
  5
1159
330
A
100
AcDbEntity
  8
04
100
AcDbLine
 10
178.2385760655205
 20
468.6211584551699
 30
0.0
 11
178.2385760655204
 21
355.6211584551699
 31
0.0
  0
LINE
  5
115A
330
A
100
AcDbEntity
  8
04
100
AcDbLine
 10
175.2385760655205
 20
468.6211584551699
 30
0.0
 11
175.2385760655204
 21
355.6211584551699
 31
0.0
  0
LINE
  5
115B
330
A
100
AcDbEntity
  8
04
100
AcDbLine
 10
182.7385760655205
 20
388.1211584551699
 30
0.0
 11
190.2385760655205
 21
390.1211584551699
 31
0.0
  0
LINE
  5
115C
330
A
100
AcDbEntity
  8
CHUSIN
100
AcDbLine
 10
205.2385760655205
 20
446.1572544626116
 30
0.0
 11
205.2385760655205
 21
377.3944632798917
 31
0.0
  0
LINE
  5
115D
330
A
100
AcDbEntity
  8
04
100
AcDbLine
 10
178.2385760655204
 20
355.6211584551699
 30
0.0
 11
175.2385760655204
 21
355.6211584551699
 31
0.0
  0
LINE
  5
115E
330
A
100
AcDbEntity
  8
CHUSIN
100
AcDbLine
 10
187.3594705449055
 20
376.6211584551701
 30
0.0
 11
170.1071120543395
 21
376.6211584551701
 31
0.0
  0
LINE
  5
115F
330
A
100
AcDbEntity
  8
04
100
AcDbLine
 10
172.8385760655205
 20
373.6211584551699
 30
0.0
 11
172.8385760655205
 21
379.6211584551699
 31
0.0
  0
LINE
  5
1160
330
A
100
AcDbEntity
  8
04
100
AcDbLine
 10
175.2385760655204
 20
373.6211584551699
 30
0.0
 11
172.8385760655205
 21
373.6211584551699
 31
0.0
  0
LINE
  5
1161
330
A
100
AcDbEntity
  8
04
100
AcDbLine
 10
172.8385760655205
 20
379.6211584551699
 30
0.0
 11
175.2385760655204
 21
379.6211584551699
 31
0.0
  0
LINE
  5
1162
330
A
100
AcDbEntity
  8
04
100
AcDbLine
 10
199.2385760655204
 20
387.1211584551701
 30
0.0
 11
182.7385760655205
 21
387.1211584551701
 31
0.0
  0
ARC
  5
1163
330
A
100
AcDbEntity
  8
04
100
AcDbCircle
 10
184.0605679397445
 20
379.5711584551696
 30
0.0
 40
2.300000000000207
100
AcDbArc
 50
14.60399026982559
 51
89.99999999999673
  0
ARC
  5
1164
330
A
100
AcDbEntity
  8
04
100
AcDbCircle
 10
184.0605679397446
 20
373.6711584551699
 30
0.0
 40
2.299999999999998
100
AcDbArc
 50
270.0
 51
345.3960097301778
  0
LINE
  5
1165
330
A
100
AcDbEntity
  8
04
100
AcDbLine
 10
181.3385760655205
 20
384.0211584551699
 30
0.0
 11
181.3385760655205
 21
368.6211584551699
 31
0.0
  0
LINE
  5
1166
330
A
100
AcDbEntity
  8
04
100
AcDbLine
 10
181.3385760655205
 20
368.6211584551699
 30
0.0
 11
178.2385760655204
 21
368.6211584551699
 31
0.0
  0
LINE
  5
1167
330
A
100
AcDbEntity
  8
04
100
AcDbLine
 10
182.8385760655205
 20
370.52115845517
 30
0.0
 11
182.8385760655205
 21
371.3711584551699
 31
0.0
  0
LINE
  5
1168
330
A
100
AcDbEntity
  8
04
100
AcDbLine
 10
182.8385760655205
 20
371.3711584551699
 30
0.0
 11
184.0605679397446
 21
371.3711584551699
 31
0.0
  0
LINE
  5
1169
330
A
100
AcDbEntity
  8
04
100
AcDbLine
 10
182.8385760655205
 20
370.52115845517
 30
0.0
 11
181.3385760655205
 21
370.52115845517
 31
0.0
  0
LINE
  5
116A
330
A
100
AcDbEntity
  8
04
100
AcDbLine
 10
182.8385760655205
 20
381.8711584551699
 30
0.0
 11
182.8385760655205
 21
382.7211584551699
 31
0.0
  0
LINE
  5
116B
330
A
100
AcDbEntity
  8
04
100
AcDbLine
 10
184.0605679397446
 20
381.8711584551699
 30
0.0
 11
182.8385760655205
 21
381.8711584551699
 31
0.0
  0
LINE
  5
116C
330
A
100
AcDbEntity
  8
04
100
AcDbLine
 10
182.8385760655205
 20
382.7211584551699
 30
0.0
 11
181.3385760655205
 21
382.7211584551699
 31
0.0
  0
LINE
  5
116D
330
A
100
AcDbEntity
  8
04
100
AcDbLine
 10
182.7385760655205
 20
388.1211584551699
 30
0.0
 11
182.7385760655205
 21
387.1211584551701
 31
0.0
  0
ARC
  5
116E
330
A
100
AcDbEntity
  8
04
100
AcDbCircle
 10
172.7385760655203
 20
376.6211584551701
 30
0.0
 40
14.0
100
AcDbArc
 50
345.3960097301778
 51
14.60399026982202
  0
LINE
  5
116F
330
A
100
AcDbEntity
  8
04
100
AcDbLine
 10
209.2385760655206
 20
380.5211584551699
 30
0.0
 11
201.2385760655206
 21
380.5211584551699
 31
0.0
  0
LINE
  5
1170
330
A
100
AcDbEntity
  8
04
100
AcDbLine
 10
201.2385760655206
 20
380.5211584551699
 30
0.0
 11
200.2385760655205
 21
381.52115845517
 31
0.0
  0
LINE
  5
1171
330
A
100
AcDbEntity
  8
04
100
AcDbLine
 10
200.2385760655204
 20
383.02115845517
 30
0.0
 11
200.2385760655204
 21
381.52115845517
 31
0.0
  0
LINE
  5
1172
330
A
100
AcDbEntity
  8
04
100
AcDbLine
 10
200.2385760655204
 20
383.02115845517
 30
0.0
 11
199.2385760655203
 21
383.02115845517
 31
0.0
  0
LINE
  5
1173
330
A
100
AcDbEntity
  8
04
100
AcDbLine
 10
199.2385760655203
 20
383.02115845517
 30
0.0
 11
199.2385760655203
 21
384.0211584551699
 31
0.0
  0
LINE
  5
1174
330
A
100
AcDbEntity
  8
04
100
AcDbLine
 10
199.2385760655204
 20
387.1211584551699
 30
0.0
 11
199.2385760655203
 21
385.6211584551699
 31
0.0
  0
LINE
  5
1175
330
A
100
AcDbEntity
  8
04
100
AcDbLine
 10
203.7385760655207
 20
371.5211584551699
 30
0.0
 11
203.7385760655207
 21
380.5211584551699
 31
0.0
  0
LINE
  5
1176
330
A
100
AcDbEntity
  8
04
100
AcDbLine
 10
175.2385760655205
 20
468.6211584551699
 30
0.0
 11
178.2385760655205
 21
468.6211584551699
 31
0.0
  0
LINE
  5
1177
330
A
100
AcDbEntity
  8
CHUSIN
100
AcDbLine
 10
187.3594705449055
 20
449.6211584551701
 30
0.0
 11
170.1071120543395
 21
449.6211584551701
 31
0.0
  0
LINE
  5
117D
330
A
100
AcDbEntity
  8
04
100
AcDbLine
 10
172.8385760655205
 20
452.6211584551699
 30
0.0
 11
172.8385760655205
 21
446.6211584551698
 31
0.0
  0
LINE
  5
117E
330
A
100
AcDbEntity
  8
04
100
AcDbLine
 10
172.8385760655205
 20
446.6211584551698
 30
0.0
 11
175.2385760655205
 21
446.6211584551698
 31
0.0
  0
LINE
  5
117F
330
A
100
AcDbEntity
  8
04
100
AcDbLine
 10
175.2385760655205
 20
452.6211584551699
 30
0.0
 11
172.8385760655205
 21
452.6211584551699
 31
0.0
  0
LINE
  5
1180
330
A
100
AcDbEntity
  8
04
100
AcDbLine
 10
182.7385760655205
 20
437.12115845517
 30
0.0
 11
182.7385760655205
 21
436.1211584551699
 31
0.0
  0
LINE
  5
1181
330
A
100
AcDbEntity
  8
04
100
AcDbLine
 10
185.2385760655204
 20
434.1211584551698
 30
0.0
 11
185.2385760655204
 21
390.1211584551699
 31
0.0
  0
LINE
  5
1182
330
A
100
AcDbEntity
  8
04
100
AcDbLine
 10
184.3385760655205
 20
418.4211584551699
 30
0.0
 11
184.3385760655205
 21
405.82115845517
 31
0.0
  0
LINE
  5
1183
330
A
100
AcDbEntity
  8
04
100
AcDbLine
 10
190.2385760655205
 20
390.1211584551699
 30
0.0
 11
185.2385760655204
 21
390.1211584551699
 31
0.0
  0
LINE
  5
1184
330
A
100
AcDbEntity
  8
04
100
AcDbLine
 10
183.6425517730205
 20
404.6156084551699
 30
0.0
 11
179.7385760655205
 21
404.6156084551699
 31
0.0
  0
LINE
  5
1185
330
A
100
AcDbEntity
  8
04
100
AcDbLine
 10
184.3385760655205
 20
405.82115845517
 30
0.0
 11
183.6425517730205
 21
404.6156084551699
 31
0.0
  0
LINE
  5
1186
330
A
100
AcDbEntity
  8
04
100
AcDbLine
 10
190.2385760655205
 20
434.1211584551698
 30
0.0
 11
185.2385760655204
 21
434.1211584551698
 31
0.0
  0
LINE
  5
1187
330
A
100
AcDbEntity
  8
04
100
AcDbLine
 10
182.7385760655205
 20
436.1211584551699
 30
0.0
 11
190.2385760655205
 21
434.1211584551698
 31
0.0
  0
LINE
  5
1188
330
A
100
AcDbEntity
  8
04
100
AcDbLine
 10
179.7385760655205
 20
419.6267084551699
 30
0.0
 11
183.6425517730205
 21
419.6267084551699
 31
0.0
  0
LINE
  5
1189
330
A
100
AcDbEntity
  8
04
100
AcDbLine
 10
183.6425517730205
 20
419.6267084551699
 30
0.0
 11
184.3385760655205
 21
418.4211584551699
 31
0.0
  0
LINE
  5
118A
330
A
100
AcDbEntity
  8
04
100
AcDbLine
 10
199.2385760655205
 20
437.12115845517
 30
0.0
 11
182.7385760655205
 21
437.12115845517
 31
0.0
  0
ARC
  5
118B
330
A
100
AcDbEntity
  8
04
100
AcDbCircle
 10
184.0605679397446
 20
452.5711584551699
 30
0.0
 40
2.299999999999998
100
AcDbArc
 50
14.60399026982202
 51
90.0
  0
ARC
  5
118C
330
A
100
AcDbEntity
  8
04
100
AcDbCircle
 10
184.0605679397446
 20
446.6711584551699
 30
0.0
 40
2.299999999999998
100
AcDbArc
 50
270.0
 51
345.3960097301778
  0
LINE
  5
118D
330
A
100
AcDbEntity
  8
04
100
AcDbLine
 10
181.3385760655205
 20
455.72115845517
 30
0.0
 11
181.3385760655205
 21
440.2211584551699
 31
0.0
  0
LINE
  5
118E
330
A
100
AcDbEntity
  8
04
100
AcDbLine
 10
182.8385760655205
 20
444.3711584551699
 30
0.0
 11
184.0605679397446
 21
444.3711584551699
 31
0.0
  0
LINE
  5
118F
330
A
100
AcDbEntity
  8
04
100
AcDbLine
 10
182.8385760655205
 20
443.52115845517
 30
0.0
 11
182.8385760655205
 21
444.3711584551699
 31
0.0
  0
LINE
  5
1190
330
A
100
AcDbEntity
  8
04
100
AcDbLine
 10
181.3385760655205
 20
443.5211584551701
 30
0.0
 11
182.8385760655205
 21
443.52115845517
 31
0.0
  0
LINE
  5
1191
330
A
100
AcDbEntity
  8
04
100
AcDbLine
 10
178.2385760655205
 20
455.6211584551699
 30
0.0
 11
181.3385760655205
 21
455.6211584551698
 31
0.0
  0
LINE
  5
1192
330
A
100
AcDbEntity
  8
04
100
AcDbLine
 10
182.8385760655205
 20
454.8711584551699
 30
0.0
 11
184.0605679397446
 21
454.8711584551699
 31
0.0
  0
LINE
  5
1193
330
A
100
AcDbEntity
  8
04
100
AcDbLine
 10
182.8385760655205
 20
455.72115845517
 30
0.0
 11
182.8385760655205
 21
454.8711584551699
 31
0.0
  0
LINE
  5
1194
330
A
100
AcDbEntity
  8
04
100
AcDbLine
 10
181.3385760655205
 20
455.72115845517
 30
0.0
 11
182.8385760655205
 21
455.72115845517
 31
0.0
  0
ARC
  5
1195
330
A
100
AcDbEntity
  8
04
100
AcDbCircle
 10
172.7385760655204
 20
449.6211584551699
 30
0.0
 40
14.0
100
AcDbArc
 50
345.3960097301778
 51
14.60399026982202
  0
LINE
  5
1196
330
A
100
AcDbEntity
  8
04
100
AcDbLine
 10
201.2385760655209
 20
443.7211584551699
 30
0.0
 11
209.2385760655203
 21
443.7211584551699
 31
0.0
  0
LINE
  5
1197
330
A
100
AcDbEntity
  8
04
100
AcDbLine
 10
199.2385760655207
 20
438.6211584551699
 30
0.0
 11
199.2385760655205
 21
437.12115845517
 31
0.0
  0
LINE
  5
1198
330
A
100
AcDbEntity
  8
04
100
AcDbLine
 10
200.2385760655204
 20
442.7211584551693
 30
0.0
 11
201.2385760655209
 21
443.7211584551699
 31
0.0
  0
LINE
  5
1199
330
A
100
AcDbEntity
  8
04
100
AcDbLine
 10
200.2385760655204
 20
441.2211584551701
 30
0.0
 11
200.2385760655204
 21
442.7211584551693
 31
0.0
  0
LINE
  5
119A
330
A
100
AcDbEntity
  8
04
100
AcDbLine
 10
199.238576065521
 20
441.2211584551701
 30
0.0
 11
200.2385760655204
 21
441.2211584551701
 31
0.0
  0
LINE
  5
119B
330
A
100
AcDbEntity
  8
04
100
AcDbLine
 10
199.238576065521
 20
440.2211584551699
 30
0.0
 11
199.238576065521
 21
441.2211584551701
 31
0.0
  0
LINE
  5
119C
330
A
100
AcDbEntity
  8
04
100
AcDbLine
 10
247.2385760655205
 20
392.0211584551698
 30
0.0
 11
247.2385760655203
 21
374.0211584551698
 31
0.0
  0
LINE
  5
119D
330
A
100
AcDbEntity
  8
04
100
AcDbLine
 10
250.6385760655205
 20
389.7211584551699
 30
0.0
 11
250.6385760655205
 21
391.02115845517
 31
0.0
  0
LINE
  5
119E
330
A
100
AcDbEntity
  8
04
100
AcDbLine
 10
259.8385760655204
 20
391.02115845517
 30
0.0
 11
259.8385760655204
 21
389.7211584551699
 31
0.0
  0
LINE
  5
119F
330
A
100
AcDbEntity
  8
04
100
AcDbLine
 10
227.7385760655205
 20
388.1211584551699
 30
0.0
 11
220.2385760655205
 21
390.1211584551699
 31
0.0
  0
LINE
  5
11A0
330
A
100
AcDbEntity
  8
CHUSIN
100
AcDbLine
 10
255.2385760655205
 20
401.4614401938436
 30
0.0
 11
255.2385760655205
 21
384.2707423981635
 31
0.0
  0
LINE
  5
11A1
330
A
100
AcDbEntity
  8
CHUSIN
100
AcDbLine
 10
272.7385760655205
 20
397.6211584551699
 30
0.0
 11
272.7385760655204
 21
377.6211584551699
 31
0.0
  0
LINE
  5
11A2
330
A
100
AcDbEntity
  8
CHUSIN
100
AcDbLine
 10
242.7385760655205
 20
426.6211584551699
 30
0.0
 11
242.7385760655203
 21
377.6211584551699
 31
0.0
  0
ARC
  5
11A3
330
A
100
AcDbEntity
  8
04
100
AcDbCircle
 10
241.2385760655205
 20
371.3927423077695
 30
0.0
 40
1.5
100
AcDbArc
 50
285.4660099534193
 51
0.0
  0
LINE
  5
11A4
330
A
100
AcDbEntity
  8
04
100
AcDbLine
 10
243.0385760655203
 20
372.22115845517
 30
0.0
 11
242.7385760655203
 21
372.22115845517
 31
0.0
  0
LINE
  5
11A5
330
A
100
AcDbEntity
  8
CHUSIN
100
AcDbLine
 10
272.7385760655204
 20
377.6211584551699
 30
0.0
 11
242.7385760655203
 21
377.6211584551699
 31
0.0
  0
ARC
  5
11A6
330
A
100
AcDbEntity
  8
04
100
AcDbCircle
 10
227.7385760655205
 20
378.6211584551699
 30
0.0
 40
9.0
100
AcDbArc
 50
254.533990046579
 51
285.4660099534193
  0
LINE
  5
11A7
330
A
100
AcDbEntity
  8
04
100
AcDbLine
 10
227.7385760655205
 20
387.1211584551699
 30
0.0
 11
211.2385760655203
 21
387.1211584551708
 31
0.0
  0
LINE
  5
11A8
330
A
100
AcDbEntity
  8
04
100
AcDbLine
 10
212.2385760655207
 20
377.52115845517
 30
0.0
 11
218.2385760655207
 21
377.52115845517
 31
0.0
  0
LINE
  5
11A9
330
A
100
AcDbEntity
  8
04
100
AcDbLine
 10
212.2385760655207
 20
380.02115845517
 30
0.0
 11
212.2385760655207
 21
377.52115845517
 31
0.0
  0
LINE
  5
11AA
330
A
100
AcDbEntity
  8
04
100
AcDbLine
 10
210.2385760655205
 20
383.02115845517
 30
0.0
 11
210.2385760655207
 21
371.5211584551699
 31
0.0
  0
LINE
  5
11AB
330
A
100
AcDbEntity
  8
04
100
AcDbLine
 10
210.2385760655207
 20
380.02115845517
 30
0.0
 11
212.2385760655207
 21
380.02115845517
 31
0.0
  0
LINE
  5
11AC
330
A
100
AcDbEntity
  8
04
100
AcDbLine
 10
211.2385760655206
 20
383.02115845517
 30
0.0
 11
210.2385760655205
 21
383.02115845517
 31
0.0
  0
LINE
  5
11AD
330
A
100
AcDbEntity
  8
04
100
AcDbLine
 10
211.2385760655206
 20
383.02115845517
 30
0.0
 11
211.2385760655206
 21
384.0211584551699
 31
0.0
  0
LINE
  5
11AE
330
A
100
AcDbEntity
  8
04
100
AcDbLine
 10
211.2385760655203
 20
387.1211584551699
 30
0.0
 11
211.2385760655206
 21
385.6211584551699
 31
0.0
  0
LINE
  5
11AF
330
A
100
AcDbEntity
  8
04
100
AcDbLine
 10
218.2385760655207
 20
374.0211584551699
 30
0.0
 11
223.2385760655203
 21
374.0211584551699
 31
0.0
  0
LINE
  5
11B0
330
A
100
AcDbEntity
  8
04
100
AcDbLine
 10
218.2385760655207
 20
377.52115845517
 30
0.0
 11
218.2385760655207
 21
374.0211584551699
 31
0.0
  0
ARC
  5
11B1
330
A
100
AcDbEntity
  8
04
100
AcDbCircle
 10
225.7385760655203
 20
371.3927423077695
 30
0.0
 40
1.5
100
AcDbArc
 50
180.0
 51
254.533990046579
  0
LINE
  5
11B2
330
A
100
AcDbEntity
  8
04
100
AcDbLine
 10
224.2385760655203
 20
372.22115845517
 30
0.0
 11
224.2385760655203
 21
371.3927423077695
 31
0.0
  0
LINE
  5
11B3
330
A
100
AcDbEntity
  8
04
100
AcDbLine
 10
223.9385760655204
 20
372.22115845517
 30
0.0
 11
224.2385760655203
 21
372.22115845517
 31
0.0
  0
LINE
  5
11B4
330
A
100
AcDbEntity
  8
04
100
AcDbLine
 10
223.9385760655204
 20
373.2211584551699
 30
0.0
 11
223.9385760655204
 21
372.22115845517
 31
0.0
  0
LINE
  5
11B5
330
A
100
AcDbEntity
  8
04
100
AcDbLine
 10
223.2385760655203
 20
373.2211584551699
 30
0.0
 11
223.9385760655204
 21
373.2211584551699
 31
0.0
  0
LINE
  5
11B6
330
A
100
AcDbEntity
  8
04
100
AcDbLine
 10
223.2385760655203
 20
374.0211584551699
 30
0.0
 11
223.2385760655203
 21
373.2211584551699
 31
0.0
  0
LINE
  5
11B7
330
A
100
AcDbEntity
  8
04
100
AcDbLine
 10
220.0888801353785
 20
385.6211584551699
 30
0.0
 11
220.0888801353785
 21
384.0211584551699
 31
0.0
  0
LINE
  5
11B8
330
A
100
AcDbEntity
  8
CHUSIN
100
AcDbLine
 10
227.7385760655205
 20
377.3944632798917
 30
0.0
 11
227.7385760655203
 21
365.3609748229156
 31
0.0
  0
LINE
  5
11B9
330
A
100
AcDbEntity
  8
CHUSIN
100
AcDbLine
 10
239.2385760655205
 20
377.3944632798917
 30
0.0
 11
239.2385760655205
 21
365.3609748229156
 31
0.0
  0
LINE
  5
11BA
330
A
100
AcDbEntity
  8
04
100
AcDbLine
 10
234.7385760655203
 20
374.0211584551698
 30
0.0
 11
232.2385760655203
 21
374.0211584551699
 31
0.0
  0
ARC
  5
11BB
330
A
100
AcDbEntity
  8
04
100
AcDbCircle
 10
229.7385760655205
 20
371.3927423077695
 30
0.0
 40
1.5
100
AcDbArc
 50
285.4660099534193
 51
0.0
  0
LINE
  5
11BC
330
A
100
AcDbEntity
  8
04
100
AcDbLine
 10
231.2385760655204
 20
372.22115845517
 30
0.0
 11
231.2385760655204
 21
371.3927423077695
 31
0.0
  0
LINE
  5
11BD
330
A
100
AcDbEntity
  8
04
100
AcDbLine
 10
231.5385760655205
 20
372.22115845517
 30
0.0
 11
231.2385760655204
 21
372.22115845517
 31
0.0
  0
LINE
  5
11BE
330
A
100
AcDbEntity
  8
04
100
AcDbLine
 10
231.5385760655205
 20
373.2211584551699
 30
0.0
 11
231.5385760655205
 21
372.22115845517
 31
0.0
  0
LINE
  5
11BF
330
A
100
AcDbEntity
  8
04
100
AcDbLine
 10
232.2385760655203
 20
373.2211584551699
 30
0.0
 11
231.5385760655205
 21
373.2211584551699
 31
0.0
  0
LINE
  5
11C0
330
A
100
AcDbEntity
  8
04
100
AcDbLine
 10
232.2385760655203
 20
374.0211584551699
 30
0.0
 11
232.2385760655203
 21
373.2211584551699
 31
0.0
  0
LINE
  5
11C1
330
A
100
AcDbEntity
  8
04
100
AcDbLine
 10
227.7385760655205
 20
388.1211584551699
 30
0.0
 11
227.7385760655205
 21
387.1211584551699
 31
0.0
  0
ARC
  5
11C2
330
A
100
AcDbEntity
  8
04
100
AcDbCircle
 10
239.2385760655205
 20
378.6211584551699
 30
0.0
 40
9.0
100
AcDbArc
 50
254.533990046579
 51
285.4660099534193
  0
ARC
  5
11C3
330
A
100
AcDbEntity
  8
04
100
AcDbCircle
 10
237.2385760655205
 20
371.3927423077695
 30
0.0
 40
1.5
100
AcDbArc
 50
180.0
 51
254.533990046579
  0
LINE
  5
11C4
330
A
100
AcDbEntity
  8
04
100
AcDbLine
 10
235.7385760655203
 20
372.22115845517
 30
0.0
 11
235.7385760655203
 21
371.3927423077695
 31
0.0
  0
LINE
  5
11C5
330
A
100
AcDbEntity
  8
04
100
AcDbLine
 10
235.4385760655204
 20
372.22115845517
 30
0.0
 11
235.7385760655203
 21
372.22115845517
 31
0.0
  0
LINE
  5
11C6
330
A
100
AcDbEntity
  8
04
100
AcDbLine
 10
235.4385760655204
 20
373.2211584551699
 30
0.0
 11
235.4385760655204
 21
372.22115845517
 31
0.0
  0
LINE
  5
11C7
330
A
100
AcDbEntity
  8
04
100
AcDbLine
 10
234.7385760655203
 20
373.2211584551699
 30
0.0
 11
235.4385760655204
 21
373.2211584551699
 31
0.0
  0
LINE
  5
11C8
330
A
100
AcDbEntity
  8
04
100
AcDbLine
 10
234.7385760655203
 20
374.0211584551698
 30
0.0
 11
234.7385760655203
 21
373.2211584551699
 31
0.0
  0
LINE
  5
11C9
330
A
100
AcDbEntity
  8
04
100
AcDbLine
 10
242.7385760655203
 20
372.22115845517
 30
0.0
 11
242.7385760655205
 21
371.3927423077695
 31
0.0
  0
ARC
  5
11CA
330
A
100
AcDbEntity
  8
04
100
AcDbCircle
 10
257.8385760655204
 20
388.6615478071984
 30
0.0
 40
1.9
100
AcDbArc
 50
284.9173694723538
 51
0.0
  0
ARC
  5
11CB
330
A
100
AcDbEntity
  8
04
100
AcDbCircle
 10
252.6385760655205
 20
388.6615478071984
 30
0.0
 40
1.9
100
AcDbArc
 50
180.0
 51
255.082630527646
  0
LINE
  5
11CC
330
A
100
AcDbEntity
  8
04
100
AcDbLine
 10
247.2385760655203
 20
374.0211584551698
 30
0.0
 11
243.7385760655204
 21
374.0211584551698
 31
0.0
  0
LINE
  5
11CD
330
A
100
AcDbEntity
  8
04
100
AcDbLine
 10
243.0385760655203
 20
373.2211584551699
 30
0.0
 11
243.0385760655203
 21
372.22115845517
 31
0.0
  0
LINE
  5
11CE
330
A
100
AcDbEntity
  8
04
100
AcDbLine
 10
243.7385760655204
 20
373.2211584551699
 30
0.0
 11
243.0385760655203
 21
373.2211584551699
 31
0.0
  0
LINE
  5
11CF
330
A
100
AcDbEntity
  8
04
100
AcDbLine
 10
243.7385760655204
 20
374.0211584551698
 30
0.0
 11
243.7385760655204
 21
373.2211584551699
 31
0.0
  0
LINE
  5
11D0
330
A
100
AcDbEntity
  8
04
100
AcDbLine
 10
250.7385760655203
 20
389.7211584551699
 30
0.0
 11
250.7385760655203
 21
388.6615478071984
 31
0.0
  0
LINE
  5
11D1
330
A
100
AcDbEntity
  8
04
100
AcDbLine
 10
250.7385760655203
 20
389.7211584551699
 30
0.0
 11
250.6385760655205
 21
389.7211584551699
 31
0.0
  0
ARC
  5
11D2
330
A
100
AcDbEntity
  8
04
100
AcDbCircle
 10
255.2385760655203
 20
398.4211584551699
 30
0.0
 40
12.0
100
AcDbArc
 50
255.082630527646
 51
284.9173694723538
  0
LINE
  5
11D3
330
A
100
AcDbEntity
  8
04
100
AcDbLine
 10
259.7385760655204
 20
388.6615478071984
 30
0.0
 11
259.7385760655204
 21
389.7211584551699
 31
0.0
  0
LINE
  5
11D4
330
A
100
AcDbEntity
  8
04
100
AcDbLine
 10
259.8385760655204
 20
389.7211584551699
 30
0.0
 11
259.7385760655204
 21
389.7211584551699
 31
0.0
  0
LINE
  5
11D5
330
A
100
AcDbEntity
  8
04
100
AcDbLine
 10
259.7385760655204
 20
389.7211584551699
 30
0.0
 11
259.7385760655204
 21
389.7211584551699
 31
0.0
  0
LINE
  5
11D6
330
A
100
AcDbEntity
  8
04
100
AcDbLine
 10
236.7385760655205
 20
430.22115845517
 30
0.0
 11
246.7385760655205
 21
430.22115845517
 31
0.0
  0
LINE
  5
11D7
330
A
100
AcDbEntity
  8
04
100
AcDbLine
 10
227.7385760655205
 20
437.12115845517
 30
0.0
 11
227.7385760655205
 21
436.1211584551699
 31
0.0
  0
LINE
  5
11D8
330
A
100
AcDbEntity
  8
CHUSIN
100
AcDbLine
 10
231.7385760655205
 20
437.5619055647717
 30
0.0
 11
231.7385760655205
 21
423.8093473282274
 31
0.0
  0
LINE
  5
11D9
330
A
100
AcDbEntity
  8
04
100
AcDbLine
 10
225.2385760655204
 20
430.22115845517
 30
0.0
 11
226.7385760655205
 21
430.22115845517
 31
0.0
  0
LINE
  5
11DA
330
A
100
AcDbEntity
  8
04
100
AcDbLine
 10
227.7385760655205
 20
436.1211584551699
 30
0.0
 11
220.2385760655205
 21
434.1211584551698
 31
0.0
  0
LINE
  5
11DB
330
A
100
AcDbEntity
  8
04
100
AcDbLine
 10
225.2385760655204
 20
390.1211584551699
 30
0.0
 11
225.2385760655205
 21
434.1211584551698
 31
0.0
  0
LINE
  5
11DC
330
A
100
AcDbEntity
  8
04
100
AcDbLine
 10
225.2385760655204
 20
390.1211584551699
 30
0.0
 11
220.2385760655205
 21
390.1211584551699
 31
0.0
  0
LINE
  5
11DD
330
A
100
AcDbEntity
  8
04
100
AcDbLine
 10
220.2385760655205
 20
434.1211584551698
 30
0.0
 11
225.2385760655204
 21
434.1211584551698
 31
0.0
  0
ARC
  5
11DE
330
A
100
AcDbEntity
  8
04
100
AcDbCircle
 10
231.7385760655205
 20
423.82115845517
 30
0.0
 40
12.0
100
AcDbArc
 50
75.08263052764601
 51
104.9173694723539
  0
ARC
  5
11DF
330
A
100
AcDbEntity
  8
04
100
AcDbCircle
 10
229.1385760655205
 20
433.5807691031416
 30
0.0
 40
1.9
100
AcDbArc
 50
104.9173694723539
 51
180.0
  0
LINE
  5
11E0
330
A
100
AcDbEntity
  8
04
100
AcDbLine
 10
227.2385760655204
 20
432.5211584551699
 30
0.0
 11
227.2385760655204
 21
433.5807691031416
 31
0.0
  0
LINE
  5
11E1
330
A
100
AcDbEntity
  8
04
100
AcDbLine
 10
227.1385760655205
 20
432.5211584551699
 30
0.0
 11
227.2385760655204
 21
432.5211584551699
 31
0.0
  0
LINE
  5
11E2
330
A
100
AcDbEntity
  8
04
100
AcDbLine
 10
227.1385760655205
 20
431.2211584551699
 30
0.0
 11
227.1385760655205
 21
432.5211584551699
 31
0.0
  0
LINE
  5
11E3
330
A
100
AcDbEntity
  8
04
100
AcDbLine
 10
226.7385760655205
 20
431.2211584551699
 30
0.0
 11
227.1385760655205
 21
431.2211584551699
 31
0.0
  0
LINE
  5
11E4
330
A
100
AcDbEntity
  8
04
100
AcDbLine
 10
226.7385760655205
 20
430.22115845517
 30
0.0
 11
226.7385760655205
 21
431.2211584551699
 31
0.0
  0
ARC
  5
11E5
330
A
100
AcDbEntity
  8
04
100
AcDbCircle
 10
234.3385760655205
 20
433.5807691031416
 30
0.0
 40
1.9
100
AcDbArc
 50
0.0
 51
75.08263052764601
  0
LINE
  5
11E6
330
A
100
AcDbEntity
  8
04
100
AcDbLine
 10
236.7385760655205
 20
431.2211584551699
 30
0.0
 11
236.7385760655205
 21
430.22115845517
 31
0.0
  0
LINE
  5
11E7
330
A
100
AcDbEntity
  8
04
100
AcDbLine
 10
236.3385760655205
 20
431.2211584551699
 30
0.0
 11
236.7385760655205
 21
431.2211584551699
 31
0.0
  0
LINE
  5
11E8
330
A
100
AcDbEntity
  8
04
100
AcDbLine
 10
236.3385760655205
 20
432.5211584551698
 30
0.0
 11
236.3385760655205
 21
431.2211584551699
 31
0.0
  0
LINE
  5
11E9
330
A
100
AcDbEntity
  8
04
100
AcDbLine
 10
236.2385760655205
 20
432.5211584551698
 30
0.0
 11
236.3385760655205
 21
432.5211584551698
 31
0.0
  0
LINE
  5
11EA
330
A
100
AcDbEntity
  8
04
100
AcDbLine
 10
236.2385760655205
 20
433.5807691031416
 30
0.0
 11
236.2385760655205
 21
432.5211584551698
 31
0.0
  0
LINE
  5
11EB
330
A
100
AcDbEntity
  8
04
100
AcDbLine
 10
211.2385760655203
 20
437.12115845517
 30
0.0
 11
227.7385760655205
 21
437.12115845517
 31
0.0
  0
LINE
  5
11EC
330
A
100
AcDbEntity
  8
04
100
AcDbLine
 10
211.2385760655203
 20
438.6211584551699
 30
0.0
 11
211.2385760655203
 21
437.12115845517
 31
0.0
  0
LINE
  5
11ED
330
A
100
AcDbEntity
  8
04
100
AcDbLine
 10
211.238576065521
 20
441.2211584551699
 30
0.0
 11
211.238576065521
 21
440.2211584551699
 31
0.0
  0
LINE
  5
11EE
330
A
100
AcDbEntity
  8
04
100
AcDbLine
 10
210.2385760655208
 20
441.2211584551699
 30
0.0
 11
211.238576065521
 21
441.2211584551699
 31
0.0
  0
LINE
  5
11EF
330
A
100
AcDbEntity
  8
04
100
AcDbLine
 10
210.2385760655208
 20
442.7211584551695
 30
0.0
 11
210.2385760655208
 21
441.2211584551699
 31
0.0
  0
LINE
  5
11F0
330
A
100
AcDbEntity
  8
04
100
AcDbLine
 10
220.0888801353786
 20
440.2211584551699
 30
0.0
 11
220.0888801353786
 21
438.6211584551699
 31
0.0
  0
LINE
  5
11F1
330
A
100
AcDbEntity
  8
CHUSIN
100
AcDbLine
 10
251.7385760655205
 20
437.5619055647717
 30
0.0
 11
251.7385760655205
 21
423.8093473282274
 31
0.0
  0
LINE
  5
11F2
330
A
100
AcDbEntity
  8
04
100
AcDbLine
 10
256.7385760655204
 20
430.22115845517
 30
0.0
 11
261.2385760655205
 21
430.22115845517
 31
0.0
  0
LINE
  5
11F3
330
A
100
AcDbEntity
  8
04
100
AcDbLine
 10
250.2385760655204
 20
392.0211584551698
 30
0.0
 11
247.2385760655205
 21
392.0211584551698
 31
0.0
  0
LINE
  5
11F4
330
A
100
AcDbEntity
  8
04
100
AcDbLine
 10
250.2385760655204
 20
391.02115845517
 30
0.0
 11
250.2385760655204
 21
392.0211584551698
 31
0.0
  0
LINE
  5
11F5
330
A
100
AcDbEntity
  8
04
100
AcDbLine
 10
250.6385760655205
 20
391.02115845517
 30
0.0
 11
250.2385760655204
 21
391.02115845517
 31
0.0
  0
ARC
  5
11F6
330
A
100
AcDbEntity
  8
04
100
AcDbCircle
 10
251.7385760655205
 20
423.82115845517
 30
0.0
 40
12.0
100
AcDbArc
 50
75.08263052764601
 51
104.9173694723539
  0
LINE
  5
11F7
330
A
100
AcDbEntity
  8
04
100
AcDbLine
 10
246.7385760655205
 20
431.2211584551699
 30
0.0
 11
247.1385760655205
 21
431.2211584551699
 31
0.0
  0
LINE
  5
11F8
330
A
100
AcDbEntity
  8
04
100
AcDbLine
 10
246.7385760655205
 20
430.22115845517
 30
0.0
 11
246.7385760655205
 21
431.2211584551699
 31
0.0
  0
ARC
  5
11F9
330
A
100
AcDbEntity
  8
04
100
AcDbCircle
 10
249.1385760655205
 20
433.5807691031416
 30
0.0
 40
1.9
100
AcDbArc
 50
104.9173694723539
 51
180.0
  0
LINE
  5
11FA
330
A
100
AcDbEntity
  8
04
100
AcDbLine
 10
247.2385760655205
 20
432.5211584551698
 30
0.0
 11
247.2385760655205
 21
433.5807691031416
 31
0.0
  0
LINE
  5
11FB
330
A
100
AcDbEntity
  8
04
100
AcDbLine
 10
247.1385760655205
 20
432.5211584551698
 30
0.0
 11
247.2385760655205
 21
432.5211584551698
 31
0.0
  0
LINE
  5
11FC
330
A
100
AcDbEntity
  8
04
100
AcDbLine
 10
247.1385760655205
 20
431.2211584551699
 30
0.0
 11
247.1385760655205
 21
432.5211584551698
 31
0.0
  0
ARC
  5
11FD
330
A
100
AcDbEntity
  8
04
100
AcDbCircle
 10
254.3385760655204
 20
433.5807691031416
 30
0.0
 40
1.9
100
AcDbArc
 50
0.0
 51
75.08263052764601
  0
LINE
  5
11FE
330
A
100
AcDbEntity
  8
04
100
AcDbLine
 10
256.7385760655204
 20
431.2211584551699
 30
0.0
 11
256.7385760655204
 21
430.22115845517
 31
0.0
  0
LINE
  5
11FF
330
A
100
AcDbEntity
  8
04
100
AcDbLine
 10
256.3385760655203
 20
431.2211584551699
 30
0.0
 11
256.7385760655204
 21
431.2211584551699
 31
0.0
  0
LINE
  5
1200
330
A
100
AcDbEntity
  8
04
100
AcDbLine
 10
256.3385760655203
 20
432.5211584551698
 30
0.0
 11
256.3385760655203
 21
431.2211584551699
 31
0.0
  0
LINE
  5
1201
330
A
100
AcDbEntity
  8
04
100
AcDbLine
 10
256.2385760655205
 20
432.5211584551698
 30
0.0
 11
256.3385760655203
 21
432.5211584551698
 31
0.0
  0
LINE
  5
1202
330
A
100
AcDbEntity
  8
04
100
AcDbLine
 10
256.2385760655205
 20
433.5807691031416
 30
0.0
 11
256.2385760655205
 21
432.5211584551698
 31
0.0
  0
LINE
  5
1203
330
A
100
AcDbEntity
  8
04
100
AcDbLine
 10
272.7385760655204
 20
426.6211584551698
 30
0.0
 11
272.7385760655205
 21
397.6211584551699
 31
0.0
  0
LINE
  5
1204
330
A
100
AcDbEntity
  8
04
100
AcDbLine
 10
272.7385760655205
 20
397.6211584551699
 30
0.0
 11
261.2385760655205
 21
397.6211584551699
 31
0.0
  0
LINE
  5
1205
330
A
100
AcDbEntity
  8
04
100
AcDbLine
 10
260.2385760655204
 20
391.02115845517
 30
0.0
 11
259.8385760655204
 21
391.02115845517
 31
0.0
  0
LINE
  5
1206
330
A
100
AcDbEntity
  8
04
100
AcDbLine
 10
260.2385760655204
 20
392.0211584551698
 30
0.0
 11
260.2385760655204
 21
391.02115845517
 31
0.0
  0
LINE
  5
1207
330
A
100
AcDbEntity
  8
04
100
AcDbLine
 10
261.2385760655204
 20
392.0211584551698
 30
0.0
 11
260.2385760655204
 21
392.0211584551698
 31
0.0
  0
LINE
  5
1208
330
A
100
AcDbEntity
  8
04
100
AcDbLine
 10
261.2385760655205
 20
397.6211584551699
 30
0.0
 11
261.2385760655204
 21
392.0211584551698
 31
0.0
  0
LINE
  5
1209
330
A
100
AcDbEntity
  8
04
100
AcDbLine
 10
261.2385760655205
 20
426.6211584551698
 30
0.0
 11
272.7385760655204
 21
426.6211584551698
 31
0.0
  0
LINE
  5
120A
330
A
100
AcDbEntity
  8
04
100
AcDbLine
 10
261.2385760655205
 20
430.22115845517
 30
0.0
 11
261.2385760655205
 21
426.6211584551699
 31
0.0
  0
LINE
  5
120B
330
A
100
AcDbEntity
  8
06
100
AcDbLine
 10
216.7385760655204
 20
221.1212367315265
 30
0.0
 11
241.7385760655203
 21
221.121260693231
 31
0.0
  0
LINE
  5
120C
330
A
100
AcDbEntity
  8
06
100
AcDbLine
 10
209.2385760655203
 20
207.1211584551699
 30
0.0
 11
249.2385760655203
 21
207.1211584551699
 31
0.0
  0
ARC
  5
122C
330
A
100
AcDbEntity
  8
SOUZOU
100
AcDbCircle
 10
226.7386267360554
 20
308.421109747497
 30
0.0
 40
35.0
100
AcDbArc
 50
259.0267991690776
 51
281.5369261517157
  0
LINE
  5
122D
330
A
100
AcDbEntity
  8
SOUZOU
100
AcDbLine
 10
236.7386334240768
 20
277.1710810556521
 30
0.0
 11
234.2751524379981
 21
277.1711234365958
 31
0.0
  0
LINE
  5
122E
330
A
100
AcDbEntity
  8
SOUZOU
100
AcDbLine
 10
216.7386262788826
 20
277.1711210718183
 30
0.0
 11
218.9502851034125
 21
277.1711210718183
 31
0.0
  0
LINE
  5
122F
330
A
100
AcDbEntity
  8
SOUZOU
100
AcDbLine
 10
215.2386262789888
 20
245.171230210908
 30
0.0
 11
215.2386262788826
 21
275.6711210718131
 31
0.0
  0
ARC
  5
1230
330
A
100
AcDbEntity
  8
SOUZOU
100
AcDbCircle
 10
216.7386262788826
 20
275.6711210718183
 30
0.0
 40
1.5
100
AcDbArc
 50
90.0
 51
180.0000000001985
  0
ARC
  5
1231
330
A
100
AcDbEntity
  8
SOUZOU
100
AcDbCircle
 10
226.7385346482431
 20
212.4212179581568
 30
0.0
 40
35.0
100
AcDbArc
 50
79.02686695919202
 51
100.9731028972711
  0
ARC
  5
1232
330
A
100
AcDbEntity
  8
SOUZOU
100
AcDbCircle
 10
233.3055567020529
 20
246.2904333409484
 30
0.0
 40
0.5
100
AcDbArc
 50
10.0000000000018
 51
79.02686695919202
  0
LINE
  5
1233
330
A
100
AcDbEntity
  8
SOUZOU
100
AcDbLine
 10
236.7385697988682
 20
243.6712082512414
 30
0.0
 11
234.5268439096704
 21
243.6711875403414
 31
0.0
  0
LINE
  5
1234
330
A
100
AcDbEntity
  8
SOUZOU
100
AcDbLine
 10
216.7386262789888
 20
243.6712302109131
 30
0.0
 11
218.950243553591
 21
243.6712302109583
 31
0.0
  0
ARC
  5
1235
330
A
100
AcDbEntity
  8
SOUZOU
100
AcDbCircle
 10
216.7386262789888
 20
245.1712302109132
 30
0.0
 40
1.5
100
AcDbArc
 50
180.0000000001985
 51
270.0
  0
LINE
  5
1236
330
A
100
AcDbEntity
  8
SOUZOU
100
AcDbLine
 10
238.238634832118
 20
275.6710779265304
 30
0.0
 11
238.2385697989092
 21
245.1712051221196
 31
0.0
  0
ARC
  5
1237
330
A
100
AcDbEntity
  8
SOUZOU
100
AcDbCircle
 10
236.738569798865
 20
245.1712082512414
 30
0.0
 40
1.5
100
AcDbArc
 50
270.0
 51
359.9998804763566
  0
ARC
  5
1238
330
A
100
AcDbEntity
  8
SOUZOU
100
AcDbCircle
 10
236.7386334240325
 20
275.6710810556521
 30
0.0
 40
1.5
100
AcDbArc
 50
359.9998804763566
 51
90.0
  0
LINE
  5
1239
330
A
100
AcDbEntity
  8
SOUZOU
100
AcDbLine
 10
233.7979497345599
 20
246.377245551944
 30
0.0
 11
234.2314028654283
 21
243.9191129052254
 31
0.0
  0
ARC
  5
123A
330
A
100
AcDbEntity
  8
SOUZOU
100
AcDbCircle
 10
234.5268417537471
 20
243.9711981391688
 30
0.0
 40
0.3
100
AcDbArc
 50
189.9999928137455
 51
270.0002529843507
  0
ARC
  5
123B
330
A
100
AcDbEntity
  8
SOUZOU
100
AcDbCircle
 10
220.1715255912471
 20
246.2904303018714
 30
0.0
 40
0.5
100
AcDbArc
 50
100.9731028972749
 51
169.9997809654638
  0
LINE
  5
123C
330
A
100
AcDbEntity
  8
SOUZOU
100
AcDbLine
 10
219.6791205987886
 20
246.377256528407
 30
0.0
 11
219.2456782688621
 21
243.9191378733126
 31
0.0
  0
ARC
  5
123D
330
A
100
AcDbEntity
  8
SOUZOU
100
AcDbCircle
 10
218.9502435535874
 20
243.9712321491787
 30
0.0
 40
0.3
100
AcDbArc
 50
270.0000000006937
 51
349.9997809654605
  0
ARC
  5
123E
330
A
100
AcDbEntity
  8
SOUZOU
100
AcDbCircle
 10
233.3055896166849
 20
274.5518820108137
 30
0.0
 40
0.5
100
AcDbArc
 50
281.2924527854838
 51
349.9998678763282
  0
LINE
  5
123F
330
A
100
AcDbEntity
  8
SOUZOU
100
AcDbLine
 10
234.2751635913454
 20
277.1711447057283
 30
0.0
 11
233.7385923288072
 21
274.1282620201781
 31
0.0
  0
ARC
  5
1240
330
A
100
AcDbEntity
  8
SOUZOU
100
AcDbCircle
 10
220.1715594796262
 20
274.5519070401146
 30
0.0
 40
0.5
100
AcDbArc
 50
189.9998508354325
 51
259.0267991690776
  0
LINE
  5
1241
330
A
100
AcDbEntity
  8
SOUZOU
100
AcDbLine
 10
219.2457275649386
 20
276.9232147559599
 30
0.0
 11
219.6791556899795
 21
274.4650842883834
 31
0.0
  0
ARC
  5
1242
330
A
100
AcDbEntity
  8
SOUZOU
100
AcDbCircle
 10
218.9502851034125
 20
276.8711210718183
 30
0.0
 40
0.3
100
AcDbArc
 50
9.999850835435779
 51
90.0
  0
LINE
  5
1243
330
A
100
AcDbEntity
  8
SOUZOU
100
AcDbLine
 10
219.2019644820792
 20
243.808024998112
 30
0.0
 11
219.2019644820792
 21
277.0343922889817
 31
0.0
  0
LINE
  5
1244
330
A
100
AcDbEntity
  8
SOUZOU
100
AcDbLine
 10
219.7385111514916
 20
246.5404272917798
 30
0.0
 11
219.7385111514916
 21
274.3019687567326
 31
0.0
  0
LINE
  5
1245
330
A
100
AcDbEntity
  8
SOUZOU
100
AcDbLine
 10
234.2752646735601
 20
243.8080367626673
 30
0.0
 11
234.2752128081795
 21
277.0344040534964
 31
0.0
  0
LINE
  5
1246
330
A
100
AcDbEntity
  8
SOUZOU
100
AcDbLine
 10
233.7387137844229
 20
246.5404382187934
 30
0.0
 11
233.7386704035278
 21
274.3019796837125
 31
0.0
  0
MTEXT
  5
129A
330
A
100
AcDbEntity
  8
MOJI
100
AcDbMText
 10
255.0
 20
32.0
 30
0.0
 40
7.0
 41
60.0
 71
     5
 72
     1
  1
片引き又は両引き
  7
0_8
1001
ACAD
1000
MTEXTBEGIN
1070
    73
1070
     1
1070
    44
1040
1.0
1070
    74
1070
     0
1000
MTEXTEND
1000
MTEXTBEGIN
1070
    73
1070
     1
1070
    44
1040
1.0
1070
    74
1070
     0
1000
MTEXTEND
  0
MTEXT
  5
129B
330
A
100
AcDbEntity
  8
MOJI
100
AcDbMText
 10
309.9999999999997
 20
31.5
 30
0.0
 40
7.0
 41
50.0
 71
     5
 72
     1
  1
図番１７－１
  7
0_80
1001
ACAD
1000
MTEXTBEGIN
1070
    73
1070
     1
1070
    44
1040
1.0
1070
    74
1070
     0
1000
MTEXTEND
1000
MTEXTBEGIN
1070
    73
1070
     1
1070
    44
1040
1.0
1070
    74
1070
     0
1000
MTEXTEND
  0
MTEXT
  5
129C
330
A
100
AcDbEntity
  8
MOJI
100
AcDbMText
 10
359.9999999999998
 20
31.5
 30
0.0
 40
7.0
 41
49.99999999999994
 71
     5
 72
     1
  1
たて断面図　
  7
0_80
1001
ACAD
1000
MTEXTBEGIN
1070
    73
1070
     1
1070
    44
1040
1.0
1070
    74
1070
     0
1000
MTEXTEND
1000
MTEXTBEGIN
1070
    73
1070
     1
1070
    44
1040
1.0
1070
    74
1070
     0
1000
MTEXTEND
  0
POLYLINE
  5
129D
330
A
100
AcDbEntity
  8
SAISEN
100
AcDb2dPolyline
 66
     1
 10
0.0
 20
0.0
 30
0.0
 70
     1
  0
VERTEX
  5
12E7
330
129D
100
AcDbEntity
  8
SAISEN
100
AcDbVertex
100
AcDb2dVertex
 10
35.0
 20
20.0
 30
0.0
  0
VERTEX
  5
12E8
330
129D
100
AcDbEntity
  8
SAISEN
100
AcDbVertex
100
AcDb2dVertex
 10
385.0
 20
20.0
 30
0.0
  0
VERTEX
  5
12E9
330
129D
100
AcDbEntity
  8
SAISEN
100
AcDbVertex
100
AcDb2dVertex
 10
385.0
 20
44.00000000000022
 30
0.0
  0
VERTEX
  5
12EA
330
129D
100
AcDbEntity
  8
SAISEN
100
AcDbVertex
100
AcDb2dVertex
 10
35.0
 20
44.00000000000022
 30
0.0
  0
SEQEND
  5
12EB
330
129D
100
AcDbEntity
  8
SAISEN
  0
MTEXT
  5
129E
330
A
100
AcDbEntity
  8
MOJI
100
AcDbMText
 10
185.0
 20
32.0
 30
0.0
 40
7.0
 41
80.0
 71
     5
 72
     1
  1
自動閉鎖装置\PＭ３台板納り
  7
0_8
1001
ACAD
1000
MTEXTBEGIN
1070
    73
1070
     1
1070
    44
1040
1.0
1070
    74
1070
     0
1000
MTEXTEND
1000
MTEXTBEGIN
1070
    73
1070
     1
1070
    44
1040
1.0
1070
    74
1070
     0
1000
MTEXTEND
  0
LINE
  5
129F
330
A
100
AcDbEntity
  8
SAISEN
100
AcDbLine
 10
145.0
 20
44.00000000000022
 30
0.0
 11
145.0
 21
20.0
 31
0.0
  0
LINE
  5
12A0
330
A
100
AcDbEntity
  8
SAISEN
100
AcDbLine
 10
225.0
 20
44.00000000000022
 30
0.0
 11
225.0
 21
20.0
 31
0.0
  0
LINE
  5
12A1
330
A
100
AcDbEntity
  8
SAISEN
100
AcDbLine
 10
285.0
 20
44.00000000000022
 30
0.0
 11
285.0
 21
20.0
 31
0.0
  0
MTEXT
  5
12A2
330
A
100
AcDbEntity
  8
MOJI
100
AcDbMText
 10
90.0
 20
32.0
 30
0.0
 40
7.0
 41
110.0
 71
     5
 72
     1
  1
テラオカＦＰＳ－Ｉ型
  7
0_8
1001
ACAD
1000
MTEXTBEGIN
1070
    73
1070
     1
1070
    44
1040
1.0
1070
    74
1070
     0
1000
MTEXTEND
1000
MTEXTBEGIN
1070
    73
1070
     1
1070
    44
1040
1.0
1070
    74
1070
     0
1000
MTEXTEND
  0
VIEWPORT
  5
8C2
102
{ACAD_XDICTIONARY
360
12D1
102
}
330
B
100
AcDbEntity
 67
     1
  8
0
100
AcDbViewport
 10
198.0508299538852
 20
285.1874487354477
 30
0.0
 40
1080.347564134148
 41
628.3535021666721
 68
     1
 69
     1
1001
ACAD
1000
MVIEW
1002
{
1070
    16
1010
0.0
1020
0.0
1030
0.0
1010
0.0
1020
0.0
1030
1.0
1040
0.0
1040
628.3535021666721
1040
198.0508299538852
1040
285.1874487354477
1040
50.0
1040
0.0
1040
0.0
1070
     0
1070
   100
1070
     1
1070
     1
1070
     0
1070
     0
1070
     0
1070
     0
1040
0.0
1040
0.0
1040
0.0
1040
10.0
1040
10.0
1040
10.0
1040
10.0
1070
     0
1002
{
1002
}
1002
}
  0
VIEWPORT
  5
12BB
102
{ACAD_XDICTIONARY
360
12D7
102
}
330
B
100
AcDbEntity
 67
     1
  8
DEFPOINTS
100
AcDbViewport
 10
198.0508309076477
 20
285.1874477816852
 30
0.0
 40
396.4883172119752
 41
570.409736121624
 68
     2
 69
     2
1001
ACAD
1000
MVIEW
1002
{
1070
    16
1010
0.0
1020
0.0
1030
0.0
1010
0.0
1020
0.0
1030
1.0
1040
0.0
1040
570.409736121624
1040
210.0
1040
297.0
1040
50.0
1040
0.0
1040
0.0
1070
     0
1070
   100
1070
     1
1070
     1
1070
     0
1070
     0
1070
     0
1070
     0
1040
0.0
1040
0.0
1040
0.0
1040
1.0
1040
1.0
1040
0.0
1040
0.0
1070
     0
1002
{
1002
}
1002
}
  0
ENDSEC
  0
SECTION
  2
OBJECTS
  0
DICTIONARY
  5
19
330
0
100
AcDbDictionary
  3
ACAD_COLOR
350
774
  3
ACAD_GROUP
350
1A
  3
ACAD_LAYOUT
350
4D4
  3
ACAD_MATERIAL
350
773
  3
ACAD_MLINESTYLE
350
1B
  3
ACAD_PLOTSETTINGS
350
4D5
  3
ACADDIM
350
756
  3
ASE_INDEX_DICTIONARY
350
12A3
1001
ACAD
1000
TREAT_AS_HARD
1070
     0
1000
TREAT_AS_HARD
1070
     0
  0
DICTIONARY
  5
128A
330
2
100
AcDbDictionary
  3
ACAD_LAYERSTATES
350
128B
1001
ACAD
1000
TREAT_AS_HARD
1070
     1
  0
DICTIONARY
  5
126A
330
A
100
AcDbDictionary
  3
ACAD_LAYOUTSELFREF
350
12DF
1001
ACAD
1000
TREAT_AS_HARD
1070
     1
  0
DICTIONARY
  5
126C
330
B
100
AcDbDictionary
  3
ACAD_LAYOUTSELFREF
350
12E0
1001
ACAD
1000
TREAT_AS_HARD
1070
     1
  0
DICTIONARY
  5
12D1
330
8C2
100
AcDbDictionary
  3
ACAD_XREC_ROUNDTRIP
350
12D2
1001
ACAD
1000
TREAT_AS_HARD
1070
     1
  0
DICTIONARY
  5
12D7
330
12BB
100
AcDbDictionary
  3
ACAD_XREC_ROUNDTRIP
350
12D8
1001
ACAD
1000
TREAT_AS_HARD
1070
     1
  0
DICTIONARY
  5
774
102
{ACAD_REACTORS
330
19
102
}
330
19
100
AcDbDictionary
1001
ACAD
1000
TREAT_AS_HARD
1070
     0
1000
TREAT_AS_HARD
1070
     0
  0
DICTIONARY
  5
1A
102
{ACAD_REACTORS
330
19
102
}
330
19
100
AcDbDictionary
  3
DAGROUP460
350
460
  3
DAGROUP464
350
464
  3
DAGROUP468
350
468
  3
DAGROUP46C
350
46C
  3
DAGROUP470
350
470
  3
DAGROUP474
350
474
  3
DAGROUP478
350
478
  3
DAGROUP47C
350
47C
  3
DAGROUP480
350
480
  3
DAGROUP484
350
484
  3
DAGROUP488
350
488
  3
DAGROUP48C
350
48C
  3
DAGROUP490
350
490
  3
DAGROUP494
350
494
  3
DAGROUP498
350
498
  3
DAGROUP49C
350
49C
  3
DAGROUP4A0
350
4A0
  3
DAGROUP4A4
350
4A4
  3
DAGROUP4A8
350
4A8
  3
DAGROUP4AC
350
4AC
  3
DAGROUP4B0
350
4B0
  3
DAGROUP4B4
350
4B4
1001
ACAD
1000
TREAT_AS_HARD
1070
     0
1000
TREAT_AS_HARD
1070
     0
  0
DICTIONARY
  5
4D4
102
{ACAD_REACTORS
330
19
102
}
330
19
100
AcDbDictionary
1001
ACAD
1000
TREAT_AS_HARD
1070
     0
1000
TREAT_AS_HARD
1070
     0
  0
DICTIONARY
  5
773
102
{ACAD_REACTORS
330
19
102
}
330
19
100
AcDbDictionary
1001
ACAD
1000
TREAT_AS_HARD
1070
     0
1000
TREAT_AS_HARD
1070
     0
  0
DICTIONARY
  5
1B
102
{ACAD_REACTORS
330
19
102
}
330
19
100
AcDbDictionary
  3
STANDARD
350
1C
1001
ACAD
1000
TREAT_AS_HARD
1070
     0
1000
TREAT_AS_HARD
1070
     0
  0
DICTIONARY
  5
4D5
102
{ACAD_REACTORS
330
19
102
}
330
19
100
AcDbDictionary
1001
ACAD
1000
TREAT_AS_HARD
1070
     0
1000
TREAT_AS_HARD
1070
     0
  0
XRECORD
  5
756
102
{ACAD_REACTORS
330
19
102
}
330
19
100
AcDbXrecord
 90
   990106
  3

 60
     0
 61
     0
 62
     1
 63
     3
 64
     1
 65
     0
 66
     0
 67
     3
 68
     1
 69
     0
 70
     0
 71
     0
 72
     0
 40
0.0
170
     2
340
76F
  0
DICTIONARY
  5
12A3
102
{ACAD_REACTORS
330
19
102
}
330
19
100
AcDbDictionary
  3
ASEBLOCKHIERARCHYINDEXRECORD
350
12A4
1001
DCO15
1040
1508737064.5
1001
ACAD
1000
TREAT_AS_HARD
1070
     0
  0
DICTIONARY
  5
128B
102
{ACAD_REACTORS
330
128A
102
}
330
128A
100
AcDbDictionary
1001
ACAD
1000
TREAT_AS_HARD
1070
     0
  0
XRECORD
  5
12DF
102
{ACAD_REACTORS
330
126A
102
}
330
126A
100
AcDbXrecord
340
A
  0
XRECORD
  5
12E0
102
{ACAD_REACTORS
330
126C
102
}
330
126C
100
AcDbXrecord
340
B
  0
XRECORD
  5
12D2
102
{ACAD_REACTORS
330
12D1
102
}
330
12D1
100
AcDbXrecord
102
SHADEPLOT
 70
     0
  0
XRECORD
  5
12D8
102
{ACAD_REACTORS
330
12D7
102
}
330
12D7
100
AcDbXrecord
102
SHADEPLOT
 70
     0
  0
GROUP
  5
460
102
{ACAD_REACTORS
330
1A
102
}
330
1A
100
AcDbGroup
300

 70
     0
 71
     1
  0
GROUP
  5
464
102
{ACAD_REACTORS
330
1A
102
}
330
1A
100
AcDbGroup
300

 70
     0
 71
     1
  0
GROUP
  5
468
102
{ACAD_REACTORS
330
1A
102
}
330
1A
100
AcDbGroup
300

 70
     0
 71
     1
  0
GROUP
  5
46C
102
{ACAD_REACTORS
330
1A
102
}
330
1A
100
AcDbGroup
300

 70
     0
 71
     1
  0
GROUP
  5
470
102
{ACAD_REACTORS
330
1A
102
}
330
1A
100
AcDbGroup
300

 70
     0
 71
     1
  0
GROUP
  5
474
102
{ACAD_REACTORS
330
1A
102
}
330
1A
100
AcDbGroup
300

 70
     0
 71
     1
  0
GROUP
  5
478
102
{ACAD_REACTORS
330
1A
102
}
330
1A
100
AcDbGroup
300

 70
     0
 71
     1
  0
GROUP
  5
47C
102
{ACAD_REACTORS
330
1A
102
}
330
1A
100
AcDbGroup
300

 70
     0
 71
     1
  0
GROUP
  5
480
102
{ACAD_REACTORS
330
1A
102
}
330
1A
100
AcDbGroup
300

 70
     0
 71
     1
  0
GROUP
  5
484
102
{ACAD_REACTORS
330
1A
102
}
330
1A
100
AcDbGroup
300

 70
     0
 71
     1
  0
GROUP
  5
488
102
{ACAD_REACTORS
330
1A
102
}
330
1A
100
AcDbGroup
300

 70
     0
 71
     1
  0
GROUP
  5
48C
102
{ACAD_REACTORS
330
1A
102
}
330
1A
100
AcDbGroup
300

 70
     0
 71
     1
  0
GROUP
  5
490
102
{ACAD_REACTORS
330
1A
102
}
330
1A
100
AcDbGroup
300

 70
     0
 71
     1
  0
GROUP
  5
494
102
{ACAD_REACTORS
330
1A
102
}
330
1A
100
AcDbGroup
300

 70
     0
 71
     1
  0
GROUP
  5
498
102
{ACAD_REACTORS
330
1A
102
}
330
1A
100
AcDbGroup
300

 70
     0
 71
     1
  0
GROUP
  5
49C
102
{ACAD_REACTORS
330
1A
102
}
330
1A
100
AcDbGroup
300

 70
     0
 71
     1
  0
GROUP
  5
4A0
102
{ACAD_REACTORS
330
1A
102
}
330
1A
100
AcDbGroup
300

 70
     0
 71
     1
  0
GROUP
  5
4A4
102
{ACAD_REACTORS
330
1A
102
}
330
1A
100
AcDbGroup
300

 70
     0
 71
     1
  0
GROUP
  5
4A8
102
{ACAD_REACTORS
330
1A
102
}
330
1A
100
AcDbGroup
300

 70
     0
 71
     1
  0
GROUP
  5
4AC
102
{ACAD_REACTORS
330
1A
102
}
330
1A
100
AcDbGroup
300

 70
     0
 71
     1
  0
GROUP
  5
4B0
102
{ACAD_REACTORS
330
1A
102
}
330
1A
100
AcDbGroup
300

 70
     0
 71
     1
  0
GROUP
  5
4B4
102
{ACAD_REACTORS
330
1A
102
}
330
1A
100
AcDbGroup
300

 70
     0
 71
     1
  0
MLINESTYLE
  5
1C
102
{ACAD_REACTORS
330
1B
102
}
330
1B
100
AcDbMlineStyle
  2
STANDARD
 70
     0
  3

 62
     0
 51
90.00000000000019
 52
90.00000000000019
 71
     2
 49
0.5
 62
   256
  6
BYLAYER
 49
-0.5
 62
   256
  6
BYLAYER
  0
XRECORD
  5
12A4
102
{ACAD_REACTORS
330
12A3
102
}
330
12A3
100
AcDbXrecord
330
1063
330
1064
330
1101
330
1102
330
892
330
893
330
886
330
887
330
1012
330
1013
330
100A
330
100B
330
869
330
86A
330
861
330
862
330
104E
330
104F
330
84E
330
84F
330
1045
330
1046
330
83C
330
83D
330
103C
330
103D
330
10CF
330
10D0
  0
ENDSEC
  0
EOF
