  0
SECTION
  2
HEADER
  9
$ACADVER
  1
AC1012
  9
$DWGCODEPAGE
  3
dos932
  9
$INSBASE
 10
0.0
 20
0.0
 30
0.0
  9
$EXTMIN
 10
0.0
 20
0.0
 30
0.0
  9
$EXTMAX
 10
297.0
 20
420.0
 30
0.0
  9
$LIMMIN
 10
0.0
 20
0.0
  9
$LIMMAX
 10
297.0
 20
420.0
  9
$ORTHOMODE
 70
     1
  9
$REGENMODE
 70
     1
  9
$FILLMODE
 70
     1
  9
$QTEXTMODE
 70
     0
  9
$MIRRTEXT
 70
     1
  9
$DRAGMODE
 70
     2
  9
$LTSCALE
 40
1.0
  9
$OSMODE
 70
    37
  9
$ATTMODE
 70
     1
  9
$TEXTSIZE
 40
2.5
  9
$TRACEWID
 40
0.05
  9
$TEXTSTYLE
  7
0_80
  9
$CLAYER
  8
DEFPOINTS
  9
$CELTYPE
  6
BYLAYER
  9
$CECOLOR
 62
   256
  9
$CELTSCALE
 40
1.0
  9
$DELOBJ
 70
     1
  9
$DISPSILH
 70
     0
  9
$DIMSCALE
 40
1.5
  9
$DIMASZ
 40
2.5
  9
$DIMEXO
 40
1.5
  9
$DIMDLI
 40
0.0
  9
$DIMRND
 40
0.0
  9
$DIMDLE
 40
0.0
  9
$DIMEXE
 40
1.0
  9
$DIMTP
 40
0.0
  9
$DIMTM
 40
0.0
  9
$DIMTXT
 40
2.5
  9
$DIMCEN
 40
0.0
  9
$DIMTSZ
 40
0.0
  9
$DIMTOL
 70
     0
  9
$DIMLIM
 70
     0
  9
$DIMTIH
 70
     0
  9
$DIMTOH
 70
     0
  9
$DIMSE1
 70
     0
  9
$DIMSE2
 70
     0
  9
$DIMTAD
 70
     1
  9
$DIMZIN
 70
     8
  9
$DIMBLK
  1
OPEN30
  9
$DIMASO
 70
     1
  9
$DIMSHO
 70
     1
  9
$DIMPOST
  1

  9
$DIMAPOST
  1

  9
$DIMALT
 70
     0
  9
$DIMALTD
 70
     2
  9
$DIMALTF
 40
25.4
  9
$DIMLFAC
 40
1.0
  9
$DIMTOFL
 70
     1
  9
$DIMTVP
 40
0.0
  9
$DIMTIX
 70
     0
  9
$DIMSOXD
 70
     0
  9
$DIMSAH
 70
     0
  9
$DIMBLK1
  1

  9
$DIMBLK2
  1

  9
$DIMSTYLE
  2
SUNPOU_1_5
  9
$DIMCLRD
 70
   256
  9
$DIMCLRE
 70
   256
  9
$DIMCLRT
 70
     6
  9
$DIMTFAC
 40
1.0
  9
$DIMGAP
 40
1.0
  9
$DIMJUST
 70
     0
  9
$DIMSD1
 70
     0
  9
$DIMSD2
 70
     0
  9
$DIMTOLJ
 70
     1
  9
$DIMTZIN
 70
     0
  9
$DIMALTZ
 70
     0
  9
$DIMALTTZ
 70
     0
  9
$DIMFIT
 70
     3
  9
$DIMUPT
 70
     0
  9
$DIMUNIT
 70
     2
  9
$DIMDEC
 70
     1
  9
$DIMTDEC
 70
     1
  9
$DIMALTU
 70
     2
  9
$DIMALTTD
 70
     2
  9
$DIMTXSTY
  7
SUNPOU
  9
$DIMAUNIT
 70
     0
  9
$LUNITS
 70
     2
  9
$LUPREC
 70
     4
  9
$SKETCHINC
 40
0.1
  9
$FILLETRAD
 40
0.0
  9
$AUNITS
 70
     0
  9
$AUPREC
 70
     0
  9
$MENU
  1
acad
  9
$ELEVATION
 40
0.0
  9
$PELEVATION
 40
0.0
  9
$THICKNESS
 40
0.0
  9
$LIMCHECK
 70
     0
  9
$BLIPMODE
 70
     0
  9
$CHAMFERA
 40
0.0
  9
$CHAMFERB
 40
0.0
  9
$CHAMFERC
 40
0.0
  9
$CHAMFERD
 40
0.0
  9
$SKPOLY
 70
     0
  9
$TDCREATE
 40
2444972.375000000
  9
$TDUPDATE
 40
2453266.571327211
  9
$TDINDWG
 40
0.2695799190
  9
$TDUSRTIMER
 40
0.2695799190
  9
$USRTIMER
 70
     1
  9
$ANGBASE
 50
0.0
  9
$ANGDIR
 70
     0
  9
$PDMODE
 70
     0
  9
$PDSIZE
 40
1.0
  9
$PLINEWID
 40
0.0
  9
$COORDS
 70
     1
  9
$SPLFRAME
 70
     0
  9
$SPLINETYPE
 70
     6
  9
$SPLINESEGS
 70
     8
  9
$ATTDIA
 70
     0
  9
$ATTREQ
 70
     1
  9
$HANDLING
 70
-16383
  9
$HANDSEED
  5
1607
  9
$SURFTAB1
 70
     6
  9
$SURFTAB2
 70
     6
  9
$SURFTYPE
 70
     6
  9
$SURFU
 70
     6
  9
$SURFV
 70
     6
  9
$UCSNAME
  2

  9
$UCSORG
 10
0.0
 20
0.0
 30
0.0
  9
$UCSXDIR
 10
1.0
 20
0.0
 30
0.0
  9
$UCSYDIR
 10
0.0
 20
1.0
 30
0.0
  9
$PUCSNAME
  2

  9
$PUCSORG
 10
0.0
 20
0.0
 30
0.0
  9
$PUCSXDIR
 10
1.0
 20
0.0
 30
0.0
  9
$PUCSYDIR
 10
0.0
 20
1.0
 30
0.0
  9
$USERI1
 70
     0
  9
$USERI2
 70
     0
  9
$USERI3
 70
     0
  9
$USERI4
 70
     0
  9
$USERI5
 70
     0
  9
$USERR1
 40
0.0
  9
$USERR2
 40
0.0
  9
$USERR3
 40
0.0
  9
$USERR4
 40
0.0
  9
$USERR5
 40
0.0
  9
$WORLDVIEW
 70
     1
  9
$SHADEDGE
 70
     3
  9
$SHADEDIF
 70
    70
  9
$TILEMODE
 70
     1
  9
$MAXACTVP
 70
    16
  9
$PINSBASE
 10
0.0
 20
0.0
 30
0.0
  9
$PLIMCHECK
 70
     0
  9
$PEXTMIN
 10
-4.420156370390145
 20
-6.184459153284365
 30
-0.0015258207003583
  9
$PEXTMAX
 10
292.9242772844509
 20
421.6149933234562
 30
0.0000000349246037
  9
$PLIMMIN
 10
-13.23031965858789
 20
-14.97330973701027
  9
$PLIMMAX
 10
301.7296717964902
 20
430.41568257256
  9
$UNITMODE
 70
     0
  9
$VISRETAIN
 70
     0
  9
$PLINEGEN
 70
     1
  9
$PSLTSCALE
 70
     0
  9
$TREEDEPTH
 70
  3020
  9
$PICKSTYLE
 70
     1
  9
$CMLSTYLE
  2
STANDARD
  9
$CMLJUST
 70
     0
  9
$CMLSCALE
 40
1.0
  9
$SAVEIMAGES
 70
     1
  0
ENDSEC
  0
SECTION
  2
CLASSES
  0
CLASS
  1
LWPOLYLINE
  2
AcDbPolyline
  3
AutoCAD 2000
 90
    32768
280
     0
281
     1
  0
CLASS
  1
IMAGE
  2
AcDbRasterImage
  3
ISM
 90
    32895
280
     0
281
     1
  0
CLASS
  1
OLE2FRAME
  2
AcDbOle2Frame
  3
AutoCAD 2000
 90
    32768
280
     0
281
     1
  0
CLASS
  1
HATCH
  2
AcDbHatch
  3
AutoCAD 2000
 90
    32768
280
     0
281
     1
  0
CLASS
  1
DICTIONARYVAR
  2
AcDbDictionaryVar
  3
AutoCAD 2000
 90
    32768
280
     0
281
     0
  0
CLASS
  1
RASTERVARIABLES
  2
AcDbRasterVariables
  3
ISM
 90
    32768
280
     0
281
     0
  0
CLASS
  1
IMAGEDEF
  2
AcDbRasterImageDef
  3
ISM
 90
    32768
280
     0
281
     0
  0
CLASS
  1
IMAGEDEF_REACTOR
  2
AcDbRasterImageDefReactor
  3
ISM
 90
    32769
280
     0
281
     0
  0
CLASS
  1
IDBUFFER
  2
AcDbIdBuffer
  3
AutoCAD 2000
 90
    32768
280
     0
281
     0
  0
CLASS
  1
SPATIAL_FILTER
  2
AcDbSpatialFilter
  3
AutoCAD 2000
 90
    32768
280
     0
281
     0
  0
CLASS
  1
XRECORD
  2
AcDbXrecord
  3
AutoCAD 2000
 90
    32768
280
     0
281
     0
  0
CLASS
  1
SORTENTSTABLE
  2
AcDbSortentsTable
  3
AutoCAD 2000
 90
    32768
280
     0
281
     0
  0
CLASS
  1
LAYER_INDEX
  2
AcDbLayerIndex
  3
AutoCAD 2000
 90
    32768
280
     0
281
     0
  0
CLASS
  1
SPATIAL_INDEX
  2
AcDbSpatialIndex
  3
AutoCAD 2000
 90
    32768
280
     0
281
     0
  0
CLASS
  1
OBJECT_PTR
  2
CAseDLPNTableRecord
  3
ASE-LPNTableRecord
 90
    32769
280
     0
281
     0
  0
CLASS
  1
LAYOUT
  2
AcDbLayout
  3
AutoCAD 2000
 90
    32768
280
     0
281
     0
  0
CLASS
  1
PLOTSETTINGS
  2
AcDbPlotSettings
  3
AutoCAD 2000
 90
    32768
280
     0
281
     0
  0
CLASS
  1
ACDBDICTIONARYWDFLT
  2
AcDbDictionaryWithDefault
  3
AutoCAD 2000
 90
    32768
280
     0
281
     0
  0
CLASS
  1
ACDBPLACEHOLDER
  2
AcDbPlaceHolder
  3
AutoCAD 2000
 90
    32768
280
     0
281
     0
  0
CLASS
  1
VBA_PROJECT
  2
AcDbVbaProject
  3
acad
 90
    32768
280
     0
281
     0
  0
CLASS
  1
WIPEOUT
  2
AcDbWipeout
  3
"WipeOut|Product Desc: Object Enabler for WipeOut entity^I^I^I^I^I^I|Company: Autodesk, Inc.^I^I^I^I^I^I|WEB Address: www.autodesk.com"
 90
    32895
280
     0
281
     1
  0
CLASS
  1
WIPEOUTVARIABLES
  2
AcDbWipeoutVariables
  3
"WipeOut|Product Desc:     WipeOut Dbx Application|Company:          Autodesk, Inc.|WEB Address:      www.autodesk.com"
 90
    32768
280
     0
281
     0
  0
CLASS
  1
RTEXT
  2
RText
  3
RText|AutoCAD Express Tool|expresstools@autodesk.com
 90
    32768
280
     0
281
     1
  0
CLASS
  1
ARCALIGNEDTEXT
  2
AcDbArcAlignedText
  3
ATEXT|AutoCAD Express Tool|expresstools@autodesk.com
 90
    32768
280
     0
281
     1
  0
CLASS
  1
LONG_TRANSACTION
  2
AcDbLongTransaction
  3
AutoCAD 2000
 90
    32768
280
     0
281
     0
  0
CLASS
  1
LWPOLYLINE
  2
AcDbPolyline
  3
AutoCAD 2000
 90
    32768
280
     0
281
     1
  0
CLASS
  1
HATCH
  2
AcDbHatch
  3
AutoCAD 2000
 90
    32768
280
     0
281
     1
  0
CLASS
  1
XRECORD
  2
AcDbXrecord
  3
AutoCAD 2000
 90
    32768
280
     0
281
     0
  0
CLASS
  1
LONG_TRANSACTION
  2
AcDbLongTransaction
  3
AutoCAD 2000
 90
    32768
280
     0
281
     0
  0
CLASS
  1
LWPOLYLINE
  2
AcDbPolyline
  3
AutoCAD 2000
 90
    32768
280
     0
281
     1
  0
CLASS
  1
HATCH
  2
AcDbHatch
  3
AutoCAD 2000
 90
    32768
280
     0
281
     1
  0
CLASS
  1
XRECORD
  2
AcDbXrecord
  3
AutoCAD 2000
 90
    32768
280
     0
281
     0
  0
ENDSEC
  0
SECTION
  2
TABLES
  0
TABLE
  2
VPORT
  5
7
330
0
100
AcDbSymbolTable
 70
     2
  0
VPORT
  5
15EF
330
7
100
AcDbSymbolTableRecord
100
AcDbViewportTableRecord
  2
*ACTIVE
 70
     0
 10
0.0
 20
0.0
 11
1.0
 21
1.0
 12
161.4775591941738
 22
210.0000039117639
 13
0.0
 23
0.0
 14
1.0
 24
1.0
 15
0.0
 25
0.0
 16
0.0
 26
0.0
 36
1.0
 17
0.0
 27
0.0
 37
0.0
 40
424.7142024891693
 41
1.780442804428044
 42
50.0
 43
0.0
 44
0.0
 50
0.0
 51
0.0
 71
     0
 72
   100
 73
     1
 74
     1
 75
     0
 76
     0
 77
     0
 78
     0
  0
ENDTAB
  0
TABLE
  2
LTYPE
  5
4
330
0
100
AcDbSymbolTable
 70
     4
  0
LTYPE
  5
11
330
4
100
AcDbSymbolTableRecord
100
AcDbLinetypeTableRecord
  2
BYBLOCK
 70
     0
  3

 72
    65
 73
     0
 40
0.0
  0
LTYPE
  5
12
330
4
100
AcDbSymbolTableRecord
100
AcDbLinetypeTableRecord
  2
BYLAYER
 70
     0
  3

 72
    65
 73
     0
 40
0.0
  0
LTYPE
  5
13
330
4
100
AcDbSymbolTableRecord
100
AcDbLinetypeTableRecord
  2
CONTINUOUS
 70
     0
  3
Solid line
 72
    65
 73
     0
 40
0.0
  0
LTYPE
  5
679
330
4
100
AcDbSymbolTableRecord
100
AcDbLinetypeTableRecord
  2
CENTER2
 70
     0
  3
Center (.5x) ___ _ ___ _ ___ _ ___ _ ___ _ ___
 72
    65
 73
     4
 40
28.57499999999999
 49
19.05
 74
     0
 49
-3.174999999999998
 74
     0
 49
3.174999999999998
 74
     0
 49
-3.174999999999998
 74
     0
  0
LTYPE
  5
67C
330
4
100
AcDbSymbolTableRecord
100
AcDbLinetypeTableRecord
  2
DASHED2
 70
     0
  3
Dashed (.5x) _ _ _ _ _ _ _ _ _ _ _ _ _ _ _ _ _
 72
    65
 73
     2
 40
9.524999999999996
 49
6.349999999999998
 74
     0
 49
-3.174999999999998
 74
     0
  0
LTYPE
  5
67F
330
4
100
AcDbSymbolTableRecord
100
AcDbLinetypeTableRecord
  2
PHANTOM2
 70
     0
  3
Phantom (.5x) ___ _ _ ___ _ _ ___ _ _ ___ _ _
 72
    65
 73
     6
 40
31.75
 49
15.875
 74
     0
 49
-3.174999999999998
 74
     0
 49
3.174999999999998
 74
     0
 49
-3.174999999999998
 74
     0
 49
3.174999999999998
 74
     0
 49
-3.174999999999998
 74
     0
  0
ENDTAB
  0
TABLE
  2
LAYER
  5
2
102
{ACAD_XDICTIONARY
360
D30
102
}
330
0
100
AcDbSymbolTable
 70
    13
  0
LAYER
  5
14
330
2
100
AcDbSymbolTableRecord
100
AcDbLayerTableRecord
  2
0
 70
     0
 62
     7
  6
CONTINUOUS
  0
LAYER
  5
39
330
2
100
AcDbSymbolTableRecord
100
AcDbLayerTableRecord
  2
DEFPOINTS
 70
     0
 62
     7
  6
CONTINUOUS
  0
LAYER
  5
673
330
2
100
AcDbSymbolTableRecord
100
AcDbLayerTableRecord
  2
03
 70
     0
 62
     3
  6
CONTINUOUS
  0
LAYER
  5
674
330
2
100
AcDbSymbolTableRecord
100
AcDbLayerTableRecord
  2
04
 70
     0
 62
     4
  6
CONTINUOUS
  0
LAYER
  5
678
330
2
100
AcDbSymbolTableRecord
100
AcDbLayerTableRecord
  2
CHUSIN
 70
     0
 62
     6
  6
CENTER2
  0
LAYER
  5
67B
330
2
100
AcDbSymbolTableRecord
100
AcDbLayerTableRecord
  2
KAKURE
 70
     0
 62
     6
  6
DASHED2
  0
LAYER
  5
67D
330
2
100
AcDbSymbolTableRecord
100
AcDbLayerTableRecord
  2
MOJI
 70
     0
 62
     3
  6
CONTINUOUS
  0
LAYER
  5
67E
330
2
100
AcDbSymbolTableRecord
100
AcDbLayerTableRecord
  2
SOUZOU
 70
     0
 62
     6
  6
PHANTOM2
  0
LAYER
  5
680
330
2
100
AcDbSymbolTableRecord
100
AcDbLayerTableRecord
  2
SUNPOU
 70
     0
 62
     6
  6
CONTINUOUS
  0
LAYER
  5
11FF
330
2
100
AcDbSymbolTableRecord
100
AcDbLayerTableRecord
  2
SAISEN
 70
     0
 62
     3
  6
CONTINUOUS
  0
LAYER
  5
1432
330
2
100
AcDbSymbolTableRecord
100
AcDbLayerTableRecord
  2
HIKIDASI
 70
     0
 62
     6
  6
CONTINUOUS
  0
LAYER
  5
1446
330
2
100
AcDbSymbolTableRecord
100
AcDbLayerTableRecord
  2
02
 70
     0
 62
     2
  6
CONTINUOUS
  0
LAYER
  5
1447
330
2
100
AcDbSymbolTableRecord
100
AcDbLayerTableRecord
  2
06
 70
     0
 62
     6
  6
CONTINUOUS
  0
ENDTAB
  0
TABLE
  2
STYLE
  5
3
330
0
100
AcDbSymbolTable
 70
     5
  0
STYLE
  5
17
330
3
100
AcDbSymbolTableRecord
100
AcDbTextStyleTableRecord
  2
STANDARD
 70
     0
 40
0.0
 41
0.8
 50
0.0
 71
     0
 42
3.0
  3
txt.shx
  4
bigfont.shx
  0
STYLE
  5
682
330
3
100
AcDbSymbolTableRecord
100
AcDbTextStyleTableRecord
  2
SUNPOU
 70
     0
 40
0.0
 41
0.8
 50
0.0
 71
     0
 42
0.2
  3
txt.shx
  4
extfont.shx
  0
STYLE
  5
689
330
3
100
AcDbSymbolTableRecord
100
AcDbTextStyleTableRecord
  2
0_80
 70
     0
 40
0.0
 41
0.8
 50
0.0
 71
     0
 42
2.5
  3
txt.shx
  4
extfont.shx
  0
STYLE
  5
1558
330
3
100
AcDbSymbolTableRecord
100
AcDbTextStyleTableRecord
  2
0_8
 70
     0
 40
0.0
 41
0.8
 50
0.0
 71
     0
 42
2.5
  3
txt.shx
  4
extfont.shx
  0
STYLE
  5
15B0
330
3
100
AcDbSymbolTableRecord
100
AcDbTextStyleTableRecord
  2
0_81
 70
     0
 40
0.0
 41
0.8
 50
0.0
 71
     0
 42
5.0
  3
txt.shx
  4
extfont.shx
  0
ENDTAB
  0
TABLE
  2
VIEW
  5
5
330
0
100
AcDbSymbolTable
 70
     2
  0
VIEW
  5
3E
330
5
100
AcDbSymbolTableRecord
100
AcDbViewTableRecord
  2
QQQQ
 70
     0
 40
350.1879603399431
 10
-32.90506943413054
 20
5.779036827195482
 41
450.0199953622178
 11
0.0
 21
0.0
 31
1.0
 12
100.0
 22
100.0
 32
0.0
 42
50.0
 43
0.0
 44
0.0
 50
0.0
 71
     0
  0
VIEW
  5
6CD
330
5
100
AcDbSymbolTableRecord
100
AcDbViewTableRecord
  2
OLE1
 70
     1
 40
371.0934867798812
 10
117.1124967064444
 20
168.3375030052004
 41
480.6413795562298
 11
0.0
 21
0.0
 31
1.0
 12
0.0
 22
0.0
 32
0.0
 42
50.0
 43
0.0
 44
0.0
 50
0.0
 71
     0
  0
ENDTAB
  0
TABLE
  2
UCS
  5
6
330
0
100
AcDbSymbolTable
 70
     0
  0
ENDTAB
  0
TABLE
  2
APPID
  5
8
330
0
100
AcDbSymbolTable
 70
     3
  0
APPID
  5
16
330
8
100
AcDbSymbolTableRecord
100
AcDbRegAppTableRecord
  2
ACAD
 70
     0
  0
APPID
  5
156F
330
8
100
AcDbSymbolTableRecord
100
AcDbRegAppTableRecord
  2
CONTENTBLOCKICON
 70
     0
  0
APPID
  5
1595
330
8
100
AcDbSymbolTableRecord
100
AcDbRegAppTableRecord
  2
DCO15
 70
     0
  0
ENDTAB
  0
TABLE
  2
DIMSTYLE
  5
9
330
0
100
AcDbSymbolTable
 70
     2
  0
DIMSTYLE
105
18
330
9
100
AcDbSymbolTableRecord
100
AcDbDimStyleTableRecord
  2
STANDARD
 70
     0
  3

  4

  5

  6

  7

 40
1.0
 41
0.18
 42
0.0625
 43
0.38
 44
0.18
 45
0.0
 46
0.0
 47
0.0
 48
0.0
140
0.18
141
0.09
142
0.0
143
25.4
144
1.0
145
0.0
146
1.0
147
0.09
 71
     0
 72
     0
 73
     1
 74
     1
 75
     0
 76
     0
 77
     0
 78
     0
170
     0
171
     2
172
     0
173
     0
174
     0
175
     0
176
     0
177
     0
178
     0
270
     2
271
     4
272
     4
273
     2
274
     2
340
17
275
     0
280
     0
281
     0
282
     0
283
     1
284
     0
285
     0
286
     0
287
     3
288
     0
  0
DIMSTYLE
105
681
102
{ACAD_REACTORS
330
6EA
330
71C
330
72B
330
738
330
747
330
754
330
763
330
770
330
77D
330
7A8
330
7B7
330
7C4
330
7D1
330
7DE
330
7EB
330
7F8
330
805
330
812
330
81F
330
82C
102
}
330
9
100
AcDbSymbolTableRecord
100
AcDbDimStyleTableRecord
  2
SUNPOU_1_5
 70
     0
  3

  4

  5
OPEN30
  6

  7

 40
1.5
 41
2.5
 42
1.5
 43
0.0
 44
1.0
 45
0.0
 46
0.0
 47
0.0
 48
0.0
140
2.5
141
0.0
142
0.0
143
25.4
144
1.0
145
0.0
146
1.0
147
1.0
 71
     0
 72
     0
 73
     0
 74
     0
 75
     0
 76
     0
 77
     1
 78
     8
170
     0
171
     2
172
     1
173
     0
174
     0
175
     0
176
   256
177
   256
178
     6
270
     2
271
     1
272
     1
273
     2
274
     2
340
682
275
     0
280
     0
281
     0
282
     0
283
     1
284
     0
285
     0
286
     0
287
     3
288
     0
  0
ENDTAB
  0
TABLE
  2
BLOCK_RECORD
  5
1
330
0
100
AcDbSymbolTable
 70
    21
  0
BLOCK_RECORD
  5
A
102
{ACAD_XDICTIONARY
360
156B
102
}
330
1
100
AcDbSymbolTableRecord
100
AcDbBlockTableRecord
  2
*MODEL_SPACE
  0
BLOCK_RECORD
  5
B
102
{ACAD_XDICTIONARY
360
156D
102
}
330
1
100
AcDbSymbolTableRecord
100
AcDbBlockTableRecord
  2
*PAPER_SPACE
  0
BLOCK_RECORD
  5
683
330
1
100
AcDbSymbolTableRecord
100
AcDbBlockTableRecord
  2
_OPEN30
1001
CONTENTBLOCKICON
1071
        0
1004
2800000020000000200000000100080000000000000400000000000000000000000000000000000000000000000080000080000000808000800000008000800080800000C0C0C000C0DCC000F0CAA6000020400000206000002080000020A0000020C0000020E00000400000004020000040400000406000004080000040A0
1004
000040C0000040E00000600000006020000060400000606000006080000060A0000060C0000060E00000800000008020000080400000806000008080000080A0000080C0000080E00000A0000000A0200000A0400000A0600000A0800000A0A00000A0C00000A0E00000C0000000C0200000C0400000C0600000C0800000C0
1004
A00000C0C00000C0E00000E0000000E0200000E0400000E0600000E0800000E0A00000E0C00000E0E00040000000400020004000400040006000400080004000A0004000C0004000E00040200000402020004020400040206000402080004020A0004020C0004020E000404000004040200040404000404060004040800040
1004
40A0004040C0004040E00040600000406020004060400040606000406080004060A0004060C0004060E00040800000408020004080400040806000408080004080A0004080C0004080E00040A0000040A0200040A0400040A0600040A0800040A0A00040A0C00040A0E00040C0000040C0200040C0400040C0600040C08000
1004
40C0A00040C0C00040C0E00040E0000040E0200040E0400040E0600040E0800040E0A00040E0C00040E0E00080000000800020008000400080006000800080008000A0008000C0008000E00080200000802020008020400080206000802080008020A0008020C0008020E00080400000804020008040400080406000804080
1004
008040A0008040C0008040E00080600000806020008060400080606000806080008060A0008060C0008060E00080800000808020008080400080806000808080008080A0008080C0008080E00080A0000080A0200080A0400080A0600080A0800080A0A00080A0C00080A0E00080C0000080C0200080C0400080C0600080C0
1004
800080C0A00080C0C00080C0E00080E0000080E0200080E0400080E0600080E0800080E0A00080E0C00080E0E000C0000000C0002000C0004000C0006000C0008000C000A000C000C000C000E000C0200000C0202000C0204000C0206000C0208000C020A000C020C000C020E000C0400000C0402000C0404000C0406000C0
1004
408000C040A000C040C000C040E000C0600000C0602000C0604000C0606000C0608000C060A000C060C000C060E000C0800000C0802000C0804000C0806000C0808000C080A000C080C000C080E000C0A00000C0A02000C0A04000C0A06000C0A08000C0A0A000C0A0C000C0A0E000C0C00000C0C02000C0C04000C0C06000
1004
C0C08000C0C0A000F0FBFF00A4A0A000808080000000FF0000FF000000FFFF00FF000000FF00FF00FFFF0000FFFFFF0000000000000000000000000000000000000000000000000000000000000000000000000000000000000000000000000000000000000000000000000000000000000000000000000000000000000000
1004
00000000000000000000000000000000000000000000000000000000000000000000000000000000000000000000000000000000000000000000000000000000000000000000000000000000000000000000000000000000000000000000000000000000000000000000000000000000000000000000000000000000000000
1004
000000000000000000000000000000000000000000000000000000000000000000000000000000000000000000000000000000FFFF0000000000000000000000000000000000000000000000000000000000000000FFFFFFFF0000000000000000000000000000000000000000000000000000000000000000FFFFFFFF0000
1004
000000000000000000000000000000000000000000000000000000000000FFFFFF0000000000000000000000000000000000000000000000000000000000000000FFFFFFFF0000000000000000000000000000000000000000000000000000000000000000FFFFFF0000000000000000000000000000000000000000000000
1004
000000000000000000FFFFFFFF0000000000000000000000000000000000000000000000000000000000000000FFFFFFFF00000000FFFFFFFFFFFFFFFFFFFFFFFFFFFFFFFFFFFFFFFFFFFFFFFFFFFFFFFFFFFF00000000000000000000000000000000000000000000000000FFFFFFFF000000000000000000000000000000
1004
000000000000000000FFFFFFFF000000000000000000000000000000000000000000000000FFFFFFFF000000000000000000000000000000000000000000000000FFFFFFFF000000000000000000000000000000000000000000000000FFFFFFFF000000000000000000000000000000000000000000000000FFFFFFFF0000
1004
0000000000000000000000000000000000000000000000FFFFFF0000000000000000000000000000000000000000000000000000000000000000000000000000000000000000000000000000000000000000000000000000000000000000000000000000000000000000000000000000000000000000000000000000000000
1004
00000000000000000000000000000000000000000000000000000000000000000000000000000000000000000000000000000000000000000000000000000000000000000000000000000000000000000000000000000000000000000000000000000000000000000000000000000000000000000000000000000000000000
1004
0000000000000000000000000000000000000000000000000000000000000000000000000000000000000000000000000000000000000000
  0
BLOCK_RECORD
  5
6EB
330
1
100
AcDbSymbolTableRecord
100
AcDbBlockTableRecord
  2
*D1
  0
BLOCK_RECORD
  5
71D
330
1
100
AcDbSymbolTableRecord
100
AcDbBlockTableRecord
  2
*D2
  0
BLOCK_RECORD
  5
72C
330
1
100
AcDbSymbolTableRecord
100
AcDbBlockTableRecord
  2
*D3
  0
BLOCK_RECORD
  5
739
330
1
100
AcDbSymbolTableRecord
100
AcDbBlockTableRecord
  2
*D4
  0
BLOCK_RECORD
  5
748
330
1
100
AcDbSymbolTableRecord
100
AcDbBlockTableRecord
  2
*D5
  0
BLOCK_RECORD
  5
755
330
1
100
AcDbSymbolTableRecord
100
AcDbBlockTableRecord
  2
*D6
  0
BLOCK_RECORD
  5
764
330
1
100
AcDbSymbolTableRecord
100
AcDbBlockTableRecord
  2
*D7
  0
BLOCK_RECORD
  5
771
330
1
100
AcDbSymbolTableRecord
100
AcDbBlockTableRecord
  2
*D8
  0
BLOCK_RECORD
  5
77E
330
1
100
AcDbSymbolTableRecord
100
AcDbBlockTableRecord
  2
*D9
  0
BLOCK_RECORD
  5
7A9
330
1
100
AcDbSymbolTableRecord
100
AcDbBlockTableRecord
  2
*D10
  0
BLOCK_RECORD
  5
7B8
330
1
100
AcDbSymbolTableRecord
100
AcDbBlockTableRecord
  2
*D11
  0
BLOCK_RECORD
  5
7C5
330
1
100
AcDbSymbolTableRecord
100
AcDbBlockTableRecord
  2
*D12
  0
BLOCK_RECORD
  5
7D2
330
1
100
AcDbSymbolTableRecord
100
AcDbBlockTableRecord
  2
*D13
  0
BLOCK_RECORD
  5
7DF
330
1
100
AcDbSymbolTableRecord
100
AcDbBlockTableRecord
  2
*D14
  0
BLOCK_RECORD
  5
7EC
330
1
100
AcDbSymbolTableRecord
100
AcDbBlockTableRecord
  2
*D15
  0
BLOCK_RECORD
  5
7F9
330
1
100
AcDbSymbolTableRecord
100
AcDbBlockTableRecord
  2
*D16
  0
BLOCK_RECORD
  5
806
330
1
100
AcDbSymbolTableRecord
100
AcDbBlockTableRecord
  2
*D17
  0
BLOCK_RECORD
  5
813
330
1
100
AcDbSymbolTableRecord
100
AcDbBlockTableRecord
  2
*D18
  0
BLOCK_RECORD
  5
820
330
1
100
AcDbSymbolTableRecord
100
AcDbBlockTableRecord
  2
*D19
  0
BLOCK_RECORD
  5
82D
330
1
100
AcDbSymbolTableRecord
100
AcDbBlockTableRecord
  2
*D20
  0
ENDTAB
  0
ENDSEC
  0
SECTION
  2
BLOCKS
  0
BLOCK
  5
D
330
A
100
AcDbEntity
  8
0
100
AcDbBlockBegin
  2
*MODEL_SPACE
 70
     0
 10
0.0
 20
0.0
 30
0.0
  3
*MODEL_SPACE
  1

  0
ENDBLK
  5
E
330
A
100
AcDbEntity
  8
0
100
AcDbBlockEnd
  0
BLOCK
  5
F
330
B
100
AcDbEntity
 67
     1
  8
0
100
AcDbBlockBegin
  2
*PAPER_SPACE
 70
     0
 10
0.0
 20
0.0
 30
0.0
  3
*PAPER_SPACE
  1

  0
ENDBLK
  5
10
330
B
100
AcDbEntity
 67
     1
  8
0
100
AcDbBlockEnd
  0
BLOCK
  5
687
330
683
100
AcDbEntity
  8
0
100
AcDbBlockBegin
  2
_OPEN30
 70
     0
 10
0.0
 20
0.0
 30
0.0
  3
_OPEN30
  1

  0
LINE
  5
684
330
683
100
AcDbEntity
  8
0
  6
BYBLOCK
 62
     0
100
AcDbLine
 10
-1.0
 20
0.26794919
 30
0.0
 11
0.0
 21
0.0
 31
0.0
  0
LINE
  5
685
330
683
100
AcDbEntity
  8
0
  6
BYBLOCK
 62
     0
100
AcDbLine
 10
0.0
 20
0.0
 30
0.0
 11
-1.0
 21
-0.26794919
 31
0.0
  0
LINE
  5
686
330
683
100
AcDbEntity
  8
0
  6
BYBLOCK
 62
     0
100
AcDbLine
 10
0.0
 20
0.0
 30
0.0
 11
-1.0
 21
0.0
 31
0.0
  0
ENDBLK
  5
688
330
683
100
AcDbEntity
  8
0
100
AcDbBlockEnd
  0
BLOCK
  5
6F5
330
6EB
100
AcDbEntity
  8
0
100
AcDbBlockBegin
  2
*D1
 70
     1
 10
0.0
 20
0.0
 30
0.0
  3
*D1
  1

  0
LINE
  5
149C
330
6EB
100
AcDbEntity
  8
SUNPOU
100
AcDbLine
 10
56.20977528139514
 20
90.74776886804114
 30
0.0
 11
56.20977528139514
 21
71.82833532861426
 31
0.0
  0
LINE
  5
149D
330
6EB
100
AcDbEntity
  8
SUNPOU
100
AcDbLine
 10
106.2097752813951
 20
90.74776886804114
 30
0.0
 11
106.2097752813951
 21
71.82833532861426
 31
0.0
  0
LINE
  5
149E
330
6EB
100
AcDbEntity
  8
SUNPOU
100
AcDbLine
 10
59.95977528139514
 20
73.32833532861426
 30
0.0
 11
102.459775281395
 21
73.32833532861426
 31
0.0
  0
INSERT
  5
149F
330
6EB
100
AcDbEntity
  8
SUNPOU
100
AcDbBlockReference
  2
_OPEN30
 10
56.20977528139514
 20
73.32833532861426
 30
0.0
 41
3.75
 42
3.75
 43
3.75
 50
180.0
  0
INSERT
  5
14A0
330
6EB
100
AcDbEntity
  8
SUNPOU
100
AcDbBlockReference
  2
_OPEN30
 10
106.2097752813951
 20
73.32833532861426
 30
0.0
 41
3.75
 42
3.75
 43
3.75
  0
MTEXT
  5
14A1
330
6EB
100
AcDbEntity
  8
SUNPOU
 62
     6
100
AcDbMText
 10
81.20977528139514
 20
76.70333532861426
 30
0.0
 40
3.75
 41
0.0
 71
     5
 72
     1
  1
\A1;50
  7
SUNPOU
1001
ACAD
1000
MTEXTBEGIN
1070
    73
1070
     1
1070
    44
1040
1.0
1070
    74
1070
     0
1000
MTEXTEND
1000
MTEXTBEGIN
1070
    73
1070
     1
1070
    44
1040
1.0
1070
    74
1070
     0
1000
MTEXTEND
  0
POINT
  5
14A2
330
6EB
100
AcDbEntity
  8
DEFPOINTS
 62
     0
100
AcDbPoint
 10
56.20977528139514
 20
92.99776886804114
 30
0.0
  0
POINT
  5
14A3
330
6EB
100
AcDbEntity
  8
DEFPOINTS
 62
     0
100
AcDbPoint
 10
106.2097752813951
 20
92.99776886804114
 30
0.0
  0
POINT
  5
14A4
330
6EB
100
AcDbEntity
  8
DEFPOINTS
 62
     0
100
AcDbPoint
 10
106.2097752813951
 20
73.32833532861426
 30
0.0
  0
ENDBLK
  5
6F6
330
6EB
100
AcDbEntity
  8
0
100
AcDbBlockEnd
  0
BLOCK
  5
729
330
71D
100
AcDbEntity
  8
0
100
AcDbBlockBegin
  2
*D2
 70
     1
 10
0.0
 20
0.0
 30
0.0
  3
*D2
  1

  0
LINE
  5
14A5
330
71D
100
AcDbEntity
  8
SUNPOU
100
AcDbLine
 10
106.2097752813951
 20
90.74776886804109
 30
0.0
 11
106.2097752813951
 21
71.82833532861426
 31
0.0
  0
LINE
  5
14A6
330
71D
100
AcDbEntity
  8
SUNPOU
100
AcDbLine
 10
111.2097752813951
 20
75.57833532861426
 30
0.0
 11
111.2097752813951
 21
74.82833532861426
 31
0.0
  0
LINE
  5
14A7
330
71D
100
AcDbEntity
  8
SUNPOU
100
AcDbLine
 10
102.459775281395
 20
73.32833532861426
 30
0.0
 11
98.70977528139516
 21
73.32833532861426
 31
0.0
  0
LINE
  5
14A8
330
71D
100
AcDbEntity
  8
SUNPOU
100
AcDbLine
 10
114.959775281395
 20
73.32833532861426
 30
0.0
 11
118.7097752813951
 21
73.32833532861426
 31
0.0
  0
MTEXT
  5
14A9
330
71D
100
AcDbEntity
  8
SUNPOU
 62
     6
100
AcDbMText
 10
108.709775281395
 20
82.70333532861426
 30
0.0
 40
3.75
 41
0.0
 71
     5
 72
     1
  1
\A1;5
  7
SUNPOU
1001
ACAD
1000
MTEXTBEGIN
1070
    73
1070
     1
1070
    44
1040
1.0
1070
    74
1070
     0
1000
MTEXTEND
1000
MTEXTBEGIN
1070
    73
1070
     1
1070
    44
1040
1.0
1070
    74
1070
     0
1000
MTEXTEND
  0
LINE
  5
14AA
330
71D
100
AcDbEntity
  8
SUNPOU
100
AcDbLine
 10
106.2097752813951
 20
73.32833532861426
 30
0.0
 11
111.2097752813951
 21
73.32833532861426
 31
0.0
  0
INSERT
  5
14AB
330
71D
100
AcDbEntity
  8
SUNPOU
100
AcDbBlockReference
  2
_OPEN30
 10
106.2097752813951
 20
73.32833532861426
 30
0.0
 41
3.75
 42
3.75
 43
3.75
  0
INSERT
  5
14AC
330
71D
100
AcDbEntity
  8
SUNPOU
100
AcDbBlockReference
  2
_OPEN30
 10
111.2097752813951
 20
73.32833532861426
 30
0.0
 41
3.75
 42
3.75
 43
3.75
 50
180.0
  0
POINT
  5
14AD
330
71D
100
AcDbEntity
  8
DEFPOINTS
 62
     0
100
AcDbPoint
 10
106.2097752813951
 20
92.99776886804108
 30
0.0
  0
POINT
  5
14AE
330
71D
100
AcDbEntity
  8
DEFPOINTS
 62
     0
100
AcDbPoint
 10
111.2097752813951
 20
73.32833532861426
 30
0.0
  0
POINT
  5
14AF
330
71D
100
AcDbEntity
  8
DEFPOINTS
 62
     0
100
AcDbPoint
 10
111.2097752813951
 20
73.32833532861426
 30
0.0
  0
ENDBLK
  5
72A
330
71D
100
AcDbEntity
  8
0
100
AcDbBlockEnd
  0
BLOCK
  5
736
330
72C
100
AcDbEntity
  8
0
100
AcDbBlockBegin
  2
*D3
 70
     1
 10
0.0
 20
0.0
 30
0.0
  3
*D3
  1

  0
LINE
  5
14B0
330
72C
100
AcDbEntity
  8
SUNPOU
100
AcDbLine
 10
111.2097752813951
 20
75.57833532861426
 30
0.0
 11
111.2097752813951
 21
74.82833532861426
 31
0.0
  0
LINE
  5
14B1
330
72C
100
AcDbEntity
  8
SUNPOU
100
AcDbLine
 10
151.209775281395
 20
75.57833532861426
 30
0.0
 11
151.209775281395
 21
74.82833532861426
 31
0.0
  0
LINE
  5
14B2
330
72C
100
AcDbEntity
  8
SUNPOU
100
AcDbLine
 10
114.959775281395
 20
73.32833532861426
 30
0.0
 11
147.459775281395
 21
73.32833532861426
 31
0.0
  0
INSERT
  5
14B3
330
72C
100
AcDbEntity
  8
SUNPOU
100
AcDbBlockReference
  2
_OPEN30
 10
111.2097752813951
 20
73.32833532861426
 30
0.0
 41
3.75
 42
3.75
 43
3.75
 50
180.0
  0
INSERT
  5
14B4
330
72C
100
AcDbEntity
  8
SUNPOU
100
AcDbBlockReference
  2
_OPEN30
 10
151.209775281395
 20
73.32833532861426
 30
0.0
 41
3.75
 42
3.75
 43
3.75
  0
MTEXT
  5
14B5
330
72C
100
AcDbEntity
  8
SUNPOU
 62
     6
100
AcDbMText
 10
131.209775281395
 20
76.70333532861426
 30
0.0
 40
3.75
 41
0.0
 71
     5
 72
     1
  1
\A1;40
  7
SUNPOU
1001
ACAD
1000
MTEXTBEGIN
1070
    73
1070
     1
1070
    44
1040
1.0
1070
    74
1070
     0
1000
MTEXTEND
1000
MTEXTBEGIN
1070
    73
1070
     1
1070
    44
1040
1.0
1070
    74
1070
     0
1000
MTEXTEND
  0
POINT
  5
14B6
330
72C
100
AcDbEntity
  8
DEFPOINTS
 62
     0
100
AcDbPoint
 10
111.2097752813951
 20
73.32833532861426
 30
0.0
  0
POINT
  5
14B7
330
72C
100
AcDbEntity
  8
DEFPOINTS
 62
     0
100
AcDbPoint
 10
151.209775281395
 20
73.32833532861426
 30
0.0
  0
POINT
  5
14B8
330
72C
100
AcDbEntity
  8
DEFPOINTS
 62
     0
100
AcDbPoint
 10
151.209775281395
 20
73.32833532861426
 30
0.0
  0
ENDBLK
  5
737
330
72C
100
AcDbEntity
  8
0
100
AcDbBlockEnd
  0
BLOCK
  5
745
330
739
100
AcDbEntity
  8
0
100
AcDbBlockBegin
  2
*D4
 70
     1
 10
0.0
 20
0.0
 30
0.0
  3
*D4
  1

  0
LINE
  5
14B9
330
739
100
AcDbEntity
  8
SUNPOU
100
AcDbLine
 10
151.209775281395
 20
75.57833532861426
 30
0.0
 11
151.209775281395
 21
74.82833532861426
 31
0.0
  0
LINE
  5
14BA
330
739
100
AcDbEntity
  8
SUNPOU
100
AcDbLine
 10
156.209775281395
 20
75.57833532861426
 30
0.0
 11
156.209775281395
 21
74.82833532861426
 31
0.0
  0
LINE
  5
14BB
330
739
100
AcDbEntity
  8
SUNPOU
100
AcDbLine
 10
147.459775281395
 20
73.32833532861426
 30
0.0
 11
143.709775281395
 21
73.32833532861426
 31
0.0
  0
LINE
  5
14BC
330
739
100
AcDbEntity
  8
SUNPOU
100
AcDbLine
 10
159.959775281395
 20
73.32833532861426
 30
0.0
 11
163.709775281395
 21
73.32833532861426
 31
0.0
  0
MTEXT
  5
14BD
330
739
100
AcDbEntity
  8
SUNPOU
 62
     6
100
AcDbMText
 10
153.709775281395
 20
76.6696823103764
 30
0.0
 40
3.75
 41
0.0
 71
     5
 72
     1
  1
\A1;5
  7
SUNPOU
1001
ACAD
1000
MTEXTBEGIN
1070
    73
1070
     1
1070
    44
1040
1.0
1070
    74
1070
     0
1000
MTEXTEND
1000
MTEXTBEGIN
1070
    73
1070
     1
1070
    44
1040
1.0
1070
    74
1070
     0
1000
MTEXTEND
  0
LINE
  5
14BE
330
739
100
AcDbEntity
  8
SUNPOU
100
AcDbLine
 10
151.209775281395
 20
73.32833532861426
 30
0.0
 11
156.209775281395
 21
73.32833532861426
 31
0.0
  0
INSERT
  5
14BF
330
739
100
AcDbEntity
  8
SUNPOU
100
AcDbBlockReference
  2
_OPEN30
 10
151.209775281395
 20
73.32833532861426
 30
0.0
 41
3.75
 42
3.75
 43
3.75
  0
INSERT
  5
14C0
330
739
100
AcDbEntity
  8
SUNPOU
100
AcDbBlockReference
  2
_OPEN30
 10
156.209775281395
 20
73.32833532861426
 30
0.0
 41
3.75
 42
3.75
 43
3.75
 50
180.0
  0
POINT
  5
14C1
330
739
100
AcDbEntity
  8
DEFPOINTS
 62
     0
100
AcDbPoint
 10
151.209775281395
 20
73.32833532861426
 30
0.0
  0
POINT
  5
14C2
330
739
100
AcDbEntity
  8
DEFPOINTS
 62
     0
100
AcDbPoint
 10
156.209775281395
 20
73.32833532861426
 30
0.0
  0
POINT
  5
14C3
330
739
100
AcDbEntity
  8
DEFPOINTS
 62
     0
100
AcDbPoint
 10
156.209775281395
 20
73.32833532861426
 30
0.0
  0
ENDBLK
  5
746
330
739
100
AcDbEntity
  8
0
100
AcDbBlockEnd
  0
BLOCK
  5
752
330
748
100
AcDbEntity
  8
0
100
AcDbBlockBegin
  2
*D5
 70
     1
 10
0.0
 20
0.0
 30
0.0
  3
*D5
  1

  0
LINE
  5
14C4
330
748
100
AcDbEntity
  8
SUNPOU
100
AcDbLine
 10
156.209775281395
 20
75.57833532861426
 30
0.0
 11
156.209775281395
 21
74.82833532861426
 31
0.0
  0
LINE
  5
14C5
330
748
100
AcDbEntity
  8
SUNPOU
100
AcDbLine
 10
196.209775281395
 20
75.57833532861426
 30
0.0
 11
196.209775281395
 21
74.82833532861426
 31
0.0
  0
LINE
  5
14C6
330
748
100
AcDbEntity
  8
SUNPOU
100
AcDbLine
 10
159.959775281395
 20
73.32833532861426
 30
0.0
 11
192.459775281395
 21
73.32833532861426
 31
0.0
  0
INSERT
  5
14C7
330
748
100
AcDbEntity
  8
SUNPOU
100
AcDbBlockReference
  2
_OPEN30
 10
156.209775281395
 20
73.32833532861426
 30
0.0
 41
3.75
 42
3.75
 43
3.75
 50
180.0
  0
INSERT
  5
14C8
330
748
100
AcDbEntity
  8
SUNPOU
100
AcDbBlockReference
  2
_OPEN30
 10
196.209775281395
 20
73.32833532861426
 30
0.0
 41
3.75
 42
3.75
 43
3.75
  0
MTEXT
  5
14C9
330
748
100
AcDbEntity
  8
SUNPOU
 62
     6
100
AcDbMText
 10
176.209775281395
 20
76.70333532861426
 30
0.0
 40
3.75
 41
0.0
 71
     5
 72
     1
  1
\A1;40
  7
SUNPOU
1001
ACAD
1000
MTEXTBEGIN
1070
    73
1070
     1
1070
    44
1040
1.0
1070
    74
1070
     0
1000
MTEXTEND
1000
MTEXTBEGIN
1070
    73
1070
     1
1070
    44
1040
1.0
1070
    74
1070
     0
1000
MTEXTEND
  0
POINT
  5
14CA
330
748
100
AcDbEntity
  8
DEFPOINTS
 62
     0
100
AcDbPoint
 10
156.209775281395
 20
73.32833532861426
 30
0.0
  0
POINT
  5
14CB
330
748
100
AcDbEntity
  8
DEFPOINTS
 62
     0
100
AcDbPoint
 10
196.209775281395
 20
73.32833532861426
 30
0.0
  0
POINT
  5
14CC
330
748
100
AcDbEntity
  8
DEFPOINTS
 62
     0
100
AcDbPoint
 10
196.209775281395
 20
73.32833532861426
 30
0.0
  0
ENDBLK
  5
753
330
748
100
AcDbEntity
  8
0
100
AcDbBlockEnd
  0
BLOCK
  5
761
330
755
100
AcDbEntity
  8
0
100
AcDbBlockBegin
  2
*D6
 70
     1
 10
0.0
 20
0.0
 30
0.0
  3
*D6
  1

  0
LINE
  5
14CD
330
755
100
AcDbEntity
  8
SUNPOU
100
AcDbLine
 10
196.209775281395
 20
75.57833532861426
 30
0.0
 11
196.209775281395
 21
74.82833532861426
 31
0.0
  0
LINE
  5
14CE
330
755
100
AcDbEntity
  8
SUNPOU
100
AcDbLine
 10
201.209775281395
 20
90.74776886804114
 30
0.0
 11
201.209775281395
 21
71.82833532861426
 31
0.0
  0
LINE
  5
14CF
330
755
100
AcDbEntity
  8
SUNPOU
100
AcDbLine
 10
192.459775281395
 20
73.32833532861426
 30
0.0
 11
188.709775281395
 21
73.32833532861426
 31
0.0
  0
LINE
  5
14D0
330
755
100
AcDbEntity
  8
SUNPOU
100
AcDbLine
 10
204.9597752813951
 20
73.32833532861426
 30
0.0
 11
208.7097752813951
 21
73.32833532861426
 31
0.0
  0
LINE
  5
14D1
330
755
100
AcDbEntity
  8
SUNPOU
100
AcDbLine
 10
196.209775281395
 20
73.32833532861426
 30
0.0
 11
201.209775281395
 21
73.32833532861426
 31
0.0
  0
INSERT
  5
14D2
330
755
100
AcDbEntity
  8
SUNPOU
100
AcDbBlockReference
  2
_OPEN30
 10
196.209775281395
 20
73.32833532861426
 30
0.0
 41
3.75
 42
3.75
 43
3.75
  0
INSERT
  5
14D3
330
755
100
AcDbEntity
  8
SUNPOU
100
AcDbBlockReference
  2
_OPEN30
 10
201.209775281395
 20
73.32833532861426
 30
0.0
 41
3.75
 42
3.75
 43
3.75
 50
180.0
  0
MTEXT
  5
14D4
330
755
100
AcDbEntity
  8
SUNPOU
 62
     6
100
AcDbMText
 10
198.7097752813951
 20
76.70333532861426
 30
0.0
 40
3.75
 41
0.0
 71
     5
 72
     1
  1
\A1;5
  7
SUNPOU
1001
ACAD
1000
MTEXTBEGIN
1070
    73
1070
     1
1070
    44
1040
1.0
1070
    74
1070
     0
1000
MTEXTEND
1000
MTEXTBEGIN
1070
    73
1070
     1
1070
    44
1040
1.0
1070
    74
1070
     0
1000
MTEXTEND
  0
POINT
  5
14D5
330
755
100
AcDbEntity
  8
DEFPOINTS
 62
     0
100
AcDbPoint
 10
196.209775281395
 20
73.32833532861426
 30
0.0
  0
POINT
  5
14D6
330
755
100
AcDbEntity
  8
DEFPOINTS
 62
     0
100
AcDbPoint
 10
201.209775281395
 20
92.99776886804114
 30
0.0
  0
POINT
  5
14D7
330
755
100
AcDbEntity
  8
DEFPOINTS
 62
     0
100
AcDbPoint
 10
201.209775281395
 20
73.32833532861426
 30
0.0
  0
ENDBLK
  5
762
330
755
100
AcDbEntity
  8
0
100
AcDbBlockEnd
  0
BLOCK
  5
76E
330
764
100
AcDbEntity
  8
0
100
AcDbBlockBegin
  2
*D7
 70
     1
 10
0.0
 20
0.0
 30
0.0
  3
*D7
  1

  0
LINE
  5
14D8
330
764
100
AcDbEntity
  8
SUNPOU
100
AcDbLine
 10
201.209775281395
 20
90.74776886804114
 30
0.0
 11
201.209775281395
 21
71.82833532861426
 31
0.0
  0
LINE
  5
14D9
330
764
100
AcDbEntity
  8
SUNPOU
100
AcDbLine
 10
266.2097752813951
 20
75.57833532861423
 30
0.0
 11
266.2097752813951
 21
74.82833532861426
 31
0.0
  0
LINE
  5
14DA
330
764
100
AcDbEntity
  8
SUNPOU
100
AcDbLine
 10
204.9597752813951
 20
73.32833532861426
 30
0.0
 11
262.4597752813951
 21
73.32833532861426
 31
0.0
  0
INSERT
  5
14DB
330
764
100
AcDbEntity
  8
SUNPOU
100
AcDbBlockReference
  2
_OPEN30
 10
201.209775281395
 20
73.32833532861426
 30
0.0
 41
3.75
 42
3.75
 43
3.75
 50
180.0
  0
INSERT
  5
14DC
330
764
100
AcDbEntity
  8
SUNPOU
100
AcDbBlockReference
  2
_OPEN30
 10
266.2097752813951
 20
73.32833532861426
 30
0.0
 41
3.75
 42
3.75
 43
3.75
  0
MTEXT
  5
14DD
330
764
100
AcDbEntity
  8
SUNPOU
 62
     6
100
AcDbMText
 10
233.7097752813951
 20
76.70333532861426
 30
0.0
 40
3.75
 41
0.0
 71
     5
 72
     1
  1
\A1;65
  7
SUNPOU
1001
ACAD
1000
MTEXTBEGIN
1070
    73
1070
     1
1070
    44
1040
1.0
1070
    74
1070
     0
1000
MTEXTEND
1000
MTEXTBEGIN
1070
    73
1070
     1
1070
    44
1040
1.0
1070
    74
1070
     0
1000
MTEXTEND
  0
POINT
  5
14DE
330
764
100
AcDbEntity
  8
DEFPOINTS
 62
     0
100
AcDbPoint
 10
201.209775281395
 20
92.99776886804114
 30
0.0
  0
POINT
  5
14DF
330
764
100
AcDbEntity
  8
DEFPOINTS
 62
     0
100
AcDbPoint
 10
266.2097752813951
 20
73.32833532861423
 30
0.0
  0
POINT
  5
14E0
330
764
100
AcDbEntity
  8
DEFPOINTS
 62
     0
100
AcDbPoint
 10
266.2097752813951
 20
73.32833532861426
 30
0.0
  0
ENDBLK
  5
76F
330
764
100
AcDbEntity
  8
0
100
AcDbBlockEnd
  0
BLOCK
  5
77B
330
771
100
AcDbEntity
  8
0
100
AcDbBlockBegin
  2
*D8
 70
     1
 10
0.0
 20
0.0
 30
0.0
  3
*D8
  1

  0
LINE
  5
14E1
330
771
100
AcDbEntity
  8
SUNPOU
100
AcDbLine
 10
266.2097752813951
 20
90.74776886804107
 30
0.0
 11
266.2097752813951
 21
43.0151035945154
 31
0.0
  0
LINE
  5
14E2
330
771
100
AcDbEntity
  8
SUNPOU
100
AcDbLine
 10
56.20977528139514
 20
90.74776886804114
 30
0.0
 11
56.20977528139514
 21
43.0151035945154
 31
0.0
  0
LINE
  5
14E3
330
771
100
AcDbEntity
  8
SUNPOU
100
AcDbLine
 10
262.4597752813951
 20
44.51510359451538
 30
0.0
 11
59.95977528139514
 21
44.51510359451538
 31
0.0
  0
INSERT
  5
14E4
330
771
100
AcDbEntity
  8
SUNPOU
100
AcDbBlockReference
  2
_OPEN30
 10
266.2097752813951
 20
44.51510359451538
 30
0.0
 41
3.75
 42
3.75
 43
3.75
  0
INSERT
  5
14E5
330
771
100
AcDbEntity
  8
SUNPOU
100
AcDbBlockReference
  2
_OPEN30
 10
56.20977528139514
 20
44.51510359451538
 30
0.0
 41
3.75
 42
3.75
 43
3.75
 50
180.0
  0
MTEXT
  5
14E6
330
771
100
AcDbEntity
  8
SUNPOU
 62
     6
100
AcDbMText
 10
161.209775281395
 20
47.89010359451538
 30
0.0
 40
3.75
 41
0.0
 71
     5
 72
     1
  1
\A1;210
  7
SUNPOU
1001
ACAD
1000
MTEXTBEGIN
1070
    73
1070
     1
1070
    44
1040
1.0
1070
    74
1070
     0
1000
MTEXTEND
1000
MTEXTBEGIN
1070
    73
1070
     1
1070
    44
1040
1.0
1070
    74
1070
     0
1000
MTEXTEND
  0
POINT
  5
14E7
330
771
100
AcDbEntity
  8
DEFPOINTS
 62
     0
100
AcDbPoint
 10
266.2097752813951
 20
92.99776886804108
 30
0.0
  0
POINT
  5
14E8
330
771
100
AcDbEntity
  8
DEFPOINTS
 62
     0
100
AcDbPoint
 10
56.20977528139514
 20
92.99776886804114
 30
0.0
  0
POINT
  5
14E9
330
771
100
AcDbEntity
  8
DEFPOINTS
 62
     0
100
AcDbPoint
 10
56.20977528139514
 20
44.51510359451538
 30
0.0
  0
ENDBLK
  5
77C
330
771
100
AcDbEntity
  8
0
100
AcDbBlockEnd
  0
BLOCK
  5
788
330
77E
100
AcDbEntity
  8
0
100
AcDbBlockBegin
  2
*D9
 70
     1
 10
0.0
 20
0.0
 30
0.0
  3
*D9
  1

  0
LINE
  5
14EA
330
77E
100
AcDbEntity
  8
SUNPOU
100
AcDbLine
 10
131.209775281395
 20
60.41599550073176
 30
0.0
 11
131.209775281395
 21
59.66599550073175
 31
0.0
  0
LINE
  5
14EB
330
77E
100
AcDbEntity
  8
SUNPOU
100
AcDbLine
 10
176.2097752813951
 20
59.81599550073174
 30
0.0
 11
176.2097752813951
 21
59.66599550073175
 31
0.0
  0
LINE
  5
14EC
330
77E
100
AcDbEntity
  8
SUNPOU
100
AcDbLine
 10
134.959775281395
 20
58.16599550073175
 30
0.0
 11
172.4597752813951
 21
58.16599550073175
 31
0.0
  0
INSERT
  5
14ED
330
77E
100
AcDbEntity
  8
SUNPOU
100
AcDbBlockReference
  2
_OPEN30
 10
131.209775281395
 20
58.16599550073175
 30
0.0
 41
3.75
 42
3.75
 43
3.75
 50
180.0
  0
INSERT
  5
14EE
330
77E
100
AcDbEntity
  8
SUNPOU
100
AcDbBlockReference
  2
_OPEN30
 10
176.2097752813951
 20
58.16599550073175
 30
0.0
 41
3.75
 42
3.75
 43
3.75
  0
MTEXT
  5
14EF
330
77E
100
AcDbEntity
  8
SUNPOU
 62
     6
100
AcDbMText
 10
153.709775281395
 20
61.54099550073175
 30
0.0
 40
3.75
 41
0.0
 71
     5
 72
     1
  1
\A1;45
  7
SUNPOU
1001
ACAD
1000
MTEXTBEGIN
1070
    73
1070
     1
1070
    44
1040
1.0
1070
    74
1070
     0
1000
MTEXTEND
1000
MTEXTBEGIN
1070
    73
1070
     1
1070
    44
1040
1.0
1070
    74
1070
     0
1000
MTEXTEND
  0
POINT
  5
14F0
330
77E
100
AcDbEntity
  8
DEFPOINTS
 62
     0
100
AcDbPoint
 10
131.209775281395
 20
58.16599550073175
 30
0.0
  0
POINT
  5
14F1
330
77E
100
AcDbEntity
  8
DEFPOINTS
 62
     0
100
AcDbPoint
 10
176.2097752813951
 20
57.56599550073175
 30
0.0
  0
POINT
  5
14F2
330
77E
100
AcDbEntity
  8
DEFPOINTS
 62
     0
100
AcDbPoint
 10
176.2097752813951
 20
58.16599550073175
 30
0.0
  0
ENDBLK
  5
789
330
77E
100
AcDbEntity
  8
0
100
AcDbBlockEnd
  0
BLOCK
  5
7B5
330
7A9
100
AcDbEntity
  8
0
100
AcDbBlockBegin
  2
*D10
 70
     1
 10
0.0
 20
0.0
 30
0.0
  3
*D10
  1

  0
LINE
  5
14F3
330
7A9
100
AcDbEntity
  8
SUNPOU
100
AcDbLine
 10
203.459775281395
 20
101.497768868041
 30
0.0
 11
212.6289847113314
 21
101.497768868041
 31
0.0
  0
LINE
  5
14F4
330
7A9
100
AcDbEntity
  8
SUNPOU
100
AcDbLine
 10
209.8627400840649
 20
91.4977688680411
 30
0.0
 11
212.6289847113314
 21
91.4977688680411
 31
0.0
  0
LINE
  5
14F5
330
7A9
100
AcDbEntity
  8
SUNPOU
100
AcDbLine
 10
211.1289847113314
 20
105.2477688680411
 30
0.0
 11
211.1289847113314
 21
108.9977688680409
 31
0.0
  0
LINE
  5
14F6
330
7A9
100
AcDbEntity
  8
SUNPOU
100
AcDbLine
 10
211.1289847113314
 20
87.7477688680411
 30
0.0
 11
211.1289847113314
 21
83.9977688680411
 31
0.0
  0
LINE
  5
14F7
330
7A9
100
AcDbEntity
  8
SUNPOU
100
AcDbLine
 10
211.1289847113314
 20
101.497768868041
 30
0.0
 11
211.1289847113314
 21
91.4977688680411
 31
0.0
  0
INSERT
  5
14F8
330
7A9
100
AcDbEntity
  8
SUNPOU
100
AcDbBlockReference
  2
_OPEN30
 10
211.1289847113314
 20
101.497768868041
 30
0.0
 41
3.75
 42
3.75
 43
3.75
 50
270.0
  0
INSERT
  5
14F9
330
7A9
100
AcDbEntity
  8
SUNPOU
100
AcDbBlockReference
  2
_OPEN30
 10
211.1289847113314
 20
91.4977688680411
 30
0.0
 41
3.75
 42
3.75
 43
3.75
 50
90.0
  0
MTEXT
  5
14FA
330
7A9
100
AcDbEntity
  8
SUNPOU
 62
     6
100
AcDbMText
 10
207.7539847113313
 20
96.49776886804113
 30
0.0
 40
3.75
 41
0.0
 71
     5
 72
     1
  1
\A1;10
  7
SUNPOU
 11
0.0000000000000001
 21
1.0
 31
0.0
1001
ACAD
1000
MTEXTBEGIN
1070
    73
1070
     1
1070
    44
1040
1.0
1070
    74
1070
     0
1000
MTEXTEND
1000
MTEXTBEGIN
1070
    73
1070
     1
1070
    44
1040
1.0
1070
    74
1070
     0
1000
MTEXTEND
  0
POINT
  5
14FB
330
7A9
100
AcDbEntity
  8
DEFPOINTS
 62
     0
100
AcDbPoint
 10
201.209775281395
 20
101.497768868041
 30
0.0
  0
POINT
  5
14FC
330
7A9
100
AcDbEntity
  8
DEFPOINTS
 62
     0
100
AcDbPoint
 10
207.6127400840649
 20
91.4977688680411
 30
0.0
  0
POINT
  5
14FD
330
7A9
100
AcDbEntity
  8
DEFPOINTS
 62
     0
100
AcDbPoint
 10
211.1289847113314
 20
91.4977688680411
 30
0.0
  0
ENDBLK
  5
7B6
330
7A9
100
AcDbEntity
  8
0
100
AcDbBlockEnd
  0
BLOCK
  5
7C2
330
7B8
100
AcDbEntity
  8
0
100
AcDbBlockBegin
  2
*D11
 70
     1
 10
0.0
 20
0.0
 30
0.0
  3
*D11
  1

  0
LINE
  5
14FE
330
7B8
100
AcDbEntity
  8
SUNPOU
100
AcDbLine
 10
55.45977528139516
 20
91.49776886804113
 30
0.0
 11
29.3718149414518
 21
91.49776886804113
 31
0.0
  0
LINE
  5
14FF
330
7B8
100
AcDbEntity
  8
SUNPOU
100
AcDbLine
 10
55.45977528139532
 20
391.4977688680411
 30
0.0
 11
29.37181494145187
 21
391.4977688680411
 31
0.0
  0
LINE
  5
1500
330
7B8
100
AcDbEntity
  8
SUNPOU
100
AcDbLine
 10
30.8718149414518
 20
95.24776886804113
 30
0.0
 11
30.87181494145188
 21
387.7477688680411
 31
0.0
  0
INSERT
  5
1501
330
7B8
100
AcDbEntity
  8
SUNPOU
100
AcDbBlockReference
  2
_OPEN30
 10
30.8718149414518
 20
91.49776886804113
 30
0.0
 41
3.75
 42
3.75
 43
3.75
 50
270.0
  0
INSERT
  5
1502
330
7B8
100
AcDbEntity
  8
SUNPOU
100
AcDbBlockReference
  2
_OPEN30
 10
30.87181494145188
 20
391.4977688680411
 30
0.0
 41
3.75
 42
3.75
 43
3.75
 50
90.0
  0
MTEXT
  5
1503
330
7B8
100
AcDbEntity
  8
SUNPOU
 62
     6
100
AcDbMText
 10
27.4968149414518
 20
241.497768868041
 30
0.0
 40
3.75
 41
0.0
 71
     5
 72
     1
  1
\A1;300
  7
SUNPOU
 11
0.0000000000000001
 21
1.0
 31
0.0
1001
ACAD
1000
MTEXTBEGIN
1070
    73
1070
     1
1070
    44
1040
1.0
1070
    74
1070
     0
1000
MTEXTEND
1000
MTEXTBEGIN
1070
    73
1070
     1
1070
    44
1040
1.0
1070
    74
1070
     0
1000
MTEXTEND
  0
POINT
  5
1504
330
7B8
100
AcDbEntity
  8
DEFPOINTS
 62
     0
100
AcDbPoint
 10
57.70977528139517
 20
91.49776886804113
 30
0.0
  0
POINT
  5
1505
330
7B8
100
AcDbEntity
  8
DEFPOINTS
 62
     0
100
AcDbPoint
 10
57.70977528139532
 20
391.4977688680411
 30
0.0
  0
POINT
  5
1506
330
7B8
100
AcDbEntity
  8
DEFPOINTS
 62
     0
100
AcDbPoint
 10
30.87181494145188
 20
391.4977688680411
 30
0.0
  0
ENDBLK
  5
7C3
330
7B8
100
AcDbEntity
  8
0
100
AcDbBlockEnd
  0
BLOCK
  5
7CF
330
7C5
100
AcDbEntity
  8
0
100
AcDbBlockBegin
  2
*D12
 70
     1
 10
0.0
 20
0.0
 30
0.0
  3
*D12
  1

  0
LINE
  5
1507
330
7C5
100
AcDbEntity
  8
SUNPOU
100
AcDbLine
 10
136.5597752813951
 20
276.497768868041
 30
0.0
 11
40.92988859584275
 21
276.497768868041
 31
0.0
  0
LINE
  5
1508
330
7C5
100
AcDbEntity
  8
SUNPOU
100
AcDbLine
 10
91.55977528139514
 20
156.4977688680411
 30
0.0
 11
40.92988859584273
 21
156.4977688680411
 31
0.0
  0
LINE
  5
1509
330
7C5
100
AcDbEntity
  8
SUNPOU
100
AcDbLine
 10
42.42988859584275
 20
272.7477688680412
 30
0.0
 11
42.42988859584271
 21
160.2477688680411
 31
0.0
  0
INSERT
  5
150A
330
7C5
100
AcDbEntity
  8
SUNPOU
100
AcDbBlockReference
  2
_OPEN30
 10
42.42988859584275
 20
276.497768868041
 30
0.0
 41
3.75
 42
3.75
 43
3.75
 50
90.0
  0
INSERT
  5
150B
330
7C5
100
AcDbEntity
  8
SUNPOU
100
AcDbBlockReference
  2
_OPEN30
 10
42.42988859584271
 20
156.4977688680411
 30
0.0
 41
3.75
 42
3.75
 43
3.75
 50
270.0
  0
MTEXT
  5
150C
330
7C5
100
AcDbEntity
  8
SUNPOU
 62
     6
100
AcDbMText
 10
39.0548885958427
 20
216.497768868041
 30
0.0
 40
3.75
 41
0.0
 71
     5
 72
     1
  1
\A1;120
  7
SUNPOU
 11
0.0000000000000001
 21
1.0
 31
0.0
1001
ACAD
1000
MTEXTBEGIN
1070
    73
1070
     1
1070
    44
1040
1.0
1070
    74
1070
     0
1000
MTEXTEND
1000
MTEXTBEGIN
1070
    73
1070
     1
1070
    44
1040
1.0
1070
    74
1070
     0
1000
MTEXTEND
  0
POINT
  5
150D
330
7C5
100
AcDbEntity
  8
DEFPOINTS
 62
     0
100
AcDbPoint
 10
138.8097752813951
 20
276.497768868041
 30
0.0
  0
POINT
  5
150E
330
7C5
100
AcDbEntity
  8
DEFPOINTS
 62
     0
100
AcDbPoint
 10
93.80977528139515
 20
156.4977688680411
 30
0.0
  0
POINT
  5
150F
330
7C5
100
AcDbEntity
  8
DEFPOINTS
 62
     0
100
AcDbPoint
 10
42.42988859584271
 20
156.4977688680411
 30
0.0
  0
ENDBLK
  5
7D0
330
7C5
100
AcDbEntity
  8
0
100
AcDbBlockEnd
  0
BLOCK
  5
7DC
330
7D2
100
AcDbEntity
  8
0
100
AcDbBlockBegin
  2
*D13
 70
     1
 10
0.0
 20
0.0
 30
0.0
  3
*D13
  1

  0
LINE
  5
1510
330
7D2
100
AcDbEntity
  8
SUNPOU
100
AcDbLine
 10
91.55977528139514
 20
156.4977688680411
 30
0.0
 11
40.92988859584273
 21
156.4977688680411
 31
0.0
  0
LINE
  5
1511
330
7D2
100
AcDbEntity
  8
SUNPOU
100
AcDbLine
 10
55.45977528139514
 20
91.49776886804113
 30
0.0
 11
40.92988859584271
 21
91.49776886804113
 31
0.0
  0
LINE
  5
1512
330
7D2
100
AcDbEntity
  8
SUNPOU
100
AcDbLine
 10
42.42988859584271
 20
152.7477688680411
 30
0.0
 11
42.42988859584271
 21
95.24776886804113
 31
0.0
  0
INSERT
  5
1513
330
7D2
100
AcDbEntity
  8
SUNPOU
100
AcDbBlockReference
  2
_OPEN30
 10
42.42988859584271
 20
156.4977688680411
 30
0.0
 41
3.75
 42
3.75
 43
3.75
 50
90.0
  0
INSERT
  5
1514
330
7D2
100
AcDbEntity
  8
SUNPOU
100
AcDbBlockReference
  2
_OPEN30
 10
42.42988859584271
 20
91.49776886804113
 30
0.0
 41
3.75
 42
3.75
 43
3.75
 50
270.0
  0
MTEXT
  5
1515
330
7D2
100
AcDbEntity
  8
SUNPOU
 62
     6
100
AcDbMText
 10
39.0548885958427
 20
123.9977688680411
 30
0.0
 40
3.75
 41
0.0
 71
     5
 72
     1
  1
\A1;65
  7
SUNPOU
 11
0.0000000000000001
 21
1.0
 31
0.0
1001
ACAD
1000
MTEXTBEGIN
1070
    73
1070
     1
1070
    44
1040
1.0
1070
    74
1070
     0
1000
MTEXTEND
1000
MTEXTBEGIN
1070
    73
1070
     1
1070
    44
1040
1.0
1070
    74
1070
     0
1000
MTEXTEND
  0
POINT
  5
1516
330
7D2
100
AcDbEntity
  8
DEFPOINTS
 62
     0
100
AcDbPoint
 10
93.80977528139515
 20
156.4977688680411
 30
0.0
  0
POINT
  5
1517
330
7D2
100
AcDbEntity
  8
DEFPOINTS
 62
     0
100
AcDbPoint
 10
57.70977528139514
 20
91.49776886804113
 30
0.0
  0
POINT
  5
1518
330
7D2
100
AcDbEntity
  8
DEFPOINTS
 62
     0
100
AcDbPoint
 10
42.42988859584271
 20
91.49776886804113
 30
0.0
  0
ENDBLK
  5
7DD
330
7D2
100
AcDbEntity
  8
0
100
AcDbBlockEnd
  0
BLOCK
  5
7E9
330
7DF
100
AcDbEntity
  8
0
100
AcDbBlockBegin
  2
*D14
 70
     1
 10
0.0
 20
0.0
 30
0.0
  3
*D14
  1

  0
LINE
  5
1519
330
7DF
100
AcDbEntity
  8
SUNPOU
100
AcDbLine
 10
91.55977528139514
 20
196.497768868041
 30
0.0
 11
79.8746167575875
 21
196.497768868041
 31
0.0
  0
LINE
  5
151A
330
7DF
100
AcDbEntity
  8
SUNPOU
100
AcDbLine
 10
79.12461675758748
 20
156.4977688680411
 30
0.0
 11
79.87461675758748
 21
156.4977688680411
 31
0.0
  0
LINE
  5
151B
330
7DF
100
AcDbEntity
  8
SUNPOU
100
AcDbLine
 10
81.3746167575875
 20
192.747768868041
 30
0.0
 11
81.3746167575875
 21
160.2477688680411
 31
0.0
  0
INSERT
  5
151C
330
7DF
100
AcDbEntity
  8
SUNPOU
100
AcDbBlockReference
  2
_OPEN30
 10
81.3746167575875
 20
196.497768868041
 30
0.0
 41
3.75
 42
3.75
 43
3.75
 50
90.0
  0
INSERT
  5
151D
330
7DF
100
AcDbEntity
  8
SUNPOU
100
AcDbBlockReference
  2
_OPEN30
 10
81.37461675758748
 20
156.4977688680411
 30
0.0
 41
3.75
 42
3.75
 43
3.75
 50
270.0
  0
MTEXT
  5
151E
330
7DF
100
AcDbEntity
  8
SUNPOU
 62
     6
100
AcDbMText
 10
77.99961675758748
 20
176.497768868041
 30
0.0
 40
3.75
 41
0.0
 71
     5
 72
     1
  1
\A1;40
  7
SUNPOU
 11
0.0000000000000001
 21
1.0
 31
0.0
1001
ACAD
1000
MTEXTBEGIN
1070
    73
1070
     1
1070
    44
1040
1.0
1070
    74
1070
     0
1000
MTEXTEND
1000
MTEXTBEGIN
1070
    73
1070
     1
1070
    44
1040
1.0
1070
    74
1070
     0
1000
MTEXTEND
  0
POINT
  5
151F
330
7DF
100
AcDbEntity
  8
DEFPOINTS
 62
     0
100
AcDbPoint
 10
93.80977528139515
 20
196.497768868041
 30
0.0
  0
POINT
  5
1520
330
7DF
100
AcDbEntity
  8
DEFPOINTS
 62
     0
100
AcDbPoint
 10
81.37461675758748
 20
156.4977688680411
 30
0.0
  0
POINT
  5
1521
330
7DF
100
AcDbEntity
  8
DEFPOINTS
 62
     0
100
AcDbPoint
 10
81.37461675758748
 20
156.4977688680411
 30
0.0
  0
ENDBLK
  5
7EA
330
7DF
100
AcDbEntity
  8
0
100
AcDbBlockEnd
  0
BLOCK
  5
7F6
330
7EC
100
AcDbEntity
  8
0
100
AcDbBlockBegin
  2
*D15
 70
     1
 10
0.0
 20
0.0
 30
0.0
  3
*D15
  1

  0
LINE
  5
1522
330
7EC
100
AcDbEntity
  8
SUNPOU
100
AcDbLine
 10
104.2097752813951
 20
207.8474496307239
 30
0.0
 11
104.2097752813951
 21
227.4797510127764
 31
0.0
  0
LINE
  5
1523
330
7EC
100
AcDbEntity
  8
SUNPOU
100
AcDbLine
 10
131.2097752813951
 20
201.747768868041
 30
0.0
 11
131.2097752813951
 21
227.4797510127764
 31
0.0
  0
LINE
  5
1524
330
7EC
100
AcDbEntity
  8
SUNPOU
100
AcDbLine
 10
107.9597752813951
 20
225.9797510127764
 30
0.0
 11
127.4597752813952
 21
225.9797510127764
 31
0.0
  0
MTEXT
  5
1525
330
7EC
100
AcDbEntity
  8
SUNPOU
 62
     6
100
AcDbMText
 10
123.6314300965865
 20
231.3247242202004
 30
0.0
 40
3.75
 41
0.0
 71
     5
 72
     1
  1
\A1;27
  7
SUNPOU
1001
ACAD
1000
MTEXTBEGIN
1070
    73
1070
     1
1070
    44
1040
1.0
1070
    74
1070
     0
1000
MTEXTEND
1000
MTEXTBEGIN
1070
    73
1070
     1
1070
    44
1040
1.0
1070
    74
1070
     0
1000
MTEXTEND
  0
INSERT
  5
1526
330
7EC
100
AcDbEntity
  8
SUNPOU
100
AcDbBlockReference
  2
_OPEN30
 10
104.2097752813951
 20
225.9797510127764
 30
0.0
 41
3.75
 42
3.75
 43
3.75
 50
180.0
  0
INSERT
  5
1527
330
7EC
100
AcDbEntity
  8
SUNPOU
100
AcDbBlockReference
  2
_OPEN30
 10
131.2097752813951
 20
225.9797510127764
 30
0.0
 41
3.75
 42
3.75
 43
3.75
  0
POINT
  5
1528
330
7EC
100
AcDbEntity
  8
DEFPOINTS
 62
     0
100
AcDbPoint
 10
104.2097752813951
 20
205.5974496307239
 30
0.0
  0
POINT
  5
1529
330
7EC
100
AcDbEntity
  8
DEFPOINTS
 62
     0
100
AcDbPoint
 10
131.2097752813951
 20
199.497768868041
 30
0.0
  0
POINT
  5
152A
330
7EC
100
AcDbEntity
  8
DEFPOINTS
 62
     0
100
AcDbPoint
 10
131.2097752813951
 20
225.9797510127764
 30
0.0
  0
ENDBLK
  5
7F7
330
7EC
100
AcDbEntity
  8
0
100
AcDbBlockEnd
  0
BLOCK
  5
803
330
7F9
100
AcDbEntity
  8
0
100
AcDbBlockBegin
  2
*D16
 70
     1
 10
0.0
 20
0.0
 30
0.0
  3
*D16
  1

  0
LINE
  5
152B
330
7F9
100
AcDbEntity
  8
SUNPOU
100
AcDbLine
 10
107.9597752813951
 20
246.497768868041
 30
0.0
 11
79.87461675758748
 21
246.497768868041
 31
0.0
  0
LINE
  5
152C
330
7F9
100
AcDbEntity
  8
SUNPOU
100
AcDbLine
 10
79.12461675758748
 20
276.497768868041
 30
0.0
 11
79.87461675758748
 21
276.497768868041
 31
0.0
  0
LINE
  5
152D
330
7F9
100
AcDbEntity
  8
SUNPOU
100
AcDbLine
 10
81.37461675758748
 20
250.247768868041
 30
0.0
 11
81.37461675758748
 21
272.7477688680412
 31
0.0
  0
INSERT
  5
152E
330
7F9
100
AcDbEntity
  8
SUNPOU
100
AcDbBlockReference
  2
_OPEN30
 10
81.37461675758748
 20
246.497768868041
 30
0.0
 41
3.75
 42
3.75
 43
3.75
 50
270.0
  0
INSERT
  5
152F
330
7F9
100
AcDbEntity
  8
SUNPOU
100
AcDbBlockReference
  2
_OPEN30
 10
81.37461675758748
 20
276.497768868041
 30
0.0
 41
3.75
 42
3.75
 43
3.75
 50
90.0
  0
MTEXT
  5
1530
330
7F9
100
AcDbEntity
  8
SUNPOU
 62
     6
100
AcDbMText
 10
77.99961675758743
 20
261.4977688680411
 30
0.0
 40
3.75
 41
0.0
 71
     5
 72
     1
  1
\A1;30
  7
SUNPOU
 11
0.0000000000000001
 21
1.0
 31
0.0
1001
ACAD
1000
MTEXTBEGIN
1070
    73
1070
     1
1070
    44
1040
1.0
1070
    74
1070
     0
1000
MTEXTEND
1000
MTEXTBEGIN
1070
    73
1070
     1
1070
    44
1040
1.0
1070
    74
1070
     0
1000
MTEXTEND
  0
POINT
  5
1531
330
7F9
100
AcDbEntity
  8
DEFPOINTS
 62
     0
100
AcDbPoint
 10
110.2097752813951
 20
246.497768868041
 30
0.0
  0
POINT
  5
1532
330
7F9
100
AcDbEntity
  8
DEFPOINTS
 62
     0
100
AcDbPoint
 10
81.37461675758748
 20
276.497768868041
 30
0.0
  0
POINT
  5
1533
330
7F9
100
AcDbEntity
  8
DEFPOINTS
 62
     0
100
AcDbPoint
 10
81.37461675758748
 20
276.497768868041
 30
0.0
  0
ENDBLK
  5
804
330
7F9
100
AcDbEntity
  8
0
100
AcDbBlockEnd
  0
BLOCK
  5
810
330
806
100
AcDbEntity
  8
0
100
AcDbBlockBegin
  2
*D17
 70
     1
 10
0.0
 20
0.0
 30
0.0
  3
*D17
  1

  0
LINE
  5
1534
330
806
100
AcDbEntity
  8
SUNPOU
100
AcDbLine
 10
104.2097752813951
 20
326.1363849253482
 30
0.0
 11
104.2097752813951
 21
330.463060870216
 31
0.0
  0
LINE
  5
1535
330
806
100
AcDbEntity
  8
SUNPOU
100
AcDbLine
 10
149.2097752813952
 20
331.213060870216
 30
0.0
 11
149.2097752813952
 21
330.463060870216
 31
0.0
  0
LINE
  5
1536
330
806
100
AcDbEntity
  8
SUNPOU
100
AcDbLine
 10
107.9597752813951
 20
328.963060870216
 30
0.0
 11
145.4597752813952
 21
328.963060870216
 31
0.0
  0
MTEXT
  5
1537
330
806
100
AcDbEntity
  8
SUNPOU
 62
     6
100
AcDbMText
 10
129.7574244788797
 20
334.9977688680411
 30
0.0
 40
3.75
 41
0.0
 71
     5
 72
     1
  1
\A1;45
  7
SUNPOU
1001
ACAD
1000
MTEXTBEGIN
1070
    73
1070
     1
1070
    44
1040
1.0
1070
    74
1070
     0
1000
MTEXTEND
1000
MTEXTBEGIN
1070
    73
1070
     1
1070
    44
1040
1.0
1070
    74
1070
     0
1000
MTEXTEND
  0
INSERT
  5
1538
330
806
100
AcDbEntity
  8
SUNPOU
100
AcDbBlockReference
  2
_OPEN30
 10
104.2097752813951
 20
328.963060870216
 30
0.0
 41
3.75
 42
3.75
 43
3.75
 50
180.0
  0
INSERT
  5
1539
330
806
100
AcDbEntity
  8
SUNPOU
100
AcDbBlockReference
  2
_OPEN30
 10
149.2097752813952
 20
328.963060870216
 30
0.0
 41
3.75
 42
3.75
 43
3.75
  0
POINT
  5
153A
330
806
100
AcDbEntity
  8
DEFPOINTS
 62
     0
100
AcDbPoint
 10
104.2097752813951
 20
323.8863849253482
 30
0.0
  0
POINT
  5
153B
330
806
100
AcDbEntity
  8
DEFPOINTS
 62
     0
100
AcDbPoint
 10
149.2097752813952
 20
328.963060870216
 30
0.0
  0
POINT
  5
153C
330
806
100
AcDbEntity
  8
DEFPOINTS
 62
     0
100
AcDbPoint
 10
149.2097752813952
 20
328.963060870216
 30
0.0
  0
ENDBLK
  5
811
330
806
100
AcDbEntity
  8
0
100
AcDbBlockEnd
  0
BLOCK
  5
81D
330
813
100
AcDbEntity
  8
0
100
AcDbBlockBegin
  2
*D18
 70
     1
 10
0.0
 20
0.0
 30
0.0
  3
*D18
  1

  0
LINE
  5
153D
330
813
100
AcDbEntity
  8
SUNPOU
100
AcDbLine
 10
149.2097752813952
 20
326.1363849253482
 30
0.0
 11
149.2097752813952
 21
330.5397368150837
 31
0.0
  0
LINE
  5
153E
330
813
100
AcDbEntity
  8
SUNPOU
100
AcDbLine
 10
176.2097752813952
 20
318.747768868041
 30
0.0
 11
176.2097752813952
 21
330.5397368150837
 31
0.0
  0
LINE
  5
153F
330
813
100
AcDbEntity
  8
SUNPOU
100
AcDbLine
 10
152.959775281395
 20
329.0397368150836
 30
0.0
 11
172.4597752813951
 21
329.0397368150836
 31
0.0
  0
MTEXT
  5
1540
330
813
100
AcDbEntity
  8
SUNPOU
 62
     6
100
AcDbMText
 10
165.6233719159734
 20
334.8239767499963
 30
0.0
 40
3.75
 41
0.0
 71
     5
 72
     1
  1
\A1;27
  7
SUNPOU
1001
ACAD
1000
MTEXTBEGIN
1070
    73
1070
     1
1070
    44
1040
1.0
1070
    74
1070
     0
1000
MTEXTEND
1000
MTEXTBEGIN
1070
    73
1070
     1
1070
    44
1040
1.0
1070
    74
1070
     0
1000
MTEXTEND
  0
INSERT
  5
1541
330
813
100
AcDbEntity
  8
SUNPOU
100
AcDbBlockReference
  2
_OPEN30
 10
149.2097752813952
 20
329.0397368150836
 30
0.0
 41
3.75
 42
3.75
 43
3.75
 50
180.0
  0
INSERT
  5
1542
330
813
100
AcDbEntity
  8
SUNPOU
100
AcDbBlockReference
  2
_OPEN30
 10
176.2097752813952
 20
329.0397368150836
 30
0.0
 41
3.75
 42
3.75
 43
3.75
  0
POINT
  5
1543
330
813
100
AcDbEntity
  8
DEFPOINTS
 62
     0
100
AcDbPoint
 10
149.2097752813952
 20
323.8863849253482
 30
0.0
  0
POINT
  5
1544
330
813
100
AcDbEntity
  8
DEFPOINTS
 62
     0
100
AcDbPoint
 10
176.2097752813952
 20
316.497768868041
 30
0.0
  0
POINT
  5
1545
330
813
100
AcDbEntity
  8
DEFPOINTS
 62
     0
100
AcDbPoint
 10
176.2097752813952
 20
329.0397368150836
 30
0.0
  0
ENDBLK
  5
81E
330
813
100
AcDbEntity
  8
0
100
AcDbBlockEnd
  0
BLOCK
  5
82A
330
820
100
AcDbEntity
  8
0
100
AcDbBlockBegin
  2
*D19
 70
     1
 10
0.0
 20
0.0
 30
0.0
  3
*D19
  1

  0
LINE
  5
1546
330
820
100
AcDbEntity
  8
SUNPOU
100
AcDbLine
 10
104.2097752813951
 20
344.6634018358104
 30
0.0
 11
104.2097752813951
 21
343.9134018358104
 31
0.0
  0
LINE
  5
1547
330
820
100
AcDbEntity
  8
SUNPOU
100
AcDbLine
 10
118.209775281395
 20
344.6634018358104
 30
0.0
 11
118.209775281395
 21
343.9134018358104
 31
0.0
  0
LINE
  5
1548
330
820
100
AcDbEntity
  8
SUNPOU
100
AcDbLine
 10
107.9597752813951
 20
342.4134018358103
 30
0.0
 11
114.4597752813951
 21
342.4134018358103
 31
0.0
  0
MTEXT
  5
1549
330
820
100
AcDbEntity
  8
SUNPOU
 62
     6
100
AcDbMText
 10
108.9335488624471
 20
346.9134018358104
 30
0.0
 40
3.75
 41
0.0
 71
     5
 72
     1
  1
\A1;14
  7
SUNPOU
1001
ACAD
1000
MTEXTBEGIN
1070
    73
1070
     1
1070
    44
1040
1.0
1070
    74
1070
     0
1000
MTEXTEND
1000
MTEXTBEGIN
1070
    73
1070
     1
1070
    44
1040
1.0
1070
    74
1070
     0
1000
MTEXTEND
  0
INSERT
  5
154A
330
820
100
AcDbEntity
  8
SUNPOU
100
AcDbBlockReference
  2
_OPEN30
 10
104.2097752813951
 20
342.4134018358103
 30
0.0
 41
3.75
 42
3.75
 43
3.75
 50
180.0
  0
INSERT
  5
154B
330
820
100
AcDbEntity
  8
SUNPOU
100
AcDbBlockReference
  2
_OPEN30
 10
118.209775281395
 20
342.4134018358103
 30
0.0
 41
3.75
 42
3.75
 43
3.75
  0
POINT
  5
154C
330
820
100
AcDbEntity
  8
DEFPOINTS
 62
     0
100
AcDbPoint
 10
104.2097752813951
 20
342.4134018358103
 30
0.0
  0
POINT
  5
154D
330
820
100
AcDbEntity
  8
DEFPOINTS
 62
     0
100
AcDbPoint
 10
118.209775281395
 20
342.4134018358103
 30
0.0
  0
POINT
  5
154E
330
820
100
AcDbEntity
  8
DEFPOINTS
 62
     0
100
AcDbPoint
 10
118.209775281395
 20
342.4134018358103
 30
0.0
  0
ENDBLK
  5
82B
330
820
100
AcDbEntity
  8
0
100
AcDbBlockEnd
  0
BLOCK
  5
837
330
82D
100
AcDbEntity
  8
0
100
AcDbBlockBegin
  2
*D20
 70
     1
 10
0.0
 20
0.0
 30
0.0
  3
*D20
  1

  0
LINE
  5
154F
330
82D
100
AcDbEntity
  8
SUNPOU
100
AcDbLine
 10
118.209775281395
 20
344.6634018358104
 30
0.0
 11
118.209775281395
 21
343.9134018358104
 31
0.0
  0
LINE
  5
1550
330
82D
100
AcDbEntity
  8
SUNPOU
100
AcDbLine
 10
252.2097752813952
 20
328.747768868041
 30
0.0
 11
252.2097752813952
 21
343.9134018358104
 31
0.0
  0
LINE
  5
1551
330
82D
100
AcDbEntity
  8
SUNPOU
100
AcDbLine
 10
121.959775281395
 20
342.4134018358103
 30
0.0
 11
248.4597752813952
 21
342.4134018358103
 31
0.0
  0
INSERT
  5
1552
330
82D
100
AcDbEntity
  8
SUNPOU
100
AcDbBlockReference
  2
_OPEN30
 10
118.209775281395
 20
342.4134018358103
 30
0.0
 41
3.75
 42
3.75
 43
3.75
 50
180.0
  0
INSERT
  5
1553
330
82D
100
AcDbEntity
  8
SUNPOU
100
AcDbBlockReference
  2
_OPEN30
 10
252.2097752813952
 20
342.4134018358103
 30
0.0
 41
3.75
 42
3.75
 43
3.75
  0
MTEXT
  5
1554
330
82D
100
AcDbEntity
  8
SUNPOU
 62
     6
100
AcDbMText
 10
185.2097752813951
 20
345.7884018358104
 30
0.0
 40
3.75
 41
0.0
 71
     5
 72
     1
  1
\A1;134
  7
SUNPOU
1001
ACAD
1000
MTEXTBEGIN
1070
    73
1070
     1
1070
    44
1040
1.0
1070
    74
1070
     0
1000
MTEXTEND
1000
MTEXTBEGIN
1070
    73
1070
     1
1070
    44
1040
1.0
1070
    74
1070
     0
1000
MTEXTEND
  0
POINT
  5
1555
330
82D
100
AcDbEntity
  8
DEFPOINTS
 62
     0
100
AcDbPoint
 10
118.209775281395
 20
342.4134018358103
 30
0.0
  0
POINT
  5
1556
330
82D
100
AcDbEntity
  8
DEFPOINTS
 62
     0
100
AcDbPoint
 10
252.2097752813952
 20
326.497768868041
 30
0.0
  0
POINT
  5
1557
330
82D
100
AcDbEntity
  8
DEFPOINTS
 62
     0
100
AcDbPoint
 10
252.2097752813952
 20
342.4134018358103
 30
0.0
  0
ENDBLK
  5
838
330
82D
100
AcDbEntity
  8
0
100
AcDbBlockEnd
  0
ENDSEC
  0
SECTION
  2
ENTITIES
  0
ARC
  5
48
330
A
100
AcDbEntity
  8
03
100
AcDbCircle
 10
57.70977528139514
 20
92.99776886804114
 30
0.0
 40
1.5
100
AcDbArc
 50
179.9999999999999
 51
270.0
  0
ARC
  5
4A
330
A
100
AcDbEntity
  8
03
100
AcDbCircle
 10
202.7097752813951
 20
92.99776886804108
 30
0.0
 40
1.5
100
AcDbArc
 50
179.9999999999995
 51
270.0
  0
ARC
  5
4B
330
A
100
AcDbEntity
  8
03
100
AcDbCircle
 10
264.7097752813948
 20
92.99776886804108
 30
0.0
 40
1.5
100
AcDbArc
 50
270.0
 51
359.9999999999998
  0
ARC
  5
4D
330
A
100
AcDbEntity
  8
03
100
AcDbCircle
 10
264.7097752813951
 20
361.997768868041
 30
0.0
 40
1.5
100
AcDbArc
 50
359.9999999999998
 51
89.99999999999978
  0
ARC
  5
4F
330
A
100
AcDbEntity
  8
03
100
AcDbCircle
 10
264.7097752813949
 20
389.997768868041
 30
0.0
 40
1.5
100
AcDbArc
 50
359.9999999999998
 51
89.99999999999978
  0
ARC
  5
51
330
A
100
AcDbEntity
  8
02
100
AcDbCircle
 10
98.20977528139522
 20
371.997768868041
 30
0.0
 40
6.0
100
AcDbArc
 50
359.9999999999998
 51
89.99999999999978
  0
ARC
  5
52
330
A
100
AcDbEntity
  8
02
100
AcDbCircle
 10
98.20977528139513
 20
118.497768868041
 30
0.0
 40
6.0
100
AcDbArc
 50
270.0
 51
359.9999999999998
  0
ARC
  5
55
330
A
100
AcDbEntity
  8
02
100
AcDbCircle
 10
110.2097752813951
 20
252.497768868041
 30
0.0
 40
6.0
100
AcDbArc
 50
179.9999999999999
 51
270.0
  0
ARC
  5
56
330
A
100
AcDbEntity
  8
02
100
AcDbCircle
 10
143.209775281395
 20
252.497768868041
 30
0.0
 40
6.0
100
AcDbArc
 50
270.0
 51
359.9999999999998
  0
ARC
  5
58
330
A
100
AcDbEntity
  8
02
100
AcDbCircle
 10
143.2097752813952
 20
371.997768868041
 30
0.0
 40
6.0
100
AcDbArc
 50
359.9999999999998
 51
89.99999999999978
  0
ARC
  5
5D
330
A
100
AcDbEntity
  8
03
100
AcDbCircle
 10
57.70977528139517
 20
389.9977688680411
 30
0.0
 40
1.5
100
AcDbArc
 50
89.99999999999996
 51
179.9999999999999
  0
ARC
  5
60
330
A
100
AcDbEntity
  8
03
100
AcDbCircle
 10
264.7097752813952
 20
367.9977688680411
 30
0.0
 40
1.5
100
AcDbArc
 50
270.0
 51
0.0000000000001908
  0
ARC
  5
64
330
A
100
AcDbEntity
  8
03
100
AcDbCircle
 10
251.209775281395
 20
366.4977688680411
 30
0.0
 40
1.5
100
AcDbArc
 50
89.99999999999978
 51
179.9999999999995
  0
ARC
  5
75
330
A
100
AcDbEntity
  8
03
100
AcDbCircle
 10
104.709775281395
 20
92.99776886804108
 30
0.0
 40
1.5
100
AcDbArc
 50
270.0
 51
0.0
  0
ARC
  5
78
330
A
100
AcDbEntity
  8
03
100
AcDbCircle
 10
59.20977528139514
 20
104.997768868041
 30
0.0
 40
1.5
100
AcDbArc
 50
89.99999999999996
 51
179.9999999999998
  0
ARC
  5
7A
330
A
100
AcDbEntity
  8
02
100
AcDbCircle
 10
103.209775281395
 20
107.997768868041
 30
0.0
 40
4.5
100
AcDbArc
 50
359.9999999999998
 51
89.99999999999978
  0
ARC
  5
7C
330
A
100
AcDbEntity
  8
02
100
AcDbCircle
 10
70.20977528139514
 20
118.997768868041
 30
0.0
 40
6.5
100
AcDbArc
 50
179.9999999999995
 51
270.0
  0
ARC
  5
7E
330
A
100
AcDbEntity
  8
02
100
AcDbCircle
 10
59.20977528139516
 20
151.9977688680411
 30
0.0
 40
4.5
100
AcDbArc
 50
359.9999999999998
 51
89.99999999999978
  0
ARC
  5
84
330
A
100
AcDbEntity
  8
02
100
AcDbCircle
 10
59.20977528139516
 20
344.4977688680408
 30
0.0
 40
4.5
100
AcDbArc
 50
270.0
 51
359.9999999999998
  0
ARC
  5
86
330
A
100
AcDbEntity
  8
02
100
AcDbCircle
 10
70.20977528139518
 20
377.4977688680411
 30
0.0
 40
6.5
100
AcDbArc
 50
89.99999999999978
 51
179.9999999999995
  0
ARC
  5
88
330
A
100
AcDbEntity
  8
02
100
AcDbCircle
 10
103.2097752813952
 20
388.497768868041
 30
0.0
 40
4.5
100
AcDbArc
 50
270.0
 51
359.9999999999998
  0
ARC
  5
93
330
A
100
AcDbEntity
  8
02
100
AcDbCircle
 10
246.7097752813951
 20
352.9977688680411
 30
0.0
 40
3.0
100
AcDbArc
 50
179.9999999999995
 51
270.0
  0
ARC
  5
95
330
A
100
AcDbEntity
  8
02
100
AcDbCircle
 10
239.2097752813952
 20
379.497768868041
 30
0.0
 40
4.5
100
AcDbArc
 50
359.9999999999998
 51
89.99999999999978
  0
ARC
  5
97
330
A
100
AcDbEntity
  8
02
100
AcDbCircle
 10
212.7097752813948
 20
386.997768868041
 30
0.0
 40
3.0
100
AcDbArc
 50
179.9999999999995
 51
270.0
  0
ARC
  5
FB
330
A
100
AcDbEntity
  8
03
100
AcDbCircle
 10
103.209775281395
 20
104.997768868041
 30
0.0
 40
1.5
100
AcDbArc
 50
0.0
 51
89.99999999999996
  0
CIRCLE
  5
100
330
A
100
AcDbEntity
  8
03
100
AcDbCircle
 10
269.2097752813949
 20
364.9977688680411
 30
0.0
 40
2.0
  0
ARC
  5
121
330
A
100
AcDbEntity
  8
04
100
AcDbCircle
 10
105.2097752813951
 20
133.4977688680411
 30
0.0
 40
1.0
100
AcDbArc
 50
179.9999997943197
 51
269.9999996914799
  0
ARC
  5
123
330
A
100
AcDbEntity
  8
04
100
AcDbCircle
 10
105.2097752813951
 20
165.4977688680411
 30
0.0
 40
1.0
100
AcDbArc
 50
89.99999989715989
 51
179.9999997943197
  0
ARC
  5
125
330
A
100
AcDbEntity
  8
04
100
AcDbCircle
 10
109.2097752813951
 20
165.4977688680411
 30
0.0
 40
1.0
100
AcDbArc
 50
359.9999999999998
 51
89.99999989715989
  0
ARC
  5
127
330
A
100
AcDbEntity
  8
04
100
AcDbCircle
 10
116.209775281395
 20
144.4977688680411
 30
0.0
 40
6.0
100
AcDbArc
 50
179.9999997943197
 51
269.9999996914799
  0
ARC
  5
146
330
A
100
AcDbEntity
  8
04
100
AcDbCircle
 10
171.709775281395
 20
160.4977688680409
 30
0.0
 40
3.0
100
AcDbArc
 50
29.99999999999987
 51
149.9999999999997
  0
ARC
  5
149
330
A
100
AcDbEntity
  8
04
100
AcDbCircle
 10
171.7097752813951
 20
226.497768868041
 30
0.0
 40
3.0
100
AcDbArc
 50
209.9999999999995
 51
329.9999999999998
  0
CIRCLE
  5
14C
330
A
100
AcDbEntity
  8
04
100
AcDbCircle
 10
171.7097752813951
 20
224.9977688680409
 30
0.0
 40
1.5
  0
CIRCLE
  5
14D
330
A
100
AcDbEntity
  8
04
100
AcDbCircle
 10
171.709775281395
 20
161.997768868041
 30
0.0
 40
1.5
  0
ARC
  5
14F
330
A
100
AcDbEntity
  8
04
100
AcDbCircle
 10
127.209775281395
 20
145.4977688680409
 30
0.0
 40
1.0
100
AcDbArc
 50
89.99999989715989
 51
179.9999997943197
  0
ARC
  5
150
330
A
100
AcDbEntity
  8
04
100
AcDbCircle
 10
135.209775281395
 20
145.4977688680409
 30
0.0
 40
1.0
100
AcDbArc
 50
359.9999999999998
 51
89.99999989715989
  0
ARC
  5
152
330
A
100
AcDbEntity
  8
04
100
AcDbCircle
 10
135.209775281395
 20
142.4977688680409
 30
0.0
 40
1.0
100
AcDbArc
 50
269.9999996914799
 51
359.9999995886402
  0
ARC
  5
154
330
A
100
AcDbEntity
  8
04
100
AcDbCircle
 10
133.209775281395
 20
140.4977688680409
 30
0.0
 40
1.0
100
AcDbArc
 50
89.99999989715989
 51
179.9999997943197
  0
ARC
  5
156
330
A
100
AcDbEntity
  8
04
100
AcDbCircle
 10
133.209775281395
 20
137.4977688680409
 30
0.0
 40
1.0
100
AcDbArc
 50
179.9999997943197
 51
269.9999996914799
  0
ARC
  5
158
330
A
100
AcDbEntity
  8
04
100
AcDbCircle
 10
135.209775281395
 20
135.4977688680409
 30
0.0
 40
1.0
100
AcDbArc
 50
359.9999999999998
 51
89.99999989715989
  0
ARC
  5
15A
330
A
100
AcDbEntity
  8
04
100
AcDbCircle
 10
135.209775281395
 20
133.4977688680409
 30
0.0
 40
1.0
100
AcDbArc
 50
269.9999996914799
 51
359.9999995886402
  0
ARC
  5
15B
330
A
100
AcDbEntity
  8
04
100
AcDbCircle
 10
123.209775281395
 20
141.4977688680411
 30
0.0
 40
3.0
100
AcDbArc
 50
269.9999996914799
 51
359.9999995886402
  0
ARC
  5
15F
330
A
100
AcDbEntity
  8
04
100
AcDbCircle
 10
119.7097752813952
 20
213.4977688680411
 30
0.0
 40
3.0
100
AcDbArc
 50
179.9999999999995
 51
270.0
  0
ARC
  5
161
330
A
100
AcDbEntity
  8
04
100
AcDbCircle
 10
147.2097752813952
 20
205.9977688680409
 30
0.0
 40
4.5
100
AcDbArc
 50
359.9999999999998
 51
89.99999999999978
  0
ARC
  5
163
330
A
100
AcDbEntity
  8
04
100
AcDbCircle
 10
154.7097752813952
 20
178.497768868041
 30
0.0
 40
3.0
100
AcDbArc
 50
179.9999999999995
 51
270.0
  0
ARC
  5
179
330
A
100
AcDbEntity
  8
04
100
AcDbCircle
 10
143.7097752813949
 20
114.4977688680411
 30
0.0
 40
4.0
100
AcDbArc
 50
269.9999996914799
 51
359.9999995886402
  0
ARC
  5
1C2
330
A
100
AcDbEntity
  8
04
100
AcDbCircle
 10
172.2097752813951
 20
265.497768868041
 30
0.0
 40
1.0
100
AcDbArc
 50
89.99999989715989
 51
179.9999997943197
  0
ARC
  5
1C3
330
A
100
AcDbEntity
  8
04
100
AcDbCircle
 10
180.2097752813951
 20
265.497768868041
 30
0.0
 40
1.0
100
AcDbArc
 50
359.9999999999998
 51
89.99999989715989
  0
ARC
  5
1C5
330
A
100
AcDbEntity
  8
04
100
AcDbCircle
 10
180.2097752813951
 20
262.497768868041
 30
0.0
 40
1.0
100
AcDbArc
 50
269.9999996914799
 51
359.9999995886402
  0
ARC
  5
1C7
330
A
100
AcDbEntity
  8
04
100
AcDbCircle
 10
178.2097752813951
 20
260.497768868041
 30
0.0
 40
1.0
100
AcDbArc
 50
89.99999989715989
 51
179.9999997943197
  0
ARC
  5
1C9
330
A
100
AcDbEntity
  8
04
100
AcDbCircle
 10
178.2097752813951
 20
257.497768868041
 30
0.0
 40
1.0
100
AcDbArc
 50
179.9999997943197
 51
269.9999996914799
  0
ARC
  5
1CB
330
A
100
AcDbEntity
  8
04
100
AcDbCircle
 10
180.2097752813951
 20
255.497768868041
 30
0.0
 40
1.0
100
AcDbArc
 50
359.9999999999998
 51
89.99999989715989
  0
ARC
  5
1CD
330
A
100
AcDbEntity
  8
04
100
AcDbCircle
 10
180.2097752813951
 20
253.497768868041
 30
0.0
 40
1.0
100
AcDbArc
 50
269.9999996914799
 51
359.9999995886402
  0
ARC
  5
1CF
330
A
100
AcDbEntity
  8
04
100
AcDbCircle
 10
150.209775281395
 20
253.497768868041
 30
0.0
 40
1.0
100
AcDbArc
 50
179.9999997943197
 51
269.9999996914799
  0
ARC
  5
1D1
330
A
100
AcDbEntity
  8
04
100
AcDbCircle
 10
150.2097752813952
 20
285.4977688680411
 30
0.0
 40
1.0
100
AcDbArc
 50
89.99999989715989
 51
179.9999997943197
  0
ARC
  5
1D3
330
A
100
AcDbEntity
  8
04
100
AcDbCircle
 10
154.209775281395
 20
285.4977688680411
 30
0.0
 40
1.0
100
AcDbArc
 50
359.9999999999998
 51
89.99999989715989
  0
ARC
  5
1D5
330
A
100
AcDbEntity
  8
04
100
AcDbCircle
 10
161.209775281395
 20
264.497768868041
 30
0.0
 40
6.0
100
AcDbArc
 50
179.9999997943197
 51
269.9999996914799
  0
ARC
  5
1D7
330
A
100
AcDbEntity
  8
04
100
AcDbCircle
 10
168.209775281395
 20
261.4977688680411
 30
0.0
 40
3.0
100
AcDbArc
 50
269.9999996914799
 51
359.9999995886402
  0
ARC
  5
203
330
A
100
AcDbEntity
  8
04
100
AcDbCircle
 10
188.7097752813951
 20
114.497768868041
 30
0.0
 40
4.0
100
AcDbArc
 50
269.9999996914799
 51
359.9999995886402
  0
ARC
  5
273
330
A
100
AcDbEntity
  8
04
100
AcDbCircle
 10
189.7097752813952
 20
247.9977688680409
 30
0.0
 40
3.0
100
AcDbArc
 50
270.0
 51
359.9999999999998
  0
ARC
  5
32A
330
A
100
AcDbEntity
  8
04
100
AcDbCircle
 10
165.209775281395
 20
235.9977688680409
 30
0.0
 40
4.5
100
AcDbArc
 50
359.9999999999998
 51
89.99999999999978
  0
ARC
  5
34C
330
A
100
AcDbEntity
  8
SOUZOU
100
AcDbCircle
 10
112.2097752813951
 20
377.9977688680411
 30
0.0
 40
6.0
100
AcDbArc
 50
359.9999999999998
 51
89.99999999999978
  0
ARC
  5
398
330
A
100
AcDbEntity
  8
SOUZOU
100
AcDbCircle
 10
112.2097752813951
 20
118.497768868041
 30
0.0
 40
6.0
100
AcDbArc
 50
270.0
 51
0.0
  0
LINE
  5
3A7
330
A
100
AcDbEntity
  8
SOUZOU
100
AcDbLine
 10
112.2097752813951
 20
112.4977688680411
 30
0.0
 11
103.209775281395
 21
112.4977688680411
 31
0.0
  0
LINE
  5
3A8
330
A
100
AcDbEntity
  8
SOUZOU
100
AcDbLine
 10
112.2097752813951
 20
118.497768868041
 30
0.0
 11
98.20977528139515
 21
118.497768868041
 31
0.0
  0
LINE
  5
3C5
330
A
100
AcDbEntity
  8
06
100
AcDbLine
 10
232.2097752813951
 20
231.4977688680409
 30
0.0
 11
228.741488635784
 21
242.497768868041
 31
0.0
  0
LINE
  5
3C6
330
A
100
AcDbEntity
  8
06
100
AcDbLine
 10
216.209775281395
 20
231.4977688680409
 30
0.0
 11
232.2097752813951
 21
231.4977688680409
 31
0.0
  0
LINE
  5
3C7
330
A
100
AcDbEntity
  8
06
100
AcDbLine
 10
219.6780619270061
 20
242.497768868041
 30
0.0
 11
216.209775281395
 21
231.4977688680409
 31
0.0
  0
LINE
  5
3C8
330
A
100
AcDbEntity
  8
06
100
AcDbLine
 10
228.741488635784
 20
242.497768868041
 30
0.0
 11
219.6780619270061
 21
242.497768868041
 31
0.0
  0
LINE
  5
3D9
330
A
100
AcDbEntity
  8
06
100
AcDbLine
 10
232.2097752813951
 20
321.4977688680411
 30
0.0
 11
228.741488635784
 21
310.4977688680411
 31
0.0
  0
LINE
  5
3DA
330
A
100
AcDbEntity
  8
06
100
AcDbLine
 10
216.2097752813951
 20
321.4977688680411
 30
0.0
 11
232.2097752813951
 21
321.4977688680411
 31
0.0
  0
LINE
  5
3DB
330
A
100
AcDbEntity
  8
06
100
AcDbLine
 10
219.6780619270063
 20
310.4977688680411
 30
0.0
 11
216.2097752813951
 21
321.4977688680411
 31
0.0
  0
LINE
  5
3DC
330
A
100
AcDbEntity
  8
06
100
AcDbLine
 10
228.741488635784
 20
310.4977688680411
 30
0.0
 11
219.6780619270063
 21
310.4977688680411
 31
0.0
  0
LINE
  5
3DE
330
A
100
AcDbEntity
  8
SOUZOU
100
AcDbLine
 10
158.209775281395
 20
217.997768868041
 30
0.0
 11
118.209775281395
 21
217.997768868041
 31
0.0
  0
LINE
  5
3F0
330
A
100
AcDbEntity
  8
SOUZOU
100
AcDbLine
 10
158.209775281395
 20
334.9977688680411
 30
0.0
 11
150.6741515230643
 21
334.9977688680411
 31
0.0
  0
LINE
  5
3F1
330
A
100
AcDbEntity
  8
SOUZOU
100
AcDbLine
 10
158.209775281395
 20
217.997768868041
 30
0.0
 11
158.209775281395
 21
232.8517688771202
 31
0.0
  0
LINE
  5
3F3
330
A
100
AcDbEntity
  8
CHUSIN
100
AcDbLine
 10
224.209775281395
 20
326.4977688680411
 30
0.0
 11
224.209775281395
 21
226.497768868041
 31
0.0
  0
LINE
  5
3F4
330
A
100
AcDbEntity
  8
CHUSIN
100
AcDbLine
 10
258.3169544501636
 20
276.497768868041
 30
0.0
 11
135.4023826778791
 21
276.497768868041
 31
0.0
  0
LINE
  5
3F6
330
A
100
AcDbEntity
  8
04
100
AcDbLine
 10
112.2097752813951
 20
188.7977688203573
 30
0.0
 11
110.2097752813951
 21
188.7977688203573
 31
0.0
  0
LINE
  5
3F7
330
A
100
AcDbEntity
  8
04
100
AcDbLine
 10
110.2097752813951
 20
204.1977696309805
 30
0.0
 11
112.2097752813951
 21
204.1977696309805
 31
0.0
  0
LINE
  5
3FA
330
A
100
AcDbEntity
  8
04
100
AcDbLine
 10
117.7097752813951
 20
190.1977689157248
 30
0.0
 11
117.7097752813951
 21
202.7977681051015
 31
0.0
  0
LINE
  5
3FB
330
A
100
AcDbEntity
  8
04
100
AcDbLine
 10
117.0097745184556
 20
188.9877688775778
 30
0.0
 11
117.7097752813951
 21
190.1977689157248
 31
0.0
  0
LINE
  5
3FC
330
A
100
AcDbEntity
  8
04
100
AcDbLine
 10
117.0097745184557
 20
204.0077690969229
 30
0.0
 11
117.7097752813951
 21
202.7977681051015
 31
0.0
  0
LINE
  5
3FD
330
A
100
AcDbEntity
  8
04
100
AcDbLine
 10
112.2097752813951
 20
188.9877688775778
 30
0.0
 11
117.0097745184556
 21
188.9877688775778
 31
0.0
  0
LINE
  5
3FE
330
A
100
AcDbEntity
  8
04
100
AcDbLine
 10
112.2097752813951
 20
204.0077690969229
 30
0.0
 11
117.0097745184557
 21
204.0077690969229
 31
0.0
  0
LINE
  5
400
330
A
100
AcDbEntity
  8
04
100
AcDbLine
 10
104.2097752813952
 20
221.497768868041
 30
0.0
 11
110.2097752813951
 21
221.497768868041
 31
0.0
  0
LINE
  5
401
330
A
100
AcDbEntity
  8
04
100
AcDbLine
 10
110.2097752813951
 20
171.4977688680411
 30
0.0
 11
104.2097752813951
 21
171.4977688680411
 31
0.0
  0
LINE
  5
404
330
A
100
AcDbEntity
  8
04
100
AcDbLine
 10
183.209775281395
 20
225.5977692495107
 30
0.0
 11
183.209775281395
 21
235.3977703939198
 31
0.0
  0
LINE
  5
405
330
A
100
AcDbEntity
  8
04
100
AcDbLine
 10
182.8633626227038
 20
224.9977688680409
 30
0.0
 11
183.209775281395
 21
225.5977692495107
 31
0.0
  0
LINE
  5
406
330
A
100
AcDbEntity
  8
04
100
AcDbLine
 10
182.7054570440905
 20
236.2712674031971
 30
0.0
 11
183.209775281395
 21
235.3977703939198
 31
0.0
  0
LINE
  5
407
330
A
100
AcDbEntity
  8
04
100
AcDbLine
 10
178.2097752813951
 20
236.2712674031971
 30
0.0
 11
182.7054570440905
 21
236.2712674031971
 31
0.0
  0
LINE
  5
409
330
A
100
AcDbEntity
  8
04
100
AcDbLine
 10
110.2097752813951
 20
221.497768868041
 30
0.0
 11
110.2097752813951
 21
171.4977688680411
 31
0.0
  0
LINE
  5
40A
330
A
100
AcDbEntity
  8
04
100
AcDbLine
 10
165.2097752813951
 20
235.9977688680409
 30
0.0
 11
104.2097752813952
 21
235.997768868041
 31
0.0
  0
LINE
  5
40B
330
A
100
AcDbEntity
  8
04
100
AcDbLine
 10
165.209775281395
 20
231.7560991172387
 30
0.0
 11
165.2097752813951
 21
235.9977688680409
 31
0.0
  0
LINE
  5
40C
330
A
100
AcDbEntity
  8
04
100
AcDbLine
 10
169.709775281395
 20
235.9977688680409
 30
0.0
 11
169.709775281395
 21
224.2617008905412
 31
0.0
  0
LINE
  5
40D
330
A
100
AcDbEntity
  8
04
100
AcDbLine
 10
104.2097752813952
 20
240.497768868041
 30
0.0
 11
165.2097752813951
 21
240.497768868041
 31
0.0
  0
LINE
  5
410
330
A
100
AcDbEntity
  8
04
100
AcDbLine
 10
183.209775281395
 20
214.5977692495105
 30
0.0
 11
183.209775281395
 21
224.3977684865712
 31
0.0
  0
LINE
  5
411
330
A
100
AcDbEntity
  8
04
100
AcDbLine
 10
182.7054570440905
 20
213.724268425536
 30
0.0
 11
183.209775281395
 21
214.5977692495105
 31
0.0
  0
LINE
  5
412
330
A
100
AcDbEntity
  8
04
100
AcDbLine
 10
182.7054570440905
 20
225.2712693105458
 30
0.0
 11
183.209775281395
 21
224.3977684865712
 31
0.0
  0
LINE
  5
413
330
A
100
AcDbEntity
  8
04
100
AcDbLine
 10
181.7097752813952
 20
213.724268425536
 30
0.0
 11
182.7054570440905
 21
213.724268425536
 31
0.0
  0
LINE
  5
414
330
A
100
AcDbEntity
  8
04
100
AcDbLine
 10
181.7097752813952
 20
225.2712693105458
 30
0.0
 11
182.7054570440905
 21
225.2712693105458
 31
0.0
  0
LINE
  5
415
330
A
100
AcDbEntity
  8
04
100
AcDbLine
 10
173.7097752813951
 20
238.497768868041
 30
0.0
 11
173.7097752813951
 21
224.2617008905412
 31
0.0
  0
LINE
  5
416
330
A
100
AcDbEntity
  8
04
100
AcDbLine
 10
178.2097752813951
 20
238.497768868041
 30
0.0
 11
173.7097752813951
 21
238.497768868041
 31
0.0
  0
LINE
  5
417
330
A
100
AcDbEntity
  8
04
100
AcDbLine
 10
178.2097752813951
 20
231.7560991172387
 30
0.0
 11
178.2097752813951
 21
238.497768868041
 31
0.0
  0
LINE
  5
419
330
A
100
AcDbEntity
  8
04
100
AcDbLine
 10
169.709775281395
 20
233.4977688680409
 30
0.0
 11
173.7097752813951
 21
233.4977688680409
 31
0.0
  0
LINE
  5
41B
330
A
100
AcDbEntity
  8
04
100
AcDbLine
 10
169.709775281395
 20
227.4977688680409
 30
0.0
 11
173.7097752813951
 21
227.4977688680409
 31
0.0
  0
LINE
  5
41C
330
A
100
AcDbEntity
  8
CHUSIN
 48
0.3
100
AcDbLine
 10
119.3136953487712
 20
196.4977688680409
 30
0.0
 11
95.05661995455186
 21
196.497768868041
 31
0.0
  0
LINE
  5
432
330
A
100
AcDbEntity
  8
CHUSIN
 48
0.3
100
AcDbLine
 10
269.2097752813952
 20
359.997768868041
 30
0.0
 11
269.2097752813952
 21
369.997768868041
 31
0.0
  0
LINE
  5
433
330
A
100
AcDbEntity
  8
CHUSIN
 48
0.3
100
AcDbLine
 10
264.2097752813952
 20
364.997768868041
 30
0.0
 11
274.2097752813951
 21
364.997768868041
 31
0.0
  0
LINE
  5
4D4
330
A
100
AcDbEntity
  8
CHUSIN
100
AcDbLine
 10
176.2097752813951
 20
55.24118526745193
 30
0.0
 11
176.2097752813951
 21
74.42871717071762
 31
0.0
  0
LINE
  5
4D9
330
A
100
AcDbEntity
  8
CHUSIN
100
AcDbLine
 10
163.6698473936496
 20
291.497768868041
 30
0.0
 11
216.0872365720932
 21
291.497768868041
 31
0.0
  0
LINE
  5
4DA
330
A
100
AcDbEntity
  8
CHUSIN
100
AcDbLine
 10
176.2097752813951
 20
256.497768868041
 30
0.0
 11
176.2097752813952
 21
329.0397368150836
 31
0.0
  0
LINE
  5
4ED
330
A
100
AcDbEntity
  8
04
100
AcDbLine
 10
180.2097752813951
 20
249.9977688680409
 30
0.0
 11
180.2097752813951
 21
247.9977688680409
 31
0.0
  0
LINE
  5
4EE
330
A
100
AcDbEntity
  8
04
100
AcDbLine
 10
172.2097752813952
 20
249.9977688680409
 30
0.0
 11
180.2097752813951
 21
249.9977688680409
 31
0.0
  0
LINE
  5
4EF
330
A
100
AcDbEntity
  8
04
100
AcDbLine
 10
172.2097752813952
 20
247.9977688680409
 30
0.0
 11
172.2097752813952
 21
249.9977688680409
 31
0.0
  0
LINE
  5
4F0
330
A
100
AcDbEntity
  8
04
100
AcDbLine
 10
189.7097752813952
 20
269.997768868041
 30
0.0
 11
192.7097752813951
 21
269.997768868041
 31
0.0
  0
LINE
  5
4F1
330
A
100
AcDbEntity
  8
04
100
AcDbLine
 10
189.7097752813952
 20
247.9977688680409
 30
0.0
 11
189.7097752813952
 21
269.997768868041
 31
0.0
  0
LINE
  5
4F2
330
A
100
AcDbEntity
  8
04
100
AcDbLine
 10
167.709775281395
 20
247.9977688680409
 30
0.0
 11
189.7097752813952
 21
247.9977688680409
 31
0.0
  0
LINE
  5
4F3
330
A
100
AcDbEntity
  8
04
100
AcDbLine
 10
167.709775281395
 20
244.997768868041
 30
0.0
 11
167.709775281395
 21
247.9977688680409
 31
0.0
  0
LINE
  5
4F4
330
A
100
AcDbEntity
  8
04
100
AcDbLine
 10
189.7097752813952
 20
244.997768868041
 30
0.0
 11
167.709775281395
 21
244.997768868041
 31
0.0
  0
LINE
  5
4F6
330
A
100
AcDbEntity
  8
04
100
AcDbLine
 10
200.7097752813951
 20
279.497768868041
 30
0.0
 11
198.7097752813951
 21
279.497768868041
 31
0.0
  0
LINE
  5
4F8
330
A
100
AcDbEntity
  8
04
100
AcDbLine
 10
198.7097752813951
 20
303.497768868041
 30
0.0
 11
200.7097752813951
 21
303.497768868041
 31
0.0
  0
LINE
  5
4FB
330
A
100
AcDbEntity
  8
04
100
AcDbLine
 10
212.7097752813952
 20
282.497768868041
 30
0.0
 11
212.7097752813952
 21
300.497768868041
 31
0.0
  0
LINE
  5
4FC
330
A
100
AcDbEntity
  8
04
100
AcDbLine
 10
211.5725978538951
 20
280.528118868041
 30
0.0
 11
212.7097752813952
 21
282.497768868041
 31
0.0
  0
LINE
  5
4FD
330
A
100
AcDbEntity
  8
04
100
AcDbLine
 10
211.5725978538951
 20
302.467418868041
 30
0.0
 11
212.7097752813952
 21
300.497768868041
 31
0.0
  0
LINE
  5
4FE
330
A
100
AcDbEntity
  8
04
100
AcDbLine
 10
200.7097752813951
 20
280.528118868041
 30
0.0
 11
211.5725978538951
 21
280.528118868041
 31
0.0
  0
LINE
  5
4FF
330
A
100
AcDbEntity
  8
04
100
AcDbLine
 10
200.7097752813951
 20
302.467418868041
 30
0.0
 11
211.5725978538951
 21
302.467418868041
 31
0.0
  0
LINE
  5
505
330
A
100
AcDbEntity
  8
04
100
AcDbLine
 10
181.7097752813952
 20
178.9977688680409
 30
0.0
 11
192.7097752813951
 21
178.9977688680409
 31
0.0
  0
LINE
  5
506
330
A
100
AcDbEntity
  8
04
100
AcDbLine
 10
161.209775281395
 20
178.9977688680409
 30
0.0
 11
161.7097752813952
 21
178.9977688680409
 31
0.0
  0
LINE
  5
507
330
A
100
AcDbEntity
  8
04
100
AcDbLine
 10
181.7097752813952
 20
181.997768868041
 30
0.0
 11
192.7097752813951
 21
181.997768868041
 31
0.0
  0
LINE
  5
508
330
A
100
AcDbEntity
  8
04
100
AcDbLine
 10
187.7097752813952
 20
200.997768868041
 30
0.0
 11
187.7097752813952
 21
181.997768868041
 31
0.0
  0
LINE
  5
509
330
A
100
AcDbEntity
  8
04
100
AcDbLine
 10
183.209775281395
 20
146.9977688680409
 30
0.0
 11
183.209775281395
 21
178.9977688680409
 31
0.0
  0
LINE
  5
50A
330
A
100
AcDbEntity
  8
04
100
AcDbLine
 10
161.209775281395
 20
146.9977688680409
 30
0.0
 11
183.209775281395
 21
146.9977688680409
 31
0.0
  0
LINE
  5
50B
330
A
100
AcDbEntity
  8
04
100
AcDbLine
 10
161.209775281395
 20
178.9977688680409
 30
0.0
 11
161.209775281395
 21
146.9977688680409
 31
0.0
  0
LINE
  5
519
330
A
100
AcDbEntity
  8
04
100
AcDbLine
 10
200.2097752813952
 20
307.497768868041
 30
0.0
 11
198.7097752813951
 21
307.497768868041
 31
0.0
  0
LINE
  5
51B
330
A
100
AcDbEntity
  8
04
100
AcDbLine
 10
198.7097752813951
 20
319.497768868041
 30
0.0
 11
200.2097752813952
 21
319.497768868041
 31
0.0
  0
LINE
  5
51E
330
A
100
AcDbEntity
  8
04
100
AcDbLine
 10
205.7097752813951
 20
308.5977688680408
 30
0.0
 11
205.7097752813953
 21
318.397768868041
 31
0.0
  0
LINE
  5
51F
330
A
100
AcDbEntity
  8
04
100
AcDbLine
 10
205.2054600563951
 20
307.724268868041
 30
0.0
 11
205.7097752813951
 21
308.5977688680408
 31
0.0
  0
LINE
  5
520
330
A
100
AcDbEntity
  8
04
100
AcDbLine
 10
205.2054600563951
 20
319.2712688680409
 30
0.0
 11
205.7097752813953
 21
318.397768868041
 31
0.0
  0
LINE
  5
521
330
A
100
AcDbEntity
  8
04
100
AcDbLine
 10
200.2097752813952
 20
307.724268868041
 30
0.0
 11
205.2054600563951
 21
307.724268868041
 31
0.0
  0
LINE
  5
522
330
A
100
AcDbEntity
  8
04
100
AcDbLine
 10
200.2097752813952
 20
319.2712688680409
 30
0.0
 11
205.2054600563951
 21
319.2712688680409
 31
0.0
  0
LINE
  5
524
330
A
100
AcDbEntity
  8
04
100
AcDbLine
 10
198.7097752813951
 20
152.1977696309805
 30
0.0
 11
200.7097752813951
 21
152.1977696309805
 31
0.0
  0
LINE
  5
527
330
A
100
AcDbEntity
  8
04
100
AcDbLine
 10
206.2097752813951
 20
138.1977689157247
 30
0.0
 11
206.2097752813951
 21
150.7977681051015
 31
0.0
  0
LINE
  5
528
330
A
100
AcDbEntity
  8
04
100
AcDbLine
 10
206.0940724907163
 20
137.9977685892293
 30
0.0
 11
206.2097752813951
 21
138.1977689157247
 31
0.0
  0
LINE
  5
529
330
A
100
AcDbEntity
  8
04
100
AcDbLine
 10
205.5097745184555
 20
152.0077690969229
 30
0.0
 11
206.2097752813951
 21
150.7977681051015
 31
0.0
  0
LINE
  5
52A
330
A
100
AcDbEntity
  8
04
100
AcDbLine
 10
200.7097752813951
 20
152.0077690969229
 30
0.0
 11
205.5097745184555
 21
152.0077690969229
 31
0.0
  0
LINE
  5
52C
330
A
100
AcDbEntity
  8
04
100
AcDbLine
 10
200.709775281395
 20
123.7977688203574
 30
0.0
 11
198.7097752813951
 21
123.7977688203574
 31
0.0
  0
LINE
  5
52D
330
A
100
AcDbEntity
  8
04
100
AcDbLine
 10
198.7097752813951
 20
139.1977696309804
 30
0.0
 11
200.7097752813951
 21
139.1977696309804
 31
0.0
  0
LINE
  5
530
330
A
100
AcDbEntity
  8
04
100
AcDbLine
 10
206.2097752813949
 20
125.1977689157248
 30
0.0
 11
206.2097752813951
 21
137.7977681051016
 31
0.0
  0
LINE
  5
531
330
A
100
AcDbEntity
  8
04
100
AcDbLine
 10
205.5097745184555
 20
123.9877688775778
 30
0.0
 11
206.2097752813949
 21
125.1977689157248
 31
0.0
  0
LINE
  5
532
330
A
100
AcDbEntity
  8
04
100
AcDbLine
 10
205.5097745184555
 20
139.0077690969229
 30
0.0
 11
206.2097752813951
 21
137.7977681051016
 31
0.0
  0
LINE
  5
533
330
A
100
AcDbEntity
  8
04
100
AcDbLine
 10
200.709775281395
 20
123.9877688775778
 30
0.0
 11
205.5097745184555
 21
123.9877688775778
 31
0.0
  0
LINE
  5
534
330
A
100
AcDbEntity
  8
04
100
AcDbLine
 10
200.7097752813951
 20
139.0077690969229
 30
0.0
 11
205.5097745184555
 21
139.0077690969229
 31
0.0
  0
LINE
  5
536
330
A
100
AcDbEntity
  8
04
100
AcDbLine
 10
183.9097753290788
 20
118.0977692495108
 30
0.0
 11
183.9097753290788
 21
116.0977692495108
 31
0.0
  0
LINE
  5
537
330
A
100
AcDbEntity
  8
04
100
AcDbLine
 10
168.5097745184556
 20
116.0977692495108
 30
0.0
 11
168.5097745184556
 21
118.0977692495108
 31
0.0
  0
LINE
  5
538
330
A
100
AcDbEntity
  8
04
100
AcDbLine
 10
184.7097752813952
 20
116.0977692495108
 30
0.0
 11
184.7097752813952
 21
114.4977688680411
 31
0.0
  0
LINE
  5
53A
330
A
100
AcDbEntity
  8
04
100
AcDbLine
 10
167.709775281395
 20
114.4977688680411
 30
0.0
 11
167.709775281395
 21
116.0977692495108
 31
0.0
  0
LINE
  5
53D
330
A
100
AcDbEntity
  8
04
100
AcDbLine
 10
182.5097752337113
 20
123.5977692495108
 30
0.0
 11
169.9097760443345
 21
123.5977692495108
 31
0.0
  0
LINE
  5
53E
330
A
100
AcDbEntity
  8
04
100
AcDbLine
 10
183.7197752718584
 20
122.8977684865713
 30
0.0
 11
182.5097752337113
 21
123.5977692495108
 31
0.0
  0
LINE
  5
53F
330
A
100
AcDbEntity
  8
04
100
AcDbLine
 10
168.6997750525133
 20
122.8977684865714
 30
0.0
 11
169.9097760443345
 21
123.5977692495108
 31
0.0
  0
LINE
  5
540
330
A
100
AcDbEntity
  8
04
100
AcDbLine
 10
183.7197752718584
 20
118.0977692495108
 30
0.0
 11
183.7197752718584
 21
122.8977684865713
 31
0.0
  0
LINE
  5
541
330
A
100
AcDbEntity
  8
04
100
AcDbLine
 10
168.6997750525133
 20
118.0977692495108
 30
0.0
 11
168.6997750525133
 21
122.8977684865714
 31
0.0
  0
LINE
  5
543
330
A
100
AcDbEntity
  8
04
100
AcDbLine
 10
187.7097752813952
 20
200.997768868041
 30
0.0
 11
192.7097752813951
 21
200.997768868041
 31
0.0
  0
LINE
  5
544
330
A
100
AcDbEntity
  8
04
100
AcDbLine
 10
192.7097752813951
 20
181.997768868041
 30
0.0
 11
187.7097752813952
 21
181.997768868041
 31
0.0
  0
LINE
  5
545
330
A
100
AcDbEntity
  8
04
100
AcDbLine
 10
186.2097752813951
 20
280.4977688680409
 30
0.0
 11
192.7097752813951
 21
280.4977688680409
 31
0.0
  0
LINE
  5
548
330
A
100
AcDbEntity
  8
04
100
AcDbLine
 10
192.7097752813951
 20
302.497768868041
 30
0.0
 11
186.2097752813951
 21
302.497768868041
 31
0.0
  0
LINE
  5
549
330
A
100
AcDbEntity
  8
04
100
AcDbLine
 10
187.7097752813952
 20
303.997768868041
 30
0.0
 11
192.7097752813951
 21
303.997768868041
 31
0.0
  0
LINE
  5
54A
330
A
100
AcDbEntity
  8
04
100
AcDbLine
 10
187.7097752813952
 20
322.997768868041
 30
0.0
 11
187.7097752813952
 21
303.997768868041
 31
0.0
  0
LINE
  5
54B
330
A
100
AcDbEntity
  8
04
100
AcDbLine
 10
192.7097752813951
 20
322.997768868041
 30
0.0
 11
187.7097752813952
 21
322.997768868041
 31
0.0
  0
LINE
  5
54C
330
A
100
AcDbEntity
  8
04
100
AcDbLine
 10
188.7097752813951
 20
152.4977688680411
 30
0.0
 11
192.7097752813951
 21
152.4977688680411
 31
0.0
  0
LINE
  5
54D
330
A
100
AcDbEntity
  8
04
100
AcDbLine
 10
188.7097752813951
 20
114.4977688680411
 30
0.0
 11
188.7097752813951
 21
152.4977688680411
 31
0.0
  0
LINE
  5
54E
330
A
100
AcDbEntity
  8
04
100
AcDbLine
 10
164.709775281395
 20
114.4977688680411
 30
0.0
 11
188.7097752813951
 21
114.4977688680411
 31
0.0
  0
LINE
  5
54F
330
A
100
AcDbEntity
  8
04
100
AcDbLine
 10
164.709775281395
 20
110.4977688680411
 30
0.0
 11
164.709775281395
 21
114.4977688680411
 31
0.0
  0
LINE
  5
550
330
A
100
AcDbEntity
  8
04
100
AcDbLine
 10
188.7097752813951
 20
110.4977688680411
 30
0.0
 11
164.709775281395
 21
110.4977688680411
 31
0.0
  0
LINE
  5
551
330
A
100
AcDbEntity
  8
04
100
AcDbLine
 10
198.7097752813951
 20
322.497768868041
 30
0.0
 11
192.7097752813951
 21
322.497768868041
 31
0.0
  0
LINE
  5
552
330
A
100
AcDbEntity
  8
04
100
AcDbLine
 10
198.7097752813951
 20
121.497768868041
 30
0.0
 11
198.7097752813951
 21
322.497768868041
 31
0.0
  0
LINE
  5
553
330
A
100
AcDbEntity
  8
04
100
AcDbLine
 10
192.7097752813951
 20
121.497768868041
 30
0.0
 11
198.7097752813951
 21
121.497768868041
 31
0.0
  0
LINE
  5
554
330
A
100
AcDbEntity
  8
04
100
AcDbLine
 10
192.7097752813951
 20
322.997768868041
 30
0.0
 11
192.7097752813951
 21
114.4977688393226
 31
0.0
  0
LINE
  5
556
330
A
100
AcDbEntity
  8
04
100
AcDbLine
 10
186.2097752813951
 20
261.497768868041
 30
0.0
 11
182.549775433983
 21
261.497768868041
 31
0.0
  0
LINE
  5
557
330
A
100
AcDbEntity
  8
04
100
AcDbLine
 10
186.2097752813951
 20
321.497768868041
 30
0.0
 11
186.2097752813951
 21
261.497768868041
 31
0.0
  0
LINE
  5
558
330
A
100
AcDbEntity
  8
04
100
AcDbLine
 10
181.2097752813951
 20
266.497768868041
 30
0.0
 11
182.549775433983
 21
261.497768868041
 31
0.0
  0
LINE
  5
559
330
A
100
AcDbEntity
  8
04
100
AcDbLine
 10
181.2097752813951
 20
266.497768868041
 30
0.0
 11
171.209775281395
 21
266.497768868041
 31
0.0
  0
LINE
  5
55C
330
A
100
AcDbEntity
  8
04
100
AcDbLine
 10
166.209775281395
 20
261.4977688680411
 30
0.0
 11
169.8697751288071
 21
261.4977688680411
 31
0.0
  0
LINE
  5
55D
330
A
100
AcDbEntity
  8
04
100
AcDbLine
 10
166.2097752813951
 20
321.4977688680411
 30
0.0
 11
166.209775281395
 21
261.4977688680411
 31
0.0
  0
LINE
  5
55E
330
A
100
AcDbEntity
  8
04
100
AcDbLine
 10
171.209775281395
 20
266.497768868041
 30
0.0
 11
169.8697751288071
 21
261.4977688680411
 31
0.0
  0
LINE
  5
560
330
A
100
AcDbEntity
  8
04
100
AcDbLine
 10
186.2097752813951
 20
321.497768868041
 30
0.0
 11
182.549775433983
 21
321.497768868041
 31
0.0
  0
LINE
  5
561
330
A
100
AcDbEntity
  8
04
100
AcDbLine
 10
181.2097752813951
 20
316.497768868041
 30
0.0
 11
182.549775433983
 21
321.497768868041
 31
0.0
  0
LINE
  5
562
330
A
100
AcDbEntity
  8
04
100
AcDbLine
 10
181.2097752813951
 20
316.497768868041
 30
0.0
 11
171.2097752813952
 21
316.497768868041
 31
0.0
  0
LINE
  5
563
330
A
100
AcDbEntity
  8
04
100
AcDbLine
 10
166.2097752813951
 20
321.4977688680411
 30
0.0
 11
169.8697751288072
 21
321.4977688680411
 31
0.0
  0
LINE
  5
564
330
A
100
AcDbEntity
  8
04
100
AcDbLine
 10
171.2097752813952
 20
316.497768868041
 30
0.0
 11
169.8697751288072
 21
321.4977688680411
 31
0.0
  0
LINE
  5
565
330
A
100
AcDbEntity
  8
04
100
AcDbLine
 10
158.8097756628648
 20
268.7977688203574
 30
0.0
 11
156.8097756628648
 21
268.7977688203574
 31
0.0
  0
LINE
  5
566
330
A
100
AcDbEntity
  8
04
100
AcDbLine
 10
156.8097756628649
 20
284.1977696309804
 30
0.0
 11
158.8097756628649
 21
284.1977696309804
 31
0.0
  0
LINE
  5
567
330
A
100
AcDbEntity
  8
04
100
AcDbLine
 10
156.8097756628648
 20
267.997768868041
 30
0.0
 11
155.209775281395
 21
267.997768868041
 31
0.0
  0
LINE
  5
569
330
A
100
AcDbEntity
  8
04
100
AcDbLine
 10
155.209775281395
 20
284.9977688680411
 30
0.0
 11
156.8097756628649
 21
284.9977688680411
 31
0.0
  0
LINE
  5
572
330
A
100
AcDbEntity
  8
04
100
AcDbLine
 10
164.3097756628648
 20
270.1977689157248
 30
0.0
 11
164.3097756628649
 21
282.7977681051016
 31
0.0
  0
LINE
  5
573
330
A
100
AcDbEntity
  8
04
100
AcDbLine
 10
163.6097748999254
 20
268.9877688775778
 30
0.0
 11
164.3097756628648
 21
270.1977689157248
 31
0.0
  0
LINE
  5
574
330
A
100
AcDbEntity
  8
04
100
AcDbLine
 10
163.6097748999254
 20
284.0077690969228
 30
0.0
 11
164.3097756628649
 21
282.7977681051016
 31
0.0
  0
LINE
  5
575
330
A
100
AcDbEntity
  8
04
100
AcDbLine
 10
158.8097756628648
 20
268.9877688775778
 30
0.0
 11
163.6097748999254
 21
268.9877688775778
 31
0.0
  0
LINE
  5
576
330
A
100
AcDbEntity
  8
04
100
AcDbLine
 10
158.8097756628649
 20
284.0077690969228
 30
0.0
 11
163.6097748999254
 21
284.0077690969228
 31
0.0
  0
LINE
  5
578
330
A
100
AcDbEntity
  8
04
100
AcDbLine
 10
171.209775281395
 20
261.497768868041
 30
0.0
 11
171.209775281395
 21
265.497768868041
 31
0.0
  0
LINE
  5
579
330
A
100
AcDbEntity
  8
04
100
AcDbLine
 10
161.209775281395
 20
258.497768868041
 30
0.0
 11
168.209775281395
 21
258.497768868041
 31
0.0
  0
LINE
  5
57A
330
A
100
AcDbEntity
  8
04
100
AcDbLine
 10
155.209775281395
 20
285.4977688680411
 30
0.0
 11
155.209775281395
 21
264.497768868041
 31
0.0
  0
LINE
  5
57B
330
A
100
AcDbEntity
  8
04
100
AcDbLine
 10
150.2097752813952
 20
286.4977688680411
 30
0.0
 11
154.209775281395
 21
286.4977688680411
 31
0.0
  0
LINE
  5
57C
330
A
100
AcDbEntity
  8
04
100
AcDbLine
 10
149.209775281395
 20
253.497768868041
 30
0.0
 11
149.2097752813952
 21
285.4977688680411
 31
0.0
  0
LINE
  5
57D
330
A
100
AcDbEntity
  8
04
100
AcDbLine
 10
180.2097752813951
 20
252.4977688680409
 30
0.0
 11
150.209775281395
 21
252.497768868041
 31
0.0
  0
LINE
  5
57E
330
A
100
AcDbEntity
  8
04
100
AcDbLine
 10
181.2097752813951
 20
255.497768868041
 30
0.0
 11
181.2097752813951
 21
253.497768868041
 31
0.0
  0
LINE
  5
57F
330
A
100
AcDbEntity
  8
04
100
AcDbLine
 10
178.2097752813951
 20
256.497768868041
 30
0.0
 11
180.2097752813951
 21
256.497768868041
 31
0.0
  0
LINE
  5
580
330
A
100
AcDbEntity
  8
04
100
AcDbLine
 10
177.2097752813951
 20
260.497768868041
 30
0.0
 11
177.2097752813951
 21
257.497768868041
 31
0.0
  0
LINE
  5
581
330
A
100
AcDbEntity
  8
04
100
AcDbLine
 10
180.2097752813951
 20
261.497768868041
 30
0.0
 11
178.2097752813951
 21
261.497768868041
 31
0.0
  0
LINE
  5
582
330
A
100
AcDbEntity
  8
04
100
AcDbLine
 10
181.2097752813951
 20
265.497768868041
 30
0.0
 11
181.2097752813951
 21
262.497768868041
 31
0.0
  0
LINE
  5
583
330
A
100
AcDbEntity
  8
04
100
AcDbLine
 10
172.2097752813951
 20
266.497768868041
 30
0.0
 11
180.2097752813951
 21
266.497768868041
 31
0.0
  0
LINE
  5
584
330
A
100
AcDbEntity
  8
04
100
AcDbLine
 10
182.2097752813951
 20
185.997768868041
 30
0.0
 11
181.7097752813952
 21
185.997768868041
 31
0.0
  0
LINE
  5
585
330
A
100
AcDbEntity
  8
04
100
AcDbLine
 10
182.2097752813951
 20
200.997768868041
 30
0.0
 11
182.2097752813951
 21
185.997768868041
 31
0.0
  0
LINE
  5
586
330
A
100
AcDbEntity
  8
04
100
AcDbLine
 10
182.2097752813951
 20
200.997768868041
 30
0.0
 11
181.7097752813952
 21
200.997768868041
 31
0.0
  0
LINE
  5
58F
330
A
100
AcDbEntity
  8
04
100
AcDbLine
 10
156.7097752813952
 20
182.4977688680409
 30
0.0
 11
161.7097752813952
 21
182.4977688680409
 31
0.0
  0
LINE
  5
592
330
A
100
AcDbEntity
  8
04
100
AcDbLine
 10
161.7097752813952
 20
204.4977688680409
 30
0.0
 11
156.7097752813952
 21
204.4977688680409
 31
0.0
  0
LINE
  5
5B6
330
A
100
AcDbEntity
  8
04
100
AcDbLine
 10
141.209775281395
 20
160.4977688680411
 30
0.0
 11
147.709775281395
 21
160.4977688680411
 31
0.0
  0
LINE
  5
5B9
330
A
100
AcDbEntity
  8
04
100
AcDbLine
 10
147.709775281395
 20
182.497768868041
 30
0.0
 11
141.209775281395
 21
182.497768868041
 31
0.0
  0
LINE
  5
5BA
330
A
100
AcDbEntity
  8
04
100
AcDbLine
 10
142.709775281395
 20
183.997768868041
 30
0.0
 11
147.709775281395
 21
183.997768868041
 31
0.0
  0
LINE
  5
5BB
330
A
100
AcDbEntity
  8
04
100
AcDbLine
 10
142.7097752813951
 20
202.997768868041
 30
0.0
 11
142.709775281395
 21
183.997768868041
 31
0.0
  0
LINE
  5
5BC
330
A
100
AcDbEntity
  8
04
100
AcDbLine
 10
147.7097752813951
 20
202.997768868041
 30
0.0
 11
142.7097752813951
 21
202.997768868041
 31
0.0
  0
LINE
  5
5BD
330
A
100
AcDbEntity
  8
04
100
AcDbLine
 10
143.709775281395
 20
152.4977688680411
 30
0.0
 11
147.709775281395
 21
152.4977688680411
 31
0.0
  0
LINE
  5
5BE
330
A
100
AcDbEntity
  8
04
100
AcDbLine
 10
143.7097752813949
 20
114.4977688680411
 30
0.0
 11
143.709775281395
 21
152.4977688680411
 31
0.0
  0
LINE
  5
5BF
330
A
100
AcDbEntity
  8
04
100
AcDbLine
 10
119.7097752813949
 20
114.4977688680411
 30
0.0
 11
143.7097752813949
 21
114.4977688680411
 31
0.0
  0
LINE
  5
5C0
330
A
100
AcDbEntity
  8
04
100
AcDbLine
 10
119.7097752813949
 20
110.4977688680411
 30
0.0
 11
119.7097752813949
 21
114.4977688680411
 31
0.0
  0
LINE
  5
5C1
330
A
100
AcDbEntity
  8
04
100
AcDbLine
 10
143.7097752813949
 20
110.4977688680411
 30
0.0
 11
119.7097752813949
 21
110.4977688680411
 31
0.0
  0
LINE
  5
5C2
330
A
100
AcDbEntity
  8
04
100
AcDbLine
 10
151.7097752813952
 20
202.497768868041
 30
0.0
 11
147.7097752813951
 21
202.497768868041
 31
0.0
  0
LINE
  5
5C3
330
A
100
AcDbEntity
  8
04
100
AcDbLine
 10
151.7097752813949
 20
121.497768868041
 30
0.0
 11
151.7097752813952
 21
202.497768868041
 31
0.0
  0
LINE
  5
5C4
330
A
100
AcDbEntity
  8
04
100
AcDbLine
 10
147.7097752813949
 20
121.497768868041
 30
0.0
 11
151.7097752813949
 21
121.497768868041
 31
0.0
  0
LINE
  5
5C5
330
A
100
AcDbEntity
  8
04
100
AcDbLine
 10
147.7097752813951
 20
202.997768868041
 30
0.0
 11
147.7097752813949
 21
114.4977688680411
 31
0.0
  0
LINE
  5
5C7
330
A
100
AcDbEntity
  8
04
100
AcDbLine
 10
141.209775281395
 20
141.4977688680411
 30
0.0
 11
137.549775433983
 21
141.4977688680411
 31
0.0
  0
LINE
  5
5C8
330
A
100
AcDbEntity
  8
04
100
AcDbLine
 10
141.2097752813951
 20
201.497768868041
 30
0.0
 11
141.209775281395
 21
141.4977688680411
 31
0.0
  0
LINE
  5
5C9
330
A
100
AcDbEntity
  8
04
100
AcDbLine
 10
136.209775281395
 20
146.4977688680411
 30
0.0
 11
137.549775433983
 21
141.4977688680411
 31
0.0
  0
LINE
  5
5CA
330
A
100
AcDbEntity
  8
04
100
AcDbLine
 10
136.209775281395
 20
146.4977688680411
 30
0.0
 11
126.209775281395
 21
146.4977688680411
 31
0.0
  0
LINE
  5
5CD
330
A
100
AcDbEntity
  8
04
100
AcDbLine
 10
121.209775281395
 20
141.4977688680411
 30
0.0
 11
124.8697751288072
 21
141.4977688680411
 31
0.0
  0
LINE
  5
5CE
330
A
100
AcDbEntity
  8
04
100
AcDbLine
 10
121.2097752813952
 20
201.497768868041
 30
0.0
 11
121.209775281395
 21
141.4977688680411
 31
0.0
  0
LINE
  5
5CF
330
A
100
AcDbEntity
  8
04
100
AcDbLine
 10
126.209775281395
 20
146.4977688680411
 30
0.0
 11
124.8697751288072
 21
141.4977688680411
 31
0.0
  0
LINE
  5
5D1
330
A
100
AcDbEntity
  8
04
100
AcDbLine
 10
141.2097752813951
 20
201.497768868041
 30
0.0
 11
137.549775433983
 21
201.497768868041
 31
0.0
  0
LINE
  5
5D2
330
A
100
AcDbEntity
  8
04
100
AcDbLine
 10
136.2097752813951
 20
196.497768868041
 30
0.0
 11
137.549775433983
 21
201.497768868041
 31
0.0
  0
LINE
  5
5D3
330
A
100
AcDbEntity
  8
04
100
AcDbLine
 10
136.2097752813951
 20
196.497768868041
 30
0.0
 11
126.2097752813952
 21
196.497768868041
 31
0.0
  0
LINE
  5
5D4
330
A
100
AcDbEntity
  8
04
100
AcDbLine
 10
121.2097752813952
 20
201.497768868041
 30
0.0
 11
124.8697751288073
 21
201.497768868041
 31
0.0
  0
LINE
  5
5D5
330
A
100
AcDbEntity
  8
04
100
AcDbLine
 10
126.2097752813952
 20
196.497768868041
 30
0.0
 11
124.8697751288073
 21
201.497768868041
 31
0.0
  0
LINE
  5
5D6
330
A
100
AcDbEntity
  8
04
100
AcDbLine
 10
154.7097752813952
 20
175.497768868041
 30
0.0
 11
156.7097752813952
 21
175.497768868041
 31
0.0
  0
LINE
  5
5D7
330
A
100
AcDbEntity
  8
04
100
AcDbLine
 10
151.7097752813952
 20
205.997768868041
 30
0.0
 11
151.7097752813952
 21
178.497768868041
 31
0.0
  0
LINE
  5
5D8
330
A
100
AcDbEntity
  8
04
100
AcDbLine
 10
119.7097752813952
 20
210.497768868041
 30
0.0
 11
147.2097752813952
 21
210.497768868041
 31
0.0
  0
LINE
  5
5D9
330
A
100
AcDbEntity
  8
04
100
AcDbLine
 10
116.7097752813952
 20
215.497768868041
 30
0.0
 11
116.7097752813952
 21
213.4977688680411
 31
0.0
  0
LINE
  5
5DA
330
A
100
AcDbEntity
  8
04
100
AcDbLine
 10
156.7097752813952
 20
215.497768868041
 30
0.0
 11
116.7097752813952
 21
215.497768868041
 31
0.0
  0
LINE
  5
5DB
330
A
100
AcDbEntity
  8
04
100
AcDbLine
 10
126.209775281395
 20
141.4977688680409
 30
0.0
 11
126.209775281395
 21
145.4977688680409
 31
0.0
  0
LINE
  5
5DC
330
A
100
AcDbEntity
  8
04
100
AcDbLine
 10
136.209775281395
 20
135.4977688680409
 30
0.0
 11
136.209775281395
 21
133.4977688680409
 31
0.0
  0
LINE
  5
5DD
330
A
100
AcDbEntity
  8
04
100
AcDbLine
 10
133.209775281395
 20
136.4977688680409
 30
0.0
 11
135.209775281395
 21
136.4977688680409
 31
0.0
  0
LINE
  5
5DE
330
A
100
AcDbEntity
  8
04
100
AcDbLine
 10
132.209775281395
 20
140.4977688680409
 30
0.0
 11
132.209775281395
 21
137.4977688680409
 31
0.0
  0
LINE
  5
5DF
330
A
100
AcDbEntity
  8
04
100
AcDbLine
 10
135.209775281395
 20
141.4977688680409
 30
0.0
 11
133.209775281395
 21
141.4977688680409
 31
0.0
  0
LINE
  5
5E0
330
A
100
AcDbEntity
  8
04
100
AcDbLine
 10
136.209775281395
 20
145.4977688680409
 30
0.0
 11
136.209775281395
 21
142.4977688680409
 31
0.0
  0
LINE
  5
5E1
330
A
100
AcDbEntity
  8
04
100
AcDbLine
 10
127.209775281395
 20
146.4977688680409
 30
0.0
 11
135.209775281395
 21
146.4977688680409
 31
0.0
  0
LINE
  5
5E2
330
A
100
AcDbEntity
  8
04
100
AcDbLine
 10
169.1116990700418
 20
224.9977688680409
 30
0.0
 11
164.7815720511196
 21
232.497768868041
 31
0.0
  0
LINE
  5
5E3
330
A
100
AcDbEntity
  8
04
100
AcDbLine
 10
174.3078514927484
 20
224.9977688680409
 30
0.0
 11
178.6379785116706
 21
232.497768868041
 31
0.0
  0
LINE
  5
5E4
330
A
100
AcDbEntity
  8
04
100
AcDbLine
 10
169.1116990700418
 20
161.997768868041
 30
0.0
 11
164.7815720511195
 21
154.4977688680411
 31
0.0
  0
LINE
  5
5E5
330
A
100
AcDbEntity
  8
04
100
AcDbLine
 10
174.3078514927484
 20
161.997768868041
 30
0.0
 11
178.6379785116706
 21
154.4977688680411
 31
0.0
  0
LINE
  5
5E6
330
A
100
AcDbEntity
  8
04
100
AcDbLine
 10
164.7815720511195
 20
154.4977688680411
 30
0.0
 11
161.7097752813952
 21
154.4977688680411
 31
0.0
  0
LINE
  5
5E7
330
A
100
AcDbEntity
  8
04
100
AcDbLine
 10
181.7097752813952
 20
154.4977688680411
 30
0.0
 11
178.6379785116706
 21
154.4977688680411
 31
0.0
  0
LINE
  5
5E8
330
A
100
AcDbEntity
  8
04
100
AcDbLine
 10
181.7097752813952
 20
232.497768868041
 30
0.0
 11
181.7097752813952
 21
154.4977688680411
 31
0.0
  0
LINE
  5
5E9
330
A
100
AcDbEntity
  8
04
100
AcDbLine
 10
178.6379785116706
 20
232.497768868041
 30
0.0
 11
181.7097752813952
 21
232.497768868041
 31
0.0
  0
LINE
  5
5EA
330
A
100
AcDbEntity
  8
04
100
AcDbLine
 10
161.7097752813952
 20
232.497768868041
 30
0.0
 11
164.7815720511196
 21
232.497768868041
 31
0.0
  0
LINE
  5
5EB
330
A
100
AcDbEntity
  8
04
100
AcDbLine
 10
161.7097752813952
 20
154.4977688680411
 30
0.0
 11
161.7097752813952
 21
232.497768868041
 31
0.0
  0
LINE
  5
5EC
330
A
100
AcDbEntity
  8
04
100
AcDbLine
 10
156.7097752813952
 20
175.497768868041
 30
0.0
 11
156.7097752813952
 21
215.497768868041
 31
0.0
  0
LINE
  5
5ED
330
A
100
AcDbEntity
  8
04
100
AcDbLine
 10
113.8097756628647
 20
148.7977688203574
 30
0.0
 11
111.8097756628648
 21
148.7977688203574
 31
0.0
  0
LINE
  5
5EE
330
A
100
AcDbEntity
  8
04
100
AcDbLine
 10
111.8097756628649
 20
164.1977696309805
 30
0.0
 11
113.8097756628647
 21
164.1977696309805
 31
0.0
  0
LINE
  5
5EF
330
A
100
AcDbEntity
  8
04
100
AcDbLine
 10
111.8097756628648
 20
147.9977688680411
 30
0.0
 11
110.2097752813951
 21
147.9977688680411
 31
0.0
  0
LINE
  5
5F1
330
A
100
AcDbEntity
  8
04
100
AcDbLine
 10
110.2097752813951
 20
164.9977688680411
 30
0.0
 11
111.8097756628649
 21
164.9977688680411
 31
0.0
  0
LINE
  5
5FA
330
A
100
AcDbEntity
  8
04
100
AcDbLine
 10
119.3097756628648
 20
150.1977689157248
 30
0.0
 11
119.3097756628648
 21
162.7977681051016
 31
0.0
  0
LINE
  5
5FB
330
A
100
AcDbEntity
  8
04
100
AcDbLine
 10
118.6097748999253
 20
148.9877688775778
 30
0.0
 11
119.3097756628648
 21
150.1977689157248
 31
0.0
  0
LINE
  5
5FC
330
A
100
AcDbEntity
  8
04
100
AcDbLine
 10
118.6097748999253
 20
164.0077690969229
 30
0.0
 11
119.3097756628648
 21
162.7977681051016
 31
0.0
  0
LINE
  5
5FD
330
A
100
AcDbEntity
  8
04
100
AcDbLine
 10
113.8097756628647
 20
148.9877688775778
 30
0.0
 11
118.6097748999253
 21
148.9877688775778
 31
0.0
  0
LINE
  5
5FE
330
A
100
AcDbEntity
  8
04
100
AcDbLine
 10
113.8097756628647
 20
164.0077690969229
 30
0.0
 11
118.6097748999253
 21
164.0077690969229
 31
0.0
  0
LINE
  5
600
330
A
100
AcDbEntity
  8
04
100
AcDbLine
 10
116.209775281395
 20
138.4977688680411
 30
0.0
 11
123.209775281395
 21
138.4977688680411
 31
0.0
  0
LINE
  5
601
330
A
100
AcDbEntity
  8
04
100
AcDbLine
 10
110.2097752813951
 20
165.4977688680411
 30
0.0
 11
110.2097752813951
 21
144.4977688680411
 31
0.0
  0
LINE
  5
602
330
A
100
AcDbEntity
  8
04
100
AcDbLine
 10
105.2097752813951
 20
166.4977688680411
 30
0.0
 11
109.2097752813951
 21
166.4977688680411
 31
0.0
  0
LINE
  5
603
330
A
100
AcDbEntity
  8
04
100
AcDbLine
 10
104.2097752813951
 20
132.497768868041
 30
0.0
 11
104.2097752813951
 21
166.4977688680411
 31
0.0
  0
LINE
  5
604
330
A
100
AcDbEntity
  8
04
100
AcDbLine
 10
135.209775281395
 20
132.4977688680409
 30
0.0
 11
105.2097752813951
 21
132.497768868041
 31
0.0
  0
LINE
  5
621
330
A
100
AcDbEntity
  8
CHUSIN
100
AcDbLine
 10
131.209775281395
 20
55.24118526745193
 30
0.0
 11
131.209775281395
 21
74.42871717071762
 31
0.0
  0
LINE
  5
622
330
A
100
AcDbEntity
  8
CHUSIN
100
AcDbLine
 10
171.709775281395
 20
237.5936005922429
 30
0.0
 11
171.709775281395
 21
157.2041577161504
 31
0.0
  0
LINE
  5
623
330
A
100
AcDbEntity
  8
CHUSIN
100
AcDbLine
 10
118.4642632320334
 20
171.4977688680411
 30
0.0
 11
155.471722913231
 21
171.4977688680411
 31
0.0
  0
LINE
  5
624
330
A
100
AcDbEntity
  8
CHUSIN
100
AcDbLine
 10
131.209775281395
 20
128.1456038661075
 30
0.0
 11
131.2097752813951
 21
199.497768868041
 31
0.0
  0
LINE
  5
626
330
A
100
AcDbEntity
  8
CHUSIN
 48
0.3
100
AcDbLine
 10
175.6446577559375
 20
161.997768868041
 30
0.0
 11
167.7322543763694
 21
161.997768868041
 31
0.0
  0
LINE
  5
627
330
A
100
AcDbEntity
  8
CHUSIN
100
AcDbLine
 10
140.7297757391589
 20
193.497768868041
 30
0.0
 11
184.1161698913024
 21
193.497768868041
 31
0.0
  0
LINE
  5
628
330
A
100
AcDbEntity
  8
CHUSIN
100
AcDbLine
 10
76.09499783562696
 20
156.4977688680411
 30
0.0
 11
123.1318250310943
 21
156.4977688680411
 31
0.0
  0
LINE
  5
629
330
A
100
AcDbEntity
  8
02
100
AcDbLine
 10
71.20977528139518
 20
377.9977688680411
 30
0.0
 11
71.20977528139518
 21
383.997768868041
 31
0.0
  0
LINE
  5
62A
330
A
100
AcDbEntity
  8
03
100
AcDbLine
 10
59.20977528139514
 20
104.997768868041
 30
0.0
 11
59.20977528139514
 21
92.99776886804114
 31
0.0
  0
LINE
  5
62B
330
A
100
AcDbEntity
  8
03
100
AcDbLine
 10
103.209775281395
 20
104.997768868041
 30
0.0
 11
59.20977528139514
 21
104.997768868041
 31
0.0
  0
LINE
  5
62C
330
A
100
AcDbEntity
  8
03
100
AcDbLine
 10
103.209775281395
 20
92.99776886804108
 30
0.0
 11
103.209775281395
 21
104.997768868041
 31
0.0
  0
LINE
  5
62D
330
A
100
AcDbEntity
  8
03
100
AcDbLine
 10
104.709775281395
 20
92.99776886804108
 30
0.0
 11
57.70977528139514
 21
92.99776886804114
 31
0.0
  0
LINE
  5
62E
330
A
100
AcDbEntity
  8
03
100
AcDbLine
 10
104.709775281395
 20
104.997768868041
 30
0.0
 11
104.709775281395
 21
92.99776886804108
 31
0.0
  0
LINE
  5
62F
330
A
100
AcDbEntity
  8
03
100
AcDbLine
 10
106.2097752813951
 20
104.997768868041
 30
0.0
 11
104.709775281395
 21
104.997768868041
 31
0.0
  0
LINE
  5
630
330
A
100
AcDbEntity
  8
02
100
AcDbLine
 10
110.2097752813951
 20
271.497768868041
 30
0.0
 11
104.2097752813951
 21
271.497768868041
 31
0.0
  0
LINE
  5
631
330
A
100
AcDbEntity
  8
02
100
AcDbLine
 10
110.2097752813951
 20
252.497768868041
 30
0.0
 11
110.2097752813951
 21
271.497768868041
 31
0.0
  0
LINE
  5
632
330
A
100
AcDbEntity
  8
02
100
AcDbLine
 10
114.2097752813951
 20
377.9977688680411
 30
0.0
 11
114.2097752813951
 21
371.9977688680411
 31
0.0
  0
LINE
  5
633
330
A
100
AcDbEntity
  8
02
100
AcDbLine
 10
234.7097752813949
 20
377.997768868041
 30
0.0
 11
71.20977528139518
 21
377.9977688680411
 31
0.0
  0
LINE
  5
634
330
A
100
AcDbEntity
  8
02
100
AcDbLine
 10
234.7097752813949
 20
383.997768868041
 30
0.0
 11
234.7097752813949
 21
377.997768868041
 31
0.0
  0
LINE
  5
635
330
A
100
AcDbEntity
  8
02
100
AcDbLine
 10
209.7097752813949
 20
386.997768868041
 30
0.0
 11
209.709775281395
 21
389.9977688680411
 31
0.0
  0
LINE
  5
636
330
A
100
AcDbEntity
  8
02
100
AcDbLine
 10
239.2097752813952
 20
383.997768868041
 30
0.0
 11
212.7097752813948
 21
383.997768868041
 31
0.0
  0
LINE
  5
637
330
A
100
AcDbEntity
  8
02
100
AcDbLine
 10
243.7097752813952
 20
352.9977688680411
 30
0.0
 11
243.7097752813952
 21
379.497768868041
 31
0.0
  0
LINE
  5
638
330
A
100
AcDbEntity
  8
02
100
AcDbLine
 10
249.7097752813952
 20
349.997768868041
 30
0.0
 11
246.7097752813951
 21
349.9977688680411
 31
0.0
  0
LINE
  5
639
330
A
100
AcDbEntity
  8
02
100
AcDbLine
 10
249.7097752813952
 20
389.997768868041
 30
0.0
 11
249.7097752813952
 21
349.997768868041
 31
0.0
  0
LINE
  5
63A
330
A
100
AcDbEntity
  8
02
100
AcDbLine
 10
63.70977528139521
 20
369.9977688680408
 30
0.0
 11
69.7097752813952
 21
369.9977688680408
 31
0.0
  0
LINE
  5
63B
330
A
100
AcDbEntity
  8
02
100
AcDbLine
 10
63.70977528139514
 20
126.497768868041
 30
0.0
 11
63.70977528139519
 21
369.9977688680408
 31
0.0
  0
LINE
  5
63C
330
A
100
AcDbEntity
  8
02
100
AcDbLine
 10
69.70977528139512
 20
126.497768868041
 30
0.0
 11
63.70977528139514
 21
126.497768868041
 31
0.0
  0
LINE
  5
63D
330
A
100
AcDbEntity
  8
02
100
AcDbLine
 10
69.7097752813952
 20
369.9977688680408
 30
0.0
 11
69.70977528139512
 21
126.497768868041
 31
0.0
  0
LINE
  5
63E
330
A
100
AcDbEntity
  8
02
100
AcDbLine
 10
74.20977528139521
 20
371.9977688680411
 30
0.0
 11
98.20977528139515
 21
371.9977688680411
 31
0.0
  0
LINE
  5
63F
330
A
100
AcDbEntity
  8
02
100
AcDbLine
 10
74.20977528139521
 20
377.9977688680411
 30
0.0
 11
74.20977528139521
 21
371.9977688680411
 31
0.0
  0
LINE
  5
640
330
A
100
AcDbEntity
  8
02
100
AcDbLine
 10
229.7097752813949
 20
383.997768868041
 30
0.0
 11
71.20977528139518
 21
383.997768868041
 31
0.0
  0
LINE
  5
641
330
A
100
AcDbEntity
  8
02
100
AcDbLine
 10
107.7097752813952
 20
388.4977688680411
 30
0.0
 11
107.7097752813952
 21
389.9977688680411
 31
0.0
  0
LINE
  5
642
330
A
100
AcDbEntity
  8
02
100
AcDbLine
 10
70.20977528139521
 20
383.9977688680411
 30
0.0
 11
103.2097752813952
 21
383.997768868041
 31
0.0
  0
LINE
  5
643
330
A
100
AcDbEntity
  8
02
100
AcDbLine
 10
63.70977528139516
 20
344.4977688680408
 30
0.0
 11
63.70977528139523
 21
377.4977688680411
 31
0.0
  0
LINE
  5
644
330
A
100
AcDbEntity
  8
02
100
AcDbLine
 10
57.70977528139519
 20
339.9977688680411
 30
0.0
 11
59.20977528139516
 21
339.9977688680408
 31
0.0
  0
LINE
  5
645
330
A
100
AcDbEntity
  8
02
100
AcDbLine
 10
74.20977528139514
 20
118.497768868041
 30
0.0
 11
98.20977528139515
 21
118.497768868041
 31
0.0
  0
LINE
  5
646
330
A
100
AcDbEntity
  8
02
100
AcDbLine
 10
74.20977528139514
 20
112.4977688680411
 30
0.0
 11
74.20977528139514
 21
118.497768868041
 31
0.0
  0
LINE
  5
647
330
A
100
AcDbEntity
  8
02
100
AcDbLine
 10
74.20977528139514
 20
112.4977688680411
 30
0.0
 11
103.209775281395
 21
112.4977688680411
 31
0.0
  0
LINE
  5
648
330
A
100
AcDbEntity
  8
02
100
AcDbLine
 10
59.20977528139516
 20
156.4977688680411
 30
0.0
 11
57.70977528139517
 21
156.4977688680411
 31
0.0
  0
LINE
  5
649
330
A
100
AcDbEntity
  8
02
100
AcDbLine
 10
63.70977528139514
 20
118.997768868041
 30
0.0
 11
63.70977528139516
 21
151.9977688680411
 31
0.0
  0
LINE
  5
64A
330
A
100
AcDbEntity
  8
02
100
AcDbLine
 10
98.20977528139515
 20
112.4977688680411
 30
0.0
 11
70.20977528139514
 21
112.4977688680411
 31
0.0
  0
LINE
  5
64B
330
A
100
AcDbEntity
  8
02
100
AcDbLine
 10
107.709775281395
 20
106.497768868041
 30
0.0
 11
107.709775281395
 21
107.997768868041
 31
0.0
  0
LINE
  5
64C
330
A
100
AcDbEntity
  8
03
100
AcDbLine
 10
57.70977528139514
 20
92.99776886804114
 30
0.0
 11
57.70977528139521
 21
389.9977688680411
 31
0.0
  0
LINE
  5
64D
330
A
100
AcDbEntity
  8
02
100
AcDbLine
 10
107.709775281395
 20
106.497768868041
 30
0.0
 11
57.70977528139517
 21
106.497768868041
 31
0.0
  0
LINE
  5
64E
330
A
100
AcDbEntity
  8
03
100
AcDbLine
 10
106.2097752813951
 20
92.99776886804108
 30
0.0
 11
106.2097752813951
 21
104.997768868041
 31
0.0
  0
LINE
  5
64F
330
A
100
AcDbEntity
  8
03
100
AcDbLine
 10
196.2097752813951
 20
101.497768868041
 30
0.0
 11
196.209775281395
 21
68.49776886804112
 31
0.0
  0
LINE
  5
650
330
A
100
AcDbEntity
  8
03
100
AcDbLine
 10
156.209775281395
 20
101.497768868041
 30
0.0
 11
196.2097752813951
 21
101.497768868041
 31
0.0
  0
LINE
  5
651
330
A
100
AcDbEntity
  8
03
100
AcDbLine
 10
156.209775281395
 20
68.49776886804114
 30
0.0
 11
156.209775281395
 21
101.497768868041
 31
0.0
  0
LINE
  5
652
330
A
100
AcDbEntity
  8
03
100
AcDbLine
 10
151.209775281395
 20
101.497768868041
 30
0.0
 11
151.209775281395
 21
68.49776886804114
 31
0.0
  0
LINE
  5
653
330
A
100
AcDbEntity
  8
03
100
AcDbLine
 10
111.2097752813951
 20
101.497768868041
 30
0.0
 11
151.209775281395
 21
101.497768868041
 31
0.0
  0
LINE
  5
654
330
A
100
AcDbEntity
  8
03
100
AcDbLine
 10
111.2097752813951
 20
101.497768868041
 30
0.0
 11
111.2097752813951
 21
68.49776886804114
 31
0.0
  0
LINE
  5
655
330
A
100
AcDbEntity
  8
03
100
AcDbLine
 10
201.209775281395
 20
101.497768868041
 30
0.0
 11
201.209775281395
 21
92.99776886804108
 31
0.0
  0
LINE
  5
656
330
A
100
AcDbEntity
  8
03
100
AcDbLine
 10
202.7097752813951
 20
101.497768868041
 30
0.0
 11
201.209775281395
 21
101.497768868041
 31
0.0
  0
LINE
  5
657
330
A
100
AcDbEntity
  8
03
100
AcDbLine
 10
202.7097752813951
 20
92.99776886804108
 30
0.0
 11
202.7097752813951
 21
101.497768868041
 31
0.0
  0
LINE
  5
658
330
A
100
AcDbEntity
  8
03
100
AcDbLine
 10
264.7097752813951
 20
92.99776886804108
 30
0.0
 11
202.7097752813951
 21
92.99776886804108
 31
0.0
  0
LINE
  5
659
330
A
100
AcDbEntity
  8
03
100
AcDbLine
 10
264.7097752813952
 20
361.997768868041
 30
0.0
 11
264.7097752813951
 21
92.99776886804108
 31
0.0
  0
LINE
  5
65A
330
A
100
AcDbEntity
  8
03
100
AcDbLine
 10
253.209775281395
 20
361.997768868041
 30
0.0
 11
264.7097752813952
 21
361.997768868041
 31
0.0
  0
LINE
  5
65B
330
A
100
AcDbEntity
  8
03
100
AcDbLine
 10
253.209775281395
 20
363.497768868041
 30
0.0
 11
253.209775281395
 21
361.997768868041
 31
0.0
  0
LINE
  5
65C
330
A
100
AcDbEntity
  8
03
100
AcDbLine
 10
264.7097752813952
 20
363.497768868041
 30
0.0
 11
253.209775281395
 21
363.497768868041
 31
0.0
  0
LINE
  5
65D
330
A
100
AcDbEntity
  8
03
100
AcDbLine
 10
251.209775281395
 20
367.9977688680411
 30
0.0
 11
264.7097752813952
 21
367.997768868041
 31
0.0
  0
LINE
  5
65E
330
A
100
AcDbEntity
  8
03
100
AcDbLine
 10
249.7097752813952
 20
349.997768868041
 30
0.0
 11
249.7097752813952
 21
366.4977688680411
 31
0.0
  0
LINE
  5
65F
330
A
100
AcDbEntity
  8
03
100
AcDbLine
 10
251.209775281395
 20
349.997768868041
 30
0.0
 11
249.7097752813952
 21
349.997768868041
 31
0.0
  0
LINE
  5
660
330
A
100
AcDbEntity
  8
03
100
AcDbLine
 10
251.209775281395
 20
366.497768868041
 30
0.0
 11
251.209775281395
 21
349.997768868041
 31
0.0
  0
LINE
  5
661
330
A
100
AcDbEntity
  8
03
100
AcDbLine
 10
264.7097752813952
 20
366.4977688680411
 30
0.0
 11
251.209775281395
 21
366.497768868041
 31
0.0
  0
LINE
  5
662
330
A
100
AcDbEntity
  8
03
100
AcDbLine
 10
264.7097752813952
 20
389.997768868041
 30
0.0
 11
264.7097752813952
 21
367.997768868041
 31
0.0
  0
LINE
  5
663
330
A
100
AcDbEntity
  8
03
100
AcDbLine
 10
57.70977528139519
 20
391.4977688680411
 30
0.0
 11
264.7097752813949
 21
391.497768868041
 31
0.0
  0
LINE
  5
664
330
A
100
AcDbEntity
  8
02
100
AcDbLine
 10
143.209775281395
 20
252.497768868041
 30
0.0
 11
110.2097752813951
 21
252.497768868041
 31
0.0
  0
LINE
  5
665
330
A
100
AcDbEntity
  8
02
100
AcDbLine
 10
143.2097752813952
 20
371.9977688680411
 30
0.0
 11
143.209775281395
 21
252.497768868041
 31
0.0
  0
LINE
  5
666
330
A
100
AcDbEntity
  8
02
100
AcDbLine
 10
114.2097752813951
 20
371.9977688680411
 30
0.0
 11
143.2097752813952
 21
371.9977688680411
 31
0.0
  0
LINE
  5
667
330
A
100
AcDbEntity
  8
02
100
AcDbLine
 10
149.209775281395
 20
252.497768868041
 30
0.0
 11
149.2097752813952
 21
371.9977688680411
 31
0.0
  0
LINE
  5
668
330
A
100
AcDbEntity
  8
02
100
AcDbLine
 10
110.2097752813951
 20
246.497768868041
 30
0.0
 11
143.209775281395
 21
246.497768868041
 31
0.0
  0
LINE
  5
669
330
A
100
AcDbEntity
  8
02
100
AcDbLine
 10
98.20977528139515
 20
118.497768868041
 30
0.0
 11
98.20977528139515
 21
371.9977688680411
 31
0.0
  0
LINE
  5
66A
330
A
100
AcDbEntity
  8
02
100
AcDbLine
 10
104.2097752813951
 20
371.9977688680411
 30
0.0
 11
104.2097752813951
 21
118.497768868041
 31
0.0
  0
LINE
  5
66B
330
A
100
AcDbEntity
  8
03
100
AcDbLine
 10
266.2097752813952
 20
367.9977688680411
 30
0.0
 11
266.2097752813949
 21
389.997768868041
 31
0.0
  0
LINE
  5
66C
330
A
100
AcDbEntity
  8
03
100
AcDbLine
 10
266.2097752813951
 20
92.99776886804108
 30
0.0
 11
266.2097752813952
 21
361.997768868041
 31
0.0
  0
LINE
  5
66D
330
A
100
AcDbEntity
  8
03
100
AcDbLine
 10
202.7097752813951
 20
91.4977688680411
 30
0.0
 11
264.7097752813951
 21
91.49776886804108
 31
0.0
  0
LINE
  5
66E
330
A
100
AcDbEntity
  8
03
100
AcDbLine
 10
57.70977528139517
 20
91.49776886804113
 30
0.0
 11
104.709775281395
 21
91.4977688680411
 31
0.0
  0
LINE
  5
66F
330
A
100
AcDbEntity
  8
03
100
AcDbLine
 10
56.20977528139519
 20
389.9977688680411
 30
0.0
 11
56.20977528139519
 21
92.99776886804114
 31
0.0
  0
LINE
  5
670
330
A
100
AcDbEntity
  8
03
100
AcDbLine
 10
264.7097752813952
 20
389.997768868041
 30
0.0
 11
57.70977528139521
 21
389.9977688680411
 31
0.0
  0
POLYLINE
  5
697
330
A
100
AcDbEntity
  8
DEFPOINTS
100
AcDb2dPolyline
 66
     1
 10
0.0
 20
0.0
 30
0.0
 70
     1
  0
VERTEX
  5
15F3
330
697
100
AcDbEntity
  8
DEFPOINTS
100
AcDbVertex
100
AcDb2dVertex
 10
0.0
 20
0.0
 30
0.0
  0
VERTEX
  5
15F4
330
697
100
AcDbEntity
  8
DEFPOINTS
100
AcDbVertex
100
AcDb2dVertex
 10
297.0
 20
0.0
 30
0.0
  0
VERTEX
  5
15F5
330
697
100
AcDbEntity
  8
DEFPOINTS
100
AcDbVertex
100
AcDb2dVertex
 10
297.0
 20
420.0
 30
0.0
  0
VERTEX
  5
15F6
330
697
100
AcDbEntity
  8
DEFPOINTS
100
AcDbVertex
100
AcDb2dVertex
 10
0.0
 20
420.0
 30
0.0
  0
SEQEND
  5
15F7
330
697
100
AcDbEntity
  8
DEFPOINTS
  0
DIMENSION
  5
6EA
330
A
100
AcDbEntity
  8
SUNPOU
100
AcDbDimension
  2
*D1
 10
106.2097752813951
 20
73.32833532861426
 30
0.0
 11
81.20977528139514
 21
76.70333532861426
 31
0.0
 70
    32
  3
SUNPOU_1_5
100
AcDbAlignedDimension
 13
56.20977528139514
 23
92.99776886804114
 33
0.0
 14
106.2097752813951
 24
92.99776886804114
 34
0.0
100
AcDbRotatedDimension
1001
ACAD
1000
DSTYLE
1002
{
1070
   271
1070
     1
1002
}
  0
DIMENSION
  5
71C
330
A
100
AcDbEntity
  8
SUNPOU
100
AcDbDimension
  2
*D2
 10
111.2097752813951
 20
73.32833532861426
 30
0.0
 11
108.709775281395
 21
82.70333532861426
 31
0.0
 70
    32
  3
SUNPOU_1_5
100
AcDbAlignedDimension
 13
106.2097752813951
 23
92.99776886804108
 33
0.0
 14
111.2097752813951
 24
73.32833532861426
 34
0.0
100
AcDbRotatedDimension
1001
ACAD
1000
DSTYLE
1002
{
1070
   271
1070
     1
1002
}
  0
DIMENSION
  5
72B
330
A
100
AcDbEntity
  8
SUNPOU
100
AcDbDimension
  2
*D3
 10
151.209775281395
 20
73.32833532861426
 30
0.0
 11
131.209775281395
 21
76.70333532861426
 31
0.0
 70
    32
  3
SUNPOU_1_5
100
AcDbAlignedDimension
 13
111.2097752813951
 23
73.32833532861426
 33
0.0
 14
151.209775281395
 24
73.32833532861426
 34
0.0
100
AcDbRotatedDimension
1001
ACAD
1000
DSTYLE
1002
{
1070
   271
1070
     1
1002
}
  0
DIMENSION
  5
738
330
A
100
AcDbEntity
  8
SUNPOU
100
AcDbDimension
  2
*D4
 10
156.209775281395
 20
73.32833532861426
 30
0.0
 11
153.709775281395
 21
76.6696823103764
 31
0.0
 70
   160
  3
SUNPOU_1_5
100
AcDbAlignedDimension
 13
151.209775281395
 23
73.32833532861426
 33
0.0
 14
156.209775281395
 24
73.32833532861426
 34
0.0
100
AcDbRotatedDimension
1001
ACAD
1000
DSTYLE
1002
{
1070
   271
1070
     1
1002
}
  0
DIMENSION
  5
747
330
A
100
AcDbEntity
  8
SUNPOU
100
AcDbDimension
  2
*D5
 10
196.209775281395
 20
73.32833532861426
 30
0.0
 11
176.209775281395
 21
76.70333532861426
 31
0.0
 70
    32
  3
SUNPOU_1_5
100
AcDbAlignedDimension
 13
156.209775281395
 23
73.32833532861426
 33
0.0
 14
196.209775281395
 24
73.32833532861426
 34
0.0
100
AcDbRotatedDimension
1001
ACAD
1000
DSTYLE
1002
{
1070
   271
1070
     1
1002
}
  0
DIMENSION
  5
754
330
A
100
AcDbEntity
  8
SUNPOU
100
AcDbDimension
  2
*D6
 10
201.209775281395
 20
73.32833532861426
 30
0.0
 11
198.7097752813951
 21
76.70333532861426
 31
0.0
 70
    32
  3
SUNPOU_1_5
100
AcDbAlignedDimension
 13
196.209775281395
 23
73.32833532861426
 33
0.0
 14
201.209775281395
 24
92.99776886804114
 34
0.0
100
AcDbRotatedDimension
1001
ACAD
1000
DSTYLE
1002
{
1070
   271
1070
     1
1002
}
  0
DIMENSION
  5
763
330
A
100
AcDbEntity
  8
SUNPOU
100
AcDbDimension
  2
*D7
 10
266.2097752813951
 20
73.32833532861426
 30
0.0
 11
233.7097752813951
 21
76.70333532861426
 31
0.0
 70
    32
  3
SUNPOU_1_5
100
AcDbAlignedDimension
 13
201.209775281395
 23
92.99776886804114
 33
0.0
 14
266.2097752813951
 24
73.32833532861423
 34
0.0
100
AcDbRotatedDimension
1001
ACAD
1000
DSTYLE
1002
{
1070
   271
1070
     1
1002
}
  0
DIMENSION
  5
770
330
A
100
AcDbEntity
  8
SUNPOU
100
AcDbDimension
  2
*D8
 10
56.20977528139514
 20
44.51510359451538
 30
0.0
 11
161.209775281395
 21
47.89010359451538
 31
0.0
 70
    32
  3
SUNPOU_1_5
100
AcDbAlignedDimension
 13
266.2097752813951
 23
92.99776886804108
 33
0.0
 14
56.20977528139514
 24
92.99776886804114
 34
0.0
100
AcDbRotatedDimension
1001
ACAD
1000
DSTYLE
1002
{
1070
   271
1070
     1
1002
}
  0
DIMENSION
  5
77D
330
A
100
AcDbEntity
  8
SUNPOU
100
AcDbDimension
  2
*D9
 10
176.2097752813951
 20
58.16599550073175
 30
0.0
 11
153.709775281395
 21
61.54099550073175
 31
0.0
 70
    32
  3
SUNPOU_1_5
100
AcDbAlignedDimension
 13
131.209775281395
 23
58.16599550073175
 33
0.0
 14
176.2097752813951
 24
57.56599550073175
 34
0.0
100
AcDbRotatedDimension
1001
ACAD
1000
DSTYLE
1002
{
1070
   271
1070
     1
1002
}
  0
DIMENSION
  5
7A8
330
A
100
AcDbEntity
  8
SUNPOU
100
AcDbDimension
  2
*D10
 10
211.1289847113314
 20
91.4977688680411
 30
0.0
 11
207.7539847113313
 21
96.49776886804113
 31
0.0
 70
    32
  3
SUNPOU_1_5
100
AcDbAlignedDimension
 13
201.209775281395
 23
101.497768868041
 33
0.0
 14
207.6127400840649
 24
91.4977688680411
 34
0.0
 50
90.0
100
AcDbRotatedDimension
1001
ACAD
1000
DSTYLE
1002
{
1070
   271
1070
     1
1002
}
  0
DIMENSION
  5
7B7
330
A
100
AcDbEntity
  8
SUNPOU
100
AcDbDimension
  2
*D11
 10
30.87181494145188
 20
391.4977688680411
 30
0.0
 11
27.4968149414518
 21
241.497768868041
 31
0.0
 70
    32
  3
SUNPOU_1_5
100
AcDbAlignedDimension
 13
57.70977528139517
 23
91.49776886804113
 33
0.0
 14
57.70977528139532
 24
391.4977688680411
 34
0.0
 50
90.0
100
AcDbRotatedDimension
1001
ACAD
1000
DSTYLE
1002
{
1070
   271
1070
     1
1002
}
  0
DIMENSION
  5
7C4
330
A
100
AcDbEntity
  8
SUNPOU
100
AcDbDimension
  2
*D12
 10
42.42988859584271
 20
156.4977688680411
 30
0.0
 11
39.0548885958427
 21
216.497768868041
 31
0.0
 70
    32
  3
SUNPOU_1_5
100
AcDbAlignedDimension
 13
138.8097752813951
 23
276.497768868041
 33
0.0
 14
93.80977528139515
 24
156.4977688680411
 34
0.0
 50
90.0
100
AcDbRotatedDimension
1001
ACAD
1000
DSTYLE
1002
{
1070
   271
1070
     1
1002
}
  0
DIMENSION
  5
7D1
330
A
100
AcDbEntity
  8
SUNPOU
100
AcDbDimension
  2
*D13
 10
42.42988859584271
 20
91.49776886804113
 30
0.0
 11
39.0548885958427
 21
123.9977688680411
 31
0.0
 70
    32
  3
SUNPOU_1_5
100
AcDbAlignedDimension
 13
93.80977528139515
 23
156.4977688680411
 33
0.0
 14
57.70977528139514
 24
91.49776886804113
 34
0.0
 50
90.0
100
AcDbRotatedDimension
1001
ACAD
1000
DSTYLE
1002
{
1070
   271
1070
     1
1002
}
  0
DIMENSION
  5
7DE
330
A
100
AcDbEntity
  8
SUNPOU
100
AcDbDimension
  2
*D14
 10
81.37461675758748
 20
156.4977688680411
 30
0.0
 11
77.99961675758748
 21
176.497768868041
 31
0.0
 70
    32
  3
SUNPOU_1_5
100
AcDbAlignedDimension
 13
93.80977528139515
 23
196.497768868041
 33
0.0
 14
81.37461675758748
 24
156.4977688680411
 34
0.0
 50
90.0
100
AcDbRotatedDimension
1001
ACAD
1000
DSTYLE
1002
{
1070
   271
1070
     1
1002
}
  0
DIMENSION
  5
7EB
330
A
100
AcDbEntity
  8
SUNPOU
100
AcDbDimension
  2
*D15
 10
131.2097752813951
 20
225.9797510127764
 30
0.0
 11
123.6314300965865
 21
231.3247242202004
 31
0.0
 70
   160
  3
SUNPOU_1_5
100
AcDbAlignedDimension
 13
104.2097752813951
 23
205.5974496307239
 33
0.0
 14
131.2097752813951
 24
199.497768868041
 34
0.0
100
AcDbRotatedDimension
1001
ACAD
1000
DSTYLE
1002
{
1070
   271
1070
     1
1002
}
  0
DIMENSION
  5
7F8
330
A
100
AcDbEntity
  8
SUNPOU
100
AcDbDimension
  2
*D16
 10
81.37461675758748
 20
276.497768868041
 30
0.0
 11
77.99961675758743
 21
261.4977688680411
 31
0.0
 70
    32
  3
SUNPOU_1_5
100
AcDbAlignedDimension
 13
110.2097752813951
 23
246.497768868041
 33
0.0
 14
81.37461675758748
 24
276.497768868041
 34
0.0
 50
90.0
100
AcDbRotatedDimension
1001
ACAD
1000
DSTYLE
1002
{
1070
   271
1070
     1
1002
}
  0
DIMENSION
  5
805
330
A
100
AcDbEntity
  8
SUNPOU
100
AcDbDimension
  2
*D17
 10
149.2097752813952
 20
328.963060870216
 30
0.0
 11
129.7574244788797
 21
334.9977688680411
 31
0.0
 70
   160
  3
SUNPOU_1_5
100
AcDbAlignedDimension
 13
104.2097752813951
 23
323.8863849253482
 33
0.0
 14
149.2097752813952
 24
328.963060870216
 34
0.0
100
AcDbRotatedDimension
1001
ACAD
1000
DSTYLE
1002
{
1070
   271
1070
     1
1002
}
  0
DIMENSION
  5
812
330
A
100
AcDbEntity
  8
SUNPOU
100
AcDbDimension
  2
*D18
 10
176.2097752813952
 20
329.0397368150836
 30
0.0
 11
165.6233719159734
 21
334.8239767499963
 31
0.0
 70
   160
  3
SUNPOU_1_5
100
AcDbAlignedDimension
 13
149.2097752813952
 23
323.8863849253482
 33
0.0
 14
176.2097752813952
 24
316.497768868041
 34
0.0
100
AcDbRotatedDimension
1001
ACAD
1000
DSTYLE
1002
{
1070
   271
1070
     1
1002
}
  0
DIMENSION
  5
81F
330
A
100
AcDbEntity
  8
SUNPOU
100
AcDbDimension
  2
*D19
 10
118.209775281395
 20
342.4134018358103
 30
0.0
 11
108.9335488624471
 21
346.9134018358104
 31
0.0
 70
   160
  3
SUNPOU_1_5
100
AcDbAlignedDimension
 13
104.2097752813951
 23
342.4134018358103
 33
0.0
 14
118.209775281395
 24
342.4134018358103
 34
0.0
100
AcDbRotatedDimension
1001
ACAD
1000
DSTYLE
1002
{
1070
   271
1070
     1
1002
}
  0
DIMENSION
  5
82C
330
A
100
AcDbEntity
  8
SUNPOU
100
AcDbDimension
  2
*D20
 10
252.2097752813952
 20
342.4134018358103
 30
0.0
 11
185.2097752813951
 21
345.7884018358104
 31
0.0
 70
    32
  3
SUNPOU_1_5
100
AcDbAlignedDimension
 13
118.209775281395
 23
342.4134018358103
 33
0.0
 14
252.2097752813952
 24
326.497768868041
 34
0.0
100
AcDbRotatedDimension
1001
ACAD
1000
DSTYLE
1002
{
1070
   271
1070
     1
1002
}
  0
LINE
  5
9DA
330
A
100
AcDbEntity
  8
CHUSIN
100
AcDbLine
 10
131.209775281395
 20
79.42247135798606
 30
0.0
 11
131.209775281395
 21
124.6209259728802
 31
0.0
  0
LINE
  5
9DB
330
A
100
AcDbEntity
  8
CHUSIN
100
AcDbLine
 10
176.2097752813951
 20
79.42247135798606
 30
0.0
 11
176.2097752813951
 21
124.6209259728802
 31
0.0
  0
MTEXT
  5
CD1
330
A
100
AcDbEntity
  8
MOJI
100
AcDbMText
 10
276.1077918701079
 20
65.4305992765112
 30
0.0
 40
4.5
 41
7.0
 71
     5
 72
     1
  1
内\P\P部
  7
0_80
1001
ACAD
1000
MTEXTBEGIN
1070
    73
1070
     1
1070
    44
1040
1.0
1070
    74
1070
     0
1000
MTEXTEND
1000
MTEXTBEGIN
1070
    73
1070
     1
1070
    44
1040
1.0
1070
    74
1070
     0
1000
MTEXTEND
  0
POLYLINE
  5
CD2
330
A
100
AcDbEntity
  8
SAISEN
100
AcDb2dPolyline
 66
     1
 10
0.0
 20
0.0
 30
0.0
 70
     1
  0
VERTEX
  5
15F8
330
CD2
100
AcDbEntity
  8
SAISEN
100
AcDbVertex
100
AcDb2dVertex
 10
272.6077918701079
 20
54.9305992765112
 30
0.0
  0
VERTEX
  5
15F9
330
CD2
100
AcDbEntity
  8
SAISEN
100
AcDbVertex
100
AcDb2dVertex
 10
279.6077918701079
 20
54.9305992765112
 30
0.0
  0
VERTEX
  5
15FA
330
CD2
100
AcDbEntity
  8
SAISEN
100
AcDbVertex
100
AcDb2dVertex
 10
279.6077918701079
 20
75.9305992765112
 30
0.0
  0
VERTEX
  5
15FB
330
CD2
100
AcDbEntity
  8
SAISEN
100
AcDbVertex
100
AcDb2dVertex
 10
272.6077918701079
 20
75.9305992765112
 30
0.0
  0
SEQEND
  5
15FC
330
CD2
100
AcDbEntity
  8
SAISEN
  0
MTEXT
  5
CDC
330
A
100
AcDbEntity
  8
MOJI
100
AcDbMText
 10
46.84603302739879
 20
65.4305992765112
 30
0.0
 40
4.5
 41
7.0
 71
     5
 72
     1
  1
外\P\P部
  7
0_80
1001
ACAD
1000
MTEXTBEGIN
1070
    73
1070
     1
1070
    44
1040
1.0
1070
    74
1070
     0
1000
MTEXTEND
1000
MTEXTBEGIN
1070
    73
1070
     1
1070
    44
1040
1.0
1070
    74
1070
     0
1000
MTEXTEND
  0
POLYLINE
  5
CDD
330
A
100
AcDbEntity
  8
SAISEN
100
AcDb2dPolyline
 66
     1
 10
0.0
 20
0.0
 30
0.0
 70
     1
  0
VERTEX
  5
15FD
330
CDD
100
AcDbEntity
  8
SAISEN
100
AcDbVertex
100
AcDb2dVertex
 10
43.34603302739878
 20
54.9305992765112
 30
0.0
  0
VERTEX
  5
15FE
330
CDD
100
AcDbEntity
  8
SAISEN
100
AcDbVertex
100
AcDb2dVertex
 10
50.34603302739879
 20
54.9305992765112
 30
0.0
  0
VERTEX
  5
15FF
330
CDD
100
AcDbEntity
  8
SAISEN
100
AcDbVertex
100
AcDb2dVertex
 10
50.34603302739879
 20
75.9305992765112
 30
0.0
  0
VERTEX
  5
1600
330
CDD
100
AcDbEntity
  8
SAISEN
100
AcDbVertex
100
AcDb2dVertex
 10
43.34603302739878
 20
75.9305992765112
 30
0.0
  0
SEQEND
  5
1601
330
CDD
100
AcDbEntity
  8
SAISEN
  0
LINE
  5
D38
330
A
100
AcDbEntity
  8
04
  6
CONTINUOUS
100
AcDbLine
 10
200.2097752813952
 20
319.497768868041
 30
0.0
 11
200.2097752813952
 21
319.2712688680409
 31
0.0
  0
LINE
  5
D39
330
A
100
AcDbEntity
  8
04
  6
CONTINUOUS
100
AcDbLine
 10
200.2097752813952
 20
307.497768868041
 30
0.0
 11
200.2097752813952
 21
307.724268868041
 31
0.0
  0
LINE
  5
D3D
330
A
100
AcDbEntity
  8
04
100
AcDbLine
 10
205.2054600563951
 20
255.724268868041
 30
0.0
 11
205.7097752813951
 21
256.5977688680409
 31
0.0
  0
LINE
  5
D3E
330
A
100
AcDbEntity
  8
04
100
AcDbLine
 10
200.2097752813952
 20
255.724268868041
 30
0.0
 11
205.2054600563951
 21
255.724268868041
 31
0.0
  0
LINE
  5
D3F
330
A
100
AcDbEntity
  8
04
  6
CONTINUOUS
100
AcDbLine
 10
200.2097752813952
 20
255.497768868041
 30
0.0
 11
200.2097752813952
 21
255.724268868041
 31
0.0
  0
LINE
  5
D40
330
A
100
AcDbEntity
  8
04
100
AcDbLine
 10
200.2097752813952
 20
255.497768868041
 30
0.0
 11
198.7097752813951
 21
255.497768868041
 31
0.0
  0
LINE
  5
D42
330
A
100
AcDbEntity
  8
04
100
AcDbLine
 10
200.2097752813952
 20
267.2712688680409
 30
0.0
 11
205.2054600563951
 21
267.2712688680409
 31
0.0
  0
LINE
  5
D43
330
A
100
AcDbEntity
  8
04
  6
CONTINUOUS
100
AcDbLine
 10
200.2097752813952
 20
267.497768868041
 30
0.0
 11
200.2097752813952
 21
267.2712688680409
 31
0.0
  0
LINE
  5
D44
330
A
100
AcDbEntity
  8
04
100
AcDbLine
 10
198.7097752813951
 20
267.497768868041
 30
0.0
 11
200.2097752813952
 21
267.497768868041
 31
0.0
  0
LINE
  5
D46
330
A
100
AcDbEntity
  8
04
100
AcDbLine
 10
205.7097752813951
 20
256.5977688680409
 30
0.0
 11
205.7097752813951
 21
266.397768868041
 31
0.0
  0
LINE
  5
D4A
330
A
100
AcDbEntity
  8
04
100
AcDbLine
 10
205.2054600563951
 20
267.2712688680409
 30
0.0
 11
205.7097752813951
 21
266.397768868041
 31
0.0
  0
LINE
  5
D4B
330
A
100
AcDbEntity
  8
04
  6
CONTINUOUS
100
AcDbLine
 10
200.7097752813951
 20
303.497768868041
 30
0.0
 11
200.7097752813951
 21
302.467418868041
 31
0.0
  0
LINE
  5
D4C
330
A
100
AcDbEntity
  8
04
  6
CONTINUOUS
100
AcDbLine
 10
200.7097752813951
 20
279.497768868041
 30
0.0
 11
200.7097752813951
 21
280.528118868041
 31
0.0
  0
LINE
  5
D4D
330
A
100
AcDbEntity
  8
04
  6
CONTINUOUS
100
AcDbLine
 10
156.8097756628649
 20
284.9977688680411
 30
0.0
 11
156.8097756628649
 21
284.1977696309804
 31
0.0
  0
LINE
  5
D4E
330
A
100
AcDbEntity
  8
04
  6
CONTINUOUS
100
AcDbLine
 10
158.8097756628649
 20
284.1977696309804
 30
0.0
 11
158.8097756628649
 21
284.0077690969228
 31
0.0
  0
LINE
  5
D4F
330
A
100
AcDbEntity
  8
04
  6
CONTINUOUS
100
AcDbLine
 10
158.8097756628648
 20
268.7977688203574
 30
0.0
 11
158.8097756628648
 21
268.9877688775778
 31
0.0
  0
LINE
  5
D50
330
A
100
AcDbEntity
  8
04
  6
CONTINUOUS
100
AcDbLine
 10
156.8097756628648
 20
267.997768868041
 30
0.0
 11
156.8097756628648
 21
268.7977688203574
 31
0.0
  0
LINE
  5
D52
330
A
100
AcDbEntity
  8
04
100
AcDbLine
 10
205.7097752813951
 20
186.5977688680409
 30
0.0
 11
205.7097752813951
 21
196.397768868041
 31
0.0
  0
LINE
  5
D55
330
A
100
AcDbEntity
  8
04
100
AcDbLine
 10
200.2097752813952
 20
185.724268868041
 30
0.0
 11
205.2054600563951
 21
185.724268868041
 31
0.0
  0
LINE
  5
D56
330
A
100
AcDbEntity
  8
04
100
AcDbLine
 10
200.2097752813952
 20
185.4977688680409
 30
0.0
 11
198.7097752813951
 21
185.4977688680409
 31
0.0
  0
LINE
  5
D57
330
A
100
AcDbEntity
  8
04
  6
CONTINUOUS
100
AcDbLine
 10
200.2097752813952
 20
185.4977688680409
 30
0.0
 11
200.2097752813952
 21
185.724268868041
 31
0.0
  0
LINE
  5
D59
330
A
100
AcDbEntity
  8
04
100
AcDbLine
 10
205.2054600563951
 20
185.724268868041
 30
0.0
 11
205.7097752813951
 21
186.5977688680409
 31
0.0
  0
LINE
  5
D5B
330
A
100
AcDbEntity
  8
04
100
AcDbLine
 10
200.2097752813952
 20
197.271268868041
 30
0.0
 11
205.2054600563951
 21
197.271268868041
 31
0.0
  0
LINE
  5
D5D
330
A
100
AcDbEntity
  8
04
  6
CONTINUOUS
100
AcDbLine
 10
200.2097752813952
 20
197.4977688680409
 30
0.0
 11
200.2097752813952
 21
197.271268868041
 31
0.0
  0
LINE
  5
D5E
330
A
100
AcDbEntity
  8
04
100
AcDbLine
 10
198.7097752813951
 20
197.4977688680409
 30
0.0
 11
200.2097752813952
 21
197.4977688680409
 31
0.0
  0
LINE
  5
D60
330
A
100
AcDbEntity
  8
04
100
AcDbLine
 10
205.2054600563951
 20
197.271268868041
 30
0.0
 11
205.7097752813951
 21
196.397768868041
 31
0.0
  0
LINE
  5
D62
330
A
100
AcDbEntity
  8
04
  6
CONTINUOUS
100
AcDbLine
 10
200.7097752813951
 20
152.1977696309805
 30
0.0
 11
200.7097752813951
 21
152.0077690969229
 31
0.0
  0
LINE
  5
D63
330
A
100
AcDbEntity
  8
04
  6
CONTINUOUS
100
AcDbLine
 10
200.7097752813951
 20
139.1977696309804
 30
0.0
 11
200.7097752813951
 21
139.0077690969229
 31
0.0
  0
LINE
  5
D64
330
A
100
AcDbEntity
  8
04
  6
CONTINUOUS
100
AcDbLine
 10
200.709775281395
 20
123.7977688203574
 30
0.0
 11
200.709775281395
 21
123.9877688775778
 31
0.0
  0
LINE
  5
D68
330
A
100
AcDbEntity
  8
04
100
AcDbLine
 10
159.209775281395
 20
138.1977689157249
 30
0.0
 11
159.209775281395
 21
150.7977681051016
 31
0.0
  0
LINE
  5
D6B
330
A
100
AcDbEntity
  8
04
100
AcDbLine
 10
159.2097752813949
 20
125.1977689157249
 30
0.0
 11
159.209775281395
 21
137.7977681051017
 31
0.0
  0
LINE
  5
D6C
330
A
100
AcDbEntity
  8
04
100
AcDbLine
 10
153.709775281395
 20
123.7977688203574
 30
0.0
 11
151.709775281395
 21
123.7977688203574
 31
0.0
  0
LINE
  5
D6E
330
A
100
AcDbEntity
  8
04
100
AcDbLine
 10
153.709775281395
 20
123.9877688775779
 30
0.0
 11
158.5097745184556
 21
123.9877688775779
 31
0.0
  0
LINE
  5
D6F
330
A
100
AcDbEntity
  8
04
  6
CONTINUOUS
100
AcDbLine
 10
153.709775281395
 20
123.7977688203574
 30
0.0
 11
153.709775281395
 21
123.9877688775779
 31
0.0
  0
LINE
  5
D71
330
A
100
AcDbEntity
  8
04
100
AcDbLine
 10
158.5097745184556
 20
123.9877688775779
 30
0.0
 11
159.2097752813949
 21
125.1977689157249
 31
0.0
  0
LINE
  5
D73
330
A
100
AcDbEntity
  8
04
100
AcDbLine
 10
151.709775281395
 20
139.1977696309805
 30
0.0
 11
153.709775281395
 21
139.1977696309805
 31
0.0
  0
LINE
  5
D77
330
A
100
AcDbEntity
  8
04
100
AcDbLine
 10
153.709775281395
 20
139.007769096923
 30
0.0
 11
158.5097745184556
 21
139.007769096923
 31
0.0
  0
LINE
  5
D78
330
A
100
AcDbEntity
  8
04
  6
CONTINUOUS
100
AcDbLine
 10
153.709775281395
 20
139.1977696309805
 30
0.0
 11
153.709775281395
 21
139.007769096923
 31
0.0
  0
LINE
  5
D7A
330
A
100
AcDbEntity
  8
04
100
AcDbLine
 10
158.5097745184556
 20
139.007769096923
 30
0.0
 11
159.209775281395
 21
137.7977681051017
 31
0.0
  0
LINE
  5
D7B
330
A
100
AcDbEntity
  8
04
100
AcDbLine
 10
159.0940724907163
 20
137.9977685892294
 30
0.0
 11
159.209775281395
 21
138.1977689157249
 31
0.0
  0
LINE
  5
D7C
330
A
100
AcDbEntity
  8
04
100
AcDbLine
 10
151.709775281395
 20
152.1977696309805
 30
0.0
 11
153.709775281395
 21
152.1977696309805
 31
0.0
  0
LINE
  5
D7E
330
A
100
AcDbEntity
  8
04
100
AcDbLine
 10
153.709775281395
 20
152.0077690969229
 30
0.0
 11
158.5097745184556
 21
152.0077690969229
 31
0.0
  0
LINE
  5
D7F
330
A
100
AcDbEntity
  8
04
  6
CONTINUOUS
100
AcDbLine
 10
153.709775281395
 20
152.1977696309805
 30
0.0
 11
153.709775281395
 21
152.0077690969229
 31
0.0
  0
LINE
  5
D81
330
A
100
AcDbEntity
  8
04
100
AcDbLine
 10
158.5097745184556
 20
152.0077690969229
 30
0.0
 11
159.209775281395
 21
150.7977681051016
 31
0.0
  0
LINE
  5
D82
330
A
100
AcDbEntity
  8
04
  6
CONTINUOUS
100
AcDbLine
 10
168.5097745184556
 20
118.0977692495108
 30
0.0
 11
168.6997750525133
 21
118.0977692495108
 31
0.0
  0
LINE
  5
D83
330
A
100
AcDbEntity
  8
04
  6
CONTINUOUS
100
AcDbLine
 10
167.709775281395
 20
116.0977692495108
 30
0.0
 11
168.5097745184556
 21
116.0977692495108
 31
0.0
  0
LINE
  5
D84
330
A
100
AcDbEntity
  8
04
  6
CONTINUOUS
100
AcDbLine
 10
183.9097753290788
 20
118.0977692495108
 30
0.0
 11
183.7197752718584
 21
118.0977692495108
 31
0.0
  0
LINE
  5
D85
330
A
100
AcDbEntity
  8
04
  6
CONTINUOUS
100
AcDbLine
 10
184.7097752813952
 20
116.0977692495108
 30
0.0
 11
183.9097753290788
 21
116.0977692495108
 31
0.0
  0
LINE
  5
D89
330
A
100
AcDbEntity
  8
04
100
AcDbLine
 10
137.5097752337114
 20
123.5977692495108
 30
0.0
 11
124.9097760443346
 21
123.5977692495108
 31
0.0
  0
LINE
  5
D8A
330
A
100
AcDbEntity
  8
04
100
AcDbLine
 10
123.6997750525132
 20
118.0977692495108
 30
0.0
 11
123.6997750525132
 21
122.8977684865714
 31
0.0
  0
LINE
  5
D8B
330
A
100
AcDbEntity
  8
04
  6
CONTINUOUS
100
AcDbLine
 10
122.7097752813951
 20
116.0977692495108
 30
0.0
 11
123.5097745184557
 21
116.0977692495108
 31
0.0
  0
LINE
  5
D8C
330
A
100
AcDbEntity
  8
04
  6
CONTINUOUS
100
AcDbLine
 10
123.5097745184557
 20
118.0977692495108
 30
0.0
 11
123.6997750525132
 21
118.0977692495108
 31
0.0
  0
LINE
  5
D8D
330
A
100
AcDbEntity
  8
04
100
AcDbLine
 10
122.7097752813951
 20
114.4977688680411
 30
0.0
 11
122.7097752813951
 21
116.0977692495108
 31
0.0
  0
LINE
  5
D8E
330
A
100
AcDbEntity
  8
04
100
AcDbLine
 10
123.5097745184557
 20
116.0977692495108
 30
0.0
 11
123.5097745184557
 21
118.0977692495108
 31
0.0
  0
LINE
  5
D8F
330
A
100
AcDbEntity
  8
04
100
AcDbLine
 10
123.6997750525132
 20
122.8977684865714
 30
0.0
 11
124.9097760443346
 21
123.5977692495108
 31
0.0
  0
LINE
  5
D91
330
A
100
AcDbEntity
  8
04
100
AcDbLine
 10
138.7197752718583
 20
122.8977684865714
 30
0.0
 11
137.5097752337114
 21
123.5977692495108
 31
0.0
  0
LINE
  5
D96
330
A
100
AcDbEntity
  8
04
100
AcDbLine
 10
138.7197752718583
 20
118.0977692495108
 30
0.0
 11
138.7197752718583
 21
122.8977684865714
 31
0.0
  0
LINE
  5
D97
330
A
100
AcDbEntity
  8
04
  6
CONTINUOUS
100
AcDbLine
 10
139.709775281395
 20
116.0977692495108
 30
0.0
 11
138.9097753290789
 21
116.0977692495108
 31
0.0
  0
LINE
  5
D98
330
A
100
AcDbEntity
  8
04
  6
CONTINUOUS
100
AcDbLine
 10
138.9097753290789
 20
118.0977692495108
 30
0.0
 11
138.7197752718583
 21
118.0977692495108
 31
0.0
  0
LINE
  5
D99
330
A
100
AcDbEntity
  8
04
100
AcDbLine
 10
139.709775281395
 20
116.0977692495108
 30
0.0
 11
139.709775281395
 21
114.4977688680411
 31
0.0
  0
LINE
  5
D9A
330
A
100
AcDbEntity
  8
04
100
AcDbLine
 10
138.9097753290789
 20
118.0977692495108
 30
0.0
 11
138.9097753290789
 21
116.0977692495108
 31
0.0
  0
LINE
  5
D9C
330
A
100
AcDbEntity
  8
04
  6
CONTINUOUS
100
AcDbLine
 10
112.2097752813951
 20
204.1977696309805
 30
0.0
 11
112.2097752813951
 21
204.0077690969229
 31
0.0
  0
LINE
  5
D9D
330
A
100
AcDbEntity
  8
04
  6
CONTINUOUS
100
AcDbLine
 10
112.2097752813951
 20
188.7977688203573
 30
0.0
 11
112.2097752813951
 21
188.9877688775778
 31
0.0
  0
LINE
  5
D9E
330
A
100
AcDbEntity
  8
04
  6
CONTINUOUS
100
AcDbLine
 10
111.8097756628649
 20
164.9977688680411
 30
0.0
 11
111.8097756628649
 21
164.1977696309805
 31
0.0
  0
LINE
  5
D9F
330
A
100
AcDbEntity
  8
04
  6
CONTINUOUS
100
AcDbLine
 10
113.8097756628647
 20
164.1977696309805
 30
0.0
 11
113.8097756628647
 21
164.0077690969229
 31
0.0
  0
LINE
  5
DA0
330
A
100
AcDbEntity
  8
04
  6
CONTINUOUS
100
AcDbLine
 10
113.8097756628647
 20
148.7977688203574
 30
0.0
 11
113.8097756628647
 21
148.9877688775778
 31
0.0
  0
LINE
  5
DA1
330
A
100
AcDbEntity
  8
04
  6
CONTINUOUS
100
AcDbLine
 10
111.8097756628648
 20
147.9977688680411
 30
0.0
 11
111.8097756628648
 21
148.7977688203574
 31
0.0
  0
LINE
  5
11C0
330
A
100
AcDbEntity
  8
SOUZOU
100
AcDbLine
 10
252.2097752813952
 20
326.497768868041
 30
0.0
 11
158.209775281395
 21
326.497768868041
 31
0.0
  0
LINE
  5
11C1
330
A
100
AcDbEntity
  8
SOUZOU
100
AcDbLine
 10
252.2097752813951
 20
226.497768868041
 30
0.0
 11
252.2097752813952
 21
326.497768868041
 31
0.0
  0
LINE
  5
11C2
330
A
100
AcDbEntity
  8
SOUZOU
100
AcDbLine
 10
203.060632734898
 20
226.497768868041
 30
0.0
 11
252.2097752813951
 21
226.497768868041
 31
0.0
  0
LINE
  5
11FC
330
A
100
AcDbEntity
  8
SOUZOU
100
AcDbLine
 10
123.9992535708865
 20
334.9977688680411
 30
0.0
 11
118.2097752813952
 21
334.9977688680411
 31
0.0
  0
LINE
  5
1429
330
A
100
AcDbEntity
  8
KAKURE
100
AcDbLine
 10
98.20977528139515
 20
160.4977688680411
 30
0.0
 11
104.2097752813951
 21
160.4977688680411
 31
0.0
  0
LINE
  5
142A
330
A
100
AcDbEntity
  8
KAKURE
100
AcDbLine
 10
98.20977528139515
 20
159.7477688680411
 30
0.0
 11
104.2097752813951
 21
159.7477688680411
 31
0.0
  0
LINE
  5
142B
330
A
100
AcDbEntity
  8
KAKURE
100
AcDbLine
 10
98.20977528139515
 20
153.2477688680411
 30
0.0
 11
104.2097752813951
 21
153.2477688680411
 31
0.0
  0
LINE
  5
142C
330
A
100
AcDbEntity
  8
KAKURE
100
AcDbLine
 10
98.20977528139515
 20
152.4977688680411
 30
0.0
 11
104.2097752813951
 21
152.4977688680411
 31
0.0
  0
LINE
  5
142E
330
A
100
AcDbEntity
  8
KAKURE
100
AcDbLine
 10
143.209775281395
 20
279.747768868041
 30
0.0
 11
149.209775281395
 21
279.747768868041
 31
0.0
  0
LINE
  5
142F
330
A
100
AcDbEntity
  8
KAKURE
100
AcDbLine
 10
143.209775281395
 20
280.4977688680411
 30
0.0
 11
149.209775281395
 21
280.4977688680411
 31
0.0
  0
LINE
  5
1430
330
A
100
AcDbEntity
  8
KAKURE
100
AcDbLine
 10
143.209775281395
 20
272.497768868041
 30
0.0
 11
149.209775281395
 21
272.497768868041
 31
0.0
  0
LINE
  5
1431
330
A
100
AcDbEntity
  8
KAKURE
100
AcDbLine
 10
143.209775281395
 20
273.247768868041
 30
0.0
 11
149.209775281395
 21
273.247768868041
 31
0.0
  0
LINE
  5
143B
330
A
100
AcDbEntity
  8
SOUZOU
100
AcDbLine
 10
112.2097752813952
 20
377.9977688680411
 30
0.0
 11
112.2097752813951
 21
253.497768868041
 31
0.0
  0
LINE
  5
143C
330
A
100
AcDbEntity
  8
SOUZOU
100
AcDbLine
 10
118.2097752813952
 20
377.9977688680411
 30
0.0
 11
118.209775281395
 21
253.497768868041
 31
0.0
  0
LINE
  5
1440
330
A
100
AcDbEntity
  8
04
100
AcDbLine
 10
143.709775281395
 20
110.4977688680411
 30
0.0
 11
118.7097752813951
 21
110.4977688680411
 31
0.0
  0
LINE
  5
1441
330
A
100
AcDbEntity
  8
04
100
AcDbLine
 10
118.7097752813951
 20
110.4977688680411
 30
0.0
 11
118.7097752813951
 21
101.497768868041
 31
0.0
  0
LINE
  5
1442
330
A
100
AcDbEntity
  8
04
100
AcDbLine
 10
143.7097752598561
 20
110.4977688680411
 30
0.0
 11
143.7097752598561
 21
101.497768868041
 31
0.0
  0
LINE
  5
1443
330
A
100
AcDbEntity
  8
04
100
AcDbLine
 10
188.7097752598561
 20
110.4977688680411
 30
0.0
 11
188.7097752598561
 21
101.497768868041
 31
0.0
  0
LINE
  5
1444
330
A
100
AcDbEntity
  8
04
100
AcDbLine
 10
188.7097752813951
 20
110.4977688680411
 30
0.0
 11
163.709775281395
 21
110.4977688680411
 31
0.0
  0
LINE
  5
1445
330
A
100
AcDbEntity
  8
04
100
AcDbLine
 10
163.709775281395
 20
110.4977688680411
 30
0.0
 11
163.709775281395
 21
101.497768868041
 31
0.0
  0
LINE
  5
1452
330
A
100
AcDbEntity
  8
KAKURE
100
AcDbLine
 10
98.20977528139515
 20
192.4977688680409
 30
0.0
 11
104.2097752813951
 21
192.4977688680409
 31
0.0
  0
LINE
  5
1453
330
A
100
AcDbEntity
  8
KAKURE
100
AcDbLine
 10
98.20977528139515
 20
193.247768868041
 30
0.0
 11
104.2097752813951
 21
193.247768868041
 31
0.0
  0
LINE
  5
1454
330
A
100
AcDbEntity
  8
KAKURE
100
AcDbLine
 10
98.20977528139515
 20
199.747768868041
 30
0.0
 11
104.2097752813951
 21
199.747768868041
 31
0.0
  0
LINE
  5
1455
330
A
100
AcDbEntity
  8
KAKURE
100
AcDbLine
 10
98.20977528139515
 20
200.4977688680409
 30
0.0
 11
104.2097752813951
 21
200.4977688680409
 31
0.0
  0
LINE
  5
146A
330
A
100
AcDbEntity
  8
SOUZOU
100
AcDbLine
 10
158.209775281395
 20
226.497768868041
 30
0.0
 11
159.7954426345488
 21
226.497768868041
 31
0.0
  0
LINE
  5
146B
330
A
100
AcDbEntity
  8
SOUZOU
100
AcDbLine
 10
158.209775281395
 20
288.0696167790198
 30
0.0
 11
158.209775281395
 21
334.9977688680411
 31
0.0
  0
LINE
  5
146C
330
A
100
AcDbEntity
  8
SOUZOU
100
AcDbLine
 10
158.209775281395
 20
242.6667363957968
 30
0.0
 11
158.209775281395
 21
250.9775817549783
 31
0.0
  0
LINE
  5
146D
330
A
100
AcDbEntity
  8
SOUZOU
100
AcDbLine
 10
140.8095604941219
 20
334.9977688680411
 30
0.0
 11
136.1885538403159
 21
334.9977688680411
 31
0.0
  0
LINE
  5
146E
330
A
100
AcDbEntity
  8
SOUZOU
100
AcDbLine
 10
112.2097752813951
 20
245.497768868041
 30
0.0
 11
112.2097752813951
 21
241.497768868041
 31
0.0
  0
LINE
  5
146F
330
A
100
AcDbEntity
  8
SOUZOU
100
AcDbLine
 10
118.209775281395
 20
245.497768868041
 30
0.0
 11
118.209775281395
 21
241.497768868041
 31
0.0
  0
LINE
  5
1470
330
A
100
AcDbEntity
  8
SOUZOU
100
AcDbLine
 10
112.2097752813951
 20
234.997768868041
 30
0.0
 11
112.2097752813951
 21
205.7867736330478
 31
0.0
  0
LINE
  5
1471
330
A
100
AcDbEntity
  8
SOUZOU
100
AcDbLine
 10
118.209775281395
 20
234.997768868041
 30
0.0
 11
118.2097752813952
 21
216.3915898378675
 31
0.0
  0
LINE
  5
1472
330
A
100
AcDbEntity
  8
SOUZOU
100
AcDbLine
 10
118.2097752813952
 20
209.6622050054592
 30
0.0
 11
118.209775281395
 21
166.6210799520275
 31
0.0
  0
LINE
  5
1473
330
A
100
AcDbEntity
  8
SOUZOU
100
AcDbLine
 10
112.2097752813951
 20
187.0367075978458
 30
0.0
 11
112.2097752813951
 21
168.2866415626438
 31
0.0
  0
LINE
  5
1474
330
A
100
AcDbEntity
  8
SOUZOU
100
AcDbLine
 10
112.2097752813951
 20
130.0711852500514
 30
0.0
 11
112.2097752813951
 21
118.497768868041
 31
0.0
  0
LINE
  5
1475
330
A
100
AcDbEntity
  8
SOUZOU
100
AcDbLine
 10
118.209775281395
 20
130.0711852500514
 30
0.0
 11
118.209775281395
 21
118.497768868041
 31
0.0
  0
LINE
  5
1480
330
A
100
AcDbEntity
  8
KAKURE
100
AcDbLine
 10
99.70977528139513
 20
181.497768868041
 30
0.0
 11
104.2097752813952
 21
181.497768868041
 31
0.0
  0
LINE
  5
1481
330
A
100
AcDbEntity
  8
KAKURE
100
AcDbLine
 10
99.70977528139528
 20
235.997768868041
 30
0.0
 11
99.70977528139513
 21
181.497768868041
 31
0.0
  0
ARC
  5
1482
330
A
100
AcDbEntity
  8
KAKURE
100
AcDbCircle
 10
104.2097752813952
 20
235.997768868041
 30
0.0
 40
4.5
100
AcDbArc
 50
90.0
 51
180.0
  0
LINE
  5
148D
330
A
100
AcDbEntity
  8
SOUZOU
100
AcDbLine
 10
118.2097752813952
 20
147.3736789724528
 30
0.0
 11
118.2097752813952
 21
140.8860652785646
 31
0.0
  0
LINE
  5
148E
330
A
100
AcDbEntity
  8
SOUZOU
100
AcDbLine
 10
112.2097752813951
 20
146.7108056503876
 30
0.0
 11
112.2097752813951
 21
142.6973105040231
 31
0.0
  0
MTEXT
  5
1563
330
A
100
AcDbEntity
  8
MOJI
100
AcDbMText
 10
236.5303145728272
 20
279.9749470673804
 30
0.0
 40
3.75
 41
0.0
 71
     1
 72
     1
  1
(SOV-200KDC)
  7
0_8
 11
0.0000000000000001
 21
1.0
 31
0.0
1001
ACAD
1000
MTEXTBEGIN
1070
    73
1070
     1
1070
    44
1040
1.0
1070
    74
1070
     0
1000
MTEXTEND
1000
MTEXTBEGIN
1070
    73
1070
     1
1070
    44
1040
1.0
1070
    74
1070
     0
1000
MTEXTEND
  0
MTEXT
  5
1564
330
A
100
AcDbEntity
  8
MOJI
100
AcDbMText
 10
185.6175390267224
 20
203.109627805732
 30
0.0
 40
3.75
 41
0.0
 71
     1
 72
     1
  1
ワイヤー固定金具
  7
0_8
 11
0.0000000000000001
 21
1.0
 31
0.0
1001
ACAD
1000
MTEXTBEGIN
1070
    73
1070
     1
1070
    44
1040
1.0
1070
    74
1070
     0
1000
MTEXTEND
1000
MTEXTBEGIN
1070
    73
1070
     1
1070
    44
1040
1.0
1070
    74
1070
     0
1000
MTEXTEND
  0
LEADER
  5
1565
330
A
100
AcDbEntity
  8
HIKIDASI
100
AcDbLeader
  3
SUNPOU_1_5
 73
     0
 75
     1
 40
10.0
 41
21.0
 76
     3
 10
99.35748201961587
 20
152.4977688680411
 30
0.0
 10
97.95977528139516
 20
138.2245703580179
 30
0.0
 10
94.20977528139514
 20
138.2245703580179
 30
0.0
213
-1.761128907781368
223
6.511960114660722
233
0.0
1001
ACAD
1000
DSTYLE
1002
{
1070
     5
1000
OPEN30
1070
    77
1070
     1
1070
   147
1040
1.0
1070
   342
1005
683
1002
}
1000
LEANOF
1010
-1.761128907781368
1020
6.511960114660722
1030
0.0
1000
LEANOF
1010
-1.761128907781368
1020
6.511960114660722
1030
0.0
1000
LEANOF
1010
-1.761128907781368
1020
6.511960114660722
1030
0.0
  0
MTEXT
  5
1566
330
A
100
AcDbEntity
  8
HIKIDASI
 62
     6
100
AcDbMText
 10
83.97090418917651
 20
138.2126102433574
 30
0.0
 40
3.75
 41
0.0
 71
     5
 72
     1
  1
M8タップ\P(サッシ工事)
  7
SUNPOU
1001
ACAD
1000
MTEXTBEGIN
1070
    73
1070
     1
1070
    44
1040
1.0
1070
    74
1070
     0
1000
MTEXTEND
1000
MTEXTBEGIN
1070
    73
1070
     1
1070
    44
1040
1.0
1070
    74
1070
     0
1000
MTEXTEND
  0
MTEXT
  5
1567
330
A
100
AcDbEntity
  8
HIKIDASI
 62
     6
100
AcDbMText
 10
130.8714812220832
 20
306.0916281670778
 30
0.0
 40
3.75
 41
0.0
 71
     5
 72
     1
  1
M8タップ\P(サッシ工事)
  7
SUNPOU
1001
ACAD
1000
MTEXTBEGIN
1070
    73
1070
     1
1070
    44
1040
1.0
1070
    74
1070
     0
1000
MTEXTEND
1000
MTEXTBEGIN
1070
    73
1070
     1
1070
    44
1040
1.0
1070
    74
1070
     0
1000
MTEXTEND
  0
LEADER
  5
1568
330
A
100
AcDbEntity
  8
HIKIDASI
100
AcDbLeader
  3
SUNPOU_1_5
 73
     0
 75
     1
 40
10.0
 41
21.0
 76
     3
 10
147.6500414453143
 20
280.4977688680411
 30
0.0
 10
146.4189577973495
 20
306.0288513994211
 30
0.0
 10
142.6689577973495
 20
306.0288513994211
 30
0.0
213
-0.2025234247334993
223
6.437223232343169
233
0.0
1001
ACAD
1000
DSTYLE
1002
{
1070
     5
1000
OPEN30
1070
    77
1070
     1
1070
   147
1040
1.0
1070
   342
1005
683
1002
}
1000
LEANOF
1010
-0.2025234247334993
1020
6.437223232343169
1030
0.0
1000
LEANOF
1010
-0.2025234247334993
1020
6.437223232343169
1030
0.0
1000
LEANOF
1010
-0.2025234247334993
1020
6.437223232343169
1030
0.0
  0
MTEXT
  5
15C2
330
A
100
AcDbEntity
  8
MOJI
100
AcDbMText
 10
131.0
 20
20.40000000000009
 30
0.0
 40
5.0
 41
56.0
 71
     5
 72
     1
  1
ＳＯＶ－２００ＫＤＣ
  7
0_8
1001
ACAD
1000
MTEXTBEGIN
1070
    73
1070
     1
1070
    44
1040
1.0
1070
    74
1070
     0
1000
MTEXTEND
1000
MTEXTBEGIN
1070
    73
1070
     1
1070
    44
1040
1.0
1070
    74
1070
     0
1000
MTEXTEND
  0
POLYLINE
  5
15C3
330
A
100
AcDbEntity
  8
SAISEN
100
AcDb2dPolyline
 66
     1
 10
0.0
 20
0.0
 30
0.0
 70
     1
  0
VERTEX
  5
1602
330
15C3
100
AcDbEntity
  8
SAISEN
100
AcDbVertex
100
AcDb2dVertex
 10
26.0
 20
12.0
 30
0.0
  0
VERTEX
  5
1603
330
15C3
100
AcDbEntity
  8
SAISEN
100
AcDbVertex
100
AcDb2dVertex
 10
271.0
 20
12.0
 30
0.0
  0
VERTEX
  5
1604
330
15C3
100
AcDbEntity
  8
SAISEN
100
AcDbVertex
100
AcDb2dVertex
 10
271.0
 20
28.80000000000018
 30
0.0
  0
VERTEX
  5
1605
330
15C3
100
AcDbEntity
  8
SAISEN
100
AcDbVertex
100
AcDb2dVertex
 10
26.0
 20
28.80000000000018
 30
0.0
  0
SEQEND
  5
1606
330
15C3
100
AcDbEntity
  8
SAISEN
  0
MTEXT
  5
15C4
330
A
100
AcDbEntity
  8
MOJI
100
AcDbMText
 10
63.80781107831876
 20
20.40000000000009
 30
0.0
 40
5.0
 41
77.0
 71
     5
 72
     1
  1
ダブルスライド･ドア納り\P(重量タイプ)
  7
0_8
1001
ACAD
1000
MTEXTBEGIN
1070
    73
1070
     1
1070
    44
1040
1.0
1070
    74
1070
     0
1000
MTEXTEND
1000
MTEXTBEGIN
1070
    73
1070
     1
1070
    44
1040
1.0
1070
    74
1070
     0
1000
MTEXTEND
  0
LINE
  5
15C5
330
A
100
AcDbEntity
  8
SAISEN
100
AcDbLine
 10
103.0
 20
28.80000000000018
 30
0.0
 11
103.0
 21
12.0
 31
0.0
  0
LINE
  5
15C6
330
A
100
AcDbEntity
  8
SAISEN
100
AcDbLine
 10
159.0
 20
28.80000000000018
 30
0.0
 11
159.0
 21
12.0
 31
0.0
  0
MTEXT
  5
15C7
330
A
100
AcDbEntity
  8
MOJI
100
AcDbMText
 10
180.000000000002
 20
20.40000000000009
 30
0.0
 40
5.0
 41
42.0
 71
     5
 72
     1
  1
２重片引き又は\P２重両引き　　
  7
0_8
1001
ACAD
1000
MTEXTBEGIN
1070
    73
1070
     1
1070
    44
1040
1.0
1070
    74
1070
     0
1000
MTEXTEND
1000
MTEXTBEGIN
1070
    73
1070
     1
1070
    44
1040
1.0
1070
    74
1070
     0
1000
MTEXTEND
  0
LINE
  5
15C8
330
A
100
AcDbEntity
  8
SAISEN
100
AcDbLine
 10
201.0
 20
28.80000000000018
 30
0.0
 11
201.0
 21
12.0
 31
0.0
  0
MTEXT
  5
15C9
330
A
100
AcDbEntity
  8
MOJI
100
AcDbMText
 10
218.5
 20
20.40000000000009
 30
0.0
 40
5.0
 41
35.0
 71
     5
 72
     1
  1
図番１６－１
  7
0_81
1001
ACAD
1000
MTEXTBEGIN
1070
    73
1070
     1
1070
    44
1040
1.0
1070
    74
1070
     0
1000
MTEXTEND
1000
MTEXTBEGIN
1070
    73
1070
     1
1070
    44
1040
1.0
1070
    74
1070
     0
1000
MTEXTEND
  0
MTEXT
  5
15CA
330
A
100
AcDbEntity
  8
MOJI
100
AcDbMText
 10
253.5
 20
20.40000000000009
 30
0.0
 40
5.0
 41
35.0
 71
     5
 72
     1
  1
たて断面図
  7
0_81
1001
ACAD
1000
MTEXTBEGIN
1070
    73
1070
     1
1070
    44
1040
1.0
1070
    74
1070
     0
1000
MTEXTEND
1000
MTEXTBEGIN
1070
    73
1070
     1
1070
    44
1040
1.0
1070
    74
1070
     0
1000
MTEXTEND
  0
TEXT
  5
15CB
330
A
100
AcDbEntity
  8
MOJI
100
AcDbText
 10
274.048819039216
 20
33.07151320611591
 30
0.0
 40
6.0
  1
Ｓ
 41
0.8
  7
0_8
 11
274.048819039216
 21
39.07151320611591
 31
0.0
100
AcDbText
 73
     3
  0
CIRCLE
  5
15CC
330
A
100
AcDbEntity
  8
SAISEN
100
AcDbCircle
 10
276.3354333186283
 20
36.27514811070268
 30
0.0
 40
3.75
  0
VIEWPORT
  5
6BD
102
{ACAD_XDICTIONARY
360
15E2
102
}
330
B
100
AcDbEntity
 67
     1
  8
0
100
AcDbViewport
 10
144.2496760689511
 20
207.7211864177749
 30
0.0
 40
810.1857571073624
 41
471.2215538635254
 68
     1
 69
     1
1001
ACAD
1000
MVIEW
1002
{
1070
    16
1010
0.0
1020
0.0
1030
0.0
1010
0.0
1020
0.0
1030
1.0
1040
0.0
1040
471.2215538635254
1040
144.2496760689511
1040
207.7211864177749
1040
50.0
1040
0.0
1040
0.0
1070
     0
1070
   100
1070
     1
1070
     1
1070
     0
1070
     0
1070
     0
1070
     0
1040
0.0
1040
0.0
1040
0.0
1040
10.0
1040
10.0
1040
10.0
1040
10.0
1070
     0
1002
{
1002
}
1002
}
  0
VIEWPORT
  5
15AE
102
{ACAD_XDICTIONARY
360
15E8
102
}
330
B
100
AcDbEntity
 67
     1
  8
DEFPOINTS
100
AcDbViewport
 10
144.2496767842068
 20
207.7211857025191
 30
0.0
 40
297.338743686676
 41
427.7677474021912
 68
     2
 69
     2
1001
ACAD
1000
MVIEW
1002
{
1070
    16
1010
0.0
1020
0.0
1030
0.0
1010
0.0
1020
0.0
1030
1.0
1040
0.0
1040
427.7677474021912
1040
148.5
1040
210.0
1040
50.0
1040
0.0
1040
0.0
1070
     0
1070
   100
1070
     1
1070
     1
1070
     0
1070
     0
1070
     0
1070
     0
1040
0.0
1040
0.0
1040
0.0
1040
1.0
1040
1.0
1040
0.0
1040
0.0
1070
     0
1002
{
1002
}
1002
}
  0
ENDSEC
  0
SECTION
  2
OBJECTS
  0
DICTIONARY
  5
19
330
0
100
AcDbDictionary
  3
ACAD_COLOR
350
158E
  3
ACAD_GROUP
350
1A
  3
ACAD_LAYOUT
350
3A0
  3
ACAD_MATERIAL
350
158D
  3
ACAD_MLINESTYLE
350
1B
  3
ACAD_PLOTSETTINGS
350
3A1
  3
ACADDIM
350
1436
  3
ASE_INDEX_DICTIONARY
350
1594
1001
ACAD
1000
TREAT_AS_HARD
1070
     0
1000
TREAT_AS_HARD
1070
     0
  0
DICTIONARY
  5
D30
330
2
100
AcDbDictionary
  3
ACAD_LAYERFILTERS
350
D31
  3
ACAD_LAYERSTATES
350
1449
1001
ACAD
1000
TREAT_AS_HARD
1070
     1
1000
TREAT_AS_HARD
1070
     1
  0
DICTIONARY
  5
156B
330
A
100
AcDbDictionary
  3
ACAD_LAYOUTSELFREF
350
15F0
1001
ACAD
1000
TREAT_AS_HARD
1070
     1
  0
DICTIONARY
  5
156D
330
B
100
AcDbDictionary
  3
ACAD_LAYOUTSELFREF
350
15F1
1001
ACAD
1000
TREAT_AS_HARD
1070
     1
  0
DICTIONARY
  5
15E2
330
6BD
100
AcDbDictionary
  3
ACAD_XREC_ROUNDTRIP
350
15E3
1001
ACAD
1000
TREAT_AS_HARD
1070
     1
  0
DICTIONARY
  5
15E8
330
15AE
100
AcDbDictionary
  3
ACAD_XREC_ROUNDTRIP
350
15E9
1001
ACAD
1000
TREAT_AS_HARD
1070
     1
  0
DICTIONARY
  5
158E
102
{ACAD_REACTORS
330
19
102
}
330
19
100
AcDbDictionary
1001
ACAD
1000
TREAT_AS_HARD
1070
     0
  0
DICTIONARY
  5
1A
102
{ACAD_REACTORS
330
19
102
}
330
19
100
AcDbDictionary
1001
ACAD
1000
TREAT_AS_HARD
1070
     0
1000
TREAT_AS_HARD
1070
     0
  0
DICTIONARY
  5
3A0
102
{ACAD_REACTORS
330
19
102
}
330
19
100
AcDbDictionary
1001
ACAD
1000
TREAT_AS_HARD
1070
     0
1000
TREAT_AS_HARD
1070
     0
  0
DICTIONARY
  5
158D
102
{ACAD_REACTORS
330
19
102
}
330
19
100
AcDbDictionary
1001
ACAD
1000
TREAT_AS_HARD
1070
     0
  0
DICTIONARY
  5
1B
102
{ACAD_REACTORS
330
19
102
}
330
19
100
AcDbDictionary
  3
STANDARD
350
1C
1001
ACAD
1000
TREAT_AS_HARD
1070
     0
1000
TREAT_AS_HARD
1070
     0
  0
DICTIONARY
  5
3A1
102
{ACAD_REACTORS
330
19
102
}
330
19
100
AcDbDictionary
1001
ACAD
1000
TREAT_AS_HARD
1070
     0
1000
TREAT_AS_HARD
1070
     0
  0
XRECORD
  5
1436
102
{ACAD_REACTORS
330
19
102
}
330
19
100
AcDbXrecord
 90
   990106
  3

 60
     0
 61
     0
 62
     1
 63
     3
 64
     1
 65
     0
 66
     0
 67
     3
 68
     1
 69
     0
 70
     0
 71
     0
 72
     0
 40
0.0
170
     2
340
0
  0
DICTIONARY
  5
1594
102
{ACAD_REACTORS
330
19
102
}
330
19
100
AcDbDictionary
  3
ASEBLOCKHIERARCHYINDEXRECORD
350
1596
1001
DCO15
1040
1508833107.405999
1001
ACAD
1000
TREAT_AS_HARD
1070
     0
  0
DICTIONARY
  5
D31
102
{ACAD_REACTORS
330
D30
102
}
330
D30
100
AcDbDictionary
  3
HIHYOJI
350
D32
1001
ACAD
1000
TREAT_AS_HARD
1070
     1
1000
TREAT_AS_HARD
1070
     0
  0
DICTIONARY
  5
1449
102
{ACAD_REACTORS
330
D30
102
}
330
D30
100
AcDbDictionary
1001
ACAD
1000
TREAT_AS_HARD
1070
     0
1000
TREAT_AS_HARD
1070
     0
  0
XRECORD
  5
15F0
102
{ACAD_REACTORS
330
156B
102
}
330
156B
100
AcDbXrecord
340
A
  0
XRECORD
  5
15F1
102
{ACAD_REACTORS
330
156D
102
}
330
156D
100
AcDbXrecord
340
B
  0
XRECORD
  5
15E3
102
{ACAD_REACTORS
330
15E2
102
}
330
15E2
100
AcDbXrecord
102
SHADEPLOT
 70
     0
  0
XRECORD
  5
15E9
102
{ACAD_REACTORS
330
15E8
102
}
330
15E8
100
AcDbXrecord
102
SHADEPLOT
 70
     0
  0
MLINESTYLE
  5
1C
102
{ACAD_REACTORS
330
1B
102
}
330
1B
100
AcDbMlineStyle
  2
STANDARD
 70
     0
  3

 62
     0
 51
90.0
 52
90.0
 71
     2
 49
0.5
 62
   256
  6
BYLAYER
 49
-0.5
 62
   256
  6
BYLAYER
  0
XRECORD
  5
1596
102
{ACAD_REACTORS
330
1594
102
}
330
1594
100
AcDbXrecord
330
149F
330
14A0
330
14AB
330
14AC
330
14B3
330
14B4
330
14BF
330
14C0
330
14C7
330
14C8
330
14D2
330
14D3
330
14DB
330
14DC
330
14E4
330
14E5
330
14ED
330
14EE
330
14F8
330
14F9
330
1501
330
1502
330
150A
330
150B
330
1513
330
1514
330
151C
330
151D
330
1526
330
1527
330
152E
330
152F
330
1538
330
1539
330
1541
330
1542
330
154A
330
154B
330
1552
330
1553
  0
XRECORD
  5
D32
102
{ACAD_REACTORS
330
D31
102
}
330
D31
100
AcDbXrecord
  1
hihyoji
  1
08,09,*_h
  1
*
  1
*
 70
     0
  1
*
  1
*
  0
ENDSEC
  0
EOF
