  0
SECTION
  2
HEADER
  9
$ACADVER
  1
AC1012
  9
$DWGCODEPAGE
  3
dos932
  9
$INSBASE
 10
0.0
 20
0.0
 30
0.0
  9
$EXTMIN
 10
0.0
 20
0.0
 30
0.0
  9
$EXTMAX
 10
420.0
 20
594.0
 30
0.0
  9
$LIMMIN
 10
0.0
 20
0.0
  9
$LIMMAX
 10
420.0
 20
594.0
  9
$ORTHOMODE
 70
     1
  9
$REGENMODE
 70
     1
  9
$FILLMODE
 70
     1
  9
$QTEXTMODE
 70
     0
  9
$MIRRTEXT
 70
     1
  9
$DRAGMODE
 70
     2
  9
$LTSCALE
 40
0.3
  9
$OSMODE
 70
    37
  9
$ATTMODE
 70
     1
  9
$TEXTSIZE
 40
10.0
  9
$TRACEWID
 40
0.05
  9
$TEXTSTYLE
  7
STANDARD
  9
$CLAYER
  8
DEFPOINTS
  9
$CELTYPE
  6
BYLAYER
  9
$CECOLOR
 62
   256
  9
$CELTSCALE
 40
1.0
  9
$DELOBJ
 70
     1
  9
$DISPSILH
 70
     0
  9
$DIMSCALE
 40
2.0
  9
$DIMASZ
 40
2.5
  9
$DIMEXO
 40
1.5
  9
$DIMDLI
 40
0.0
  9
$DIMRND
 40
0.0
  9
$DIMDLE
 40
0.0
  9
$DIMEXE
 40
1.0
  9
$DIMTP
 40
0.0
  9
$DIMTM
 40
0.0
  9
$DIMTXT
 40
2.5
  9
$DIMCEN
 40
0.0
  9
$DIMTSZ
 40
0.0
  9
$DIMTOL
 70
     0
  9
$DIMLIM
 70
     0
  9
$DIMTIH
 70
     0
  9
$DIMTOH
 70
     0
  9
$DIMSE1
 70
     0
  9
$DIMSE2
 70
     0
  9
$DIMTAD
 70
     1
  9
$DIMZIN
 70
     8
  9
$DIMBLK
  1
OPEN30
  9
$DIMASO
 70
     1
  9
$DIMSHO
 70
     1
  9
$DIMPOST
  1

  9
$DIMAPOST
  1

  9
$DIMALT
 70
     0
  9
$DIMALTD
 70
     2
  9
$DIMALTF
 40
25.4
  9
$DIMLFAC
 40
1.0
  9
$DIMTOFL
 70
     1
  9
$DIMTVP
 40
0.0
  9
$DIMTIX
 70
     0
  9
$DIMSOXD
 70
     0
  9
$DIMSAH
 70
     0
  9
$DIMBLK1
  1

  9
$DIMBLK2
  1

  9
$DIMSTYLE
  2
SUNPOU_2
  9
$DIMCLRD
 70
   256
  9
$DIMCLRE
 70
   256
  9
$DIMCLRT
 70
   256
  9
$DIMTFAC
 40
1.0
  9
$DIMGAP
 40
1.0
  9
$DIMJUST
 70
     0
  9
$DIMSD1
 70
     0
  9
$DIMSD2
 70
     0
  9
$DIMTOLJ
 70
     1
  9
$DIMTZIN
 70
     0
  9
$DIMALTZ
 70
     0
  9
$DIMALTTZ
 70
     0
  9
$DIMFIT
 70
     3
  9
$DIMUPT
 70
     0
  9
$DIMUNIT
 70
     2
  9
$DIMDEC
 70
     1
  9
$DIMTDEC
 70
     1
  9
$DIMALTU
 70
     2
  9
$DIMALTTD
 70
     2
  9
$DIMTXSTY
  7
SUNPOU
  9
$DIMAUNIT
 70
     0
  9
$LUNITS
 70
     2
  9
$LUPREC
 70
     4
  9
$SKETCHINC
 40
0.1
  9
$FILLETRAD
 40
0.0
  9
$AUNITS
 70
     0
  9
$AUPREC
 70
     0
  9
$MENU
  1
acad
  9
$ELEVATION
 40
0.0
  9
$PELEVATION
 40
0.0
  9
$THICKNESS
 40
0.0
  9
$LIMCHECK
 70
     0
  9
$BLIPMODE
 70
     0
  9
$CHAMFERA
 40
0.0
  9
$CHAMFERB
 40
0.0
  9
$CHAMFERC
 40
0.0
  9
$CHAMFERD
 40
0.0
  9
$SKPOLY
 70
     0
  9
$TDCREATE
 40
2444972.375000000
  9
$TDUPDATE
 40
2453266.404867974
  9
$TDINDWG
 40
0.6408510069
  9
$TDUSRTIMER
 40
0.6408510069
  9
$USRTIMER
 70
     1
  9
$ANGBASE
 50
0.0
  9
$ANGDIR
 70
     0
  9
$PDMODE
 70
     0
  9
$PDSIZE
 40
1.0
  9
$PLINEWID
 40
0.0
  9
$COORDS
 70
     1
  9
$SPLFRAME
 70
     0
  9
$SPLINETYPE
 70
     6
  9
$SPLINESEGS
 70
     8
  9
$ATTDIA
 70
     0
  9
$ATTREQ
 70
     1
  9
$HANDLING
 70
-16383
  9
$HANDSEED
  5
39AA
  9
$SURFTAB1
 70
     6
  9
$SURFTAB2
 70
     6
  9
$SURFTYPE
 70
     6
  9
$SURFU
 70
     6
  9
$SURFV
 70
     6
  9
$UCSNAME
  2

  9
$UCSORG
 10
0.0
 20
0.0
 30
0.0
  9
$UCSXDIR
 10
1.0
 20
0.0
 30
0.0
  9
$UCSYDIR
 10
0.0
 20
1.0
 30
0.0
  9
$PUCSNAME
  2

  9
$PUCSORG
 10
0.0
 20
0.0
 30
0.0
  9
$PUCSXDIR
 10
1.0
 20
0.0
 30
0.0
  9
$PUCSYDIR
 10
0.0
 20
1.0
 30
0.0
  9
$USERI1
 70
     0
  9
$USERI2
 70
     0
  9
$USERI3
 70
     0
  9
$USERI4
 70
     0
  9
$USERI5
 70
     0
  9
$USERR1
 40
0.0
  9
$USERR2
 40
0.0
  9
$USERR3
 40
0.0
  9
$USERR4
 40
0.0
  9
$USERR5
 40
0.0
  9
$WORLDVIEW
 70
     1
  9
$SHADEDGE
 70
     3
  9
$SHADEDIF
 70
    70
  9
$TILEMODE
 70
     1
  9
$MAXACTVP
 70
    16
  9
$PINSBASE
 10
0.0
 20
0.0
 30
0.0
  9
$PLIMCHECK
 70
     0
  9
$PEXTMIN
 10
0.0615628375944652
 20
-0.7246657638399939
 30
-0.0015258207003583
  9
$PEXTMAX
 10
396.5498800495696
 20
569.685070357784
 30
0.0000000349246037
  9
$PLIMMIN
 10
-11.68702289231019
 20
-12.47324767869463
  9
$PLIMMAX
 10
408.2984638719493
 20
581.4336541801636
  9
$UNITMODE
 70
     0
  9
$VISRETAIN
 70
     0
  9
$PLINEGEN
 70
     1
  9
$PSLTSCALE
 70
     0
  9
$TREEDEPTH
 70
  3020
  9
$PICKSTYLE
 70
     1
  9
$CMLSTYLE
  2
STANDARD
  9
$CMLJUST
 70
     0
  9
$CMLSCALE
 40
1.0
  9
$SAVEIMAGES
 70
     1
  0
ENDSEC
  0
SECTION
  2
CLASSES
  0
CLASS
  1
LWPOLYLINE
  2
AcDbPolyline
  3
AutoCAD 2000
 90
    32768
280
     0
281
     1
  0
CLASS
  1
IMAGE
  2
AcDbRasterImage
  3
ISM
 90
    32895
280
     0
281
     1
  0
CLASS
  1
OLE2FRAME
  2
AcDbOle2Frame
  3
AutoCAD 2000
 90
    32768
280
     0
281
     1
  0
CLASS
  1
HATCH
  2
AcDbHatch
  3
AutoCAD 2000
 90
    32768
280
     0
281
     1
  0
CLASS
  1
DICTIONARYVAR
  2
AcDbDictionaryVar
  3
AutoCAD 2000
 90
    32768
280
     0
281
     0
  0
CLASS
  1
RASTERVARIABLES
  2
AcDbRasterVariables
  3
ISM
 90
    32768
280
     0
281
     0
  0
CLASS
  1
IMAGEDEF
  2
AcDbRasterImageDef
  3
ISM
 90
    32768
280
     0
281
     0
  0
CLASS
  1
IMAGEDEF_REACTOR
  2
AcDbRasterImageDefReactor
  3
ISM
 90
    32769
280
     0
281
     0
  0
CLASS
  1
IDBUFFER
  2
AcDbIdBuffer
  3
AutoCAD 2000
 90
    32768
280
     0
281
     0
  0
CLASS
  1
SPATIAL_FILTER
  2
AcDbSpatialFilter
  3
AutoCAD 2000
 90
    32768
280
     0
281
     0
  0
CLASS
  1
XRECORD
  2
AcDbXrecord
  3
AutoCAD 2000
 90
    32768
280
     0
281
     0
  0
CLASS
  1
SORTENTSTABLE
  2
AcDbSortentsTable
  3
AutoCAD 2000
 90
    32768
280
     0
281
     0
  0
CLASS
  1
LAYER_INDEX
  2
AcDbLayerIndex
  3
AutoCAD 2000
 90
    32768
280
     0
281
     0
  0
CLASS
  1
SPATIAL_INDEX
  2
AcDbSpatialIndex
  3
AutoCAD 2000
 90
    32768
280
     0
281
     0
  0
CLASS
  1
OBJECT_PTR
  2
CAseDLPNTableRecord
  3
ASE-LPNTableRecord
 90
    32769
280
     0
281
     0
  0
CLASS
  1
ACDBDICTIONARYWDFLT
  2
AcDbDictionaryWithDefault
  3
AutoCAD 2000
 90
    32768
280
     0
281
     0
  0
CLASS
  1
ACDBPLACEHOLDER
  2
AcDbPlaceHolder
  3
AutoCAD 2000
 90
    32768
280
     0
281
     0
  0
CLASS
  1
LAYOUT
  2
AcDbLayout
  3
AutoCAD 2000
 90
    32768
280
     0
281
     0
  0
CLASS
  1
LONG_TRANSACTION
  2
AcDbLongTransaction
  3
AutoCAD 2000
 90
    32768
280
     0
281
     0
  0
CLASS
  1
LWPOLYLINE
  2
AcDbPolyline
  3
AutoCAD 2000
 90
    32768
280
     0
281
     1
  0
CLASS
  1
HATCH
  2
AcDbHatch
  3
AutoCAD 2000
 90
    32768
280
     0
281
     1
  0
CLASS
  1
XRECORD
  2
AcDbXrecord
  3
AutoCAD 2000
 90
    32768
280
     0
281
     0
  0
CLASS
  1
LONG_TRANSACTION
  2
AcDbLongTransaction
  3
AutoCAD 2000
 90
    32768
280
     0
281
     0
  0
CLASS
  1
LWPOLYLINE
  2
AcDbPolyline
  3
AutoCAD 2000
 90
    32768
280
     0
281
     1
  0
CLASS
  1
HATCH
  2
AcDbHatch
  3
AutoCAD 2000
 90
    32768
280
     0
281
     1
  0
CLASS
  1
XRECORD
  2
AcDbXrecord
  3
AutoCAD 2000
 90
    32768
280
     0
281
     0
  0
ENDSEC
  0
SECTION
  2
TABLES
  0
TABLE
  2
VPORT
  5
7
330
0
100
AcDbSymbolTable
 70
     2
  0
VPORT
  5
3985
330
7
100
AcDbSymbolTableRecord
100
AcDbViewportTableRecord
  2
*ACTIVE
 70
     0
 10
0.0
 20
0.0
 11
1.0
 21
1.0
 12
229.3198671964856
 22
297.0000041492953
 13
0.0
 23
0.0
 14
1.0
 24
1.0
 15
0.0
 25
0.0
 16
0.0
 26
0.0
 36
1.0
 17
0.0
 27
0.0
 37
0.0
 40
601.1184560008663
 41
1.780442804428044
 42
50.0
 43
0.0
 44
0.0
 50
0.0
 51
0.0
 71
     0
 72
   100
 73
     1
 74
     1
 75
     0
 76
     0
 77
     0
 78
     0
  0
ENDTAB
  0
TABLE
  2
LTYPE
  5
4
330
0
100
AcDbSymbolTable
 70
     4
  0
LTYPE
  5
11
330
4
100
AcDbSymbolTableRecord
100
AcDbLinetypeTableRecord
  2
BYBLOCK
 70
     0
  3

 72
    65
 73
     0
 40
0.0
  0
LTYPE
  5
12
330
4
100
AcDbSymbolTableRecord
100
AcDbLinetypeTableRecord
  2
BYLAYER
 70
     0
  3

 72
    65
 73
     0
 40
0.0
  0
LTYPE
  5
13
330
4
100
AcDbSymbolTableRecord
100
AcDbLinetypeTableRecord
  2
CONTINUOUS
 70
     0
  3
Solid line
 72
    65
 73
     0
 40
0.0
  0
LTYPE
  5
21
330
4
100
AcDbSymbolTableRecord
100
AcDbLinetypeTableRecord
  2
DASHED2
 70
     0
  3
CADPAC FUSION LINETYPE
 72
    65
 73
     2
 40
13.365
 49
8.91
 74
     0
 49
-4.455
 74
     0
  0
LTYPE
  5
92F
330
4
100
AcDbSymbolTableRecord
100
AcDbLinetypeTableRecord
  2
CENTER2
 70
     0
  3
Center (.5x) ___ _ ___ _ ___ _ ___ _ ___ _ ___
 72
    65
 73
     4
 40
28.57499999999999
 49
19.05
 74
     0
 49
-3.174999999999998
 74
     0
 49
3.174999999999998
 74
     0
 49
-3.174999999999998
 74
     0
  0
LTYPE
  5
930
330
4
100
AcDbSymbolTableRecord
100
AcDbLinetypeTableRecord
  2
PHANTOM2
 70
     0
  3
Phantom (.5x) ___ _ _ ___ _ _ ___ _ _ ___ _ _
 72
    65
 73
     6
 40
31.75
 49
15.875
 74
     0
 49
-3.174999999999998
 74
     0
 49
3.174999999999998
 74
     0
 49
-3.174999999999998
 74
     0
 49
3.174999999999998
 74
     0
 49
-3.174999999999998
 74
     0
  0
ENDTAB
  0
TABLE
  2
LAYER
  5
2
102
{ACAD_XDICTIONARY
360
3931
102
}
330
0
100
AcDbSymbolTable
 70
    13
  0
LAYER
  5
14
330
2
100
AcDbSymbolTableRecord
100
AcDbLayerTableRecord
  2
0
 70
     0
 62
     7
  6
CONTINUOUS
  0
LAYER
  5
931
330
2
100
AcDbSymbolTableRecord
100
AcDbLayerTableRecord
  2
DEFPOINTS
 70
     0
 62
     7
  6
CONTINUOUS
  0
LAYER
  5
932
330
2
100
AcDbSymbolTableRecord
100
AcDbLayerTableRecord
  2
03
 70
     0
 62
     3
  6
CONTINUOUS
  0
LAYER
  5
933
330
2
100
AcDbSymbolTableRecord
100
AcDbLayerTableRecord
  2
04
 70
     0
 62
     4
  6
CONTINUOUS
  0
LAYER
  5
934
330
2
100
AcDbSymbolTableRecord
100
AcDbLayerTableRecord
  2
06
 70
     0
 62
     6
  6
CONTINUOUS
  0
LAYER
  5
936
330
2
100
AcDbSymbolTableRecord
100
AcDbLayerTableRecord
  2
CHUSIN
 70
     0
 62
     6
  6
CENTER2
  0
LAYER
  5
938
330
2
100
AcDbSymbolTableRecord
100
AcDbLayerTableRecord
  2
HIKIDASI
 70
     0
 62
     6
  6
CONTINUOUS
  0
LAYER
  5
939
330
2
100
AcDbSymbolTableRecord
100
AcDbLayerTableRecord
  2
KAKURE
 70
     0
 62
     6
  6
DASHED2
  0
LAYER
  5
93A
330
2
100
AcDbSymbolTableRecord
100
AcDbLayerTableRecord
  2
MOJI
 70
     0
 62
     3
  6
CONTINUOUS
  0
LAYER
  5
93B
330
2
100
AcDbSymbolTableRecord
100
AcDbLayerTableRecord
  2
SOUZOU
 70
     0
 62
     6
  6
PHANTOM2
  0
LAYER
  5
93C
330
2
100
AcDbSymbolTableRecord
100
AcDbLayerTableRecord
  2
SUNPOU
 70
     0
 62
     6
  6
CONTINUOUS
  0
LAYER
  5
93E
330
2
100
AcDbSymbolTableRecord
100
AcDbLayerTableRecord
  2
SAISEN
 70
     0
 62
     3
  6
CONTINUOUS
  0
LAYER
  5
D69
330
2
100
AcDbSymbolTableRecord
100
AcDbLayerTableRecord
  2
02
 70
     0
 62
     2
  6
CONTINUOUS
  0
ENDTAB
  0
TABLE
  2
STYLE
  5
3
330
0
100
AcDbSymbolTable
 70
     4
  0
STYLE
  5
17
330
3
100
AcDbSymbolTableRecord
100
AcDbTextStyleTableRecord
  2
STANDARD
 70
     0
 40
0.0
 41
0.8
 50
0.0
 71
     0
 42
10.0
  3
txt.shx
  4
bigfont.shx
  0
STYLE
  5
949
330
3
100
AcDbSymbolTableRecord
100
AcDbTextStyleTableRecord
  2
SUNPOU
 70
     0
 40
0.0
 41
0.8
 50
0.0
 71
     0
 42
0.2
  3
txt.shx
  4
extfont.shx
  0
STYLE
  5
950
330
3
100
AcDbSymbolTableRecord
100
AcDbTextStyleTableRecord
  2
0_8
 70
     0
 40
0.0
 41
0.8
 50
0.0
 71
     0
 42
2.5
  3
txt.shx
  4
extfont.shx
  0
STYLE
  5
392F
330
3
100
AcDbSymbolTableRecord
100
AcDbTextStyleTableRecord
  2
0_80
 70
     0
 40
0.0
 41
0.8
 50
0.0
 71
     0
 42
7.0
  3
txt.shx
  4
extfont.shx
  0
ENDTAB
  0
TABLE
  2
VIEW
  5
5
330
0
100
AcDbSymbolTable
 70
     1
  0
VIEW
  5
135
330
5
100
AcDbSymbolTableRecord
100
AcDbViewTableRecord
  2
QQQQ
 70
     0
 40
607.7680504248977
 10
-682.6856539726941
 20
-1.991832386924101
 41
1928.911478056455
 11
0.0
 21
0.0
 31
1.0
 12
100.0
 22
100.0
 32
0.0
 42
50.0
 43
0.0
 44
0.0
 50
0.0
 71
     0
  0
ENDTAB
  0
TABLE
  2
UCS
  5
6
330
0
100
AcDbSymbolTable
 70
     0
  0
ENDTAB
  0
TABLE
  2
APPID
  5
8
330
0
100
AcDbSymbolTable
 70
     3
  0
APPID
  5
16
330
8
100
AcDbSymbolTableRecord
100
AcDbRegAppTableRecord
  2
ACAD
 70
     0
  0
APPID
  5
14AA
330
8
100
AcDbSymbolTableRecord
100
AcDbRegAppTableRecord
  2
DCO15
 70
     0
  0
APPID
  5
38B7
330
8
100
AcDbSymbolTableRecord
100
AcDbRegAppTableRecord
  2
CONTENTBLOCKICON
 70
     0
  0
ENDTAB
  0
TABLE
  2
DIMSTYLE
  5
9
330
0
100
AcDbSymbolTable
 70
     2
  0
DIMSTYLE
105
18
330
9
100
AcDbSymbolTableRecord
100
AcDbDimStyleTableRecord
  2
STANDARD
 70
     0
  3

  4

  5

  6

  7

 40
1.0
 41
0.18
 42
0.0625
 43
0.38
 44
0.18
 45
0.0
 46
0.0
 47
0.0
 48
0.0
140
0.18
141
0.09
142
0.0
143
25.4
144
1.0
145
0.0
146
1.0
147
0.09
 71
     0
 72
     0
 73
     1
 74
     1
 75
     0
 76
     0
 77
     0
 78
     0
170
     0
171
     2
172
     0
173
     0
174
     0
175
     0
176
     0
177
     0
178
     0
270
     2
271
     4
272
     4
273
     2
274
     2
340
17
275
     0
280
     0
281
     0
282
     0
283
     1
284
     0
285
     0
286
     0
287
     3
288
     0
  0
DIMSTYLE
105
95C
102
{ACAD_REACTORS
330
963
330
970
330
986
330
995
330
9A4
330
9B1
330
9C0
330
9CD
330
9DC
330
9E9
330
AD4
330
AEB
330
B4F
330
B5C
330
B83
330
B92
330
B9F
330
BC2
330
BE1
330
2748
330
2755
330
2C44
330
2C51
330
2C5E
330
2C99
330
2CA6
330
2D36
330
2D43
330
2FBA
330
2FD0
330
2FDD
102
}
330
9
100
AcDbSymbolTableRecord
100
AcDbDimStyleTableRecord
  2
SUNPOU_2
 70
     0
  3

  4

  5
OPEN30
  6

  7

 40
2.0
 41
2.5
 42
1.5
 43
0.0
 44
1.0
 45
0.0
 46
0.0
 47
0.0
 48
0.0
140
2.5
141
0.0
142
0.0
143
25.4
144
1.0
145
0.0
146
1.0
147
1.0
 71
     0
 72
     0
 73
     0
 74
     0
 75
     0
 76
     0
 77
     1
 78
     8
170
     0
171
     2
172
     1
173
     0
174
     0
175
     0
176
   256
177
   256
178
   256
270
     2
271
     1
272
     1
273
     2
274
     2
340
949
275
     0
280
     0
281
     0
282
     0
283
     1
284
     0
285
     0
286
     0
287
     3
288
     0
  0
ENDTAB
  0
TABLE
  2
BLOCK_RECORD
  5
1
330
0
100
AcDbSymbolTable
 70
    35
  0
BLOCK_RECORD
  5
A
102
{ACAD_XDICTIONARY
360
38B3
102
}
330
1
100
AcDbSymbolTableRecord
100
AcDbBlockTableRecord
  2
*MODEL_SPACE
  0
BLOCK_RECORD
  5
B
102
{ACAD_XDICTIONARY
360
38B5
102
}
330
1
100
AcDbSymbolTableRecord
100
AcDbBlockTableRecord
  2
*PAPER_SPACE
  0
BLOCK_RECORD
  5
943
330
1
100
AcDbSymbolTableRecord
100
AcDbBlockTableRecord
  2
_OPEN30
1001
CONTENTBLOCKICON
1071
        0
1004
2800000020000000200000000100080000000000000400000000000000000000000000000000000000000000000080000080000000808000800000008000800080800000C0C0C000C0DCC000F0CAA6000020400000206000002080000020A0000020C0000020E00000400000004020000040400000406000004080000040A0
1004
000040C0000040E00000600000006020000060400000606000006080000060A0000060C0000060E00000800000008020000080400000806000008080000080A0000080C0000080E00000A0000000A0200000A0400000A0600000A0800000A0A00000A0C00000A0E00000C0000000C0200000C0400000C0600000C0800000C0
1004
A00000C0C00000C0E00000E0000000E0200000E0400000E0600000E0800000E0A00000E0C00000E0E00040000000400020004000400040006000400080004000A0004000C0004000E00040200000402020004020400040206000402080004020A0004020C0004020E000404000004040200040404000404060004040800040
1004
40A0004040C0004040E00040600000406020004060400040606000406080004060A0004060C0004060E00040800000408020004080400040806000408080004080A0004080C0004080E00040A0000040A0200040A0400040A0600040A0800040A0A00040A0C00040A0E00040C0000040C0200040C0400040C0600040C08000
1004
40C0A00040C0C00040C0E00040E0000040E0200040E0400040E0600040E0800040E0A00040E0C00040E0E00080000000800020008000400080006000800080008000A0008000C0008000E00080200000802020008020400080206000802080008020A0008020C0008020E00080400000804020008040400080406000804080
1004
008040A0008040C0008040E00080600000806020008060400080606000806080008060A0008060C0008060E00080800000808020008080400080806000808080008080A0008080C0008080E00080A0000080A0200080A0400080A0600080A0800080A0A00080A0C00080A0E00080C0000080C0200080C0400080C0600080C0
1004
800080C0A00080C0C00080C0E00080E0000080E0200080E0400080E0600080E0800080E0A00080E0C00080E0E000C0000000C0002000C0004000C0006000C0008000C000A000C000C000C000E000C0200000C0202000C0204000C0206000C0208000C020A000C020C000C020E000C0400000C0402000C0404000C0406000C0
1004
408000C040A000C040C000C040E000C0600000C0602000C0604000C0606000C0608000C060A000C060C000C060E000C0800000C0802000C0804000C0806000C0808000C080A000C080C000C080E000C0A00000C0A02000C0A04000C0A06000C0A08000C0A0A000C0A0C000C0A0E000C0C00000C0C02000C0C04000C0C06000
1004
C0C08000C0C0A000F0FBFF00A4A0A000808080000000FF0000FF000000FFFF00FF000000FF00FF00FFFF0000FFFFFF0000000000000000000000000000000000000000000000000000000000000000000000000000000000000000000000000000000000000000000000000000000000000000000000000000000000000000
1004
00000000000000000000000000000000000000000000000000000000000000000000000000000000000000000000000000000000000000000000000000000000000000000000000000000000000000000000000000000000000000000000000000000000000000000000000000000000000000000000000000000000000000
1004
000000000000000000000000000000000000000000000000000000000000000000000000000000000000000000000000000000FFFF0000000000000000000000000000000000000000000000000000000000000000FFFFFFFF0000000000000000000000000000000000000000000000000000000000000000FFFFFFFF0000
1004
000000000000000000000000000000000000000000000000000000000000FFFFFF0000000000000000000000000000000000000000000000000000000000000000FFFFFFFF0000000000000000000000000000000000000000000000000000000000000000FFFFFF0000000000000000000000000000000000000000000000
1004
000000000000000000FFFFFFFF0000000000000000000000000000000000000000000000000000000000000000FFFFFFFF00000000FFFFFFFFFFFFFFFFFFFFFFFFFFFFFFFFFFFFFFFFFFFFFFFFFFFFFFFFFFFF00000000000000000000000000000000000000000000000000FFFFFFFF000000000000000000000000000000
1004
000000000000000000FFFFFFFF000000000000000000000000000000000000000000000000FFFFFFFF000000000000000000000000000000000000000000000000FFFFFFFF000000000000000000000000000000000000000000000000FFFFFFFF000000000000000000000000000000000000000000000000FFFFFFFF0000
1004
0000000000000000000000000000000000000000000000FFFFFF0000000000000000000000000000000000000000000000000000000000000000000000000000000000000000000000000000000000000000000000000000000000000000000000000000000000000000000000000000000000000000000000000000000000
1004
00000000000000000000000000000000000000000000000000000000000000000000000000000000000000000000000000000000000000000000000000000000000000000000000000000000000000000000000000000000000000000000000000000000000000000000000000000000000000000000000000000000000000
1004
0000000000000000000000000000000000000000000000000000000000000000000000000000000000000000000000000000000000000000
  0
BLOCK_RECORD
  5
964
330
1
100
AcDbSymbolTableRecord
100
AcDbBlockTableRecord
  2
*D1
  0
BLOCK_RECORD
  5
971
330
1
100
AcDbSymbolTableRecord
100
AcDbBlockTableRecord
  2
*D2
  0
BLOCK_RECORD
  5
987
330
1
100
AcDbSymbolTableRecord
100
AcDbBlockTableRecord
  2
*D3
  0
BLOCK_RECORD
  5
996
330
1
100
AcDbSymbolTableRecord
100
AcDbBlockTableRecord
  2
*D4
  0
BLOCK_RECORD
  5
9A5
330
1
100
AcDbSymbolTableRecord
100
AcDbBlockTableRecord
  2
*D5
  0
BLOCK_RECORD
  5
9B2
330
1
100
AcDbSymbolTableRecord
100
AcDbBlockTableRecord
  2
*D6
  0
BLOCK_RECORD
  5
9C1
330
1
100
AcDbSymbolTableRecord
100
AcDbBlockTableRecord
  2
*D7
  0
BLOCK_RECORD
  5
9CE
330
1
100
AcDbSymbolTableRecord
100
AcDbBlockTableRecord
  2
*D8
  0
BLOCK_RECORD
  5
9DD
330
1
100
AcDbSymbolTableRecord
100
AcDbBlockTableRecord
  2
*D9
  0
BLOCK_RECORD
  5
9EA
330
1
100
AcDbSymbolTableRecord
100
AcDbBlockTableRecord
  2
*D10
  0
BLOCK_RECORD
  5
A39
330
1
100
AcDbSymbolTableRecord
100
AcDbBlockTableRecord
  2
_DOTSMALL
1001
CONTENTBLOCKICON
1071
        0
1004
2800000020000000200000000100080000000000000400000000000000000000000000000000000000000000000080000080000000808000800000008000800080800000C0C0C000C0DCC000F0CAA6000020400000206000002080000020A0000020C0000020E00000400000004020000040400000406000004080000040A0
1004
000040C0000040E00000600000006020000060400000606000006080000060A0000060C0000060E00000800000008020000080400000806000008080000080A0000080C0000080E00000A0000000A0200000A0400000A0600000A0800000A0A00000A0C00000A0E00000C0000000C0200000C0400000C0600000C0800000C0
1004
A00000C0C00000C0E00000E0000000E0200000E0400000E0600000E0800000E0A00000E0C00000E0E00040000000400020004000400040006000400080004000A0004000C0004000E00040200000402020004020400040206000402080004020A0004020C0004020E000404000004040200040404000404060004040800040
1004
40A0004040C0004040E00040600000406020004060400040606000406080004060A0004060C0004060E00040800000408020004080400040806000408080004080A0004080C0004080E00040A0000040A0200040A0400040A0600040A0800040A0A00040A0C00040A0E00040C0000040C0200040C0400040C0600040C08000
1004
40C0A00040C0C00040C0E00040E0000040E0200040E0400040E0600040E0800040E0A00040E0C00040E0E00080000000800020008000400080006000800080008000A0008000C0008000E00080200000802020008020400080206000802080008020A0008020C0008020E00080400000804020008040400080406000804080
1004
008040A0008040C0008040E00080600000806020008060400080606000806080008060A0008060C0008060E00080800000808020008080400080806000808080008080A0008080C0008080E00080A0000080A0200080A0400080A0600080A0800080A0A00080A0C00080A0E00080C0000080C0200080C0400080C0600080C0
1004
800080C0A00080C0C00080C0E00080E0000080E0200080E0400080E0600080E0800080E0A00080E0C00080E0E000C0000000C0002000C0004000C0006000C0008000C000A000C000C000C000E000C0200000C0202000C0204000C0206000C0208000C020A000C020C000C020E000C0400000C0402000C0404000C0406000C0
1004
408000C040A000C040C000C040E000C0600000C0602000C0604000C0606000C0608000C060A000C060C000C060E000C0800000C0802000C0804000C0806000C0808000C080A000C080C000C080E000C0A00000C0A02000C0A04000C0A06000C0A08000C0A0A000C0A0C000C0A0E000C0C00000C0C02000C0C04000C0C06000
1004
C0C08000C0C0A000F0FBFF00A4A0A000808080000000FF0000FF000000FFFF00FF000000FF00FF00FFFF0000FFFFFF0000000000000000000000FFFF0000000000000000FFFF00000000000000000000FF000000000000000000FFFF0000000000000000FFFF000000000000000000FFFFFF000000000000000000FF000000
1004
0000000000FF000000000000000000FFFF00FF000000000000000000FFFF000000000000FFFF000000000000000000FF0000FFFF0000000000000000FFFFFF00000000FFFFFF0000000000000000FFFF000000FFFF00000000000000FF00FFFF0000FFFF00FF00000000000000FFFF0000FFFF00FF00000000000000FF0000
1004
FF0000FF0000FF00000000000000FF00FFFF00FFFFFFFFFF0000000000FF000000FFFF000000FF0000000000FFFFFFFFFF0000000000FFFFFFFFFF0000FF000000FFFF000000FF0000FFFFFFFFFF000000000000000000FFFF00FFFFFFFF000000FFFF000000FFFFFFFF00FFFF0000000000000000000000FF00000000FFFF
1004
FFFF0000FFFFFFFF00000000FF00000000000000000000000000FF000000FF00FFFFFFFFFFFF00FF000000FF0000000000000000000000000000FFFF0000FFFFFFFF0000FFFFFFFF0000FFFF000000000000000000000000000000FFFFFFFFFF000000000000FFFFFFFFFF00000000000000000000000000FFFFFFFFFF00FF
1004
0000000000000000FF00FFFFFFFFFF0000000000FFFFFFFFFFFF000000FFFFFF0000000000000000FFFFFF000000FFFFFFFFFFFFFFFFFFFFFFFF000000FFFFFF0000000000000000FFFFFF000000FFFFFFFFFFFF0000000000FFFFFFFFFF00FF0000000000000000FF00FFFFFFFFFF00000000000000000000000000FFFFFF
1004
FFFF000000000000FFFFFFFFFF000000000000000000000000000000FFFF0000FFFFFFFF0000FFFFFFFF0000FFFF0000000000000000000000000000FF000000FF00FFFFFFFFFFFF00FF000000FF00000000000000000000000000FF00000000FFFFFFFF0000FFFFFFFF00000000FF0000000000000000000000FFFF00FFFF
1004
FFFF000000FFFF000000FFFFFFFF00FFFF000000000000000000FFFFFFFFFF0000FF000000FFFF000000FF0000FFFFFFFFFF0000000000FFFFFFFFFF0000000000FF000000FFFF000000FF0000000000FFFFFFFFFF00FFFF00FF00000000000000FF0000FF0000FF0000FF00000000000000FF00FFFF0000FFFF0000000000
1004
0000FF00FFFF0000FFFF00FF00000000000000FFFF000000FFFF0000000000000000FFFFFF00000000FFFFFF0000000000000000FFFF0000FF000000000000000000FFFF000000000000FFFF000000000000000000FF00FFFF000000000000000000FF0000000000000000FF000000000000000000FFFFFF00000000000000
1004
0000FFFF0000000000000000FFFF000000000000000000FF00000000000000000000FFFF0000000000000000FFFF00000000000000000000
  0
BLOCK_RECORD
  5
A48
330
1
100
AcDbSymbolTableRecord
100
AcDbBlockTableRecord
  2
_NONE
  0
BLOCK_RECORD
  5
AD5
330
1
100
AcDbSymbolTableRecord
100
AcDbBlockTableRecord
  2
*D13
  0
BLOCK_RECORD
  5
AEC
330
1
100
AcDbSymbolTableRecord
100
AcDbBlockTableRecord
  2
*D14
  0
BLOCK_RECORD
  5
B50
330
1
100
AcDbSymbolTableRecord
100
AcDbBlockTableRecord
  2
*D15
  0
BLOCK_RECORD
  5
B5D
330
1
100
AcDbSymbolTableRecord
100
AcDbBlockTableRecord
  2
*D16
  0
BLOCK_RECORD
  5
B84
330
1
100
AcDbSymbolTableRecord
100
AcDbBlockTableRecord
  2
*D17
  0
BLOCK_RECORD
  5
B93
330
1
100
AcDbSymbolTableRecord
100
AcDbBlockTableRecord
  2
*D18
  0
BLOCK_RECORD
  5
BA0
330
1
100
AcDbSymbolTableRecord
100
AcDbBlockTableRecord
  2
*D19
  0
BLOCK_RECORD
  5
BC3
330
1
100
AcDbSymbolTableRecord
100
AcDbBlockTableRecord
  2
*D20
  0
BLOCK_RECORD
  5
BE2
330
1
100
AcDbSymbolTableRecord
100
AcDbBlockTableRecord
  2
*D21
  0
BLOCK_RECORD
  5
2749
330
1
100
AcDbSymbolTableRecord
100
AcDbBlockTableRecord
  2
*D22
  0
BLOCK_RECORD
  5
2756
330
1
100
AcDbSymbolTableRecord
100
AcDbBlockTableRecord
  2
*D23
  0
BLOCK_RECORD
  5
2C45
330
1
100
AcDbSymbolTableRecord
100
AcDbBlockTableRecord
  2
*D24
  0
BLOCK_RECORD
  5
2C52
330
1
100
AcDbSymbolTableRecord
100
AcDbBlockTableRecord
  2
*D25
  0
BLOCK_RECORD
  5
2C5F
330
1
100
AcDbSymbolTableRecord
100
AcDbBlockTableRecord
  2
*D26
  0
BLOCK_RECORD
  5
2C9A
330
1
100
AcDbSymbolTableRecord
100
AcDbBlockTableRecord
  2
*D27
  0
BLOCK_RECORD
  5
2CA7
330
1
100
AcDbSymbolTableRecord
100
AcDbBlockTableRecord
  2
*D28
  0
BLOCK_RECORD
  5
2D37
330
1
100
AcDbSymbolTableRecord
100
AcDbBlockTableRecord
  2
*D29
  0
BLOCK_RECORD
  5
2D44
330
1
100
AcDbSymbolTableRecord
100
AcDbBlockTableRecord
  2
*D30
  0
BLOCK_RECORD
  5
2FBB
330
1
100
AcDbSymbolTableRecord
100
AcDbBlockTableRecord
  2
*D31
  0
BLOCK_RECORD
  5
2FD1
330
1
100
AcDbSymbolTableRecord
100
AcDbBlockTableRecord
  2
*D32
  0
BLOCK_RECORD
  5
2FDE
330
1
100
AcDbSymbolTableRecord
100
AcDbBlockTableRecord
  2
*D33
  0
BLOCK_RECORD
  5
3909
330
1
100
AcDbSymbolTableRecord
100
AcDbBlockTableRecord
  2
*X34
  0
ENDTAB
  0
ENDSEC
  0
SECTION
  2
BLOCKS
  0
BLOCK
  5
D
330
A
100
AcDbEntity
  8
0
100
AcDbBlockBegin
  2
*MODEL_SPACE
 70
     0
 10
0.0
 20
0.0
 30
0.0
  3
*MODEL_SPACE
  1

  0
ENDBLK
  5
E
330
A
100
AcDbEntity
  8
0
100
AcDbBlockEnd
  0
BLOCK
  5
F
330
B
100
AcDbEntity
 67
     1
  8
0
100
AcDbBlockBegin
  2
*PAPER_SPACE
 70
     0
 10
0.0
 20
0.0
 30
0.0
  3
*PAPER_SPACE
  1

  0
ENDBLK
  5
10
330
B
100
AcDbEntity
 67
     1
  8
0
100
AcDbBlockEnd
  0
BLOCK
  5
947
330
943
100
AcDbEntity
  8
0
100
AcDbBlockBegin
  2
_OPEN30
 70
     0
 10
0.0
 20
0.0
 30
0.0
  3
_OPEN30
  1

  0
LINE
  5
944
330
943
100
AcDbEntity
  8
0
  6
BYBLOCK
 62
     0
100
AcDbLine
 10
-1.0
 20
0.26794919
 30
0.0
 11
0.0
 21
0.0
 31
0.0
  0
LINE
  5
945
330
943
100
AcDbEntity
  8
0
  6
BYBLOCK
 62
     0
100
AcDbLine
 10
0.0
 20
0.0
 30
0.0
 11
-1.0
 21
-0.26794919
 31
0.0
  0
LINE
  5
946
330
943
100
AcDbEntity
  8
0
  6
BYBLOCK
 62
     0
100
AcDbLine
 10
0.0
 20
0.0
 30
0.0
 11
-1.0
 21
0.0
 31
0.0
  0
ENDBLK
  5
948
330
943
100
AcDbEntity
  8
0
100
AcDbBlockEnd
  0
BLOCK
  5
96E
330
964
100
AcDbEntity
  8
0
100
AcDbBlockBegin
  2
*D1
 70
     1
 10
0.0
 20
0.0
 30
0.0
  3
*D1
  1

  0
LINE
  5
2358
330
964
100
AcDbEntity
  8
SUNPOU
100
AcDbLine
 10
199.7999999999999
 20
73.01633522615197
 30
0.0
 11
199.7999999999999
 21
60.00357285727838
 31
0.0
  0
LINE
  5
2359
330
964
100
AcDbEntity
  8
SUNPOU
100
AcDbLine
 10
216.8000000000001
 20
73.01633522615197
 30
0.0
 11
216.8000000000001
 21
60.00357285727838
 31
0.0
  0
LINE
  5
235A
330
964
100
AcDbEntity
  8
SUNPOU
100
AcDbLine
 10
204.8
 20
62.00357285727839
 30
0.0
 11
211.8000000000001
 21
62.00357285727839
 31
0.0
  0
INSERT
  5
235B
330
964
100
AcDbEntity
  8
SUNPOU
100
AcDbBlockReference
  2
_OPEN30
 10
199.7999999999999
 20
62.00357285727839
 30
0.0
 41
5.0
 42
5.0
 43
5.0
 50
180.0
  0
INSERT
  5
235C
330
964
100
AcDbEntity
  8
SUNPOU
100
AcDbBlockReference
  2
_OPEN30
 10
216.8000000000001
 20
62.00357285727839
 30
0.0
 41
5.0
 42
5.0
 43
5.0
  0
MTEXT
  5
235D
330
964
100
AcDbEntity
  8
SUNPOU
100
AcDbMText
 10
208.3
 20
66.5035728572784
 30
0.0
 40
5.0
 41
0.0
 71
     5
 72
     1
  1
\A1;17
  7
SUNPOU
1001
ACAD
1000
MTEXTBEGIN
1070
    73
1070
     1
1070
    44
1040
1.0
1070
    74
1070
     0
1000
MTEXTEND
1000
MTEXTBEGIN
1070
    73
1070
     1
1070
    44
1040
1.0
1070
    74
1070
     0
1000
MTEXTEND
  0
POINT
  5
235E
330
964
100
AcDbEntity
  8
DEFPOINTS
 62
     0
100
AcDbPoint
 10
199.7999999999999
 20
76.01633522615195
 30
0.0
  0
POINT
  5
235F
330
964
100
AcDbEntity
  8
DEFPOINTS
 62
     0
100
AcDbPoint
 10
216.8000000000001
 20
76.01633522615195
 30
0.0
  0
POINT
  5
2360
330
964
100
AcDbEntity
  8
DEFPOINTS
 62
     0
100
AcDbPoint
 10
216.8000000000001
 20
62.00357285727839
 30
0.0
  0
ENDBLK
  5
96F
330
964
100
AcDbEntity
  8
0
100
AcDbBlockEnd
  0
BLOCK
  5
97B
330
971
100
AcDbEntity
  8
0
100
AcDbBlockBegin
  2
*D2
 70
     1
 10
0.0
 20
0.0
 30
0.0
  3
*D2
  1

  0
LINE
  5
234F
330
971
100
AcDbEntity
  8
SUNPOU
100
AcDbLine
 10
238.7999999999999
 20
73.01633522615197
 30
0.0
 11
238.7999999999999
 21
60.00357285727838
 31
0.0
  0
LINE
  5
2350
330
971
100
AcDbEntity
  8
SUNPOU
100
AcDbLine
 10
255.8000000000002
 20
73.01633522615197
 30
0.0
 11
255.8000000000002
 21
60.00357285727838
 31
0.0
  0
LINE
  5
2351
330
971
100
AcDbEntity
  8
SUNPOU
100
AcDbLine
 10
243.7999999999999
 20
62.00357285727839
 30
0.0
 11
250.8000000000001
 21
62.00357285727839
 31
0.0
  0
INSERT
  5
2352
330
971
100
AcDbEntity
  8
SUNPOU
100
AcDbBlockReference
  2
_OPEN30
 10
238.7999999999999
 20
62.00357285727839
 30
0.0
 41
5.0
 42
5.0
 43
5.0
 50
180.0
  0
INSERT
  5
2353
330
971
100
AcDbEntity
  8
SUNPOU
100
AcDbBlockReference
  2
_OPEN30
 10
255.8000000000002
 20
62.00357285727839
 30
0.0
 41
5.0
 42
5.0
 43
5.0
  0
MTEXT
  5
2354
330
971
100
AcDbEntity
  8
SUNPOU
100
AcDbMText
 10
247.3
 20
66.5035728572784
 30
0.0
 40
5.0
 41
0.0
 71
     5
 72
     1
  1
\A1;17
  7
SUNPOU
1001
ACAD
1000
MTEXTBEGIN
1070
    73
1070
     1
1070
    44
1040
1.0
1070
    74
1070
     0
1000
MTEXTEND
1000
MTEXTBEGIN
1070
    73
1070
     1
1070
    44
1040
1.0
1070
    74
1070
     0
1000
MTEXTEND
  0
POINT
  5
2355
330
971
100
AcDbEntity
  8
DEFPOINTS
 62
     0
100
AcDbPoint
 10
238.7999999999999
 20
76.01633522615195
 30
0.0
  0
POINT
  5
2356
330
971
100
AcDbEntity
  8
DEFPOINTS
 62
     0
100
AcDbPoint
 10
255.8000000000002
 20
76.01633522615195
 30
0.0
  0
POINT
  5
2357
330
971
100
AcDbEntity
  8
DEFPOINTS
 62
     0
100
AcDbPoint
 10
255.8000000000002
 20
62.00357285727839
 30
0.0
  0
ENDBLK
  5
97C
330
971
100
AcDbEntity
  8
0
100
AcDbBlockEnd
  0
BLOCK
  5
993
330
987
100
AcDbEntity
  8
0
100
AcDbBlockBegin
  2
*D3
 70
     1
 10
0.0
 20
0.0
 30
0.0
  3
*D3
  1

  0
LINE
  5
38BD
330
987
100
AcDbEntity
  8
SUNPOU
100
AcDbLine
 10
126.2999999999999
 20
234.7848041893106
 30
0.0
 11
126.2999999999999
 21
233.7848041893106
 31
0.0
  0
LINE
  5
38BE
330
987
100
AcDbEntity
  8
SUNPOU
100
AcDbLine
 10
129.3
 20
255.7663352261517
 30
0.0
 11
129.3
 21
229.7848041893106
 31
0.0
  0
LINE
  5
38BF
330
987
100
AcDbEntity
  8
SUNPOU
100
AcDbLine
 10
121.3
 20
231.7848041893106
 30
0.0
 11
116.3
 21
231.7848041893106
 31
0.0
  0
LINE
  5
38C0
330
987
100
AcDbEntity
  8
SUNPOU
100
AcDbLine
 10
129.3
 20
231.7848041893106
 30
0.0
 11
134.3
 21
231.7848041893106
 31
0.0
  0
MTEXT
  5
38C1
330
987
100
AcDbEntity
  8
SUNPOU
100
AcDbMText
 10
119.5236854154636
 20
236.2848041893106
 30
0.0
 40
5.0
 41
0.0
 71
     5
 72
     1
  1
\A1;3
  7
SUNPOU
1001
ACAD
1000
MTEXTBEGIN
1070
    73
1070
     1
1070
    44
1040
1.0
1070
    74
1070
     0
1000
MTEXTEND
1000
MTEXTBEGIN
1070
    73
1070
     1
1070
    44
1040
1.0
1070
    74
1070
     0
1000
MTEXTEND
  0
LINE
  5
38C2
330
987
100
AcDbEntity
  8
SUNPOU
100
AcDbLine
 10
126.2999999999999
 20
231.7848041893106
 30
0.0
 11
129.3
 21
231.7848041893106
 31
0.0
  0
INSERT
  5
38C3
330
987
100
AcDbEntity
  8
SUNPOU
100
AcDbBlockReference
  2
_OPEN30
 10
126.2999999999999
 20
231.7848041893106
 30
0.0
 41
5.0
 42
5.0
 43
5.0
  0
INSERT
  5
38C4
330
987
100
AcDbEntity
  8
SUNPOU
100
AcDbBlockReference
  2
_DOTSMALL
 10
129.3
 20
231.7848041893106
 30
0.0
 41
5.0
 42
5.0
 43
5.0
 50
180.0
  0
POINT
  5
38C5
330
987
100
AcDbEntity
  8
DEFPOINTS
 62
     0
100
AcDbPoint
 10
126.2999999999999
 20
231.7848041893106
 30
0.0
  0
POINT
  5
38C6
330
987
100
AcDbEntity
  8
DEFPOINTS
 62
     0
100
AcDbPoint
 10
129.3
 20
258.7663352261516
 30
0.0
  0
POINT
  5
38C7
330
987
100
AcDbEntity
  8
DEFPOINTS
 62
     0
100
AcDbPoint
 10
129.3
 20
231.7848041893106
 30
0.0
  0
ENDBLK
  5
994
330
987
100
AcDbEntity
  8
0
100
AcDbBlockEnd
  0
BLOCK
  5
9A2
330
996
100
AcDbEntity
  8
0
100
AcDbBlockBegin
  2
*D4
 70
     1
 10
0.0
 20
0.0
 30
0.0
  3
*D4
  1

  0
LINE
  5
38C8
330
996
100
AcDbEntity
  8
SUNPOU
100
AcDbLine
 10
129.3
 20
255.7663352261517
 30
0.0
 11
129.3
 21
229.7848041893106
 31
0.0
  0
LINE
  5
38C9
330
996
100
AcDbEntity
  8
SUNPOU
100
AcDbLine
 10
132.3
 20
234.7848041893106
 30
0.0
 11
132.3
 21
233.7848041893106
 31
0.0
  0
LINE
  5
38CA
330
996
100
AcDbEntity
  8
SUNPOU
100
AcDbLine
 10
129.3
 20
231.7848041893106
 30
0.0
 11
124.3
 21
231.7848041893106
 31
0.0
  0
LINE
  5
38CB
330
996
100
AcDbEntity
  8
SUNPOU
100
AcDbLine
 10
137.3
 20
231.7848041893106
 30
0.0
 11
142.3
 21
231.7848041893106
 31
0.0
  0
MTEXT
  5
38CC
330
996
100
AcDbEntity
  8
SUNPOU
100
AcDbMText
 10
130.7999999999998
 20
227.2848041893106
 30
0.0
 40
5.0
 41
0.0
 71
     5
 72
     1
  1
\A1;3
  7
SUNPOU
1001
ACAD
1000
MTEXTBEGIN
1070
    73
1070
     1
1070
    44
1040
1.0
1070
    74
1070
     0
1000
MTEXTEND
1000
MTEXTBEGIN
1070
    73
1070
     1
1070
    44
1040
1.0
1070
    74
1070
     0
1000
MTEXTEND
  0
LINE
  5
38CD
330
996
100
AcDbEntity
  8
SUNPOU
100
AcDbLine
 10
129.3
 20
231.7848041893106
 30
0.0
 11
132.3
 21
231.7848041893106
 31
0.0
  0
INSERT
  5
38CE
330
996
100
AcDbEntity
  8
SUNPOU
100
AcDbBlockReference
  2
_OPEN30
 10
132.3
 20
231.7848041893106
 30
0.0
 41
5.0
 42
5.0
 43
5.0
 50
180.0
  0
POINT
  5
38CF
330
996
100
AcDbEntity
  8
DEFPOINTS
 62
     0
100
AcDbPoint
 10
129.3
 20
258.7663352261516
 30
0.0
  0
POINT
  5
38D0
330
996
100
AcDbEntity
  8
DEFPOINTS
 62
     0
100
AcDbPoint
 10
132.3
 20
231.7848041893106
 30
0.0
  0
POINT
  5
38D1
330
996
100
AcDbEntity
  8
DEFPOINTS
 62
     0
100
AcDbPoint
 10
132.3
 20
231.7848041893106
 30
0.0
  0
ENDBLK
  5
9A3
330
996
100
AcDbEntity
  8
0
100
AcDbBlockEnd
  0
BLOCK
  5
9AF
330
9A5
100
AcDbEntity
  8
0
100
AcDbBlockBegin
  2
*D5
 70
     1
 10
0.0
 20
0.0
 30
0.0
  3
*D5
  1

  0
LINE
  5
2609
330
9A5
100
AcDbEntity
  8
SUNPOU
100
AcDbLine
 10
132.3
 20
234.7848041893106
 30
0.0
 11
132.3
 21
233.7848041893106
 31
0.0
  0
LINE
  5
260A
330
9A5
100
AcDbEntity
  8
SUNPOU
100
AcDbLine
 10
191.3
 20
234.7848041893106
 30
0.0
 11
191.3
 21
233.7848041893106
 31
0.0
  0
LINE
  5
260B
330
9A5
100
AcDbEntity
  8
SUNPOU
100
AcDbLine
 10
137.3
 20
231.7848041893106
 30
0.0
 11
186.3
 21
231.7848041893106
 31
0.0
  0
MTEXT
  5
260C
330
9A5
100
AcDbEntity
  8
SUNPOU
100
AcDbMText
 10
165.6941432937309
 20
236.2848041893106
 30
0.0
 40
5.0
 41
0.0
 71
     5
 72
     1
  1
\A1;59
  7
SUNPOU
1001
ACAD
1000
MTEXTBEGIN
1070
    73
1070
     1
1070
    44
1040
1.0
1070
    74
1070
     0
1000
MTEXTEND
1000
MTEXTBEGIN
1070
    73
1070
     1
1070
    44
1040
1.0
1070
    74
1070
     0
1000
MTEXTEND
  0
INSERT
  5
260D
330
9A5
100
AcDbEntity
  8
SUNPOU
100
AcDbBlockReference
  2
_OPEN30
 10
132.3
 20
231.7848041893106
 30
0.0
 41
5.0
 42
5.0
 43
5.0
 50
180.0
  0
INSERT
  5
260E
330
9A5
100
AcDbEntity
  8
SUNPOU
100
AcDbBlockReference
  2
_OPEN30
 10
191.3
 20
231.7848041893106
 30
0.0
 41
5.0
 42
5.0
 43
5.0
  0
POINT
  5
260F
330
9A5
100
AcDbEntity
  8
DEFPOINTS
 62
     0
100
AcDbPoint
 10
132.3
 20
231.7848041893106
 30
0.0
  0
POINT
  5
2610
330
9A5
100
AcDbEntity
  8
DEFPOINTS
 62
     0
100
AcDbPoint
 10
191.3
 20
231.7848041893106
 30
0.0
  0
POINT
  5
2611
330
9A5
100
AcDbEntity
  8
DEFPOINTS
 62
     0
100
AcDbPoint
 10
191.3
 20
231.7848041893106
 30
0.0
  0
ENDBLK
  5
9B0
330
9A5
100
AcDbEntity
  8
0
100
AcDbBlockEnd
  0
BLOCK
  5
9BE
330
9B2
100
AcDbEntity
  8
0
100
AcDbBlockBegin
  2
*D6
 70
     1
 10
0.0
 20
0.0
 30
0.0
  3
*D6
  1

  0
LINE
  5
38D2
330
9B2
100
AcDbEntity
  8
SUNPOU
100
AcDbLine
 10
191.3
 20
228.7848041893106
 30
0.0
 11
191.3
 21
229.7848041893106
 31
0.0
  0
LINE
  5
38D3
330
9B2
100
AcDbEntity
  8
SUNPOU
100
AcDbLine
 10
196.3000071226158
 20
234.7848041893106
 30
0.0
 11
196.3000071226158
 21
233.7848041893106
 31
0.0
  0
LINE
  5
38D4
330
9B2
100
AcDbEntity
  8
SUNPOU
100
AcDbLine
 10
191.3
 20
231.7848041893106
 30
0.0
 11
196.3000071226158
 21
231.7848041893106
 31
0.0
  0
MTEXT
  5
38D5
330
9B2
100
AcDbEntity
  8
SUNPOU
100
AcDbMText
 10
193.7136534009873
 20
227.2848041893106
 30
0.0
 40
5.0
 41
0.0
 71
     5
 72
     1
  1
\A1;5
  7
SUNPOU
1001
ACAD
1000
MTEXTBEGIN
1070
    73
1070
     1
1070
    44
1040
1.0
1070
    74
1070
     0
1000
MTEXTEND
1000
MTEXTBEGIN
1070
    73
1070
     1
1070
    44
1040
1.0
1070
    74
1070
     0
1000
MTEXTEND
  0
INSERT
  5
38D6
330
9B2
100
AcDbEntity
  8
SUNPOU
100
AcDbBlockReference
  2
_DOTSMALL
 10
191.3
 20
231.7848041893106
 30
0.0
 41
5.0
 42
5.0
 43
5.0
 50
180.0
  0
INSERT
  5
38D7
330
9B2
100
AcDbEntity
  8
SUNPOU
100
AcDbBlockReference
  2
_DOTSMALL
 10
196.3000071226158
 20
231.7848041893106
 30
0.0
 41
5.0
 42
5.0
 43
5.0
  0
POINT
  5
38D8
330
9B2
100
AcDbEntity
  8
DEFPOINTS
 62
     0
100
AcDbPoint
 10
191.3
 20
231.7848041893106
 30
0.0
  0
POINT
  5
38D9
330
9B2
100
AcDbEntity
  8
DEFPOINTS
 62
     0
100
AcDbPoint
 10
196.3000071226158
 20
231.7848041893106
 30
0.0
  0
POINT
  5
38DA
330
9B2
100
AcDbEntity
  8
DEFPOINTS
 62
     0
100
AcDbPoint
 10
196.3000071226158
 20
231.7848041893106
 30
0.0
  0
ENDBLK
  5
9BF
330
9B2
100
AcDbEntity
  8
0
100
AcDbBlockEnd
  0
BLOCK
  5
9CB
330
9C1
100
AcDbEntity
  8
0
100
AcDbBlockBegin
  2
*D7
 70
     1
 10
0.0
 20
0.0
 30
0.0
  3
*D7
  1

  0
LINE
  5
2678
330
9C1
100
AcDbEntity
  8
SUNPOU
100
AcDbLine
 10
196.3000071226158
 20
234.7848041893106
 30
0.0
 11
196.3000071226158
 21
233.7848041893106
 31
0.0
  0
LINE
  5
2679
330
9C1
100
AcDbEntity
  8
SUNPOU
100
AcDbLine
 10
228.3000071226159
 20
228.7848041893106
 30
0.0
 11
228.3000071226159
 21
229.7848041893106
 31
0.0
  0
LINE
  5
267A
330
9C1
100
AcDbEntity
  8
SUNPOU
100
AcDbLine
 10
201.3000071226158
 20
231.7848041893106
 30
0.0
 11
223.300007122616
 21
231.7848041893106
 31
0.0
  0
MTEXT
  5
267B
330
9C1
100
AcDbEntity
  8
SUNPOU
100
AcDbMText
 10
212.0421019505339
 20
236.2848041893106
 30
0.0
 40
5.0
 41
0.0
 71
     5
 72
     1
  1
\A1;32
  7
SUNPOU
1001
ACAD
1000
MTEXTBEGIN
1070
    73
1070
     1
1070
    44
1040
1.0
1070
    74
1070
     0
1000
MTEXTEND
1000
MTEXTBEGIN
1070
    73
1070
     1
1070
    44
1040
1.0
1070
    74
1070
     0
1000
MTEXTEND
  0
INSERT
  5
267C
330
9C1
100
AcDbEntity
  8
SUNPOU
100
AcDbBlockReference
  2
_OPEN30
 10
196.3000071226158
 20
231.7848041893106
 30
0.0
 41
5.0
 42
5.0
 43
5.0
 50
180.0
  0
INSERT
  5
267D
330
9C1
100
AcDbEntity
  8
SUNPOU
100
AcDbBlockReference
  2
_OPEN30
 10
228.3000071226159
 20
231.7848041893106
 30
0.0
 41
5.0
 42
5.0
 43
5.0
  0
POINT
  5
267E
330
9C1
100
AcDbEntity
  8
DEFPOINTS
 62
     0
100
AcDbPoint
 10
196.3000071226158
 20
231.7848041893106
 30
0.0
  0
POINT
  5
267F
330
9C1
100
AcDbEntity
  8
DEFPOINTS
 62
     0
100
AcDbPoint
 10
228.3000071226159
 20
231.7848041893106
 30
0.0
  0
POINT
  5
2680
330
9C1
100
AcDbEntity
  8
DEFPOINTS
 62
     0
100
AcDbPoint
 10
228.3000071226159
 20
231.7848041893106
 30
0.0
  0
ENDBLK
  5
9CC
330
9C1
100
AcDbEntity
  8
0
100
AcDbBlockEnd
  0
BLOCK
  5
9DA
330
9CE
100
AcDbEntity
  8
0
100
AcDbBlockBegin
  2
*D8
 70
     1
 10
0.0
 20
0.0
 30
0.0
  3
*D8
  1

  0
LINE
  5
38DB
330
9CE
100
AcDbEntity
  8
SUNPOU
100
AcDbLine
 10
228.3000071226159
 20
228.7848041893106
 30
0.0
 11
228.3000071226159
 21
229.7848041893106
 31
0.0
  0
LINE
  5
38DC
330
9CE
100
AcDbEntity
  8
SUNPOU
100
AcDbLine
 10
233.3003437872196
 20
234.7848041893106
 30
0.0
 11
233.3003437872196
 21
233.7848041893106
 31
0.0
  0
LINE
  5
38DD
330
9CE
100
AcDbEntity
  8
SUNPOU
100
AcDbLine
 10
228.3000071226159
 20
231.7848041893106
 30
0.0
 11
233.3003437872196
 21
231.7848041893106
 31
0.0
  0
MTEXT
  5
38DE
330
9CE
100
AcDbEntity
  8
SUNPOU
100
AcDbMText
 10
230.8001754549179
 20
236.0831305137219
 30
0.0
 40
5.0
 41
0.0
 71
     5
 72
     1
  1
\A1;5
  7
SUNPOU
1001
ACAD
1000
MTEXTBEGIN
1070
    73
1070
     1
1070
    44
1040
1.0
1070
    74
1070
     0
1000
MTEXTEND
1000
MTEXTBEGIN
1070
    73
1070
     1
1070
    44
1040
1.0
1070
    74
1070
     0
1000
MTEXTEND
  0
INSERT
  5
38DF
330
9CE
100
AcDbEntity
  8
SUNPOU
100
AcDbBlockReference
  2
_DOTSMALL
 10
228.3000071226159
 20
231.7848041893106
 30
0.0
 41
5.0
 42
5.0
 43
5.0
 50
180.0
  0
INSERT
  5
38E0
330
9CE
100
AcDbEntity
  8
SUNPOU
100
AcDbBlockReference
  2
_DOTSMALL
 10
233.3003437872196
 20
231.7848041893106
 30
0.0
 41
5.0
 42
5.0
 43
5.0
  0
POINT
  5
38E1
330
9CE
100
AcDbEntity
  8
DEFPOINTS
 62
     0
100
AcDbPoint
 10
228.3000071226159
 20
231.7848041893106
 30
0.0
  0
POINT
  5
38E2
330
9CE
100
AcDbEntity
  8
DEFPOINTS
 62
     0
100
AcDbPoint
 10
233.3003437872196
 20
231.7848041893106
 30
0.0
  0
POINT
  5
38E3
330
9CE
100
AcDbEntity
  8
DEFPOINTS
 62
     0
100
AcDbPoint
 10
233.3003437872196
 20
231.7848041893106
 30
0.0
  0
ENDBLK
  5
9DB
330
9CE
100
AcDbEntity
  8
0
100
AcDbBlockEnd
  0
BLOCK
  5
9E7
330
9DD
100
AcDbEntity
  8
0
100
AcDbBlockBegin
  2
*D9
 70
     1
 10
0.0
 20
0.0
 30
0.0
  3
*D9
  1

  0
LINE
  5
26B1
330
9DD
100
AcDbEntity
  8
SUNPOU
100
AcDbLine
 10
233.3003437872196
 20
228.7848041893106
 30
0.0
 11
233.3003437872196
 21
229.7848041893106
 31
0.0
  0
LINE
  5
26B2
330
9DD
100
AcDbEntity
  8
SUNPOU
100
AcDbLine
 10
265.3003437872198
 20
228.7848041893106
 30
0.0
 11
265.3003437872198
 21
229.7848041893106
 31
0.0
  0
LINE
  5
26B3
330
9DD
100
AcDbEntity
  8
SUNPOU
100
AcDbLine
 10
238.3003437872198
 20
231.7848041893106
 30
0.0
 11
260.3003437872196
 21
231.7848041893106
 31
0.0
  0
INSERT
  5
26B4
330
9DD
100
AcDbEntity
  8
SUNPOU
100
AcDbBlockReference
  2
_OPEN30
 10
233.3003437872196
 20
231.7848041893106
 30
0.0
 41
5.0
 42
5.0
 43
5.0
 50
180.0
  0
INSERT
  5
26B5
330
9DD
100
AcDbEntity
  8
SUNPOU
100
AcDbBlockReference
  2
_OPEN30
 10
265.3003437872198
 20
231.7848041893106
 30
0.0
 41
5.0
 42
5.0
 43
5.0
  0
MTEXT
  5
26B6
330
9DD
100
AcDbEntity
  8
SUNPOU
100
AcDbMText
 10
249.3003437872197
 20
236.2848041893106
 30
0.0
 40
5.0
 41
0.0
 71
     5
 72
     1
  1
\A1;32
  7
SUNPOU
1001
ACAD
1000
MTEXTBEGIN
1070
    73
1070
     1
1070
    44
1040
1.0
1070
    74
1070
     0
1000
MTEXTEND
1000
MTEXTBEGIN
1070
    73
1070
     1
1070
    44
1040
1.0
1070
    74
1070
     0
1000
MTEXTEND
  0
POINT
  5
26B7
330
9DD
100
AcDbEntity
  8
DEFPOINTS
 62
     0
100
AcDbPoint
 10
233.3003437872196
 20
231.7848041893106
 30
0.0
  0
POINT
  5
26B8
330
9DD
100
AcDbEntity
  8
DEFPOINTS
 62
     0
100
AcDbPoint
 10
265.3003437872198
 20
231.7848041893106
 30
0.0
  0
POINT
  5
26B9
330
9DD
100
AcDbEntity
  8
DEFPOINTS
 62
     0
100
AcDbPoint
 10
265.3003437872198
 20
231.7848041893106
 30
0.0
  0
ENDBLK
  5
9E8
330
9DD
100
AcDbEntity
  8
0
100
AcDbBlockEnd
  0
BLOCK
  5
9F6
330
9EA
100
AcDbEntity
  8
0
100
AcDbBlockBegin
  2
*D10
 70
     1
 10
0.0
 20
0.0
 30
0.0
  3
*D10
  1

  0
LINE
  5
38E4
330
9EA
100
AcDbEntity
  8
SUNPOU
100
AcDbLine
 10
265.3003437872198
 20
234.7848041893106
 30
0.0
 11
265.3003437872198
 21
233.7848041893106
 31
0.0
  0
LINE
  5
38E5
330
9EA
100
AcDbEntity
  8
SUNPOU
100
AcDbLine
 10
270.3
 20
255.7663352261517
 30
0.0
 11
270.3
 21
229.7848041893106
 31
0.0
  0
LINE
  5
38E6
330
9EA
100
AcDbEntity
  8
SUNPOU
100
AcDbLine
 10
265.3003437872198
 20
231.7848041893106
 30
0.0
 11
270.3
 21
231.7848041893106
 31
0.0
  0
MTEXT
  5
38E7
330
9EA
100
AcDbEntity
  8
SUNPOU
100
AcDbMText
 10
267.8242651263608
 20
227.2750108563314
 30
0.0
 40
5.0
 41
0.0
 71
     5
 72
     1
  1
\A1;5
  7
SUNPOU
1001
ACAD
1000
MTEXTBEGIN
1070
    73
1070
     1
1070
    44
1040
1.0
1070
    74
1070
     0
1000
MTEXTEND
1000
MTEXTBEGIN
1070
    73
1070
     1
1070
    44
1040
1.0
1070
    74
1070
     0
1000
MTEXTEND
  0
INSERT
  5
38E8
330
9EA
100
AcDbEntity
  8
SUNPOU
100
AcDbBlockReference
  2
_DOTSMALL
 10
265.3003437872198
 20
231.7848041893106
 30
0.0
 41
5.0
 42
5.0
 43
5.0
 50
180.0
  0
INSERT
  5
38E9
330
9EA
100
AcDbEntity
  8
SUNPOU
100
AcDbBlockReference
  2
_DOTSMALL
 10
270.3
 20
231.7848041893106
 30
0.0
 41
5.0
 42
5.0
 43
5.0
  0
POINT
  5
38EA
330
9EA
100
AcDbEntity
  8
DEFPOINTS
 62
     0
100
AcDbPoint
 10
265.3003437872198
 20
231.7848041893106
 30
0.0
  0
POINT
  5
38EB
330
9EA
100
AcDbEntity
  8
DEFPOINTS
 62
     0
100
AcDbPoint
 10
270.3
 20
258.7663352261516
 30
0.0
  0
POINT
  5
38EC
330
9EA
100
AcDbEntity
  8
DEFPOINTS
 62
     0
100
AcDbPoint
 10
270.3
 20
231.7848041893106
 30
0.0
  0
ENDBLK
  5
9F7
330
9EA
100
AcDbEntity
  8
0
100
AcDbBlockEnd
  0
BLOCK
  5
A3B
330
A39
100
AcDbEntity
  8
0
100
AcDbBlockBegin
  2
_DOTSMALL
 70
     0
 10
0.0
 20
0.0
 30
0.0
  3
_DOTSMALL
  1

  0
POLYLINE
  5
A3A
330
A39
100
AcDbEntity
  8
0
  6
BYBLOCK
 62
     0
100
AcDb2dPolyline
 66
     1
 10
0.0
 20
0.0
 30
0.0
 70
     1
 40
0.5
 41
0.5
  0
VERTEX
  5
398F
330
A3A
100
AcDbEntity
  8
0
  6
BYBLOCK
 62
     0
100
AcDbVertex
100
AcDb2dVertex
 10
-0.0625
 20
0.0
 30
0.0
 42
1.0
  0
VERTEX
  5
3990
330
A3A
100
AcDbEntity
  8
0
  6
BYBLOCK
 62
     0
100
AcDbVertex
100
AcDb2dVertex
 10
0.0625
 20
0.0
 30
0.0
 42
1.0
  0
SEQEND
  5
3991
330
A3A
100
AcDbEntity
  8
0
  6
BYBLOCK
 62
     0
  0
ENDBLK
  5
A3C
330
A39
100
AcDbEntity
  8
0
100
AcDbBlockEnd
  0
BLOCK
  5
A49
330
A48
100
AcDbEntity
  8
0
100
AcDbBlockBegin
  2
_NONE
 70
     0
 10
0.0
 20
0.0
 30
0.0
  3
_NONE
  1

  0
ENDBLK
  5
A4A
330
A48
100
AcDbEntity
  8
0
100
AcDbBlockEnd
  0
BLOCK
  5
ADF
330
AD5
100
AcDbEntity
  8
0
100
AcDbBlockBegin
  2
*D13
 70
     1
 10
0.0
 20
0.0
 30
0.0
  3
*D13
  1

  0
LINE
  5
2362
330
AD5
100
AcDbEntity
  8
SUNPOU
100
AcDbLine
 10
81.30228870771093
 20
99.51633522615187
 30
0.0
 11
82.30228870771091
 21
99.51633522615187
 31
0.0
  0
LINE
  5
2363
330
AD5
100
AcDbEntity
  8
SUNPOU
100
AcDbLine
 10
141.3
 20
183.5163352261518
 30
0.0
 11
82.30228870771092
 21
183.5163352261518
 31
0.0
  0
LINE
  5
2364
330
AD5
100
AcDbEntity
  8
SUNPOU
100
AcDbLine
 10
84.30228870771093
 20
104.5163352261518
 30
0.0
 11
84.30228870771093
 21
178.5163352261518
 31
0.0
  0
INSERT
  5
2365
330
AD5
100
AcDbEntity
  8
SUNPOU
100
AcDbBlockReference
  2
_OPEN30
 10
84.30228870771093
 20
99.51633522615187
 30
0.0
 41
5.0
 42
5.0
 43
5.0
 50
270.0
  0
INSERT
  5
2366
330
AD5
100
AcDbEntity
  8
SUNPOU
100
AcDbBlockReference
  2
_OPEN30
 10
84.30228870771093
 20
183.5163352261518
 30
0.0
 41
5.0
 42
5.0
 43
5.0
 50
90.0
  0
MTEXT
  5
2367
330
AD5
100
AcDbEntity
  8
SUNPOU
100
AcDbMText
 10
79.8022887077109
 20
141.5163352261517
 30
0.0
 40
5.0
 41
0.0
 71
     5
 72
     1
  1
\A1;600
  7
SUNPOU
 11
0.0000000000000001
 21
1.0
 31
0.0
1001
ACAD
1000
MTEXTBEGIN
1070
    73
1070
     1
1070
    44
1040
1.0
1070
    74
1070
     0
1000
MTEXTEND
1000
MTEXTBEGIN
1070
    73
1070
     1
1070
    44
1040
1.0
1070
    74
1070
     0
1000
MTEXTEND
  0
POINT
  5
2368
330
AD5
100
AcDbEntity
  8
DEFPOINTS
 62
     0
100
AcDbPoint
 10
84.30228870771093
 20
99.51633522615187
 30
0.0
  0
POINT
  5
2369
330
AD5
100
AcDbEntity
  8
DEFPOINTS
 62
     0
100
AcDbPoint
 10
144.3
 20
183.5163352261518
 30
0.0
  0
POINT
  5
236A
330
AD5
100
AcDbEntity
  8
DEFPOINTS
 62
     0
100
AcDbPoint
 10
84.30228870771093
 20
183.5163352261518
 30
0.0
  0
ENDBLK
  5
AE0
330
AD5
100
AcDbEntity
  8
0
100
AcDbBlockEnd
  0
BLOCK
  5
AF6
330
AEC
100
AcDbEntity
  8
0
100
AcDbBlockBegin
  2
*D14
 70
     1
 10
0.0
 20
0.0
 30
0.0
  3
*D14
  1

  0
LINE
  5
2FEA
330
AEC
100
AcDbEntity
  8
SUNPOU
100
AcDbLine
 10
126.2999999999999
 20
224.3381283052291
 30
0.0
 11
126.2999999999999
 21
223.338128305229
 31
0.0
  0
LINE
  5
2FEB
330
AEC
100
AcDbEntity
  8
SUNPOU
100
AcDbLine
 10
286.2999999999999
 20
224.3381283052291
 30
0.0
 11
286.2999999999999
 21
223.338128305229
 31
0.0
  0
LINE
  5
2FEC
330
AEC
100
AcDbEntity
  8
SUNPOU
100
AcDbLine
 10
131.3
 20
221.338128305229
 30
0.0
 11
281.3
 21
221.338128305229
 31
0.0
  0
MTEXT
  5
2FED
330
AEC
100
AcDbEntity
  8
SUNPOU
100
AcDbMText
 10
217.20971357908
 20
225.838128305229
 30
0.0
 40
5.0
 41
0.0
 71
     5
 72
     1
  1
\A1;160
  7
SUNPOU
1001
ACAD
1000
MTEXTBEGIN
1070
    73
1070
     1
1070
    44
1040
1.0
1070
    74
1070
     0
1000
MTEXTEND
1000
MTEXTBEGIN
1070
    73
1070
     1
1070
    44
1040
1.0
1070
    74
1070
     0
1000
MTEXTEND
  0
INSERT
  5
2FEE
330
AEC
100
AcDbEntity
  8
SUNPOU
100
AcDbBlockReference
  2
_OPEN30
 10
126.2999999999999
 20
221.338128305229
 30
0.0
 41
5.0
 42
5.0
 43
5.0
 50
180.0
  0
INSERT
  5
2FEF
330
AEC
100
AcDbEntity
  8
SUNPOU
100
AcDbBlockReference
  2
_OPEN30
 10
286.2999999999999
 20
221.338128305229
 30
0.0
 41
5.0
 42
5.0
 43
5.0
  0
POINT
  5
2FF0
330
AEC
100
AcDbEntity
  8
DEFPOINTS
 62
     0
100
AcDbPoint
 10
126.2999999999999
 20
221.338128305229
 30
0.0
  0
POINT
  5
2FF1
330
AEC
100
AcDbEntity
  8
DEFPOINTS
 62
     0
100
AcDbPoint
 10
286.2999999999999
 20
221.338128305229
 30
0.0
  0
POINT
  5
2FF2
330
AEC
100
AcDbEntity
  8
DEFPOINTS
 62
     0
100
AcDbPoint
 10
286.2999999999999
 20
221.338128305229
 30
0.0
  0
ENDBLK
  5
AF7
330
AEC
100
AcDbEntity
  8
0
100
AcDbBlockEnd
  0
BLOCK
  5
B5A
330
B50
100
AcDbEntity
  8
0
100
AcDbBlockBegin
  2
*D15
 70
     1
 10
0.0
 20
0.0
 30
0.0
  3
*D15
  1

  0
LINE
  5
2346
330
B50
100
AcDbEntity
  8
SUNPOU
100
AcDbLine
 10
260.2999999999998
 20
77.51633522615197
 30
0.0
 11
291.527646343112
 21
77.51633522615195
 31
0.0
  0
LINE
  5
2347
330
B50
100
AcDbEntity
  8
SUNPOU
100
AcDbLine
 10
268.7999999999993
 20
102.5163352261519
 30
0.0
 11
291.527646343112
 21
102.5163352261518
 31
0.0
  0
LINE
  5
2348
330
B50
100
AcDbEntity
  8
SUNPOU
100
AcDbLine
 10
289.527646343112
 20
82.51633522615195
 30
0.0
 11
289.527646343112
 21
97.51633522615192
 31
0.0
  0
INSERT
  5
2349
330
B50
100
AcDbEntity
  8
SUNPOU
100
AcDbBlockReference
  2
_OPEN30
 10
289.527646343112
 20
77.51633522615195
 30
0.0
 41
5.0
 42
5.0
 43
5.0
 50
270.0
  0
INSERT
  5
234A
330
B50
100
AcDbEntity
  8
SUNPOU
100
AcDbBlockReference
  2
_OPEN30
 10
289.527646343112
 20
102.5163352261518
 30
0.0
 41
5.0
 42
5.0
 43
5.0
 50
90.0
  0
MTEXT
  5
234B
330
B50
100
AcDbEntity
  8
SUNPOU
100
AcDbMText
 10
285.027646343112
 20
90.01633522615199
 30
0.0
 40
5.0
 41
0.0
 71
     5
 72
     1
  1
\A1;25
  7
SUNPOU
 11
0.0000000000000001
 21
1.0
 31
0.0
1001
ACAD
1000
MTEXTBEGIN
1070
    73
1070
     1
1070
    44
1040
1.0
1070
    74
1070
     0
1000
MTEXTEND
1000
MTEXTBEGIN
1070
    73
1070
     1
1070
    44
1040
1.0
1070
    74
1070
     0
1000
MTEXTEND
  0
POINT
  5
234C
330
B50
100
AcDbEntity
  8
DEFPOINTS
 62
     0
100
AcDbPoint
 10
257.2999999999999
 20
77.51633522615197
 30
0.0
  0
POINT
  5
234D
330
B50
100
AcDbEntity
  8
DEFPOINTS
 62
     0
100
AcDbPoint
 10
265.7999999999995
 20
102.5163352261519
 30
0.0
  0
POINT
  5
234E
330
B50
100
AcDbEntity
  8
DEFPOINTS
 62
     0
100
AcDbPoint
 10
289.527646343112
 20
102.5163352261518
 30
0.0
  0
ENDBLK
  5
B5B
330
B50
100
AcDbEntity
  8
0
100
AcDbBlockEnd
  0
BLOCK
  5
B69
330
B5D
100
AcDbEntity
  8
0
100
AcDbBlockBegin
  2
*D16
 70
     1
 10
0.0
 20
0.0
 30
0.0
  3
*D16
  1

  0
LINE
  5
233B
330
B5D
100
AcDbEntity
  8
SUNPOU
100
AcDbLine
 10
270.2999999999994
 20
99.51633522615185
 30
0.0
 11
280.3030958496687
 21
99.51633522615185
 31
0.0
  0
LINE
  5
233C
330
B5D
100
AcDbEntity
  8
SUNPOU
100
AcDbLine
 10
268.7999999999993
 20
102.5163352261519
 30
0.0
 11
280.3030958496687
 21
102.5163352261519
 31
0.0
  0
LINE
  5
233D
330
B5D
100
AcDbEntity
  8
SUNPOU
100
AcDbLine
 10
278.3030958496687
 20
94.51633522615185
 30
0.0
 11
278.3030958496687
 21
89.51633522615185
 31
0.0
  0
LINE
  5
233E
330
B5D
100
AcDbEntity
  8
SUNPOU
100
AcDbLine
 10
278.3030958496687
 20
107.5163352261519
 30
0.0
 11
278.3030958496687
 21
112.5163352261519
 31
0.0
  0
MTEXT
  5
233F
330
B5D
100
AcDbEntity
  8
SUNPOU
100
AcDbMText
 10
273.755286348436
 20
92.35519538547123
 30
0.0
 40
5.0
 41
0.0
 71
     5
 72
     1
  1
\A1;3
  7
SUNPOU
 11
0.0000000000000001
 21
1.0
 31
0.0
1001
ACAD
1000
MTEXTBEGIN
1070
    73
1070
     1
1070
    44
1040
1.0
1070
    74
1070
     0
1000
MTEXTEND
1000
MTEXTBEGIN
1070
    73
1070
     1
1070
    44
1040
1.0
1070
    74
1070
     0
1000
MTEXTEND
  0
LINE
  5
2340
330
B5D
100
AcDbEntity
  8
SUNPOU
100
AcDbLine
 10
278.3030958496687
 20
99.51633522615185
 30
0.0
 11
278.3030958496687
 21
102.5163352261519
 31
0.0
  0
INSERT
  5
2341
330
B5D
100
AcDbEntity
  8
SUNPOU
100
AcDbBlockReference
  2
_OPEN30
 10
278.3030958496687
 20
99.51633522615185
 30
0.0
 41
5.0
 42
5.0
 43
5.0
 50
90.0
  0
INSERT
  5
2342
330
B5D
100
AcDbEntity
  8
SUNPOU
100
AcDbBlockReference
  2
_OPEN30
 10
278.3030958496687
 20
102.5163352261519
 30
0.0
 41
5.0
 42
5.0
 43
5.0
 50
270.0
  0
POINT
  5
2343
330
B5D
100
AcDbEntity
  8
DEFPOINTS
 62
     0
100
AcDbPoint
 10
267.2999999999995
 20
99.51633522615185
 30
0.0
  0
POINT
  5
2344
330
B5D
100
AcDbEntity
  8
DEFPOINTS
 62
     0
100
AcDbPoint
 10
265.7999999999995
 20
102.5163352261519
 30
0.0
  0
POINT
  5
2345
330
B5D
100
AcDbEntity
  8
DEFPOINTS
 62
     0
100
AcDbPoint
 10
278.3030958496687
 20
102.5163352261519
 30
0.0
  0
ENDBLK
  5
B6A
330
B5D
100
AcDbEntity
  8
0
100
AcDbBlockEnd
  0
BLOCK
  5
B90
330
B84
100
AcDbEntity
  8
0
100
AcDbBlockBegin
  2
*D17
 70
     1
 10
0.0
 20
0.0
 30
0.0
  3
*D17
  1

  0
LINE
  5
2330
330
B84
100
AcDbEntity
  8
SUNPOU
100
AcDbLine
 10
307.9595782073813
 20
99.51633522615185
 30
0.0
 11
308.9595782073812
 21
99.51633522615185
 31
0.0
  0
LINE
  5
2331
330
B84
100
AcDbEntity
  8
SUNPOU
100
AcDbLine
 10
266.2999999999996
 20
109.5163352261518
 30
0.0
 11
312.9595782073812
 21
109.5163352261518
 31
0.0
  0
LINE
  5
2332
330
B84
100
AcDbEntity
  8
SUNPOU
100
AcDbLine
 10
310.9595782073812
 20
94.51633522615185
 30
0.0
 11
310.9595782073812
 21
89.51633522615185
 31
0.0
  0
LINE
  5
2333
330
B84
100
AcDbEntity
  8
SUNPOU
100
AcDbLine
 10
310.9595782073812
 20
114.5163352261517
 30
0.0
 11
310.9595782073812
 21
119.5163352261517
 31
0.0
  0
LINE
  5
2334
330
B84
100
AcDbEntity
  8
SUNPOU
100
AcDbLine
 10
310.9595782073812
 20
99.51633522615185
 30
0.0
 11
310.9595782073812
 21
109.5163352261518
 31
0.0
  0
INSERT
  5
2335
330
B84
100
AcDbEntity
  8
SUNPOU
100
AcDbBlockReference
  2
_OPEN30
 10
310.9595782073812
 20
99.51633522615185
 30
0.0
 41
5.0
 42
5.0
 43
5.0
 50
90.0
  0
INSERT
  5
2336
330
B84
100
AcDbEntity
  8
SUNPOU
100
AcDbBlockReference
  2
_OPEN30
 10
310.9595782073812
 20
109.5163352261518
 30
0.0
 41
5.0
 42
5.0
 43
5.0
 50
270.0
  0
MTEXT
  5
2337
330
B84
100
AcDbEntity
  8
SUNPOU
100
AcDbMText
 10
306.4595782073813
 20
104.5163352261518
 30
0.0
 40
5.0
 41
0.0
 71
     5
 72
     1
  1
\A1;10
  7
SUNPOU
 11
0.0000000000000001
 21
1.0
 31
0.0
1001
ACAD
1000
MTEXTBEGIN
1070
    73
1070
     1
1070
    44
1040
1.0
1070
    74
1070
     0
1000
MTEXTEND
1000
MTEXTBEGIN
1070
    73
1070
     1
1070
    44
1040
1.0
1070
    74
1070
     0
1000
MTEXTEND
  0
POINT
  5
2338
330
B84
100
AcDbEntity
  8
DEFPOINTS
 62
     0
100
AcDbPoint
 10
310.9595782073812
 20
99.51633522615185
 30
0.0
  0
POINT
  5
2339
330
B84
100
AcDbEntity
  8
DEFPOINTS
 62
     0
100
AcDbPoint
 10
263.2999999999996
 20
109.5163352261518
 30
0.0
  0
POINT
  5
233A
330
B84
100
AcDbEntity
  8
DEFPOINTS
 62
     0
100
AcDbPoint
 10
310.9595782073812
 20
109.5163352261518
 30
0.0
  0
ENDBLK
  5
B91
330
B84
100
AcDbEntity
  8
0
100
AcDbBlockEnd
  0
BLOCK
  5
B9D
330
B93
100
AcDbEntity
  8
0
100
AcDbBlockBegin
  2
*D18
 70
     1
 10
0.0
 20
0.0
 30
0.0
  3
*D18
  1

  0
LINE
  5
26EF
330
B93
100
AcDbEntity
  8
SUNPOU
100
AcDbLine
 10
266.2999999999996
 20
109.5163352261518
 30
0.0
 11
312.9595782073812
 21
109.5163352261518
 31
0.0
  0
LINE
  5
26F0
330
B93
100
AcDbEntity
  8
SUNPOU
100
AcDbLine
 10
274.8
 20
268.0163352261516
 30
0.0
 11
312.9595782073812
 21
268.0163352261516
 31
0.0
  0
LINE
  5
26F1
330
B93
100
AcDbEntity
  8
SUNPOU
100
AcDbLine
 10
310.9595782073812
 20
114.5163352261517
 30
0.0
 11
310.9595782073812
 21
263.0163352261516
 31
0.0
  0
INSERT
  5
26F2
330
B93
100
AcDbEntity
  8
SUNPOU
100
AcDbBlockReference
  2
_OPEN30
 10
310.9595782073812
 20
109.5163352261518
 30
0.0
 41
5.0
 42
5.0
 43
5.0
 50
270.0
  0
INSERT
  5
26F3
330
B93
100
AcDbEntity
  8
SUNPOU
100
AcDbBlockReference
  2
_OPEN30
 10
310.9595782073812
 20
268.0163352261516
 30
0.0
 41
5.0
 42
5.0
 43
5.0
 50
90.0
  0
MTEXT
  5
26F4
330
B93
100
AcDbEntity
  8
SUNPOU
100
AcDbMText
 10
306.4595782073813
 20
188.7663352261517
 30
0.0
 40
5.0
 41
0.0
 71
     5
 72
     1
  1
\A1;DH
  7
SUNPOU
 11
0.0000000000000001
 21
1.0
 31
0.0
1001
ACAD
1000
MTEXTBEGIN
1070
    73
1070
     1
1070
    44
1040
1.0
1070
    74
1070
     0
1000
MTEXTEND
1000
MTEXTBEGIN
1070
    73
1070
     1
1070
    44
1040
1.0
1070
    74
1070
     0
1000
MTEXTEND
  0
POINT
  5
26F5
330
B93
100
AcDbEntity
  8
DEFPOINTS
 62
     0
100
AcDbPoint
 10
263.2999999999996
 20
109.5163352261518
 30
0.0
  0
POINT
  5
26F6
330
B93
100
AcDbEntity
  8
DEFPOINTS
 62
     0
100
AcDbPoint
 10
271.7999999999999
 20
268.0163352261516
 30
0.0
  0
POINT
  5
26F7
330
B93
100
AcDbEntity
  8
DEFPOINTS
 62
     0
100
AcDbPoint
 10
310.9595782073812
 20
268.0163352261516
 30
0.0
  0
ENDBLK
  5
B9E
330
B93
100
AcDbEntity
  8
0
100
AcDbBlockEnd
  0
BLOCK
  5
BAC
330
BA0
100
AcDbEntity
  8
0
100
AcDbBlockBegin
  2
*D19
 70
     1
 10
0.0
 20
0.0
 30
0.0
  3
*D19
  1

  0
LINE
  5
27F8
330
BA0
100
AcDbEntity
  8
SUNPOU
100
AcDbLine
 10
285.5499999999996
 20
258.0163352261517
 30
0.0
 11
303.6917398945518
 21
258.0163352261517
 31
0.0
  0
LINE
  5
27F9
330
BA0
100
AcDbEntity
  8
SUNPOU
100
AcDbLine
 10
274.8
 20
268.0163352261516
 30
0.0
 11
303.6917398945518
 21
268.0163352261516
 31
0.0
  0
LINE
  5
27FA
330
BA0
100
AcDbEntity
  8
SUNPOU
100
AcDbLine
 10
301.6917398945518
 20
253.0163352261516
 30
0.0
 11
301.6917398945518
 21
248.0163352261516
 31
0.0
  0
LINE
  5
27FB
330
BA0
100
AcDbEntity
  8
SUNPOU
100
AcDbLine
 10
301.6917398945518
 20
273.0163352261516
 30
0.0
 11
301.6917398945518
 21
278.0163352261516
 31
0.0
  0
MTEXT
  5
27FC
330
BA0
100
AcDbEntity
  8
SUNPOU
100
AcDbMText
 10
297.1917398945516
 20
261.3512862503139
 30
0.0
 40
5.0
 41
0.0
 71
     5
 72
     1
  1
\A1;10
  7
SUNPOU
 11
0.0000000000000001
 21
1.0
 31
0.0
1001
ACAD
1000
MTEXTBEGIN
1070
    73
1070
     1
1070
    44
1040
1.0
1070
    74
1070
     0
1000
MTEXTEND
1000
MTEXTBEGIN
1070
    73
1070
     1
1070
    44
1040
1.0
1070
    74
1070
     0
1000
MTEXTEND
  0
LINE
  5
27FD
330
BA0
100
AcDbEntity
  8
SUNPOU
100
AcDbLine
 10
301.6917398945518
 20
258.0163352261517
 30
0.0
 11
301.6917398945518
 21
268.0163352261516
 31
0.0
  0
INSERT
  5
27FE
330
BA0
100
AcDbEntity
  8
SUNPOU
100
AcDbBlockReference
  2
_OPEN30
 10
301.6917398945518
 20
258.0163352261517
 30
0.0
 41
5.0
 42
5.0
 43
5.0
 50
90.0
  0
INSERT
  5
27FF
330
BA0
100
AcDbEntity
  8
SUNPOU
100
AcDbBlockReference
  2
_OPEN30
 10
301.6917398945518
 20
268.0163352261516
 30
0.0
 41
5.0
 42
5.0
 43
5.0
 50
270.0
  0
POINT
  5
2800
330
BA0
100
AcDbEntity
  8
DEFPOINTS
 62
     0
100
AcDbPoint
 10
282.5499999999996
 20
258.0163352261517
 30
0.0
  0
POINT
  5
2801
330
BA0
100
AcDbEntity
  8
DEFPOINTS
 62
     0
100
AcDbPoint
 10
271.7999999999999
 20
268.0163352261516
 30
0.0
  0
POINT
  5
2802
330
BA0
100
AcDbEntity
  8
DEFPOINTS
 62
     0
100
AcDbPoint
 10
301.6917398945518
 20
268.0163352261516
 30
0.0
  0
ENDBLK
  5
BAD
330
BA0
100
AcDbEntity
  8
0
100
AcDbBlockEnd
  0
BLOCK
  5
BCD
330
BC3
100
AcDbEntity
  8
0
100
AcDbBlockBegin
  2
*D20
 70
     1
 10
0.0
 20
0.0
 30
0.0
  3
*D20
  1

  0
LINE
  5
231E
330
BC3
100
AcDbEntity
  8
SUNPOU
100
AcDbLine
 10
323.6186291739893
 20
99.51633522615185
 30
0.0
 11
324.6186291739893
 21
99.51633522615185
 31
0.0
  0
LINE
  5
231F
330
BC3
100
AcDbEntity
  8
SUNPOU
100
AcDbLine
 10
285.5499999999996
 20
258.0163352261517
 30
0.0
 11
328.6186291739893
 21
258.0163352261517
 31
0.0
  0
LINE
  5
2320
330
BC3
100
AcDbEntity
  8
SUNPOU
100
AcDbLine
 10
326.6186291739893
 20
104.5163352261518
 30
0.0
 11
326.6186291739893
 21
253.0163352261516
 31
0.0
  0
INSERT
  5
2321
330
BC3
100
AcDbEntity
  8
SUNPOU
100
AcDbBlockReference
  2
_OPEN30
 10
326.6186291739893
 20
99.51633522615185
 30
0.0
 41
5.0
 42
5.0
 43
5.0
 50
270.0
  0
INSERT
  5
2322
330
BC3
100
AcDbEntity
  8
SUNPOU
100
AcDbBlockReference
  2
_OPEN30
 10
326.6186291739893
 20
258.0163352261517
 30
0.0
 41
5.0
 42
5.0
 43
5.0
 50
90.0
  0
MTEXT
  5
2323
330
BC3
100
AcDbEntity
  8
SUNPOU
100
AcDbMText
 10
322.1186291739893
 20
178.7663352261517
 30
0.0
 40
5.0
 41
0.0
 71
     5
 72
     1
  1
\A1;H
  7
SUNPOU
 11
0.0000000000000001
 21
1.0
 31
0.0
1001
ACAD
1000
MTEXTBEGIN
1070
    73
1070
     1
1070
    44
1040
1.0
1070
    74
1070
     0
1000
MTEXTEND
1000
MTEXTBEGIN
1070
    73
1070
     1
1070
    44
1040
1.0
1070
    74
1070
     0
1000
MTEXTEND
  0
POINT
  5
2324
330
BC3
100
AcDbEntity
  8
DEFPOINTS
 62
     0
100
AcDbPoint
 10
326.6186291739893
 20
99.51633522615185
 30
0.0
  0
POINT
  5
2325
330
BC3
100
AcDbEntity
  8
DEFPOINTS
 62
     0
100
AcDbPoint
 10
282.5499999999996
 20
258.0163352261517
 30
0.0
  0
POINT
  5
2326
330
BC3
100
AcDbEntity
  8
DEFPOINTS
 62
     0
100
AcDbPoint
 10
326.6186291739893
 20
258.0163352261517
 30
0.0
  0
ENDBLK
  5
BCE
330
BC3
100
AcDbEntity
  8
0
100
AcDbBlockEnd
  0
BLOCK
  5
BEC
330
BE2
100
AcDbEntity
  8
0
100
AcDbBlockBegin
  2
*D21
 70
     1
 10
0.0
 20
0.0
 30
0.0
  3
*D21
  1

  0
LINE
  5
C42
330
BE2
100
AcDbEntity
  8
SUNPOU
100
AcDbLine
 10
285.5499999999996
 20
258.0163352261517
 30
0.0
 11
328.6186291739893
 21
258.0163352261517
 31
0.0
  0
LINE
  5
C43
330
BE2
100
AcDbEntity
  8
SUNPOU
100
AcDbLine
 10
285.5499999999996
 20
528.0163352261516
 30
0.0
 11
328.6186291739894
 21
528.0163352261516
 31
0.0
  0
LINE
  5
C44
330
BE2
100
AcDbEntity
  8
SUNPOU
100
AcDbLine
 10
326.6186291739893
 20
263.0163352261516
 30
0.0
 11
326.6186291739894
 21
523.0163352261516
 31
0.0
  0
INSERT
  5
C45
330
BE2
100
AcDbEntity
  8
SUNPOU
100
AcDbBlockReference
  2
_OPEN30
 10
326.6186291739893
 20
258.0163352261517
 30
0.0
 41
5.0
 42
5.0
 43
5.0
 50
270.0
  0
INSERT
  5
C46
330
BE2
100
AcDbEntity
  8
SUNPOU
100
AcDbBlockReference
  2
_OPEN30
 10
326.6186291739894
 20
528.0163352261516
 30
0.0
 41
5.0
 42
5.0
 43
5.0
 50
90.0
  0
MTEXT
  5
C47
330
BE2
100
AcDbEntity
  8
SUNPOU
100
AcDbMText
 10
322.1186291739893
 20
393.0163352261518
 30
0.0
 40
5.0
 41
0.0
 71
     5
 72
     1
  1
\A1;270
  7
SUNPOU
 11
0.0000000000000001
 21
1.0
 31
0.0
1001
ACAD
1000
MTEXTBEGIN
1070
    73
1070
     1
1070
    44
1040
1.0
1070
    74
1070
     0
1000
MTEXTEND
1000
MTEXTBEGIN
1070
    73
1070
     1
1070
    44
1040
1.0
1070
    74
1070
     0
1000
MTEXTEND
  0
POINT
  5
C48
330
BE2
100
AcDbEntity
  8
DEFPOINTS
 62
     0
100
AcDbPoint
 10
282.5499999999996
 20
258.0163352261517
 30
0.0
  0
POINT
  5
C49
330
BE2
100
AcDbEntity
  8
DEFPOINTS
 62
     0
100
AcDbPoint
 10
282.5499999999996
 20
528.0163352261516
 30
0.0
  0
POINT
  5
C4A
330
BE2
100
AcDbEntity
  8
DEFPOINTS
 62
     0
100
AcDbPoint
 10
326.6186291739894
 20
528.0163352261516
 30
0.0
  0
ENDBLK
  5
BED
330
BE2
100
AcDbEntity
  8
0
100
AcDbBlockEnd
  0
BLOCK
  5
2753
330
2749
100
AcDbEntity
  8
0
100
AcDbBlockBegin
  2
*D22
 70
     1
 10
0.0
 20
0.0
 30
0.0
  3
*D22
  1

  0
LINE
  5
399C
330
2749
100
AcDbEntity
  8
SUNPOU
100
AcDbLine
 10
270.3003437872196
 20
234.7848041893106
 30
0.0
 11
270.3003437872196
 21
233.7848041893106
 31
0.0
  0
LINE
  5
399D
330
2749
100
AcDbEntity
  8
SUNPOU
100
AcDbLine
 10
283.3
 20
255.7663352261517
 30
0.0
 11
283.3
 21
229.7848041893106
 31
0.0
  0
LINE
  5
399E
330
2749
100
AcDbEntity
  8
SUNPOU
100
AcDbLine
 10
270.3003437872196
 20
231.7848041893106
 30
0.0
 11
278.3
 21
231.7848041893106
 31
0.0
  0
INSERT
  5
399F
330
2749
100
AcDbEntity
  8
SUNPOU
100
AcDbBlockReference
  2
_DOTSMALL
 10
270.3003437872196
 20
231.7848041893106
 30
0.0
 41
5.0
 42
5.0
 43
5.0
 50
180.0
  0
INSERT
  5
39A0
330
2749
100
AcDbEntity
  8
SUNPOU
100
AcDbBlockReference
  2
_OPEN30
 10
283.3
 20
231.7848041893106
 30
0.0
 41
5.0
 42
5.0
 43
5.0
  0
MTEXT
  5
39A1
330
2749
100
AcDbEntity
  8
SUNPOU
100
AcDbMText
 10
274.3001718936098
 20
236.2848041893106
 30
0.0
 40
5.0
 41
0.0
 71
     5
 72
     1
  1
\A1;13
  7
SUNPOU
  0
POINT
  5
39A2
330
2749
100
AcDbEntity
  8
DEFPOINTS
 62
     0
100
AcDbPoint
 10
270.3003437872196
 20
231.7848041893106
 30
0.0
  0
POINT
  5
39A3
330
2749
100
AcDbEntity
  8
DEFPOINTS
 62
     0
100
AcDbPoint
 10
283.3
 20
258.7663352261516
 30
0.0
  0
POINT
  5
39A4
330
2749
100
AcDbEntity
  8
DEFPOINTS
 62
     0
100
AcDbPoint
 10
283.3
 20
231.7848041893106
 30
0.0
  0
ENDBLK
  5
2754
330
2749
100
AcDbEntity
  8
0
100
AcDbBlockEnd
  0
BLOCK
  5
2762
330
2756
100
AcDbEntity
  8
0
100
AcDbBlockBegin
  2
*D23
 70
     1
 10
0.0
 20
0.0
 30
0.0
  3
*D23
  1

  0
LINE
  5
27ED
330
2756
100
AcDbEntity
  8
SUNPOU
100
AcDbLine
 10
283.3
 20
255.7663352261517
 30
0.0
 11
283.3
 21
229.7848041893106
 31
0.0
  0
LINE
  5
27EE
330
2756
100
AcDbEntity
  8
SUNPOU
100
AcDbLine
 10
286.2999999999999
 20
255.0163352261516
 30
0.0
 11
286.2999999999999
 21
229.7848041893106
 31
0.0
  0
LINE
  5
27EF
330
2756
100
AcDbEntity
  8
SUNPOU
100
AcDbLine
 10
278.3
 20
231.7848041893106
 30
0.0
 11
273.3
 21
231.7848041893106
 31
0.0
  0
LINE
  5
27F0
330
2756
100
AcDbEntity
  8
SUNPOU
100
AcDbLine
 10
291.3
 20
231.7848041893106
 30
0.0
 11
296.3
 21
231.7848041893106
 31
0.0
  0
MTEXT
  5
27F1
330
2756
100
AcDbEntity
  8
SUNPOU
100
AcDbMText
 10
294.0139953144803
 20
236.2135377121535
 30
0.0
 40
5.0
 41
0.0
 71
     5
 72
     1
  1
\A1;3
  7
SUNPOU
1001
ACAD
1000
MTEXTBEGIN
1070
    73
1070
     1
1070
    44
1040
1.0
1070
    74
1070
     0
1000
MTEXTEND
1000
MTEXTBEGIN
1070
    73
1070
     1
1070
    44
1040
1.0
1070
    74
1070
     0
1000
MTEXTEND
  0
LINE
  5
27F2
330
2756
100
AcDbEntity
  8
SUNPOU
100
AcDbLine
 10
283.3
 20
231.7848041893106
 30
0.0
 11
286.2999999999999
 21
231.7848041893106
 31
0.0
  0
INSERT
  5
27F3
330
2756
100
AcDbEntity
  8
SUNPOU
100
AcDbBlockReference
  2
_OPEN30
 10
283.3
 20
231.7848041893106
 30
0.0
 41
5.0
 42
5.0
 43
5.0
  0
INSERT
  5
27F4
330
2756
100
AcDbEntity
  8
SUNPOU
100
AcDbBlockReference
  2
_OPEN30
 10
286.2999999999999
 20
231.7848041893106
 30
0.0
 41
5.0
 42
5.0
 43
5.0
 50
180.0
  0
POINT
  5
27F5
330
2756
100
AcDbEntity
  8
DEFPOINTS
 62
     0
100
AcDbPoint
 10
283.3
 20
258.7663352261516
 30
0.0
  0
POINT
  5
27F6
330
2756
100
AcDbEntity
  8
DEFPOINTS
 62
     0
100
AcDbPoint
 10
286.2999999999999
 20
258.0163352261517
 30
0.0
  0
POINT
  5
27F7
330
2756
100
AcDbEntity
  8
DEFPOINTS
 62
     0
100
AcDbPoint
 10
286.2999999999999
 20
231.7848041893106
 30
0.0
  0
ENDBLK
  5
2763
330
2756
100
AcDbEntity
  8
0
100
AcDbBlockEnd
  0
BLOCK
  5
2C4F
330
2C45
100
AcDbEntity
  8
0
100
AcDbBlockBegin
  2
*D24
 70
     1
 10
0.0
 20
0.0
 30
0.0
  3
*D24
  1

  0
LINE
  5
2DF5
330
2C45
100
AcDbEntity
  8
SUNPOU
100
AcDbLine
 10
129.2999999999999
 20
258.0163352261517
 30
0.0
 11
103.1518994186832
 21
258.0163352261517
 31
0.0
  0
LINE
  5
2DF6
330
2C45
100
AcDbEntity
  8
SUNPOU
100
AcDbLine
 10
179.29848917952
 20
294.0163352261516
 30
0.0
 11
103.1518994186832
 21
294.0163352261516
 31
0.0
  0
LINE
  5
2DF7
330
2C45
100
AcDbEntity
  8
SUNPOU
100
AcDbLine
 10
105.1518994186831
 20
263.0163352261518
 30
0.0
 11
105.1518994186831
 21
289.0163352261516
 31
0.0
  0
INSERT
  5
2DF8
330
2C45
100
AcDbEntity
  8
SUNPOU
100
AcDbBlockReference
  2
_OPEN30
 10
105.1518994186831
 20
258.0163352261517
 30
0.0
 41
5.0
 42
5.0
 43
5.0
 50
270.0
  0
INSERT
  5
2DF9
330
2C45
100
AcDbEntity
  8
SUNPOU
100
AcDbBlockReference
  2
_OPEN30
 10
105.1518994186831
 20
294.0163352261516
 30
0.0
 41
5.0
 42
5.0
 43
5.0
 50
90.0
  0
MTEXT
  5
2DFA
330
2C45
100
AcDbEntity
  8
SUNPOU
100
AcDbMText
 10
100.651899418683
 20
276.0163352261518
 30
0.0
 40
5.0
 41
0.0
 71
     5
 72
     1
  1
\A1;36
  7
SUNPOU
 11
0.0000000000000001
 21
1.0
 31
0.0
1001
ACAD
1000
MTEXTBEGIN
1070
    73
1070
     1
1070
    44
1040
1.0
1070
    74
1070
     0
1000
MTEXTEND
1000
MTEXTBEGIN
1070
    73
1070
     1
1070
    44
1040
1.0
1070
    74
1070
     0
1000
MTEXTEND
  0
POINT
  5
2DFB
330
2C45
100
AcDbEntity
  8
DEFPOINTS
 62
     0
100
AcDbPoint
 10
132.2999999999999
 20
258.0163352261517
 30
0.0
  0
POINT
  5
2DFC
330
2C45
100
AcDbEntity
  8
DEFPOINTS
 62
     0
100
AcDbPoint
 10
182.2984891795201
 20
294.0163352261516
 30
0.0
  0
POINT
  5
2DFD
330
2C45
100
AcDbEntity
  8
DEFPOINTS
 62
     0
100
AcDbPoint
 10
105.1518994186831
 20
294.0163352261516
 30
0.0
  0
ENDBLK
  5
2C50
330
2C45
100
AcDbEntity
  8
0
100
AcDbBlockEnd
  0
BLOCK
  5
2C5C
330
2C52
100
AcDbEntity
  8
0
100
AcDbBlockBegin
  2
*D25
 70
     1
 10
0.0
 20
0.0
 30
0.0
  3
*D25
  1

  0
LINE
  5
2D95
330
2C52
100
AcDbEntity
  8
SUNPOU
100
AcDbLine
 10
179.29848917952
 20
294.0163352261516
 30
0.0
 11
103.1518994186832
 21
294.0163352261516
 31
0.0
  0
LINE
  5
2D96
330
2C52
100
AcDbEntity
  8
SUNPOU
100
AcDbLine
 10
168.914143625319
 20
313.0015524351957
 30
0.0
 11
103.1518994186832
 21
313.0015524351958
 31
0.0
  0
LINE
  5
2D97
330
2C52
100
AcDbEntity
  8
SUNPOU
100
AcDbLine
 10
105.151899418683
 20
299.0163352261518
 30
0.0
 11
105.151899418683
 21
308.0015524351958
 31
0.0
  0
INSERT
  5
2D98
330
2C52
100
AcDbEntity
  8
SUNPOU
100
AcDbBlockReference
  2
_OPEN30
 10
105.151899418683
 20
294.0163352261516
 30
0.0
 41
5.0
 42
5.0
 43
5.0
 50
270.0
  0
INSERT
  5
2D99
330
2C52
100
AcDbEntity
  8
SUNPOU
100
AcDbBlockReference
  2
_OPEN30
 10
105.151899418683
 20
313.0015524351958
 30
0.0
 41
5.0
 42
5.0
 43
5.0
 50
90.0
  0
MTEXT
  5
2D9A
330
2C52
100
AcDbEntity
  8
SUNPOU
100
AcDbMText
 10
100.651899418683
 20
303.5089438306738
 30
0.0
 40
5.0
 41
0.0
 71
     5
 72
     1
  1
\A1;19
  7
SUNPOU
 11
0.0000000000000001
 21
1.0
 31
0.0
1001
ACAD
1000
MTEXTBEGIN
1070
    73
1070
     1
1070
    44
1040
1.0
1070
    74
1070
     0
1000
MTEXTEND
1000
MTEXTBEGIN
1070
    73
1070
     1
1070
    44
1040
1.0
1070
    74
1070
     0
1000
MTEXTEND
  0
POINT
  5
2D9B
330
2C52
100
AcDbEntity
  8
DEFPOINTS
 62
     0
100
AcDbPoint
 10
182.2984891795201
 20
294.0163352261516
 30
0.0
  0
POINT
  5
2D9C
330
2C52
100
AcDbEntity
  8
DEFPOINTS
 62
     0
100
AcDbPoint
 10
171.9141436253189
 20
313.0015524351957
 30
0.0
  0
POINT
  5
2D9D
330
2C52
100
AcDbEntity
  8
DEFPOINTS
 62
     0
100
AcDbPoint
 10
105.151899418683
 20
313.0015524351958
 30
0.0
  0
ENDBLK
  5
2C5D
330
2C52
100
AcDbEntity
  8
0
100
AcDbBlockEnd
  0
BLOCK
  5
2C69
330
2C5F
100
AcDbEntity
  8
0
100
AcDbBlockBegin
  2
*D26
 70
     1
 10
0.0
 20
0.0
 30
0.0
  3
*D26
  1

  0
LINE
  5
2D8C
330
2C5F
100
AcDbEntity
  8
SUNPOU
100
AcDbLine
 10
168.914143625319
 20
313.0015524351957
 30
0.0
 11
103.1518994186832
 21
313.0015524351958
 31
0.0
  0
LINE
  5
2D8D
330
2C5F
100
AcDbEntity
  8
SUNPOU
100
AcDbLine
 10
168.914143625319
 20
347.9745998874913
 30
0.0
 11
103.1518994186832
 21
347.9745998874913
 31
0.0
  0
LINE
  5
2D8E
330
2C5F
100
AcDbEntity
  8
SUNPOU
100
AcDbLine
 10
105.151899418683
 20
318.0015524351958
 30
0.0
 11
105.151899418683
 21
342.9745998874913
 31
0.0
  0
INSERT
  5
2D8F
330
2C5F
100
AcDbEntity
  8
SUNPOU
100
AcDbBlockReference
  2
_OPEN30
 10
105.151899418683
 20
313.0015524351958
 30
0.0
 41
5.0
 42
5.0
 43
5.0
 50
270.0
  0
INSERT
  5
2D90
330
2C5F
100
AcDbEntity
  8
SUNPOU
100
AcDbBlockReference
  2
_OPEN30
 10
105.151899418683
 20
347.9745998874913
 30
0.0
 41
5.0
 42
5.0
 43
5.0
 50
90.0
  0
MTEXT
  5
2D91
330
2C5F
100
AcDbEntity
  8
SUNPOU
100
AcDbMText
 10
100.651899418683
 20
330.4880761613436
 30
0.0
 40
5.0
 41
0.0
 71
     5
 72
     1
  1
\A1;35
  7
SUNPOU
 11
0.0000000000000001
 21
1.0
 31
0.0
1001
ACAD
1000
MTEXTBEGIN
1070
    73
1070
     1
1070
    44
1040
1.0
1070
    74
1070
     0
1000
MTEXTEND
1000
MTEXTBEGIN
1070
    73
1070
     1
1070
    44
1040
1.0
1070
    74
1070
     0
1000
MTEXTEND
  0
POINT
  5
2D92
330
2C5F
100
AcDbEntity
  8
DEFPOINTS
 62
     0
100
AcDbPoint
 10
171.9141436253189
 20
313.0015524351957
 30
0.0
  0
POINT
  5
2D93
330
2C5F
100
AcDbEntity
  8
DEFPOINTS
 62
     0
100
AcDbPoint
 10
171.9141436253189
 20
347.9745998874913
 30
0.0
  0
POINT
  5
2D94
330
2C5F
100
AcDbEntity
  8
DEFPOINTS
 62
     0
100
AcDbPoint
 10
105.151899418683
 20
347.9745998874913
 30
0.0
  0
ENDBLK
  5
2C6A
330
2C5F
100
AcDbEntity
  8
0
100
AcDbBlockEnd
  0
BLOCK
  5
2CA4
330
2C9A
100
AcDbEntity
  8
0
100
AcDbBlockBegin
  2
*D27
 70
     1
 10
0.0
 20
0.0
 30
0.0
  3
*D27
  1

  0
LINE
  5
2DDA
330
2C9A
100
AcDbEntity
  8
SUNPOU
100
AcDbLine
 10
173.5531228226449
 20
435.9557153011755
 30
0.0
 11
103.1518994186832
 21
435.9557153011755
 31
0.0
  0
LINE
  5
2DDB
330
2C9A
100
AcDbEntity
  8
SUNPOU
100
AcDbLine
 10
173.5530847545824
 20
485.9557130307734
 30
0.0
 11
103.1518994186832
 21
485.9557130307734
 31
0.0
  0
LINE
  5
2DDC
330
2C9A
100
AcDbEntity
  8
SUNPOU
100
AcDbLine
 10
105.1518994186831
 20
440.9557153011755
 30
0.0
 11
105.1518994186831
 21
480.9557130307734
 31
0.0
  0
INSERT
  5
2DDD
330
2C9A
100
AcDbEntity
  8
SUNPOU
100
AcDbBlockReference
  2
_OPEN30
 10
105.1518994186831
 20
435.9557153011755
 30
0.0
 41
5.0
 42
5.0
 43
5.0
 50
270.0
  0
INSERT
  5
2DDE
330
2C9A
100
AcDbEntity
  8
SUNPOU
100
AcDbBlockReference
  2
_OPEN30
 10
105.1518994186831
 20
485.9557130307734
 30
0.0
 41
5.0
 42
5.0
 43
5.0
 50
90.0
  0
MTEXT
  5
2DDF
330
2C9A
100
AcDbEntity
  8
SUNPOU
100
AcDbMText
 10
100.651899418683
 20
460.9557141659744
 30
0.0
 40
5.0
 41
0.0
 71
     5
 72
     1
  1
\A1;50
  7
SUNPOU
 11
0.0000000000000001
 21
1.0
 31
0.0
1001
ACAD
1000
MTEXTBEGIN
1070
    73
1070
     1
1070
    44
1040
1.0
1070
    74
1070
     0
1000
MTEXTEND
1000
MTEXTBEGIN
1070
    73
1070
     1
1070
    44
1040
1.0
1070
    74
1070
     0
1000
MTEXTEND
  0
POINT
  5
2DE0
330
2C9A
100
AcDbEntity
  8
DEFPOINTS
 62
     0
100
AcDbPoint
 10
176.5531228226449
 20
435.9557153011755
 30
0.0
  0
POINT
  5
2DE1
330
2C9A
100
AcDbEntity
  8
DEFPOINTS
 62
     0
100
AcDbPoint
 10
176.5530847545824
 20
485.9557130307734
 30
0.0
  0
POINT
  5
2DE2
330
2C9A
100
AcDbEntity
  8
DEFPOINTS
 62
     0
100
AcDbPoint
 10
105.1518994186831
 20
485.9557130307734
 30
0.0
  0
ENDBLK
  5
2CA5
330
2C9A
100
AcDbEntity
  8
0
100
AcDbBlockEnd
  0
BLOCK
  5
2CB1
330
2CA7
100
AcDbEntity
  8
0
100
AcDbBlockBegin
  2
*D28
 70
     1
 10
0.0
 20
0.0
 30
0.0
  3
*D28
  1

  0
LINE
  5
2DCF
330
2CA7
100
AcDbEntity
  8
SUNPOU
100
AcDbLine
 10
173.5530847545824
 20
485.9557130307734
 30
0.0
 11
103.1518994186832
 21
485.9557130307734
 31
0.0
  0
LINE
  5
2DD0
330
2CA7
100
AcDbEntity
  8
SUNPOU
100
AcDbLine
 10
179.2486178724276
 20
497.9556721067162
 30
0.0
 11
103.1518994186832
 21
497.9556721067162
 31
0.0
  0
LINE
  5
2DD1
330
2CA7
100
AcDbEntity
  8
SUNPOU
100
AcDbLine
 10
105.1518994186831
 20
480.9557130307734
 30
0.0
 11
105.1518994186831
 21
475.9557130307733
 31
0.0
  0
LINE
  5
2DD2
330
2CA7
100
AcDbEntity
  8
SUNPOU
100
AcDbLine
 10
105.1518994186831
 20
502.9556721067164
 30
0.0
 11
105.1518994186831
 21
507.9556721067164
 31
0.0
  0
LINE
  5
2DD3
330
2CA7
100
AcDbEntity
  8
SUNPOU
100
AcDbLine
 10
105.1518994186831
 20
485.9557130307734
 30
0.0
 11
105.1518994186831
 21
497.9556721067162
 31
0.0
  0
INSERT
  5
2DD4
330
2CA7
100
AcDbEntity
  8
SUNPOU
100
AcDbBlockReference
  2
_OPEN30
 10
105.1518994186831
 20
485.9557130307734
 30
0.0
 41
5.0
 42
5.0
 43
5.0
 50
90.0
  0
INSERT
  5
2DD5
330
2CA7
100
AcDbEntity
  8
SUNPOU
100
AcDbBlockReference
  2
_OPEN30
 10
105.1518994186831
 20
497.9556721067162
 30
0.0
 41
5.0
 42
5.0
 43
5.0
 50
270.0
  0
MTEXT
  5
2DD6
330
2CA7
100
AcDbEntity
  8
SUNPOU
100
AcDbMText
 10
100.651899418683
 20
491.9556925687449
 30
0.0
 40
5.0
 41
0.0
 71
     5
 72
     1
  1
\A1;12
  7
SUNPOU
 11
0.0000000000000001
 21
1.0
 31
0.0
1001
ACAD
1000
MTEXTBEGIN
1070
    73
1070
     1
1070
    44
1040
1.0
1070
    74
1070
     0
1000
MTEXTEND
1000
MTEXTBEGIN
1070
    73
1070
     1
1070
    44
1040
1.0
1070
    74
1070
     0
1000
MTEXTEND
  0
POINT
  5
2DD7
330
2CA7
100
AcDbEntity
  8
DEFPOINTS
 62
     0
100
AcDbPoint
 10
176.5530847545824
 20
485.9557130307734
 30
0.0
  0
POINT
  5
2DD8
330
2CA7
100
AcDbEntity
  8
DEFPOINTS
 62
     0
100
AcDbPoint
 10
182.2486178724276
 20
497.9556721067162
 30
0.0
  0
POINT
  5
2DD9
330
2CA7
100
AcDbEntity
  8
DEFPOINTS
 62
     0
100
AcDbPoint
 10
105.1518994186831
 20
497.9556721067162
 30
0.0
  0
ENDBLK
  5
2CB2
330
2CA7
100
AcDbEntity
  8
0
100
AcDbBlockEnd
  0
BLOCK
  5
2D41
330
2D37
100
AcDbEntity
  8
0
100
AcDbBlockBegin
  2
*D29
 70
     1
 10
0.0
 20
0.0
 30
0.0
  3
*D29
  1

  0
LINE
  5
2DE3
330
2D37
100
AcDbEntity
  8
SUNPOU
100
AcDbLine
 10
173.5531228226449
 20
407.9557153011755
 30
0.0
 11
103.1518994186832
 21
407.9557153011755
 31
0.0
  0
LINE
  5
2DE4
330
2D37
100
AcDbEntity
  8
SUNPOU
100
AcDbLine
 10
173.5531228226449
 20
435.9557153011755
 30
0.0
 11
103.1518994186832
 21
435.9557153011755
 31
0.0
  0
LINE
  5
2DE5
330
2D37
100
AcDbEntity
  8
SUNPOU
100
AcDbLine
 10
105.1518994186831
 20
412.9557153011756
 30
0.0
 11
105.1518994186831
 21
430.9557153011756
 31
0.0
  0
INSERT
  5
2DE6
330
2D37
100
AcDbEntity
  8
SUNPOU
100
AcDbBlockReference
  2
_OPEN30
 10
105.1518994186831
 20
407.9557153011755
 30
0.0
 41
5.0
 42
5.0
 43
5.0
 50
270.0
  0
INSERT
  5
2DE7
330
2D37
100
AcDbEntity
  8
SUNPOU
100
AcDbBlockReference
  2
_OPEN30
 10
105.1518994186831
 20
435.9557153011755
 30
0.0
 41
5.0
 42
5.0
 43
5.0
 50
90.0
  0
MTEXT
  5
2DE8
330
2D37
100
AcDbEntity
  8
SUNPOU
100
AcDbMText
 10
100.651899418683
 20
421.9557153011756
 30
0.0
 40
5.0
 41
0.0
 71
     5
 72
     1
  1
\A1;28
  7
SUNPOU
 11
0.0000000000000001
 21
1.0
 31
0.0
1001
ACAD
1000
MTEXTBEGIN
1070
    73
1070
     1
1070
    44
1040
1.0
1070
    74
1070
     0
1000
MTEXTEND
1000
MTEXTBEGIN
1070
    73
1070
     1
1070
    44
1040
1.0
1070
    74
1070
     0
1000
MTEXTEND
  0
POINT
  5
2DE9
330
2D37
100
AcDbEntity
  8
DEFPOINTS
 62
     0
100
AcDbPoint
 10
176.5531228226449
 20
407.9557153011755
 30
0.0
  0
POINT
  5
2DEA
330
2D37
100
AcDbEntity
  8
DEFPOINTS
 62
     0
100
AcDbPoint
 10
176.5531228226449
 20
435.9557153011755
 30
0.0
  0
POINT
  5
2DEB
330
2D37
100
AcDbEntity
  8
DEFPOINTS
 62
     0
100
AcDbPoint
 10
105.1518994186831
 20
435.9557153011755
 30
0.0
  0
ENDBLK
  5
2D42
330
2D37
100
AcDbEntity
  8
0
100
AcDbBlockEnd
  0
BLOCK
  5
2D4E
330
2D44
100
AcDbEntity
  8
0
100
AcDbBlockBegin
  2
*D30
 70
     1
 10
0.0
 20
0.0
 30
0.0
  3
*D30
  1

  0
LINE
  5
2DEC
330
2D44
100
AcDbEntity
  8
SUNPOU
100
AcDbLine
 10
168.914143625319
 20
347.9745998874913
 30
0.0
 11
103.1518994186832
 21
347.9745998874913
 31
0.0
  0
LINE
  5
2DED
330
2D44
100
AcDbEntity
  8
SUNPOU
100
AcDbLine
 10
173.5531228226449
 20
407.9557153011755
 30
0.0
 11
103.1518994186832
 21
407.9557153011755
 31
0.0
  0
LINE
  5
2DEE
330
2D44
100
AcDbEntity
  8
SUNPOU
100
AcDbLine
 10
105.1518994186831
 20
352.9745998874913
 30
0.0
 11
105.1518994186831
 21
402.9557153011755
 31
0.0
  0
INSERT
  5
2DEF
330
2D44
100
AcDbEntity
  8
SUNPOU
100
AcDbBlockReference
  2
_OPEN30
 10
105.151899418683
 20
347.9745998874913
 30
0.0
 41
5.0
 42
5.0
 43
5.0
 50
270.0
  0
INSERT
  5
2DF0
330
2D44
100
AcDbEntity
  8
SUNPOU
100
AcDbBlockReference
  2
_OPEN30
 10
105.1518994186831
 20
407.9557153011755
 30
0.0
 41
5.0
 42
5.0
 43
5.0
 50
90.0
  0
MTEXT
  5
2DF1
330
2D44
100
AcDbEntity
  8
SUNPOU
100
AcDbMText
 10
100.651899418683
 20
377.9651575943335
 30
0.0
 40
5.0
 41
0.0
 71
     5
 72
     1
  1
\A1;60
  7
SUNPOU
 11
0.0000000000000001
 21
1.0
 31
0.0
1001
ACAD
1000
MTEXTBEGIN
1070
    73
1070
     1
1070
    44
1040
1.0
1070
    74
1070
     0
1000
MTEXTEND
1000
MTEXTBEGIN
1070
    73
1070
     1
1070
    44
1040
1.0
1070
    74
1070
     0
1000
MTEXTEND
  0
POINT
  5
2DF2
330
2D44
100
AcDbEntity
  8
DEFPOINTS
 62
     0
100
AcDbPoint
 10
171.9141436253189
 20
347.9745998874913
 30
0.0
  0
POINT
  5
2DF3
330
2D44
100
AcDbEntity
  8
DEFPOINTS
 62
     0
100
AcDbPoint
 10
176.5531228226449
 20
407.9557153011755
 30
0.0
  0
POINT
  5
2DF4
330
2D44
100
AcDbEntity
  8
DEFPOINTS
 62
     0
100
AcDbPoint
 10
105.1518994186831
 20
407.9557153011755
 30
0.0
  0
ENDBLK
  5
2D4F
330
2D44
100
AcDbEntity
  8
0
100
AcDbBlockEnd
  0
BLOCK
  5
2FC5
330
2FBB
100
AcDbEntity
  8
0
100
AcDbBlockBegin
  2
*D31
 70
     1
 10
0.0
 20
0.0
 30
0.0
  3
*D31
  1

  0
LINE
  5
30BC
330
2FBB
100
AcDbEntity
  8
SUNPOU
100
AcDbLine
 10
180.3000526781698
 20
337.7873236991961
 30
0.0
 11
180.3000526781698
 21
336.7873236991961
 31
0.0
  0
LINE
  5
30BD
330
2FBB
100
AcDbEntity
  8
SUNPOU
100
AcDbLine
 10
212.3
 20
318.4601258010459
 30
0.0
 11
212.3
 21
336.7873236991961
 31
0.0
  0
LINE
  5
30BE
330
2FBB
100
AcDbEntity
  8
SUNPOU
100
AcDbLine
 10
185.3000526781698
 20
334.7873236991961
 30
0.0
 11
207.2999999999999
 21
334.7873236991961
 31
0.0
  0
INSERT
  5
30BF
330
2FBB
100
AcDbEntity
  8
SUNPOU
100
AcDbBlockReference
  2
_OPEN30
 10
180.3000526781698
 20
334.7873236991961
 30
0.0
 41
5.0
 42
5.0
 43
5.0
 50
180.0
  0
INSERT
  5
30C0
330
2FBB
100
AcDbEntity
  8
SUNPOU
100
AcDbBlockReference
  2
_OPEN30
 10
212.3
 20
334.7873236991961
 30
0.0
 41
5.0
 42
5.0
 43
5.0
  0
MTEXT
  5
30C1
330
2FBB
100
AcDbEntity
  8
SUNPOU
100
AcDbMText
 10
196.3000263390848
 20
339.2873236991961
 30
0.0
 40
5.0
 41
0.0
 71
     5
 72
     1
  1
\A1;32
  7
SUNPOU
1001
ACAD
1000
MTEXTBEGIN
1070
    73
1070
     1
1070
    44
1040
1.0
1070
    74
1070
     0
1000
MTEXTEND
1000
MTEXTBEGIN
1070
    73
1070
     1
1070
    44
1040
1.0
1070
    74
1070
     0
1000
MTEXTEND
  0
POINT
  5
30C2
330
2FBB
100
AcDbEntity
  8
DEFPOINTS
 62
     0
100
AcDbPoint
 10
180.3000526781698
 20
334.7873236991961
 30
0.0
  0
POINT
  5
30C3
330
2FBB
100
AcDbEntity
  8
DEFPOINTS
 62
     0
100
AcDbPoint
 10
212.3
 20
315.4601258010458
 30
0.0
  0
POINT
  5
30C4
330
2FBB
100
AcDbEntity
  8
DEFPOINTS
 62
     0
100
AcDbPoint
 10
212.3
 20
334.7873236991961
 30
0.0
  0
ENDBLK
  5
2FC6
330
2FBB
100
AcDbEntity
  8
0
100
AcDbBlockEnd
  0
BLOCK
  5
2FDB
330
2FD1
100
AcDbEntity
  8
0
100
AcDbBlockBegin
  2
*D32
 70
     1
 10
0.0
 20
0.0
 30
0.0
  3
*D32
  1

  0
LINE
  5
30B3
330
2FD1
100
AcDbEntity
  8
SUNPOU
100
AcDbLine
 10
212.3
 20
318.4601258010459
 30
0.0
 11
212.3
 21
336.7873236991961
 31
0.0
  0
LINE
  5
30B4
330
2FD1
100
AcDbEntity
  8
SUNPOU
100
AcDbLine
 10
249.3003437872197
 20
318.4601258010459
 30
0.0
 11
249.3003437872197
 21
336.7873236991961
 31
0.0
  0
LINE
  5
30B5
330
2FD1
100
AcDbEntity
  8
SUNPOU
100
AcDbLine
 10
217.3
 20
334.7873236991961
 30
0.0
 11
244.3003437872198
 21
334.7873236991961
 31
0.0
  0
INSERT
  5
30B6
330
2FD1
100
AcDbEntity
  8
SUNPOU
100
AcDbBlockReference
  2
_OPEN30
 10
212.3
 20
334.7873236991961
 30
0.0
 41
5.0
 42
5.0
 43
5.0
 50
180.0
  0
INSERT
  5
30B7
330
2FD1
100
AcDbEntity
  8
SUNPOU
100
AcDbBlockReference
  2
_OPEN30
 10
249.3003437872197
 20
334.7873236991961
 30
0.0
 41
5.0
 42
5.0
 43
5.0
  0
MTEXT
  5
30B8
330
2FD1
100
AcDbEntity
  8
SUNPOU
100
AcDbMText
 10
230.8001718936099
 20
339.2873236991961
 30
0.0
 40
5.0
 41
0.0
 71
     5
 72
     1
  1
\A1;37
  7
SUNPOU
1001
ACAD
1000
MTEXTBEGIN
1070
    73
1070
     1
1070
    44
1040
1.0
1070
    74
1070
     0
1000
MTEXTEND
1000
MTEXTBEGIN
1070
    73
1070
     1
1070
    44
1040
1.0
1070
    74
1070
     0
1000
MTEXTEND
  0
POINT
  5
30B9
330
2FD1
100
AcDbEntity
  8
DEFPOINTS
 62
     0
100
AcDbPoint
 10
212.3
 20
315.4601258010458
 30
0.0
  0
POINT
  5
30BA
330
2FD1
100
AcDbEntity
  8
DEFPOINTS
 62
     0
100
AcDbPoint
 10
249.3003437872197
 20
315.4601258010458
 30
0.0
  0
POINT
  5
30BB
330
2FD1
100
AcDbEntity
  8
DEFPOINTS
 62
     0
100
AcDbPoint
 10
249.3003437872197
 20
334.7873236991961
 30
0.0
  0
ENDBLK
  5
2FDC
330
2FD1
100
AcDbEntity
  8
0
100
AcDbBlockEnd
  0
BLOCK
  5
2FE8
330
2FDE
100
AcDbEntity
  8
0
100
AcDbBlockBegin
  2
*D33
 70
     1
 10
0.0
 20
0.0
 30
0.0
  3
*D33
  1

  0
LINE
  5
2FF3
330
2FDE
100
AcDbEntity
  8
SUNPOU
100
AcDbLine
 10
249.3003437872197
 20
318.4601258010459
 30
0.0
 11
249.3003437872197
 21
336.7873236991961
 31
0.0
  0
LINE
  5
2FF4
330
2FDE
100
AcDbEntity
  8
SUNPOU
100
AcDbLine
 10
283.2999999999998
 20
337.7873236991961
 30
0.0
 11
283.2999999999998
 21
336.7873236991961
 31
0.0
  0
LINE
  5
2FF5
330
2FDE
100
AcDbEntity
  8
SUNPOU
100
AcDbLine
 10
254.3003437872197
 20
334.7873236991961
 30
0.0
 11
278.2999999999999
 21
334.7873236991961
 31
0.0
  0
INSERT
  5
2FF6
330
2FDE
100
AcDbEntity
  8
SUNPOU
100
AcDbBlockReference
  2
_OPEN30
 10
249.3003437872197
 20
334.7873236991961
 30
0.0
 41
5.0
 42
5.0
 43
5.0
 50
180.0
  0
INSERT
  5
2FF7
330
2FDE
100
AcDbEntity
  8
SUNPOU
100
AcDbBlockReference
  2
_OPEN30
 10
283.2999999999998
 20
334.7873236991961
 30
0.0
 41
5.0
 42
5.0
 43
5.0
  0
MTEXT
  5
2FF8
330
2FDE
100
AcDbEntity
  8
SUNPOU
100
AcDbMText
 10
266.3001718936097
 20
339.2873236991961
 30
0.0
 40
5.0
 41
0.0
 71
     5
 72
     1
  1
\A1;34
  7
SUNPOU
1001
ACAD
1000
MTEXTBEGIN
1070
    73
1070
     1
1070
    44
1040
1.0
1070
    74
1070
     0
1000
MTEXTEND
1000
MTEXTBEGIN
1070
    73
1070
     1
1070
    44
1040
1.0
1070
    74
1070
     0
1000
MTEXTEND
  0
POINT
  5
2FF9
330
2FDE
100
AcDbEntity
  8
DEFPOINTS
 62
     0
100
AcDbPoint
 10
249.3003437872197
 20
315.4601258010458
 30
0.0
  0
POINT
  5
2FFA
330
2FDE
100
AcDbEntity
  8
DEFPOINTS
 62
     0
100
AcDbPoint
 10
283.2999999999998
 20
334.7873236991961
 30
0.0
  0
POINT
  5
2FFB
330
2FDE
100
AcDbEntity
  8
DEFPOINTS
 62
     0
100
AcDbPoint
 10
283.2999999999998
 20
334.7873236991961
 30
0.0
  0
ENDBLK
  5
2FE9
330
2FDE
100
AcDbEntity
  8
0
100
AcDbBlockEnd
  0
BLOCK
  5
391E
330
3909
100
AcDbEntity
  8
0
100
AcDbBlockBegin
  2
*X34
 70
     1
 10
0.0
 20
0.0
 30
0.0
  3
*X34
  1

  0
LINE
  5
390A
330
3909
100
AcDbEntity
  8
0
 62
     0
100
AcDbLine
 10
165.79866761872
 20
274.5163352261517
 30
0.0
 11
166.2999999999998
 21
275.0176676074315
 31
0.0
  0
LINE
  5
390B
330
3909
100
AcDbEntity
  8
0
 62
     0
100
AcDbLine
 10
164.29866761872
 20
273.0163352261516
 30
0.0
 11
165.7986676187199
 21
274.5163352261517
 31
0.0
  0
LINE
  5
390C
330
3909
100
AcDbEntity
  8
0
 62
     0
100
AcDbLine
 10
163.1470171892706
 20
274.5163352261517
 30
0.0
 11
164.7470171892705
 21
276.1163352261517
 31
0.0
  0
LINE
  5
390D
330
3909
100
AcDbEntity
  8
0
 62
     0
100
AcDbLine
 10
164.7470171892705
 20
276.1163352261517
 30
0.0
 11
166.2999999999998
 21
277.6693180368811
 31
0.0
  0
LINE
  5
390E
330
3909
100
AcDbEntity
  8
0
 62
     0
100
AcDbLine
 10
161.6470171892704
 20
273.0163352261516
 30
0.0
 11
163.1470171892704
 21
274.5163352261517
 31
0.0
  0
LINE
  5
390F
330
3909
100
AcDbEntity
  8
0
 62
     0
100
AcDbLine
 10
160.4953667598209
 20
274.5163352261517
 30
0.0
 11
162.0953667598208
 21
276.1163352261517
 31
0.0
  0
LINE
  5
3910
330
3909
100
AcDbEntity
  8
0
 62
     0
100
AcDbLine
 10
160.3
 20
274.3209684663308
 30
0.0
 11
160.4953667598209
 21
274.5163352261517
 31
0.0
  0
LINE
  5
3911
330
3909
100
AcDbEntity
  8
0
 62
     0
100
AcDbLine
 10
162.0953667598208
 20
276.1163352261517
 30
0.0
 11
166.2999999999998
 21
280.3209684663306
 31
0.0
  0
LINE
  5
3912
330
3909
100
AcDbEntity
  8
0
 62
     0
100
AcDbLine
 10
158.9953667598209
 20
273.0163352261516
 30
0.0
 11
160.3
 21
274.3209684663308
 31
0.0
  0
LINE
  5
3913
330
3909
100
AcDbEntity
  8
0
 62
     0
100
AcDbLine
 10
159.4437163303713
 20
276.1163352261517
 30
0.0
 11
160.2999999999999
 21
276.9726188957801
 31
0.0
  0
LINE
  5
3914
330
3909
100
AcDbEntity
  8
0
 62
     0
100
AcDbLine
 10
157.8437163303713
 20
274.5163352261517
 30
0.0
 11
159.4437163303713
 21
276.1163352261517
 31
0.0
  0
LINE
  5
3915
330
3909
100
AcDbEntity
  8
0
 62
     0
100
AcDbLine
 10
160.3
 20
276.9726188957802
 30
0.0
 11
165.4437163303713
 21
282.1163352261517
 31
0.0
  0
LINE
  5
3916
330
3909
100
AcDbEntity
  8
0
 62
     0
100
AcDbLine
 10
156.3437163303714
 20
273.0163352261515
 30
0.0
 11
157.8437163303713
 21
274.5163352261517
 31
0.0
  0
LINE
  5
3917
330
3909
100
AcDbEntity
  8
0
 62
     0
100
AcDbLine
 10
156.7920659009218
 20
276.1163352261517
 30
0.0
 11
160.2999999999999
 21
279.6242693252298
 31
0.0
  0
LINE
  5
3918
330
3909
100
AcDbEntity
  8
0
 62
     0
100
AcDbLine
 10
155.1920659009219
 20
274.5163352261517
 30
0.0
 11
156.7920659009218
 21
276.1163352261517
 31
0.0
  0
LINE
  5
3919
330
3909
100
AcDbEntity
  8
0
 62
     0
100
AcDbLine
 10
160.3
 20
279.6242693252299
 30
0.0
 11
162.7920659009218
 21
282.1163352261517
 31
0.0
  0
LINE
  5
391A
330
3909
100
AcDbEntity
  8
0
 62
     0
100
AcDbLine
 10
154.2999999999999
 20
273.6242693252298
 30
0.0
 11
155.1920659009219
 21
274.5163352261517
 31
0.0
  0
LINE
  5
391B
330
3909
100
AcDbEntity
  8
0
 62
     0
100
AcDbLine
 10
154.3
 20
276.2759197546794
 30
0.0
 11
160.1404154714723
 21
282.1163352261517
 31
0.0
  0
LINE
  5
391C
330
3909
100
AcDbEntity
  8
0
 62
     0
100
AcDbLine
 10
154.3
 20
278.9275701841289
 30
0.0
 11
157.4887650420226
 21
282.1163352261517
 31
0.0
  0
LINE
  5
391D
330
3909
100
AcDbEntity
  8
0
 62
     0
100
AcDbLine
 10
154.3
 20
281.5792206135785
 30
0.0
 11
154.8371146125731
 21
282.1163352261517
 31
0.0
  0
ENDBLK
  5
391F
330
3909
100
AcDbEntity
  8
0
100
AcDbBlockEnd
  0
ENDSEC
  0
SECTION
  2
ENTITIES
  0
LINE
  5
251
330
A
100
AcDbEntity
  8
03
100
AcDbLine
 10
130.8
 20
507.5163352261518
 30
0.0
 11
130.8
 21
275.5163352261516
 31
0.0
  0
LINE
  5
252
330
A
100
AcDbEntity
  8
03
100
AcDbLine
 10
258.7999999999996
 20
526.5163352261517
 30
0.0
 11
258.7999999999996
 21
507.9163352261516
 31
0.0
  0
ARC
  5
253
330
A
100
AcDbEntity
  8
03
100
AcDbCircle
 10
170.05
 20
527.2663352261518
 30
0.0
 40
0.7500000000000001
100
AcDbArc
 50
89.99999999999998
 51
179.9999999999999
  0
LINE
  5
254
330
A
100
AcDbEntity
  8
03
100
AcDbLine
 10
131.8
 20
508.5163352261518
 30
0.0
 11
257.1999999999998
 21
508.5163352261516
 31
0.0
  0
ARC
  5
255
330
A
100
AcDbEntity
  8
03
100
AcDbCircle
 10
131.8
 20
507.5163352261518
 30
0.0
 40
1.0
100
AcDbArc
 50
89.99999999999998
 51
179.9999999999999
  0
LINE
  5
256
330
A
100
AcDbEntity
  8
03
100
AcDbLine
 10
132.3999999999998
 20
506.9163352261518
 30
0.0
 11
132.3999999999998
 21
276.1163352261517
 31
0.0
  0
LINE
  5
257
330
A
100
AcDbEntity
  8
03
100
AcDbLine
 10
132.3999999999998
 20
506.9163352261518
 30
0.0
 11
257.8
 21
506.9163352261516
 31
0.0
  0
ARC
  5
258
330
A
100
AcDbEntity
  8
03
100
AcDbCircle
 10
257.8
 20
507.9163352261516
 30
0.0
 40
1.0
100
AcDbArc
 50
269.9999999999999
 51
0.0
  0
LINE
  5
259
330
A
100
AcDbEntity
  8
03
100
AcDbLine
 10
257.1999999999998
 20
526.5163352261517
 30
0.0
 11
257.1999999999998
 21
508.5163352261516
 31
0.0
  0
ARC
  5
25A
330
A
100
AcDbEntity
  8
03
100
AcDbCircle
 10
170.05
 20
558.7663352261516
 30
0.0
 40
0.7500000000000001
100
AcDbArc
 50
179.9999999999999
 51
269.9999999999999
  0
LINE
  5
25B
330
A
100
AcDbEntity
  8
03
100
AcDbLine
 10
189.8
 20
275.1163352261517
 30
0.0
 11
189.8
 21
270.0163352261515
 31
0.0
  0
LINE
  5
25C
330
A
100
AcDbEntity
  8
03
100
AcDbLine
 10
131.8
 20
274.5163352261517
 30
0.0
 11
150.55
 21
274.5163352261517
 31
0.0
  0
LINE
  5
25D
330
A
100
AcDbEntity
  8
03
100
AcDbLine
 10
170.05
 20
274.5163352261517
 30
0.0
 11
188.2
 21
274.5163352261517
 31
0.0
  0
ARC
  5
25E
330
A
100
AcDbEntity
  8
03
100
AcDbCircle
 10
131.8
 20
275.5163352261516
 30
0.0
 40
1.0
100
AcDbArc
 50
179.9999999999999
 51
270.0
  0
LINE
  5
25F
330
A
100
AcDbEntity
  8
03
100
AcDbLine
 10
132.3999999999998
 20
276.1163352261517
 30
0.0
 11
188.8
 21
276.1163352261517
 31
0.0
  0
ARC
  5
260
330
A
100
AcDbEntity
  8
03
100
AcDbCircle
 10
188.8
 20
275.1163352261517
 30
0.0
 40
1.0
100
AcDbArc
 50
0.0
 51
90.0
  0
LINE
  5
261
330
A
100
AcDbEntity
  8
03
100
AcDbLine
 10
188.2
 20
274.5163352261517
 30
0.0
 11
188.2
 21
259.5163352261516
 31
0.0
  0
LINE
  5
262
330
A
100
AcDbEntity
  8
SAISEN
100
AcDbLine
 10
120.1527764721677
 20
543.0163352261518
 30
0.0
 11
290.7933065787169
 21
543.0163352261518
 31
0.0
  0
LINE
  5
263
330
A
100
AcDbEntity
  8
SAISEN
100
AcDbLine
 10
120.1527764721677
 20
540.0163352261516
 30
0.0
 11
290.7933065787169
 21
540.0163352261516
 31
0.0
  0
LINE
  5
264
330
A
100
AcDbEntity
  8
SAISEN
100
AcDbLine
 10
120.1527764721677
 20
203.7663352261517
 30
0.0
 11
193.4003715126479
 21
203.7663352261517
 31
0.0
  0
LINE
  5
265
330
A
100
AcDbEntity
  8
SAISEN
100
AcDbLine
 10
193.4003715126479
 20
206.7663352261518
 30
0.0
 11
120.1527764721677
 21
206.7663352261519
 31
0.0
  0
LINE
  5
274
330
A
100
AcDbEntity
  8
06
100
AcDbLine
 10
204.3000071226157
 20
164.6289237928136
 30
0.0
 11
220.3000071226155
 21
164.6289237928136
 31
0.0
  0
CIRCLE
  5
280
330
A
100
AcDbEntity
  8
03
100
AcDbCircle
 10
261.8
 20
531.5163352261516
 30
0.0
 40
3.0
  0
LINE
  5
281
330
A
100
AcDbEntity
  8
SAISEN
100
AcDbLine
 10
291.349236311996
 20
172.5991052595166
 30
0.0
 11
193.400371512648
 21
172.5991052595166
 31
0.0
  0
LINE
  5
282
330
A
100
AcDbEntity
  8
SAISEN
100
AcDbLine
 10
193.400371512648
 20
169.5991052595165
 30
0.0
 11
291.349236311996
 21
169.5991052595167
 31
0.0
  0
LINE
  5
2EB
330
A
100
AcDbEntity
  8
06
100
AcDbLine
 10
241.3003437872195
 20
164.6289208683598
 30
0.0
 11
257.3003437872192
 21
164.6289208683598
 31
0.0
  0
LINE
  5
2EF
330
A
100
AcDbEntity
  8
06
100
AcDbLine
 10
204.3000071226157
 20
164.6289237928136
 30
0.0
 11
204.3000071226157
 21
169.5991052595165
 31
0.0
  0
LINE
  5
2F0
330
A
100
AcDbEntity
  8
06
100
AcDbLine
 10
220.3000071226155
 20
164.6289237928136
 30
0.0
 11
220.3000071226155
 21
169.5991052595165
 31
0.0
  0
LINE
  5
2F1
330
A
100
AcDbEntity
  8
06
100
AcDbLine
 10
241.3003437872195
 20
164.6289208683598
 30
0.0
 11
241.3003437872193
 21
169.5991052595165
 31
0.0
  0
LINE
  5
2F2
330
A
100
AcDbEntity
  8
06
100
AcDbLine
 10
257.3003437872192
 20
164.6289208683598
 30
0.0
 11
257.3003437872192
 21
169.5991052595165
 31
0.0
  0
LINE
  5
2F3
330
A
100
AcDbEntity
  8
SAISEN
100
AcDbLine
 10
120.1527764721677
 20
160.2663352261517
 30
0.0
 11
193.4003715126479
 21
160.2663352261516
 31
0.0
  0
LINE
  5
2F4
330
A
100
AcDbEntity
  8
SAISEN
100
AcDbLine
 10
193.4003715126479
 20
157.2663352261516
 30
0.0
 11
120.1527764721677
 21
157.2663352261516
 31
0.0
  0
LINE
  5
2F5
330
A
100
AcDbEntity
  8
KAKURE
100
AcDbLine
 10
193.8000071226158
 20
87.51633522615197
 30
0.0
 11
193.8000071226158
 21
76.01633522615191
 31
0.0
  0
LINE
  5
2F6
330
A
100
AcDbEntity
  8
KAKURE
100
AcDbLine
 10
196.1000071226157
 20
73.7163352261519
 30
0.0
 11
263.4999999999997
 21
73.7163352261519
 31
0.0
  0
LINE
  5
2F7
330
A
100
AcDbEntity
  8
KAKURE
100
AcDbLine
 10
263.4999999999997
 20
76.01633522615191
 30
0.0
 11
196.1000071226157
 21
76.01633522615191
 31
0.0
  0
LINE
  5
2F8
330
A
100
AcDbEntity
  8
KAKURE
100
AcDbLine
 10
196.1000071226157
 20
76.01633522615191
 30
0.0
 11
196.1000071226157
 21
101.0163352261519
 31
0.0
  0
ARC
  5
2F9
330
A
100
AcDbEntity
  8
KAKURE
100
AcDbCircle
 10
196.1000071226157
 20
76.01633522615191
 30
0.0
 40
2.299999999999998
100
AcDbArc
 50
180.0
 51
270.0
  0
LINE
  5
2FA
330
A
100
AcDbEntity
  8
KAKURE
100
AcDbLine
 10
267.8003437872192
 20
87.5163323016981
 30
0.0
 11
267.8003437872192
 21
76.01633230169804
 31
0.0
  0
LINE
  5
2FB
330
A
100
AcDbEntity
  8
KAKURE
100
AcDbLine
 10
265.5003437872195
 20
76.01633230169804
 30
0.0
 11
265.5003437872195
 21
101.0163323016979
 31
0.0
  0
ARC
  5
2FC
330
A
100
AcDbEntity
  8
KAKURE
100
AcDbCircle
 10
265.5003437872195
 20
76.01633230169804
 30
0.0
 40
2.299999999999998
100
AcDbArc
 50
270.0
 51
0.0
  0
LINE
  5
2FD
330
A
100
AcDbEntity
  8
03
100
AcDbLine
 10
170.05
 20
528.0163352261516
 30
0.0
 11
259.55
 21
528.0163352261516
 31
0.0
  0
LINE
  5
2FE
330
A
100
AcDbEntity
  8
03
100
AcDbLine
 10
264.05
 20
528.0163352261516
 30
0.0
 11
282.5499999999996
 21
528.0163352261516
 31
0.0
  0
LINE
  5
2FF
330
A
100
AcDbEntity
  8
03
100
AcDbLine
 10
283.2999999999998
 20
527.2663352261516
 30
0.0
 11
283.3
 21
258.7663352261516
 31
0.0
  0
LINE
  5
300
330
A
100
AcDbEntity
  8
03
100
AcDbLine
 10
282.5499999999996
 20
258.0163352261517
 30
0.0
 11
271.05
 21
258.0163352261517
 31
0.0
  0
ARC
  5
301
330
A
100
AcDbEntity
  8
03
100
AcDbCircle
 10
282.55
 20
258.7663352261516
 30
0.0
 40
0.7500000000000001
100
AcDbArc
 50
269.9999999999999
 51
0.0
  0
LINE
  5
302
330
A
100
AcDbEntity
  8
03
100
AcDbLine
 10
190.55
 20
258.0163352261517
 30
0.0
 11
170.05
 21
258.0163352261517
 31
0.0
  0
LINE
  5
303
330
A
100
AcDbEntity
  8
03
100
AcDbLine
 10
150.55
 20
258.0163352261517
 30
0.0
 11
130.05
 21
258.0163352261517
 31
0.0
  0
LINE
  5
304
330
A
100
AcDbEntity
  8
03
100
AcDbLine
 10
129.3
 20
258.7663352261516
 30
0.0
 11
129.3
 21
509.2663352261516
 31
0.0
  0
ARC
  5
305
330
A
100
AcDbEntity
  8
03
100
AcDbCircle
 10
130.05
 20
258.7663352261516
 30
0.0
 40
0.7500000000000001
100
AcDbArc
 50
179.9999999999999
 51
269.9999999999999
  0
LINE
  5
306
330
A
100
AcDbEntity
  8
03
100
AcDbLine
 10
126.2999999999999
 20
578.0163352261516
 30
0.0
 11
126.2999999999999
 21
543.0163352261518
 31
0.0
  0
LINE
  5
307
330
A
100
AcDbEntity
  8
03
100
AcDbLine
 10
126.2999999999999
 20
540.0163352261516
 30
0.0
 11
126.2999999999999
 21
206.7663352261519
 31
0.0
  0
LINE
  5
308
330
A
100
AcDbEntity
  8
03
100
AcDbLine
 10
286.2999999999999
 20
578.0163352261516
 30
0.0
 11
286.2999999999999
 21
543.0163352261518
 31
0.0
  0
LINE
  5
309
330
A
100
AcDbEntity
  8
03
100
AcDbLine
 10
286.2999999999999
 20
540.0163352261516
 30
0.0
 11
286.2999999999999
 21
172.5991052595166
 31
0.0
  0
LINE
  5
30A
330
A
100
AcDbEntity
  8
03
100
AcDbLine
 10
130.8
 20
275.5163352261516
 30
0.0
 11
130.8
 21
259.5163352261516
 31
0.0
  0
LINE
  5
30B
330
A
100
AcDbEntity
  8
03
100
AcDbLine
 10
170.8
 20
526.5163352261517
 30
0.0
 11
258.7999999999996
 21
526.5163352261517
 31
0.0
  0
LINE
  5
30C
330
A
100
AcDbEntity
  8
03
100
AcDbLine
 10
264.8
 20
526.5163352261517
 30
0.0
 11
281.7999999999999
 21
526.5163352261517
 31
0.0
  0
LINE
  5
30D
330
A
100
AcDbEntity
  8
03
100
AcDbLine
 10
281.7999999999999
 20
526.5163352261517
 30
0.0
 11
281.7999999999999
 21
259.5163352261516
 31
0.0
  0
LINE
  5
30E
330
A
100
AcDbEntity
  8
03
100
AcDbLine
 10
281.7999999999999
 20
259.5163352261516
 30
0.0
 11
271.7999999999999
 21
259.5163352261516
 31
0.0
  0
LINE
  5
30F
330
A
100
AcDbEntity
  8
03
100
AcDbLine
 10
189.8
 20
259.5163352261516
 30
0.0
 11
170.8
 21
259.5163352261516
 31
0.0
  0
LINE
  5
310
330
A
100
AcDbEntity
  8
03
100
AcDbLine
 10
149.8
 20
259.5163352261516
 30
0.0
 11
130.8
 21
259.5163352261516
 31
0.0
  0
LINE
  5
311
330
A
100
AcDbEntity
  8
03
100
AcDbLine
 10
270.3
 20
268.0163352261516
 30
0.0
 11
271.7999999999999
 21
268.0163352261516
 31
0.0
  0
LINE
  5
312
330
A
100
AcDbEntity
  8
03
100
AcDbLine
 10
191.3
 20
270.0163352261518
 30
0.0
 11
189.8
 21
270.0163352261515
 31
0.0
  0
LINE
  5
313
330
A
100
AcDbEntity
  8
03
100
AcDbLine
 10
263.3
 20
527.2663352261516
 30
0.0
 11
263.3
 21
513.0163352261518
 31
0.0
  0
ARC
  5
314
330
A
100
AcDbEntity
  8
03
100
AcDbCircle
 10
264.05
 20
527.2663352261516
 30
0.0
 40
0.7500000000000001
100
AcDbArc
 50
90.00000000000005
 51
179.9999999999999
  0
LINE
  5
315
330
A
100
AcDbEntity
  8
03
100
AcDbLine
 10
264.8
 20
526.5163352261517
 30
0.0
 11
264.8
 21
513.0163352261518
 31
0.0
  0
LINE
  5
316
330
A
100
AcDbEntity
  8
03
100
AcDbLine
 10
260.3
 20
527.2663352261518
 30
0.0
 11
260.3
 21
512.0163352261518
 31
0.0
  0
ARC
  5
317
330
A
100
AcDbEntity
  8
03
100
AcDbCircle
 10
259.55
 20
527.2663352261518
 30
0.0
 40
0.7500000000000001
100
AcDbArc
 50
0.0
 51
90.0
  0
LINE
  5
318
330
A
100
AcDbEntity
  8
03
100
AcDbLine
 10
263.3
 20
513.0163352261518
 30
0.0
 11
264.8
 21
513.0163352261518
 31
0.0
  0
LINE
  5
319
330
A
100
AcDbEntity
  8
03
100
AcDbLine
 10
260.3
 20
512.0163352261518
 30
0.0
 11
270.8
 21
512.0163352261518
 31
0.0
  0
LINE
  5
31A
330
A
100
AcDbEntity
  8
03
100
AcDbLine
 10
259.55
 20
510.5163352261516
 30
0.0
 11
270.8
 21
510.5163352261516
 31
0.0
  0
ARC
  5
31B
330
A
100
AcDbEntity
  8
03
100
AcDbCircle
 10
259.55
 20
511.2663352261517
 30
0.0
 40
0.7500000000000001
100
AcDbArc
 50
179.9999999999999
 51
270.0
  0
LINE
  5
31C
330
A
100
AcDbEntity
  8
03
100
AcDbLine
 10
270.8
 20
512.0163352261518
 30
0.0
 11
270.8
 21
510.5163352261516
 31
0.0
  0
LINE
  5
31D
330
A
100
AcDbEntity
  8
03
100
AcDbLine
 10
151.2999999999997
 20
527.2663352261516
 30
0.0
 11
151.3
 21
510.0163352261517
 31
0.0
  0
LINE
  5
31E
330
A
100
AcDbEntity
  8
03
100
AcDbLine
 10
149.8
 20
526.5163352261517
 30
0.0
 11
149.8
 21
510.0163352261517
 31
0.0
  0
LINE
  5
31F
330
A
100
AcDbEntity
  8
03
100
AcDbLine
 10
169.3
 20
527.2663352261518
 30
0.0
 11
169.3
 21
510.0163352261517
 31
0.0
  0
LINE
  5
320
330
A
100
AcDbEntity
  8
03
100
AcDbLine
 10
170.8
 20
526.5163352261517
 30
0.0
 11
170.8
 21
509.2663352261516
 31
0.0
  0
LINE
  5
321
330
A
100
AcDbEntity
  8
03
100
AcDbLine
 10
130.05
 20
510.0163352261517
 30
0.0
 11
169.3
 21
510.0163352261517
 31
0.0
  0
ARC
  5
322
330
A
100
AcDbEntity
  8
03
100
AcDbCircle
 10
130.05
 20
509.2663352261516
 30
0.0
 40
0.7500000000000001
100
AcDbArc
 50
89.99999999999998
 51
179.9999999999999
  0
ARC
  5
323
330
A
100
AcDbEntity
  8
03
100
AcDbCircle
 10
170.05
 20
509.2663352261516
 30
0.0
 40
0.7500000000000001
100
AcDbArc
 50
269.9999999999999
 51
0.0
  0
LINE
  5
324
330
A
100
AcDbEntity
  8
03
100
AcDbLine
 10
134.3
 20
527.2663352261518
 30
0.0
 11
134.3
 21
510.0163352261517
 31
0.0
  0
LINE
  5
325
330
A
100
AcDbEntity
  8
03
100
AcDbLine
 10
135.8
 20
526.5163352261517
 30
0.0
 11
135.8
 21
510.0163352261517
 31
0.0
  0
LINE
  5
326
330
A
100
AcDbEntity
  8
03
100
AcDbLine
 10
135.8
 20
526.5163352261517
 30
0.0
 11
149.8
 21
526.5163352261517
 31
0.0
  0
LINE
  5
327
330
A
100
AcDbEntity
  8
03
100
AcDbLine
 10
135.05
 20
528.0163352261516
 30
0.0
 11
150.55
 21
528.0163352261516
 31
0.0
  0
ARC
  5
328
330
A
100
AcDbEntity
  8
03
100
AcDbCircle
 10
150.55
 20
527.2663352261516
 30
0.0
 40
0.7500000000000001
100
AcDbArc
 50
0.0
 51
89.99999999999984
  0
ARC
  5
329
330
A
100
AcDbEntity
  8
03
100
AcDbCircle
 10
135.05
 20
527.2663352261518
 30
0.0
 40
0.7500000000000001
100
AcDbArc
 50
89.99999999999991
 51
179.9999999999999
  0
LINE
  5
32A
330
A
100
AcDbEntity
  8
03
100
AcDbLine
 10
69.14111525901564
 20
99.51633522615187
 30
0.0
 11
192.2999999999999
 21
99.51633522615185
 31
0.0
  0
LINE
  5
32B
330
A
100
AcDbEntity
  8
06
100
AcDbLine
 10
225.300007122616
 20
267.032411875941
 30
0.0
 11
225.300007122616
 21
183.532411875941
 31
0.0
  0
LINE
  5
32C
330
A
100
AcDbEntity
  8
06
100
AcDbLine
 10
199.3000071226159
 20
183.532411875941
 30
0.0
 11
199.3000071226159
 21
267.032411875941
 31
0.0
  0
LINE
  5
32D
330
A
100
AcDbEntity
  8
06
100
AcDbLine
 10
204.3000071226159
 20
182.032411875941
 30
0.0
 11
198.5500071226159
 21
182.0324118759408
 31
0.0
  0
LINE
  5
32E
330
A
100
AcDbEntity
  8
06
100
AcDbLine
 10
220.3000071226159
 20
182.032411875941
 30
0.0
 11
226.050007122616
 21
182.032411875941
 31
0.0
  0
LINE
  5
32F
330
A
100
AcDbEntity
  8
06
100
AcDbLine
 10
204.3000071226159
 20
183.532411875941
 30
0.0
 11
199.3000071226159
 21
183.532411875941
 31
0.0
  0
LINE
  5
330
330
A
100
AcDbEntity
  8
06
100
AcDbLine
 10
220.3000071226159
 20
183.532411875941
 30
0.0
 11
225.300007122616
 21
183.532411875941
 31
0.0
  0
LINE
  5
331
330
A
100
AcDbEntity
  8
06
100
AcDbLine
 10
226.8000071226159
 20
267.032411875941
 30
0.0
 11
226.8000071226159
 21
182.782411875941
 31
0.0
  0
ARC
  5
332
330
A
100
AcDbEntity
  8
06
100
AcDbCircle
 10
226.050007122616
 20
182.782411875941
 30
0.0
 40
0.7500000000000001
100
AcDbArc
 50
270.0000000000002
 51
0.0
  0
LINE
  5
333
330
A
100
AcDbEntity
  8
06
100
AcDbLine
 10
197.800007122616
 20
182.7824118759408
 30
0.0
 11
197.800007122616
 21
267.032411875941
 31
0.0
  0
ARC
  5
334
330
A
100
AcDbEntity
  8
06
100
AcDbCircle
 10
198.5500071226159
 20
182.7824118759408
 30
0.0
 40
0.7500000000000001
100
AcDbArc
 50
179.9999999999999
 51
270.0000000000008
  0
LINE
  5
335
330
A
100
AcDbEntity
  8
06
100
AcDbLine
 10
225.300007122616
 20
267.032411875941
 30
0.0
 11
228.3000071226159
 21
267.032411875941
 31
0.0
  0
LINE
  5
336
330
A
100
AcDbEntity
  8
06
100
AcDbLine
 10
199.3000071226159
 20
267.032411875941
 30
0.0
 11
196.3000071226159
 21
267.032411875941
 31
0.0
  0
LINE
  5
337
330
A
100
AcDbEntity
  8
06
100
AcDbLine
 10
228.3000071226158
 20
172.5991052595166
 30
0.0
 11
228.3000071226159
 21
267.032411875941
 31
0.0
  0
LINE
  5
338
330
A
100
AcDbEntity
  8
06
100
AcDbLine
 10
196.3000071226158
 20
172.5991052595166
 30
0.0
 11
196.3000071226158
 21
267.032411875941
 31
0.0
  0
LINE
  5
339
330
A
100
AcDbEntity
  8
03
100
AcDbLine
 10
129.3
 20
578.0163352261516
 30
0.0
 11
129.3
 21
558.7663352261516
 31
0.0
  0
LINE
  5
33A
330
A
100
AcDbEntity
  8
03
100
AcDbLine
 10
283.3
 20
578.0163352261516
 30
0.0
 11
283.3
 21
558.7663352261516
 31
0.0
  0
LINE
  5
33B
330
A
100
AcDbEntity
  8
03
100
AcDbLine
 10
130.05
 20
558.0163352261518
 30
0.0
 11
150.55
 21
558.0163352261518
 31
0.0
  0
ARC
  5
33C
330
A
100
AcDbEntity
  8
03
100
AcDbCircle
 10
130.05
 20
558.7663352261516
 30
0.0
 40
0.7500000000000001
100
AcDbArc
 50
179.9999999999999
 51
269.9999999999999
  0
LINE
  5
33D
330
A
100
AcDbEntity
  8
03
100
AcDbLine
 10
170.05
 20
558.0163352261518
 30
0.0
 11
282.55
 21
558.0163352261518
 31
0.0
  0
ARC
  5
33E
330
A
100
AcDbEntity
  8
03
100
AcDbCircle
 10
282.55
 20
558.7663352261516
 30
0.0
 40
0.7500000000000001
100
AcDbArc
 50
269.9999999999999
 51
0.0
  0
LINE
  5
33F
330
A
100
AcDbEntity
  8
03
100
AcDbLine
 10
130.8
 20
559.5163352261518
 30
0.0
 11
149.8
 21
559.5163352261518
 31
0.0
  0
LINE
  5
340
330
A
100
AcDbEntity
  8
03
100
AcDbLine
 10
170.8
 20
559.5163352261518
 30
0.0
 11
281.7999999999999
 21
559.5163352261518
 31
0.0
  0
LINE
  5
341
330
A
100
AcDbEntity
  8
03
100
AcDbLine
 10
281.7999999999999
 20
578.0163352261516
 30
0.0
 11
281.7999999999999
 21
559.5163352261518
 31
0.0
  0
LINE
  5
342
330
A
100
AcDbEntity
  8
03
100
AcDbLine
 10
130.8
 20
578.0163352261516
 30
0.0
 11
130.8
 21
559.5163352261518
 31
0.0
  0
LINE
  5
343
330
A
100
AcDbEntity
  8
03
100
AcDbLine
 10
151.2999999999997
 20
573.0163352261516
 30
0.0
 11
151.2999999999997
 21
558.7663352261516
 31
0.0
  0
ARC
  5
344
330
A
100
AcDbEntity
  8
03
100
AcDbCircle
 10
150.55
 20
558.7663352261516
 30
0.0
 40
0.7500000000000001
100
AcDbArc
 50
269.9999999999999
 51
0.0
  0
LINE
  5
345
330
A
100
AcDbEntity
  8
03
100
AcDbLine
 10
169.3
 20
573.0163352261516
 30
0.0
 11
169.3
 21
558.7663352261516
 31
0.0
  0
LINE
  5
346
330
A
100
AcDbEntity
  8
03
100
AcDbLine
 10
149.7999999999997
 20
573.7663352261517
 30
0.0
 11
149.8
 21
559.5163352261518
 31
0.0
  0
LINE
  5
347
330
A
100
AcDbEntity
  8
03
100
AcDbLine
 10
170.8
 20
573.7663352261517
 30
0.0
 11
170.8
 21
559.5163352261518
 31
0.0
  0
LINE
  5
348
330
A
100
AcDbEntity
  8
03
100
AcDbLine
 10
270.3
 20
268.0163352261516
 30
0.0
 11
270.3
 21
258.7663352261516
 31
0.0
  0
ARC
  5
349
330
A
100
AcDbEntity
  8
03
100
AcDbCircle
 10
271.05
 20
258.7663352261516
 30
0.0
 40
0.7500000000000001
100
AcDbArc
 50
179.9999999999999
 51
269.9999999999999
  0
LINE
  5
34A
330
A
100
AcDbEntity
  8
03
100
AcDbLine
 10
271.7999999999999
 20
268.0163352261516
 30
0.0
 11
271.7999999999999
 21
259.5163352261516
 31
0.0
  0
LINE
  5
34B
330
A
100
AcDbEntity
  8
03
100
AcDbLine
 10
191.3
 20
270.0163352261518
 30
0.0
 11
191.3
 21
258.7663352261516
 31
0.0
  0
ARC
  5
34C
330
A
100
AcDbEntity
  8
03
100
AcDbCircle
 10
190.55
 20
258.7663352261516
 30
0.0
 40
0.7500000000000001
100
AcDbArc
 50
269.9999999999999
 51
0.0
  0
LINE
  5
34D
330
A
100
AcDbEntity
  8
03
100
AcDbLine
 10
189.8
 20
270.0163352261515
 30
0.0
 11
189.8
 21
259.5163352261516
 31
0.0
  0
LINE
  5
34E
330
A
100
AcDbEntity
  8
03
100
AcDbLine
 10
132.3
 20
258.0163352261517
 30
0.0
 11
132.3
 21
206.7663352261519
 31
0.0
  0
LINE
  5
34F
330
A
100
AcDbEntity
  8
03
100
AcDbLine
 10
151.3
 20
273.0163352261516
 30
0.0
 11
151.3
 21
258.7663352261516
 31
0.0
  0
ARC
  5
350
330
A
100
AcDbEntity
  8
03
100
AcDbCircle
 10
150.55
 20
258.7663352261516
 30
0.0
 40
0.7500000000000001
100
AcDbArc
 50
269.9999999999999
 51
0.0
  0
LINE
  5
351
330
A
100
AcDbEntity
  8
03
100
AcDbLine
 10
149.8
 20
273.7663352261515
 30
0.0
 11
149.8
 21
259.5163352261516
 31
0.0
  0
LINE
  5
352
330
A
100
AcDbEntity
  8
03
100
AcDbLine
 10
169.3
 20
273.0163352261516
 30
0.0
 11
169.3
 21
258.7663352261516
 31
0.0
  0
ARC
  5
353
330
A
100
AcDbEntity
  8
03
100
AcDbCircle
 10
170.05
 20
258.7663352261516
 30
0.0
 40
0.7500000000000001
100
AcDbArc
 50
179.9999999999999
 51
269.9999999999999
  0
LINE
  5
354
330
A
100
AcDbEntity
  8
03
100
AcDbLine
 10
170.8
 20
273.7663352261518
 30
0.0
 11
170.8
 21
259.5163352261516
 31
0.0
  0
LINE
  5
355
330
A
100
AcDbEntity
  8
03
100
AcDbLine
 10
151.3
 20
273.0163352261516
 30
0.0
 11
169.3
 21
273.0163352261516
 31
0.0
  0
LINE
  5
356
330
A
100
AcDbEntity
  8
03
100
AcDbLine
 10
150.55
 20
274.5163352261517
 30
0.0
 11
170.05
 21
274.5163352261517
 31
0.0
  0
ARC
  5
357
330
A
100
AcDbEntity
  8
03
100
AcDbCircle
 10
170.05
 20
273.7663352261518
 30
0.0
 40
0.7500000000000001
100
AcDbArc
 50
0.0
 51
90.0
  0
ARC
  5
358
330
A
100
AcDbEntity
  8
03
100
AcDbCircle
 10
150.55
 20
273.7663352261515
 30
0.0
 40
0.7500000000000001
100
AcDbArc
 50
90.0
 51
179.9999999999999
  0
LINE
  5
359
330
A
100
AcDbEntity
  8
03
100
AcDbLine
 10
151.2999999999997
 20
573.0163352261516
 30
0.0
 11
169.3
 21
573.0163352261516
 31
0.0
  0
LINE
  5
35A
330
A
100
AcDbEntity
  8
03
100
AcDbLine
 10
150.5499999999996
 20
574.5163352261516
 30
0.0
 11
170.05
 21
574.5163352261516
 31
0.0
  0
ARC
  5
35B
330
A
100
AcDbEntity
  8
03
100
AcDbCircle
 10
170.05
 20
573.7663352261517
 30
0.0
 40
0.7500000000000001
100
AcDbArc
 50
0.0
 51
89.99999999999992
  0
ARC
  5
35C
330
A
100
AcDbEntity
  8
03
100
AcDbCircle
 10
150.5499999999996
 20
573.7663352261517
 30
0.0
 40
0.7500000000000001
100
AcDbArc
 50
89.99999999999991
 51
179.9999999999999
  0
LINE
  5
35D
330
A
100
AcDbEntity
  8
06
100
AcDbLine
 10
225.3000071226155
 20
109.5163352261518
 30
0.0
 11
228.3000071226157
 21
109.5163352261518
 31
0.0
  0
LINE
  5
35E
330
A
100
AcDbEntity
  8
06
100
AcDbLine
 10
196.3000071226158
 20
109.5163352261518
 30
0.0
 11
199.3000071226157
 21
109.5163352261518
 31
0.0
  0
LINE
  5
35F
330
A
100
AcDbEntity
  8
03
100
AcDbLine
 10
193.8000071226158
 20
87.51633522615197
 30
0.0
 11
192.3000071226158
 21
87.51633522615197
 31
0.0
  0
LINE
  5
360
330
A
100
AcDbEntity
  8
03
100
AcDbLine
 10
192.3000071226158
 20
87.51633522615197
 30
0.0
 11
192.3000071226158
 21
101.0163352261519
 31
0.0
  0
LINE
  5
361
330
A
100
AcDbEntity
  8
03
100
AcDbLine
 10
193.8000071226158
 20
102.5163352261519
 30
0.0
 11
202.3000071226158
 21
102.5163352261519
 31
0.0
  0
LINE
  5
362
330
A
100
AcDbEntity
  8
03
100
AcDbLine
 10
203.8000071226159
 20
101.0163352261519
 30
0.0
 11
203.8000071226159
 21
77.51633522615197
 31
0.0
  0
LINE
  5
363
330
A
100
AcDbEntity
  8
03
100
AcDbLine
 10
203.8000071226159
 20
77.51633522615197
 30
0.0
 11
220.8000071226162
 21
77.51633522615197
 31
0.0
  0
LINE
  5
364
330
A
100
AcDbEntity
  8
03
100
AcDbLine
 10
220.8000071226162
 20
77.51633522615197
 30
0.0
 11
220.8000071226162
 21
101.0163352261519
 31
0.0
  0
LINE
  5
365
330
A
100
AcDbEntity
  8
03
100
AcDbLine
 10
222.3000071226159
 20
101.0163352261519
 30
0.0
 11
222.3000071226159
 21
77.51633522615197
 31
0.0
  0
LINE
  5
366
330
A
100
AcDbEntity
  8
03
100
AcDbLine
 10
220.8000071226162
 20
76.01633522615191
 30
0.0
 11
203.8000071226159
 21
76.01633522615191
 31
0.0
  0
LINE
  5
367
330
A
100
AcDbEntity
  8
03
100
AcDbLine
 10
202.3000071226158
 20
77.51633522615197
 30
0.0
 11
202.3000071226158
 21
101.0163352261519
 31
0.0
  0
LINE
  5
368
330
A
100
AcDbEntity
  8
03
100
AcDbLine
 10
202.3000071226158
 20
101.0163352261519
 30
0.0
 11
193.8000071226158
 21
101.0163352261519
 31
0.0
  0
LINE
  5
369
330
A
100
AcDbEntity
  8
03
100
AcDbLine
 10
193.8000071226158
 20
87.51633522615197
 30
0.0
 11
193.8000071226158
 21
101.0163352261519
 31
0.0
  0
LINE
  5
36A
330
A
100
AcDbEntity
  8
03
100
AcDbLine
 10
269.3003437872192
 20
99.51633522615185
 30
0.0
 11
378.73014967414
 21
99.51633522615185
 31
0.0
  0
ARC
  5
36B
330
A
100
AcDbEntity
  8
03
100
AcDbCircle
 10
222.3000071226159
 20
101.0163352261519
 30
0.0
 40
1.5
100
AcDbArc
 50
90.0
 51
180.0
  0
ARC
  5
36C
330
A
100
AcDbEntity
  8
03
100
AcDbCircle
 10
220.8000071226162
 20
77.51633522615197
 30
0.0
 40
1.5
100
AcDbArc
 50
270.0
 51
0.0
  0
ARC
  5
36D
330
A
100
AcDbEntity
  8
03
100
AcDbCircle
 10
203.8000071226159
 20
77.51633522615197
 30
0.0
 40
1.5
100
AcDbArc
 50
180.0
 51
270.0
  0
ARC
  5
36E
330
A
100
AcDbEntity
  8
03
100
AcDbCircle
 10
202.3000071226158
 20
101.0163352261519
 30
0.0
 40
1.5
100
AcDbArc
 50
0.0
 51
90.0
  0
ARC
  5
36F
330
A
100
AcDbEntity
  8
03
100
AcDbCircle
 10
193.8000071226158
 20
101.0163352261519
 30
0.0
 40
1.5
100
AcDbArc
 50
90.0
 51
180.0
  0
LINE
  5
370
330
A
100
AcDbEntity
  8
03
100
AcDbLine
 10
191.3
 20
258.7663352261516
 30
0.0
 11
191.3
 21
206.7663352261519
 31
0.0
  0
ARC
  5
371
330
A
100
AcDbEntity
  8
03
100
AcDbCircle
 10
282.5499999999996
 20
527.2663352261516
 30
0.0
 40
0.7500000000000001
100
AcDbArc
 50
0.0
 51
90.0
  0
LINE
  5
372
330
A
100
AcDbEntity
  8
03
100
AcDbLine
 10
286.2999999999999
 20
169.5991052595167
 30
0.0
 11
286.2999999999999
 21
99.51633522615185
 31
0.0
  0
LINE
  5
374
330
A
100
AcDbEntity
  8
03
100
AcDbLine
 10
191.3
 20
160.2663352261516
 30
0.0
 11
191.3
 21
203.7663352261517
 31
0.0
  0
LINE
  5
375
330
A
100
AcDbEntity
  8
03
100
AcDbLine
 10
132.3
 20
203.7663352261517
 30
0.0
 11
132.2999999999999
 21
160.2663352261517
 31
0.0
  0
LINE
  5
376
330
A
100
AcDbEntity
  8
03
100
AcDbLine
 10
132.2999999999999
 20
157.2663352261516
 30
0.0
 11
132.2999999999999
 21
99.51633522615187
 31
0.0
  0
LINE
  5
377
330
A
100
AcDbEntity
  8
03
100
AcDbLine
 10
126.2999999999999
 20
203.7663352261517
 30
0.0
 11
126.2999999999999
 21
160.2663352261517
 31
0.0
  0
LINE
  5
378
330
A
100
AcDbEntity
  8
03
100
AcDbLine
 10
126.2999999999999
 20
157.2663352261516
 30
0.0
 11
126.2999999999999
 21
99.51633522615187
 31
0.0
  0
LINE
  5
399
330
A
100
AcDbEntity
  8
06
100
AcDbLine
 10
262.3003437872196
 20
267.0324089514871
 30
0.0
 11
265.3003437872198
 21
267.0324089514871
 31
0.0
  0
LINE
  5
39A
330
A
100
AcDbEntity
  8
06
100
AcDbLine
 10
236.3003437872198
 20
267.0324089514871
 30
0.0
 11
233.3003437872196
 21
267.0324089514871
 31
0.0
  0
LINE
  5
39B
330
A
100
AcDbEntity
  8
06
100
AcDbLine
 10
262.3003437872196
 20
267.0324089514871
 30
0.0
 11
262.3003437872196
 21
183.5324089514871
 31
0.0
  0
LINE
  5
39C
330
A
100
AcDbEntity
  8
06
100
AcDbLine
 10
236.3003437872198
 20
183.5324089514871
 30
0.0
 11
236.3003437872198
 21
267.0324089514871
 31
0.0
  0
LINE
  5
39D
330
A
100
AcDbEntity
  8
06
100
AcDbLine
 10
241.3003437872196
 20
182.032408951487
 30
0.0
 11
235.5503437872197
 21
182.0324089514869
 31
0.0
  0
LINE
  5
39E
330
A
100
AcDbEntity
  8
06
100
AcDbLine
 10
257.3003437872196
 20
182.032408951487
 30
0.0
 11
263.0503437872198
 21
182.0324089514871
 31
0.0
  0
LINE
  5
39F
330
A
100
AcDbEntity
  8
06
100
AcDbLine
 10
241.3003437872196
 20
183.5324089514871
 30
0.0
 11
236.3003437872198
 21
183.5324089514871
 31
0.0
  0
LINE
  5
3A0
330
A
100
AcDbEntity
  8
06
100
AcDbLine
 10
257.3003437872196
 20
183.5324089514871
 30
0.0
 11
262.3003437872196
 21
183.5324089514871
 31
0.0
  0
LINE
  5
3A1
330
A
100
AcDbEntity
  8
06
100
AcDbLine
 10
263.8003437872196
 20
267.0324089514871
 30
0.0
 11
263.8003437872196
 21
182.7824089514871
 31
0.0
  0
ARC
  5
3A2
330
A
100
AcDbEntity
  8
06
100
AcDbCircle
 10
263.0503437872198
 20
182.7824089514871
 30
0.0
 40
0.7500000000000001
100
AcDbArc
 50
270.0000000000002
 51
0.0
  0
LINE
  5
3A3
330
A
100
AcDbEntity
  8
06
100
AcDbLine
 10
234.8003437872197
 20
182.7824089514868
 30
0.0
 11
234.8003437872197
 21
267.0324089514871
 31
0.0
  0
ARC
  5
3A4
330
A
100
AcDbEntity
  8
06
100
AcDbCircle
 10
235.5503437872197
 20
182.7824089514868
 30
0.0
 40
0.7500000000000001
100
AcDbArc
 50
179.9999999999999
 51
270.0000000000008
  0
LINE
  5
3A5
330
A
100
AcDbEntity
  8
06
100
AcDbLine
 10
265.3003437872196
 20
172.5991052595166
 30
0.0
 11
265.3003437872198
 21
267.0324089514871
 31
0.0
  0
LINE
  5
3A6
330
A
100
AcDbEntity
  8
06
100
AcDbLine
 10
233.3003437872196
 20
172.5991052595166
 30
0.0
 11
233.3003437872196
 21
267.0324089514871
 31
0.0
  0
LINE
  5
3A7
330
A
100
AcDbEntity
  8
06
100
AcDbLine
 10
262.3003437872192
 20
109.5163323016979
 30
0.0
 11
265.3003437872194
 21
109.5163323016979
 31
0.0
  0
LINE
  5
3A8
330
A
100
AcDbEntity
  8
06
100
AcDbLine
 10
233.3003437872196
 20
109.5163323016979
 30
0.0
 11
236.3003437872194
 21
109.5163323016979
 31
0.0
  0
LINE
  5
3A9
330
A
100
AcDbEntity
  8
03
100
AcDbLine
 10
240.8003437872197
 20
101.0163323016979
 30
0.0
 11
240.8003437872197
 21
77.5163323016981
 31
0.0
  0
LINE
  5
3AA
330
A
100
AcDbEntity
  8
03
100
AcDbLine
 10
240.8003437872197
 20
77.5163323016981
 30
0.0
 11
257.8003437872199
 21
77.5163323016981
 31
0.0
  0
LINE
  5
3AB
330
A
100
AcDbEntity
  8
03
100
AcDbLine
 10
257.8003437872199
 20
77.5163323016981
 30
0.0
 11
257.8003437872199
 21
101.0163323016979
 31
0.0
  0
LINE
  5
3AC
330
A
100
AcDbEntity
  8
03
100
AcDbLine
 10
259.3003437872196
 20
101.0163323016979
 30
0.0
 11
259.3003437872196
 21
77.5163323016981
 31
0.0
  0
LINE
  5
3AD
330
A
100
AcDbEntity
  8
03
100
AcDbLine
 10
257.8003437872199
 20
76.01633230169804
 30
0.0
 11
240.8003437872197
 21
76.01633230169804
 31
0.0
  0
LINE
  5
3AE
330
A
100
AcDbEntity
  8
03
100
AcDbLine
 10
239.3003437872196
 20
77.5163323016981
 30
0.0
 11
239.3003437872196
 21
101.0163323016979
 31
0.0
  0
ARC
  5
3AF
330
A
100
AcDbEntity
  8
03
100
AcDbCircle
 10
259.3003437872196
 20
101.0163323016979
 30
0.0
 40
1.5
100
AcDbArc
 50
90.0
 51
180.0
  0
ARC
  5
3B0
330
A
100
AcDbEntity
  8
03
100
AcDbCircle
 10
257.8003437872199
 20
77.5163323016981
 30
0.0
 40
1.5
100
AcDbArc
 50
270.0
 51
0.0
  0
ARC
  5
3B1
330
A
100
AcDbEntity
  8
03
100
AcDbCircle
 10
240.8003437872197
 20
77.5163323016981
 30
0.0
 40
1.5
100
AcDbArc
 50
180.0
 51
270.0
  0
ARC
  5
3B2
330
A
100
AcDbEntity
  8
03
100
AcDbCircle
 10
239.3003437872196
 20
101.0163323016979
 30
0.0
 40
1.5
100
AcDbArc
 50
0.0
 51
90.0
  0
LINE
  5
3B3
330
A
100
AcDbEntity
  8
06
100
AcDbLine
 10
225.3000071226155
 20
109.5163352261518
 30
0.0
 11
225.3000071226155
 21
169.5991052595165
 31
0.0
  0
LINE
  5
3B4
330
A
100
AcDbEntity
  8
06
100
AcDbLine
 10
199.3000071226157
 20
109.5163352261518
 30
0.0
 11
199.3000071226157
 21
169.5991052595165
 31
0.0
  0
LINE
  5
3B5
330
A
100
AcDbEntity
  8
06
100
AcDbLine
 10
226.8000071226157
 20
109.5163352261518
 30
0.0
 11
226.8000071226157
 21
169.5991052595165
 31
0.0
  0
LINE
  5
3B6
330
A
100
AcDbEntity
  8
06
100
AcDbLine
 10
197.800007122616
 20
109.5163352261518
 30
0.0
 11
197.800007122616
 21
169.5991052595165
 31
0.0
  0
LINE
  5
3B7
330
A
100
AcDbEntity
  8
06
100
AcDbLine
 10
228.3000071226157
 20
109.5163352261518
 30
0.0
 11
228.3000071226157
 21
169.5991052595165
 31
0.0
  0
LINE
  5
3B8
330
A
100
AcDbEntity
  8
06
100
AcDbLine
 10
196.3000071226158
 20
109.5163352261518
 30
0.0
 11
196.3000071226158
 21
169.5991052595165
 31
0.0
  0
LINE
  5
3B9
330
A
100
AcDbEntity
  8
03
100
AcDbLine
 10
191.3
 20
99.51633522615185
 30
0.0
 11
191.3
 21
157.2663352261516
 31
0.0
  0
LINE
  5
3BA
330
A
100
AcDbEntity
  8
06
100
AcDbLine
 10
262.3003437872192
 20
109.5163323016979
 30
0.0
 11
262.3003437872192
 21
169.5991023350628
 31
0.0
  0
LINE
  5
3BB
330
A
100
AcDbEntity
  8
06
100
AcDbLine
 10
236.3003437872194
 20
109.5163323016979
 30
0.0
 11
236.3003437872194
 21
169.5991023350627
 31
0.0
  0
LINE
  5
3BC
330
A
100
AcDbEntity
  8
06
100
AcDbLine
 10
263.8003437872195
 20
109.5163323016979
 30
0.0
 11
263.8003437872195
 21
169.5991023350628
 31
0.0
  0
LINE
  5
3BD
330
A
100
AcDbEntity
  8
06
100
AcDbLine
 10
234.8003437872197
 20
109.5163323016979
 30
0.0
 11
234.8003437872198
 21
169.5991023350627
 31
0.0
  0
LINE
  5
3BE
330
A
100
AcDbEntity
  8
06
100
AcDbLine
 10
265.3003437872194
 20
109.5163323016979
 30
0.0
 11
265.3003437872194
 21
169.5991052595165
 31
0.0
  0
LINE
  5
3BF
330
A
100
AcDbEntity
  8
06
100
AcDbLine
 10
233.3003437872196
 20
109.5163323016979
 30
0.0
 11
233.3003437872196
 21
169.5991052595165
 31
0.0
  0
LINE
  5
3C0
330
A
100
AcDbEntity
  8
03
100
AcDbLine
 10
267.8003437872192
 20
87.5163323016981
 30
0.0
 11
269.3003437872192
 21
87.5163323016981
 31
0.0
  0
LINE
  5
3C1
330
A
100
AcDbEntity
  8
03
100
AcDbLine
 10
269.3003437872192
 20
87.5163323016981
 30
0.0
 11
269.3003437872192
 21
101.0163323016979
 31
0.0
  0
LINE
  5
3C2
330
A
100
AcDbEntity
  8
03
100
AcDbLine
 10
267.8003437872192
 20
87.5163323016981
 30
0.0
 11
267.8003437872192
 21
101.0163323016979
 31
0.0
  0
ARC
  5
3C3
330
A
100
AcDbEntity
  8
03
100
AcDbCircle
 10
267.8003437872192
 20
101.0163323016979
 30
0.0
 40
1.5
100
AcDbArc
 50
0.0
 51
90.0
  0
LINE
  5
3C4
330
A
100
AcDbEntity
  8
03
100
AcDbLine
 10
267.8003437872192
 20
101.0163323016979
 30
0.0
 11
259.3003437872196
 21
101.0163323016979
 31
0.0
  0
LINE
  5
3C5
330
A
100
AcDbEntity
  8
03
100
AcDbLine
 10
239.3003437872196
 20
101.0163323016979
 30
0.0
 11
222.3000071226159
 21
101.0163323016979
 31
0.0
  0
LINE
  5
3C6
330
A
100
AcDbEntity
  8
03
100
AcDbLine
 10
222.3000071226159
 20
102.5163352261519
 30
0.0
 11
239.3003437872196
 21
102.516332301698
 31
0.0
  0
LINE
  5
3C7
330
A
100
AcDbEntity
  8
03
100
AcDbLine
 10
259.3003437872196
 20
102.516332301698
 30
0.0
 11
267.8003437872192
 21
102.516332301698
 31
0.0
  0
LINE
  5
3C8
330
A
100
AcDbEntity
  8
02
100
AcDbLine
 10
180.3
 20
500.9163352261516
 30
0.0
 11
180.3
 21
282.1163352261517
 31
0.0
  0
LINE
  5
3C9
330
A
100
AcDbEntity
  8
02
100
AcDbLine
 10
174.3
 20
282.1163352261517
 30
0.0
 11
174.3
 21
500.9163352261516
 31
0.0
  0
LINE
  5
3CA
330
A
100
AcDbEntity
  8
02
100
AcDbLine
 10
174.3
 20
276.1163352261517
 30
0.0
 11
150.3
 21
276.1163352261517
 31
0.0
  0
LINE
  5
3CB
330
A
100
AcDbEntity
  8
02
100
AcDbLine
 10
150.3
 20
276.1163352261517
 30
0.0
 11
150.3
 21
282.1163352261517
 31
0.0
  0
LINE
  5
3CC
330
A
100
AcDbEntity
  8
02
100
AcDbLine
 10
150.3
 20
282.1163352261517
 30
0.0
 11
174.3
 21
282.1163352261517
 31
0.0
  0
ARC
  5
3CD
330
A
100
AcDbEntity
  8
02
100
AcDbCircle
 10
174.3
 20
282.1163352261517
 30
0.0
 40
6.0
100
AcDbArc
 50
270.0
 51
0.0
  0
LINE
  5
3CE
330
A
100
AcDbEntity
  8
02
100
AcDbLine
 10
174.3
 20
506.9163352261516
 30
0.0
 11
150.3
 21
506.9163352261516
 31
0.0
  0
LINE
  5
3CF
330
A
100
AcDbEntity
  8
02
100
AcDbLine
 10
150.3
 20
506.9163352261516
 30
0.0
 11
150.3
 21
500.9163352261516
 31
0.0
  0
LINE
  5
3D0
330
A
100
AcDbEntity
  8
02
100
AcDbLine
 10
150.3
 20
500.9163352261516
 30
0.0
 11
174.3
 21
500.9163352261516
 31
0.0
  0
ARC
  5
3D1
330
A
100
AcDbEntity
  8
02
100
AcDbCircle
 10
174.3
 20
500.9163352261516
 30
0.0
 40
6.0
100
AcDbArc
 50
0.0
 51
90.0
  0
LINE
  5
3E6
330
A
100
AcDbEntity
  8
06
100
AcDbLine
 10
216.5500071226159
 20
266.532411875941
 30
0.0
 11
225.300007122616
 21
266.532411875941
 31
0.0
  0
LINE
  5
3F0
330
A
100
AcDbEntity
  8
06
100
AcDbLine
 10
220.3000071226159
 20
183.532411875941
 30
0.0
 11
220.3000071226159
 21
210.532411875941
 31
0.0
  0
LINE
  5
3F1
330
A
100
AcDbEntity
  8
06
100
AcDbLine
 10
204.3000071226159
 20
210.532411875941
 30
0.0
 11
204.3000071226162
 21
183.532411875941
 31
0.0
  0
LINE
  5
3FB
330
A
100
AcDbEntity
  8
06
100
AcDbLine
 10
199.3000071226159
 20
266.532411875941
 30
0.0
 11
208.0500071226159
 21
266.532411875941
 31
0.0
  0
LINE
  5
40E
330
A
100
AcDbEntity
  8
06
100
AcDbLine
 10
212.3000071226159
 20
210.532411875941
 30
0.0
 11
212.3000071226159
 21
211.032411875941
 31
0.0
  0
LINE
  5
40F
330
A
100
AcDbEntity
  8
06
100
AcDbLine
 10
204.3000071226162
 20
183.5324118759409
 30
0.0
 11
204.3000071226159
 21
182.032411875941
 31
0.0
  0
LINE
  5
410
330
A
100
AcDbEntity
  8
06
100
AcDbLine
 10
220.3000071226159
 20
183.532411875941
 30
0.0
 11
220.3000071226159
 21
182.032411875941
 31
0.0
  0
LINE
  5
428
330
A
100
AcDbEntity
  8
06
100
AcDbLine
 10
209.300007122616
 20
207.0324118759411
 30
0.0
 11
215.300007122616
 21
207.0324118759411
 31
0.0
  0
LINE
  5
429
330
A
100
AcDbEntity
  8
06
100
AcDbLine
 10
220.3000071226159
 20
210.532411875941
 30
0.0
 11
204.3000071226159
 21
210.532411875941
 31
0.0
  0
LINE
  5
42A
330
A
100
AcDbEntity
  8
06
100
AcDbLine
 10
224.8000071226159
 20
266.532411875941
 30
0.0
 11
224.8000071226159
 21
268.032411875941
 31
0.0
  0
LINE
  5
42B
330
A
100
AcDbEntity
  8
06
100
AcDbLine
 10
224.8000071226159
 20
266.532411875941
 30
0.0
 11
199.800007122616
 21
266.532411875941
 31
0.0
  0
LINE
  5
42C
330
A
100
AcDbEntity
  8
06
100
AcDbLine
 10
199.800007122616
 20
266.532411875941
 30
0.0
 11
199.800007122616
 21
267.5324118759411
 31
0.0
  0
LINE
  5
42D
330
A
100
AcDbEntity
  8
06
100
AcDbLine
 10
191.6000071226158
 20
267.5324118759411
 30
0.0
 11
199.800007122616
 21
267.5324118759411
 31
0.0
  0
LINE
  5
42E
330
A
100
AcDbEntity
  8
06
100
AcDbLine
 10
224.8000071226159
 20
268.032411875941
 30
0.0
 11
194.8000071226159
 21
268.032411875941
 31
0.0
  0
LINE
  5
42F
330
A
100
AcDbEntity
  8
06
100
AcDbLine
 10
194.8000071226159
 20
268.032411875941
 30
0.0
 11
191.6000071226158
 21
267.5324118759411
 31
0.0
  0
ARC
  5
437
330
A
100
AcDbEntity
  8
06
100
AcDbCircle
 10
206.800007122616
 20
174.9613440640755
 30
0.0
 40
7.5
100
AcDbArc
 50
70.52877936550931
 51
109.4712206344905
  0
ARC
  5
438
330
A
100
AcDbEntity
  8
06
100
AcDbCircle
 10
217.800007122616
 20
174.9613440640755
 30
0.0
 40
7.5
100
AcDbArc
 50
70.52877936550931
 51
109.4712206344905
  0
LINE
  5
472
330
A
100
AcDbEntity
  8
06
100
AcDbLine
 10
215.300007122616
 20
172.5991052595166
 30
0.0
 11
215.300007122616
 21
207.032411875941
 31
0.0
  0
LINE
  5
473
330
A
100
AcDbEntity
  8
06
100
AcDbLine
 10
209.300007122616
 20
172.5991052595166
 30
0.0
 11
209.300007122616
 21
207.032411875941
 31
0.0
  0
LINE
  5
474
330
A
100
AcDbEntity
  8
06
100
AcDbLine
 10
209.8000071226159
 20
172.5991052595166
 30
0.0
 11
209.8000071226159
 21
207.032411875941
 31
0.0
  0
LINE
  5
475
330
A
100
AcDbEntity
  8
06
100
AcDbLine
 10
214.800007122616
 20
172.5991052595166
 30
0.0
 11
214.800007122616
 21
207.032411875941
 31
0.0
  0
LINE
  5
476
330
A
100
AcDbEntity
  8
03
100
AcDbLine
 10
157.3
 20
564.0163352261517
 30
0.0
 11
157.3
 21
543.0163352261518
 31
0.0
  0
LINE
  5
477
330
A
100
AcDbEntity
  8
03
100
AcDbLine
 10
157.3
 20
539.5319496257398
 30
0.0
 11
157.3
 21
520.0163352261516
 31
0.0
  0
LINE
  5
478
330
A
100
AcDbEntity
  8
03
100
AcDbLine
 10
163.3
 20
564.0163352261517
 30
0.0
 11
163.3
 21
543.0163352261518
 31
0.0
  0
LINE
  5
479
330
A
100
AcDbEntity
  8
03
100
AcDbLine
 10
163.3
 20
539.5319496257398
 30
0.0
 11
163.3
 21
520.0163352261518
 31
0.0
  0
LINE
  5
47A
330
A
100
AcDbEntity
  8
03
100
AcDbLine
 10
157.3
 20
564.0163352261517
 30
0.0
 11
163.3
 21
564.0163352261517
 31
0.0
  0
LINE
  5
47B
330
A
100
AcDbEntity
  8
03
100
AcDbLine
 10
157.3
 20
520.0163352261516
 30
0.0
 11
163.3
 21
520.0163352261518
 31
0.0
  0
CIRCLE
  5
47C
330
A
100
AcDbEntity
  8
06
100
AcDbCircle
 10
160.3
 20
183.5163352261518
 30
0.0
 40
6.0
  0
LINE
  5
47D
330
A
100
AcDbEntity
  8
06
100
AcDbLine
 10
154.3
 20
282.1163352261517
 30
0.0
 11
154.3
 21
273.0163352261516
 31
0.0
  0
LINE
  5
47E
330
A
100
AcDbEntity
  8
06
100
AcDbLine
 10
166.3
 20
282.1163352261517
 30
0.0
 11
166.3
 21
273.0163352261516
 31
0.0
  0
LINE
  5
47F
330
A
100
AcDbEntity
  8
03
100
AcDbLine
 10
152.8
 20
520.0163352261516
 30
0.0
 11
167.8
 21
520.0163352261516
 31
0.0
  0
LINE
  5
480
330
A
100
AcDbEntity
  8
03
100
AcDbLine
 10
167.8
 20
520.0163352261516
 30
0.0
 11
167.8
 21
510.0163352261517
 31
0.0
  0
LINE
  5
481
330
A
100
AcDbEntity
  8
03
100
AcDbLine
 10
167.8
 20
510.0163352261517
 30
0.0
 11
152.8
 21
510.0163352261517
 31
0.0
  0
LINE
  5
482
330
A
100
AcDbEntity
  8
03
100
AcDbLine
 10
152.8
 20
510.0163352261517
 30
0.0
 11
152.8
 21
520.0163352261516
 31
0.0
  0
LINE
  5
483
330
A
100
AcDbEntity
  8
03
100
AcDbLine
 10
152.8
 20
510.0163352261517
 30
0.0
 11
167.8
 21
520.0163352261516
 31
0.0
  0
ARC
  5
484
330
A
100
AcDbEntity
  8
03
100
AcDbCircle
 10
166.675
 20
539.5319496257398
 30
0.0
 40
12.0
100
AcDbArc
 50
253.6651772193138
 51
286.3348227806858
  0
ARC
  5
485
330
A
100
AcDbEntity
  8
03
100
AcDbCircle
 10
153.925
 20
539.5319496257398
 30
0.0
 40
12.0
100
AcDbArc
 50
253.665177219314
 51
286.334822780686
  0
ARC
  5
486
330
A
100
AcDbEntity
  8
03
100
AcDbCircle
 10
153.925
 20
546.5007208265636
 30
0.0
 40
12.0
100
AcDbArc
 50
73.66517721931393
 51
106.3348227806858
  0
ARC
  5
487
330
A
100
AcDbEntity
  8
03
100
AcDbCircle
 10
166.675
 20
546.5007208265634
 30
0.0
 40
12.0
100
AcDbArc
 50
73.66517721931401
 51
106.334822780686
  0
LINE
  5
491
330
A
100
AcDbEntity
  8
06
100
AcDbLine
 10
225.3000071226155
 20
111.0163352261513
 30
0.0
 11
225.3000071226155
 21
109.0163352261514
 31
0.0
  0
LINE
  5
498
330
A
100
AcDbEntity
  8
06
100
AcDbLine
 10
199.3000071226157
 20
111.0163352261513
 30
0.0
 11
199.3000071226157
 21
109.0163352261514
 31
0.0
  0
LINE
  5
499
330
A
100
AcDbEntity
  8
06
100
AcDbLine
 10
225.3000071226155
 20
109.0163352261514
 30
0.0
 11
224.0500071226155
 21
109.0163352261517
 31
0.0
  0
LINE
  5
49A
330
A
100
AcDbEntity
  8
06
100
AcDbLine
 10
199.3000071226157
 20
109.0163352261514
 30
0.0
 11
200.5500071226157
 21
109.0163352261514
 31
0.0
  0
LINE
  5
49B
330
A
100
AcDbEntity
  8
06
100
AcDbLine
 10
201.0353567833365
 20
101.2507406546165
 30
0.0
 11
200.5500071226157
 21
109.0163352261514
 31
0.0
  0
ARC
  5
49C
330
A
100
AcDbEntity
  8
06
100
AcDbCircle
 10
201.2848699279574
 20
101.266335226155
 30
0.0
 40
0.25
100
AcDbArc
 50
183.5763343749981
 51
273.471312739278
  0
LINE
  5
49D
330
A
100
AcDbEntity
  8
06
100
AcDbLine
 10
202.0500071226157
 20
109.0163352261514
 30
0.0
 11
201.9320453382015
 21
107.1289466755273
 31
0.0
  0
LINE
  5
49E
330
A
100
AcDbEntity
  8
06
100
AcDbLine
 10
201.915050619092
 20
106.8570311697718
 30
0.0
 11
201.8046992663396
 21
105.0914095257353
 31
0.0
  0
LINE
  5
49F
330
A
100
AcDbEntity
  8
06
100
AcDbLine
 10
201.7933694535999
 20
104.9101325218982
 30
0.0
 11
201.6773531944775
 21
103.0538723759419
 31
0.0
  0
LINE
  5
4A0
330
A
100
AcDbEntity
  8
06
100
AcDbLine
 10
201.6716882881076
 20
102.9632338740249
 30
0.0
 11
201.5646574618946
 21
101.2507406546139
 31
0.0
  0
ARC
  5
4A1
330
A
100
AcDbEntity
  8
06
100
AcDbCircle
 10
201.315144317274
 20
101.2663352261528
 30
0.0
 40
0.25
100
AcDbArc
 50
266.5286872607186
 51
356.4236656250029
  0
LINE
  5
4A2
330
A
100
AcDbEntity
  8
06
100
AcDbLine
 10
223.0353567833363
 20
101.2507406546145
 30
0.0
 11
222.9283259571237
 21
102.9632338740247
 31
0.0
  0
ARC
  5
4A3
330
A
100
AcDbEntity
  8
06
100
AcDbCircle
 10
223.2848699279572
 20
101.266335226153
 30
0.0
 40
0.25
100
AcDbArc
 50
183.576334374999
 51
273.4713127393141
  0
LINE
  5
4A4
330
A
100
AcDbEntity
  8
06
100
AcDbLine
 10
222.9226610507538
 20
103.0538723759433
 30
0.0
 11
222.8066447916315
 21
104.9101325218982
 31
0.0
  0
LINE
  5
4A5
330
A
100
AcDbEntity
  8
06
100
AcDbLine
 10
222.7953149788916
 20
105.0914095257353
 30
0.0
 11
222.6849636261396
 21
106.8570311697718
 31
0.0
  0
LINE
  5
4A6
330
A
100
AcDbEntity
  8
06
100
AcDbLine
 10
222.6679689070296
 20
107.128946675527
 30
0.0
 11
222.5500071226157
 21
109.0163352261514
 31
0.0
  0
LINE
  5
4A7
330
A
100
AcDbEntity
  8
06
100
AcDbLine
 10
224.0500071226155
 20
109.0163352261514
 30
0.0
 11
223.5646574618948
 21
101.2507406546152
 31
0.0
  0
ARC
  5
4A8
330
A
100
AcDbEntity
  8
06
100
AcDbCircle
 10
223.3151443172741
 20
101.2663352261539
 30
0.0
 40
0.25
100
AcDbArc
 50
266.5286872606855
 51
356.423665625002
  0
LINE
  5
4A9
330
A
100
AcDbEntity
  8
06
100
AcDbLine
 10
222.5500071226157
 20
109.0163352261514
 30
0.0
 11
202.0500071226157
 21
109.0163352261514
 31
0.0
  0
LINE
  5
4AA
330
A
100
AcDbEntity
  8
06
100
AcDbLine
 10
223.0500071226158
 20
107.0163352261515
 30
0.0
 11
222.6679689070296
 21
107.128946675527
 31
0.0
  0
LINE
  5
4AB
330
A
100
AcDbEntity
  8
06
100
AcDbLine
 10
223.0500071226158
 20
107.0163352261515
 30
0.0
 11
222.6849636261394
 21
106.8570311697704
 31
0.0
  0
LINE
  5
4AC
330
A
100
AcDbEntity
  8
06
100
AcDbLine
 10
223.0500071226158
 20
105.0163352261513
 30
0.0
 11
222.7953149788918
 21
105.0914095257353
 31
0.0
  0
LINE
  5
4AD
330
A
100
AcDbEntity
  8
06
100
AcDbLine
 10
223.0500071226158
 20
105.0163352261513
 30
0.0
 11
222.8066447916318
 21
104.9101325218985
 31
0.0
  0
LINE
  5
4AE
330
A
100
AcDbEntity
  8
06
100
AcDbLine
 10
223.0500071226158
 20
103.0163352261515
 30
0.0
 11
222.9226610507541
 21
103.0538723759433
 31
0.0
  0
LINE
  5
4AF
330
A
100
AcDbEntity
  8
06
100
AcDbLine
 10
223.0500071226158
 20
103.0163352261515
 30
0.0
 11
222.9283259571237
 21
102.9632338740317
 31
0.0
  0
LINE
  5
4B0
330
A
100
AcDbEntity
  8
06
100
AcDbLine
 10
201.5500071226159
 20
107.0163352261515
 30
0.0
 11
201.915050619092
 21
106.8570311697718
 31
0.0
  0
LINE
  5
4B1
330
A
100
AcDbEntity
  8
06
100
AcDbLine
 10
201.5500071226159
 20
107.0163352261515
 30
0.0
 11
201.9320453382019
 21
107.1289466755273
 31
0.0
  0
LINE
  5
4B2
330
A
100
AcDbEntity
  8
06
100
AcDbLine
 10
201.5500071226159
 20
105.0163352261513
 30
0.0
 11
201.7933694535999
 21
104.9101325218982
 31
0.0
  0
LINE
  5
4B3
330
A
100
AcDbEntity
  8
06
100
AcDbLine
 10
201.5500071226159
 20
105.0163352261513
 30
0.0
 11
201.8046992663396
 21
105.0914095257353
 31
0.0
  0
LINE
  5
4B4
330
A
100
AcDbEntity
  8
06
100
AcDbLine
 10
201.5500071226159
 20
103.0163352261515
 30
0.0
 11
201.6716882881076
 21
102.9632338740211
 31
0.0
  0
LINE
  5
4B5
330
A
100
AcDbEntity
  8
06
100
AcDbLine
 10
201.5500071226103
 20
103.0163352261483
 30
0.0
 11
201.6773531944779
 21
103.0538723759433
 31
0.0
  0
LINE
  5
4B6
330
A
100
AcDbEntity
  8
06
100
AcDbLine
 10
219.8000071226157
 20
109.0163352261514
 30
0.0
 11
219.8000071226157
 21
84.51633522615185
 31
0.0
  0
LINE
  5
4B7
330
A
100
AcDbEntity
  8
06
100
AcDbLine
 10
219.8000071226157
 20
84.51633522615185
 30
0.0
 11
204.8000071226157
 21
84.51633522615185
 31
0.0
  0
LINE
  5
4B8
330
A
100
AcDbEntity
  8
06
100
AcDbLine
 10
204.8000071226157
 20
84.51633522615185
 30
0.0
 11
204.8000071226157
 21
109.0163352261514
 31
0.0
  0
LINE
  5
4C4
330
A
100
AcDbEntity
  8
06
100
AcDbLine
 10
253.5503437872197
 20
266.5324089514871
 30
0.0
 11
262.3003437872196
 21
266.5324089514871
 31
0.0
  0
LINE
  5
4C5
330
A
100
AcDbEntity
  8
06
100
AcDbLine
 10
236.3003437872198
 20
266.5324089514871
 30
0.0
 11
245.0503437872197
 21
266.5324089514871
 31
0.0
  0
LINE
  5
4C6
330
A
100
AcDbEntity
  8
06
100
AcDbLine
 10
261.8003437872196
 20
266.5324089514871
 30
0.0
 11
261.8003437872196
 21
268.032408951487
 31
0.0
  0
LINE
  5
4C7
330
A
100
AcDbEntity
  8
06
100
AcDbLine
 10
261.8003437872196
 20
266.5324089514871
 30
0.0
 11
236.8003437872197
 21
266.5324089514871
 31
0.0
  0
LINE
  5
4C8
330
A
100
AcDbEntity
  8
06
100
AcDbLine
 10
236.8003437872197
 20
266.5324089514871
 30
0.0
 11
236.8003437872197
 21
267.5324089514871
 31
0.0
  0
LINE
  5
4C9
330
A
100
AcDbEntity
  8
06
100
AcDbLine
 10
228.6003437872196
 20
267.5324089514871
 30
0.0
 11
236.8003437872197
 21
267.5324089514871
 31
0.0
  0
LINE
  5
4CA
330
A
100
AcDbEntity
  8
06
100
AcDbLine
 10
261.8003437872196
 20
268.032408951487
 30
0.0
 11
231.8003437872198
 21
268.032408951487
 31
0.0
  0
LINE
  5
4CB
330
A
100
AcDbEntity
  8
06
100
AcDbLine
 10
231.8003437872198
 20
268.032408951487
 30
0.0
 11
228.6003437872196
 21
267.5324089514871
 31
0.0
  0
LINE
  5
4ED
330
A
100
AcDbEntity
  8
06
100
AcDbLine
 10
257.3003437872196
 20
183.5324089514871
 30
0.0
 11
257.3003437872196
 21
210.532408951487
 31
0.0
  0
LINE
  5
4EE
330
A
100
AcDbEntity
  8
06
100
AcDbLine
 10
241.3003437872196
 20
210.532408951487
 30
0.0
 11
241.3003437872196
 21
183.5324089514871
 31
0.0
  0
LINE
  5
50A
330
A
100
AcDbEntity
  8
06
100
AcDbLine
 10
249.3003437872197
 20
210.532408951487
 30
0.0
 11
249.3003437872197
 21
211.032408951487
 31
0.0
  0
LINE
  5
50B
330
A
100
AcDbEntity
  8
06
100
AcDbLine
 10
241.30034378722
 20
183.532408951487
 30
0.0
 11
241.3003437872196
 21
182.032408951487
 31
0.0
  0
LINE
  5
50C
330
A
100
AcDbEntity
  8
06
100
AcDbLine
 10
257.3003437872196
 20
183.5324089514871
 30
0.0
 11
257.3003437872196
 21
182.032408951487
 31
0.0
  0
LINE
  5
524
330
A
100
AcDbEntity
  8
06
100
AcDbLine
 10
246.3003437872198
 20
207.0324089514871
 30
0.0
 11
252.3003437872197
 21
207.0324089514871
 31
0.0
  0
LINE
  5
525
330
A
100
AcDbEntity
  8
06
100
AcDbLine
 10
257.3003437872196
 20
210.532408951487
 30
0.0
 11
241.3003437872196
 21
210.532408951487
 31
0.0
  0
ARC
  5
52D
330
A
100
AcDbEntity
  8
06
100
AcDbCircle
 10
243.8003437872196
 20
174.9613411396216
 30
0.0
 40
7.5
100
AcDbArc
 50
70.52877936550931
 51
109.4712206344905
  0
ARC
  5
52E
330
A
100
AcDbEntity
  8
06
100
AcDbCircle
 10
254.8003437872198
 20
174.9613411396216
 30
0.0
 40
7.5
100
AcDbArc
 50
70.52877936550931
 51
109.4712206344905
  0
LINE
  5
550
330
A
100
AcDbEntity
  8
06
100
AcDbLine
 10
252.3003437872197
 20
172.5991023350626
 30
0.0
 11
252.3003437872197
 21
207.0324089514871
 31
0.0
  0
LINE
  5
551
330
A
100
AcDbEntity
  8
06
100
AcDbLine
 10
246.3003437872198
 20
172.5991023350626
 30
0.0
 11
246.3003437872197
 21
207.0324089514871
 31
0.0
  0
LINE
  5
552
330
A
100
AcDbEntity
  8
06
100
AcDbLine
 10
246.8003437872198
 20
172.5991023350626
 30
0.0
 11
246.8003437872197
 21
207.0324089514871
 31
0.0
  0
LINE
  5
553
330
A
100
AcDbEntity
  8
06
100
AcDbLine
 10
251.8003437872196
 20
172.5991023350626
 30
0.0
 11
251.8003437872196
 21
207.0324089514871
 31
0.0
  0
LINE
  5
55D
330
A
100
AcDbEntity
  8
06
100
AcDbLine
 10
262.3003437872192
 20
111.0163323016974
 30
0.0
 11
262.3003437872192
 21
109.0163323016975
 31
0.0
  0
LINE
  5
564
330
A
100
AcDbEntity
  8
06
100
AcDbLine
 10
236.3003437872194
 20
111.0163323016974
 30
0.0
 11
236.3003437872194
 21
109.0163323016975
 31
0.0
  0
LINE
  5
565
330
A
100
AcDbEntity
  8
06
100
AcDbLine
 10
262.3003437872192
 20
109.0163323016975
 30
0.0
 11
261.0503437872192
 21
109.0163323016977
 31
0.0
  0
LINE
  5
566
330
A
100
AcDbEntity
  8
06
100
AcDbLine
 10
236.3003437872194
 20
109.0163323016975
 30
0.0
 11
237.5503437872195
 21
109.0163323016975
 31
0.0
  0
LINE
  5
567
330
A
100
AcDbEntity
  8
06
100
AcDbLine
 10
239.0503437872195
 20
109.0163323016975
 30
0.0
 11
238.9323820028053
 21
107.1289437510734
 31
0.0
  0
LINE
  5
568
330
A
100
AcDbEntity
  8
06
100
AcDbLine
 10
259.6683055716332
 20
107.1289437510732
 30
0.0
 11
259.5503437872195
 21
109.0163323016975
 31
0.0
  0
LINE
  5
569
330
A
100
AcDbEntity
  8
06
100
AcDbLine
 10
259.5503437872195
 20
109.0163323016975
 30
0.0
 11
239.0503437872195
 21
109.0163323016975
 31
0.0
  0
LINE
  5
56A
330
A
100
AcDbEntity
  8
06
100
AcDbLine
 10
260.0503437872196
 20
107.0163323016977
 30
0.0
 11
259.6683055716332
 21
107.1289437510732
 31
0.0
  0
LINE
  5
56B
330
A
100
AcDbEntity
  8
06
100
AcDbLine
 10
260.0503437872196
 20
107.0163323016977
 30
0.0
 11
259.6853002907431
 21
106.8570282453165
 31
0.0
  0
LINE
  5
56C
330
A
100
AcDbEntity
  8
06
100
AcDbLine
 10
238.5503437872197
 20
107.0163323016977
 30
0.0
 11
238.9153872836959
 21
106.857028245318
 31
0.0
  0
LINE
  5
56D
330
A
100
AcDbEntity
  8
06
100
AcDbLine
 10
238.5503437872197
 20
107.0163323016977
 30
0.0
 11
238.9323820028055
 21
107.1289437510734
 31
0.0
  0
LINE
  5
572
330
A
100
AcDbEntity
  8
06
100
AcDbLine
 10
238.9153872836959
 20
106.857028245318
 30
0.0
 11
238.8050359309434
 21
105.0914066012814
 31
0.0
  0
LINE
  5
573
330
A
100
AcDbEntity
  8
06
100
AcDbLine
 10
259.7956516434954
 20
105.0914066012814
 30
0.0
 11
259.6853002907432
 21
106.857028245318
 31
0.0
  0
LINE
  5
574
330
A
100
AcDbEntity
  8
06
100
AcDbLine
 10
260.0503437872196
 20
105.0163323016975
 30
0.0
 11
259.7956516434956
 21
105.0914066012814
 31
0.0
  0
LINE
  5
575
330
A
100
AcDbEntity
  8
06
100
AcDbLine
 10
260.0503437872196
 20
105.0163323016975
 30
0.0
 11
259.8069814562355
 21
104.9101295974447
 31
0.0
  0
LINE
  5
576
330
A
100
AcDbEntity
  8
06
100
AcDbLine
 10
238.5503437872197
 20
105.0163323016975
 30
0.0
 11
238.7937061182035
 21
104.9101295974443
 31
0.0
  0
LINE
  5
577
330
A
100
AcDbEntity
  8
06
100
AcDbLine
 10
238.5503437872197
 20
105.0163323016975
 30
0.0
 11
238.8050359309434
 21
105.0914066012814
 31
0.0
  0
LINE
  5
578
330
A
100
AcDbEntity
  8
06
100
AcDbLine
 10
238.0356934479404
 20
101.2507377301625
 30
0.0
 11
237.5503437872195
 21
109.0163323016975
 31
0.0
  0
ARC
  5
579
330
A
100
AcDbEntity
  8
06
100
AcDbCircle
 10
238.285206592561
 20
101.2663323017011
 30
0.0
 40
0.25
100
AcDbArc
 50
183.5763343749981
 51
273.471312739278
  0
LINE
  5
57A
330
A
100
AcDbEntity
  8
06
100
AcDbLine
 10
238.7937061182035
 20
104.9101295974443
 30
0.0
 11
238.6776898590814
 21
103.053869451488
 31
0.0
  0
LINE
  5
57B
330
A
100
AcDbEntity
  8
06
100
AcDbLine
 10
238.6720249527114
 20
102.963230949571
 30
0.0
 11
238.5649941264984
 21
101.2507377301599
 31
0.0
  0
ARC
  5
57C
330
A
100
AcDbEntity
  8
06
100
AcDbCircle
 10
238.3154809818778
 20
101.2663323016989
 30
0.0
 40
0.25
100
AcDbArc
 50
266.5286872607186
 51
356.4236656250029
  0
LINE
  5
57D
330
A
100
AcDbEntity
  8
06
100
AcDbLine
 10
260.0356934479401
 20
101.2507377301606
 30
0.0
 11
259.9286626217274
 21
102.9632309495707
 31
0.0
  0
ARC
  5
57E
330
A
100
AcDbEntity
  8
06
100
AcDbCircle
 10
260.2852065925609
 20
101.2663323016991
 30
0.0
 40
0.25
100
AcDbArc
 50
183.576334374999
 51
273.4713127393141
  0
LINE
  5
57F
330
A
100
AcDbEntity
  8
06
100
AcDbLine
 10
259.9229977153576
 20
103.0538694514893
 30
0.0
 11
259.8069814562352
 21
104.9101295974443
 31
0.0
  0
LINE
  5
580
330
A
100
AcDbEntity
  8
06
100
AcDbLine
 10
261.0503437872192
 20
109.0163323016975
 30
0.0
 11
260.5649941264986
 21
101.2507377301613
 31
0.0
  0
ARC
  5
581
330
A
100
AcDbEntity
  8
06
100
AcDbCircle
 10
260.3154809818778
 20
101.2663323017001
 30
0.0
 40
0.25
100
AcDbArc
 50
266.5286872606855
 51
356.423665625002
  0
LINE
  5
582
330
A
100
AcDbEntity
  8
06
100
AcDbLine
 10
260.0503437872196
 20
103.0163323016975
 30
0.0
 11
259.9229977153578
 21
103.0538694514893
 31
0.0
  0
LINE
  5
583
330
A
100
AcDbEntity
  8
06
100
AcDbLine
 10
260.0503437872196
 20
103.0163323016975
 30
0.0
 11
259.9286626217274
 21
102.9632309495779
 31
0.0
  0
LINE
  5
584
330
A
100
AcDbEntity
  8
06
100
AcDbLine
 10
238.5503437872197
 20
103.0163323016975
 30
0.0
 11
238.6720249527114
 21
102.9632309495674
 31
0.0
  0
LINE
  5
585
330
A
100
AcDbEntity
  8
06
100
AcDbLine
 10
238.550343787214
 20
103.0163323016945
 30
0.0
 11
238.6776898590816
 21
103.0538694514893
 31
0.0
  0
LINE
  5
586
330
A
100
AcDbEntity
  8
06
100
AcDbLine
 10
256.8003437872194
 20
109.0163323016975
 30
0.0
 11
256.8003437872194
 21
84.51633230169798
 31
0.0
  0
LINE
  5
587
330
A
100
AcDbEntity
  8
06
100
AcDbLine
 10
256.8003437872194
 20
84.51633230169798
 30
0.0
 11
241.8003437872195
 21
84.51633230169798
 31
0.0
  0
LINE
  5
588
330
A
100
AcDbEntity
  8
06
100
AcDbLine
 10
241.8003437872195
 20
84.51633230169798
 30
0.0
 11
241.8003437872195
 21
109.0163323016975
 31
0.0
  0
LINE
  5
593
330
A
100
AcDbEntity
  8
CHUSIN
100
AcDbLine
 10
160.3
 20
569.2873581905846
 30
0.0
 11
160.3
 21
543.0163352261518
 31
0.0
  0
LINE
  5
594
330
A
100
AcDbEntity
  8
CHUSIN
100
AcDbLine
 10
160.3
 20
543.0163352261518
 30
0.0
 11
160.3
 21
504.5982367456696
 31
0.0
  0
LINE
  5
595
330
A
100
AcDbEntity
  8
CHUSIN
100
AcDbLine
 10
160.3
 20
297.0393960227974
 30
0.0
 11
160.3
 21
183.0163352261518
 31
0.0
  0
LINE
  5
596
330
A
100
AcDbEntity
  8
CHUSIN
100
AcDbLine
 10
160.3
 20
212.5163352261516
 30
0.0
 11
160.2999999999999
 21
89.70135390962104
 31
0.0
  0
LINE
  5
597
330
A
100
AcDbEntity
  8
CHUSIN
100
AcDbLine
 10
144.3
 20
183.5163352261518
 30
0.0
 11
176.3
 21
183.5163352261518
 31
0.0
  0
LINE
  5
598
330
A
100
AcDbEntity
  8
CHUSIN
100
AcDbLine
 10
261.8
 20
527.2663352261518
 30
0.0
 11
261.8
 21
537.2663352261517
 31
0.0
  0
LINE
  5
599
330
A
100
AcDbEntity
  8
CHUSIN
100
AcDbLine
 10
265.6583623895738
 20
531.5163352261516
 30
0.0
 11
257.5063858762851
 21
531.5163352261516
 31
0.0
  0
LINE
  5
59B
330
A
100
AcDbEntity
  8
CHUSIN
100
AcDbLine
 10
212.2999999999999
 20
80.87546302555086
 30
0.0
 11
212.3
 21
315.4601258010458
 31
0.0
  0
LINE
  5
59C
330
A
100
AcDbEntity
  8
CHUSIN
100
AcDbLine
 10
249.3003437872197
 20
80.87546302555086
 30
0.0
 11
249.3003437872197
 21
315.4601258010458
 31
0.0
  0
LINE
  5
844
330
A
100
AcDbEntity
  8
03
100
AcDbLine
 10
168.4130372483959
 20
258.0163352261517
 30
0.0
 11
152.05
 21
258.0163352261517
 31
0.0
  0
LINE
  5
845
330
A
100
AcDbEntity
  8
03
100
AcDbLine
 10
151.3028539764311
 20
258.8317020332124
 30
0.0
 11
152.5388547654129
 21
272.9592556975279
 31
0.0
  0
LINE
  5
846
330
A
100
AcDbEntity
  8
03
100
AcDbLine
 10
167.9241824829831
 20
272.9592556975279
 30
0.0
 11
169.1601832719648
 21
258.8317020332124
 31
0.0
  0
LINE
  5
847
330
A
100
AcDbEntity
  8
03
100
AcDbLine
 10
154.0331468125503
 20
272.8285220834063
 30
0.0
 11
152.8684813758018
 21
259.5163352261516
 31
0.0
  0
LINE
  5
848
330
A
100
AcDbEntity
  8
03
100
AcDbLine
 10
152.7315186241978
 20
259.5163352261516
 30
0.0
 11
167.7315186241978
 21
259.5163352261516
 31
0.0
  0
LINE
  5
849
330
A
100
AcDbEntity
  8
03
100
AcDbLine
 10
167.5945558725939
 20
259.5163352261516
 30
0.0
 11
166.4298904358455
 21
272.8285220834063
 31
0.0
  0
LINE
  5
84A
330
A
100
AcDbEntity
  8
03
100
AcDbLine
 10
152.5388547654129
 20
272.9592556975279
 30
0.0
 11
154.0331468125503
 21
272.8285220834063
 31
0.0
  0
LINE
  5
84B
330
A
100
AcDbEntity
  8
03
100
AcDbLine
 10
166.4298904358455
 20
272.8285220834063
 30
0.0
 11
167.9241824829831
 21
272.9592556975279
 31
0.0
  0
ARC
  5
84C
330
A
100
AcDbEntity
  8
03
100
AcDbCircle
 10
152.05
 20
258.7663352261516
 30
0.0
 40
0.7500000000000001
100
AcDbArc
 50
175.0000000000029
 51
270.0
  0
ARC
  5
84D
330
A
100
AcDbEntity
  8
03
100
AcDbCircle
 10
168.4130372483959
 20
258.7663352261515
 30
0.0
 40
0.7500000000000001
100
AcDbArc
 50
270.0
 51
4.999999999999777
  0
LINE
  5
854
330
A
100
AcDbEntity
  8
06
100
AcDbLine
 10
238.7933722188971
 20
107.0879685485813
 30
0.0
 11
238.938917641566
 21
107.2335139712502
 31
0.0
  0
LINE
  5
865
330
A
100
AcDbEntity
  8
06
100
AcDbLine
 10
259.6906141178303
 20
106.7720070119186
 30
0.0
 11
259.8455817920352
 21
106.9269746861233
 31
0.0
  0
LINE
  5
872
330
A
100
AcDbEntity
  8
06
100
AcDbLine
 10
201.7930355542933
 20
107.087971473035
 30
0.0
 11
201.9385809769623
 21
107.2335168957041
 31
0.0
  0
LINE
  5
883
330
A
100
AcDbEntity
  8
06
100
AcDbLine
 10
222.6902774532267
 20
106.7720099363724
 30
0.0
 11
222.8452451274314
 21
106.926977610577
 31
0.0
  0
POLYLINE
  5
95B
330
A
100
AcDbEntity
  8
DEFPOINTS
  6
CONTINUOUS
100
AcDb2dPolyline
 66
     1
 10
0.0
 20
0.0
 30
0.0
 70
     1
  0
VERTEX
  5
3989
330
95B
100
AcDbEntity
  8
DEFPOINTS
  6
CONTINUOUS
100
AcDbVertex
100
AcDb2dVertex
 10
0.0
 20
0.0
 30
0.0
  0
VERTEX
  5
398A
330
95B
100
AcDbEntity
  8
DEFPOINTS
  6
CONTINUOUS
100
AcDbVertex
100
AcDb2dVertex
 10
420.0
 20
0.0
 30
0.0
  0
VERTEX
  5
398B
330
95B
100
AcDbEntity
  8
DEFPOINTS
  6
CONTINUOUS
100
AcDbVertex
100
AcDb2dVertex
 10
420.0
 20
594.0
 30
0.0
  0
VERTEX
  5
398C
330
95B
100
AcDbEntity
  8
DEFPOINTS
  6
CONTINUOUS
100
AcDbVertex
100
AcDb2dVertex
 10
0.0
 20
594.0
 30
0.0
  0
SEQEND
  5
398D
330
95B
100
AcDbEntity
  8
DEFPOINTS
  6
CONTINUOUS
  0
DIMENSION
  5
963
330
A
100
AcDbEntity
  8
SUNPOU
100
AcDbDimension
  2
*D1
 10
216.8000000000001
 20
62.00357285727839
 30
0.0
 11
208.3
 21
66.5035728572784
 31
0.0
 70
    32
  3
SUNPOU_2
100
AcDbAlignedDimension
 13
199.7999999999999
 23
76.01633522615195
 33
0.0
 14
216.8000000000001
 24
76.01633522615195
 34
0.0
100
AcDbRotatedDimension
  0
DIMENSION
  5
970
330
A
100
AcDbEntity
  8
SUNPOU
100
AcDbDimension
  2
*D2
 10
255.8000000000002
 20
62.00357285727839
 30
0.0
 11
247.3
 21
66.5035728572784
 31
0.0
 70
    32
  3
SUNPOU_2
100
AcDbAlignedDimension
 13
238.7999999999999
 23
76.01633522615195
 33
0.0
 14
255.8000000000002
 24
76.01633522615195
 34
0.0
100
AcDbRotatedDimension
  0
DIMENSION
  5
986
330
A
100
AcDbEntity
  8
SUNPOU
100
AcDbDimension
  2
*D3
 10
129.3
 20
231.7848041893106
 30
0.0
 11
119.5236854154636
 21
236.2848041893106
 31
0.0
 70
   160
  3
SUNPOU_2
100
AcDbAlignedDimension
 13
126.2999999999999
 23
231.7848041893106
 33
0.0
 14
129.3
 24
258.7663352261516
 34
0.0
100
AcDbRotatedDimension
1001
ACAD
1000
DSTYLE
1002
{
1070
     7
1000
DOTSMALL
1070
     5
1000

1070
   173
1070
     1
1070
     6
1000
OPEN30
1002
}
  0
DIMENSION
  5
995
330
A
100
AcDbEntity
  8
SUNPOU
100
AcDbDimension
  2
*D4
 10
132.3
 20
231.7848041893106
 30
0.0
 11
130.7999999999998
 21
227.2848041893106
 31
0.0
 70
   160
  3
SUNPOU_2
100
AcDbAlignedDimension
 13
129.3
 23
258.7663352261516
 33
0.0
 14
132.3
 24
231.7848041893106
 34
0.0
100
AcDbRotatedDimension
1001
ACAD
1000
DSTYLE
1002
{
1070
     6
1000
NONE
1070
     5
1000

1070
   173
1070
     1
1070
     7
1000
OPEN30
1002
}
  0
DIMENSION
  5
9A4
330
A
100
AcDbEntity
  8
SUNPOU
100
AcDbDimension
  2
*D5
 10
191.3
 20
231.7848041893106
 30
0.0
 11
165.6941432937309
 21
236.2848041893106
 31
0.0
 70
   160
  3
SUNPOU_2
100
AcDbAlignedDimension
 13
132.3
 23
231.7848041893106
 33
0.0
 14
191.3
 24
231.7848041893106
 34
0.0
100
AcDbRotatedDimension
  0
DIMENSION
  5
9B1
330
A
100
AcDbEntity
  8
SUNPOU
100
AcDbDimension
  2
*D6
 10
196.3000071226158
 20
231.7848041893106
 30
0.0
 11
193.7136534009873
 21
227.2848041893106
 31
0.0
 70
   160
  3
SUNPOU_2
100
AcDbAlignedDimension
 13
191.3
 23
231.7848041893106
 33
0.0
 14
196.3000071226158
 24
231.7848041893106
 34
0.0
100
AcDbRotatedDimension
1001
ACAD
1000
DSTYLE
1002
{
1070
     6
1000
DOTSMALL
1070
     5
1000

1070
   173
1070
     1
1070
     7
1000
DOTSMALL
1002
}
  0
DIMENSION
  5
9C0
330
A
100
AcDbEntity
  8
SUNPOU
100
AcDbDimension
  2
*D7
 10
228.3000071226159
 20
231.7848041893106
 30
0.0
 11
212.0421019505339
 21
236.2848041893106
 31
0.0
 70
   160
  3
SUNPOU_2
100
AcDbAlignedDimension
 13
196.3000071226158
 23
231.7848041893106
 33
0.0
 14
228.3000071226159
 24
231.7848041893106
 34
0.0
100
AcDbRotatedDimension
  0
DIMENSION
  5
9CD
330
A
100
AcDbEntity
  8
SUNPOU
100
AcDbDimension
  2
*D8
 10
233.3003437872196
 20
231.7848041893106
 30
0.0
 11
230.8001754549179
 21
236.0831305137219
 31
0.0
 70
   160
  3
SUNPOU_2
100
AcDbAlignedDimension
 13
228.3000071226159
 23
231.7848041893106
 33
0.0
 14
233.3003437872196
 24
231.7848041893106
 34
0.0
100
AcDbRotatedDimension
1001
ACAD
1000
DSTYLE
1002
{
1070
     7
1000
DOTSMALL
1070
     5
1000

1070
   173
1070
     1
1070
     6
1000
DOTSMALL
1002
}
  0
DIMENSION
  5
9DC
330
A
100
AcDbEntity
  8
SUNPOU
100
AcDbDimension
  2
*D9
 10
265.3003437872198
 20
231.7848041893106
 30
0.0
 11
249.3003437872197
 21
236.2848041893106
 31
0.0
 70
    32
  3
SUNPOU_2
100
AcDbAlignedDimension
 13
233.3003437872196
 23
231.7848041893106
 33
0.0
 14
265.3003437872198
 24
231.7848041893106
 34
0.0
100
AcDbRotatedDimension
  0
DIMENSION
  5
9E9
330
A
100
AcDbEntity
  8
SUNPOU
100
AcDbDimension
  2
*D10
 10
270.3
 20
231.7848041893106
 30
0.0
 11
267.8242651263608
 21
227.2750108563314
 31
0.0
 70
   160
  3
SUNPOU_2
100
AcDbAlignedDimension
 13
265.3003437872198
 23
231.7848041893106
 33
0.0
 14
270.3
 24
258.7663352261516
 34
0.0
100
AcDbRotatedDimension
1001
ACAD
1000
DSTYLE
1002
{
1070
     6
1000
DOTSMALL
1070
     5
1000

1070
   173
1070
     1
1070
     7
1000
DOTSMALL
1002
}
  0
DIMENSION
  5
AD4
330
A
100
AcDbEntity
  8
SUNPOU
100
AcDbDimension
  2
*D13
 10
84.30228870771093
 20
183.5163352261518
 30
0.0
 11
79.8022887077109
 21
141.5163352261517
 31
0.0
 70
    32
  1
600
  3
SUNPOU_2
100
AcDbAlignedDimension
 13
84.30228870771093
 23
99.51633522615187
 33
0.0
 14
144.3
 24
183.5163352261518
 34
0.0
 50
90.0
100
AcDbRotatedDimension
  0
DIMENSION
  5
AEB
330
A
100
AcDbEntity
  8
SUNPOU
100
AcDbDimension
  2
*D14
 10
286.2999999999999
 20
221.338128305229
 30
0.0
 11
217.20971357908
 21
225.838128305229
 31
0.0
 70
   160
  3
SUNPOU_2
100
AcDbAlignedDimension
 13
126.2999999999999
 23
221.338128305229
 33
0.0
 14
286.2999999999999
 24
221.338128305229
 34
0.0
100
AcDbRotatedDimension
  0
DIMENSION
  5
B4F
330
A
100
AcDbEntity
  8
SUNPOU
100
AcDbDimension
  2
*D15
 10
289.527646343112
 20
102.5163352261518
 30
0.0
 11
285.027646343112
 21
90.01633522615199
 31
0.0
 70
    32
  3
SUNPOU_2
100
AcDbAlignedDimension
 13
257.2999999999999
 23
77.51633522615197
 33
0.0
 14
265.7999999999995
 24
102.5163352261519
 34
0.0
 50
90.0
100
AcDbRotatedDimension
  0
DIMENSION
  5
B5C
330
A
100
AcDbEntity
  8
SUNPOU
100
AcDbDimension
  2
*D16
 10
278.3030958496687
 20
102.5163352261519
 30
0.0
 11
273.755286348436
 21
92.35519538547123
 31
0.0
 70
   160
  3
SUNPOU_2
100
AcDbAlignedDimension
 13
267.2999999999995
 23
99.51633522615185
 33
0.0
 14
265.7999999999995
 24
102.5163352261519
 34
0.0
 50
90.0
100
AcDbRotatedDimension
  0
DIMENSION
  5
B83
330
A
100
AcDbEntity
  8
SUNPOU
100
AcDbDimension
  2
*D17
 10
310.9595782073812
 20
109.5163352261518
 30
0.0
 11
306.4595782073813
 21
104.5163352261518
 31
0.0
 70
    32
  3
SUNPOU_2
100
AcDbAlignedDimension
 13
310.9595782073812
 23
99.51633522615185
 33
0.0
 14
263.2999999999996
 24
109.5163352261518
 34
0.0
 50
90.0
100
AcDbRotatedDimension
  0
DIMENSION
  5
B92
330
A
100
AcDbEntity
  8
SUNPOU
100
AcDbDimension
  2
*D18
 10
310.9595782073812
 20
268.0163352261516
 30
0.0
 11
306.4595782073813
 21
188.7663352261517
 31
0.0
 70
    32
  1
DH
  3
SUNPOU_2
100
AcDbAlignedDimension
 13
263.2999999999996
 23
109.5163352261518
 33
0.0
 14
271.7999999999999
 24
268.0163352261516
 34
0.0
 50
90.0
100
AcDbRotatedDimension
  0
DIMENSION
  5
B9F
330
A
100
AcDbEntity
  8
SUNPOU
100
AcDbDimension
  2
*D19
 10
301.6917398945518
 20
268.0163352261516
 30
0.0
 11
297.1917398945516
 21
261.3512862503139
 31
0.0
 70
   160
  3
SUNPOU_2
100
AcDbAlignedDimension
 13
282.5499999999996
 23
258.0163352261517
 33
0.0
 14
271.7999999999999
 24
268.0163352261516
 34
0.0
 50
90.0
100
AcDbRotatedDimension
  0
DIMENSION
  5
BC2
330
A
100
AcDbEntity
  8
SUNPOU
100
AcDbDimension
  2
*D20
 10
326.6186291739893
 20
258.0163352261517
 30
0.0
 11
322.1186291739893
 21
178.7663352261517
 31
0.0
 70
    32
  1
H
  3
SUNPOU_2
100
AcDbAlignedDimension
 13
326.6186291739893
 23
99.51633522615185
 33
0.0
 14
282.5499999999996
 24
258.0163352261517
 34
0.0
 50
90.0
100
AcDbRotatedDimension
  0
DIMENSION
  5
BE1
330
A
100
AcDbEntity
  8
SUNPOU
100
AcDbDimension
  2
*D21
 10
326.6186291739894
 20
528.0163352261516
 30
0.0
 11
322.1186291739893
 21
393.0163352261518
 31
0.0
 70
    32
  3
SUNPOU_2
100
AcDbAlignedDimension
 13
282.5499999999996
 23
258.0163352261517
 33
0.0
 14
282.5499999999996
 24
528.0163352261516
 34
0.0
 50
90.0
100
AcDbRotatedDimension
  0
LEADER
  5
BF8
330
A
100
AcDbEntity
  8
HIKIDASI
100
AcDbLeader
  3
SUNPOU_2
 73
     0
 75
     1
 40
5.0
 41
26.79999999999999
 76
     3
 10
173.9245910504257
 20
400.9056644585641
 30
0.0
 10
97.568530268188
 20
477.5204448631946
 30
0.0
 10
92.568530268188
 20
477.5204448631946
 30
0.0
340
BF9
1001
ACAD
1000
DSTYLE
1002
{
1070
     5
1000
OPEN30
1070
    77
1070
     1
1070
   147
1040
1.0
1070
   342
1005
943
1002
}
1000
LEANOF
1010
0.0
1020
0.0
1030
0.0
1000
LEANOF
1010
0.0
1020
0.0
1030
0.0
  0
MTEXT
  5
BF9
330
A
100
AcDbEntity
  8
HIKIDASI
100
AcDbMText
 10
90.56853026818799
 20
479.5204448631946
 30
0.0
 40
5.0
 41
0.0
 71
     9
 72
     1
  1
FB-6×50
  7
SUNPOU
1001
ACAD
1000
MTEXTBEGIN
1070
    73
1070
     1
1070
    44
1040
1.0
1070
    74
1070
     0
1000
MTEXTEND
1000
MTEXTBEGIN
1070
    73
1070
     1
1070
    44
1040
1.0
1070
    74
1070
     0
1000
MTEXTEND
  0
LEADER
  5
C00
330
A
100
AcDbEntity
  8
HIKIDASI
100
AcDbLeader
  3
SUNPOU_2
 73
     0
 75
     1
 40
21.66666666666666
 41
37.06666666666665
 76
     3
 10
160.3000000000001
 20
183.5163352261517
 30
0.0
 10
95.78312786889179
 20
253.6231455308215
 30
0.0
 10
90.78312786889179
 20
253.6231455308215
 30
0.0
340
C01
213
-0.0000000000000142
223
16.52662635947939
233
0.0
1001
ACAD
1000
DSTYLE
1002
{
1070
     5
1000
OPEN30
1070
    77
1070
     1
1070
   147
1040
1.0
1070
   342
1005
943
1002
}
1000
LEANOF
1010
-0.0000000000000142
1020
16.52662635947939
1030
0.0
1000
LEANOF
1010
-0.0000000000000142
1020
16.52662635947939
1030
0.0
  0
MTEXT
  5
C01
330
A
100
AcDbEntity
  8
HIKIDASI
100
AcDbMText
 10
88.7831278688918
 20
239.0965191713421
 30
0.0
 40
5.0
 41
0.0
 71
     9
 72
     1
  1
補助光電スイッチ\P取付穴φ12\P（サッシ工事）
  7
SUNPOU
1001
ACAD
1000
MTEXTBEGIN
1070
    73
1070
     1
1070
    44
1040
1.0
1070
    74
1070
     0
1000
MTEXTEND
1000
MTEXTBEGIN
1070
    73
1070
     1
1070
    44
1040
1.0
1070
    74
1070
     0
1000
MTEXTEND
  0
LEADER
  5
C03
330
A
100
AcDbEntity
  8
HIKIDASI
100
AcDbLeader
  3
SUNPOU_2
 73
     0
 74
     0
 75
     1
 40
5.833333333333332
 41
56.13333333333334
 76
     3
 10
261.8
 20
190.8713805800375
 30
0.0
 10
337.6650995613372
 20
234.8226839691454
 30
0.0
 10
342.6650995613372
 20
234.8226839691454
 30
0.0
340
C04
1001
ACAD
1000
DSTYLE
1002
{
1070
     5
1000
OPEN30
1070
    77
1070
     1
1070
   147
1040
1.0
1070
   342
1005
943
1002
}
1000
LEANOF
1010
0.0
1020
0.0
1030
0.0
1000
LEANOF
1010
0.0
1020
0.0
1030
0.0
  0
MTEXT
  5
C04
330
A
100
AcDbEntity
  8
HIKIDASI
100
AcDbMText
 10
344.6650995613372
 20
236.8226839691454
 30
0.0
 40
5.0
 41
0.0
 71
     7
 72
     1
  1
スリムセナージドア{\Ftxt.shx|c0;I,II}型
  7
SUNPOU
1001
ACAD
1000
MTEXTBEGIN
1070
    73
1070
     1
1070
    44
1040
1.0
1070
    74
1070
     0
1000
MTEXTEND
1000
MTEXTBEGIN
1070
    73
1070
     1
1070
    44
1040
1.0
1070
    74
1070
     0
1000
MTEXTEND
  0
LEADER
  5
C08
330
A
100
AcDbEntity
  8
HIKIDASI
100
AcDbLeader
  3
SUNPOU_2
 73
     0
 74
     0
 75
     1
 40
13.33333333333333
 41
52.26666666666666
 76
     3
 10
261.5499999999996
 20
102.5163352261519
 30
0.0
 10
337.6729204824215
 20
146.3728602662463
 30
0.0
 10
342.6729204824214
 20
146.3728602662463
 30
0.0
340
C09
213
0.0
223
8.573696350021917
233
0.0
1001
ACAD
1000
DSTYLE
1002
{
1070
     5
1000
OPEN30
1070
    77
1070
     1
1070
   147
1040
1.0
1070
   342
1005
943
1002
}
1000
LEANOF
1010
0.0
1020
8.573696350021917
1030
0.0
1000
LEANOF
1010
0.0
1020
8.573696350021917
1030
0.0
  0
MTEXT
  5
C09
330
A
100
AcDbEntity
  8
HIKIDASI
100
AcDbMText
 10
344.6729204824214
 20
139.7991639162244
 30
0.0
 40
5.0
 41
0.0
 71
     7
 72
     1
  1
ステンレスガイドレール\P（サッシ工事）
  7
SUNPOU
1001
ACAD
1000
MTEXTBEGIN
1070
    73
1070
     1
1070
    44
1040
1.0
1070
    74
1070
     0
1000
MTEXTEND
1000
MTEXTBEGIN
1070
    73
1070
     1
1070
    44
1040
1.0
1070
    74
1070
     0
1000
MTEXTEND
  0
POLYLINE
  5
C1A
330
A
100
AcDbEntity
  8
SAISEN
100
AcDb2dPolyline
 66
     1
 10
0.0
 20
0.0
 30
0.0
 70
     1
  0
VERTEX
  5
3992
330
C1A
100
AcDbEntity
  8
SAISEN
100
AcDbVertex
100
AcDb2dVertex
 10
35.0
 20
301.0378117213822
 30
0.0
  0
VERTEX
  5
3993
330
C1A
100
AcDbEntity
  8
SAISEN
100
AcDbVertex
100
AcDb2dVertex
 10
45.0
 20
301.0378117213822
 30
0.0
  0
VERTEX
  5
3994
330
C1A
100
AcDbEntity
  8
SAISEN
100
AcDbVertex
100
AcDb2dVertex
 10
45.0
 20
331.0378117213823
 30
0.0
  0
VERTEX
  5
3995
330
C1A
100
AcDbEntity
  8
SAISEN
100
AcDbVertex
100
AcDb2dVertex
 10
35.0
 20
331.0378117213823
 30
0.0
  0
SEQEND
  5
3996
330
C1A
100
AcDbEntity
  8
SAISEN
  0
MTEXT
  5
C1B
330
A
100
AcDbEntity
  8
MOJI
100
AcDbMText
 10
40.0
 20
316.0378117213823
 30
0.0
 40
6.0
 41
10.0
 71
     5
 72
     1
  1
外\P\P部
  7
0_8
1001
ACAD
1000
MTEXTBEGIN
1070
    73
1070
     1
1070
    44
1040
1.0
1070
    74
1070
     0
1000
MTEXTEND
1000
MTEXTBEGIN
1070
    73
1070
     1
1070
    44
1040
1.0
1070
    74
1070
     0
1000
MTEXTEND
  0
POLYLINE
  5
C23
330
A
100
AcDbEntity
  8
SAISEN
100
AcDb2dPolyline
 66
     1
 10
0.0
 20
0.0
 30
0.0
 70
     1
  0
VERTEX
  5
3997
330
C23
100
AcDbEntity
  8
SAISEN
100
AcDbVertex
100
AcDb2dVertex
 10
374.9999999999997
 20
301.0378117213822
 30
0.0
  0
VERTEX
  5
3998
330
C23
100
AcDbEntity
  8
SAISEN
100
AcDbVertex
100
AcDb2dVertex
 10
384.9999999999997
 20
301.0378117213822
 30
0.0
  0
VERTEX
  5
3999
330
C23
100
AcDbEntity
  8
SAISEN
100
AcDbVertex
100
AcDb2dVertex
 10
384.9999999999997
 20
331.0378117213823
 30
0.0
  0
VERTEX
  5
399A
330
C23
100
AcDbEntity
  8
SAISEN
100
AcDbVertex
100
AcDb2dVertex
 10
374.9999999999997
 20
331.0378117213823
 30
0.0
  0
SEQEND
  5
399B
330
C23
100
AcDbEntity
  8
SAISEN
  0
MTEXT
  5
C24
330
A
100
AcDbEntity
  8
MOJI
100
AcDbMText
 10
379.9999999999997
 20
316.0378117213823
 30
0.0
 40
6.0
 41
10.0
 71
     5
 72
     1
  1
内\P\P部
  7
0_8
1001
ACAD
1000
MTEXTBEGIN
1070
    73
1070
     1
1070
    44
1040
1.0
1070
    74
1070
     0
1000
MTEXTEND
1000
MTEXTBEGIN
1070
    73
1070
     1
1070
    44
1040
1.0
1070
    74
1070
     0
1000
MTEXTEND
  0
TEXT
  5
C2C
330
A
100
AcDbEntity
  8
MOJI
100
AcDbText
 10
359.0965484052966
 20
103.383387120622
 30
0.0
 40
5.0
  1
Ｆ.Ｌ
 41
0.8
  7
0_8
 11
359.0965484052966
 21
105.8833871206221
 31
0.0
100
AcDbText
 73
     2
  0
LINE
  5
14A4
330
A
100
AcDbEntity
  8
CHUSIN
100
AcDbLine
 10
176.5531228226449
 20
435.9557153011755
 30
0.0
 11
194.6488725037031
 21
435.9557153011755
 31
0.0
  0
LINE
  5
1516
330
A
100
AcDbEntity
  8
CHUSIN
100
AcDbLine
 10
257.8000582060719
 20
499.3214823238043
 30
0.0
 11
257.8000582060719
 21
425.5730546508484
 31
0.0
  0
LINE
  5
151A
330
A
100
AcDbEntity
  8
CHUSIN
100
AcDbLine
 10
236.799871012582
 20
432.8491387768989
 30
0.0
 11
236.8000200908703
 21
383.0659703985354
 31
0.0
  0
LINE
  5
2113
330
A
100
AcDbEntity
  8
04
100
AcDbLine
 10
190.9918143712248
 20
372.955698647656
 30
0.0
 11
194.1893501208869
 21
372.9556783103859
 31
0.0
  0
LINE
  5
2114
330
A
100
AcDbEntity
  8
02
100
AcDbLine
 10
190.9918143712248
 20
372.955698647656
 30
0.0
 11
180.3
 21
372.9557130309546
 31
0.0
  0
ARC
  5
2115
330
A
100
AcDbEntity
  8
04
100
AcDbCircle
 10
197.2874496727207
 20
351.9714134329348
 30
0.0
 40
0.4996149636042241
100
AcDbArc
 50
90.00091615245725
 51
180.0000557297534
  0
ARC
  5
2116
330
A
100
AcDbEntity
  8
04
100
AcDbCircle
 10
200.3295397456851
 20
351.9714620755806
 30
0.0
 40
0.4996149636041804
100
AcDbArc
 50
15.00000000000074
 51
90.00091615247031
  0
ARC
  5
211A
330
A
100
AcDbEntity
  8
04
100
AcDbCircle
 10
195.1885800480953
 20
358.6731024902429
 30
0.0
 40
4.196765694275482
100
AcDbArc
 50
180.0
 51
270.0
  0
ARC
  5
211B
330
A
100
AcDbEntity
  8
04
100
AcDbCircle
 10
195.1885800480953
 20
358.6731024902429
 30
0.0
 40
0.9992299272084508
100
AcDbArc
 50
180.0
 51
270.0
  0
LINE
  5
2126
330
A
100
AcDbEntity
  8
04
100
AcDbLine
 10
196.1878091586689
 20
361.849588229216
 30
0.0
 11
195.188478458698
 21
360.569602896981
 31
0.0
  0
LINE
  5
2127
330
A
100
AcDbEntity
  8
04
100
AcDbLine
 10
195.188478458698
 20
360.569602896981
 30
0.0
 11
194.1893276862978
 21
360.5695070089022
 31
0.0
  0
LINE
  5
2128
330
A
100
AcDbEntity
  8
04
100
AcDbLine
 10
195.1885921862203
 20
372.3604204238231
 30
0.0
 11
194.1893188012207
 21
372.3604777421479
 31
0.0
  0
LINE
  5
212C
330
A
100
AcDbEntity
  8
04
100
AcDbLine
 10
199.6850794280853
 20
362.5680431756031
 30
0.0
 11
199.6850806671181
 21
364.7013620027808
 31
0.0
  0
LINE
  5
212D
330
A
100
AcDbEntity
  8
04
100
AcDbLine
 10
199.2703997633811
 20
371.0803486752343
 30
0.0
 11
199.6850839548523
 21
370.3620556836525
 31
0.0
  0
LINE
  5
212E
330
A
100
AcDbEntity
  8
04
100
AcDbLine
 10
196.1878091586689
 20
361.849588229216
 30
0.0
 11
199.2703224493358
 21
361.8498852523578
 31
0.0
  0
LINE
  5
212F
330
A
100
AcDbEntity
  8
04
100
AcDbLine
 10
196.187757435494
 20
371.0805240957928
 30
0.0
 11
199.2703997633811
 21
371.0803486752343
 31
0.0
  0
LINE
  5
2130
330
A
100
AcDbEntity
  8
04
100
AcDbLine
 10
195.1885921862203
 20
372.3604204238231
 30
0.0
 11
196.187757435494
 21
371.0805240957928
 31
0.0
  0
LINE
  5
2131
330
A
100
AcDbEntity
  8
04
100
AcDbLine
 10
196.2878462000473
 20
350.9717320046686
 30
0.0
 11
196.2878462000473
 21
346.4751973322306
 31
0.0
  0
LINE
  5
2138
330
A
100
AcDbEntity
  8
04
100
AcDbLine
 10
199.6850827158074
 20
368.2287160406725
 30
0.0
 11
199.8499908472489
 21
368.0638079040021
 31
0.0
  0
LINE
  5
2139
330
A
100
AcDbEntity
  8
04
100
AcDbLine
 10
199.6850806671181
 20
364.7013620027808
 30
0.0
 11
199.8499908472489
 21
364.8662721369352
 31
0.0
  0
LINE
  5
213A
330
A
100
AcDbEntity
  8
04
100
AcDbLine
 10
199.8499908472489
 20
364.8662721369352
 30
0.0
 11
199.8499908472489
 21
368.0638079040021
 31
0.0
  0
LINE
  5
213B
330
A
100
AcDbEntity
  8
04
100
AcDbLine
 10
194.1893501208869
 20
358.6731024902429
 30
0.0
 11
194.1893501208869
 21
372.9556783103859
 31
0.0
  0
LINE
  5
213D
330
A
100
AcDbEntity
  8
SOUZOU
100
AcDbLine
 10
186.2935166342203
 20
352.5711181225043
 30
0.0
 11
186.293512719738
 21
352.9708134150056
 31
0.0
  0
LINE
  5
213F
330
A
100
AcDbEntity
  8
SOUZOU
100
AcDbLine
 10
191.089900292877
 20
344.0776632347422
 30
0.0
 11
191.0898291212675
 21
351.8716819220272
 31
0.0
  0
LINE
  5
2140
330
A
100
AcDbEntity
  8
SOUZOU
100
AcDbLine
 10
190.6752305228746
 20
343.359511682779
 30
0.0
 11
191.089900292877
 21
344.0776632347422
 31
0.0
  0
LINE
  5
2141
330
A
100
AcDbEntity
  8
SOUZOU
100
AcDbLine
 10
187.5926032310254
 20
343.3594170990901
 30
0.0
 11
190.6752305228746
 21
343.359511682779
 31
0.0
  0
LINE
  5
2145
330
A
100
AcDbEntity
  8
SOUZOU
100
AcDbLine
 10
187.5926050327866
 20
343.3781350560638
 30
0.0
 11
186.2936066667534
 21
343.3781834641131
 31
0.0
  0
LINE
  5
2148
330
A
100
AcDbEntity
  8
SOUZOU
100
AcDbLine
 10
190.6751408691616
 20
352.5899468827316
 30
0.0
 11
191.0898291212675
 21
351.8716819220272
 31
0.0
  0
LINE
  5
2149
330
A
100
AcDbEntity
  8
SOUZOU
100
AcDbLine
 10
187.5925141810673
 20
352.5898816778631
 30
0.0
 11
190.6751408691616
 21
352.5899468827316
 31
0.0
  0
LINE
  5
214A
330
A
100
AcDbEntity
  8
SOUZOU
100
AcDbLine
 10
186.293512719738
 20
352.9708134150056
 30
0.0
 11
185.2942823331809
 21
352.9707676738407
 31
0.0
  0
LINE
  5
214B
330
A
100
AcDbEntity
  8
SOUZOU
100
AcDbLine
 10
187.5925150351953
 20
352.571121175696
 30
0.0
 11
186.2935166342203
 21
352.5711181225043
 31
0.0
  0
LINE
  5
214D
330
A
100
AcDbEntity
  8
04
100
AcDbLine
 10
190.991829727136
 20
372.9556986475583
 30
0.0
 11
190.9918141978055
 21
358.6731024902429
 31
0.0
  0
LINE
  5
214F
330
A
100
AcDbEntity
  8
04
100
AcDbLine
 10
197.2874416839388
 20
352.4710283964752
 30
0.0
 11
200.3295317569032
 21
352.4710770391211
 31
0.0
  0
LINE
  5
2150
330
A
100
AcDbEntity
  8
04
100
AcDbLine
 10
200.8121307422304
 20
352.1007719433796
 30
0.0
 11
201.1144699281285
 21
350.9724267404898
 31
0.0
  0
LINE
  5
2151
330
A
100
AcDbEntity
  8
04
100
AcDbLine
 10
196.7878356807986
 20
350.9724267404898
 30
0.0
 11
196.7878347091166
 21
351.9714129469754
 31
0.0
  0
LINE
  5
2152
330
A
100
AcDbEntity
  8
02
100
AcDbLine
 10
190.9918141978051
 20
359.97439934306
 30
0.0
 11
190.9918141978055
 21
363.8669340451426
 31
0.0
  0
LINE
  5
2154
330
A
100
AcDbEntity
  8
02
100
AcDbLine
 10
188.6935178997736
 20
363.8670888381839
 30
0.0
 11
190.9918141978055
 21
363.8669340451426
 31
0.0
  0
LINE
  5
2155
330
A
100
AcDbEntity
  8
02
100
AcDbLine
 10
188.6935855458234
 20
370.5575329287686
 30
0.0
 11
188.6935828513763
 21
369.0587868060163
 31
0.0
  0
LINE
  5
2156
330
A
100
AcDbEntity
  8
02
100
AcDbLine
 10
188.6935178997736
 20
363.8670888381839
 30
0.0
 11
188.6935866558874
 21
362.3682100362121
 31
0.0
  0
LINE
  5
2157
330
A
100
AcDbEntity
  8
02
100
AcDbLine
 10
184.4968041455547
 20
370.5578062322991
 30
0.0
 11
184.4968187859258
 21
362.3683286523738
 31
0.0
  0
LINE
  5
2158
330
A
100
AcDbEntity
  8
02
100
AcDbLine
 10
184.4968041455547
 20
370.5578062322991
 30
0.0
 11
188.6935855458234
 21
370.5575329287686
 31
0.0
  0
LINE
  5
2159
330
A
100
AcDbEntity
  8
02
100
AcDbLine
 10
184.4968187859258
 20
362.3683286523738
 30
0.0
 11
188.6935866558874
 21
362.3682100362121
 31
0.0
  0
LINE
  5
215A
330
A
100
AcDbEntity
  8
02
100
AcDbLine
 10
185.2962039529888
 20
359.9743688511082
 30
0.0
 11
190.9918141978051
 21
359.97439934306
 31
0.0
  0
LINE
  5
215B
330
A
100
AcDbEntity
  8
02
100
AcDbLine
 10
188.6935828513763
 20
369.0587868060163
 30
0.0
 11
190.9918141978101
 21
369.0588185649017
 31
0.0
  0
LINE
  5
2165
330
A
100
AcDbEntity
  8
CHUSIN
100
AcDbLine
 10
171.9141436253189
 20
347.9745998874913
 30
0.0
 11
193.6387588454429
 21
347.9745998874913
 31
0.0
  0
LINE
  5
2166
330
A
100
AcDbEntity
  8
CHUSIN
100
AcDbLine
 10
177.7028455397783
 20
366.4650400331293
 30
0.0
 11
203.4593350964488
 21
366.4650400331293
 31
0.0
  0
ARC
  5
2167
330
A
100
AcDbEntity
  8
04
100
AcDbCircle
 10
218.2712956932066
 20
351.9714965799291
 30
0.0
 40
0.4996149636042257
100
AcDbArc
 50
0.0
 51
90.00009033002626
  0
ARC
  5
2168
330
A
100
AcDbEntity
  8
04
100
AcDbCircle
 10
215.2291635611836
 20
351.9714917838363
 30
0.0
 40
0.4996149636042289
100
AcDbArc
 50
90.00009033002951
 51
165.0001159816743
  0
ARC
  5
2169
330
A
100
AcDbEntity
  8
04
100
AcDbCircle
 10
219.9694481097047
 20
358.6731024902429
 30
0.0
 40
0.9992299272084508
100
AcDbArc
 50
270.0
 51
0.0
  0
ARC
  5
216B
330
A
100
AcDbEntity
  8
04
100
AcDbCircle
 10
228.7110664474869
 20
361.0259897378055
 30
0.0
 40
1.85021889062715
100
AcDbArc
 50
321.4199075616225
 51
0.0
  0
ARC
  5
216C
330
A
100
AcDbEntity
  8
04
100
AcDbCircle
 10
228.7110664474869
 20
367.9112823982988
 30
0.0
 40
1.85021889062715
100
AcDbArc
 50
0.0
 51
38.58009243837734
  0
LINE
  5
216E
330
A
100
AcDbEntity
  8
04
100
AcDbLine
 10
225.7649816875135
 20
368.9651707404901
 30
0.0
 11
225.7649816875135
 21
354.4763367959676
 31
0.0
  0
LINE
  5
216F
330
A
100
AcDbEntity
  8
04
100
AcDbLine
 10
224.1662138039802
 20
352.877568912434
 30
0.0
 11
233.8587778790003
 21
352.877568912434
 31
0.0
  0
LINE
  5
2170
330
A
100
AcDbEntity
  8
04
100
AcDbLine
 10
233.8587778790003
 20
352.877568912434
 30
0.0
 11
233.8587778790003
 21
352.1781079633881
 31
0.0
  0
LINE
  5
2171
330
A
100
AcDbEntity
  8
04
100
AcDbLine
 10
225.7649816875135
 20
368.9651707404901
 30
0.0
 11
220.9686780369131
 21
368.9651707404901
 31
0.0
  0
LINE
  5
2172
330
A
100
AcDbEntity
  8
04
100
AcDbLine
 10
224.1662138039802
 20
352.877568912434
 30
0.0
 11
224.1662138039802
 21
368.9651707404901
 31
0.0
  0
LINE
  5
2173
330
A
100
AcDbEntity
  8
04
100
AcDbLine
 10
220.9686780369131
 20
368.9651707404901
 30
0.0
 11
220.9686780369131
 21
358.6731024902429
 31
0.0
  0
LINE
  5
2174
330
A
100
AcDbEntity
  8
04
100
AcDbLine
 10
230.7609923015729
 20
347.9749540833239
 30
0.0
 11
231.8030511604454
 21
347.9749540833239
 31
0.0
  0
LINE
  5
2177
330
A
100
AcDbEntity
  8
CHUSIN
100
AcDbLine
 10
232.1214445281109
 20
364.4686360680521
 30
0.0
 11
218.3795162826443
 21
364.4686360680521
 31
0.0
  0
LINE
  5
2178
330
A
100
AcDbEntity
  8
04
100
AcDbLine
 10
218.7709106568108
 20
351.9714965799291
 30
0.0
 11
218.7709106568108
 21
350.9054600563369
 31
0.0
  0
LINE
  5
2179
330
A
100
AcDbEntity
  8
04
100
AcDbLine
 10
215.2291627735126
 20
352.4711067474398
 30
0.0
 11
218.2712949055355
 21
352.4711115435327
 31
0.0
  0
LINE
  5
217A
330
A
100
AcDbEntity
  8
04
100
AcDbLine
 10
214.4442278665537
 20
350.9724267404898
 30
0.0
 11
214.7465723028818
 21
352.1008006747443
 31
0.0
  0
LINE
  5
2182
330
A
100
AcDbEntity
  8
04
100
AcDbLine
 10
225.7649816875135
 20
359.8721784028932
 30
0.0
 11
225.7649816875135
 21
369.0650937332109
 31
0.0
  0
LINE
  5
2183
330
A
100
AcDbEntity
  8
04
100
AcDbLine
 10
219.9694481097044
 20
366.9667108860733
 30
0.0
 11
219.070141175217
 21
366.0674039515857
 31
0.0
  0
LINE
  5
2184
330
A
100
AcDbEntity
  8
04
100
AcDbLine
 10
219.9694481097044
 20
361.9705612500309
 30
0.0
 11
219.070141175217
 21
362.8698681845186
 31
0.0
  0
LINE
  5
2185
330
A
100
AcDbEntity
  8
04
100
AcDbLine
 10
219.070141175217
 20
362.8698681845186
 30
0.0
 11
219.070141175217
 21
366.0674039515857
 31
0.0
  0
LINE
  5
2186
330
A
100
AcDbEntity
  8
04
100
AcDbLine
 10
220.9686780369131
 20
366.9667108860733
 30
0.0
 11
219.9694481097044
 21
366.9667108860733
 31
0.0
  0
LINE
  5
2188
330
A
100
AcDbEntity
  8
04
100
AcDbLine
 10
220.9686780369131
 20
361.9705612500309
 30
0.0
 11
219.9694481097044
 21
361.9705612500309
 31
0.0
  0
LINE
  5
218B
330
A
100
AcDbEntity
  8
04
100
AcDbLine
 10
225.7649816875135
 20
369.0650937332109
 30
0.0
 11
227.0639805928845
 21
369.0650937332109
 31
0.0
  0
LINE
  5
218D
330
A
100
AcDbEntity
  8
04
100
AcDbLine
 10
227.0639805928845
 20
369.0650937332109
 30
0.0
 11
230.1574513708948
 21
369.0650937332109
 31
0.0
  0
LINE
  5
218E
330
A
100
AcDbEntity
  8
04
100
AcDbLine
 10
230.561285338114
 20
361.0259897378055
 30
0.0
 11
230.561285338114
 21
367.9112823982988
 31
0.0
  0
ARC
  5
2192
330
A
100
AcDbEntity
  8
02
100
AcDbCircle
 10
187.2947664918574
 20
301.5103880251903
 30
0.0
 40
1.998459854416901
100
AcDbArc
 50
180.0000941503965
 51
270.0
  0
ARC
  5
2193
330
A
100
AcDbEntity
  8
02
100
AcDbCircle
 10
201.0394814893711
 20
300.5111580979818
 30
0.0
 40
0.9992299272084508
100
AcDbArc
 50
270.0
 51
4.999999999999743
  0
ARC
  5
2194
330
A
100
AcDbEntity
  8
04
100
AcDbCircle
 10
202.5506477535116
 20
303.5088356362696
 30
0.0
 40
0.9992299272084508
100
AcDbArc
 50
90.0
 51
165.0000923154081
  0
ARC
  5
2195
330
A
100
AcDbEntity
  8
04
100
AcDbCircle
 10
213.008135647648
 20
303.5088356362696
 30
0.0
 40
0.9992299272084631
100
AcDbArc
 50
14.99997633373311
 51
90.0
  0
ARC
  5
2196
330
A
100
AcDbEntity
  8
04
100
AcDbCircle
 10
197.2874992404893
 20
301.0107730615946
 30
0.0
 40
0.4996149636042631
100
AcDbArc
 50
180.0000557297534
 51
270.0000000009737
  0
ARC
  5
2197
330
A
100
AcDbEntity
  8
04
100
AcDbCircle
 10
200.3295804741902
 20
301.0107730616468
 30
0.0
 40
0.4996149636042257
100
AcDbArc
 50
270.0000000009868
 51
345.0000923154064
  0
ARC
  5
2198
330
A
100
AcDbEntity
  8
04
100
AcDbCircle
 10
215.2292066330861
 20
301.0107730616631
 30
0.0
 40
0.4996149636042573
100
AcDbArc
 50
194.9999763337314
 51
270.0
  0
ARC
  5
2199
330
A
100
AcDbEntity
  8
04
100
AcDbCircle
 10
218.2712956932066
 20
301.0107730616631
 30
0.0
 40
0.4996149636042257
100
AcDbArc
 50
270.0
 51
0.0
  0
ARC
  5
219B
330
A
100
AcDbEntity
  8
02
100
AcDbCircle
 10
213.0586249482428
 20
301.0107608182484
 30
0.0
 40
0.4996149636042257
100
AcDbArc
 50
269.9999984647714
 51
355.0009996820919
  0
ARC
  5
219C
330
A
100
AcDbEntity
  8
02
100
AcDbCircle
 10
202.783312334262
 20
303.5088356362696
 30
0.0
 40
0.9992299272084508
100
AcDbArc
 50
90.0000015352286
 51
184.9999970148232
  0
ARC
  5
219D
330
A
100
AcDbEntity
  8
02
100
AcDbCircle
 10
212.7756116063467
 20
303.5088356362696
 30
0.0
 40
0.9992299272084562
100
AcDbArc
 50
355.0009996820919
 51
90.00000153523512
  0
ARC
  5
219E
330
A
100
AcDbEntity
  8
04
100
AcDbCircle
 10
197.555253213849
 20
330.7414668637887
 30
0.0
 40
2.366161627257562
100
AcDbArc
 50
142.4440450146146
 51
180.0001114595069
  0
ARC
  5
219F
330
A
100
AcDbEntity
  8
04
100
AcDbCircle
 10
197.5552699566033
 20
322.1348510381885
 30
0.0
 40
2.366161627257564
100
AcDbArc
 50
180.0001114595069
 51
217.556177904398
  0
ARC
  5
21A1
330
A
100
AcDbEntity
  8
04
100
AcDbCircle
 10
245.6976939377954
 20
322.5491009783565
 30
0.0
 40
1.850218890627204
100
AcDbArc
 50
321.4199069035188
 51
0.0
  0
ARC
  5
21A2
330
A
100
AcDbEntity
  8
04
100
AcDbCircle
 10
245.6976939377954
 20
329.4343936388496
 30
0.0
 40
1.850218890627199
100
AcDbArc
 50
0.0
 51
38.58009309648116
  0
ARC
  5
21A7
330
A
100
AcDbEntity
  8
04
100
AcDbCircle
 10
245.9494599982225
 20
352.1781079633881
 30
0.0
 40
1.598767883533521
100
AcDbArc
 50
270.0
 51
0.0
  0
ARC
  5
21A8
330
A
100
AcDbEntity
  8
04
100
AcDbCircle
 10
235.4575457625338
 20
352.1781079633881
 30
0.0
 40
1.598767883533521
100
AcDbArc
 50
180.0
 51
270.0
  0
ARC
  5
21A9
330
A
100
AcDbEntity
  8
04
100
AcDbCircle
 10
233.8587778790003
 20
352.877568912434
 30
0.0
 40
1.598767883533521
100
AcDbArc
 50
0.0
 51
90.0
  0
ARC
  5
21AA
330
A
100
AcDbEntity
  8
04
100
AcDbCircle
 10
217.7712840903843
 20
343.4775075506053
 30
0.0
 40
2.997689781625353
100
AcDbArc
 50
0.0
 51
90.0
  0
ARC
  5
21AB
330
A
100
AcDbEntity
  8
04
100
AcDbCircle
 10
217.7724296973654
 20
343.4775075506053
 30
0.0
 40
7.494224454063383
100
AcDbArc
 50
0.0
 51
90.0
  0
LINE
  5
21AC
330
A
100
AcDbEntity
  8
SOUZOU
100
AcDbLine
 10
243.2513663916787
 20
305.8884100757513
 30
0.0
 11
233.2590671195942
 21
305.8884100757513
 31
0.0
  0
LINE
  5
21AD
330
A
100
AcDbEntity
  8
SOUZOU
100
AcDbLine
 10
233.2590671195942
 20
346.0953828477921
 30
0.0
 11
233.2590671195942
 21
305.8884100757513
 31
0.0
  0
LINE
  5
21AE
330
A
100
AcDbEntity
  8
SOUZOU
100
AcDbLine
 10
243.2513663912761
 20
305.8884100757513
 30
0.0
 11
243.2513663916787
 21
346.0953828477921
 31
0.0
  0
LINE
  5
21AF
330
A
100
AcDbEntity
  8
SOUZOU
100
AcDbLine
 10
243.2513663916787
 20
346.0953828477921
 30
0.0
 11
233.2590671195942
 21
346.0953828477921
 31
0.0
  0
LINE
  5
21B0
330
A
100
AcDbEntity
  8
04
100
AcDbLine
 10
196.2878462000473
 20
346.4751973322306
 30
0.0
 11
217.7712840903843
 21
346.4751973322306
 31
0.0
  0
LINE
  5
21B1
330
A
100
AcDbEntity
  8
04
100
AcDbLine
 10
196.2878462000473
 20
350.9717320046686
 30
0.0
 11
217.7724296973654
 21
350.9717320046686
 31
0.0
  0
LINE
  5
21B2
330
A
100
AcDbEntity
  8
04
100
AcDbLine
 10
245.9494599982225
 20
357.6738725630346
 30
0.0
 11
245.9494599982225
 21
352.1781079633881
 31
0.0
  0
LINE
  5
21B3
330
A
100
AcDbEntity
  8
04
100
AcDbLine
 10
225.7649816875135
 20
357.6738725630346
 30
0.0
 11
245.9494692863608
 21
357.6738725630346
 31
0.0
  0
LINE
  5
21B4
330
A
100
AcDbEntity
  8
04
100
AcDbLine
 10
235.4575457625338
 20
352.877568912434
 30
0.0
 11
235.4575457625338
 21
352.1781079633881
 31
0.0
  0
LINE
  5
21B5
330
A
100
AcDbEntity
  8
04
100
AcDbLine
 10
245.9494599982225
 20
352.1781079633881
 30
0.0
 11
235.4575457625338
 21
352.1781079633881
 31
0.0
  0
LINE
  5
21B6
330
A
100
AcDbEntity
  8
04
100
AcDbLine
 10
247.548227881756
 20
352.1781079633881
 30
0.0
 11
247.548227881756
 21
357.1742575994304
 31
0.0
  0
LINE
  5
21B7
330
A
100
AcDbEntity
  8
04
100
AcDbLine
 10
245.9494599982225
 20
357.1742575994304
 30
0.0
 11
247.548227881756
 21
357.1742575994304
 31
0.0
  0
LINE
  5
21B8
330
A
100
AcDbEntity
  8
04
100
AcDbLine
 10
235.4575457625338
 20
350.5793400798546
 30
0.0
 11
245.9494599982225
 21
350.5793400798546
 31
0.0
  0
LINE
  5
21B9
330
A
100
AcDbEntity
  8
04
100
AcDbLine
 10
195.1885800480953
 20
357.6738725630346
 30
0.0
 11
219.9694481097047
 21
357.6738725630346
 31
0.0
  0
LINE
  5
21BA
330
A
100
AcDbEntity
  8
04
100
AcDbLine
 10
195.1885800480953
 20
354.4763367959676
 30
0.0
 11
224.1662138039802
 21
354.4763367959676
 31
0.0
  0
LINE
  5
21BB
330
A
100
AcDbEntity
  8
04
100
AcDbLine
 10
225.7649816875135
 20
354.4763367959676
 30
0.0
 11
245.949426218665
 21
354.4763367959676
 31
0.0
  0
LINE
  5
21BC
330
A
100
AcDbEntity
  8
SOUZOU
100
AcDbLine
 10
186.293610581217
 20
342.9784900883251
 30
0.0
 11
185.2943792142312
 21
342.9784896342123
 31
0.0
  0
LINE
  5
21BD
330
A
100
AcDbEntity
  8
SOUZOU
100
AcDbLine
 10
186.293610581217
 20
342.9784900883251
 30
0.0
 11
186.2936066667534
 21
343.3781834641131
 31
0.0
  0
LINE
  5
21BF
330
A
100
AcDbEntity
  8
SOUZOU
100
AcDbLine
 10
186.2954629554483
 20
317.5980706702087
 30
0.0
 11
186.295459040966
 21
317.9977659627098
 31
0.0
  0
LINE
  5
21C2
330
A
100
AcDbEntity
  8
SOUZOU
100
AcDbLine
 10
191.091846614105
 20
309.1046157824466
 30
0.0
 11
191.0917754424955
 21
316.8986344697316
 31
0.0
  0
LINE
  5
21C3
330
A
100
AcDbEntity
  8
SOUZOU
100
AcDbLine
 10
190.6771768441026
 20
308.3864642304833
 30
0.0
 11
191.091846614105
 21
309.1046157824466
 31
0.0
  0
LINE
  5
21C4
330
A
100
AcDbEntity
  8
SOUZOU
100
AcDbLine
 10
190.6770871903896
 20
317.6168994304359
 30
0.0
 11
191.0917754424955
 21
316.8986344697316
 31
0.0
  0
LINE
  5
21C5
330
A
100
AcDbEntity
  8
SOUZOU
100
AcDbLine
 10
187.5945495522536
 20
308.3863696467945
 30
0.0
 11
190.6771768441026
 21
308.3864642304833
 31
0.0
  0
LINE
  5
21C6
330
A
100
AcDbEntity
  8
SOUZOU
100
AcDbLine
 10
187.5944605022954
 20
317.6168342255676
 30
0.0
 11
190.6770871903896
 21
317.6168994304359
 31
0.0
  0
LINE
  5
21C8
330
A
100
AcDbEntity
  8
SOUZOU
100
AcDbLine
 10
186.2955569024449
 20
308.0054426360295
 30
0.0
 11
185.296325535459
 21
308.0054421819168
 31
0.0
  0
LINE
  5
21C9
330
A
100
AcDbEntity
  8
SOUZOU
100
AcDbLine
 10
186.295459040966
 20
317.9977659627098
 30
0.0
 11
185.2962286544087
 21
317.9977202215451
 31
0.0
  0
LINE
  5
21CC
330
A
100
AcDbEntity
  8
SOUZOU
100
AcDbLine
 10
186.2955521790316
 20
308.0054426360272
 30
0.0
 11
186.295551997386
 21
308.4051360118544
 31
0.0
  0
LINE
  5
21CD
330
A
100
AcDbEntity
  8
SOUZOU
100
AcDbLine
 10
187.5945513540147
 20
308.4050876037682
 30
0.0
 11
186.295551997386
 21
308.4051360118544
 31
0.0
  0
LINE
  5
21CE
330
A
100
AcDbEntity
  8
SOUZOU
100
AcDbLine
 10
187.5944613564234
 20
317.5980737234003
 30
0.0
 11
186.2954645220282
 21
317.5980706702123
 31
0.0
  0
LINE
  5
21D1
330
A
100
AcDbEntity
  8
04
100
AcDbLine
 10
245.7494412096997
 20
330.588204973762
 30
0.0
 11
247.1440788612031
 21
330.588204973762
 31
0.0
  0
LINE
  5
21D2
330
A
100
AcDbEntity
  8
04
100
AcDbLine
 10
247.5479128284229
 20
322.5491009783565
 30
0.0
 11
247.5479128284229
 21
329.4343936388496
 31
0.0
  0
LINE
  5
21D4
330
A
100
AcDbEntity
  8
04
100
AcDbLine
 10
245.7494412096997
 20
321.3952896434443
 30
0.0
 11
247.1440788612031
 21
321.3952896434443
 31
0.0
  0
LINE
  5
21D5
330
A
100
AcDbEntity
  8
CHUSIN
100
AcDbLine
 10
238.2552167556364
 20
304.078246367706
 30
0.0
 11
238.2552167556364
 21
347.9749540833239
 31
0.0
  0
LINE
  5
21D6
330
A
100
AcDbEntity
  8
04
100
AcDbLine
 10
243.6703581140229
 20
344.7253537148366
 30
0.0
 11
244.7073823508274
 21
347.9749546844515
 31
0.0
  0
LINE
  5
21D7
330
A
100
AcDbEntity
  8
04
100
AcDbLine
 10
232.8400753972498
 20
344.7253537148366
 30
0.0
 11
231.8030511604454
 21
347.9749546844515
 31
0.0
  0
LINE
  5
21D8
330
A
100
AcDbEntity
  8
04
100
AcDbLine
 10
232.8400753972498
 20
344.7253537148366
 30
0.0
 11
243.6703581140229
 21
344.7253537148366
 31
0.0
  0
LINE
  5
21DD
330
A
100
AcDbEntity
  8
04
100
AcDbLine
 10
245.7494412096997
 20
347.9749540833239
 30
0.0
 11
244.7073823508274
 21
347.9749540833239
 31
0.0
  0
LINE
  5
21DE
330
A
100
AcDbEntity
  8
04
100
AcDbLine
 10
243.6703581140229
 20
307.2584392087068
 30
0.0
 11
244.7073823508274
 21
304.0088382390921
 31
0.0
  0
LINE
  5
21DF
330
A
100
AcDbEntity
  8
04
100
AcDbLine
 10
245.7494412096997
 20
304.0088382390921
 30
0.0
 11
244.7073823508274
 21
304.0088382390921
 31
0.0
  0
LINE
  5
21E0
330
A
100
AcDbEntity
  8
04
100
AcDbLine
 10
232.8400753972498
 20
307.2584392087068
 30
0.0
 11
243.6703581140229
 21
307.2584392087068
 31
0.0
  0
LINE
  5
21E1
330
A
100
AcDbEntity
  8
04
100
AcDbLine
 10
245.7494412096997
 20
347.9749540833239
 30
0.0
 11
245.7494412096997
 21
304.0088382390921
 31
0.0
  0
LINE
  5
21E2
330
A
100
AcDbEntity
  8
04
100
AcDbLine
 10
232.8400753972498
 20
307.2584392087068
 30
0.0
 11
231.8030511604454
 21
304.0088382390921
 31
0.0
  0
LINE
  5
21E3
330
A
100
AcDbEntity
  8
04
100
AcDbLine
 10
230.7609923015729
 20
304.0088382390921
 30
0.0
 11
231.8030511604454
 21
304.0088382390921
 31
0.0
  0
LINE
  5
21E4
330
A
100
AcDbEntity
  8
04
100
AcDbLine
 10
230.7609923015729
 20
347.9749540833239
 30
0.0
 11
230.7609923015729
 21
304.0088382390921
 31
0.0
  0
LINE
  5
21E5
330
A
100
AcDbEntity
  8
04
100
AcDbLine
 10
218.7709106568108
 20
316.4988336684488
 30
0.0
 11
220.7689738720098
 21
316.4989227646243
 31
0.0
  0
LINE
  5
21E6
330
A
100
AcDbEntity
  8
04
100
AcDbLine
 10
218.7709106568108
 20
336.4834183413135
 30
0.0
 11
220.7689738720098
 21
336.4834461838193
 31
0.0
  0
LINE
  5
21E7
330
A
100
AcDbEntity
  8
CHUSIN
100
AcDbLine
 10
207.7794524201383
 20
350.2337842529811
 30
0.0
 11
207.7794524201383
 21
301.2070832147073
 31
0.0
  0
LINE
  5
21E8
330
A
100
AcDbEntity
  8
CHUSIN
100
AcDbLine
 10
191.3846521583579
 20
326.491125707239
 30
0.0
 11
222.211998305933
 21
326.491125707239
 31
0.0
  0
LINE
  5
21EA
330
A
100
AcDbEntity
  8
04
100
AcDbLine
 10
196.7878846071005
 20
320.6925853767236
 30
0.0
 11
195.6794809523744
 21
320.6925832205068
 31
0.0
  0
LINE
  5
21EB
330
A
100
AcDbEntity
  8
04
100
AcDbLine
 10
195.1890915865959
 20
330.7414622608108
 30
0.0
 11
195.1891083293502
 21
322.1348464352105
 31
0.0
  0
LINE
  5
21ED
330
A
100
AcDbEntity
  8
04
100
AcDbLine
 10
196.7878510759064
 20
332.1837295395773
 30
0.0
 11
195.679458598245
 21
332.1837273833821
 31
0.0
  0
LINE
  5
21EE
330
A
100
AcDbEntity
  8
04
100
AcDbLine
 10
220.7689738720098
 20
307.0055105097178
 30
0.0
 11
225.2655085444478
 21
307.0055105097178
 31
0.0
  0
LINE
  5
21EF
330
A
100
AcDbEntity
  8
04
100
AcDbLine
 10
220.7689738720098
 20
334.9841736133861
 30
0.0
 11
225.2655085444478
 21
334.9841736133861
 31
0.0
  0
LINE
  5
21F0
330
A
100
AcDbEntity
  8
04
100
AcDbLine
 10
225.2666541514287
 20
312.5018864238781
 30
0.0
 11
225.2666541514287
 21
343.4775075506053
 31
0.0
  0
LINE
  5
21F1
330
A
100
AcDbEntity
  8
04
100
AcDbLine
 10
229.7631888238669
 20
312.5018864238781
 30
0.0
 11
229.7631888238669
 21
318.4976626063426
 31
0.0
  0
LINE
  5
21F2
330
A
100
AcDbEntity
  8
04
100
AcDbLine
 10
225.2666541514287
 20
312.5018864238781
 30
0.0
 11
229.7631888238669
 21
312.5018864238781
 31
0.0
  0
LINE
  5
21F3
330
A
100
AcDbEntity
  8
04
100
AcDbLine
 10
225.2666541514287
 20
344.4772440945486
 30
0.0
 11
229.7631888238669
 21
344.4772440945486
 31
0.0
  0
LINE
  5
21F4
330
A
100
AcDbEntity
  8
04
100
AcDbLine
 10
196.7878842768856
 20
301.0107725756353
 30
0.0
 11
196.7878400544321
 21
346.4758920680518
 31
0.0
  0
LINE
  5
21F5
330
A
100
AcDbEntity
  8
04
100
AcDbLine
 10
197.287499240498
 20
300.5111580979905
 30
0.0
 11
200.3295804741989
 21
300.5111580980426
 31
0.0
  0
LINE
  5
21F6
330
A
100
AcDbEntity
  8
04
100
AcDbLine
 10
215.2292066330861
 20
300.5111580980589
 30
0.0
 11
218.2712956932066
 21
300.5111580980588
 31
0.0
  0
LINE
  5
21F7
330
A
100
AcDbEntity
  8
04
100
AcDbLine
 10
202.5506477535116
 20
304.5080655634781
 30
0.0
 11
213.008135647648
 21
304.5080655634781
 31
0.0
  0
LINE
  5
21F8
330
A
100
AcDbEntity
  8
04
100
AcDbLine
 10
213.9733177475638
 20
303.767454973195
 30
0.0
 11
214.7466155831283
 21
300.8814633932003
 31
0.0
  0
LINE
  5
21F9
330
A
100
AcDbEntity
  8
04
100
AcDbLine
 10
201.585465343731
 20
303.7674538167585
 30
0.0
 11
200.8121716790804
 21
300.8814639714023
 31
0.0
  0
LINE
  5
21FC
330
A
100
AcDbEntity
  8
04
100
AcDbLine
 10
218.7709106568108
 20
346.3043110519476
 30
0.0
 11
218.7709106568108
 21
301.0107730616631
 31
0.0
  0
LINE
  5
21FF
330
A
100
AcDbEntity
  8
02
100
AcDbLine
 10
185.2963066374433
 20
301.5103847412523
 30
0.0
 11
185.2962892344253
 21
312.7068987134896
 31
0.0
  0
LINE
  5
2200
330
A
100
AcDbEntity
  8
02
100
AcDbLine
 10
202.7833123074882
 20
304.5080655634781
 30
0.0
 11
212.7756115795726
 21
304.5080655634781
 31
0.0
  0
LINE
  5
2201
330
A
100
AcDbEntity
  8
02
100
AcDbLine
 10
208.7788143138878
 20
300.5111458546443
 30
0.0
 11
213.0586249348557
 21
300.5111458546443
 31
0.0
  0
LINE
  5
2204
330
A
100
AcDbEntity
  8
02
100
AcDbLine
 10
187.2947664918574
 20
299.5119281707733
 30
0.0
 11
201.0394814893711
 21
299.5119281707733
 31
0.0
  0
LINE
  5
2205
330
A
100
AcDbEntity
  8
02
100
AcDbLine
 10
213.5563394857471
 20
300.9672251889969
 30
0.0
 11
213.7710406813548
 21
303.4217643777665
 31
0.0
  0
LINE
  5
2206
330
A
100
AcDbEntity
  8
02
100
AcDbLine
 10
202.0349090450308
 20
300.5982467244633
 30
0.0
 11
201.7878847740651
 21
303.4217470616511
 31
0.0
  0
LINE
  5
2207
330
A
100
AcDbEntity
  8
02
100
AcDbLine
 10
184.9983686410762
 20
313.0016275305497
 30
0.0
 11
185.2962883025491
 21
313.3014405412988
 31
0.0
  0
LINE
  5
2208
330
A
100
AcDbEntity
  8
02
100
AcDbLine
 10
185.2962883025491
 20
313.3064366909346
 30
0.0
 11
185.2961690555891
 21
359.9743688509214
 31
0.0
  0
LINE
  5
2209
330
A
100
AcDbEntity
  8
02
100
AcDbLine
 10
185.2962892344253
 20
312.7019025638535
 30
0.0
 11
184.9983686410762
 21
313.0016275305497
 31
0.0
  0
LINE
  5
2217
330
A
100
AcDbEntity
  8
CHUSIN
100
AcDbLine
 10
171.9141436253189
 20
313.0015524351957
 30
0.0
 11
193.6387588454429
 21
313.0015524351957
 31
0.0
  0
LINE
  5
2218
330
A
100
AcDbEntity
  8
CHUSIN
100
AcDbLine
 10
225.7648426655307
 20
325.9918964617718
 30
0.0
 11
250.7455908457419
 21
325.9918964617718
 31
0.0
  0
LINE
  5
2219
330
A
100
AcDbEntity
  8
04
100
AcDbLine
 10
229.7631888238669
 20
333.4858614372581
 30
0.0
 11
230.7609923015729
 21
333.4858614372581
 31
0.0
  0
LINE
  5
221A
330
A
100
AcDbEntity
  8
04
100
AcDbLine
 10
230.760591074863
 20
318.4976626063427
 30
0.0
 11
229.7631888238669
 21
318.4976626063426
 31
0.0
  0
LINE
  5
221B
330
A
100
AcDbEntity
  8
04
100
AcDbLine
 10
220.7689738720098
 20
343.4775075506053
 30
0.0
 11
220.7689738720098
 21
334.9841736133861
 31
0.0
  0
LINE
  5
2228
330
A
100
AcDbEntity
  8
02
100
AcDbLine
 10
208.7788143138878
 20
300.5111458546443
 30
0.0
 11
208.7788143138878
 21
297.0138411094146
 31
0.0
  0
LINE
  5
2229
330
A
100
AcDbEntity
  8
02
100
AcDbLine
 10
213.2752265565637
 20
297.0138411094146
 30
0.0
 11
208.7788143138878
 21
297.0138411094146
 31
0.0
  0
ARC
  5
222A
330
A
100
AcDbEntity
  8
02
100
AcDbCircle
 10
213.2752265699508
 20
296.5142261458103
 30
0.0
 40
0.4996149636042257
100
AcDbArc
 50
0.0
 51
90.0000015352286
  0
LINE
  5
222B
330
A
100
AcDbEntity
  8
02
100
AcDbLine
 10
213.7748415335551
 20
296.5142261458103
 30
0.0
 11
213.7748415335551
 21
295.0152090120208
 31
0.0
  0
ARC
  5
222C
330
A
100
AcDbEntity
  8
02
100
AcDbCircle
 10
212.7756116063467
 20
295.0152090120208
 30
0.0
 40
0.9992299272084601
100
AcDbArc
 50
269.99966224729
 51
0.0
  0
LINE
  5
222D
330
A
100
AcDbEntity
  8
02
100
AcDbLine
 10
182.29848917952
 20
294.0163352261516
 30
0.0
 11
212.7756057159894
 21
294.0159790848298
 31
0.0
  0
ARC
  5
222E
330
A
100
AcDbEntity
  8
04
100
AcDbCircle
 10
217.7712896350291
 20
281.0266363300044
 30
0.0
 40
7.494224454063436
100
AcDbArc
 50
336.4199960186155
 51
0.0
  0
ARC
  5
222F
330
A
100
AcDbEntity
  8
KAKURE
100
AcDbCircle
 10
217.7712840903843
 20
281.126203972046
 30
0.0
 40
2.997689781625353
100
AcDbArc
 50
269.9981744855989
 51
332.1856448132978
  0
ARC
  5
2230
330
A
100
AcDbEntity
  8
KAKURE
100
AcDbCircle
 10
217.7712896350291
 20
281.0266363300044
 30
0.0
 40
7.494224454063383
100
AcDbArc
 50
270.0
 51
336.4199960186155
  0
ARC
  5
2231
330
A
100
AcDbEntity
  8
04
100
AcDbCircle
 10
217.8969309918088
 20
284.3365523525426
 30
0.0
 40
2.885129280684245
100
AcDbArc
 50
49.46860505810437
 51
90.0
  0
ARC
  5
2232
330
A
100
AcDbEntity
  8
04
100
AcDbCircle
 10
206.6583689221466
 20
284.3365523525426
 30
0.0
 40
2.885129280684245
100
AcDbArc
 50
90.0
 51
130.5313949418956
  0
LINE
  5
2234
330
A
100
AcDbEntity
  8
04
100
AcDbLine
 10
196.2878462000473
 20
273.532411875941
 30
0.0
 11
225.2655140890924
 21
273.532411875941
 31
0.0
  0
LINE
  5
2235
330
A
100
AcDbEntity
  8
04
100
AcDbLine
 10
196.2878462000473
 20
278.1291986793236
 30
0.0
 11
196.2878462000473
 21
273.532411875941
 31
0.0
  0
LINE
  5
2236
330
A
100
AcDbEntity
  8
04
100
AcDbLine
 10
229.9325625552202
 20
283.0246802962816
 30
0.0
 11
228.9333322900116
 21
283.0246798421693
 31
0.0
  0
LINE
  5
2237
330
A
100
AcDbEntity
  8
04
100
AcDbLine
 10
229.9325636569971
 20
283.0246802962923
 30
0.0
 11
229.9325597425336
 21
283.4243736720703
 31
0.0
  0
LINE
  5
2238
330
A
100
AcDbEntity
  8
04
100
AcDbLine
 10
229.9324657955185
 20
293.0170036229625
 30
0.0
 11
228.9332354089614
 21
293.0169578817976
 31
0.0
  0
LINE
  5
2239
330
A
100
AcDbEntity
  8
KAKURE
100
AcDbLine
 10
219.7694192982168
 20
273.533055755189
 30
0.0
 11
219.7694192982168
 21
278.1285141904206
 31
0.0
  0
LINE
  5
223A
330
A
100
AcDbEntity
  8
04
100
AcDbLine
 10
225.2655140890924
 20
273.532411875941
 30
0.0
 11
225.2655140890924
 21
278.1282754149835
 31
0.0
  0
LINE
  5
223C
330
A
100
AcDbEntity
  8
04
100
AcDbLine
 10
204.7812702674839
 20
290.5686143571436
 30
0.0
 11
203.7820403402754
 21
290.5686143571436
 31
0.0
  0
LINE
  5
223E
330
A
100
AcDbEntity
  8
04
100
AcDbLine
 10
215.2732083100906
 20
292.5171133725547
 30
0.0
 11
220.7689738720098
 21
292.5170549779869
 31
0.0
  0
LINE
  5
223F
330
A
100
AcDbEntity
  8
04
100
AcDbLine
 10
202.7828146957604
 20
287.388102585035
 30
0.0
 11
202.7828265669592
 21
290.7185651714808
 31
0.0
  0
LINE
  5
2240
330
A
100
AcDbEntity
  8
04
100
AcDbLine
 10
203.0825966130689
 20
291.0183158531109
 30
0.0
 11
202.7828265669592
 21
290.7185651714808
 31
0.0
  0
LINE
  5
2241
330
A
100
AcDbEntity
  8
04
100
AcDbLine
 10
203.7820403402754
 20
291.0182731622573
 30
0.0
 11
203.0825966130689
 21
291.0183158531109
 31
0.0
  0
LINE
  5
2242
330
A
100
AcDbEntity
  8
04
100
AcDbLine
 10
204.7812702674839
 20
290.5686143571436
 30
0.0
 11
204.7812694193005
 21
293.5163737681908
 31
0.0
  0
LINE
  5
2243
330
A
100
AcDbEntity
  8
04
100
AcDbLine
 10
215.2732058202581
 20
293.5163127799633
 30
0.0
 11
215.2732739826527
 21
292.5171133718569
 31
0.0
  0
LINE
  5
2244
330
A
100
AcDbEntity
  8
04
100
AcDbLine
 10
204.7812694193007
 20
293.5163737681908
 30
0.0
 11
215.2732058202581
 21
293.5163127799633
 31
0.0
  0
LINE
  5
2245
330
A
100
AcDbEntity
  8
04
100
AcDbLine
 10
225.2655140890924
 20
278.1282754149834
 30
0.0
 11
196.2878462000473
 21
278.1291986793236
 31
0.0
  0
LINE
  5
2247
330
A
100
AcDbEntity
  8
04
100
AcDbLine
 10
228.9332030316189
 20
279.0277032016584
 30
0.0
 11
225.2655085444478
 21
279.0277032016584
 31
0.0
  0
LINE
  5
2248
330
A
100
AcDbEntity
  8
04
100
AcDbLine
 10
220.7711043382496
 20
279.7274571791635
 30
0.0
 11
219.9717203964828
 21
279.7274571791635
 31
0.0
  0
LINE
  5
2249
330
A
100
AcDbEntity
  8
04
100
AcDbLine
 10
220.7711043382496
 20
278.12868929563
 30
0.0
 11
220.7711043382496
 21
279.7274571791635
 31
0.0
  0
LINE
  5
224A
330
A
100
AcDbEntity
  8
04
100
AcDbLine
 10
220.7711043382496
 20
278.12868929563
 30
0.0
 11
203.7841955757059
 21
278.12868929563
 31
0.0
  0
LINE
  5
224B
330
A
100
AcDbEntity
  8
04
100
AcDbLine
 10
203.7841955757059
 20
278.12868929563
 30
0.0
 11
203.7841955757059
 21
279.7274571791635
 31
0.0
  0
LINE
  5
224E
330
A
100
AcDbEntity
  8
04
100
AcDbLine
 10
219.9717203964828
 20
281.7259170335803
 30
0.0
 11
219.7718744110412
 21
281.7259170335803
 31
0.0
  0
LINE
  5
224F
330
A
100
AcDbEntity
  8
04
100
AcDbLine
 10
219.9717203964828
 20
279.7274571791635
 30
0.0
 11
219.9717203964828
 21
281.7259170335803
 31
0.0
  0
LINE
  5
2250
330
A
100
AcDbEntity
  8
04
100
AcDbLine
 10
204.5835795174725
 20
279.7274571791635
 30
0.0
 11
204.5835795174725
 21
281.7259170335803
 31
0.0
  0
LINE
  5
2252
330
A
100
AcDbEntity
  8
04
100
AcDbLine
 10
204.7834255029143
 20
281.7259170335803
 30
0.0
 11
204.7834255029143
 21
286.5293948322796
 31
0.0
  0
LINE
  5
2253
330
A
100
AcDbEntity
  8
04
100
AcDbLine
 10
217.8969309918088
 20
287.2216816332268
 30
0.0
 11
206.6583689221466
 21
287.2216816332268
 31
0.0
  0
LINE
  5
2255
330
A
100
AcDbEntity
  8
04
100
AcDbLine
 10
219.7718744110412
 20
281.7259170335803
 30
0.0
 11
219.7718744110412
 21
286.5293948322796
 31
0.0
  0
LINE
  5
225B
330
A
100
AcDbEntity
  8
04
100
AcDbLine
 10
234.7288533686571
 20
284.1238534426993
 30
0.0
 11
234.7287821970475
 21
291.9178721299843
 31
0.0
  0
LINE
  5
225C
330
A
100
AcDbEntity
  8
04
100
AcDbLine
 10
234.314183598655
 20
283.405701890736
 30
0.0
 11
234.7288533686571
 21
284.1238534426993
 31
0.0
  0
LINE
  5
225D
330
A
100
AcDbEntity
  8
04
100
AcDbLine
 10
234.3140939449421
 20
292.6361370906887
 30
0.0
 11
234.7287821970475
 21
291.9178721299843
 31
0.0
  0
LINE
  5
225E
330
A
100
AcDbEntity
  8
04
100
AcDbLine
 10
231.231556306806
 20
283.405607307047
 30
0.0
 11
234.314183598655
 21
283.405701890736
 31
0.0
  0
LINE
  5
225F
330
A
100
AcDbEntity
  8
04
100
AcDbLine
 10
231.2314672568475
 20
292.6360718858203
 30
0.0
 11
234.3140939449421
 21
292.6361370906887
 31
0.0
  0
LINE
  5
2262
330
A
100
AcDbEntity
  8
04
100
AcDbLine
 10
231.231558108567
 20
283.4243252640208
 30
0.0
 11
229.9325587519386
 21
283.4243736721072
 31
0.0
  0
LINE
  5
2263
330
A
100
AcDbEntity
  8
04
100
AcDbLine
 10
231.2314681109759
 20
292.617311383653
 30
0.0
 11
229.9324712765806
 21
292.6173083304651
 31
0.0
  0
LINE
  5
2266
330
A
100
AcDbEntity
  8
04
100
AcDbLine
 10
225.2655085444478
 20
279.0277032016584
 30
0.0
 11
225.2655085444478
 21
297.0137708077873
 31
0.0
  0
LINE
  5
2267
330
A
100
AcDbEntity
  8
04
100
AcDbLine
 10
228.9332030316189
 20
297.0137708077873
 30
0.0
 11
228.9332354089614
 21
293.0169578817976
 31
0.0
  0
LINE
  5
2268
330
A
100
AcDbEntity
  8
04
100
AcDbLine
 10
225.2655085444478
 20
297.0137708077873
 30
0.0
 11
228.9332030316189
 21
297.0137708077873
 31
0.0
  0
LINE
  5
2269
330
A
100
AcDbEntity
  8
04
100
AcDbLine
 10
225.2655140890924
 20
343.6082227614223
 30
0.0
 11
225.2655140890924
 21
281.0262809793251
 31
0.0
  0
LINE
  5
226A
330
A
100
AcDbEntity
  8
04
100
AcDbLine
 10
220.7689738720098
 20
343.4775075506053
 30
0.0
 11
220.7689738720098
 21
281.126203972046
 31
0.0
  0
ARC
  5
226B
330
A
100
AcDbEntity
  8
KAKURE
100
AcDbCircle
 10
248.8022991325508
 20
281.0263903099826
 30
0.0
 40
2.997689781625353
100
AcDbArc
 50
270.0
 51
0.0
  0
ARC
  5
226C
330
A
100
AcDbEntity
  8
KAKURE
100
AcDbCircle
 10
249.3053536146295
 20
280.5270213664268
 30
0.0
 40
6.994609490459156
100
AcDbArc
 50
270.0
 51
0.0
  0
ARC
  5
226D
330
A
100
AcDbEntity
  8
04
100
AcDbCircle
 10
254.8914791850136
 20
284.2365635851513
 30
0.0
 40
2.885129280684245
100
AcDbArc
 50
49.46860505810437
 51
90.0
  0
ARC
  5
226E
330
A
100
AcDbEntity
  8
04
100
AcDbCircle
 10
243.6529171153518
 20
284.2365635851513
 30
0.0
 40
2.885129280684245
100
AcDbArc
 50
90.0
 51
130.5313949418956
  0
LINE
  5
2270
330
A
100
AcDbEntity
  8
04
100
AcDbLine
 10
236.2568217951077
 20
273.532411875941
 30
0.0
 11
275.2264881630218
 21
273.532411875941
 31
0.0
  0
LINE
  5
2271
330
A
100
AcDbEntity
  8
KAKURE
100
AcDbLine
 10
269.7310243565908
 20
273.532411875941
 30
0.0
 11
269.7310243565908
 21
278.0287005282385
 31
0.0
  0
LINE
  5
2272
330
A
100
AcDbEntity
  8
KAKURE
100
AcDbLine
 10
251.7999889141761
 20
281.0263903099826
 30
0.0
 11
251.7999889141761
 21
287.1216928659543
 31
0.0
  0
LINE
  5
2273
330
A
100
AcDbEntity
  8
KAKURE
100
AcDbLine
 10
256.2999631050887
 20
280.5270213664268
 30
0.0
 11
256.2999631051031
 21
286.7545278448481
 31
0.0
  0
LINE
  5
2274
330
A
100
AcDbEntity
  8
04
100
AcDbLine
 10
275.2264881630218
 20
273.532411875941
 30
0.0
 11
275.2264881630218
 21
278.0287005282385
 31
0.0
  0
LINE
  5
2275
330
A
100
AcDbEntity
  8
04
100
AcDbLine
 10
236.2568217951077
 20
273.532411875941
 30
0.0
 11
236.2568217951077
 21
278.0287005282385
 31
0.0
  0
LINE
  5
2276
330
A
100
AcDbEntity
  8
04
100
AcDbLine
 10
236.2568217951077
 20
278.0287005282385
 30
0.0
 11
275.2264881630218
 21
278.0287005282385
 31
0.0
  0
LINE
  5
2278
330
A
100
AcDbEntity
  8
04
100
AcDbLine
 10
257.7656525314547
 20
278.0287005282385
 30
0.0
 11
257.7656525314547
 21
279.6274684117722
 31
0.0
  0
LINE
  5
2279
330
A
100
AcDbEntity
  8
04
100
AcDbLine
 10
257.7656525314547
 20
278.0287005282385
 30
0.0
 11
240.7787437689109
 21
278.0287005282385
 31
0.0
  0
LINE
  5
227A
330
A
100
AcDbEntity
  8
04
100
AcDbLine
 10
240.7787437689109
 20
278.0287005282385
 30
0.0
 11
240.7787437689109
 21
279.6274684117722
 31
0.0
  0
LINE
  5
227E
330
A
100
AcDbEntity
  8
04
100
AcDbLine
 10
256.9662685896878
 20
279.6274684117722
 30
0.0
 11
256.9662685896878
 21
281.6259282661891
 31
0.0
  0
LINE
  5
227F
330
A
100
AcDbEntity
  8
04
100
AcDbLine
 10
241.5781277106777
 20
279.6274684117722
 30
0.0
 11
241.5781277106777
 21
281.6259282661891
 31
0.0
  0
LINE
  5
2281
330
A
100
AcDbEntity
  8
04
100
AcDbLine
 10
241.7779736961194
 20
281.6259282661891
 30
0.0
 11
241.7779736961194
 21
286.4294060648882
 31
0.0
  0
LINE
  5
2282
330
A
100
AcDbEntity
  8
04
100
AcDbLine
 10
254.8914791850136
 20
287.1216928658355
 30
0.0
 11
243.6529171153518
 21
287.1216928658355
 31
0.0
  0
LINE
  5
2284
330
A
100
AcDbEntity
  8
04
100
AcDbLine
 10
256.7664226042462
 20
281.6259282661891
 30
0.0
 11
256.7664226042462
 21
286.4294060648882
 31
0.0
  0
ARC
  5
255F
330
A
100
AcDbEntity
  8
02
100
AcDbCircle
 10
182.2985125325866
 20
296.0147950804314
 30
0.0
 40
1.998459854416901
100
AcDbArc
 50
180.0
 51
269.9992834846511
  0
DIMENSION
  5
2748
330
A
100
AcDbEntity
  8
SUNPOU
100
AcDbDimension
  2
*D22
 10
283.3
 20
231.7848041893106
 30
0.0
 11
274.3001718936098
 21
236.2848041893106
 31
0.0
 70
    32
  3
SUNPOU_2
100
AcDbAlignedDimension
 13
270.3003437872196
 23
231.7848041893106
 33
0.0
 14
283.3
 24
258.7663352261516
 34
0.0
100
AcDbRotatedDimension
1001
ACAD
1000
DSTYLE
1002
{
1070
   287
1070
     5
1070
     6
1000
DOTSMALL
1070
     5
1000

1070
   173
1070
     1
1070
     7
1000
OPEN30
1070
   289
1070
     1
1070
   279
1070
     2
1070
   174
1070
     1
1002
}
  0
DIMENSION
  5
2755
330
A
100
AcDbEntity
  8
SUNPOU
100
AcDbDimension
  2
*D23
 10
286.2999999999999
 20
231.7848041893106
 30
0.0
 11
294.0139953144803
 21
236.2135377121535
 31
0.0
 70
   160
  3
SUNPOU_2
100
AcDbAlignedDimension
 13
283.3
 23
258.7663352261516
 33
0.0
 14
286.2999999999999
 24
258.0163352261517
 34
0.0
100
AcDbRotatedDimension
  0
ARC
  5
28C6
330
A
100
AcDbEntity
  8
04
100
AcDbCircle
 10
245.6976939377954
 20
329.4343936388496
 30
0.0
 40
1.850218890627199
100
AcDbArc
 50
0.0
 51
38.58009309648116
  0
ARC
  5
28C7
330
A
100
AcDbEntity
  8
04
100
AcDbCircle
 10
245.6976939377954
 20
322.5491009783565
 30
0.0
 40
1.850218890627204
100
AcDbArc
 50
321.4199069035188
 51
0.0
  0
ARC
  5
28CD
330
A
100
AcDbEntity
  8
04
100
AcDbCircle
 10
197.555253213849
 20
330.7414668637887
 30
0.0
 40
2.366161627257562
100
AcDbArc
 50
142.4440450146146
 51
180.0001114595069
  0
ARC
  5
28CE
330
A
100
AcDbEntity
  8
04
100
AcDbCircle
 10
197.5552699566033
 20
322.1348510381885
 30
0.0
 40
2.366161627257564
100
AcDbArc
 50
180.0001114595069
 51
217.556177904398
  0
LINE
  5
28D9
330
A
100
AcDbEntity
  8
04
100
AcDbLine
 10
199.2703379217815
 20
361.849787520304
 30
0.0
 11
199.6850317378497
 21
362.568074955337
 31
0.0
  0
INSERT
  5
290F
330
A
100
AcDbEntity
  8
06
  6
CONTINUOUS
100
AcDbBlockReference
  2
*X34
 10
0.0
 20
0.0
 30
0.0
1001
ACAD
1000
HATCH
1002
{
1070
    19
1000
ANSI31
1040
15.0
1040
0.0
1000
R14_HATCH_DATA
1000
290F
1011
1.0
1021
0.0
1031
0.0
1011
0.0
1021
1.0
1031
0.0
1011
0.0
1021
0.0
1031
1.0
1040
0.0
1010
0.0
1020
0.0
1030
1.0
1000
ANSI31
1070
     0
1070
     0
1071
        6
1071
        7
1070
     0
1070
     1
1071
        4
1040
160.3
1040
282.1163352261517
1040
154.3
1040
282.1163352261517
1040
154.3
1040
276.1163352261517
1040
160.3
1040
276.1163352261517
1071
        0
1071
        7
1070
     0
1070
     1
1071
        4
1040
160.3
1040
276.1163352261517
1040
154.3
1040
276.1163352261517
1040
154.2999999999999
1040
274.5163352261517
1040
160.3
1040
274.5163352261517
1071
        0
1071
        7
1070
     0
1070
     1
1071
        4
1040
160.3
1040
274.5163352261517
1040
154.3
1040
274.5163352261517
1040
154.2999999999999
1040
273.0163352261515
1040
160.3
1040
273.0163352261516
1071
        0
1071
        7
1070
     0
1070
     1
1071
        4
1040
166.3
1040
274.5163352261517
1040
160.3
1040
274.5163352261517
1040
160.3
1040
273.0163352261515
1040
166.2999999999998
1040
273.0163352261516
1071
        0
1071
        7
1070
     0
1070
     1
1071
        4
1040
166.3
1040
276.1163352261517
1040
160.3
1040
276.1163352261517
1040
160.3
1040
274.5163352261517
1040
166.3
1040
274.5163352261517
1071
        0
1071
        7
1070
     0
1070
     1
1071
        4
1040
166.3
1040
282.1163352261517
1040
160.3
1040
282.1163352261517
1040
160.2999999999999
1040
276.1163352261517
1040
166.3
1040
276.1163352261517
1071
        0
1070
     0
1070
     1
1040
0.0
1040
15.0
1070
     0
1070
     1
1040
0.7853981633974483
1040
0.0
1040
0.0
1040
-1.325825214724775
1040
1.325825214724775
1070
     0
1040
0.0645476893175437
1071
        6
1040
157.9836973869154
1040
277.6579601331809
1040
0.0
1040
157.9836973869154
1040
275.3342441476281
1040
0.0
1040
158.3711451689621
1040
273.8496462867124
1040
0.0
1040
162.6976293739136
1040
273.7850996962158
1040
0.0
1040
162.8267786345959
1040
275.4633387117526
1040
0.0
1040
163.6016706369332
1040
278.3034371031969
1040
0.0
1002
}
  0
LINE
  5
2A8E
330
A
100
AcDbEntity
  8
04
100
AcDbLine
 10
251.7999924986193
 20
420.9558096624975
 30
0.0
 11
251.7999889141761
 21
287.1216928658355
 31
0.0
  0
LINE
  5
2A8F
330
A
100
AcDbEntity
  8
04
100
AcDbLine
 10
256.2999630439457
 20
420.9557965462525
 30
0.0
 11
256.2999631051031
 21
286.7545278448483
 31
0.0
  0
LINE
  5
2ADD
330
A
100
AcDbEntity
  8
02
100
AcDbLine
 10
184.3000772292763
 20
425.4558751860563
 30
0.0
 11
188.500021718978
 21
425.4558897143913
 31
0.0
  0
LINE
  5
2ADE
330
A
100
AcDbEntity
  8
02
100
AcDbLine
 10
188.4998656044988
 20
495.4562473528646
 30
0.0
 11
188.5001276665586
 21
492.9559434404236
 31
0.0
  0
LINE
  5
2ADF
330
A
100
AcDbEntity
  8
02
100
AcDbLine
 10
188.4999815285345
 20
492.9561277791314
 30
0.0
 11
189.8000651776317
 21
492.9559446735678
 31
0.0
  0
LINE
  5
2AE0
330
A
100
AcDbEntity
  8
02
100
AcDbLine
 10
184.300018601971
 20
495.4559241468087
 30
0.0
 11
188.5000044365057
 21
495.4555122184351
 31
0.0
  0
LINE
  5
2B02
330
A
100
AcDbEntity
  8
02
100
AcDbLine
 10
184.5001700078496
 20
495.4562269626674
 30
0.0
 11
188.4999441794302
 21
495.4560680478578
 31
0.0
  0
ARC
  5
2B11
330
A
100
AcDbEntity
  8
02
100
AcDbCircle
 10
228.9449434122553
 20
389.5888886918903
 30
0.0
 40
0.9999999999999998
100
AcDbArc
 50
304.7217982668808
 51
4.999999999999743
  0
LINE
  5
2B12
330
A
100
AcDbEntity
  8
02
100
AcDbLine
 10
229.8042119274199
 20
391.241117867113
 30
0.0
 11
229.9411381103471
 21
389.6760444346379
 31
0.0
  0
ARC
  5
2B13
330
A
100
AcDbEntity
  8
02
100
AcDbCircle
 10
242.3304504345233
 20
385.9556956586354
 30
0.0
 40
0.9999999999999998
100
AcDbArc
 50
269.9997942983023
 51
355.0008160366426
  0
LINE
  5
2B14
330
A
100
AcDbEntity
  8
02
100
AcDbLine
 10
243.3266463738319
 20
385.8685541042258
 30
0.0
 11
243.7966065547373
 21
391.2411048582952
 31
0.0
  0
ARC
  5
2B15
330
A
100
AcDbEntity
  8
02
100
AcDbCircle
 10
188.3005888795368
 20
383.9555597554367
 30
0.0
 40
3.0
100
AcDbArc
 50
180.0002726410831
 51
270.0005115483221
  0
ARC
  5
2B16
330
A
100
AcDbEntity
  8
02
100
AcDbCircle
 10
233.5802268369654
 20
381.9558335876429
 30
0.0
 40
3.0
100
AcDbArc
 50
89.99979186651115
 51
136.2187368015925
  0
ARC
  5
2B17
330
A
100
AcDbEntity
  8
02
100
AcDbCircle
 10
219.9464189270065
 20
374.9557238095345
 30
0.0
 40
1.999999999999999
100
AcDbArc
 50
270.000127435914
 51
316.218736801595
  0
LINE
  5
2B18
330
A
100
AcDbEntity
  8
02
100
AcDbLine
 10
231.4142672368066
 20
384.0315549105764
 30
0.0
 11
221.390391993779
 21
373.5719095942456
 31
0.0
  0
ARC
  5
2B19
330
A
100
AcDbEntity
  8
02
100
AcDbCircle
 10
215.8618186590699
 20
382.955642599204
 30
0.0
 40
3.0
100
AcDbArc
 50
269.9999999999982
 51
304.7217982668808
  0
LINE
  5
2B1A
330
A
100
AcDbEntity
  8
02
100
AcDbLine
 10
229.5145356804358
 20
388.7669612936189
 30
0.0
 11
217.5705954636113
 21
380.4898604043901
 31
0.0
  0
LINE
  5
2B1B
330
A
100
AcDbEntity
  8
02
100
AcDbLine
 10
201.8012971067636
 20
392.4551139288618
 30
0.0
 11
202.8017895311584
 21
392.4551139288619
 31
0.0
  0
LINE
  5
2B20
330
A
100
AcDbEntity
  8
02
100
AcDbLine
 10
185.3013328325937
 20
392.4551139288619
 30
0.0
 11
186.3014156476544
 21
392.4551139288619
 31
0.0
  0
ARC
  5
2B21
330
A
100
AcDbEntity
  8
02
100
AcDbCircle
 10
201.3012971067636
 20
400.9549563470753
 30
0.0
 40
0.5
100
AcDbArc
 50
0.0
 51
89.99825599077464
  0
LINE
  5
2B22
330
A
100
AcDbEntity
  8
02
100
AcDbLine
 10
201.8012971067636
 20
400.9549563470753
 30
0.0
 11
201.8012971067636
 21
392.4551139288618
 31
0.0
  0
ARC
  5
2B23
330
A
100
AcDbEntity
  8
02
100
AcDbCircle
 10
201.801384582311
 20
401.4551139289611
 30
0.0
 40
0.9999999999999998
100
AcDbArc
 50
0.0
 51
89.99919302646956
  0
ARC
  5
2B24
330
A
100
AcDbEntity
  8
02
100
AcDbCircle
 10
186.8014156476544
 20
400.9549563470753
 30
0.0
 40
0.5
100
AcDbArc
 50
90.00174400922373
 51
180.0
  0
LINE
  5
2B25
330
A
100
AcDbEntity
  8
02
100
AcDbLine
 10
186.3014156476543
 20
400.9549563470753
 30
0.0
 11
186.3014156476544
 21
392.4551139288619
 31
0.0
  0
LINE
  5
2B26
330
A
100
AcDbEntity
  8
02
100
AcDbLine
 10
201.3017321490216
 20
401.4552455246207
 30
0.0
 11
186.8014004283027
 21
401.4549563468437
 31
0.0
  0
ARC
  5
2B27
330
A
100
AcDbEntity
  8
02
100
AcDbCircle
 10
186.301328172107
 20
401.4551139289611
 30
0.0
 40
0.9999999999999998
100
AcDbArc
 50
90.00054666709623
 51
180.0
  0
LINE
  5
2B28
330
A
100
AcDbEntity
  8
02
100
AcDbLine
 10
186.3013186309663
 20
402.4551139289053
 30
0.0
 11
201.8017670765698
 21
402.4552618208653
 31
0.0
  0
ARC
  5
2B2B
330
A
100
AcDbEntity
  8
02
100
AcDbCircle
 10
204.8009927874413
 20
391.2728512025827
 30
0.0
 40
0.9999999999999998
100
AcDbArc
 50
322.304254631704
 51
0.0
  0
ARC
  5
2B2C
330
A
100
AcDbEntity
  8
02
100
AcDbCircle
 10
201.3923191755011
 20
381.955642599204
 30
0.0
 40
1.999999999999999
100
AcDbArc
 50
142.304254631704
 51
270.0000000000031
  0
LINE
  5
2B2D
330
A
100
AcDbEntity
  8
02
100
AcDbLine
 10
205.5922617285935
 20
390.6613829182312
 30
0.0
 11
199.8097812931966
 21
383.178579167907
 31
0.0
  0
ARC
  5
2B2E
330
A
100
AcDbEntity
  8
02
100
AcDbCircle
 10
183.2997288278876
 20
375.9557130307733
 30
0.0
 40
3.0
100
AcDbArc
 50
180.6930982698889
 51
270.0
  0
LINE
  5
2B2F
330
A
100
AcDbEntity
  8
02
100
AcDbLine
 10
219.9464233753591
 20
372.9557238095395
 30
0.0
 11
183.2997288278876
 21
372.9557130307735
 31
0.0
  0
ARC
  5
2B30
330
A
100
AcDbEntity
  8
02
100
AcDbCircle
 10
193.303393683379
 20
382.9556048682809
 30
0.0
 40
1.999999999999999
100
AcDbArc
 50
270.0004858737481
 51
323.0000000000007
  0
LINE
  5
2B31
330
A
100
AcDbEntity
  8
02
100
AcDbLine
 10
202.8005927537702
 20
391.9550543423884
 30
0.0
 11
194.300563271556
 21
380.9556133243034
 31
0.0
  0
ARC
  5
2B32
330
A
100
AcDbEntity
  8
02
100
AcDbCircle
 10
203.8005927537695
 20
401.4554962404376
 30
0.0
 40
0.9999999999999998
100
AcDbArc
 50
90.00104911645825
 51
180.0
  0
LINE
  5
2B33
330
A
100
AcDbEntity
  8
02
100
AcDbLine
 10
202.8005927537696
 20
401.4554962404376
 30
0.0
 11
202.8005927537702
 21
391.9550543423884
 31
0.0
  0
LINE
  5
2B49
330
A
100
AcDbEntity
  8
02
100
AcDbLine
 10
201.3923191755011
 20
379.955642599204
 30
0.0
 11
215.8618186590699
 21
379.955642599204
 31
0.0
  0
ARC
  5
2B4A
330
A
100
AcDbEntity
  8
02
100
AcDbCircle
 10
204.8009927874413
 20
401.4555145582987
 30
0.0
 40
0.9999999999999998
100
AcDbArc
 50
0.0
 51
90.00104911645825
  0
LINE
  5
2B4B
330
A
100
AcDbEntity
  8
02
100
AcDbLine
 10
205.8009927874413
 20
401.4555145582987
 30
0.0
 11
205.8009927874413
 21
391.2728512025827
 31
0.0
  0
LINE
  5
2B4C
330
A
100
AcDbEntity
  8
02
100
AcDbLine
 10
188.3006156641443
 20
380.9555597555561
 30
0.0
 11
194.300563271556
 21
380.9556133243034
 31
0.0
  0
LINE
  5
2B4D
330
A
100
AcDbEntity
  8
02
100
AcDbLine
 10
185.3005143002335
 20
407.6285020533972
 30
0.0
 11
185.3006269476331
 21
383.955545480164
 31
0.0
  0
LINE
  5
2B4E
330
A
100
AcDbEntity
  8
02
100
AcDbLine
 10
203.800574443233
 20
402.4554962402698
 30
0.0
 11
204.8009744769049
 21
402.455514558131
 31
0.0
  0
LINE
  5
2B4F
330
A
100
AcDbEntity
  8
02
100
AcDbLine
 10
184.9735314153839
 20
407.9554867250326
 30
0.0
 11
185.3005143002335
 21
407.6285020533972
 31
0.0
  0
LINE
  5
2B50
330
A
100
AcDbEntity
  8
02
100
AcDbLine
 10
184.9735314153839
 20
407.9554867250326
 30
0.0
 11
185.2996635462492
 21
408.2816013254479
 31
0.0
  0
LINE
  5
2B52
330
A
100
AcDbEntity
  8
02
100
AcDbLine
 10
185.299642043841
 20
412.8558018022529
 30
0.0
 11
185.2996635462492
 21
408.2816013254479
 31
0.0
  0
ARC
  5
2B53
330
A
100
AcDbEntity
  8
02
100
AcDbCircle
 10
236.8003940762887
 20
362.955759547585
 30
0.0
 40
30.0
100
AcDbArc
 50
78.05942325897667
 51
101.9405240312553
  0
LINE
  5
2B54
330
A
100
AcDbEntity
  8
02
100
AcDbLine
 10
242.3304468443514
 20
384.9556956586419
 30
0.0
 11
233.5805160578864
 21
384.9557270723976
 31
0.0
  0
ARC
  5
2B55
330
A
100
AcDbEntity
  8
02
100
AcDbCircle
 10
230.8004066255116
 20
391.3282736098606
 30
0.0
 40
0.9999999999999998
100
AcDbArc
 50
101.9405240312553
 51
184.9999999999996
  0
ARC
  5
2B56
330
A
100
AcDbEntity
  8
02
100
AcDbCircle
 10
242.8004106154285
 20
391.328246412705
 30
0.0
 40
0.9999999999999998
100
AcDbArc
 50
355.0008160366426
 51
78.05942325897667
  0
LINE
  5
2B57
330
A
100
AcDbEntity
  8
02
100
AcDbLine
 10
188.4998990645555
 20
495.4561433556188
 30
0.0
 11
188.4999018089609
 21
492.955923411563
 31
0.0
  0
LINE
  5
2B58
330
A
100
AcDbEntity
  8
02
100
AcDbLine
 10
188.4999664701146
 20
425.4559831258982
 30
0.0
 11
188.4999615010124
 21
427.9559808379361
 31
0.0
  0
LINE
  5
2B59
330
A
100
AcDbEntity
  8
02
100
AcDbLine
 10
189.8000840681803
 20
427.9559887342375
 30
0.0
 11
190.8000560613686
 21
425.9560382985013
 31
0.0
  0
LINE
  5
2B5A
330
A
100
AcDbEntity
  8
02
100
AcDbLine
 10
188.4999615010124
 20
427.9559808379361
 30
0.0
 11
189.8000846671583
 21
427.9559829350755
 31
0.0
  0
LINE
  5
2B5B
330
A
100
AcDbEntity
  8
02
100
AcDbLine
 10
188.4998110755642
 20
495.4562925534913
 30
0.0
 11
188.5000724176675
 21
492.9560660174598
 31
0.0
  0
LINE
  5
2B5C
330
A
100
AcDbEntity
  8
02
100
AcDbLine
 10
188.4999262796782
 20
492.9562607395974
 30
0.0
 11
189.8000054847683
 21
492.9560104732313
 31
0.0
  0
LINE
  5
2B5D
330
A
100
AcDbEntity
  8
02
100
AcDbLine
 10
190.7999555871606
 20
494.9560154030399
 30
0.0
 11
189.8000054847683
 21
492.9560104732313
 31
0.0
  0
LINE
  5
2B5E
330
A
100
AcDbEntity
  8
02
100
AcDbLine
 10
190.8000102786394
 20
421.5559943625568
 30
0.0
 11
190.8000560613624
 21
425.9560468235578
 31
0.0
  0
LINE
  5
2B5F
330
A
100
AcDbEntity
  8
02
100
AcDbLine
 10
184.2999173179776
 20
423.0562471168125
 30
0.0
 11
188.4999285924592
 21
423.0559785137867
 31
0.0
  0
LINE
  5
2B60
330
A
100
AcDbEntity
  8
02
100
AcDbLine
 10
188.4999188684045
 20
423.0559015027965
 30
0.0
 11
188.4999161351396
 21
421.5560156532911
 31
0.0
  0
LINE
  5
2B61
330
A
100
AcDbEntity
  8
02
100
AcDbLine
 10
184.2999637431979
 20
495.4560261394286
 30
0.0
 11
188.4998197753644
 21
495.4556038003099
 31
0.0
  0
LINE
  5
2B62
330
A
100
AcDbEntity
  8
02
100
AcDbLine
 10
184.3000217875784
 20
495.4562012191258
 30
0.0
 11
188.3000217875785
 21
495.4562012191258
 31
0.0
  0
LINE
  5
2B63
330
A
100
AcDbEntity
  8
02
100
AcDbLine
 10
188.3000217875785
 20
425.456201219126
 30
0.0
 11
184.3000217875784
 21
425.4562012191258
 31
0.0
  0
LINE
  5
2B64
330
A
100
AcDbEntity
  8
02
100
AcDbLine
 10
188.4999708553946
 20
427.955867153675
 30
0.0
 11
188.4999758244913
 21
425.4558696822429
 31
0.0
  0
LINE
  5
2B65
330
A
100
AcDbEntity
  8
02
100
AcDbLine
 10
189.800093422556
 20
427.9559002000373
 30
0.0
 11
190.799928208158
 21
425.9561996130972
 31
0.0
  0
LINE
  5
2B66
330
A
100
AcDbEntity
  8
02
100
AcDbLine
 10
184.3000217875783
 20
425.4558551538749
 30
0.0
 11
188.5000217875782
 21
425.4558696824019
 31
0.0
  0
LINE
  5
2B67
330
A
100
AcDbEntity
  8
02
100
AcDbLine
 10
188.4999708553946
 20
427.955867153675
 30
0.0
 11
189.800094021527
 21
427.9558671535361
 31
0.0
  0
LINE
  5
2B68
330
A
100
AcDbEntity
  8
02
100
AcDbLine
 10
188.4998197753644
 20
495.4556038003099
 30
0.0
 11
188.5000817720719
 21
492.9559234082752
 31
0.0
  0
LINE
  5
2B69
330
A
100
AcDbEntity
  8
02
100
AcDbLine
 10
185.2998360280673
 20
412.8558914255838
 30
0.0
 11
190.7999280123398
 21
412.8559219434578
 31
0.0
  0
LINE
  5
2B6A
330
A
100
AcDbEntity
  8
02
100
AcDbLine
 10
190.7999634374074
 20
494.9558623890188
 30
0.0
 11
189.8000200329541
 21
492.9558636065065
 31
0.0
  0
LINE
  5
2B6B
330
A
100
AcDbEntity
  8
02
100
AcDbLine
 10
190.799951858972
 20
497.9557665718964
 30
0.0
 11
190.7999634374074
 21
494.9558623890188
 31
0.0
  0
LINE
  5
2B6C
330
A
100
AcDbEntity
  8
02
100
AcDbLine
 10
184.2997850808458
 20
414.8559430788763
 30
0.0
 11
188.4999249968942
 21
414.8558243674082
 31
0.0
  0
LINE
  5
2B6D
330
A
100
AcDbEntity
  8
02
100
AcDbLine
 10
184.299912474967
 20
423.0561440974783
 30
0.0
 11
184.2999271267321
 21
414.8558877498272
 31
0.0
  0
LINE
  5
2B6E
330
A
100
AcDbEntity
  8
02
100
AcDbLine
 10
188.499860485502
 20
416.3561032618055
 30
0.0
 11
188.4999293035731
 21
414.8558335908224
 31
0.0
  0
LINE
  5
2B6F
330
A
100
AcDbEntity
  8
02
100
AcDbLine
 10
188.4999281929453
 20
423.0557907291844
 30
0.0
 11
188.4999254964085
 21
421.5558822816996
 31
0.0
  0
LINE
  5
2B70
330
A
100
AcDbEntity
  8
02
100
AcDbLine
 10
188.4998719960236
 20
416.3558985008552
 30
0.0
 11
190.7999280123397
 21
416.3557435892944
 31
0.0
  0
LINE
  5
2B71
330
A
100
AcDbEntity
  8
02
100
AcDbLine
 10
188.4998569205795
 20
421.555859319354
 30
0.0
 11
190.7654209799721
 21
421.5558794102896
 31
0.0
  0
LINE
  5
2B72
330
A
100
AcDbEntity
  8
02
100
AcDbLine
 10
184.2999727074843
 20
495.4559041146603
 30
0.0
 11
188.4999585420189
 21
495.4554921862866
 31
0.0
  0
LINE
  5
2B73
330
A
100
AcDbEntity
  8
02
100
AcDbLine
 10
184.2999637431979
 20
495.4560261394286
 30
0.0
 11
184.3000311419449
 21
425.4558424604933
 31
0.0
  0
ARC
  5
2B74
330
A
100
AcDbEntity
  8
02
100
AcDbCircle
 10
182.2999637284431
 20
495.9563313145876
 30
0.0
 40
1.999999999999999
100
AcDbArc
 50
91.47111205424428
 51
180.00000115854
  0
LINE
  5
2B75
330
A
100
AcDbEntity
  8
02
100
AcDbLine
 10
180.2999572452684
 20
495.9563693746638
 30
0.0
 11
180.2999485405545
 21
375.9194056248168
 31
0.0
  0
LINE
  5
2B76
330
A
100
AcDbEntity
  8
02
100
AcDbLine
 10
190.7999492102868
 20
497.9558287683761
 30
0.0
 11
182.2486191759415
 21
497.9557066983931
 31
0.0
  0
LINE
  5
2B77
330
A
100
AcDbEntity
  8
02
100
AcDbLine
 10
190.7999280123398
 20
421.5558794102895
 30
0.0
 11
190.799928208158
 21
425.9561996130972
 31
0.0
  0
LINE
  5
2B78
330
A
100
AcDbEntity
  8
02
100
AcDbLine
 10
190.7999280123398
 20
412.8559219434578
 30
0.0
 11
190.7999280123397
 21
416.3557435892944
 31
0.0
  0
LINE
  5
2B8E
330
A
100
AcDbEntity
  8
06
100
AcDbLine
 10
199.800007122616
 20
268.032411875941
 30
0.0
 11
199.800007122616
 21
273.532411875941
 31
0.0
  0
LINE
  5
2B8F
330
A
100
AcDbEntity
  8
06
100
AcDbLine
 10
224.8000071226159
 20
268.032411875941
 30
0.0
 11
224.8000071226159
 21
273.532411875941
 31
0.0
  0
LINE
  5
2B90
330
A
100
AcDbEntity
  8
06
100
AcDbLine
 10
236.8003437872197
 20
268.0179216511061
 30
0.0
 11
236.8003437872197
 21
273.532411875941
 31
0.0
  0
LINE
  5
2B91
330
A
100
AcDbEntity
  8
06
100
AcDbLine
 10
261.8003437872196
 20
268.032408951487
 30
0.0
 11
261.8003437872196
 21
273.532411875941
 31
0.0
  0
LINE
  5
2C14
330
A
100
AcDbEntity
  8
CHUSIN
100
AcDbLine
 10
176.5530847545824
 20
485.9557130307734
 30
0.0
 11
194.6488344356406
 21
485.9557130307734
 31
0.0
  0
DIMENSION
  5
2C44
330
A
100
AcDbEntity
  8
SUNPOU
100
AcDbDimension
  2
*D24
 10
105.1518994186831
 20
294.0163352261516
 30
0.0
 11
100.651899418683
 21
276.0163352261518
 31
0.0
 70
    32
  3
SUNPOU_2
100
AcDbAlignedDimension
 13
132.2999999999999
 23
258.0163352261517
 33
0.0
 14
182.2984891795201
 24
294.0163352261516
 34
0.0
 50
90.0
100
AcDbRotatedDimension
  0
DIMENSION
  5
2C51
330
A
100
AcDbEntity
  8
SUNPOU
100
AcDbDimension
  2
*D25
 10
105.151899418683
 20
313.0015524351958
 30
0.0
 11
100.651899418683
 21
303.5089438306738
 31
0.0
 70
    32
  3
SUNPOU_2
100
AcDbAlignedDimension
 13
182.2984891795201
 23
294.0163352261516
 33
0.0
 14
171.9141436253189
 24
313.0015524351957
 34
0.0
 50
90.0
100
AcDbRotatedDimension
  0
DIMENSION
  5
2C5E
330
A
100
AcDbEntity
  8
SUNPOU
100
AcDbDimension
  2
*D26
 10
105.151899418683
 20
347.9745998874913
 30
0.0
 11
100.651899418683
 21
330.4880761613436
 31
0.0
 70
    32
  3
SUNPOU_2
100
AcDbAlignedDimension
 13
171.9141436253189
 23
313.0015524351957
 33
0.0
 14
171.9141436253189
 24
347.9745998874913
 34
0.0
 50
90.0
100
AcDbRotatedDimension
  0
DIMENSION
  5
2C99
330
A
100
AcDbEntity
  8
SUNPOU
100
AcDbDimension
  2
*D27
 10
105.1518994186831
 20
485.9557130307734
 30
0.0
 11
100.651899418683
 21
460.9557141659744
 31
0.0
 70
    32
  3
SUNPOU_2
100
AcDbAlignedDimension
 13
176.5531228226449
 23
435.9557153011755
 33
0.0
 14
176.5530847545824
 24
485.9557130307734
 34
0.0
 50
90.0
100
AcDbRotatedDimension
  0
DIMENSION
  5
2CA6
330
A
100
AcDbEntity
  8
SUNPOU
100
AcDbDimension
  2
*D28
 10
105.1518994186831
 20
497.9556721067162
 30
0.0
 11
100.651899418683
 21
491.9556925687449
 31
0.0
 70
    32
  3
SUNPOU_2
100
AcDbAlignedDimension
 13
176.5530847545824
 23
485.9557130307734
 33
0.0
 14
182.2486178724276
 24
497.9556721067162
 34
0.0
 50
90.0
100
AcDbRotatedDimension
  0
LINE
  5
2D35
330
A
100
AcDbEntity
  8
CHUSIN
100
AcDbLine
 10
176.5531228226449
 20
407.9557153011755
 30
0.0
 11
194.6488725037031
 21
407.9557153011755
 31
0.0
  0
DIMENSION
  5
2D36
330
A
100
AcDbEntity
  8
SUNPOU
100
AcDbDimension
  2
*D29
 10
105.1518994186831
 20
435.9557153011755
 30
0.0
 11
100.651899418683
 21
421.9557153011756
 31
0.0
 70
    32
  3
SUNPOU_2
100
AcDbAlignedDimension
 13
176.5531228226449
 23
407.9557153011755
 33
0.0
 14
176.5531228226449
 24
435.9557153011755
 34
0.0
 50
90.0
100
AcDbRotatedDimension
  0
DIMENSION
  5
2D43
330
A
100
AcDbEntity
  8
SUNPOU
100
AcDbDimension
  2
*D30
 10
105.1518994186831
 20
407.9557153011755
 30
0.0
 11
100.651899418683
 21
377.9651575943335
 31
0.0
 70
    32
  3
SUNPOU_2
100
AcDbAlignedDimension
 13
171.9141436253189
 23
347.9745998874913
 33
0.0
 14
176.5531228226449
 24
407.9557153011755
 34
0.0
 50
90.0
100
AcDbRotatedDimension
  0
DIMENSION
  5
2FBA
330
A
100
AcDbEntity
  8
SUNPOU
100
AcDbDimension
  2
*D31
 10
212.3
 20
334.7873236991961
 30
0.0
 11
196.3000263390848
 21
339.2873236991961
 31
0.0
 70
    32
  3
SUNPOU_2
100
AcDbAlignedDimension
 13
180.3000526781698
 23
334.7873236991961
 33
0.0
 14
212.3
 24
315.4601258010458
 34
0.0
100
AcDbRotatedDimension
  0
DIMENSION
  5
2FD0
330
A
100
AcDbEntity
  8
SUNPOU
100
AcDbDimension
  2
*D32
 10
249.3003437872197
 20
334.7873236991961
 30
0.0
 11
230.8001718936099
 21
339.2873236991961
 31
0.0
 70
    32
  3
SUNPOU_2
100
AcDbAlignedDimension
 13
212.3
 23
315.4601258010458
 33
0.0
 14
249.3003437872197
 24
315.4601258010458
 34
0.0
100
AcDbRotatedDimension
  0
DIMENSION
  5
2FDD
330
A
100
AcDbEntity
  8
SUNPOU
100
AcDbDimension
  2
*D33
 10
283.2999999999998
 20
334.7873236991961
 30
0.0
 11
266.3001718936097
 21
339.2873236991961
 31
0.0
 70
    32
  3
SUNPOU_2
100
AcDbAlignedDimension
 13
249.3003437872197
 23
315.4601258010458
 33
0.0
 14
283.2999999999998
 24
334.7873236991961
 34
0.0
100
AcDbRotatedDimension
  0
MTEXT
  5
304F
330
A
100
AcDbEntity
  8
HIKIDASI
100
AcDbMText
 10
157.5187068671728
 20
462.3328687015527
 30
0.0
 40
5.0
 41
0.0
 71
     9
 72
     1
  1
\A1;
  7
SUNPOU
1001
ACAD
1000
MTEXTBEGIN
1070
    73
1070
     1
1070
    44
1040
1.0
1070
    74
1070
     0
1000
MTEXTEND
1000
MTEXTBEGIN
1070
    73
1070
     1
1070
    44
1040
1.0
1070
    74
1070
     0
1000
MTEXTEND
  0
LEADER
  5
3058
330
A
100
AcDbEntity
  8
HIKIDASI
100
AcDbLeader
  3
SUNPOU_2
 73
     0
 75
     1
 40
5.0
 41
21.06666666666666
 76
     3
 10
177.8
 20
313.0015524351957
 30
0.0
 10
164.6846271521684
 20
326.1252573108673
 30
0.0
 10
159.6846271521684
 20
326.1252573108673
 30
0.0
1001
ACAD
1000
DSTYLE
1002
{
1070
     5
1000
OPEN30
1070
    77
1070
     1
1070
   147
1040
1.0
1070
   342
1005
943
1002
}
1000
LEANOF
1010
0.0
1020
0.0
1030
0.0
1000
LEANOF
1010
0.0
1020
0.0
1030
0.0
  0
MTEXT
  5
3059
102
{ACAD_REACTORS
330
3058
102
}
330
A
100
AcDbEntity
  8
HIKIDASI
100
AcDbMText
 10
165.3296775056525
 20
329.8957284296896
 30
0.0
 40
5.0
 41
0.0
 71
     9
 72
     1
  1
M5タップ
  7
SUNPOU
1001
ACAD
1000
MTEXTBEGIN
1070
    73
1070
     1
1070
    44
1040
1.0
1070
    74
1070
     0
1000
MTEXTEND
1000
MTEXTBEGIN
1070
    73
1070
     1
1070
    44
1040
1.0
1070
    74
1070
     0
1000
MTEXTEND
  0
LEADER
  5
305C
330
A
100
AcDbEntity
  8
HIKIDASI
100
AcDbLeader
  3
SUNPOU_2
 76
     2
 10
177.3
 20
347.9745998874913
 30
0.0
 10
164.6848408755387
 20
326.1245033383584
 30
0.0
1001
ACAD
1000
DSTYLE
1002
{
1070
     5
1000
OPEN30
1070
    77
1070
     1
1070
   147
1040
1.0
1070
   342
1005
943
1002
}
1000
LEANOF
1010
0.0
1020
0.0
1030
0.0
1000
LEANOF
1010
0.0
1020
0.0
1030
0.0
  0
LINE
  5
3112
330
A
100
AcDbEntity
  8
02
100
AcDbLine
 10
190.9918141978101
 20
369.0588185649017
 30
0.0
 11
190.9918143712248
 21
372.955698647656
 31
0.0
  0
LINE
  5
3113
330
A
100
AcDbEntity
  8
04
100
AcDbLine
 10
230.1574513708946
 20
359.8721784028932
 30
0.0
 11
225.7649816875136
 21
359.8721784028932
 31
0.0
  0
LINE
  5
35FC
330
A
100
AcDbEntity
  8
04
100
AcDbLine
 10
234.7999940982151
 20
381.9560367049171
 30
0.0
 11
234.1000121535292
 21
381.9560794286209
 31
0.0
  0
LINE
  5
35FD
330
A
100
AcDbEntity
  8
04
100
AcDbLine
 10
234.1000121535292
 20
381.9560794286209
 30
0.0
 11
233.8000114362845
 21
381.6560980907565
 31
0.0
  0
LINE
  5
35FE
330
A
100
AcDbEntity
  8
04
100
AcDbLine
 10
234.7999940981729
 20
371.9560221387367
 30
0.0
 11
234.0999765060366
 21
371.9559233938468
 31
0.0
  0
LINE
  5
35FF
330
A
100
AcDbEntity
  8
04
100
AcDbLine
 10
234.0999765060366
 20
371.9559233938468
 30
0.0
 11
233.7999779298732
 21
372.2558807241957
 31
0.0
  0
LINE
  5
3600
330
A
100
AcDbEntity
  8
04
100
AcDbLine
 10
233.7999779298732
 20
372.2558807241957
 30
0.0
 11
233.8000114362845
 21
381.6560980907565
 31
0.0
  0
LINE
  5
3601
330
A
100
AcDbEntity
  8
04
100
AcDbLine
 10
246.3000044483603
 20
383.4560302631793
 30
0.0
 11
251.8000045156751
 21
383.4559240094889
 31
0.0
  0
LINE
  5
3602
330
A
100
AcDbEntity
  8
04
100
AcDbLine
 10
246.3000368420871
 20
370.4560441801711
 30
0.0
 11
251.8000045156751
 21
370.4559831459572
 31
0.0
  0
LINE
  5
3604
330
A
100
AcDbEntity
  8
04
100
AcDbLine
 10
235.7999929264681
 20
372.4060425531246
 30
0.0
 11
234.7999940982151
 21
372.4060425531246
 31
0.0
  0
LINE
  5
3605
330
A
100
AcDbEntity
  8
04
100
AcDbLine
 10
235.7999929264681
 20
381.5060318902258
 30
0.0
 11
234.7999940982151
 21
381.5060318902258
 31
0.0
  0
LINE
  5
360B
330
A
100
AcDbEntity
  8
04
100
AcDbLine
 10
256.2999992428132
 20
387.9560595698971
 30
0.0
 11
259.9705159974575
 21
387.9560595698971
 31
0.0
  0
LINE
  5
360D
330
A
100
AcDbEntity
  8
04
100
AcDbLine
 10
259.9705159974575
 20
369.956151799667
 30
0.0
 11
256.2999992428132
 21
369.956151799667
 31
0.0
  0
LINE
  5
3651
330
A
100
AcDbEntity
  8
04
100
AcDbLine
 10
235.7999911054835
 20
384.4560595833052
 30
0.0
 11
246.3000009844634
 21
384.4559985481476
 31
0.0
  0
LINE
  5
3652
330
A
100
AcDbEntity
  8
04
100
AcDbLine
 10
235.7999913653736
 20
369.4559307828295
 30
0.0
 11
246.3000383611367
 21
369.4562969932256
 31
0.0
  0
LINE
  5
3655
330
A
100
AcDbEntity
  8
04
100
AcDbLine
 10
260.9706035720709
 20
373.9552799299984
 30
0.0
 11
259.9706044055578
 21
373.9552794755366
 31
0.0
  0
LINE
  5
3659
330
A
100
AcDbEntity
  8
04
100
AcDbLine
 10
265.770585100643
 20
375.0552988831291
 30
0.0
 11
265.7705138742672
 21
382.8553150179941
 31
0.0
  0
LINE
  5
365A
330
A
100
AcDbEntity
  8
04
100
AcDbLine
 10
265.3555962449024
 20
374.3365947181352
 30
0.0
 11
265.770585100643
 21
375.0552988831291
 31
0.0
  0
LINE
  5
365B
330
A
100
AcDbEntity
  8
04
100
AcDbLine
 10
265.3555065222014
 20
383.5741326789963
 30
0.0
 11
265.7705138742672
 21
382.8553150179941
 31
0.0
  0
LINE
  5
365C
330
A
100
AcDbEntity
  8
04
100
AcDbLine
 10
262.2705968910482
 20
374.3365000616646
 30
0.0
 11
265.3555962449024
 21
374.3365947181352
 31
0.0
  0
LINE
  5
365D
330
A
100
AcDbEntity
  8
04
100
AcDbLine
 10
262.2705077725667
 20
383.5740674239534
 30
0.0
 11
265.3555065222014
 21
383.5741326789963
 31
0.0
  0
LINE
  5
365F
330
A
100
AcDbEntity
  8
04
100
AcDbLine
 10
260.9705067379128
 20
383.9552922856334
 30
0.0
 11
259.9705074499577
 21
383.955246509271
 31
0.0
  0
LINE
  5
3662
330
A
100
AcDbEntity
  8
04
100
AcDbLine
 10
262.2705986941956
 20
374.3552324219868
 30
0.0
 11
260.9705997658622
 21
374.3552808673228
 31
0.0
  0
LINE
  5
372A
330
A
100
AcDbEntity
  8
04
100
AcDbLine
 10
221.7998215526531
 20
408.9557936956545
 30
0.0
 11
221.7998215526531
 21
414.9557916166958
 31
0.0
  0
LINE
  5
372B
330
A
100
AcDbEntity
  8
04
100
AcDbLine
 10
222.7998203809061
 20
415.9557896393456
 30
0.0
 11
221.7998215526531
 21
414.9557916166958
 31
0.0
  0
LINE
  5
372C
330
A
100
AcDbEntity
  8
04
100
AcDbLine
 10
222.7998132287285
 20
407.955799013326
 30
0.0
 11
221.7998215526531
 21
408.9557936956545
 31
0.0
  0
LINE
  5
372D
330
A
100
AcDbEntity
  8
04
100
AcDbLine
 10
223.2996187974668
 20
415.9557872225293
 30
0.0
 11
222.7998203809061
 21
415.9557896393456
 31
0.0
  0
LINE
  5
372E
330
A
100
AcDbEntity
  8
04
100
AcDbLine
 10
223.2996187974668
 20
407.9557965965483
 30
0.0
 11
222.7998132287285
 21
407.955799013326
 31
0.0
  0
LINE
  5
372F
330
A
100
AcDbEntity
  8
04
100
AcDbLine
 10
247.7997957093083
 20
421.9557364144712
 30
0.0
 11
256.299847487103
 21
421.9557364144712
 31
0.0
  0
LINE
  5
3730
330
A
100
AcDbEntity
  8
04
100
AcDbLine
 10
247.7998234337998
 20
401.9557598494138
 30
0.0
 11
251.7999172087746
 21
401.9557598494138
 31
0.0
  0
LINE
  5
3731
330
A
100
AcDbEntity
  8
04
100
AcDbLine
 10
263.2997783493026
 20
419.8114393031777
 30
0.0
 11
260.800825118277
 21
419.8114393031777
 31
0.0
  0
LINE
  5
3732
330
A
100
AcDbEntity
  8
04
100
AcDbLine
 10
263.2998423567505
 20
392.0986318819387
 30
0.0
 11
260.8008047591598
 21
392.0986318819387
 31
0.0
  0
LINE
  5
3733
330
A
100
AcDbEntity
  8
04
100
AcDbLine
 10
251.7999172087746
 20
420.9549607145272
 30
0.0
 11
256.2999119359127
 21
420.9549607145272
 31
0.0
  0
LINE
  5
3734
330
A
100
AcDbEntity
  8
04
100
AcDbLine
 10
251.7999172087746
 20
392.9547682083701
 30
0.0
 11
256.2999119359127
 21
392.9547682083701
 31
0.0
  0
LINE
  5
3735
330
A
100
AcDbEntity
  8
04
100
AcDbLine
 10
256.2999119359127
 20
423.9555607682291
 30
0.0
 11
256.2999119359127
 21
420.9549607145272
 31
0.0
  0
LINE
  5
3736
330
A
100
AcDbEntity
  8
04
100
AcDbLine
 10
260.7999066630504
 20
391.954944769606
 30
0.0
 11
256.2999119359127
 21
391.954944769606
 31
0.0
  0
LINE
  5
3738
330
A
100
AcDbEntity
  8
04
100
AcDbLine
 10
256.2999119359127
 20
423.9555607682291
 30
0.0
 11
260.7999066630504
 21
423.9555607682291
 31
0.0
  0
LINE
  5
373A
330
A
100
AcDbEntity
  8
04
100
AcDbLine
 10
247.7997790746123
 20
433.9557230326305
 30
0.0
 11
247.7998400684939
 21
389.9557745895041
 31
0.0
  0
LINE
  5
373B
330
A
100
AcDbEntity
  8
04
100
AcDbLine
 10
225.799865846911
 20
389.9557732032794
 30
0.0
 11
225.7998048530299
 21
433.9557216464061
 31
0.0
  0
LINE
  5
373C
330
A
100
AcDbEntity
  8
04
100
AcDbLine
 10
228.7632367134674
 20
389.4557744822654
 30
0.0
 11
226.2998652610371
 21
389.4557744822654
 31
0.0
  0
LINE
  5
373D
330
A
100
AcDbEntity
  8
04
100
AcDbLine
 10
229.5516147821801
 20
391.5475062368071
 30
0.0
 11
229.2556400130008
 21
389.8689499092942
 31
0.0
  0
LINE
  5
373E
330
A
100
AcDbEntity
  8
04
100
AcDbLine
 10
244.3442030761243
 20
389.8689499092942
 30
0.0
 11
244.0482283069449
 21
391.5475062368071
 31
0.0
  0
LINE
  5
373F
330
A
100
AcDbEntity
  8
04
100
AcDbLine
 10
247.2998406543679
 20
389.4557744822654
 30
0.0
 11
244.8366063756575
 21
389.4557744822654
 31
0.0
  0
LINE
  5
3740
330
A
100
AcDbEntity
  8
04
100
AcDbLine
 10
244.8366063756575
 20
434.4557217536448
 30
0.0
 11
247.2997796604864
 21
434.4557217536448
 31
0.0
  0
LINE
  5
3741
330
A
100
AcDbEntity
  8
04
100
AcDbLine
 10
244.0482283069449
 20
432.3639899991031
 30
0.0
 11
244.3442030761243
 21
434.0425463266159
 31
0.0
  0
LINE
  5
3742
330
A
100
AcDbEntity
  8
04
100
AcDbLine
 10
229.2556400130008
 20
434.0425463266159
 30
0.0
 11
229.5516147821801
 21
432.3639899991031
 31
0.0
  0
LINE
  5
3743
330
A
100
AcDbEntity
  8
04
100
AcDbLine
 10
226.299804267156
 20
434.4557217536448
 30
0.0
 11
228.7632367134678
 21
434.4557217536448
 31
0.0
  0
LINE
  5
374B
330
A
100
AcDbEntity
  8
04
100
AcDbLine
 10
264.8986612432568
 20
398.2550120688697
 30
0.0
 11
263.2986664997307
 21
398.2550265613583
 31
0.0
  0
LINE
  5
374C
330
A
100
AcDbEntity
  8
04
100
AcDbLine
 10
264.8985656476213
 20
413.6550063438617
 30
0.0
 11
263.2986380811999
 21
413.6550090140355
 31
0.0
  0
LINE
  5
374F
330
A
100
AcDbEntity
  8
04
100
AcDbLine
 10
270.3996202350476
 20
399.655032629032
 30
0.0
 11
270.3995457854634
 21
412.2550261871958
 31
0.0
  0
LINE
  5
3750
330
A
100
AcDbEntity
  8
04
100
AcDbLine
 10
269.7036694890883
 20
398.4494687990246
 30
0.0
 11
270.3996202350476
 21
399.655032629032
 31
0.0
  0
LINE
  5
3751
330
A
100
AcDbEntity
  8
04
100
AcDbLine
 10
269.7035778359008
 20
413.4605428995585
 30
0.0
 11
270.3995457854634
 21
412.2550261871958
 31
0.0
  0
LINE
  5
3752
330
A
100
AcDbEntity
  8
04
100
AcDbLine
 10
264.8986074591761
 20
398.4493835083485
 30
0.0
 11
269.7036694890883
 21
398.4494687990246
 31
0.0
  0
LINE
  5
3753
330
A
100
AcDbEntity
  8
04
100
AcDbLine
 10
264.8986209384988
 20
413.4605537490894
 30
0.0
 11
269.7035778359008
 21
413.4605428995585
 31
0.0
  0
LINE
  5
3756
330
A
100
AcDbEntity
  8
04
100
AcDbLine
 10
225.7998295575188
 20
404.455765531022
 30
0.0
 11
224.0213057883183
 21
404.455765531022
 31
0.0
  0
LINE
  5
3757
330
A
100
AcDbEntity
  8
04
100
AcDbLine
 10
223.2996187974668
 20
417.5793617786015
 30
0.0
 11
223.2996187974668
 21
415.9557872225293
 31
0.0
  0
LINE
  5
3759
330
A
100
AcDbEntity
  8
04
100
AcDbLine
 10
225.7998295575188
 20
419.4557479548151
 30
0.0
 11
224.0213057883183
 21
419.4557479548151
 31
0.0
  0
LINE
  5
375A
330
A
100
AcDbEntity
  8
CHUSIN
100
AcDbLine
 10
220.3626584834704
 20
411.955748117955
 30
0.0
 11
254.2487654315588
 21
411.955748117955
 31
0.0
  0
LINE
  5
375C
330
A
100
AcDbEntity
  8
CHUSIN
100
AcDbLine
 10
254.7382549288506
 20
405.9549854467489
 30
0.0
 11
273.6497092453216
 21
405.9549854467489
 31
0.0
  0
LINE
  5
376A
330
A
100
AcDbEntity
  8
04
100
AcDbLine
 10
228.7632367134678
 20
434.4557217536448
 30
0.0
 11
229.1827860374497
 21
434.4557217536448
 31
0.0
  0
LINE
  5
376B
330
A
100
AcDbEntity
  8
04
100
AcDbLine
 10
229.1827860374497
 20
434.4557217536448
 30
0.0
 11
229.2556400130008
 21
434.0425463266159
 31
0.0
  0
LINE
  5
376C
330
A
100
AcDbEntity
  8
04
100
AcDbLine
 10
244.3442030761243
 20
434.0425463266159
 30
0.0
 11
244.4170570516751
 21
434.4557217536448
 31
0.0
  0
LINE
  5
376D
330
A
100
AcDbEntity
  8
04
100
AcDbLine
 10
244.4170570516751
 20
434.4557217536448
 30
0.0
 11
244.8366063756575
 21
434.4557217536448
 31
0.0
  0
LINE
  5
376E
330
A
100
AcDbEntity
  8
04
100
AcDbLine
 10
244.8366063756575
 20
389.4557744822654
 30
0.0
 11
244.4170570516751
 21
389.4557744822654
 31
0.0
  0
LINE
  5
376F
330
A
100
AcDbEntity
  8
04
100
AcDbLine
 10
244.4170570516751
 20
389.4557744822654
 30
0.0
 11
244.3442030761243
 21
389.8689499092942
 31
0.0
  0
LINE
  5
3770
330
A
100
AcDbEntity
  8
04
100
AcDbLine
 10
229.2556400130008
 20
389.8689499092942
 30
0.0
 11
229.1827860374497
 21
389.4557744822654
 31
0.0
  0
LINE
  5
3771
330
A
100
AcDbEntity
  8
04
100
AcDbLine
 10
229.1827860374497
 20
389.4557744822654
 30
0.0
 11
228.7632367134674
 21
389.4557744822654
 31
0.0
  0
LINE
  5
3772
330
A
100
AcDbEntity
  8
04
100
AcDbLine
 10
229.670539433972
 20
392.2219614524161
 30
0.0
 11
229.5516147821801
 21
391.5475062368071
 31
0.0
  0
LINE
  5
3773
330
A
100
AcDbEntity
  8
04
100
AcDbLine
 10
244.0482283069449
 20
391.5475062368071
 30
0.0
 11
243.9293036551534
 21
392.2219614524161
 31
0.0
  0
LINE
  5
3774
330
A
100
AcDbEntity
  8
04
100
AcDbLine
 10
229.5516147821801
 20
432.3639899991031
 30
0.0
 11
229.670539433972
 21
431.689534783494
 31
0.0
  0
LINE
  5
3775
330
A
100
AcDbEntity
  8
04
100
AcDbLine
 10
243.9293036551534
 20
431.689534783494
 30
0.0
 11
244.0482283069449
 21
432.3639899991031
 31
0.0
  0
LINE
  5
3776
330
A
100
AcDbEntity
  8
06
100
AcDbLine
 10
254.4875961670129
 20
435.9557437176937
 30
0.0
 11
261.5121509976028
 21
435.9557426022846
 31
0.0
  0
LINE
  5
3777
330
A
100
AcDbEntity
  8
06
100
AcDbLine
 10
251.6499177000282
 20
426.955814342838
 30
0.0
 11
264.3499205646274
 21
426.9556443688125
 31
0.0
  0
LINE
  5
3778
330
A
100
AcDbEntity
  8
06
100
AcDbLine
 10
264.3499205646274
 20
426.9556443688125
 30
0.0
 11
261.5121509976028
 21
435.9557426022846
 31
0.0
  0
LINE
  5
3779
330
A
100
AcDbEntity
  8
06
100
AcDbLine
 10
251.6499177000282
 20
426.955814342838
 30
0.0
 11
254.4875961670129
 21
435.9557437176937
 31
0.0
  0
ARC
  5
377B
330
A
100
AcDbEntity
  8
04
100
AcDbCircle
 10
236.7999215445626
 20
465.9556848436102
 30
0.0
 40
34.99995898885062
100
AcDbArc
 50
280.615707257666
 51
281.7532257134616
  0
ARC
  5
377C
330
A
100
AcDbEntity
  8
04
100
AcDbCircle
 10
236.7999215445626
 20
465.9556848436102
 30
0.0
 40
34.9999589888506
100
AcDbArc
 50
258.2467742865383
 51
259.3842927423354
  0
ARC
  5
377D
330
A
100
AcDbEntity
  8
04
100
AcDbCircle
 10
236.7999215445626
 20
357.9558113922999
 30
0.0
 40
34.9999589888506
100
AcDbArc
 50
78.24677428653834
 51
79.38429274233389
  0
ARC
  5
377E
330
A
100
AcDbEntity
  8
04
100
AcDbCircle
 10
236.7999215445626
 20
357.9558113922999
 30
0.0
 40
34.99995898885062
100
AcDbArc
 50
100.6157072576645
 51
101.7532257134615
  0
ARC
  5
377F
330
A
100
AcDbEntity
  8
04
100
AcDbCircle
 10
226.0997643219703
 20
417.5793617786015
 30
0.0
 40
2.800145524503365
100
AcDbArc
 50
137.9249803019033
 51
180.0
  0
ARC
  5
3780
330
A
100
AcDbEntity
  8
04
100
AcDbCircle
 10
226.0997643219703
 20
406.3321517072356
 30
0.0
 40
2.800145524503375
100
AcDbArc
 50
180.0
 51
222.0750196980965
  0
ARC
  5
3785
330
A
100
AcDbEntity
  8
04
100
AcDbCircle
 10
243.0634217078782
 20
432.5376379732983
 30
0.0
 40
0.9999988282528878
100
AcDbArc
 50
280.615707257666
 51
350.0000000000013
  0
ARC
  5
3786
330
A
100
AcDbEntity
  8
04
100
AcDbCircle
 10
230.5364213812469
 20
432.5376379732983
 30
0.0
 40
0.9999988282528867
100
AcDbArc
 50
190.0000000000018
 51
259.3842927423354
  0
ARC
  5
3787
330
A
100
AcDbEntity
  8
04
100
AcDbCircle
 10
243.0634217078782
 20
391.3738582626121
 30
0.0
 40
0.999998828252872
100
AcDbArc
 50
10.0000000000018
 51
79.38429274233389
  0
ARC
  5
3788
330
A
100
AcDbEntity
  8
04
100
AcDbCircle
 10
230.5364213812469
 20
391.3738582626121
 30
0.0
 40
0.9999988282528878
100
AcDbArc
 50
100.6157072576645
 51
170.0000000000013
  0
ARC
  5
3789
330
A
100
AcDbEntity
  8
04
100
AcDbCircle
 10
228.7632367134674
 20
389.9557738963918
 30
0.0
 40
0.4999994141264374
100
AcDbArc
 50
270.0
 51
350.0000000000013
  0
ARC
  5
378A
330
A
100
AcDbEntity
  8
04
100
AcDbCircle
 10
244.8366063756575
 20
389.9557738963918
 30
0.0
 40
0.499999414126437
100
AcDbArc
 50
190.0000000000018
 51
270.0
  0
ARC
  5
378B
330
A
100
AcDbEntity
  8
04
100
AcDbCircle
 10
244.8366063756575
 20
433.9557223395183
 30
0.0
 40
0.4999994141264374
100
AcDbArc
 50
90.0
 51
170.0000000000013
  0
ARC
  5
378C
330
A
100
AcDbEntity
  8
04
100
AcDbCircle
 10
228.7632367134678
 20
433.9557223395183
 30
0.0
 40
0.4999994141264282
100
AcDbArc
 50
9.999999999998609
 51
90.0
  0
ARC
  5
378D
330
A
100
AcDbEntity
  8
04
100
AcDbCircle
 10
247.2997796604864
 20
433.9557223395183
 30
0.0
 40
0.4999994141264347
100
AcDbArc
 50
0.0000794249100264
 51
90.0
  0
ARC
  5
378E
330
A
100
AcDbEntity
  8
04
100
AcDbCircle
 10
226.299804267156
 20
433.9557223395183
 30
0.0
 40
0.4999994141264374
100
AcDbArc
 50
90.0
 51
180.00007942491
  0
ARC
  5
378F
330
A
100
AcDbEntity
  8
04
100
AcDbCircle
 10
226.2998652610371
 20
389.9557738963918
 30
0.0
 40
0.4999994141264417
100
AcDbArc
 50
180.00007942491
 51
270.0
  0
ARC
  5
3790
330
A
100
AcDbEntity
  8
04
100
AcDbCircle
 10
247.2998406543679
 20
389.9557738963918
 30
0.0
 40
0.4999994141264374
100
AcDbArc
 50
270.0
 51
0.0000794249100264
  0
ARC
  5
3791
330
A
100
AcDbEntity
  8
04
100
AcDbCircle
 10
236.7999215445626
 20
465.9556848436102
 30
0.0
 40
34.99995898885062
100
AcDbArc
 50
259.3842927423354
 51
280.615707257666
  0
ARC
  5
3792
330
A
100
AcDbEntity
  8
04
100
AcDbCircle
 10
236.7999215445626
 20
357.9558113922999
 30
0.0
 40
34.99995898885062
100
AcDbArc
 50
79.38429274233389
 51
100.6157072576645
  0
LINE
  5
379A
330
A
100
AcDbEntity
  8
04
100
AcDbLine
 10
234.8000894623906
 20
381.9567688377144
 30
0.0
 11
234.1001075177046
 21
381.9568115614183
 31
0.0
  0
LINE
  5
379B
330
A
100
AcDbEntity
  8
04
100
AcDbLine
 10
234.1001075177046
 20
381.9568115614183
 30
0.0
 11
233.80010680046
 21
381.6568302235541
 31
0.0
  0
LINE
  5
379C
330
A
100
AcDbEntity
  8
04
100
AcDbLine
 10
234.8000894623484
 20
371.9567542715342
 30
0.0
 11
234.1000718702121
 21
371.9566555266442
 31
0.0
  0
LINE
  5
379D
330
A
100
AcDbEntity
  8
04
100
AcDbLine
 10
234.1000718702121
 20
371.9566555266442
 30
0.0
 11
233.8000732940487
 21
372.2566128569933
 31
0.0
  0
LINE
  5
379E
330
A
100
AcDbEntity
  8
04
100
AcDbLine
 10
233.8000732940487
 20
372.2566128569933
 30
0.0
 11
233.80010680046
 21
381.6568302235541
 31
0.0
  0
LINE
  5
379F
330
A
100
AcDbEntity
  8
04
100
AcDbLine
 10
246.3000998125358
 20
383.4567623959767
 30
0.0
 11
251.8000998798507
 21
383.4566561422863
 31
0.0
  0
LINE
  5
37A0
330
A
100
AcDbEntity
  8
04
100
AcDbLine
 10
246.3001322062627
 20
370.4567763129686
 30
0.0
 11
251.8000998798507
 21
370.4567152787548
 31
0.0
  0
LINE
  5
37A2
330
A
100
AcDbEntity
  8
04
100
AcDbLine
 10
235.8000882906435
 20
372.406774685922
 30
0.0
 11
234.8000894623906
 21
372.406774685922
 31
0.0
  0
LINE
  5
37A3
330
A
100
AcDbEntity
  8
04
100
AcDbLine
 10
235.8000882906435
 20
381.5067640230232
 30
0.0
 11
234.8000894623906
 21
381.5067640230232
 31
0.0
  0
LINE
  5
37A9
330
A
100
AcDbEntity
  8
04
100
AcDbLine
 10
235.800086469659
 20
384.4567917161026
 30
0.0
 11
246.3000963486388
 21
384.4567306809451
 31
0.0
  0
LINE
  5
37AA
330
A
100
AcDbEntity
  8
04
100
AcDbLine
 10
235.8000867295491
 20
369.4566629156269
 30
0.0
 11
246.3001337253122
 21
369.457029126023
 31
0.0
  0
LINE
  5
37B7
330
A
100
AcDbEntity
  8
04
100
AcDbLine
 10
260.9706021020883
 20
383.9560244184308
 30
0.0
 11
259.9706028141332
 21
383.9559786420684
 31
0.0
  0
LINE
  5
37BB
330
A
100
AcDbEntity
  8
04
100
AcDbLine
 10
262.2706039915278
 20
383.5560246184972
 30
0.0
 11
260.9706075873682
 21
383.5560215629596
 31
0.0
  0
ARC
  5
37C3
330
A
100
AcDbEntity
  8
04
100
AcDbCircle
 10
217.7712840903844
 20
281.126203972046
 30
0.0
 40
2.997689781625327
100
AcDbArc
 50
332.1856448132963
 51
359.9999999999988
  0
LINE
  5
37D7
330
A
100
AcDbEntity
  8
06
100
AcDbLine
 10
251.6499177000282
 20
426.955814342838
 30
0.0
 11
264.3499205646274
 21
426.9556443688125
 31
0.0
  0
LINE
  5
37D8
330
A
100
AcDbEntity
  8
06
100
AcDbLine
 10
264.3499205646274
 20
426.9556443688125
 30
0.0
 11
261.5121509976028
 21
435.9557426022846
 31
0.0
  0
LINE
  5
37D9
330
A
100
AcDbEntity
  8
06
100
AcDbLine
 10
254.4875961670129
 20
435.9557437176937
 30
0.0
 11
261.5121509976028
 21
435.9557426022846
 31
0.0
  0
LINE
  5
37DB
330
A
100
AcDbEntity
  8
06
100
AcDbLine
 10
251.6499177000282
 20
426.955814342838
 30
0.0
 11
254.4875961670129
 21
435.9557437176937
 31
0.0
  0
LINE
  5
37DE
330
A
100
AcDbEntity
  8
06
100
AcDbLine
 10
254.4876191885006
 20
487.9555723877073
 30
0.0
 11
261.5122598756461
 21
487.955552963423
 31
0.0
  0
LINE
  5
37DF
330
A
100
AcDbEntity
  8
06
100
AcDbLine
 10
264.349994901545
 20
496.955452539884
 30
0.0
 11
261.5122598756461
 21
487.955552963423
 31
0.0
  0
LINE
  5
37E1
330
A
100
AcDbEntity
  8
06
100
AcDbLine
 10
251.6499839800013
 20
496.955511159892
 30
0.0
 11
264.349994901545
 21
496.955452539884
 31
0.0
  0
LINE
  5
37E2
330
A
100
AcDbEntity
  8
06
100
AcDbLine
 10
251.6499839800013
 20
496.955511159892
 30
0.0
 11
254.4876191885006
 21
487.9555723877073
 31
0.0
  0
LINE
  5
37EC
330
A
100
AcDbEntity
  8
CHUSIN
100
AcDbLine
 10
267.8165200627676
 20
491.9555480304707
 30
0.0
 11
250.2701935996455
 21
491.9555653195272
 31
0.0
  0
LINE
  5
37ED
330
A
100
AcDbEntity
  8
CHUSIN
100
AcDbLine
 10
250.2701935996455
 20
431.9557408847576
 30
0.0
 11
267.8165200627676
 21
431.9557581738144
 31
0.0
  0
LINE
  5
37F4
330
A
100
AcDbEntity
  8
CHUSIN
100
AcDbLine
 10
186.1357933804818
 20
461.9557372581636
 30
0.0
 11
268.5696220086701
 21
461.9557372581636
 31
0.0
  0
LINE
  5
37FC
330
A
100
AcDbEntity
  8
CHUSIN
100
AcDbLine
 10
257.0013578041309
 20
378.9559663361433
 30
0.0
 11
268.3195125985453
 21
378.9559663361433
 31
0.0
  0
LINE
  5
37FD
330
A
100
AcDbEntity
  8
CHUSIN
100
AcDbLine
 10
230.5306979643954
 20
376.9574766954435
 30
0.0
 11
257.8488340108553
 21
376.9574766954435
 31
0.0
  0
LINE
  5
381C
330
A
100
AcDbEntity
  8
04
100
AcDbLine
 10
204.5835795174725
 20
279.7274571791635
 30
0.0
 11
203.7841955757059
 21
279.7274571791635
 31
0.0
  0
LINE
  5
381D
330
A
100
AcDbEntity
  8
04
100
AcDbLine
 10
204.7834255029143
 20
281.7259170335803
 30
0.0
 11
204.5835795174725
 21
281.7259170335803
 31
0.0
  0
LINE
  5
381E
330
A
100
AcDbEntity
  8
04
100
AcDbLine
 10
203.7820403402754
 20
291.0182731622573
 30
0.0
 11
203.7820403402754
 21
290.5686143571436
 31
0.0
  0
LINE
  5
381F
330
A
100
AcDbEntity
  8
04
100
AcDbLine
 10
229.9324991352651
 20
292.6173083305306
 30
0.0
 11
229.9324657955185
 21
293.0170036229625
 31
0.0
  0
LINE
  5
3820
330
A
100
AcDbEntity
  8
04
100
AcDbLine
 10
231.2314672568475
 20
292.6360718858203
 30
0.0
 11
231.2314673009424
 21
292.6173113836512
 31
0.0
  0
LINE
  5
3821
330
A
100
AcDbEntity
  8
04
100
AcDbLine
 10
231.231558108567
 20
283.4243252640208
 30
0.0
 11
231.2315586828868
 21
283.40560730712
 31
0.0
  0
LINE
  5
3822
330
A
100
AcDbEntity
  8
04
100
AcDbLine
 10
228.9333322900116
 20
283.0246798421693
 30
0.0
 11
228.9332030316189
 21
279.0277032016584
 31
0.0
  0
LINE
  5
3823
330
A
100
AcDbEntity
  8
04
100
AcDbLine
 10
229.7631888238669
 20
333.4858614372581
 30
0.0
 11
229.7631888238669
 21
344.4772440945486
 31
0.0
  0
LINE
  5
3825
330
A
100
AcDbEntity
  8
04
100
AcDbLine
 10
199.6850827158074
 20
368.2287160406725
 30
0.0
 11
199.6850839548523
 21
370.3620556836525
 31
0.0
  0
LINE
  5
383B
330
A
100
AcDbEntity
  8
06
100
AcDbLine
 10
187.5926032310254
 20
343.3594170990901
 30
0.0
 11
187.5926050327866
 21
343.3781350560638
 31
0.0
  0
LINE
  5
383C
330
A
100
AcDbEntity
  8
06
100
AcDbLine
 10
187.5925141810673
 20
352.5898816778631
 30
0.0
 11
187.5925142251624
 21
352.5711211756942
 31
0.0
  0
LINE
  5
383D
330
A
100
AcDbEntity
  8
06
100
AcDbLine
 10
187.5945513540147
 20
308.4050876037682
 30
0.0
 11
187.5945519283343
 21
308.3863696468673
 31
0.0
  0
LINE
  5
383E
330
A
100
AcDbEntity
  8
06
100
AcDbLine
 10
187.5944605022954
 20
317.6168342255676
 30
0.0
 11
187.5944613564234
 21
317.5980737234003
 31
0.0
  0
LINE
  5
383F
330
A
100
AcDbEntity
  8
04
100
AcDbLine
 10
241.5781277106777
 20
281.6259282661891
 30
0.0
 11
241.7779736961194
 21
281.6259282661891
 31
0.0
  0
LINE
  5
3840
330
A
100
AcDbEntity
  8
04
100
AcDbLine
 10
256.7664226042462
 20
281.6259282661891
 30
0.0
 11
256.9662685896878
 21
281.6259282661891
 31
0.0
  0
LINE
  5
3841
330
A
100
AcDbEntity
  8
04
100
AcDbLine
 10
240.7787437689109
 20
279.6274684117722
 30
0.0
 11
241.5781277106777
 21
279.6274684117722
 31
0.0
  0
LINE
  5
3842
330
A
100
AcDbEntity
  8
04
100
AcDbLine
 10
256.9662685896878
 20
279.6274684117722
 30
0.0
 11
257.7656525314547
 21
279.6274684117722
 31
0.0
  0
LINE
  5
3843
330
A
100
AcDbEntity
  8
04
100
AcDbLine
 10
234.8000894623906
 20
381.9567688377144
 30
0.0
 11
234.8000894623906
 21
381.5067640230232
 31
0.0
  0
LINE
  5
3844
330
A
100
AcDbEntity
  8
04
100
AcDbLine
 10
234.8000894623906
 20
372.406774685922
 30
0.0
 11
234.8001529425316
 21
371.9567542804886
 31
0.0
  0
LINE
  5
3845
330
A
100
AcDbEntity
  8
04
100
AcDbLine
 10
235.7999911054835
 20
384.4560595833052
 30
0.0
 11
235.8000882906435
 21
381.5067640230232
 31
0.0
  0
LINE
  5
3846
330
A
100
AcDbEntity
  8
04
100
AcDbLine
 10
235.7999929264681
 20
372.4060425531246
 30
0.0
 11
235.8000957920537
 21
369.4566629159431
 31
0.0
  0
LINE
  5
3847
330
A
100
AcDbEntity
  8
04
100
AcDbLine
 10
246.3000963486388
 20
384.4567306809451
 30
0.0
 11
246.3000998125358
 21
383.4567623959767
 31
0.0
  0
LINE
  5
3848
330
A
100
AcDbEntity
  8
04
100
AcDbLine
 10
246.3001322062627
 20
370.4567763129686
 30
0.0
 11
246.3001670744697
 21
369.457029127186
 31
0.0
  0
LINE
  5
3849
330
A
100
AcDbEntity
  8
04
100
AcDbLine
 10
259.9705159974575
 20
387.9560595698971
 30
0.0
 11
259.9706991067419
 21
383.9559786464763
 31
0.0
  0
LINE
  5
384A
330
A
100
AcDbEntity
  8
04
100
AcDbLine
 10
259.9706044055578
 20
373.9552794755366
 30
0.0
 11
259.9706044055578
 21
369.9568839324645
 31
0.0
  0
LINE
  5
384B
330
A
100
AcDbEntity
  8
04
100
AcDbLine
 10
260.9706021020883
 20
383.9560244184308
 30
0.0
 11
260.9706075873682
 21
383.5560215629596
 31
0.0
  0
LINE
  5
384C
330
A
100
AcDbEntity
  8
04
100
AcDbLine
 10
260.9706951300378
 20
374.3560130001203
 30
0.0
 11
260.9706035720709
 21
373.9552799299984
 31
0.0
  0
LINE
  5
384D
330
A
100
AcDbEntity
  8
04
100
AcDbLine
 10
262.2705077725667
 20
383.5740674239534
 30
0.0
 11
262.2705078149749
 21
383.556024618271
 31
0.0
  0
LINE
  5
384E
330
A
100
AcDbEntity
  8
04
100
AcDbLine
 10
262.2705986941956
 20
374.3552324219868
 30
0.0
 11
262.2705968910482
 21
374.3365000616646
 31
0.0
  0
LINE
  5
384F
330
A
100
AcDbEntity
  8
04
100
AcDbLine
 10
223.2996187974668
 20
407.9557965965483
 30
0.0
 11
223.2996187974668
 21
406.3321517072356
 31
0.0
  0
LINE
  5
3850
330
A
100
AcDbEntity
  8
04
100
AcDbLine
 10
264.8985656476213
 20
413.6550063438617
 30
0.0
 11
264.8986209384988
 21
413.4605537490894
 31
0.0
  0
LINE
  5
3851
330
A
100
AcDbEntity
  8
04
100
AcDbLine
 10
264.8986074591761
 20
398.4493835083485
 30
0.0
 11
264.8986056985915
 21
398.2550120693728
 31
0.0
  0
LINE
  5
3874
330
A
100
AcDbEntity
  8
04
100
AcDbLine
 10
260.7999066630504
 20
423.9555607682291
 30
0.0
 11
260.800825118277
 21
419.8114393031777
 31
0.0
  0
LINE
  5
3875
330
A
100
AcDbEntity
  8
04
100
AcDbLine
 10
263.2997783493026
 20
419.8114393031777
 30
0.0
 11
263.2986380811999
 21
413.6550090140355
 31
0.0
  0
LINE
  5
3876
330
A
100
AcDbEntity
  8
04
100
AcDbLine
 10
263.2986664997307
 20
398.2550265613583
 30
0.0
 11
263.2998423567505
 21
392.0986318819387
 31
0.0
  0
TEXT
  5
388E
330
A
100
AcDbEntity
  8
MOJI
100
AcDbText
 10
388.0488190392161
 20
48.27151320611588
 30
0.0
 40
8.0
  1
Ｓ
 41
0.8
  7
0_8
 11
388.0488190392161
 21
56.27151320611588
 31
0.0
100
AcDbText
 73
     3
  0
CIRCLE
  5
388F
330
A
100
AcDbEntity
  8
SAISEN
100
AcDbCircle
 10
391.0976380784321
 20
52.54302641223159
 30
0.0
 40
5.0
  0
MTEXT
  5
3941
330
A
100
AcDbEntity
  8
MOJI
100
AcDbMText
 10
309.9999999999997
 20
32.00000000000022
 30
0.0
 40
7.0
 41
50.0
 71
     5
 72
     1
  1
図番１５－２
  7
0_80
1001
ACAD
1000
MTEXTBEGIN
1070
    73
1070
     1
1070
    44
1040
1.0
1070
    74
1070
     0
1000
MTEXTEND
1000
MTEXTBEGIN
1070
    73
1070
     1
1070
    44
1040
1.0
1070
    74
1070
     0
1000
MTEXTEND
  0
MTEXT
  5
3942
330
A
100
AcDbEntity
  8
MOJI
100
AcDbMText
 10
359.9999999999999
 20
31.5
 30
0.0
 40
7.0
 41
49.99999999999994
 71
     5
 72
     1
  1
たて断面図　
  7
0_80
1001
ACAD
1000
MTEXTBEGIN
1070
    73
1070
     1
1070
    44
1040
1.0
1070
    74
1070
     0
1000
MTEXTEND
1000
MTEXTBEGIN
1070
    73
1070
     1
1070
    44
1040
1.0
1070
    74
1070
     0
1000
MTEXTEND
  0
MTEXT
  5
3943
330
A
100
AcDbEntity
  8
MOJI
100
AcDbMText
 10
255.0000000000029
 20
32.0
 30
0.0
 40
7.0
 41
60.0
 71
     5
 72
     1
  1
２重片引き又は\P２重両引き　　
  7
0_8
1001
ACAD
1000
MTEXTBEGIN
1070
    73
1070
     1
1070
    44
1040
1.0
1070
    74
1070
     0
1000
MTEXTEND
1000
MTEXTBEGIN
1070
    73
1070
     1
1070
    44
1040
1.0
1070
    74
1070
     0
1000
MTEXTEND
  0
LINE
  5
3944
330
A
100
AcDbEntity
  8
SAISEN
100
AcDbLine
 10
285.0
 20
44.00000000000022
 30
0.0
 11
285.0
 21
20.0
 31
0.0
  0
LINE
  5
3945
330
A
100
AcDbEntity
  8
SAISEN
100
AcDbLine
 10
225.0
 20
44.00000000000022
 30
0.0
 11
225.0
 21
20.0
 31
0.0
  0
MTEXT
  5
3946
330
A
100
AcDbEntity
  8
MOJI
100
AcDbMText
 10
145.0
 20
32.0
 30
0.0
 40
7.0
 41
80.0
 71
     4
 72
     1
  1
　　ＳＯＶ－  ６０ＫＭ\P　　ＳＯＶ－１５０ＫＭ
  7
0_8
1001
ACAD
1000
MTEXTBEGIN
1070
    73
1070
     1
1070
    44
1040
1.0
1070
    74
1070
     0
1000
MTEXTEND
1000
MTEXTBEGIN
1070
    73
1070
     1
1070
    44
1040
1.0
1070
    74
1070
     0
1000
MTEXTEND
  0
LINE
  5
3947
330
A
100
AcDbEntity
  8
SAISEN
100
AcDbLine
 10
145.0
 20
44.00000000000022
 30
0.0
 11
145.0
 21
20.0
 31
0.0
  0
MTEXT
  5
3948
330
A
100
AcDbEntity
  8
MOJI
100
AcDbMText
 10
90.0
 20
32.0
 30
0.0
 40
7.0
 41
110.0
 71
     5
 72
     1
  1
ダブルスライド･ドア\P（ユニット台板納り）
  7
0_8
1001
ACAD
1000
MTEXTBEGIN
1070
    73
1070
     1
1070
    44
1040
1.0
1070
    74
1070
     0
1000
MTEXTEND
1000
MTEXTBEGIN
1070
    73
1070
     1
1070
    44
1040
1.0
1070
    74
1070
     0
1000
MTEXTEND
  0
POLYLINE
  5
3949
330
A
100
AcDbEntity
  8
SAISEN
100
AcDb2dPolyline
 66
     1
 10
0.0
 20
0.0
 30
0.0
 70
     1
  0
VERTEX
  5
39A5
330
3949
100
AcDbEntity
  8
SAISEN
100
AcDbVertex
100
AcDb2dVertex
 10
35.0
 20
20.0
 30
0.0
  0
VERTEX
  5
39A6
330
3949
100
AcDbEntity
  8
SAISEN
100
AcDbVertex
100
AcDb2dVertex
 10
385.0
 20
20.0
 30
0.0
  0
VERTEX
  5
39A7
330
3949
100
AcDbEntity
  8
SAISEN
100
AcDbVertex
100
AcDb2dVertex
 10
385.0
 20
44.00000000000022
 30
0.0
  0
VERTEX
  5
39A8
330
3949
100
AcDbEntity
  8
SAISEN
100
AcDbVertex
100
AcDb2dVertex
 10
35.0
 20
44.00000000000022
 30
0.0
  0
SEQEND
  5
39A9
330
3949
100
AcDbEntity
  8
SAISEN
  0
VIEWPORT
  5
D52
102
{ACAD_XDICTIONARY
360
3978
102
}
330
B
100
AcDbEntity
 67
     1
  8
0
100
AcDbViewport
 10
198.3057204898195
 20
284.4802032507345
 30
0.0
 40
1080.347564134148
 41
628.3535021666721
 68
     1
 69
     1
1001
ACAD
1000
MVIEW
1002
{
1070
    16
1010
0.0
1020
0.0
1030
0.0
1010
0.0
1020
0.0
1030
1.0
1040
0.0
1040
628.3535021666721
1040
198.3057204898195
1040
284.4802032507345
1040
50.0
1040
0.0
1040
0.0
1070
     0
1070
   100
1070
     1
1070
     1
1070
     0
1070
     0
1070
     0
1070
     0
1040
0.0
1040
0.0
1040
0.0
1040
10.0
1040
10.0
1040
10.0
1040
10.0
1070
     0
1002
{
1002
}
1002
}
  0
VIEWPORT
  5
3962
102
{ACAD_XDICTIONARY
360
397E
102
}
330
B
100
AcDbEntity
 67
     1
  8
DEFPOINTS
100
AcDbViewport
 10
198.305721443582
 20
284.480202296972
 30
0.0
 40
396.4883172119752
 41
570.409736121624
 68
     2
 69
     2
1001
ACAD
1000
MVIEW
1002
{
1070
    16
1010
0.0
1020
0.0
1030
0.0
1010
0.0
1020
0.0
1030
1.0
1040
0.0
1040
570.409736121624
1040
210.0
1040
297.0
1040
50.0
1040
0.0
1040
0.0
1070
     0
1070
   100
1070
     1
1070
     1
1070
     0
1070
     0
1070
     0
1070
     0
1040
0.0
1040
0.0
1040
0.0
1040
1.0
1040
1.0
1040
0.0
1040
0.0
1070
     0
1002
{
1002
}
1002
}
  0
ENDSEC
  0
SECTION
  2
OBJECTS
  0
DICTIONARY
  5
19
330
0
100
AcDbDictionary
  3
ACAD_COLOR
350
C0E
  3
ACAD_GROUP
350
1A
  3
ACAD_LAYOUT
350
7AA
  3
ACAD_MATERIAL
350
C0D
  3
ACAD_MLINESTYLE
350
1B
  3
ACAD_PLOTSETTINGS
350
7AB
  3
ACADDIM
350
304D
  3
ASE_INDEX_DICTIONARY
350
394A
1001
ACAD
1000
TREAT_AS_HARD
1070
     0
1000
TREAT_AS_HARD
1070
     0
  0
DICTIONARY
  5
3931
330
2
100
AcDbDictionary
  3
ACAD_LAYERSTATES
350
3932
1001
ACAD
1000
TREAT_AS_HARD
1070
     1
  0
DICTIONARY
  5
38B3
330
A
100
AcDbDictionary
  3
ACAD_LAYOUTSELFREF
350
3986
1001
ACAD
1000
TREAT_AS_HARD
1070
     1
  0
DICTIONARY
  5
38B5
330
B
100
AcDbDictionary
  3
ACAD_LAYOUTSELFREF
350
3987
1001
ACAD
1000
TREAT_AS_HARD
1070
     1
  0
DICTIONARY
  5
3978
330
D52
100
AcDbDictionary
  3
ACAD_XREC_ROUNDTRIP
350
3979
1001
ACAD
1000
TREAT_AS_HARD
1070
     1
  0
DICTIONARY
  5
397E
330
3962
100
AcDbDictionary
  3
ACAD_XREC_ROUNDTRIP
350
397F
1001
ACAD
1000
TREAT_AS_HARD
1070
     1
  0
DICTIONARY
  5
C0E
102
{ACAD_REACTORS
330
19
102
}
330
19
100
AcDbDictionary
1001
ACAD
1000
TREAT_AS_HARD
1070
     0
1000
TREAT_AS_HARD
1070
     0
  0
DICTIONARY
  5
1A
102
{ACAD_REACTORS
330
19
102
}
330
19
100
AcDbDictionary
  3
DAGROUP5AC
350
5AC
  3
DAGROUP5B0
350
5B0
1001
ACAD
1000
TREAT_AS_HARD
1070
     0
1000
TREAT_AS_HARD
1070
     0
  0
DICTIONARY
  5
7AA
102
{ACAD_REACTORS
330
19
102
}
330
19
100
AcDbDictionary
1001
ACAD
1000
TREAT_AS_HARD
1070
     0
1000
TREAT_AS_HARD
1070
     0
  0
DICTIONARY
  5
C0D
102
{ACAD_REACTORS
330
19
102
}
330
19
100
AcDbDictionary
1001
ACAD
1000
TREAT_AS_HARD
1070
     0
1000
TREAT_AS_HARD
1070
     0
  0
DICTIONARY
  5
1B
102
{ACAD_REACTORS
330
19
102
}
330
19
100
AcDbDictionary
  3
STANDARD
350
1C
1001
ACAD
1000
TREAT_AS_HARD
1070
     0
1000
TREAT_AS_HARD
1070
     0
  0
DICTIONARY
  5
7AB
102
{ACAD_REACTORS
330
19
102
}
330
19
100
AcDbDictionary
1001
ACAD
1000
TREAT_AS_HARD
1070
     0
1000
TREAT_AS_HARD
1070
     0
  0
XRECORD
  5
304D
102
{ACAD_REACTORS
330
19
102
}
330
19
100
AcDbXrecord
 90
   990106
  3

 60
     0
 61
     0
 62
     4
 63
     4
 64
     1
 65
     0
 66
     0
 67
     3
 68
     1
 69
     0
 70
     0
 71
     0
 72
     0
 40
0.0
170
     2
340
304F
  0
DICTIONARY
  5
394A
102
{ACAD_REACTORS
330
19
102
}
330
19
100
AcDbDictionary
  3
ASEBLOCKHIERARCHYINDEXRECORD
350
394B
1001
DCO15
1040
1508736305.687
1001
ACAD
1000
TREAT_AS_HARD
1070
     0
  0
DICTIONARY
  5
3932
102
{ACAD_REACTORS
330
3931
102
}
330
3931
100
AcDbDictionary
1001
ACAD
1000
TREAT_AS_HARD
1070
     0
  0
XRECORD
  5
3986
102
{ACAD_REACTORS
330
38B3
102
}
330
38B3
100
AcDbXrecord
340
A
  0
XRECORD
  5
3987
102
{ACAD_REACTORS
330
38B5
102
}
330
38B5
100
AcDbXrecord
340
B
  0
XRECORD
  5
3979
102
{ACAD_REACTORS
330
3978
102
}
330
3978
100
AcDbXrecord
102
SHADEPLOT
 70
     0
  0
XRECORD
  5
397F
102
{ACAD_REACTORS
330
397E
102
}
330
397E
100
AcDbXrecord
102
SHADEPLOT
 70
     0
  0
GROUP
  5
5AC
102
{ACAD_REACTORS
330
1A
102
}
330
1A
100
AcDbGroup
300

 70
     0
 71
     1
  0
GROUP
  5
5B0
102
{ACAD_REACTORS
330
1A
102
}
330
1A
100
AcDbGroup
300

 70
     0
 71
     1
  0
MLINESTYLE
  5
1C
102
{ACAD_REACTORS
330
1B
102
}
330
1B
100
AcDbMlineStyle
  2
STANDARD
 70
     0
  3

 62
     0
 51
90.00000000000019
 52
90.00000000000019
 71
     2
 49
0.5
 62
   256
  6
BYLAYER
 49
-0.5
 62
   256
  6
BYLAYER
  0
XRECORD
  5
394B
102
{ACAD_REACTORS
330
394A
102
}
330
394A
100
AcDbXrecord
330
290F
330
235B
330
235C
330
2352
330
2353
330
38C3
330
38C4
330
38CE
330
260D
330
260E
330
38D6
330
38D7
330
267C
330
267D
330
38DF
330
38E0
330
26B4
330
26B5
330
38E8
330
38E9
330
2365
330
2366
330
2FEE
330
2FEF
330
2349
330
234A
330
2341
330
2342
330
2335
330
2336
330
26F2
330
26F3
330
27FE
330
27FF
330
2321
330
2322
330
C45
330
C46
330
3903
330
3904
330
27F3
330
27F4
330
2DF8
330
2DF9
330
2D98
330
2D99
330
2D8F
330
2D90
330
2DDD
330
2DDE
330
2DD4
330
2DD5
330
2DE6
330
2DE7
330
2DEF
330
2DF0
330
30BF
330
30C0
330
30B6
330
30B7
330
2FF6
330
2FF7
  0
ENDSEC
  0
EOF
