  0
SECTION
  2
HEADER
  9
$ACADVER
  1
AC1012
  9
$DWGCODEPAGE
  3
dos932
  9
$INSBASE
 10
0.0
 20
0.0
 30
0.0
  9
$EXTMIN
 10
0.0
 20
0.0
 30
0.0
  9
$EXTMAX
 10
420.0
 20
594.0
 30
0.0
  9
$LIMMIN
 10
0.0
 20
0.0
  9
$LIMMAX
 10
420.0
 20
594.0
  9
$ORTHOMODE
 70
     0
  9
$REGENMODE
 70
     1
  9
$FILLMODE
 70
     1
  9
$QTEXTMODE
 70
     0
  9
$MIRRTEXT
 70
     1
  9
$DRAGMODE
 70
     2
  9
$LTSCALE
 40
1.0
  9
$OSMODE
 70
    37
  9
$ATTMODE
 70
     1
  9
$TEXTSIZE
 40
4.0
  9
$TRACEWID
 40
0.05
  9
$TEXTSTYLE
  7
1_0
  9
$CLAYER
  8
KAKURE
  9
$CELTYPE
  6
BYLAYER
  9
$CECOLOR
 62
   256
  9
$CELTSCALE
 40
1.0
  9
$DELOBJ
 70
     1
  9
$DISPSILH
 70
     0
  9
$DIMSCALE
 40
2.0
  9
$DIMASZ
 40
2.5
  9
$DIMEXO
 40
1.5
  9
$DIMDLI
 40
0.0
  9
$DIMRND
 40
0.0
  9
$DIMDLE
 40
0.0
  9
$DIMEXE
 40
1.0
  9
$DIMTP
 40
0.0
  9
$DIMTM
 40
0.0
  9
$DIMTXT
 40
2.5
  9
$DIMCEN
 40
0.0
  9
$DIMTSZ
 40
0.0
  9
$DIMTOL
 70
     0
  9
$DIMLIM
 70
     0
  9
$DIMTIH
 70
     0
  9
$DIMTOH
 70
     0
  9
$DIMSE1
 70
     0
  9
$DIMSE2
 70
     0
  9
$DIMTAD
 70
     1
  9
$DIMZIN
 70
     8
  9
$DIMBLK
  1
OPEN30
  9
$DIMASO
 70
     1
  9
$DIMSHO
 70
     1
  9
$DIMPOST
  1

  9
$DIMAPOST
  1

  9
$DIMALT
 70
     0
  9
$DIMALTD
 70
     2
  9
$DIMALTF
 40
25.4
  9
$DIMLFAC
 40
1.0
  9
$DIMTOFL
 70
     1
  9
$DIMTVP
 40
0.0
  9
$DIMTIX
 70
     0
  9
$DIMSOXD
 70
     0
  9
$DIMSAH
 70
     0
  9
$DIMBLK1
  1

  9
$DIMBLK2
  1

  9
$DIMSTYLE
  2
SUNPOU_2
  9
$DIMCLRD
 70
   256
  9
$DIMCLRE
 70
   256
  9
$DIMCLRT
 70
     6
  9
$DIMTFAC
 40
1.0
  9
$DIMGAP
 40
1.0
  9
$DIMJUST
 70
     0
  9
$DIMSD1
 70
     0
  9
$DIMSD2
 70
     0
  9
$DIMTOLJ
 70
     1
  9
$DIMTZIN
 70
     0
  9
$DIMALTZ
 70
     0
  9
$DIMALTTZ
 70
     0
  9
$DIMFIT
 70
     3
  9
$DIMUPT
 70
     0
  9
$DIMUNIT
 70
     2
  9
$DIMDEC
 70
     1
  9
$DIMTDEC
 70
     1
  9
$DIMALTU
 70
     2
  9
$DIMALTTD
 70
     2
  9
$DIMTXSTY
  7
SUNPOU
  9
$DIMAUNIT
 70
     0
  9
$LUNITS
 70
     2
  9
$LUPREC
 70
     4
  9
$SKETCHINC
 40
0.1
  9
$FILLETRAD
 40
0.0
  9
$AUNITS
 70
     0
  9
$AUPREC
 70
     0
  9
$MENU
  1
acad
  9
$ELEVATION
 40
0.0
  9
$PELEVATION
 40
0.0
  9
$THICKNESS
 40
0.0
  9
$LIMCHECK
 70
     0
  9
$BLIPMODE
 70
     0
  9
$CHAMFERA
 40
0.0
  9
$CHAMFERB
 40
0.0
  9
$CHAMFERC
 40
0.0
  9
$CHAMFERD
 40
0.0
  9
$SKPOLY
 70
     0
  9
$TDCREATE
 40
2444972.375000000
  9
$TDUPDATE
 40
2453266.400058946
  9
$TDINDWG
 40
0.9409165046
  9
$TDUSRTIMER
 40
0.9409165046
  9
$USRTIMER
 70
     1
  9
$ANGBASE
 50
0.0
  9
$ANGDIR
 70
     0
  9
$PDMODE
 70
     0
  9
$PDSIZE
 40
1.0
  9
$PLINEWID
 40
0.0
  9
$COORDS
 70
     1
  9
$SPLFRAME
 70
     0
  9
$SPLINETYPE
 70
     6
  9
$SPLINESEGS
 70
     8
  9
$ATTDIA
 70
     0
  9
$ATTREQ
 70
     1
  9
$HANDLING
 70
-16383
  9
$HANDSEED
  5
15E9
  9
$SURFTAB1
 70
     6
  9
$SURFTAB2
 70
     6
  9
$SURFTYPE
 70
     6
  9
$SURFU
 70
     6
  9
$SURFV
 70
     6
  9
$UCSNAME
  2

  9
$UCSORG
 10
0.0
 20
0.0
 30
0.0
  9
$UCSXDIR
 10
1.0
 20
0.0
 30
0.0
  9
$UCSYDIR
 10
0.0
 20
1.0
 30
0.0
  9
$PUCSNAME
  2

  9
$PUCSORG
 10
0.0
 20
0.0
 30
0.0
  9
$PUCSXDIR
 10
1.0
 20
0.0
 30
0.0
  9
$PUCSYDIR
 10
0.0
 20
1.0
 30
0.0
  9
$USERI1
 70
     0
  9
$USERI2
 70
     0
  9
$USERI3
 70
     0
  9
$USERI4
 70
     0
  9
$USERI5
 70
     0
  9
$USERR1
 40
0.0
  9
$USERR2
 40
0.0
  9
$USERR3
 40
0.0
  9
$USERR4
 40
0.0
  9
$USERR5
 40
0.0
  9
$WORLDVIEW
 70
     1
  9
$SHADEDGE
 70
     3
  9
$SHADEDIF
 70
    70
  9
$TILEMODE
 70
     1
  9
$MAXACTVP
 70
    16
  9
$PINSBASE
 10
0.0
 20
0.0
 30
0.0
  9
$PLIMCHECK
 70
     0
  9
$PEXTMIN
 10
-0.2055473772918503
 20
-0.0174202791267817
 30
-0.0000000349181948
  9
$PEXTMAX
 10
396.3139079836237
 20
570.3923158424973
 30
0.0000000814935747
  9
$PLIMMIN
 10
-11.94191342824454
 20
-11.76600219398141
  9
$PLIMMAX
 10
408.0435733360149
 20
582.1408996648768
  9
$UNITMODE
 70
     0
  9
$VISRETAIN
 70
     0
  9
$PLINEGEN
 70
     1
  9
$PSLTSCALE
 70
     0
  9
$TREEDEPTH
 70
  3020
  9
$PICKSTYLE
 70
     1
  9
$CMLSTYLE
  2
STANDARD
  9
$CMLJUST
 70
     0
  9
$CMLSCALE
 40
1.0
  9
$SAVEIMAGES
 70
     1
  0
ENDSEC
  0
SECTION
  2
CLASSES
  0
CLASS
  1
LWPOLYLINE
  2
AcDbPolyline
  3
AutoCAD 2000
 90
    32768
280
     0
281
     1
  0
CLASS
  1
IMAGE
  2
AcDbRasterImage
  3
ISM
 90
    32895
280
     0
281
     1
  0
CLASS
  1
OLE2FRAME
  2
AcDbOle2Frame
  3
AutoCAD 2000
 90
    32768
280
     0
281
     1
  0
CLASS
  1
HATCH
  2
AcDbHatch
  3
AutoCAD 2000
 90
    32768
280
     0
281
     1
  0
CLASS
  1
DICTIONARYVAR
  2
AcDbDictionaryVar
  3
AutoCAD 2000
 90
    32768
280
     0
281
     0
  0
CLASS
  1
RASTERVARIABLES
  2
AcDbRasterVariables
  3
ISM
 90
    32768
280
     0
281
     0
  0
CLASS
  1
IMAGEDEF
  2
AcDbRasterImageDef
  3
ISM
 90
    32768
280
     0
281
     0
  0
CLASS
  1
IMAGEDEF_REACTOR
  2
AcDbRasterImageDefReactor
  3
ISM
 90
    32769
280
     0
281
     0
  0
CLASS
  1
IDBUFFER
  2
AcDbIdBuffer
  3
AutoCAD 2000
 90
    32768
280
     0
281
     0
  0
CLASS
  1
SPATIAL_FILTER
  2
AcDbSpatialFilter
  3
AutoCAD 2000
 90
    32768
280
     0
281
     0
  0
CLASS
  1
XRECORD
  2
AcDbXrecord
  3
AutoCAD 2000
 90
    32768
280
     0
281
     0
  0
CLASS
  1
SORTENTSTABLE
  2
AcDbSortentsTable
  3
AutoCAD 2000
 90
    32768
280
     0
281
     0
  0
CLASS
  1
LAYER_INDEX
  2
AcDbLayerIndex
  3
AutoCAD 2000
 90
    32768
280
     0
281
     0
  0
CLASS
  1
SPATIAL_INDEX
  2
AcDbSpatialIndex
  3
AutoCAD 2000
 90
    32768
280
     0
281
     0
  0
CLASS
  1
OBJECT_PTR
  2
CAseDLPNTableRecord
  3
ASE-LPNTableRecord
 90
    32769
280
     0
281
     0
  0
CLASS
  1
ACDBDICTIONARYWDFLT
  2
AcDbDictionaryWithDefault
  3
AutoCAD 2000
 90
    32768
280
     0
281
     0
  0
CLASS
  1
ACDBPLACEHOLDER
  2
AcDbPlaceHolder
  3
AutoCAD 2000
 90
    32768
280
     0
281
     0
  0
CLASS
  1
LAYOUT
  2
AcDbLayout
  3
AutoCAD 2000
 90
    32768
280
     0
281
     0
  0
CLASS
  1
LONG_TRANSACTION
  2
AcDbLongTransaction
  3
AutoCAD 2000
 90
    32768
280
     0
281
     0
  0
CLASS
  1
LWPOLYLINE
  2
AcDbPolyline
  3
AutoCAD 2000
 90
    32768
280
     0
281
     1
  0
CLASS
  1
HATCH
  2
AcDbHatch
  3
AutoCAD 2000
 90
    32768
280
     0
281
     1
  0
CLASS
  1
XRECORD
  2
AcDbXrecord
  3
AutoCAD 2000
 90
    32768
280
     0
281
     0
  0
CLASS
  1
LONG_TRANSACTION
  2
AcDbLongTransaction
  3
AutoCAD 2000
 90
    32768
280
     0
281
     0
  0
CLASS
  1
LWPOLYLINE
  2
AcDbPolyline
  3
AutoCAD 2000
 90
    32768
280
     0
281
     1
  0
CLASS
  1
HATCH
  2
AcDbHatch
  3
AutoCAD 2000
 90
    32768
280
     0
281
     1
  0
CLASS
  1
XRECORD
  2
AcDbXrecord
  3
AutoCAD 2000
 90
    32768
280
     0
281
     0
  0
ENDSEC
  0
SECTION
  2
TABLES
  0
TABLE
  2
VPORT
  5
7
330
0
100
AcDbSymbolTable
 70
     2
  0
VPORT
  5
15D6
330
7
100
AcDbSymbolTableRecord
100
AcDbViewportTableRecord
  2
*ACTIVE
 70
     0
 10
0.0
 20
0.0
 11
1.0
 21
1.0
 12
228.3545348567479
 22
297.0000027661124
 13
0.0
 23
0.0
 14
1.0
 24
1.0
 15
0.0
 25
0.0
 16
0.0
 26
0.0
 36
1.0
 17
0.0
 27
0.0
 37
0.0
 40
600.7863974837285
 41
1.780442804428044
 42
50.0
 43
0.0
 44
0.0
 50
0.0
 51
0.0
 71
     0
 72
   100
 73
     1
 74
     1
 75
     0
 76
     0
 77
     0
 78
     0
  0
ENDTAB
  0
TABLE
  2
LTYPE
  5
4
330
0
100
AcDbSymbolTable
 70
     4
  0
LTYPE
  5
11
330
4
100
AcDbSymbolTableRecord
100
AcDbLinetypeTableRecord
  2
BYBLOCK
 70
     0
  3

 72
    65
 73
     0
 40
0.0
  0
LTYPE
  5
12
330
4
100
AcDbSymbolTableRecord
100
AcDbLinetypeTableRecord
  2
BYLAYER
 70
     0
  3

 72
    65
 73
     0
 40
0.0
  0
LTYPE
  5
13
330
4
100
AcDbSymbolTableRecord
100
AcDbLinetypeTableRecord
  2
CONTINUOUS
 70
     0
  3
Solid line
 72
    65
 73
     0
 40
0.0
  0
LTYPE
  5
850
330
4
100
AcDbSymbolTableRecord
100
AcDbLinetypeTableRecord
  2
CENTER2
 70
     0
  3
Center (.5x) ___ _ ___ _ ___ _ ___ _ ___ _ ___
 72
    65
 73
     4
 40
28.57499999999999
 49
19.05
 74
     0
 49
-3.174999999999998
 74
     0
 49
3.174999999999998
 74
     0
 49
-3.174999999999998
 74
     0
  0
LTYPE
  5
853
330
4
100
AcDbSymbolTableRecord
100
AcDbLinetypeTableRecord
  2
DASHED2
 70
     0
  3
Dashed (.5x) _ _ _ _ _ _ _ _ _ _ _ _ _ _ _ _ _
 72
    65
 73
     2
 40
9.524999999999996
 49
6.349999999999998
 74
     0
 49
-3.174999999999998
 74
     0
  0
LTYPE
  5
856
330
4
100
AcDbSymbolTableRecord
100
AcDbLinetypeTableRecord
  2
PHANTOM2
 70
     0
  3
Phantom (.5x) ___ _ _ ___ _ _ ___ _ _ ___ _ _
 72
    65
 73
     6
 40
31.75
 49
15.875
 74
     0
 49
-3.174999999999998
 74
     0
 49
3.174999999999998
 74
     0
 49
-3.174999999999998
 74
     0
 49
3.174999999999998
 74
     0
 49
-3.174999999999998
 74
     0
  0
ENDTAB
  0
TABLE
  2
LAYER
  5
2
102
{ACAD_XDICTIONARY
360
F78
102
}
330
0
100
AcDbSymbolTable
 70
    13
  0
LAYER
  5
14
330
2
100
AcDbSymbolTableRecord
100
AcDbLayerTableRecord
  2
0
 70
     0
 62
     7
  6
CONTINUOUS
  0
LAYER
  5
847
330
2
100
AcDbSymbolTableRecord
100
AcDbLayerTableRecord
  2
DEFPOINTS
 70
     0
 62
     7
  6
CONTINUOUS
  0
LAYER
  5
849
330
2
100
AcDbSymbolTableRecord
100
AcDbLayerTableRecord
  2
02
 70
     0
 62
     2
  6
CONTINUOUS
  0
LAYER
  5
84A
330
2
100
AcDbSymbolTableRecord
100
AcDbLayerTableRecord
  2
03
 70
     0
 62
     3
  6
CONTINUOUS
  0
LAYER
  5
84B
330
2
100
AcDbSymbolTableRecord
100
AcDbLayerTableRecord
  2
04
 70
     0
 62
     4
  6
CONTINUOUS
  0
LAYER
  5
84D
330
2
100
AcDbSymbolTableRecord
100
AcDbLayerTableRecord
  2
06
 70
     0
 62
     6
  6
CONTINUOUS
  0
LAYER
  5
84F
330
2
100
AcDbSymbolTableRecord
100
AcDbLayerTableRecord
  2
CHUSIN
 70
     0
 62
     6
  6
CENTER2
  0
LAYER
  5
851
330
2
100
AcDbSymbolTableRecord
100
AcDbLayerTableRecord
  2
HIKIDASI
 70
     0
 62
     6
  6
CONTINUOUS
  0
LAYER
  5
852
330
2
100
AcDbSymbolTableRecord
100
AcDbLayerTableRecord
  2
KAKURE
 70
     0
 62
     6
  6
DASHED2
  0
LAYER
  5
854
330
2
100
AcDbSymbolTableRecord
100
AcDbLayerTableRecord
  2
MOJI
 70
     0
 62
     3
  6
CONTINUOUS
  0
LAYER
  5
855
330
2
100
AcDbSymbolTableRecord
100
AcDbLayerTableRecord
  2
SOUZOU
 70
     0
 62
     6
  6
PHANTOM2
  0
LAYER
  5
857
330
2
100
AcDbSymbolTableRecord
100
AcDbLayerTableRecord
  2
SUNPOU
 70
     0
 62
     6
  6
CONTINUOUS
  0
LAYER
  5
10F7
330
2
100
AcDbSymbolTableRecord
100
AcDbLayerTableRecord
  2
SAISEN
 70
     0
 62
     3
  6
CONTINUOUS
  0
ENDTAB
  0
TABLE
  2
STYLE
  5
3
330
0
100
AcDbSymbolTable
 70
     5
  0
STYLE
  5
17
330
3
100
AcDbSymbolTableRecord
100
AcDbTextStyleTableRecord
  2
STANDARD
 70
     0
 40
0.0
 41
0.7
 50
0.0
 71
     0
 42
6.0
  3
txt.shx
  4
bigfont.shx
  0
STYLE
  5
859
330
3
100
AcDbSymbolTableRecord
100
AcDbTextStyleTableRecord
  2
SUNPOU
 70
     0
 40
0.0
 41
0.8
 50
0.0
 71
     0
 42
0.2
  3
txt.shx
  4
extfont.shx
  0
STYLE
  5
860
330
3
100
AcDbSymbolTableRecord
100
AcDbTextStyleTableRecord
  2
0_8
 70
     0
 40
0.0
 41
0.8
 50
0.0
 71
     0
 42
2.5
  3
txt.shx
  4
extfont.shx
  0
STYLE
  5
868
330
3
100
AcDbSymbolTableRecord
100
AcDbTextStyleTableRecord
  2
1_0
 70
     0
 40
0.0
 41
1.0
 50
0.0
 71
     0
 42
4.0
  3
txt.shx
  4
extfont.shx
  0
STYLE
  5
1577
330
3
100
AcDbSymbolTableRecord
100
AcDbTextStyleTableRecord
  2
0_80
 70
     0
 40
0.0
 41
0.8
 50
0.0
 71
     0
 42
7.0
  3
txt.shx
  4
extfont.shx
  0
ENDTAB
  0
TABLE
  2
VIEW
  5
5
330
0
100
AcDbSymbolTable
 70
     1
  0
VIEW
  5
136
330
5
100
AcDbSymbolTableRecord
100
AcDbViewTableRecord
  2
QQQQ
 70
     0
 40
610.5224639718807
 10
-3.884885764499131
 20
0.2516425577936729
 41
394.1742794376098
 11
0.0
 21
0.0
 31
1.0
 12
100.0
 22
100.0
 32
0.0
 42
50.0
 43
0.0
 44
0.0
 50
0.0
 71
     0
  0
ENDTAB
  0
TABLE
  2
UCS
  5
6
330
0
100
AcDbSymbolTable
 70
     0
  0
ENDTAB
  0
TABLE
  2
APPID
  5
8
330
0
100
AcDbSymbolTable
 70
     3
  0
APPID
  5
16
330
8
100
AcDbSymbolTableRecord
100
AcDbRegAppTableRecord
  2
ACAD
 70
     0
  0
APPID
  5
1547
330
8
100
AcDbSymbolTableRecord
100
AcDbRegAppTableRecord
  2
CONTENTBLOCKICON
 70
     0
  0
APPID
  5
159B
330
8
100
AcDbSymbolTableRecord
100
AcDbRegAppTableRecord
  2
DCO15
 70
     0
  0
ENDTAB
  0
TABLE
  2
DIMSTYLE
  5
9
330
0
100
AcDbSymbolTable
 70
     2
  0
DIMSTYLE
105
18
330
9
100
AcDbSymbolTableRecord
100
AcDbDimStyleTableRecord
  2
STANDARD
 70
     0
  3

  4

  5

  6

  7

 40
1.0
 41
0.18
 42
0.0625
 43
0.38
 44
0.18
 45
0.0
 46
0.0
 47
0.0
 48
0.0
140
0.18
141
0.09
142
0.0
143
25.4
144
1.0
145
0.0
146
1.0
147
0.09
 71
     0
 72
     0
 73
     1
 74
     1
 75
     0
 76
     0
 77
     0
 78
     0
170
     0
171
     2
172
     0
173
     0
174
     0
175
     0
176
     0
177
     0
178
     0
270
     2
271
     4
272
     4
273
     2
274
     2
340
17
275
     0
280
     0
281
     0
282
     0
283
     1
284
     0
285
     0
286
     0
287
     3
288
     0
  0
DIMSTYLE
105
858
102
{ACAD_REACTORS
330
894
330
8BB
330
8C8
330
8D5
330
8E2
330
8EF
330
8FC
330
909
330
916
330
923
330
930
330
93D
330
94C
330
959
330
966
330
975
330
982
330
991
330
99E
330
9AD
330
9BA
330
9C7
330
9D4
330
9E1
330
9F0
330
9FD
330
A0C
330
A1B
330
A43
330
B20
330
8AE
330
8A1
330
12C5
330
12C6
102
}
330
9
100
AcDbSymbolTableRecord
100
AcDbDimStyleTableRecord
  2
SUNPOU_2
 70
     0
  3

  4

  5
OPEN30
  6

  7

 40
2.0
 41
2.5
 42
1.5
 43
0.0
 44
1.0
 45
0.0
 46
0.0
 47
0.0
 48
0.0
140
2.5
141
0.0
142
0.0
143
25.4
144
1.0
145
0.0
146
1.0
147
1.0
 71
     0
 72
     0
 73
     0
 74
     0
 75
     0
 76
     0
 77
     1
 78
     8
170
     0
171
     2
172
     1
173
     0
174
     0
175
     0
176
   256
177
   256
178
     6
270
     2
271
     1
272
     1
273
     2
274
     2
340
859
275
     0
280
     0
281
     0
282
     0
283
     1
284
     0
285
     0
286
     0
287
     3
288
     0
  0
ENDTAB
  0
TABLE
  2
BLOCK_RECORD
  5
1
330
0
100
AcDbSymbolTable
 70
    36
  0
BLOCK_RECORD
  5
A
102
{ACAD_XDICTIONARY
360
1543
102
}
330
1
100
AcDbSymbolTableRecord
100
AcDbBlockTableRecord
  2
*MODEL_SPACE
  0
BLOCK_RECORD
  5
B
102
{ACAD_XDICTIONARY
360
1545
102
}
330
1
100
AcDbSymbolTableRecord
100
AcDbBlockTableRecord
  2
*PAPER_SPACE
  0
BLOCK_RECORD
  5
85A
330
1
100
AcDbSymbolTableRecord
100
AcDbBlockTableRecord
  2
_OPEN30
1001
CONTENTBLOCKICON
1071
        0
1004
2800000020000000200000000100080000000000000400000000000000000000000000000000000000000000000080000080000000808000800000008000800080800000C0C0C000C0DCC000F0CAA6000020400000206000002080000020A0000020C0000020E00000400000004020000040400000406000004080000040A0
1004
000040C0000040E00000600000006020000060400000606000006080000060A0000060C0000060E00000800000008020000080400000806000008080000080A0000080C0000080E00000A0000000A0200000A0400000A0600000A0800000A0A00000A0C00000A0E00000C0000000C0200000C0400000C0600000C0800000C0
1004
A00000C0C00000C0E00000E0000000E0200000E0400000E0600000E0800000E0A00000E0C00000E0E00040000000400020004000400040006000400080004000A0004000C0004000E00040200000402020004020400040206000402080004020A0004020C0004020E000404000004040200040404000404060004040800040
1004
40A0004040C0004040E00040600000406020004060400040606000406080004060A0004060C0004060E00040800000408020004080400040806000408080004080A0004080C0004080E00040A0000040A0200040A0400040A0600040A0800040A0A00040A0C00040A0E00040C0000040C0200040C0400040C0600040C08000
1004
40C0A00040C0C00040C0E00040E0000040E0200040E0400040E0600040E0800040E0A00040E0C00040E0E00080000000800020008000400080006000800080008000A0008000C0008000E00080200000802020008020400080206000802080008020A0008020C0008020E00080400000804020008040400080406000804080
1004
008040A0008040C0008040E00080600000806020008060400080606000806080008060A0008060C0008060E00080800000808020008080400080806000808080008080A0008080C0008080E00080A0000080A0200080A0400080A0600080A0800080A0A00080A0C00080A0E00080C0000080C0200080C0400080C0600080C0
1004
800080C0A00080C0C00080C0E00080E0000080E0200080E0400080E0600080E0800080E0A00080E0C00080E0E000C0000000C0002000C0004000C0006000C0008000C000A000C000C000C000E000C0200000C0202000C0204000C0206000C0208000C020A000C020C000C020E000C0400000C0402000C0404000C0406000C0
1004
408000C040A000C040C000C040E000C0600000C0602000C0604000C0606000C0608000C060A000C060C000C060E000C0800000C0802000C0804000C0806000C0808000C080A000C080C000C080E000C0A00000C0A02000C0A04000C0A06000C0A08000C0A0A000C0A0C000C0A0E000C0C00000C0C02000C0C04000C0C06000
1004
C0C08000C0C0A000F0FBFF00A4A0A000808080000000FF0000FF000000FFFF00FF000000FF00FF00FFFF0000FFFFFF0000000000000000000000000000000000000000000000000000000000000000000000000000000000000000000000000000000000000000000000000000000000000000000000000000000000000000
1004
00000000000000000000000000000000000000000000000000000000000000000000000000000000000000000000000000000000000000000000000000000000000000000000000000000000000000000000000000000000000000000000000000000000000000000000000000000000000000000000000000000000000000
1004
000000000000000000000000000000000000000000000000000000000000000000000000000000000000000000000000000000FFFF0000000000000000000000000000000000000000000000000000000000000000FFFFFFFF0000000000000000000000000000000000000000000000000000000000000000FFFFFFFF0000
1004
000000000000000000000000000000000000000000000000000000000000FFFFFF0000000000000000000000000000000000000000000000000000000000000000FFFFFFFF0000000000000000000000000000000000000000000000000000000000000000FFFFFF0000000000000000000000000000000000000000000000
1004
000000000000000000FFFFFFFF0000000000000000000000000000000000000000000000000000000000000000FFFFFFFF00000000FFFFFFFFFFFFFFFFFFFFFFFFFFFFFFFFFFFFFFFFFFFFFFFFFFFFFFFFFFFF00000000000000000000000000000000000000000000000000FFFFFFFF000000000000000000000000000000
1004
000000000000000000FFFFFFFF000000000000000000000000000000000000000000000000FFFFFFFF000000000000000000000000000000000000000000000000FFFFFFFF000000000000000000000000000000000000000000000000FFFFFFFF000000000000000000000000000000000000000000000000FFFFFFFF0000
1004
0000000000000000000000000000000000000000000000FFFFFF0000000000000000000000000000000000000000000000000000000000000000000000000000000000000000000000000000000000000000000000000000000000000000000000000000000000000000000000000000000000000000000000000000000000
1004
00000000000000000000000000000000000000000000000000000000000000000000000000000000000000000000000000000000000000000000000000000000000000000000000000000000000000000000000000000000000000000000000000000000000000000000000000000000000000000000000000000000000000
1004
0000000000000000000000000000000000000000000000000000000000000000000000000000000000000000000000000000000000000000
  0
BLOCK_RECORD
  5
895
330
1
100
AcDbSymbolTableRecord
100
AcDbBlockTableRecord
  2
*D1
  0
BLOCK_RECORD
  5
8A2
330
1
100
AcDbSymbolTableRecord
100
AcDbBlockTableRecord
  2
*D2
  0
BLOCK_RECORD
  5
8AF
330
1
100
AcDbSymbolTableRecord
100
AcDbBlockTableRecord
  2
*D3
  0
BLOCK_RECORD
  5
8BC
330
1
100
AcDbSymbolTableRecord
100
AcDbBlockTableRecord
  2
*D4
  0
BLOCK_RECORD
  5
8C9
330
1
100
AcDbSymbolTableRecord
100
AcDbBlockTableRecord
  2
*D5
  0
BLOCK_RECORD
  5
8D6
330
1
100
AcDbSymbolTableRecord
100
AcDbBlockTableRecord
  2
*D6
  0
BLOCK_RECORD
  5
8E3
330
1
100
AcDbSymbolTableRecord
100
AcDbBlockTableRecord
  2
*D7
  0
BLOCK_RECORD
  5
8F0
330
1
100
AcDbSymbolTableRecord
100
AcDbBlockTableRecord
  2
*D8
  0
BLOCK_RECORD
  5
8FD
330
1
100
AcDbSymbolTableRecord
100
AcDbBlockTableRecord
  2
*D9
  0
BLOCK_RECORD
  5
90A
330
1
100
AcDbSymbolTableRecord
100
AcDbBlockTableRecord
  2
*D10
  0
BLOCK_RECORD
  5
917
330
1
100
AcDbSymbolTableRecord
100
AcDbBlockTableRecord
  2
*D11
  0
BLOCK_RECORD
  5
924
330
1
100
AcDbSymbolTableRecord
100
AcDbBlockTableRecord
  2
*D12
  0
BLOCK_RECORD
  5
931
330
1
100
AcDbSymbolTableRecord
100
AcDbBlockTableRecord
  2
*D13
  0
BLOCK_RECORD
  5
93E
330
1
100
AcDbSymbolTableRecord
100
AcDbBlockTableRecord
  2
*D14
  0
BLOCK_RECORD
  5
94D
330
1
100
AcDbSymbolTableRecord
100
AcDbBlockTableRecord
  2
*D15
  0
BLOCK_RECORD
  5
95A
330
1
100
AcDbSymbolTableRecord
100
AcDbBlockTableRecord
  2
*D16
  0
BLOCK_RECORD
  5
967
330
1
100
AcDbSymbolTableRecord
100
AcDbBlockTableRecord
  2
*D17
  0
BLOCK_RECORD
  5
976
330
1
100
AcDbSymbolTableRecord
100
AcDbBlockTableRecord
  2
*D18
  0
BLOCK_RECORD
  5
983
330
1
100
AcDbSymbolTableRecord
100
AcDbBlockTableRecord
  2
*D19
  0
BLOCK_RECORD
  5
992
330
1
100
AcDbSymbolTableRecord
100
AcDbBlockTableRecord
  2
*D20
  0
BLOCK_RECORD
  5
99F
330
1
100
AcDbSymbolTableRecord
100
AcDbBlockTableRecord
  2
*D21
  0
BLOCK_RECORD
  5
9AE
330
1
100
AcDbSymbolTableRecord
100
AcDbBlockTableRecord
  2
*D22
  0
BLOCK_RECORD
  5
9BB
330
1
100
AcDbSymbolTableRecord
100
AcDbBlockTableRecord
  2
*D23
  0
BLOCK_RECORD
  5
9C8
330
1
100
AcDbSymbolTableRecord
100
AcDbBlockTableRecord
  2
*D24
  0
BLOCK_RECORD
  5
9D5
330
1
100
AcDbSymbolTableRecord
100
AcDbBlockTableRecord
  2
*D25
  0
BLOCK_RECORD
  5
9E2
330
1
100
AcDbSymbolTableRecord
100
AcDbBlockTableRecord
  2
*D26
  0
BLOCK_RECORD
  5
9F1
330
1
100
AcDbSymbolTableRecord
100
AcDbBlockTableRecord
  2
*D27
  0
BLOCK_RECORD
  5
9FE
330
1
100
AcDbSymbolTableRecord
100
AcDbBlockTableRecord
  2
*D28
  0
BLOCK_RECORD
  5
A0D
330
1
100
AcDbSymbolTableRecord
100
AcDbBlockTableRecord
  2
*D29
  0
BLOCK_RECORD
  5
A1C
330
1
100
AcDbSymbolTableRecord
100
AcDbBlockTableRecord
  2
*D30
  0
BLOCK_RECORD
  5
A44
330
1
100
AcDbSymbolTableRecord
100
AcDbBlockTableRecord
  2
*D31
  0
BLOCK_RECORD
  5
B21
330
1
100
AcDbSymbolTableRecord
100
AcDbBlockTableRecord
  2
*D32
  0
BLOCK_RECORD
  5
12C7
330
1
100
AcDbSymbolTableRecord
100
AcDbBlockTableRecord
  2
*D33
  0
BLOCK_RECORD
  5
12D3
330
1
100
AcDbSymbolTableRecord
100
AcDbBlockTableRecord
  2
*D34
  0
BLOCK_RECORD
  5
154D
330
1
100
AcDbSymbolTableRecord
100
AcDbBlockTableRecord
  2
*X35
  0
ENDTAB
  0
ENDSEC
  0
SECTION
  2
BLOCKS
  0
BLOCK
  5
D
330
A
100
AcDbEntity
  8
0
100
AcDbBlockBegin
  2
*MODEL_SPACE
 70
     0
 10
0.0
 20
0.0
 30
0.0
  3
*MODEL_SPACE
  1

  0
ENDBLK
  5
E
330
A
100
AcDbEntity
  8
0
100
AcDbBlockEnd
  0
BLOCK
  5
F
330
B
100
AcDbEntity
 67
     1
  8
0
100
AcDbBlockBegin
  2
*PAPER_SPACE
 70
     0
 10
0.0
 20
0.0
 30
0.0
  3
*PAPER_SPACE
  1

  0
ENDBLK
  5
10
330
B
100
AcDbEntity
 67
     1
  8
0
100
AcDbBlockEnd
  0
BLOCK
  5
85E
330
85A
100
AcDbEntity
  8
0
100
AcDbBlockBegin
  2
_OPEN30
 70
     0
 10
0.0
 20
0.0
 30
0.0
  3
_OPEN30
  1

  0
LINE
  5
85B
330
85A
100
AcDbEntity
  8
0
  6
BYBLOCK
 62
     0
100
AcDbLine
 10
-1.0
 20
0.26794919
 30
0.0
 11
0.0
 21
0.0
 31
0.0
  0
LINE
  5
85C
330
85A
100
AcDbEntity
  8
0
  6
BYBLOCK
 62
     0
100
AcDbLine
 10
0.0
 20
0.0
 30
0.0
 11
-1.0
 21
-0.26794919
 31
0.0
  0
LINE
  5
85D
330
85A
100
AcDbEntity
  8
0
  6
BYBLOCK
 62
     0
100
AcDbLine
 10
0.0
 20
0.0
 30
0.0
 11
-1.0
 21
0.0
 31
0.0
  0
ENDBLK
  5
85F
330
85A
100
AcDbEntity
  8
0
100
AcDbBlockEnd
  0
BLOCK
  5
89F
330
895
100
AcDbEntity
  8
0
100
AcDbBlockBegin
  2
*D1
 70
     1
 10
0.0
 20
0.0
 30
0.0
  3
*D1
  1

  0
LINE
  5
DD8
330
895
100
AcDbEntity
  8
SUNPOU
100
AcDbLine
 10
82.17381370826013
 20
552.5061511423549
 30
0.0
 11
48.75571177504401
 21
552.5061511423549
 31
0.0
  0
LINE
  5
DD9
330
895
100
AcDbEntity
  8
SUNPOU
100
AcDbLine
 10
82.17381370826013
 20
272.506151142355
 30
0.0
 11
48.75571177504395
 21
272.506151142355
 31
0.0
  0
LINE
  5
DDA
330
895
100
AcDbEntity
  8
SUNPOU
100
AcDbLine
 10
50.755711775044
 20
547.5061511423549
 30
0.0
 11
50.75571177504396
 21
277.506151142355
 31
0.0
  0
INSERT
  5
DDB
330
895
100
AcDbEntity
  8
SUNPOU
100
AcDbBlockReference
  2
_OPEN30
 10
50.755711775044
 20
552.5061511423549
 30
0.0
 41
5.0
 42
5.0
 43
5.0
 50
90.0
  0
INSERT
  5
DDC
330
895
100
AcDbEntity
  8
SUNPOU
100
AcDbBlockReference
  2
_OPEN30
 10
50.75571177504396
 20
272.506151142355
 30
0.0
 41
5.0
 42
5.0
 43
5.0
 50
270.0
  0
MTEXT
  5
DDD
330
895
100
AcDbEntity
  8
SUNPOU
 62
     6
100
AcDbMText
 10
46.2557117750439
 20
412.5061511423551
 30
0.0
 40
5.0
 41
0.0
 71
     5
 72
     1
  1
\A1;280
  7
SUNPOU
 11
0.0000000000000001
 21
1.0
 31
0.0
1001
ACAD
1000
MTEXTBEGIN
1070
    73
1070
     1
1070
    44
1040
1.0
1070
    74
1070
     0
1000
MTEXTEND
1000
MTEXTBEGIN
1070
    73
1070
     1
1070
    44
1040
1.0
1070
    74
1070
     0
1000
MTEXTEND
  0
POINT
  5
DDE
330
895
100
AcDbEntity
  8
DEFPOINTS
 62
     0
100
AcDbPoint
 10
85.17381370826013
 20
552.5061511423549
 30
0.0
  0
POINT
  5
DDF
330
895
100
AcDbEntity
  8
DEFPOINTS
 62
     0
100
AcDbPoint
 10
85.17381370826013
 20
272.506151142355
 30
0.0
  0
POINT
  5
DE0
330
895
100
AcDbEntity
  8
DEFPOINTS
 62
     0
100
AcDbPoint
 10
50.75571177504396
 20
272.506151142355
 30
0.0
  0
ENDBLK
  5
8A0
330
895
100
AcDbEntity
  8
0
100
AcDbBlockEnd
  0
BLOCK
  5
8AC
330
8A2
100
AcDbEntity
  8
0
100
AcDbBlockBegin
  2
*D2
 70
     1
 10
0.0
 20
0.0
 30
0.0
  3
*D2
  1

  0
LINE
  5
DCF
330
8A2
100
AcDbEntity
  8
SUNPOU
100
AcDbLine
 10
82.17381370826013
 20
272.506151142355
 30
0.0
 11
48.75571177504395
 21
272.506151142355
 31
0.0
  0
LINE
  5
DD0
330
8A2
100
AcDbEntity
  8
SUNPOU
100
AcDbLine
 10
47.75571177504395
 20
109.343992496957
 30
0.0
 11
48.7557117750439
 21
109.343992496957
 31
0.0
  0
LINE
  5
DD1
330
8A2
100
AcDbEntity
  8
SUNPOU
100
AcDbLine
 10
50.75571177504393
 20
267.506151142355
 30
0.0
 11
50.7557117750439
 21
114.343992496957
 31
0.0
  0
INSERT
  5
DD2
330
8A2
100
AcDbEntity
  8
SUNPOU
100
AcDbBlockReference
  2
_OPEN30
 10
50.75571177504396
 20
272.506151142355
 30
0.0
 41
5.0
 42
5.0
 43
5.0
 50
90.0
  0
INSERT
  5
DD3
330
8A2
100
AcDbEntity
  8
SUNPOU
100
AcDbBlockReference
  2
_OPEN30
 10
50.75571177504389
 20
109.343992496957
 30
0.0
 41
5.0
 42
5.0
 43
5.0
 50
270.0
  0
MTEXT
  5
DD4
330
8A2
100
AcDbEntity
  8
SUNPOU
 62
     6
100
AcDbMText
 10
46.25571177504388
 20
190.9250718196561
 30
0.0
 40
5.0
 41
0.0
 71
     5
 72
     1
  1
\A1;H
  7
SUNPOU
 11
0.0000000000000001
 21
1.0
 31
0.0
1001
ACAD
1000
MTEXTBEGIN
1070
    73
1070
     1
1070
    44
1040
1.0
1070
    74
1070
     0
1000
MTEXTEND
1000
MTEXTBEGIN
1070
    73
1070
     1
1070
    44
1040
1.0
1070
    74
1070
     0
1000
MTEXTEND
  0
POINT
  5
DD5
330
8A2
100
AcDbEntity
  8
DEFPOINTS
 62
     0
100
AcDbPoint
 10
85.17381370826013
 20
272.506151142355
 30
0.0
  0
POINT
  5
DD6
330
8A2
100
AcDbEntity
  8
DEFPOINTS
 62
     0
100
AcDbPoint
 10
50.75571177504396
 20
109.343992496957
 30
0.0
  0
POINT
  5
DD7
330
8A2
100
AcDbEntity
  8
DEFPOINTS
 62
     0
100
AcDbPoint
 10
50.75571177504389
 20
109.343992496957
 30
0.0
  0
ENDBLK
  5
8AD
330
8A2
100
AcDbEntity
  8
0
100
AcDbBlockEnd
  0
BLOCK
  5
8B9
330
8AF
100
AcDbEntity
  8
0
100
AcDbBlockBegin
  2
*D3
 70
     1
 10
0.0
 20
0.0
 30
0.0
  3
*D3
  1

  0
LINE
  5
1000
330
8AF
100
AcDbEntity
  8
SUNPOU
100
AcDbLine
 10
142.672979144466
 20
178.9581199459038
 30
0.0
 11
65.98100786490251
 21
178.9581199459038
 31
0.0
  0
LINE
  5
1001
330
8AF
100
AcDbEntity
  8
SUNPOU
100
AcDbLine
 10
112.4699792160972
 20
109.343992496957
 30
0.0
 11
65.98100786490249
 21
109.343992496957
 31
0.0
  0
LINE
  5
1002
330
8AF
100
AcDbEntity
  8
SUNPOU
100
AcDbLine
 10
67.98100786490251
 20
173.9581199459038
 30
0.0
 11
67.98100786490249
 21
114.343992496957
 31
0.0
  0
INSERT
  5
1003
330
8AF
100
AcDbEntity
  8
SUNPOU
100
AcDbBlockReference
  2
_OPEN30
 10
67.98100786490251
 20
178.9581199459038
 30
0.0
 41
5.0
 42
5.0
 43
5.0
 50
90.0
  0
INSERT
  5
1004
330
8AF
100
AcDbEntity
  8
SUNPOU
100
AcDbBlockReference
  2
_OPEN30
 10
67.98100786490249
 20
109.343992496957
 30
0.0
 41
5.0
 42
5.0
 43
5.0
 50
270.0
  0
MTEXT
  5
1005
330
8AF
100
AcDbEntity
  8
SUNPOU
 62
     6
100
AcDbMText
 10
63.48100786490246
 20
144.1510562214304
 30
0.0
 40
5.0
 41
0.0
 71
     5
 72
     1
  1
\A1;600
  7
SUNPOU
 11
0.0000000000000001
 21
1.0
 31
0.0
1001
ACAD
1000
MTEXTBEGIN
1070
    73
1070
     1
1070
    44
1040
1.0
1070
    74
1070
     0
1000
MTEXTEND
1000
MTEXTBEGIN
1070
    73
1070
     1
1070
    44
1040
1.0
1070
    74
1070
     0
1000
MTEXTEND
  0
POINT
  5
1006
330
8AF
100
AcDbEntity
  8
DEFPOINTS
 62
     0
100
AcDbPoint
 10
145.672979144466
 20
178.9581199459038
 30
0.0
  0
POINT
  5
1007
330
8AF
100
AcDbEntity
  8
DEFPOINTS
 62
     0
100
AcDbPoint
 10
115.4699792160972
 20
109.343992496957
 30
0.0
  0
POINT
  5
1008
330
8AF
100
AcDbEntity
  8
DEFPOINTS
 62
     0
100
AcDbPoint
 10
67.98100786490249
 20
109.343992496957
 30
0.0
  0
ENDBLK
  5
8BA
330
8AF
100
AcDbEntity
  8
0
100
AcDbBlockEnd
  0
BLOCK
  5
8C6
330
8BC
100
AcDbEntity
  8
0
100
AcDbBlockBegin
  2
*D4
 70
     1
 10
0.0
 20
0.0
 30
0.0
  3
*D4
  1

  0
LINE
  5
13DB
330
8BC
100
AcDbEntity
  8
SUNPOU
100
AcDbLine
 10
103.0447478707583
 20
455.0061511423549
 30
0.0
 11
59.07702705430256
 21
455.0061511423549
 31
0.0
  0
LINE
  5
13DC
330
8BC
100
AcDbEntity
  8
SUNPOU
100
AcDbLine
 10
115.4965545833126
 20
402.5061511423549
 30
0.0
 11
59.07702705430256
 21
402.5061511423549
 31
0.0
  0
LINE
  5
13DD
330
8BC
100
AcDbEntity
  8
SUNPOU
100
AcDbLine
 10
61.07702705430257
 20
450.0061511423551
 30
0.0
 11
61.07702705430256
 21
407.5061511423549
 31
0.0
  0
INSERT
  5
13DE
330
8BC
100
AcDbEntity
  8
SUNPOU
100
AcDbBlockReference
  2
_OPEN30
 10
61.07702705430257
 20
455.0061511423549
 30
0.0
 41
5.0
 42
5.0
 43
5.0
 50
90.0
  0
INSERT
  5
13DF
330
8BC
100
AcDbEntity
  8
SUNPOU
100
AcDbBlockReference
  2
_OPEN30
 10
61.07702705430256
 20
402.5061511423549
 30
0.0
 41
5.0
 42
5.0
 43
5.0
 50
270.0
  0
MTEXT
  5
13E0
330
8BC
100
AcDbEntity
  8
SUNPOU
 62
     6
100
AcDbMText
 10
56.57702705430249
 20
428.7561511423549
 30
0.0
 40
5.0
 41
0.0
 71
     5
 72
     1
  1
\A1;52.5
  7
SUNPOU
 11
0.0000000000000001
 21
1.0
 31
0.0
1001
ACAD
1000
MTEXTBEGIN
1070
    73
1070
     1
1070
    44
1040
1.0
1070
    74
1070
     0
1000
MTEXTEND
1000
MTEXTBEGIN
1070
    73
1070
     1
1070
    44
1040
1.0
1070
    74
1070
     0
1000
MTEXTEND
  0
POINT
  5
13E1
330
8BC
100
AcDbEntity
  8
DEFPOINTS
 62
     0
100
AcDbPoint
 10
106.0447478707583
 20
455.0061511423549
 30
0.0
  0
POINT
  5
13E2
330
8BC
100
AcDbEntity
  8
DEFPOINTS
 62
     0
100
AcDbPoint
 10
118.4965545833126
 20
402.5061511423549
 30
0.0
  0
POINT
  5
13E3
330
8BC
100
AcDbEntity
  8
DEFPOINTS
 62
     0
100
AcDbPoint
 10
61.07702705430256
 20
402.5061511423549
 30
0.0
  0
ENDBLK
  5
8C7
330
8BC
100
AcDbEntity
  8
0
100
AcDbBlockEnd
  0
BLOCK
  5
8D3
330
8C9
100
AcDbEntity
  8
0
100
AcDbBlockBegin
  2
*D5
 70
     1
 10
0.0
 20
0.0
 30
0.0
  3
*D5
  1

  0
LINE
  5
13E4
330
8C9
100
AcDbEntity
  8
SUNPOU
100
AcDbLine
 10
115.4965545833126
 20
402.5061511423549
 30
0.0
 11
59.07702705430256
 21
402.5061511423549
 31
0.0
  0
LINE
  5
13E5
330
8C9
100
AcDbEntity
  8
SUNPOU
100
AcDbLine
 10
80.57381370826011
 20
272.506151142355
 30
0.0
 11
59.07702705430253
 21
272.506151142355
 31
0.0
  0
LINE
  5
13E6
330
8C9
100
AcDbEntity
  8
SUNPOU
100
AcDbLine
 10
61.07702705430256
 20
397.5061511423549
 30
0.0
 11
61.07702705430253
 21
277.506151142355
 31
0.0
  0
INSERT
  5
13E7
330
8C9
100
AcDbEntity
  8
SUNPOU
100
AcDbBlockReference
  2
_OPEN30
 10
61.07702705430256
 20
402.5061511423549
 30
0.0
 41
5.0
 42
5.0
 43
5.0
 50
90.0
  0
INSERT
  5
13E8
330
8C9
100
AcDbEntity
  8
SUNPOU
100
AcDbBlockReference
  2
_OPEN30
 10
61.07702705430253
 20
272.506151142355
 30
0.0
 41
5.0
 42
5.0
 43
5.0
 50
270.0
  0
MTEXT
  5
13E9
330
8C9
100
AcDbEntity
  8
SUNPOU
 62
     6
100
AcDbMText
 10
56.57702705430249
 20
337.506151142355
 30
0.0
 40
5.0
 41
0.0
 71
     5
 72
     1
  1
\A1;130
  7
SUNPOU
 11
0.0000000000000001
 21
1.0
 31
0.0
1001
ACAD
1000
MTEXTBEGIN
1070
    73
1070
     1
1070
    44
1040
1.0
1070
    74
1070
     0
1000
MTEXTEND
1000
MTEXTBEGIN
1070
    73
1070
     1
1070
    44
1040
1.0
1070
    74
1070
     0
1000
MTEXTEND
  0
POINT
  5
13EA
330
8C9
100
AcDbEntity
  8
DEFPOINTS
 62
     0
100
AcDbPoint
 10
118.4965545833126
 20
402.5061511423549
 30
0.0
  0
POINT
  5
13EB
330
8C9
100
AcDbEntity
  8
DEFPOINTS
 62
     0
100
AcDbPoint
 10
83.5738137082601
 20
272.506151142355
 30
0.0
  0
POINT
  5
13EC
330
8C9
100
AcDbEntity
  8
DEFPOINTS
 62
     0
100
AcDbPoint
 10
61.07702705430253
 20
272.506151142355
 30
0.0
  0
ENDBLK
  5
8D4
330
8C9
100
AcDbEntity
  8
0
100
AcDbBlockEnd
  0
BLOCK
  5
8E0
330
8D6
100
AcDbEntity
  8
0
100
AcDbBlockBegin
  2
*D6
 70
     1
 10
0.0
 20
0.0
 30
0.0
  3
*D6
  1

  0
LINE
  5
138A
330
8D6
100
AcDbEntity
  8
SUNPOU
100
AcDbLine
 10
82.07381370826011
 20
325.506151142355
 30
0.0
 11
82.07381370826011
 21
393.2973367581451
 31
0.0
  0
LINE
  5
138B
330
8D6
100
AcDbEntity
  8
SUNPOU
100
AcDbLine
 10
130.0738137082599
 20
394.2973367581451
 30
0.0
 11
130.0738137082599
 21
393.2973367581451
 31
0.0
  0
LINE
  5
138C
330
8D6
100
AcDbEntity
  8
SUNPOU
100
AcDbLine
 10
87.07381370826011
 20
391.2973367581451
 30
0.0
 11
125.0738137082601
 21
391.2973367581451
 31
0.0
  0
INSERT
  5
138D
330
8D6
100
AcDbEntity
  8
SUNPOU
100
AcDbBlockReference
  2
_OPEN30
 10
82.07381370826011
 20
391.2973367581451
 30
0.0
 41
5.0
 42
5.0
 43
5.0
 50
180.0
  0
INSERT
  5
138E
330
8D6
100
AcDbEntity
  8
SUNPOU
100
AcDbBlockReference
  2
_OPEN30
 10
130.0738137082599
 20
391.2973367581451
 30
0.0
 41
5.0
 42
5.0
 43
5.0
  0
MTEXT
  5
138F
330
8D6
100
AcDbEntity
  8
SUNPOU
 62
     6
100
AcDbMText
 10
106.0738137082601
 20
395.7973367581451
 30
0.0
 40
5.0
 41
0.0
 71
     5
 72
     1
  1
\A1;48
  7
SUNPOU
1001
ACAD
1000
MTEXTBEGIN
1070
    73
1070
     1
1070
    44
1040
1.0
1070
    74
1070
     0
1000
MTEXTEND
1000
MTEXTBEGIN
1070
    73
1070
     1
1070
    44
1040
1.0
1070
    74
1070
     0
1000
MTEXTEND
  0
POINT
  5
1390
330
8D6
100
AcDbEntity
  8
DEFPOINTS
 62
     0
100
AcDbPoint
 10
82.07381370826011
 20
322.506151142355
 30
0.0
  0
POINT
  5
1391
330
8D6
100
AcDbEntity
  8
DEFPOINTS
 62
     0
100
AcDbPoint
 10
130.0738137082599
 20
391.2973367581451
 30
0.0
  0
POINT
  5
1392
330
8D6
100
AcDbEntity
  8
DEFPOINTS
 62
     0
100
AcDbPoint
 10
130.0738137082599
 20
391.2973367581451
 30
0.0
  0
ENDBLK
  5
8E1
330
8D6
100
AcDbEntity
  8
0
100
AcDbBlockEnd
  0
BLOCK
  5
8ED
330
8E3
100
AcDbEntity
  8
0
100
AcDbBlockBegin
  2
*D7
 70
     1
 10
0.0
 20
0.0
 30
0.0
  3
*D7
  1

  0
LINE
  5
13A5
330
8E3
100
AcDbEntity
  8
SUNPOU
100
AcDbLine
 10
130.0738137082599
 20
394.2973367581451
 30
0.0
 11
130.0738137082599
 21
393.2973367581451
 31
0.0
  0
LINE
  5
13A6
330
8E3
100
AcDbEntity
  8
SUNPOU
100
AcDbLine
 10
203.07381370826
 20
381.3829873305079
 30
0.0
 11
203.07381370826
 21
393.2973367581451
 31
0.0
  0
LINE
  5
13A7
330
8E3
100
AcDbEntity
  8
SUNPOU
100
AcDbLine
 10
135.0738137082601
 20
391.2973367581451
 30
0.0
 11
198.07381370826
 21
391.2973367581451
 31
0.0
  0
MTEXT
  5
13A8
330
8E3
100
AcDbEntity
  8
SUNPOU
 62
     6
100
AcDbMText
 10
180.5634017355378
 20
395.7973367581451
 30
0.0
 40
5.0
 41
0.0
 71
     5
 72
     1
  1
\A1;73
  7
SUNPOU
1001
ACAD
1000
MTEXTBEGIN
1070
    73
1070
     1
1070
    44
1040
1.0
1070
    74
1070
     0
1000
MTEXTEND
1000
MTEXTBEGIN
1070
    73
1070
     1
1070
    44
1040
1.0
1070
    74
1070
     0
1000
MTEXTEND
  0
INSERT
  5
13A9
330
8E3
100
AcDbEntity
  8
SUNPOU
100
AcDbBlockReference
  2
_OPEN30
 10
130.0738137082599
 20
391.2973367581451
 30
0.0
 41
5.0
 42
5.0
 43
5.0
 50
180.0
  0
INSERT
  5
13AA
330
8E3
100
AcDbEntity
  8
SUNPOU
100
AcDbBlockReference
  2
_OPEN30
 10
203.07381370826
 20
391.2973367581451
 30
0.0
 41
5.0
 42
5.0
 43
5.0
  0
POINT
  5
13AB
330
8E3
100
AcDbEntity
  8
DEFPOINTS
 62
     0
100
AcDbPoint
 10
130.0738137082599
 20
391.2973367581451
 30
0.0
  0
POINT
  5
13AC
330
8E3
100
AcDbEntity
  8
DEFPOINTS
 62
     0
100
AcDbPoint
 10
203.07381370826
 20
378.3829873305078
 30
0.0
  0
POINT
  5
13AD
330
8E3
100
AcDbEntity
  8
DEFPOINTS
 62
     0
100
AcDbPoint
 10
203.07381370826
 20
391.2973367581451
 30
0.0
  0
ENDBLK
  5
8EE
330
8E3
100
AcDbEntity
  8
0
100
AcDbBlockEnd
  0
BLOCK
  5
8FA
330
8F0
100
AcDbEntity
  8
0
100
AcDbBlockBegin
  2
*D8
 70
     1
 10
0.0
 20
0.0
 30
0.0
  3
*D8
  1

  0
LINE
  5
1393
330
8F0
100
AcDbEntity
  8
SUNPOU
100
AcDbLine
 10
130.0738137082599
 20
385.6745978099228
 30
0.0
 11
130.0738137082599
 21
384.6745978099228
 31
0.0
  0
LINE
  5
1394
330
8F0
100
AcDbEntity
  8
SUNPOU
100
AcDbLine
 10
176.07381370826
 20
359.5061511423549
 30
0.0
 11
176.07381370826
 21
384.6745978099228
 31
0.0
  0
LINE
  5
1395
330
8F0
100
AcDbEntity
  8
SUNPOU
100
AcDbLine
 10
135.0738137082601
 20
382.6745978099229
 30
0.0
 11
171.0738137082601
 21
382.6745978099229
 31
0.0
  0
INSERT
  5
1396
330
8F0
100
AcDbEntity
  8
SUNPOU
100
AcDbBlockReference
  2
_OPEN30
 10
130.0738137082599
 20
382.6745978099229
 30
0.0
 41
5.0
 42
5.0
 43
5.0
 50
180.0
  0
INSERT
  5
1397
330
8F0
100
AcDbEntity
  8
SUNPOU
100
AcDbBlockReference
  2
_OPEN30
 10
176.07381370826
 20
382.6745978099229
 30
0.0
 41
5.0
 42
5.0
 43
5.0
  0
MTEXT
  5
1398
330
8F0
100
AcDbEntity
  8
SUNPOU
 62
     6
100
AcDbMText
 10
153.0738137082599
 20
387.1745978099228
 30
0.0
 40
5.0
 41
0.0
 71
     5
 72
     1
  1
\A1;46
  7
SUNPOU
1001
ACAD
1000
MTEXTBEGIN
1070
    73
1070
     1
1070
    44
1040
1.0
1070
    74
1070
     0
1000
MTEXTEND
1000
MTEXTBEGIN
1070
    73
1070
     1
1070
    44
1040
1.0
1070
    74
1070
     0
1000
MTEXTEND
  0
POINT
  5
1399
330
8F0
100
AcDbEntity
  8
DEFPOINTS
 62
     0
100
AcDbPoint
 10
130.0738137082599
 20
382.6745978099229
 30
0.0
  0
POINT
  5
139A
330
8F0
100
AcDbEntity
  8
DEFPOINTS
 62
     0
100
AcDbPoint
 10
176.07381370826
 20
356.5061511423549
 30
0.0
  0
POINT
  5
139B
330
8F0
100
AcDbEntity
  8
DEFPOINTS
 62
     0
100
AcDbPoint
 10
176.07381370826
 20
382.6745978099229
 30
0.0
  0
ENDBLK
  5
8FB
330
8F0
100
AcDbEntity
  8
0
100
AcDbBlockEnd
  0
BLOCK
  5
907
330
8FD
100
AcDbEntity
  8
0
100
AcDbBlockBegin
  2
*D9
 70
     1
 10
0.0
 20
0.0
 30
0.0
  3
*D9
  1

  0
LINE
  5
114C
330
8FD
100
AcDbEntity
  8
SUNPOU
100
AcDbLine
 10
176.07381370826
 20
359.5061511423549
 30
0.0
 11
176.07381370826
 21
384.6745978099228
 31
0.0
  0
LINE
  5
114D
330
8FD
100
AcDbEntity
  8
SUNPOU
100
AcDbLine
 10
203.07381370826
 20
381.3829873305079
 30
0.0
 11
203.07381370826
 21
384.6745978099228
 31
0.0
  0
LINE
  5
114E
330
8FD
100
AcDbEntity
  8
SUNPOU
100
AcDbLine
 10
181.07381370826
 20
382.6745978099229
 30
0.0
 11
198.07381370826
 21
382.6745978099229
 31
0.0
  0
INSERT
  5
114F
330
8FD
100
AcDbEntity
  8
SUNPOU
100
AcDbBlockReference
  2
_OPEN30
 10
176.07381370826
 20
382.6745978099229
 30
0.0
 41
5.0
 42
5.0
 43
5.0
 50
180.0
  0
INSERT
  5
1150
330
8FD
100
AcDbEntity
  8
SUNPOU
100
AcDbBlockReference
  2
_OPEN30
 10
203.07381370826
 20
382.6745978099229
 30
0.0
 41
5.0
 42
5.0
 43
5.0
  0
MTEXT
  5
1151
330
8FD
100
AcDbEntity
  8
SUNPOU
 62
     6
100
AcDbMText
 10
189.5738137082599
 20
387.1745978099228
 30
0.0
 40
5.0
 41
0.0
 71
     5
 72
     1
  1
\A1;27
  7
SUNPOU
1001
ACAD
1000
MTEXTBEGIN
1070
    73
1070
     1
1070
    44
1040
1.0
1070
    74
1070
     0
1000
MTEXTEND
1000
MTEXTBEGIN
1070
    73
1070
     1
1070
    44
1040
1.0
1070
    74
1070
     0
1000
MTEXTEND
  0
POINT
  5
1152
330
8FD
100
AcDbEntity
  8
DEFPOINTS
 62
     0
100
AcDbPoint
 10
176.07381370826
 20
356.5061511423549
 30
0.0
  0
POINT
  5
1153
330
8FD
100
AcDbEntity
  8
DEFPOINTS
 62
     0
100
AcDbPoint
 10
203.07381370826
 20
378.3829873305078
 30
0.0
  0
POINT
  5
1154
330
8FD
100
AcDbEntity
  8
DEFPOINTS
 62
     0
100
AcDbPoint
 10
203.07381370826
 20
382.6745978099229
 30
0.0
  0
ENDBLK
  5
908
330
8FD
100
AcDbEntity
  8
0
100
AcDbBlockEnd
  0
BLOCK
  5
914
330
90A
100
AcDbEntity
  8
0
100
AcDbBlockBegin
  2
*D10
 70
     1
 10
0.0
 20
0.0
 30
0.0
  3
*D10
  1

  0
LINE
  5
13F6
330
90A
100
AcDbEntity
  8
SUNPOU
100
AcDbLine
 10
127.07381370826
 20
362.5061511423551
 30
0.0
 11
107.5623631201837
 21
362.5061511423551
 31
0.0
  0
LINE
  5
13F7
330
90A
100
AcDbEntity
  8
SUNPOU
100
AcDbLine
 10
113.0738137082601
 20
332.5061511423549
 30
0.0
 11
107.5623631201837
 21
332.5061511423549
 31
0.0
  0
LINE
  5
13F8
330
90A
100
AcDbEntity
  8
SUNPOU
100
AcDbLine
 10
109.5623631201837
 20
357.5061511423551
 30
0.0
 11
109.5623631201837
 21
337.506151142355
 31
0.0
  0
INSERT
  5
13F9
330
90A
100
AcDbEntity
  8
SUNPOU
100
AcDbBlockReference
  2
_OPEN30
 10
109.5623631201837
 20
362.5061511423551
 30
0.0
 41
5.0
 42
5.0
 43
5.0
 50
90.0
  0
INSERT
  5
13FA
330
90A
100
AcDbEntity
  8
SUNPOU
100
AcDbBlockReference
  2
_OPEN30
 10
109.5623631201837
 20
332.5061511423549
 30
0.0
 41
5.0
 42
5.0
 43
5.0
 50
270.0
  0
MTEXT
  5
13FB
330
90A
100
AcDbEntity
  8
SUNPOU
 62
     6
100
AcDbMText
 10
105.0623631201836
 20
347.5061511423549
 30
0.0
 40
5.0
 41
0.0
 71
     5
 72
     1
  1
\A1;30
  7
SUNPOU
 11
0.0000000000000001
 21
1.0
 31
0.0
1001
ACAD
1000
MTEXTBEGIN
1070
    73
1070
     1
1070
    44
1040
1.0
1070
    74
1070
     0
1000
MTEXTEND
1000
MTEXTBEGIN
1070
    73
1070
     1
1070
    44
1040
1.0
1070
    74
1070
     0
1000
MTEXTEND
  0
POINT
  5
13FC
330
90A
100
AcDbEntity
  8
DEFPOINTS
 62
     0
100
AcDbPoint
 10
130.0738137082599
 20
362.5061511423549
 30
0.0
  0
POINT
  5
13FD
330
90A
100
AcDbEntity
  8
DEFPOINTS
 62
     0
100
AcDbPoint
 10
116.0738137082601
 20
332.5061511423549
 30
0.0
  0
POINT
  5
13FE
330
90A
100
AcDbEntity
  8
DEFPOINTS
 62
     0
100
AcDbPoint
 10
109.5623631201837
 20
332.5061511423549
 30
0.0
  0
ENDBLK
  5
915
330
90A
100
AcDbEntity
  8
0
100
AcDbBlockEnd
  0
BLOCK
  5
921
330
917
100
AcDbEntity
  8
0
100
AcDbBlockBegin
  2
*D11
 70
     1
 10
0.0
 20
0.0
 30
0.0
  3
*D11
  1

  0
LINE
  5
D7E
330
917
100
AcDbEntity
  8
SUNPOU
100
AcDbLine
 10
113.0738137082601
 20
332.5061511423549
 30
0.0
 11
107.5623631201837
 21
332.5061511423549
 31
0.0
  0
LINE
  5
D7F
330
917
100
AcDbEntity
  8
SUNPOU
100
AcDbLine
 10
106.5623631201837
 20
272.506151142355
 30
0.0
 11
107.5623631201837
 21
272.506151142355
 31
0.0
  0
LINE
  5
D80
330
917
100
AcDbEntity
  8
SUNPOU
100
AcDbLine
 10
109.5623631201837
 20
327.506151142355
 30
0.0
 11
109.5623631201837
 21
277.506151142355
 31
0.0
  0
INSERT
  5
D81
330
917
100
AcDbEntity
  8
SUNPOU
100
AcDbBlockReference
  2
_OPEN30
 10
109.5623631201837
 20
332.5061511423549
 30
0.0
 41
5.0
 42
5.0
 43
5.0
 50
90.0
  0
INSERT
  5
D82
330
917
100
AcDbEntity
  8
SUNPOU
100
AcDbBlockReference
  2
_OPEN30
 10
109.5623631201837
 20
272.506151142355
 30
0.0
 41
5.0
 42
5.0
 43
5.0
 50
270.0
  0
MTEXT
  5
D83
330
917
100
AcDbEntity
  8
SUNPOU
 62
     6
100
AcDbMText
 10
105.0623631201836
 20
302.506151142355
 30
0.0
 40
5.0
 41
0.0
 71
     5
 72
     1
  1
\A1;60
  7
SUNPOU
 11
0.0000000000000001
 21
1.0
 31
0.0
1001
ACAD
1000
MTEXTBEGIN
1070
    73
1070
     1
1070
    44
1040
1.0
1070
    74
1070
     0
1000
MTEXTEND
1000
MTEXTBEGIN
1070
    73
1070
     1
1070
    44
1040
1.0
1070
    74
1070
     0
1000
MTEXTEND
  0
POINT
  5
D84
330
917
100
AcDbEntity
  8
DEFPOINTS
 62
     0
100
AcDbPoint
 10
116.0738137082601
 20
332.5061511423549
 30
0.0
  0
POINT
  5
D85
330
917
100
AcDbEntity
  8
DEFPOINTS
 62
     0
100
AcDbPoint
 10
109.5623631201837
 20
272.506151142355
 30
0.0
  0
POINT
  5
D86
330
917
100
AcDbEntity
  8
DEFPOINTS
 62
     0
100
AcDbPoint
 10
109.5623631201837
 20
272.506151142355
 30
0.0
  0
ENDBLK
  5
922
330
917
100
AcDbEntity
  8
0
100
AcDbBlockEnd
  0
BLOCK
  5
92E
330
924
100
AcDbEntity
  8
0
100
AcDbBlockBegin
  2
*D12
 70
     1
 10
0.0
 20
0.0
 30
0.0
  3
*D12
  1

  0
LINE
  5
13D2
330
924
100
AcDbEntity
  8
SUNPOU
100
AcDbLine
 10
103.0447478707583
 20
455.0061511423549
 30
0.0
 11
80.0738137082601
 21
455.0061511423549
 31
0.0
  0
LINE
  5
13D3
330
924
100
AcDbEntity
  8
SUNPOU
100
AcDbLine
 10
115.4965545833126
 20
430.0061511423549
 30
0.0
 11
80.0738137082601
 21
430.0061511423549
 31
0.0
  0
LINE
  5
13D4
330
924
100
AcDbEntity
  8
SUNPOU
100
AcDbLine
 10
82.07381370826011
 20
450.0061511423551
 30
0.0
 11
82.07381370826011
 21
435.0061511423549
 31
0.0
  0
INSERT
  5
13D5
330
924
100
AcDbEntity
  8
SUNPOU
100
AcDbBlockReference
  2
_OPEN30
 10
82.07381370826011
 20
455.0061511423549
 30
0.0
 41
5.0
 42
5.0
 43
5.0
 50
90.0
  0
INSERT
  5
13D6
330
924
100
AcDbEntity
  8
SUNPOU
100
AcDbBlockReference
  2
_OPEN30
 10
82.07381370826011
 20
430.0061511423549
 30
0.0
 41
5.0
 42
5.0
 43
5.0
 50
270.0
  0
MTEXT
  5
13D7
330
924
100
AcDbEntity
  8
SUNPOU
 62
     6
100
AcDbMText
 10
77.57381370826003
 20
442.5061511423549
 30
0.0
 40
5.0
 41
0.0
 71
     5
 72
     1
  1
\A1;25
  7
SUNPOU
 11
0.0000000000000001
 21
1.0
 31
0.0
1001
ACAD
1000
MTEXTBEGIN
1070
    73
1070
     1
1070
    44
1040
1.0
1070
    74
1070
     0
1000
MTEXTEND
1000
MTEXTBEGIN
1070
    73
1070
     1
1070
    44
1040
1.0
1070
    74
1070
     0
1000
MTEXTEND
  0
POINT
  5
13D8
330
924
100
AcDbEntity
  8
DEFPOINTS
 62
     0
100
AcDbPoint
 10
106.0447478707583
 20
455.0061511423549
 30
0.0
  0
POINT
  5
13D9
330
924
100
AcDbEntity
  8
DEFPOINTS
 62
     0
100
AcDbPoint
 10
118.4965545833126
 20
430.0061511423549
 30
0.0
  0
POINT
  5
13DA
330
924
100
AcDbEntity
  8
DEFPOINTS
 62
     0
100
AcDbPoint
 10
82.07381370826011
 20
430.0061511423549
 30
0.0
  0
ENDBLK
  5
92F
330
924
100
AcDbEntity
  8
0
100
AcDbBlockEnd
  0
BLOCK
  5
93B
330
931
100
AcDbEntity
  8
0
100
AcDbBlockBegin
  2
*D13
 70
     1
 10
0.0
 20
0.0
 30
0.0
  3
*D13
  1

  0
LINE
  5
13FF
330
931
100
AcDbEntity
  8
SUNPOU
100
AcDbLine
 10
264.0738137082601
 20
507.5061511423548
 30
0.0
 11
264.0738137082601
 21
520.4755982154928
 31
0.0
  0
LINE
  5
1400
330
931
100
AcDbEntity
  8
SUNPOU
100
AcDbLine
 10
130.0738137082599
 20
507.5061511423548
 30
0.0
 11
130.0738137082599
 21
520.4755982154928
 31
0.0
  0
LINE
  5
1401
330
931
100
AcDbEntity
  8
SUNPOU
100
AcDbLine
 10
259.0738137082601
 20
518.4755982154928
 30
0.0
 11
135.0738137082601
 21
518.4755982154928
 31
0.0
  0
INSERT
  5
1402
330
931
100
AcDbEntity
  8
SUNPOU
100
AcDbBlockReference
  2
_OPEN30
 10
264.0738137082601
 20
518.4755982154928
 30
0.0
 41
5.0
 42
5.0
 43
5.0
  0
INSERT
  5
1403
330
931
100
AcDbEntity
  8
SUNPOU
100
AcDbBlockReference
  2
_OPEN30
 10
130.0738137082599
 20
518.4755982154928
 30
0.0
 41
5.0
 42
5.0
 43
5.0
 50
180.0
  0
MTEXT
  5
1404
330
931
100
AcDbEntity
  8
SUNPOU
 62
     6
100
AcDbMText
 10
197.07381370826
 20
522.9755982154927
 30
0.0
 40
5.0
 41
0.0
 71
     5
 72
     1
  1
\A1;134
  7
SUNPOU
1001
ACAD
1000
MTEXTBEGIN
1070
    73
1070
     1
1070
    44
1040
1.0
1070
    74
1070
     0
1000
MTEXTEND
1000
MTEXTBEGIN
1070
    73
1070
     1
1070
    44
1040
1.0
1070
    74
1070
     0
1000
MTEXTEND
  0
POINT
  5
1405
330
931
100
AcDbEntity
  8
DEFPOINTS
 62
     0
100
AcDbPoint
 10
264.0738137082601
 20
504.5061511423549
 30
0.0
  0
POINT
  5
1406
330
931
100
AcDbEntity
  8
DEFPOINTS
 62
     0
100
AcDbPoint
 10
130.0738137082599
 20
504.5061511423549
 30
0.0
  0
POINT
  5
1407
330
931
100
AcDbEntity
  8
DEFPOINTS
 62
     0
100
AcDbPoint
 10
130.0738137082599
 20
518.4755982154928
 30
0.0
  0
ENDBLK
  5
93C
330
931
100
AcDbEntity
  8
0
100
AcDbBlockEnd
  0
BLOCK
  5
94A
330
93E
100
AcDbEntity
  8
0
100
AcDbBlockBegin
  2
*D14
 70
     1
 10
0.0
 20
0.0
 30
0.0
  3
*D14
  1

  0
LINE
  5
1254
330
93E
100
AcDbEntity
  8
SUNPOU
100
AcDbLine
 10
82.07381370826011
 20
271.006151142355
 30
0.0
 11
82.07381370826011
 21
250.2599847217922
 31
0.0
  0
LINE
  5
1255
330
93E
100
AcDbEntity
  8
SUNPOU
100
AcDbLine
 10
87.07381370826011
 20
269.506151142355
 30
0.0
 11
87.07381370826011
 21
250.2599847217922
 31
0.0
  0
LINE
  5
1256
330
93E
100
AcDbEntity
  8
SUNPOU
100
AcDbLine
 10
77.0738137082601
 20
252.2599847217922
 30
0.0
 11
72.0738137082601
 21
252.2599847217922
 31
0.0
  0
LINE
  5
1257
330
93E
100
AcDbEntity
  8
SUNPOU
100
AcDbLine
 10
92.07381370826011
 20
252.2599847217922
 30
0.0
 11
97.07381370826013
 21
252.2599847217922
 31
0.0
  0
MTEXT
  5
1258
330
93E
100
AcDbEntity
  8
SUNPOU
 62
     6
100
AcDbMText
 10
84.70533200974115
 20
258.0936545288129
 30
0.0
 40
5.0
 41
0.0
 71
     5
 72
     1
  1
\A1;5
  7
SUNPOU
1001
ACAD
1000
MTEXTBEGIN
1070
    73
1070
     1
1070
    44
1040
1.0
1070
    74
1070
     0
1000
MTEXTEND
1000
MTEXTBEGIN
1070
    73
1070
     1
1070
    44
1040
1.0
1070
    74
1070
     0
1000
MTEXTEND
  0
LINE
  5
1259
330
93E
100
AcDbEntity
  8
SUNPOU
100
AcDbLine
 10
82.07381370826011
 20
252.2599847217922
 30
0.0
 11
87.07381370826011
 21
252.2599847217922
 31
0.0
  0
INSERT
  5
125A
330
93E
100
AcDbEntity
  8
SUNPOU
100
AcDbBlockReference
  2
_OPEN30
 10
82.07381370826011
 20
252.2599847217922
 30
0.0
 41
5.0
 42
5.0
 43
5.0
  0
INSERT
  5
125B
330
93E
100
AcDbEntity
  8
SUNPOU
100
AcDbBlockReference
  2
_OPEN30
 10
87.07381370826011
 20
252.2599847217922
 30
0.0
 41
5.0
 42
5.0
 43
5.0
 50
180.0
  0
POINT
  5
125C
330
93E
100
AcDbEntity
  8
DEFPOINTS
 62
     0
100
AcDbPoint
 10
82.07381370826011
 20
274.006151142355
 30
0.0
  0
POINT
  5
125D
330
93E
100
AcDbEntity
  8
DEFPOINTS
 62
     0
100
AcDbPoint
 10
87.07381370826011
 20
272.506151142355
 30
0.0
  0
POINT
  5
125E
330
93E
100
AcDbEntity
  8
DEFPOINTS
 62
     0
100
AcDbPoint
 10
87.07381370826011
 20
252.2599847217922
 30
0.0
  0
ENDBLK
  5
94B
330
93E
100
AcDbEntity
  8
0
100
AcDbBlockEnd
  0
BLOCK
  5
957
330
94D
100
AcDbEntity
  8
0
100
AcDbBlockBegin
  2
*D15
 70
     1
 10
0.0
 20
0.0
 30
0.0
  3
*D15
  1

  0
LINE
  5
1274
330
94D
100
AcDbEntity
  8
SUNPOU
100
AcDbLine
 10
87.07381370826011
 20
269.506151142355
 30
0.0
 11
87.07381370826011
 21
250.2599847217922
 31
0.0
  0
LINE
  5
1275
330
94D
100
AcDbEntity
  8
SUNPOU
100
AcDbLine
 10
182.0738137082599
 20
259.6016030672925
 30
0.0
 11
182.0738137082599
 21
250.2599847217922
 31
0.0
  0
LINE
  5
1276
330
94D
100
AcDbEntity
  8
SUNPOU
100
AcDbLine
 10
92.07381370826011
 20
252.2599847217922
 30
0.0
 11
177.0738137082599
 21
252.2599847217922
 31
0.0
  0
MTEXT
  5
1277
330
94D
100
AcDbEntity
  8
SUNPOU
 62
     6
100
AcDbMText
 10
131.9464262579419
 20
257.1046902431219
 30
0.0
 40
5.0
 41
0.0
 71
     5
 72
     1
  1
\A1;95
  7
SUNPOU
1001
ACAD
1000
MTEXTBEGIN
1070
    73
1070
     1
1070
    44
1040
1.0
1070
    74
1070
     0
1000
MTEXTEND
1000
MTEXTBEGIN
1070
    73
1070
     1
1070
    44
1040
1.0
1070
    74
1070
     0
1000
MTEXTEND
  0
INSERT
  5
1278
330
94D
100
AcDbEntity
  8
SUNPOU
100
AcDbBlockReference
  2
_OPEN30
 10
87.07381370826011
 20
252.2599847217922
 30
0.0
 41
5.0
 42
5.0
 43
5.0
 50
180.0
  0
INSERT
  5
1279
330
94D
100
AcDbEntity
  8
SUNPOU
100
AcDbBlockReference
  2
_OPEN30
 10
182.0738137082599
 20
252.2599847217922
 30
0.0
 41
5.0
 42
5.0
 43
5.0
  0
POINT
  5
127A
330
94D
100
AcDbEntity
  8
DEFPOINTS
 62
     0
100
AcDbPoint
 10
87.07381370826011
 20
272.506151142355
 30
0.0
  0
POINT
  5
127B
330
94D
100
AcDbEntity
  8
DEFPOINTS
 62
     0
100
AcDbPoint
 10
182.0738137082599
 20
262.6016030672924
 30
0.0
  0
POINT
  5
127C
330
94D
100
AcDbEntity
  8
DEFPOINTS
 62
     0
100
AcDbPoint
 10
182.0738137082599
 20
252.2599847217922
 30
0.0
  0
ENDBLK
  5
958
330
94D
100
AcDbEntity
  8
0
100
AcDbBlockEnd
  0
BLOCK
  5
964
330
95A
100
AcDbEntity
  8
0
100
AcDbBlockBegin
  2
*D16
 70
     1
 10
0.0
 20
0.0
 30
0.0
  3
*D16
  1

  0
LINE
  5
121A
330
95A
100
AcDbEntity
  8
SUNPOU
100
AcDbLine
 10
82.07381370826011
 20
271.006151142355
 30
0.0
 11
82.07381370826011
 21
237.2987954316647
 31
0.0
  0
LINE
  5
121B
330
95A
100
AcDbEntity
  8
SUNPOU
100
AcDbLine
 10
182.0738137082599
 20
271.006151142355
 30
0.0
 11
182.0738137082599
 21
237.2987954316647
 31
0.0
  0
LINE
  5
121C
330
95A
100
AcDbEntity
  8
SUNPOU
100
AcDbLine
 10
87.07381370826011
 20
239.2987954316647
 30
0.0
 11
177.0738137082599
 21
239.2987954316647
 31
0.0
  0
MTEXT
  5
121D
330
95A
100
AcDbEntity
  8
SUNPOU
 62
     6
100
AcDbMText
 10
132.0738137082601
 20
244.8323507172356
 30
0.0
 40
5.0
 41
0.0
 71
     5
 72
     1
  1
\A1;100
  7
SUNPOU
1001
ACAD
1000
MTEXTBEGIN
1070
    73
1070
     1
1070
    44
1040
1.0
1070
    74
1070
     0
1000
MTEXTEND
1000
MTEXTBEGIN
1070
    73
1070
     1
1070
    44
1040
1.0
1070
    74
1070
     0
1000
MTEXTEND
  0
INSERT
  5
121E
330
95A
100
AcDbEntity
  8
SUNPOU
100
AcDbBlockReference
  2
_OPEN30
 10
82.07381370826011
 20
239.2987954316647
 30
0.0
 41
5.0
 42
5.0
 43
5.0
 50
180.0
  0
INSERT
  5
121F
330
95A
100
AcDbEntity
  8
SUNPOU
100
AcDbBlockReference
  2
_OPEN30
 10
182.0738137082599
 20
239.2987954316647
 30
0.0
 41
5.0
 42
5.0
 43
5.0
  0
POINT
  5
1220
330
95A
100
AcDbEntity
  8
DEFPOINTS
 62
     0
100
AcDbPoint
 10
82.07381370826011
 20
274.006151142355
 30
0.0
  0
POINT
  5
1221
330
95A
100
AcDbEntity
  8
DEFPOINTS
 62
     0
100
AcDbPoint
 10
182.0738137082599
 20
274.006151142355
 30
0.0
  0
POINT
  5
1222
330
95A
100
AcDbEntity
  8
DEFPOINTS
 62
     0
100
AcDbPoint
 10
182.0738137082599
 20
239.2987954316647
 30
0.0
  0
ENDBLK
  5
965
330
95A
100
AcDbEntity
  8
0
100
AcDbBlockEnd
  0
BLOCK
  5
973
330
967
100
AcDbEntity
  8
0
100
AcDbBlockBegin
  2
*D17
 70
     1
 10
0.0
 20
0.0
 30
0.0
  3
*D17
  1

  0
LINE
  5
120F
330
967
100
AcDbEntity
  8
SUNPOU
100
AcDbLine
 10
182.0738137082599
 20
271.006151142355
 30
0.0
 11
182.0738137082599
 21
237.2987954316647
 31
0.0
  0
LINE
  5
1210
330
967
100
AcDbEntity
  8
SUNPOU
100
AcDbLine
 10
187.0738137082599
 20
242.2987954316647
 30
0.0
 11
187.0738137082599
 21
241.2987954316647
 31
0.0
  0
LINE
  5
1211
330
967
100
AcDbEntity
  8
SUNPOU
100
AcDbLine
 10
177.0738137082599
 20
239.2987954316647
 30
0.0
 11
172.07381370826
 21
239.2987954316647
 31
0.0
  0
LINE
  5
1212
330
967
100
AcDbEntity
  8
SUNPOU
100
AcDbLine
 10
192.07381370826
 20
239.2987954316647
 30
0.0
 11
197.07381370826
 21
239.2987954316647
 31
0.0
  0
MTEXT
  5
1213
330
967
100
AcDbEntity
  8
SUNPOU
 62
     6
100
AcDbMText
 10
184.5973498165644
 20
244.9228399418506
 30
0.0
 40
5.0
 41
0.0
 71
     5
 72
     1
  1
\A1;5
  7
SUNPOU
1001
ACAD
1000
MTEXTBEGIN
1070
    73
1070
     1
1070
    44
1040
1.0
1070
    74
1070
     0
1000
MTEXTEND
1000
MTEXTBEGIN
1070
    73
1070
     1
1070
    44
1040
1.0
1070
    74
1070
     0
1000
MTEXTEND
  0
LINE
  5
1214
330
967
100
AcDbEntity
  8
SUNPOU
100
AcDbLine
 10
182.0738137082599
 20
239.2987954316647
 30
0.0
 11
187.0738137082599
 21
239.2987954316647
 31
0.0
  0
INSERT
  5
1215
330
967
100
AcDbEntity
  8
SUNPOU
100
AcDbBlockReference
  2
_OPEN30
 10
182.0738137082599
 20
239.2987954316647
 30
0.0
 41
5.0
 42
5.0
 43
5.0
  0
INSERT
  5
1216
330
967
100
AcDbEntity
  8
SUNPOU
100
AcDbBlockReference
  2
_OPEN30
 10
187.0738137082599
 20
239.2987954316647
 30
0.0
 41
5.0
 42
5.0
 43
5.0
 50
180.0
  0
POINT
  5
1217
330
967
100
AcDbEntity
  8
DEFPOINTS
 62
     0
100
AcDbPoint
 10
182.0738137082599
 20
274.006151142355
 30
0.0
  0
POINT
  5
1218
330
967
100
AcDbEntity
  8
DEFPOINTS
 62
     0
100
AcDbPoint
 10
187.0738137082599
 20
239.2987954316647
 30
0.0
  0
POINT
  5
1219
330
967
100
AcDbEntity
  8
DEFPOINTS
 62
     0
100
AcDbPoint
 10
187.0738137082599
 20
239.2987954316647
 30
0.0
  0
ENDBLK
  5
974
330
967
100
AcDbEntity
  8
0
100
AcDbBlockEnd
  0
BLOCK
  5
980
330
976
100
AcDbEntity
  8
0
100
AcDbBlockBegin
  2
*D18
 70
     1
 10
0.0
 20
0.0
 30
0.0
  3
*D18
  1

  0
LINE
  5
11FB
330
976
100
AcDbEntity
  8
SUNPOU
100
AcDbLine
 10
187.0738137082599
 20
242.2987954316647
 30
0.0
 11
187.0738137082599
 21
241.2987954316647
 31
0.0
  0
LINE
  5
11FC
330
976
100
AcDbEntity
  8
SUNPOU
100
AcDbLine
 10
219.07381370826
 20
242.2987954316647
 30
0.0
 11
219.07381370826
 21
241.2987954316647
 31
0.0
  0
LINE
  5
11FD
330
976
100
AcDbEntity
  8
SUNPOU
100
AcDbLine
 10
192.07381370826
 20
239.2987954316647
 30
0.0
 11
214.07381370826
 21
239.2987954316647
 31
0.0
  0
MTEXT
  5
11FE
330
976
100
AcDbEntity
  8
SUNPOU
 62
     6
100
AcDbMText
 10
203.07381370826
 20
244.9228399418506
 30
0.0
 40
5.0
 41
0.0
 71
     5
 72
     1
  1
\A1;32
  7
SUNPOU
1001
ACAD
1000
MTEXTBEGIN
1070
    73
1070
     1
1070
    44
1040
1.0
1070
    74
1070
     0
1000
MTEXTEND
1000
MTEXTBEGIN
1070
    73
1070
     1
1070
    44
1040
1.0
1070
    74
1070
     0
1000
MTEXTEND
  0
INSERT
  5
11FF
330
976
100
AcDbEntity
  8
SUNPOU
100
AcDbBlockReference
  2
_OPEN30
 10
187.0738137082599
 20
239.2987954316647
 30
0.0
 41
5.0
 42
5.0
 43
5.0
 50
180.0
  0
INSERT
  5
1200
330
976
100
AcDbEntity
  8
SUNPOU
100
AcDbBlockReference
  2
_OPEN30
 10
219.07381370826
 20
239.2987954316647
 30
0.0
 41
5.0
 42
5.0
 43
5.0
  0
POINT
  5
1201
330
976
100
AcDbEntity
  8
DEFPOINTS
 62
     0
100
AcDbPoint
 10
187.0738137082599
 20
239.2987954316647
 30
0.0
  0
POINT
  5
1202
330
976
100
AcDbEntity
  8
DEFPOINTS
 62
     0
100
AcDbPoint
 10
219.07381370826
 20
239.2987954316647
 30
0.0
  0
POINT
  5
1203
330
976
100
AcDbEntity
  8
DEFPOINTS
 62
     0
100
AcDbPoint
 10
219.07381370826
 20
239.2987954316647
 30
0.0
  0
ENDBLK
  5
981
330
976
100
AcDbEntity
  8
0
100
AcDbBlockEnd
  0
BLOCK
  5
98F
330
983
100
AcDbEntity
  8
0
100
AcDbBlockBegin
  2
*D19
 70
     1
 10
0.0
 20
0.0
 30
0.0
  3
*D19
  1

  0
LINE
  5
11F0
330
983
100
AcDbEntity
  8
SUNPOU
100
AcDbLine
 10
219.07381370826
 20
242.2987954316647
 30
0.0
 11
219.07381370826
 21
241.2987954316647
 31
0.0
  0
LINE
  5
11F1
330
983
100
AcDbEntity
  8
SUNPOU
100
AcDbLine
 10
224.0738137082599
 20
271.006151142355
 30
0.0
 11
224.0738137082599
 21
237.2987954316648
 31
0.0
  0
LINE
  5
11F2
330
983
100
AcDbEntity
  8
SUNPOU
100
AcDbLine
 10
214.07381370826
 20
239.2987954316648
 30
0.0
 11
209.07381370826
 21
239.2987954316648
 31
0.0
  0
LINE
  5
11F3
330
983
100
AcDbEntity
  8
SUNPOU
100
AcDbLine
 10
229.07381370826
 20
239.2987954316648
 30
0.0
 11
234.0738137082599
 21
239.2987954316648
 31
0.0
  0
MTEXT
  5
11F4
330
983
100
AcDbEntity
  8
SUNPOU
 62
     6
100
AcDbMText
 10
221.6958360844082
 20
244.9228399418506
 30
0.0
 40
5.0
 41
0.0
 71
     5
 72
     1
  1
\A1;5
  7
SUNPOU
1001
ACAD
1000
MTEXTBEGIN
1070
    73
1070
     1
1070
    44
1040
1.0
1070
    74
1070
     0
1000
MTEXTEND
1000
MTEXTBEGIN
1070
    73
1070
     1
1070
    44
1040
1.0
1070
    74
1070
     0
1000
MTEXTEND
  0
LINE
  5
11F5
330
983
100
AcDbEntity
  8
SUNPOU
100
AcDbLine
 10
219.07381370826
 20
239.2987954316648
 30
0.0
 11
224.0738137082599
 21
239.2987954316648
 31
0.0
  0
INSERT
  5
11F6
330
983
100
AcDbEntity
  8
SUNPOU
100
AcDbBlockReference
  2
_OPEN30
 10
219.07381370826
 20
239.2987954316648
 30
0.0
 41
5.0
 42
5.0
 43
5.0
  0
INSERT
  5
11F7
330
983
100
AcDbEntity
  8
SUNPOU
100
AcDbBlockReference
  2
_OPEN30
 10
224.0738137082599
 20
239.2987954316648
 30
0.0
 41
5.0
 42
5.0
 43
5.0
 50
180.0
  0
POINT
  5
11F8
330
983
100
AcDbEntity
  8
DEFPOINTS
 62
     0
100
AcDbPoint
 10
219.07381370826
 20
239.2987954316647
 30
0.0
  0
POINT
  5
11F9
330
983
100
AcDbEntity
  8
DEFPOINTS
 62
     0
100
AcDbPoint
 10
224.0738137082599
 20
274.006151142355
 30
0.0
  0
POINT
  5
11FA
330
983
100
AcDbEntity
  8
DEFPOINTS
 62
     0
100
AcDbPoint
 10
224.0738137082599
 20
239.2987954316648
 30
0.0
  0
ENDBLK
  5
990
330
983
100
AcDbEntity
  8
0
100
AcDbBlockEnd
  0
BLOCK
  5
99C
330
992
100
AcDbEntity
  8
0
100
AcDbBlockBegin
  2
*D20
 70
     1
 10
0.0
 20
0.0
 30
0.0
  3
*D20
  1

  0
LINE
  5
11D1
330
992
100
AcDbEntity
  8
SUNPOU
100
AcDbLine
 10
224.0738137082599
 20
271.006151142355
 30
0.0
 11
224.0738137082599
 21
237.2987954316648
 31
0.0
  0
LINE
  5
11D2
330
992
100
AcDbEntity
  8
SUNPOU
100
AcDbLine
 10
282.0738137082601
 20
271.006151142355
 30
0.0
 11
282.0738137082601
 21
237.2987954316648
 31
0.0
  0
LINE
  5
11D3
330
992
100
AcDbEntity
  8
SUNPOU
100
AcDbLine
 10
229.07381370826
 20
239.2987954316648
 30
0.0
 11
277.07381370826
 21
239.2987954316648
 31
0.0
  0
INSERT
  5
11D4
330
992
100
AcDbEntity
  8
SUNPOU
100
AcDbBlockReference
  2
_OPEN30
 10
224.0738137082599
 20
239.2987954316648
 30
0.0
 41
5.0
 42
5.0
 43
5.0
 50
180.0
  0
INSERT
  5
11D5
330
992
100
AcDbEntity
  8
SUNPOU
100
AcDbBlockReference
  2
_OPEN30
 10
282.0738137082601
 20
239.2987954316648
 30
0.0
 41
5.0
 42
5.0
 43
5.0
  0
MTEXT
  5
11D6
330
992
100
AcDbEntity
  8
SUNPOU
 62
     6
100
AcDbMText
 10
253.07381370826
 20
243.7987954316648
 30
0.0
 40
5.0
 41
0.0
 71
     5
 72
     1
  1
\A1;58
  7
SUNPOU
1001
ACAD
1000
MTEXTBEGIN
1070
    73
1070
     1
1070
    44
1040
1.0
1070
    74
1070
     0
1000
MTEXTEND
1000
MTEXTBEGIN
1070
    73
1070
     1
1070
    44
1040
1.0
1070
    74
1070
     0
1000
MTEXTEND
  0
POINT
  5
11D7
330
992
100
AcDbEntity
  8
DEFPOINTS
 62
     0
100
AcDbPoint
 10
224.0738137082599
 20
274.006151142355
 30
0.0
  0
POINT
  5
11D8
330
992
100
AcDbEntity
  8
DEFPOINTS
 62
     0
100
AcDbPoint
 10
282.0738137082601
 20
274.006151142355
 30
0.0
  0
POINT
  5
11D9
330
992
100
AcDbEntity
  8
DEFPOINTS
 62
     0
100
AcDbPoint
 10
282.0738137082601
 20
239.2987954316648
 30
0.0
  0
ENDBLK
  5
99D
330
992
100
AcDbEntity
  8
0
100
AcDbBlockEnd
  0
BLOCK
  5
9AB
330
99F
100
AcDbEntity
  8
0
100
AcDbBlockBegin
  2
*D21
 70
     1
 10
0.0
 20
0.0
 30
0.0
  3
*D21
  1

  0
LINE
  5
11E5
330
99F
100
AcDbEntity
  8
SUNPOU
100
AcDbLine
 10
282.0738137082601
 20
271.006151142355
 30
0.0
 11
282.0738137082601
 21
237.2987954316648
 31
0.0
  0
LINE
  5
11E6
330
99F
100
AcDbEntity
  8
SUNPOU
100
AcDbLine
 10
285.0738137082601
 20
271.006151142355
 30
0.0
 11
285.0738137082601
 21
237.2987954316648
 31
0.0
  0
LINE
  5
11E7
330
99F
100
AcDbEntity
  8
SUNPOU
100
AcDbLine
 10
277.07381370826
 20
239.2987954316648
 30
0.0
 11
272.0738137082601
 21
239.2987954316648
 31
0.0
  0
LINE
  5
11E8
330
99F
100
AcDbEntity
  8
SUNPOU
100
AcDbLine
 10
290.0738137082601
 20
239.2987954316648
 30
0.0
 11
295.0738137082601
 21
239.2987954316648
 31
0.0
  0
MTEXT
  5
11E9
330
99F
100
AcDbEntity
  8
SUNPOU
 62
     6
100
AcDbMText
 10
278.6702941883472
 20
243.7261510987076
 30
0.0
 40
5.0
 41
0.0
 71
     5
 72
     1
  1
\A1;3
  7
SUNPOU
1001
ACAD
1000
MTEXTBEGIN
1070
    73
1070
     1
1070
    44
1040
1.0
1070
    74
1070
     0
1000
MTEXTEND
1000
MTEXTBEGIN
1070
    73
1070
     1
1070
    44
1040
1.0
1070
    74
1070
     0
1000
MTEXTEND
  0
LINE
  5
11EA
330
99F
100
AcDbEntity
  8
SUNPOU
100
AcDbLine
 10
282.0738137082601
 20
239.2987954316648
 30
0.0
 11
285.0738137082601
 21
239.2987954316648
 31
0.0
  0
INSERT
  5
11EB
330
99F
100
AcDbEntity
  8
SUNPOU
100
AcDbBlockReference
  2
_OPEN30
 10
282.0738137082601
 20
239.2987954316648
 30
0.0
 41
5.0
 42
5.0
 43
5.0
  0
INSERT
  5
11EC
330
99F
100
AcDbEntity
  8
SUNPOU
100
AcDbBlockReference
  2
_OPEN30
 10
285.0738137082601
 20
239.2987954316648
 30
0.0
 41
5.0
 42
5.0
 43
5.0
 50
180.0
  0
POINT
  5
11ED
330
99F
100
AcDbEntity
  8
DEFPOINTS
 62
     0
100
AcDbPoint
 10
282.0738137082601
 20
274.006151142355
 30
0.0
  0
POINT
  5
11EE
330
99F
100
AcDbEntity
  8
DEFPOINTS
 62
     0
100
AcDbPoint
 10
285.0738137082601
 20
274.006151142355
 30
0.0
  0
POINT
  5
11EF
330
99F
100
AcDbEntity
  8
DEFPOINTS
 62
     0
100
AcDbPoint
 10
285.0738137082601
 20
239.2987954316648
 30
0.0
  0
ENDBLK
  5
9AC
330
99F
100
AcDbEntity
  8
0
100
AcDbBlockEnd
  0
BLOCK
  5
9B8
330
9AE
100
AcDbEntity
  8
0
100
AcDbBlockBegin
  2
*D22
 70
     1
 10
0.0
 20
0.0
 30
0.0
  3
*D22
  1

  0
LINE
  5
D13
330
9AE
100
AcDbEntity
  8
SUNPOU
100
AcDbLine
 10
399.0738137082601
 20
271.006151142355
 30
0.0
 11
399.0738137082601
 21
245.6766256590508
 31
0.0
  0
LINE
  5
D14
330
9AE
100
AcDbEntity
  8
SUNPOU
100
AcDbLine
 10
349.0738137082601
 20
270.0061511423549
 30
0.0
 11
349.0738137082601
 21
245.6766256590508
 31
0.0
  0
LINE
  5
D15
330
9AE
100
AcDbEntity
  8
SUNPOU
100
AcDbLine
 10
394.0738137082601
 20
247.6766256590508
 30
0.0
 11
354.07381370826
 21
247.6766256590508
 31
0.0
  0
INSERT
  5
D16
330
9AE
100
AcDbEntity
  8
SUNPOU
100
AcDbBlockReference
  2
_OPEN30
 10
399.0738137082601
 20
247.6766256590508
 30
0.0
 41
5.0
 42
5.0
 43
5.0
  0
INSERT
  5
D17
330
9AE
100
AcDbEntity
  8
SUNPOU
100
AcDbBlockReference
  2
_OPEN30
 10
349.0738137082601
 20
247.6766256590508
 30
0.0
 41
5.0
 42
5.0
 43
5.0
 50
180.0
  0
MTEXT
  5
D18
330
9AE
100
AcDbEntity
  8
SUNPOU
 62
     6
100
AcDbMText
 10
374.0738137082601
 20
252.1766256590509
 30
0.0
 40
5.0
 41
0.0
 71
     5
 72
     1
  1
\A1;50
  7
SUNPOU
1001
ACAD
1000
MTEXTBEGIN
1070
    73
1070
     1
1070
    44
1040
1.0
1070
    74
1070
     0
1000
MTEXTEND
1000
MTEXTBEGIN
1070
    73
1070
     1
1070
    44
1040
1.0
1070
    74
1070
     0
1000
MTEXTEND
  0
POINT
  5
D19
330
9AE
100
AcDbEntity
  8
DEFPOINTS
 62
     0
100
AcDbPoint
 10
399.0738137082601
 20
274.006151142355
 30
0.0
  0
POINT
  5
D1A
330
9AE
100
AcDbEntity
  8
DEFPOINTS
 62
     0
100
AcDbPoint
 10
349.0738137082601
 20
273.006151142355
 30
0.0
  0
POINT
  5
D1B
330
9AE
100
AcDbEntity
  8
DEFPOINTS
 62
     0
100
AcDbPoint
 10
349.0738137082601
 20
247.6766256590508
 30
0.0
  0
ENDBLK
  5
9B9
330
9AE
100
AcDbEntity
  8
0
100
AcDbBlockEnd
  0
BLOCK
  5
9C5
330
9BB
100
AcDbEntity
  8
0
100
AcDbBlockBegin
  2
*D23
 70
     1
 10
0.0
 20
0.0
 30
0.0
  3
*D23
  1

  0
LINE
  5
1182
330
9BB
100
AcDbEntity
  8
SUNPOU
100
AcDbLine
 10
349.0738137082601
 20
271.006151142355
 30
0.0
 11
349.0738137082601
 21
225.5595912160905
 31
0.0
  0
LINE
  5
1183
330
9BB
100
AcDbEntity
  8
SUNPOU
100
AcDbLine
 10
282.0738137082601
 20
271.006151142355
 30
0.0
 11
282.0738137082601
 21
225.5595912160905
 31
0.0
  0
LINE
  5
1184
330
9BB
100
AcDbEntity
  8
SUNPOU
100
AcDbLine
 10
344.07381370826
 20
227.5595912160905
 30
0.0
 11
287.07381370826
 21
227.5595912160905
 31
0.0
  0
INSERT
  5
1185
330
9BB
100
AcDbEntity
  8
SUNPOU
100
AcDbBlockReference
  2
_OPEN30
 10
349.0738137082601
 20
227.5595912160905
 30
0.0
 41
5.0
 42
5.0
 43
5.0
  0
INSERT
  5
1186
330
9BB
100
AcDbEntity
  8
SUNPOU
100
AcDbBlockReference
  2
_OPEN30
 10
282.0738137082601
 20
227.5595912160905
 30
0.0
 41
5.0
 42
5.0
 43
5.0
 50
180.0
  0
MTEXT
  5
1187
330
9BB
100
AcDbEntity
  8
SUNPOU
 62
     6
100
AcDbMText
 10
315.5738137082601
 20
232.0595912160905
 30
0.0
 40
5.0
 41
0.0
 71
     5
 72
     1
  1
\A1;400～450
  7
SUNPOU
1001
ACAD
1000
MTEXTBEGIN
1070
    73
1070
     1
1070
    44
1040
1.0
1070
    74
1070
     0
1000
MTEXTEND
1000
MTEXTBEGIN
1070
    73
1070
     1
1070
    44
1040
1.0
1070
    74
1070
     0
1000
MTEXTEND
  0
POINT
  5
1188
330
9BB
100
AcDbEntity
  8
DEFPOINTS
 62
     0
100
AcDbPoint
 10
349.0738137082601
 20
274.006151142355
 30
0.0
  0
POINT
  5
1189
330
9BB
100
AcDbEntity
  8
DEFPOINTS
 62
     0
100
AcDbPoint
 10
282.0738137082601
 20
274.006151142355
 30
0.0
  0
POINT
  5
118A
330
9BB
100
AcDbEntity
  8
DEFPOINTS
 62
     0
100
AcDbPoint
 10
282.0738137082601
 20
227.5595912160905
 30
0.0
  0
ENDBLK
  5
9C6
330
9BB
100
AcDbEntity
  8
0
100
AcDbBlockEnd
  0
BLOCK
  5
9D2
330
9C8
100
AcDbEntity
  8
0
100
AcDbBlockBegin
  2
*D24
 70
     1
 10
0.0
 20
0.0
 30
0.0
  3
*D24
  1

  0
LINE
  5
118B
330
9C8
100
AcDbEntity
  8
SUNPOU
100
AcDbLine
 10
282.0738137082601
 20
271.006151142355
 30
0.0
 11
282.0738137082601
 21
225.5595912160905
 31
0.0
  0
LINE
  5
118C
330
9C8
100
AcDbEntity
  8
SUNPOU
100
AcDbLine
 10
82.07381370826011
 20
271.006151142355
 30
0.0
 11
82.07381370826011
 21
225.5595912160905
 31
0.0
  0
LINE
  5
118D
330
9C8
100
AcDbEntity
  8
SUNPOU
100
AcDbLine
 10
277.07381370826
 20
227.5595912160905
 30
0.0
 11
87.07381370826011
 21
227.5595912160905
 31
0.0
  0
MTEXT
  5
118E
330
9C8
100
AcDbEntity
  8
SUNPOU
 62
     6
100
AcDbMText
 10
203.07381370826
 20
232.6936200272232
 30
0.0
 40
5.0
 41
0.0
 71
     5
 72
     1
  1
\A1;200
  7
SUNPOU
1001
ACAD
1000
MTEXTBEGIN
1070
    73
1070
     1
1070
    44
1040
1.0
1070
    74
1070
     0
1000
MTEXTEND
1000
MTEXTBEGIN
1070
    73
1070
     1
1070
    44
1040
1.0
1070
    74
1070
     0
1000
MTEXTEND
  0
INSERT
  5
118F
330
9C8
100
AcDbEntity
  8
SUNPOU
100
AcDbBlockReference
  2
_OPEN30
 10
282.0738137082601
 20
227.5595912160905
 30
0.0
 41
5.0
 42
5.0
 43
5.0
  0
INSERT
  5
1190
330
9C8
100
AcDbEntity
  8
SUNPOU
100
AcDbBlockReference
  2
_OPEN30
 10
82.07381370826011
 20
227.5595912160905
 30
0.0
 41
5.0
 42
5.0
 43
5.0
 50
180.0
  0
POINT
  5
1191
330
9C8
100
AcDbEntity
  8
DEFPOINTS
 62
     0
100
AcDbPoint
 10
282.0738137082601
 20
274.006151142355
 30
0.0
  0
POINT
  5
1192
330
9C8
100
AcDbEntity
  8
DEFPOINTS
 62
     0
100
AcDbPoint
 10
82.07381370826011
 20
274.006151142355
 30
0.0
  0
POINT
  5
1193
330
9C8
100
AcDbEntity
  8
DEFPOINTS
 62
     0
100
AcDbPoint
 10
82.07381370826011
 20
227.5595912160905
 30
0.0
  0
ENDBLK
  5
9D3
330
9C8
100
AcDbEntity
  8
0
100
AcDbBlockEnd
  0
BLOCK
  5
9DF
330
9D5
100
AcDbEntity
  8
0
100
AcDbBlockBegin
  2
*D25
 70
     1
 10
0.0
 20
0.0
 30
0.0
  3
*D25
  1

  0
LINE
  5
128D
330
9D5
100
AcDbEntity
  8
SUNPOU
100
AcDbLine
 10
303.5738137082601
 20
287.506151142355
 30
0.0
 11
311.7069082060293
 21
287.506151142355
 31
0.0
  0
LINE
  5
128E
330
9D5
100
AcDbEntity
  8
SUNPOU
100
AcDbLine
 10
310.7069082060295
 20
272.506151142355
 30
0.0
 11
311.7069082060293
 21
272.506151142355
 31
0.0
  0
LINE
  5
128F
330
9D5
100
AcDbEntity
  8
SUNPOU
100
AcDbLine
 10
309.7069082060293
 20
282.506151142355
 30
0.0
 11
309.7069082060293
 21
277.506151142355
 31
0.0
  0
INSERT
  5
1290
330
9D5
100
AcDbEntity
  8
SUNPOU
100
AcDbBlockReference
  2
_OPEN30
 10
309.7069082060293
 20
287.506151142355
 30
0.0
 41
5.0
 42
5.0
 43
5.0
 50
90.0
  0
INSERT
  5
1291
330
9D5
100
AcDbEntity
  8
SUNPOU
100
AcDbBlockReference
  2
_OPEN30
 10
309.7069082060293
 20
272.506151142355
 30
0.0
 41
5.0
 42
5.0
 43
5.0
 50
270.0
  0
MTEXT
  5
1292
330
9D5
100
AcDbEntity
  8
SUNPOU
 62
     6
100
AcDbMText
 10
305.2069082060293
 20
280.006151142355
 30
0.0
 40
5.0
 41
0.0
 71
     5
 72
     1
  1
\A1;15
  7
SUNPOU
 11
0.0000000000000001
 21
1.0
 31
0.0
1001
ACAD
1000
MTEXTBEGIN
1070
    73
1070
     1
1070
    44
1040
1.0
1070
    74
1070
     0
1000
MTEXTEND
1000
MTEXTBEGIN
1070
    73
1070
     1
1070
    44
1040
1.0
1070
    74
1070
     0
1000
MTEXTEND
  0
POINT
  5
1293
330
9D5
100
AcDbEntity
  8
DEFPOINTS
 62
     0
100
AcDbPoint
 10
300.5738137082601
 20
287.506151142355
 30
0.0
  0
POINT
  5
1294
330
9D5
100
AcDbEntity
  8
DEFPOINTS
 62
     0
100
AcDbPoint
 10
307.7069082060293
 20
272.506151142355
 30
0.0
  0
POINT
  5
1295
330
9D5
100
AcDbEntity
  8
DEFPOINTS
 62
     0
100
AcDbPoint
 10
309.7069082060293
 20
272.506151142355
 30
0.0
  0
ENDBLK
  5
9E0
330
9D5
100
AcDbEntity
  8
0
100
AcDbBlockEnd
  0
BLOCK
  5
9EE
330
9E2
100
AcDbEntity
  8
0
100
AcDbBlockBegin
  2
*D26
 70
     1
 10
0.0
 20
0.0
 30
0.0
  3
*D26
  1

  0
LINE
  5
10D8
330
9E2
100
AcDbEntity
  8
SUNPOU
100
AcDbLine
 10
219.07381370826
 20
280.006151142355
 30
0.0
 11
238.2755961014399
 21
280.006151142355
 31
0.0
  0
LINE
  5
10D9
330
9E2
100
AcDbEntity
  8
SUNPOU
100
AcDbLine
 10
233.2755961014398
 20
272.506151142355
 30
0.0
 11
234.2755961014399
 21
272.506151142355
 31
0.0
  0
LINE
  5
10DA
330
9E2
100
AcDbEntity
  8
SUNPOU
100
AcDbLine
 10
236.2755961014399
 20
285.006151142355
 30
0.0
 11
236.2755961014399
 21
290.006151142355
 31
0.0
  0
LINE
  5
10DB
330
9E2
100
AcDbEntity
  8
SUNPOU
100
AcDbLine
 10
236.2755961014399
 20
267.506151142355
 30
0.0
 11
236.2755961014399
 21
262.506151142355
 31
0.0
  0
MTEXT
  5
10DC
330
9E2
100
AcDbEntity
  8
SUNPOU
 62
     6
100
AcDbMText
 10
230.4271783518014
 20
265.9573948238577
 30
0.0
 40
5.0
 41
0.0
 71
     5
 72
     1
  1
\A1;7.5
  7
SUNPOU
 11
0.0000000000000001
 21
1.0
 31
0.0
1001
ACAD
1000
MTEXTBEGIN
1070
    73
1070
     1
1070
    44
1040
1.0
1070
    74
1070
     0
1000
MTEXTEND
1000
MTEXTBEGIN
1070
    73
1070
     1
1070
    44
1040
1.0
1070
    74
1070
     0
1000
MTEXTEND
  0
LINE
  5
10DD
330
9E2
100
AcDbEntity
  8
SUNPOU
100
AcDbLine
 10
236.2755961014399
 20
280.006151142355
 30
0.0
 11
236.2755961014399
 21
272.506151142355
 31
0.0
  0
INSERT
  5
10DE
330
9E2
100
AcDbEntity
  8
SUNPOU
100
AcDbBlockReference
  2
_OPEN30
 10
236.2755961014399
 20
280.006151142355
 30
0.0
 41
5.0
 42
5.0
 43
5.0
 50
270.0
  0
INSERT
  5
10DF
330
9E2
100
AcDbEntity
  8
SUNPOU
100
AcDbBlockReference
  2
_OPEN30
 10
236.2755961014399
 20
272.506151142355
 30
0.0
 41
5.0
 42
5.0
 43
5.0
 50
90.0
  0
POINT
  5
10E0
330
9E2
100
AcDbEntity
  8
DEFPOINTS
 62
     0
100
AcDbPoint
 10
216.0738137082599
 20
280.006151142355
 30
0.0
  0
POINT
  5
10E1
330
9E2
100
AcDbEntity
  8
DEFPOINTS
 62
     0
100
AcDbPoint
 10
236.2755961014399
 20
272.506151142355
 30
0.0
  0
POINT
  5
10E2
330
9E2
100
AcDbEntity
  8
DEFPOINTS
 62
     0
100
AcDbPoint
 10
236.2755961014399
 20
272.506151142355
 30
0.0
  0
ENDBLK
  5
9EF
330
9E2
100
AcDbEntity
  8
0
100
AcDbBlockEnd
  0
BLOCK
  5
9FB
330
9F1
100
AcDbEntity
  8
0
100
AcDbBlockBegin
  2
*D27
 70
     1
 10
0.0
 20
0.0
 30
0.0
  3
*D27
  1

  0
LINE
  5
10E3
330
9F1
100
AcDbEntity
  8
SUNPOU
100
AcDbLine
 10
219.07381370826
 20
280.006151142355
 30
0.0
 11
269.8945518453427
 21
280.006151142355
 31
0.0
  0
LINE
  5
10E4
330
9F1
100
AcDbEntity
  8
SUNPOU
100
AcDbLine
 10
222.0738137082536
 20
119.3439924969586
 30
0.0
 11
269.8945518453427
 21
119.3439924969586
 31
0.0
  0
LINE
  5
10E5
330
9F1
100
AcDbEntity
  8
SUNPOU
100
AcDbLine
 10
267.8945518453426
 20
275.006151142355
 30
0.0
 11
267.8945518453426
 21
124.3439924969586
 31
0.0
  0
INSERT
  5
10E6
330
9F1
100
AcDbEntity
  8
SUNPOU
100
AcDbBlockReference
  2
_OPEN30
 10
267.8945518453426
 20
280.006151142355
 30
0.0
 41
5.0
 42
5.0
 43
5.0
 50
90.0
  0
INSERT
  5
10E7
330
9F1
100
AcDbEntity
  8
SUNPOU
100
AcDbBlockReference
  2
_OPEN30
 10
267.8945518453426
 20
119.3439924969586
 30
0.0
 41
5.0
 42
5.0
 43
5.0
 50
270.0
  0
MTEXT
  5
10E8
330
9F1
100
AcDbEntity
  8
SUNPOU
 62
     6
100
AcDbMText
 10
263.3945518453426
 20
199.6750718196568
 30
0.0
 40
5.0
 41
0.0
 71
     5
 72
     1
  1
\A1;DH
  7
SUNPOU
 11
0.0000000000000001
 21
1.0
 31
0.0
1001
ACAD
1000
MTEXTBEGIN
1070
    73
1070
     1
1070
    44
1040
1.0
1070
    74
1070
     0
1000
MTEXTEND
1000
MTEXTBEGIN
1070
    73
1070
     1
1070
    44
1040
1.0
1070
    74
1070
     0
1000
MTEXTEND
  0
POINT
  5
10E9
330
9F1
100
AcDbEntity
  8
DEFPOINTS
 62
     0
100
AcDbPoint
 10
216.0738137082599
 20
280.006151142355
 30
0.0
  0
POINT
  5
10EA
330
9F1
100
AcDbEntity
  8
DEFPOINTS
 62
     0
100
AcDbPoint
 10
219.0738137082536
 20
119.3439924969586
 30
0.0
  0
POINT
  5
10EB
330
9F1
100
AcDbEntity
  8
DEFPOINTS
 62
     0
100
AcDbPoint
 10
267.8945518453426
 20
119.3439924969586
 30
0.0
  0
ENDBLK
  5
9FC
330
9F1
100
AcDbEntity
  8
0
100
AcDbBlockEnd
  0
BLOCK
  5
A0A
330
9FE
100
AcDbEntity
  8
0
100
AcDbBlockBegin
  2
*D28
 70
     1
 10
0.0
 20
0.0
 30
0.0
  3
*D28
  1

  0
LINE
  5
10EC
330
9FE
100
AcDbEntity
  8
SUNPOU
100
AcDbLine
 10
222.0738137082536
 20
119.3439924969586
 30
0.0
 11
269.8945518453427
 21
119.3439924969586
 31
0.0
  0
LINE
  5
10ED
330
9FE
100
AcDbEntity
  8
SUNPOU
100
AcDbLine
 10
264.8945518453426
 20
109.3439924969584
 30
0.0
 11
265.8945518453426
 21
109.3439924969584
 31
0.0
  0
LINE
  5
10EE
330
9FE
100
AcDbEntity
  8
SUNPOU
100
AcDbLine
 10
267.8945518453426
 20
124.3439924969586
 30
0.0
 11
267.8945518453426
 21
129.3439924969586
 31
0.0
  0
LINE
  5
10EF
330
9FE
100
AcDbEntity
  8
SUNPOU
100
AcDbLine
 10
267.8945518453426
 20
104.3439924969584
 30
0.0
 11
267.8945518453426
 21
99.34399249695841
 31
0.0
  0
LINE
  5
10F0
330
9FE
100
AcDbEntity
  8
SUNPOU
100
AcDbLine
 10
267.8945518453426
 20
119.3439924969586
 30
0.0
 11
267.8945518453426
 21
109.3439924969584
 31
0.0
  0
INSERT
  5
10F1
330
9FE
100
AcDbEntity
  8
SUNPOU
100
AcDbBlockReference
  2
_OPEN30
 10
267.8945518453426
 20
119.3439924969586
 30
0.0
 41
5.0
 42
5.0
 43
5.0
 50
270.0
  0
INSERT
  5
10F2
330
9FE
100
AcDbEntity
  8
SUNPOU
100
AcDbBlockReference
  2
_OPEN30
 10
267.8945518453426
 20
109.3439924969584
 30
0.0
 41
5.0
 42
5.0
 43
5.0
 50
90.0
  0
MTEXT
  5
10F3
330
9FE
100
AcDbEntity
  8
SUNPOU
 62
     6
100
AcDbMText
 10
263.3945518453426
 20
114.3439924969585
 30
0.0
 40
5.0
 41
0.0
 71
     5
 72
     1
  1
\A1;10
  7
SUNPOU
 11
0.0000000000000001
 21
1.0
 31
0.0
1001
ACAD
1000
MTEXTBEGIN
1070
    73
1070
     1
1070
    44
1040
1.0
1070
    74
1070
     0
1000
MTEXTEND
1000
MTEXTBEGIN
1070
    73
1070
     1
1070
    44
1040
1.0
1070
    74
1070
     0
1000
MTEXTEND
  0
POINT
  5
10F4
330
9FE
100
AcDbEntity
  8
DEFPOINTS
 62
     0
100
AcDbPoint
 10
219.0738137082536
 20
119.3439924969586
 30
0.0
  0
POINT
  5
10F5
330
9FE
100
AcDbEntity
  8
DEFPOINTS
 62
     0
100
AcDbPoint
 10
267.8945518453426
 20
109.3439924969584
 30
0.0
  0
POINT
  5
10F6
330
9FE
100
AcDbEntity
  8
DEFPOINTS
 62
     0
100
AcDbPoint
 10
267.8945518453426
 20
109.3439924969584
 30
0.0
  0
ENDBLK
  5
A0B
330
9FE
100
AcDbEntity
  8
0
100
AcDbBlockEnd
  0
BLOCK
  5
A19
330
A0D
100
AcDbEntity
  8
0
100
AcDbBlockBegin
  2
*D29
 70
     1
 10
0.0
 20
0.0
 30
0.0
  3
*D29
  1

  0
LINE
  5
E4E
330
A0D
100
AcDbEntity
  8
SUNPOU
100
AcDbLine
 10
230.1738137064651
 20
112.3439924969584
 30
0.0
 11
236.9174674674959
 21
112.3439924969584
 31
0.0
  0
LINE
  5
E4F
330
A0D
100
AcDbEntity
  8
SUNPOU
100
AcDbLine
 10
230.1738137064651
 20
109.3439924969584
 30
0.0
 11
236.9174674674959
 21
109.3439924969584
 31
0.0
  0
LINE
  5
E50
330
A0D
100
AcDbEntity
  8
SUNPOU
100
AcDbLine
 10
234.9174674674959
 20
117.3439924969584
 30
0.0
 11
234.9174674674959
 21
122.3439924969584
 31
0.0
  0
LINE
  5
E51
330
A0D
100
AcDbEntity
  8
SUNPOU
100
AcDbLine
 10
234.9174674674959
 20
104.3439924969584
 30
0.0
 11
234.9174674674959
 21
99.34399249695841
 31
0.0
  0
MTEXT
  5
E52
330
A0D
100
AcDbEntity
  8
SUNPOU
 62
     6
100
AcDbMText
 10
230.716353958916
 20
115.4987068134279
 30
0.0
 40
5.0
 41
0.0
 71
     5
 72
     1
  1
\A1;3
  7
SUNPOU
 11
0.0000000000000001
 21
1.0
 31
0.0
1001
ACAD
1000
MTEXTBEGIN
1070
    73
1070
     1
1070
    44
1040
1.0
1070
    74
1070
     0
1000
MTEXTEND
1000
MTEXTBEGIN
1070
    73
1070
     1
1070
    44
1040
1.0
1070
    74
1070
     0
1000
MTEXTEND
  0
LINE
  5
E53
330
A0D
100
AcDbEntity
  8
SUNPOU
100
AcDbLine
 10
234.9174674674959
 20
112.3439924969584
 30
0.0
 11
234.9174674674959
 21
109.3439924969584
 31
0.0
  0
INSERT
  5
E54
330
A0D
100
AcDbEntity
  8
SUNPOU
100
AcDbBlockReference
  2
_OPEN30
 10
234.9174674674959
 20
112.3439924969584
 30
0.0
 41
5.0
 42
5.0
 43
5.0
 50
270.0
  0
INSERT
  5
E55
330
A0D
100
AcDbEntity
  8
SUNPOU
100
AcDbBlockReference
  2
_OPEN30
 10
234.9174674674959
 20
109.3439924969584
 30
0.0
 41
5.0
 42
5.0
 43
5.0
 50
90.0
  0
POINT
  5
E56
330
A0D
100
AcDbEntity
  8
DEFPOINTS
 62
     0
100
AcDbPoint
 10
227.1738137064651
 20
112.3439924969584
 30
0.0
  0
POINT
  5
E57
330
A0D
100
AcDbEntity
  8
DEFPOINTS
 62
     0
100
AcDbPoint
 10
227.1738137064651
 20
109.3439924969584
 30
0.0
  0
POINT
  5
E58
330
A0D
100
AcDbEntity
  8
DEFPOINTS
 62
     0
100
AcDbPoint
 10
234.9174674674959
 20
109.3439924969584
 30
0.0
  0
ENDBLK
  5
A1A
330
A0D
100
AcDbEntity
  8
0
100
AcDbBlockEnd
  0
BLOCK
  5
A26
330
A1C
100
AcDbEntity
  8
0
100
AcDbBlockBegin
  2
*D30
 70
     1
 10
0.0
 20
0.0
 30
0.0
  3
*D30
  1

  0
LINE
  5
E2F
330
A1C
100
AcDbEntity
  8
SUNPOU
100
AcDbLine
 10
230.1738137064651
 20
112.3439924969584
 30
0.0
 11
245.1166689198323
 21
112.3439924969584
 31
0.0
  0
LINE
  5
E30
330
A1C
100
AcDbEntity
  8
SUNPOU
100
AcDbLine
 10
214.4238137064651
 20
87.34399249695835
 30
0.0
 11
245.1166689198323
 21
87.34399249695833
 31
0.0
  0
LINE
  5
E31
330
A1C
100
AcDbEntity
  8
SUNPOU
100
AcDbLine
 10
243.1166689198323
 20
107.3439924969584
 30
0.0
 11
243.1166689198323
 21
92.34399249695831
 31
0.0
  0
MTEXT
  5
E32
330
A1C
100
AcDbEntity
  8
SUNPOU
 62
     6
100
AcDbMText
 10
238.5037829761335
 20
99.11006770348265
 30
0.0
 40
5.0
 41
0.0
 71
     5
 72
     1
  1
\A1;25
  7
SUNPOU
 11
0.0000000000000001
 21
1.0
 31
0.0
1001
ACAD
1000
MTEXTBEGIN
1070
    73
1070
     1
1070
    44
1040
1.0
1070
    74
1070
     0
1000
MTEXTEND
1000
MTEXTBEGIN
1070
    73
1070
     1
1070
    44
1040
1.0
1070
    74
1070
     0
1000
MTEXTEND
  0
INSERT
  5
E33
330
A1C
100
AcDbEntity
  8
SUNPOU
100
AcDbBlockReference
  2
_OPEN30
 10
243.1166689198323
 20
112.3439924969584
 30
0.0
 41
5.0
 42
5.0
 43
5.0
 50
90.0
  0
INSERT
  5
E34
330
A1C
100
AcDbEntity
  8
SUNPOU
100
AcDbBlockReference
  2
_OPEN30
 10
243.1166689198323
 20
87.34399249695833
 30
0.0
 41
5.0
 42
5.0
 43
5.0
 50
270.0
  0
POINT
  5
E35
330
A1C
100
AcDbEntity
  8
DEFPOINTS
 62
     0
100
AcDbPoint
 10
227.1738137064651
 20
112.3439924969584
 30
0.0
  0
POINT
  5
E36
330
A1C
100
AcDbEntity
  8
DEFPOINTS
 62
     0
100
AcDbPoint
 10
211.4238137064651
 20
87.34399249695835
 30
0.0
  0
POINT
  5
E37
330
A1C
100
AcDbEntity
  8
DEFPOINTS
 62
     0
100
AcDbPoint
 10
243.1166689198323
 20
87.34399249695833
 30
0.0
  0
ENDBLK
  5
A27
330
A1C
100
AcDbEntity
  8
0
100
AcDbBlockEnd
  0
BLOCK
  5
A50
330
A44
100
AcDbEntity
  8
0
100
AcDbBlockBegin
  2
*D31
 70
     1
 10
0.0
 20
0.0
 30
0.0
  3
*D31
  1

  0
LINE
  5
CBA
330
A44
100
AcDbEntity
  8
SUNPOU
100
AcDbLine
 10
346.07381370826
 20
271.006151142355
 30
0.0
 11
346.07381370826
 21
245.6766256590508
 31
0.0
  0
LINE
  5
CBB
330
A44
100
AcDbEntity
  8
SUNPOU
100
AcDbLine
 10
349.0738137082601
 20
271.006151142355
 30
0.0
 11
349.0738137082601
 21
245.6766256590508
 31
0.0
  0
LINE
  5
CBC
330
A44
100
AcDbEntity
  8
SUNPOU
100
AcDbLine
 10
341.0738137082601
 20
247.6766256590508
 30
0.0
 11
336.0738137082601
 21
247.6766256590508
 31
0.0
  0
LINE
  5
CBD
330
A44
100
AcDbEntity
  8
SUNPOU
100
AcDbLine
 10
354.07381370826
 20
247.6766256590508
 30
0.0
 11
359.0738137082601
 21
247.6766256590508
 31
0.0
  0
MTEXT
  5
CBE
330
A44
100
AcDbEntity
  8
SUNPOU
 62
     6
100
AcDbMText
 10
340.4199441482155
 20
252.3820085272955
 30
0.0
 40
5.0
 41
0.0
 71
     5
 72
     1
  1
\A1;3
  7
SUNPOU
1001
ACAD
1000
MTEXTBEGIN
1070
    73
1070
     1
1070
    44
1040
1.0
1070
    74
1070
     0
1000
MTEXTEND
1000
MTEXTBEGIN
1070
    73
1070
     1
1070
    44
1040
1.0
1070
    74
1070
     0
1000
MTEXTEND
  0
LINE
  5
CBF
330
A44
100
AcDbEntity
  8
SUNPOU
100
AcDbLine
 10
346.07381370826
 20
247.6766256590508
 30
0.0
 11
349.0738137082601
 21
247.6766256590508
 31
0.0
  0
INSERT
  5
CC0
330
A44
100
AcDbEntity
  8
SUNPOU
100
AcDbBlockReference
  2
_OPEN30
 10
346.07381370826
 20
247.6766256590508
 30
0.0
 41
5.0
 42
5.0
 43
5.0
  0
INSERT
  5
CC1
330
A44
100
AcDbEntity
  8
SUNPOU
100
AcDbBlockReference
  2
_OPEN30
 10
349.0738137082601
 20
247.6766256590508
 30
0.0
 41
5.0
 42
5.0
 43
5.0
 50
180.0
  0
POINT
  5
CC2
330
A44
100
AcDbEntity
  8
DEFPOINTS
 62
     0
100
AcDbPoint
 10
346.07381370826
 20
274.006151142355
 30
0.0
  0
POINT
  5
CC3
330
A44
100
AcDbEntity
  8
DEFPOINTS
 62
     0
100
AcDbPoint
 10
349.0738137082601
 20
274.006151142355
 30
0.0
  0
POINT
  5
CC4
330
A44
100
AcDbEntity
  8
DEFPOINTS
 62
     0
100
AcDbPoint
 10
349.0738137082601
 20
247.6766256590508
 30
0.0
  0
ENDBLK
  5
A51
330
A44
100
AcDbEntity
  8
0
100
AcDbBlockEnd
  0
BLOCK
  5
B2B
330
B21
100
AcDbEntity
  8
0
100
AcDbBlockBegin
  2
*D32
 70
     1
 10
0.0
 20
0.0
 30
0.0
  3
*D32
  1

  0
LINE
  5
CA6
330
B21
100
AcDbEntity
  8
SUNPOU
100
AcDbLine
 10
194.4238137064651
 20
84.34399249695839
 30
0.0
 11
194.4238137064651
 21
72.25792107945716
 31
0.0
  0
LINE
  5
CA7
330
B21
100
AcDbEntity
  8
SUNPOU
100
AcDbLine
 10
211.4238137064651
 20
84.34399249695839
 30
0.0
 11
211.4238137064651
 21
72.25792107945716
 31
0.0
  0
LINE
  5
CA8
330
B21
100
AcDbEntity
  8
SUNPOU
100
AcDbLine
 10
199.4238137064651
 20
74.25792107945716
 30
0.0
 11
206.4238137064651
 21
74.25792107945716
 31
0.0
  0
INSERT
  5
CA9
330
B21
100
AcDbEntity
  8
SUNPOU
100
AcDbBlockReference
  2
_OPEN30
 10
194.4238137064651
 20
74.25792107945716
 30
0.0
 41
5.0
 42
5.0
 43
5.0
 50
180.0
  0
INSERT
  5
CAA
330
B21
100
AcDbEntity
  8
SUNPOU
100
AcDbBlockReference
  2
_OPEN30
 10
211.4238137064651
 20
74.25792107945716
 30
0.0
 41
5.0
 42
5.0
 43
5.0
  0
MTEXT
  5
CAB
330
B21
100
AcDbEntity
  8
SUNPOU
 62
     6
100
AcDbMText
 10
202.9238137064651
 20
78.75792107945716
 30
0.0
 40
5.0
 41
0.0
 71
     5
 72
     1
  1
\A1;17
  7
SUNPOU
1001
ACAD
1000
MTEXTBEGIN
1070
    73
1070
     1
1070
    44
1040
1.0
1070
    74
1070
     0
1000
MTEXTEND
1000
MTEXTBEGIN
1070
    73
1070
     1
1070
    44
1040
1.0
1070
    74
1070
     0
1000
MTEXTEND
  0
POINT
  5
CAC
330
B21
100
AcDbEntity
  8
DEFPOINTS
 62
     0
100
AcDbPoint
 10
194.4238137064651
 20
87.34399249695837
 30
0.0
  0
POINT
  5
CAD
330
B21
100
AcDbEntity
  8
DEFPOINTS
 62
     0
100
AcDbPoint
 10
211.4238137064651
 20
87.34399249695837
 30
0.0
  0
POINT
  5
CAE
330
B21
100
AcDbEntity
  8
DEFPOINTS
 62
     0
100
AcDbPoint
 10
211.4238137064651
 20
74.25792107945716
 30
0.0
  0
ENDBLK
  5
B2C
330
B21
100
AcDbEntity
  8
0
100
AcDbBlockEnd
  0
BLOCK
  5
12D1
330
12C7
100
AcDbEntity
  8
0
100
AcDbBlockBegin
  2
*D33
 70
     1
 10
0.0
 20
0.0
 30
0.0
  3
*D33
  1

  0
LINE
  5
13C9
330
12C7
100
AcDbEntity
  8
SUNPOU
100
AcDbLine
 10
110.0447478707583
 20
455.0061511423549
 30
0.0
 11
59.07702705430255
 21
455.0061511423549
 31
0.0
  0
LINE
  5
13CA
330
12C7
100
AcDbEntity
  8
SUNPOU
100
AcDbLine
 10
115.4965545833126
 20
507.5061511423549
 30
0.0
 11
59.07702705430256
 21
507.5061511423549
 31
0.0
  0
LINE
  5
13CB
330
12C7
100
AcDbEntity
  8
SUNPOU
100
AcDbLine
 10
61.07702705430255
 20
460.0061511423549
 30
0.0
 11
61.07702705430256
 21
502.5061511423549
 31
0.0
  0
INSERT
  5
13CC
330
12C7
100
AcDbEntity
  8
SUNPOU
100
AcDbBlockReference
  2
_OPEN30
 10
61.07702705430255
 20
455.0061511423549
 30
0.0
 41
5.0
 42
5.0
 43
5.0
 50
270.0
  0
INSERT
  5
13CD
330
12C7
100
AcDbEntity
  8
SUNPOU
100
AcDbBlockReference
  2
_OPEN30
 10
61.07702705430256
 20
507.5061511423549
 30
0.0
 41
5.0
 42
5.0
 43
5.0
 50
90.0
  0
MTEXT
  5
13CE
330
12C7
100
AcDbEntity
  8
SUNPOU
 62
     6
100
AcDbMText
 10
56.57702705430248
 20
481.2561511423551
 30
0.0
 40
5.0
 41
0.0
 71
     5
 72
     1
  1
\A1;52.5
  7
SUNPOU
 11
0.0000000000000001
 21
1.0
 31
0.0
1001
ACAD
1000
MTEXTBEGIN
1070
    73
1070
     1
1070
    44
1040
1.0
1070
    74
1070
     0
1000
MTEXTEND
1000
MTEXTBEGIN
1070
    73
1070
     1
1070
    44
1040
1.0
1070
    74
1070
     0
1000
MTEXTEND
  0
POINT
  5
13CF
330
12C7
100
AcDbEntity
  8
DEFPOINTS
 62
     0
100
AcDbPoint
 10
113.0447478707583
 20
455.0061511423549
 30
0.0
  0
POINT
  5
13D0
330
12C7
100
AcDbEntity
  8
DEFPOINTS
 62
     0
100
AcDbPoint
 10
118.4965545833126
 20
507.5061511423549
 30
0.0
  0
POINT
  5
13D1
330
12C7
100
AcDbEntity
  8
DEFPOINTS
 62
     0
100
AcDbPoint
 10
61.07702705430256
 20
507.5061511423549
 30
0.0
  0
ENDBLK
  5
12D2
330
12C7
100
AcDbEntity
  8
0
100
AcDbBlockEnd
  0
BLOCK
  5
12DD
330
12D3
100
AcDbEntity
  8
0
100
AcDbBlockBegin
  2
*D34
 70
     1
 10
0.0
 20
0.0
 30
0.0
  3
*D34
  1

  0
LINE
  5
13C0
330
12D3
100
AcDbEntity
  8
SUNPOU
100
AcDbLine
 10
110.0447478707583
 20
455.0061511423549
 30
0.0
 11
80.07381370826008
 21
455.0061511423549
 31
0.0
  0
LINE
  5
13C1
330
12D3
100
AcDbEntity
  8
SUNPOU
100
AcDbLine
 10
115.4965545833126
 20
480.0061511423549
 30
0.0
 11
80.0738137082601
 21
480.0061511423549
 31
0.0
  0
LINE
  5
13C2
330
12D3
100
AcDbEntity
  8
SUNPOU
100
AcDbLine
 10
82.07381370826011
 20
460.0061511423549
 30
0.0
 11
82.07381370826011
 21
475.0061511423551
 31
0.0
  0
INSERT
  5
13C3
330
12D3
100
AcDbEntity
  8
SUNPOU
100
AcDbBlockReference
  2
_OPEN30
 10
82.07381370826011
 20
455.0061511423549
 30
0.0
 41
5.0
 42
5.0
 43
5.0
 50
270.0
  0
INSERT
  5
13C4
330
12D3
100
AcDbEntity
  8
SUNPOU
100
AcDbBlockReference
  2
_OPEN30
 10
82.07381370826011
 20
480.0061511423549
 30
0.0
 41
5.0
 42
5.0
 43
5.0
 50
90.0
  0
MTEXT
  5
13C5
330
12D3
100
AcDbEntity
  8
SUNPOU
 62
     6
100
AcDbMText
 10
77.57381370826
 20
467.5061511423549
 30
0.0
 40
5.0
 41
0.0
 71
     5
 72
     1
  1
\A1;25
  7
SUNPOU
 11
0.0000000000000001
 21
1.0
 31
0.0
1001
ACAD
1000
MTEXTBEGIN
1070
    73
1070
     1
1070
    44
1040
1.0
1070
    74
1070
     0
1000
MTEXTEND
1000
MTEXTBEGIN
1070
    73
1070
     1
1070
    44
1040
1.0
1070
    74
1070
     0
1000
MTEXTEND
  0
POINT
  5
13C6
330
12D3
100
AcDbEntity
  8
DEFPOINTS
 62
     0
100
AcDbPoint
 10
113.0447478707583
 20
455.0061511423549
 30
0.0
  0
POINT
  5
13C7
330
12D3
100
AcDbEntity
  8
DEFPOINTS
 62
     0
100
AcDbPoint
 10
118.4965545833126
 20
480.0061511423549
 30
0.0
  0
POINT
  5
13C8
330
12D3
100
AcDbEntity
  8
DEFPOINTS
 62
     0
100
AcDbPoint
 10
82.07381370826011
 20
480.0061511423549
 30
0.0
  0
ENDBLK
  5
12DE
330
12D3
100
AcDbEntity
  8
0
100
AcDbBlockEnd
  0
BLOCK
  5
155A
330
154D
100
AcDbEntity
  8
0
100
AcDbBlockBegin
  2
*X35
 70
     1
 10
0.0
 20
0.0
 30
0.0
  3
*X35
  1

  0
LINE
  5
154E
330
154D
100
AcDbEntity
  8
0
 62
     0
100
AcDbLine
 10
167.2768136366288
 20
291.4587106581436
 30
0.0
 11
166.2293731524175
 21
292.506151142355
 31
0.0
  0
LINE
  5
154F
330
154D
100
AcDbEntity
  8
0
 62
     0
100
AcDbLine
 10
165.1777227229681
 20
290.906151142355
 30
0.0
 11
163.5777227229681
 21
292.506151142355
 31
0.0
  0
LINE
  5
1550
330
154D
100
AcDbEntity
  8
0
 62
     0
100
AcDbLine
 10
161.2768136366289
 20
292.1554097992446
 30
0.0
 11
160.9260722935184
 21
292.506151142355
 31
0.0
  0
LINE
  5
1551
330
154D
100
AcDbEntity
  8
0
 62
     0
100
AcDbLine
 10
162.5260722935184
 20
290.906151142355
 30
0.0
 11
161.2768136366289
 21
292.1554097992445
 31
0.0
  0
LINE
  5
1552
330
154D
100
AcDbEntity
  8
0
 62
     0
100
AcDbLine
 10
159.874421864069
 20
290.906151142355
 30
0.0
 11
158.2744218640689
 21
292.506151142355
 31
0.0
  0
LINE
  5
1553
330
154D
100
AcDbEntity
  8
0
 62
     0
100
AcDbLine
 10
157.2227714346194
 20
290.906151142355
 30
0.0
 11
155.6227714346194
 21
292.506151142355
 31
0.0
  0
LINE
  5
1554
330
154D
100
AcDbEntity
  8
0
 62
     0
100
AcDbLine
 10
167.2768136366288
 20
272.8971576519967
 30
0.0
 11
166.1678201462706
 21
274.006151142355
 31
0.0
  0
LINE
  5
1555
330
154D
100
AcDbEntity
  8
0
 62
     0
100
AcDbLine
 10
165.0161697168211
 20
272.506151142355
 30
0.0
 11
163.5161697168211
 21
274.006151142355
 31
0.0
  0
LINE
  5
1556
330
154D
100
AcDbEntity
  8
0
 62
     0
100
AcDbLine
 10
161.2768136366289
 20
273.5938567930976
 30
0.0
 11
160.8645192873716
 21
274.006151142355
 31
0.0
  0
LINE
  5
1557
330
154D
100
AcDbEntity
  8
0
 62
     0
100
AcDbLine
 10
162.3645192873715
 20
272.506151142355
 30
0.0
 11
161.2768136366289
 21
273.5938567930976
 31
0.0
  0
LINE
  5
1558
330
154D
100
AcDbEntity
  8
0
 62
     0
100
AcDbLine
 10
159.7128688579221
 20
272.506151142355
 30
0.0
 11
158.2128688579221
 21
274.006151142355
 31
0.0
  0
LINE
  5
1559
330
154D
100
AcDbEntity
  8
0
 62
     0
100
AcDbLine
 10
157.0612184284724
 20
272.506151142355
 30
0.0
 11
155.5612184284725
 21
274.006151142355
 31
0.0
  0
ENDBLK
  5
155B
330
154D
100
AcDbEntity
  8
0
100
AcDbBlockEnd
  0
ENDSEC
  0
SECTION
  2
ENTITIES
  0
LINE
  5
2C2
330
A
100
AcDbEntity
  8
03
100
AcDbLine
 10
82.07381370826011
 20
322.506151142355
 30
0.0
 11
82.07381370826011
 21
274.006151142355
 31
0.0
  0
LINE
  5
2C3
330
A
100
AcDbEntity
  8
03
100
AcDbLine
 10
282.0738137082601
 20
274.006151142355
 30
0.0
 11
282.0738137082601
 21
287.506151142355
 31
0.0
  0
LINE
  5
2C4
330
A
100
AcDbEntity
  8
03
100
AcDbLine
 10
83.5738137082601
 20
322.506151142355
 30
0.0
 11
83.5738137082601
 21
274.006151142355
 31
0.0
  0
LINE
  5
2C5
330
A
100
AcDbEntity
  8
03
100
AcDbLine
 10
82.07381370826011
 20
322.506151142355
 30
0.0
 11
83.5738137082601
 21
322.506151142355
 31
0.0
  0
LINE
  5
2C6
330
A
100
AcDbEntity
  8
03
100
AcDbLine
 10
182.0738137082599
 20
282.506151142355
 30
0.0
 11
182.0738137082599
 21
274.006151142355
 31
0.0
  0
LINE
  5
2C7
330
A
100
AcDbEntity
  8
03
100
AcDbLine
 10
224.0738137082599
 20
282.506151142355
 30
0.0
 11
224.0738137082599
 21
274.006151142355
 31
0.0
  0
LINE
  5
2C8
330
A
100
AcDbEntity
  8
03
100
AcDbLine
 10
225.5738137082599
 20
274.006151142355
 30
0.0
 11
280.5738137082601
 21
274.006151142355
 31
0.0
  0
LINE
  5
2C9
330
A
100
AcDbEntity
  8
03
100
AcDbLine
 10
225.5738137082599
 20
272.506151142355
 30
0.0
 11
280.5738137082601
 21
272.506151142355
 31
0.0
  0
LINE
  5
2CA
330
A
100
AcDbEntity
  8
03
100
AcDbLine
 10
180.57381370826
 20
282.506151142355
 30
0.0
 11
180.57381370826
 21
274.006151142355
 31
0.0
  0
LINE
  5
2CB
330
A
100
AcDbEntity
  8
03
100
AcDbLine
 10
225.5738137082599
 20
282.506151142355
 30
0.0
 11
225.5738137082599
 21
274.006151142355
 31
0.0
  0
LINE
  5
2CC
330
A
100
AcDbEntity
  8
03
100
AcDbLine
 10
180.57381370826
 20
282.506151142355
 30
0.0
 11
182.0738137082599
 21
282.506151142355
 31
0.0
  0
LINE
  5
2CD
330
A
100
AcDbEntity
  8
03
100
AcDbLine
 10
224.0738137082599
 20
282.506151142355
 30
0.0
 11
225.5738137082599
 21
282.506151142355
 31
0.0
  0
LINE
  5
2CE
330
A
100
AcDbEntity
  8
03
100
AcDbLine
 10
142.0738137082601
 20
274.006151142355
 30
0.0
 11
142.0738137082601
 21
289.4061511423549
 31
0.0
  0
LINE
  5
2CF
330
A
100
AcDbEntity
  8
03
100
AcDbLine
 10
122.0738137082601
 20
289.4061511423549
 30
0.0
 11
122.0738137082601
 21
274.006151142355
 31
0.0
  0
LINE
  5
2D0
330
A
100
AcDbEntity
  8
03
100
AcDbLine
 10
140.5738137082599
 20
274.006151142355
 30
0.0
 11
140.5738137082599
 21
289.4061511423549
 31
0.0
  0
LINE
  5
2D1
330
A
100
AcDbEntity
  8
03
100
AcDbLine
 10
123.5738137082601
 20
289.4061511423549
 30
0.0
 11
123.5738137082601
 21
274.006151142355
 31
0.0
  0
LINE
  5
2D2
330
A
100
AcDbEntity
  8
03
100
AcDbLine
 10
123.5738137082601
 20
290.906151142355
 30
0.0
 11
140.5738137082599
 21
290.906151142355
 31
0.0
  0
LINE
  5
2D3
330
A
100
AcDbEntity
  8
03
100
AcDbLine
 10
83.5738137082601
 20
274.006151142355
 30
0.0
 11
122.0738137082601
 21
274.006151142355
 31
0.0
  0
LINE
  5
2D4
330
A
100
AcDbEntity
  8
03
100
AcDbLine
 10
142.0738137082601
 20
274.006151142355
 30
0.0
 11
180.57381370826
 21
274.006151142355
 31
0.0
  0
LINE
  5
2D5
330
A
100
AcDbEntity
  8
03
100
AcDbLine
 10
83.5738137082601
 20
272.506151142355
 30
0.0
 11
122.0738137082601
 21
272.506151142355
 31
0.0
  0
LINE
  5
2D6
330
A
100
AcDbEntity
  8
03
100
AcDbLine
 10
142.0738137082601
 20
272.506151142355
 30
0.0
 11
180.57381370826
 21
272.506151142355
 31
0.0
  0
LINE
  5
2D7
330
A
100
AcDbEntity
  8
03
100
AcDbLine
 10
123.5738137082601
 20
289.4061511423549
 30
0.0
 11
140.5738137082599
 21
289.4061511423549
 31
0.0
  0
LINE
  5
2D8
330
A
100
AcDbEntity
  8
03
100
AcDbLine
 10
219.0738137082604
 20
119.3439924969586
 30
0.0
 11
216.0738137082605
 21
119.3439924969581
 31
0.0
  0
LINE
  5
2D9
330
A
100
AcDbEntity
  8
03
100
AcDbLine
 10
187.0738137082605
 20
119.3439924969573
 30
0.0
 11
190.0738137082605
 21
119.3439924969581
 31
0.0
  0
LINE
  5
2DC
330
A
100
AcDbEntity
  8
03
100
AcDbLine
 10
187.0738137082602
 20
178.8086251182912
 30
0.0
 11
187.0738137082605
 21
119.3439924969573
 31
0.0
  0
LINE
  5
2DD
330
A
100
AcDbEntity
  8
03
100
AcDbLine
 10
219.0738137082601
 20
178.8086251182913
 30
0.0
 11
219.0738137082536
 21
119.3439924969586
 31
0.0
  0
LINE
  5
2DE
330
A
100
AcDbEntity
  8
03
100
AcDbLine
 10
216.0738137082605
 20
178.8086251182913
 30
0.0
 11
216.0738137082605
 21
119.3439924969581
 31
0.0
  0
LINE
  5
2E1
330
A
100
AcDbEntity
  8
03
100
AcDbLine
 10
190.0738137082605
 20
119.3439924969581
 30
0.0
 11
190.0738137082605
 21
178.8086251182912
 31
0.0
  0
LINE
  5
2E6
330
A
100
AcDbEntity
  8
03
100
AcDbLine
 10
211.0738137082605
 20
174.343992496958
 30
0.0
 11
195.0738137082605
 21
174.3439924969582
 31
0.0
  0
LINE
  5
2E8
330
A
100
AcDbEntity
  8
03
100
AcDbLine
 10
195.0738137082605
 20
178.8086251182912
 30
0.0
 11
195.0738137082605
 21
174.3439924969582
 31
0.0
  0
LINE
  5
2E9
330
A
100
AcDbEntity
  8
03
100
AcDbLine
 10
211.0738137082605
 20
178.8086251182913
 30
0.0
 11
211.0738137082605
 21
174.3439924969582
 31
0.0
  0
LINE
  5
2F6
330
A
100
AcDbEntity
  8
03
100
AcDbLine
 10
182.0738137082599
 20
110.843992496957
 30
0.0
 11
182.0738137082599
 21
102.3439924969585
 31
0.0
  0
LINE
  5
2F7
330
A
100
AcDbEntity
  8
03
100
AcDbLine
 10
183.57381370826
 20
110.8439924969582
 30
0.0
 11
183.57381370826
 21
102.3439924969585
 31
0.0
  0
LINE
  5
2F8
330
A
100
AcDbEntity
  8
03
100
AcDbLine
 10
182.0738137082599
 20
102.3439924969585
 30
0.0
 11
183.57381370826
 21
102.3439924969585
 31
0.0
  0
ARC
  5
2F9
330
A
100
AcDbEntity
  8
03
100
AcDbCircle
 10
183.57381370826
 20
110.843992496957
 30
0.0
 40
1.5
100
AcDbArc
 50
90.0
 51
180.0
  0
LINE
  5
2FC
330
A
100
AcDbEntity
  8
03
100
AcDbLine
 10
227.9238137064651
 20
111.5939924969584
 30
0.0
 11
227.9238137064651
 21
102.3439924969584
 31
0.0
  0
ARC
  5
2FD
330
A
100
AcDbEntity
  8
03
100
AcDbCircle
 10
227.1738137064651
 20
111.5939924969584
 30
0.0
 40
0.75
100
AcDbArc
 50
0.0000000000000325
 51
90.00000000000005
  0
LINE
  5
2FE
330
A
100
AcDbEntity
  8
03
100
AcDbLine
 10
226.4238137064653
 20
102.3439924969584
 30
0.0
 11
227.9238137064651
 21
102.3439924969584
 31
0.0
  0
LINE
  5
301
330
A
100
AcDbEntity
  8
03
100
AcDbLine
 10
212.173813706465
 20
112.3439924969583
 30
0.0
 11
227.1738137064651
 21
112.3439924969584
 31
0.0
  0
LINE
  5
302
330
A
100
AcDbEntity
  8
03
100
AcDbLine
 10
212.9238137064652
 20
110.8439924969582
 30
0.0
 11
226.4238137064651
 21
110.8439924969582
 31
0.0
  0
ARC
  5
304
330
A
100
AcDbEntity
  8
03
100
AcDbCircle
 10
212.173813706465
 20
111.5939924969582
 30
0.0
 40
0.75
100
AcDbArc
 50
90.00000000000005
 51
180.0
  0
ARC
  5
306
330
A
100
AcDbEntity
  8
03
100
AcDbCircle
 10
193.6738137064651
 20
111.5939924969584
 30
0.0
 40
0.75
100
AcDbArc
 50
0.0000000000000325
 51
90.00000000000119
  0
LINE
  5
308
330
A
100
AcDbEntity
  8
03
100
AcDbLine
 10
183.57381370826
 20
112.343992496957
 30
0.0
 11
193.6738137064651
 21
112.3439924969585
 31
0.0
  0
LINE
  5
309
330
A
100
AcDbEntity
  8
03
100
AcDbLine
 10
183.57381370826
 20
110.8439924969582
 30
0.0
 11
192.9238137064651
 21
110.8439924969582
 31
0.0
  0
LINE
  5
30B
330
A
100
AcDbEntity
  8
03
100
AcDbLine
 10
195.5738137082599
 20
117.3439924969581
 30
0.0
 11
210.57381370826
 21
117.3439924969581
 31
0.0
  0
ARC
  5
30C
330
A
100
AcDbEntity
  8
03
100
AcDbCircle
 10
212.1738137064653
 20
86.59399249695836
 30
0.0
 40
0.75
100
AcDbArc
 50
269.9999999999998
 51
0.0000000000000799
  0
ARC
  5
30D
330
A
100
AcDbEntity
  8
KAKURE
100
AcDbCircle
 10
225.4238137064652
 20
84.54399249695844
 30
0.0
 40
1.0
100
AcDbArc
 50
269.9999999999999
 51
0.0000000000000799
  0
LINE
  5
310
330
A
100
AcDbEntity
  8
03
100
AcDbLine
 10
194.4238137064651
 20
87.34399249695835
 30
0.0
 11
211.4238137064651
 21
87.34399249695835
 31
0.0
  0
ARC
  5
311
330
A
100
AcDbEntity
  8
03
100
AcDbCircle
 10
193.6738137064653
 20
86.59399249695844
 30
0.0
 40
0.75
100
AcDbArc
 50
180.0
 51
269.9999999999997
  0
LINE
  5
315
330
A
100
AcDbEntity
  8
KAKURE
100
AcDbLine
 10
226.4238137064651
 20
110.8439924969582
 30
0.0
 11
226.4238137064653
 21
84.54399249695844
 31
0.0
  0
LINE
  5
316
330
A
100
AcDbEntity
  8
KAKURE
100
AcDbLine
 10
224.1238137064653
 20
110.8439924969582
 30
0.0
 11
224.1238137064653
 21
85.84399249695833
 31
0.0
  0
LINE
  5
318
330
A
100
AcDbEntity
  8
03
100
AcDbLine
 10
211.4238137064651
 20
111.5939924969582
 30
0.0
 11
211.4238137064651
 21
87.34399249695835
 31
0.0
  0
LINE
  5
319
330
A
100
AcDbEntity
  8
03
100
AcDbLine
 10
212.9238137064652
 20
110.8439924969582
 30
0.0
 11
212.9238137064652
 21
86.59399249695836
 31
0.0
  0
LINE
  5
31A
330
A
100
AcDbEntity
  8
03
100
AcDbLine
 10
192.9238137064651
 20
110.8439924969582
 30
0.0
 11
192.9238137064652
 21
86.59399249695844
 31
0.0
  0
LINE
  5
31B
330
A
100
AcDbEntity
  8
03
100
AcDbLine
 10
194.4238137064651
 20
111.5939924969584
 30
0.0
 11
194.4238137064651
 21
87.34399249695835
 31
0.0
  0
LINE
  5
31C
330
A
100
AcDbEntity
  8
03
100
AcDbLine
 10
195.5738137082599
 20
117.3439924969581
 30
0.0
 11
195.57381370826
 21
92.34399249695824
 31
0.0
  0
LINE
  5
31D
330
A
100
AcDbEntity
  8
03
100
AcDbLine
 10
195.57381370826
 20
92.34399249695817
 30
0.0
 11
210.57381370826
 21
92.34399249695824
 31
0.0
  0
LINE
  5
31E
330
A
100
AcDbEntity
  8
03
100
AcDbLine
 10
195.5738137082599
 20
117.3439924969581
 30
0.0
 11
210.57381370826
 21
92.34399249695824
 31
0.0
  0
LINE
  5
31F
330
A
100
AcDbEntity
  8
03
100
AcDbLine
 10
210.57381370826
 20
117.3439924969581
 30
0.0
 11
195.57381370826
 21
92.34399249695824
 31
0.0
  0
LINE
  5
320
330
A
100
AcDbEntity
  8
03
100
AcDbLine
 10
210.57381370826
 20
117.3439924969581
 30
0.0
 11
210.57381370826
 21
92.34399249695824
 31
0.0
  0
ARC
  5
321
330
A
100
AcDbEntity
  8
KAKURE
100
AcDbCircle
 10
185.87381370826
 20
85.84399249695847
 30
0.0
 40
2.299999999999998
100
AcDbArc
 50
180.0
 51
270.0
  0
LINE
  5
323
330
A
100
AcDbEntity
  8
KAKURE
100
AcDbLine
 10
185.87381370826
 20
85.84399249695847
 30
0.0
 11
224.1238137064653
 21
85.84399249695833
 31
0.0
  0
LINE
  5
324
330
A
100
AcDbEntity
  8
KAKURE
100
AcDbLine
 10
185.87381370826
 20
83.54399249695839
 30
0.0
 11
225.4238137064652
 21
83.54399249695845
 31
0.0
  0
LINE
  5
325
330
A
100
AcDbEntity
  8
KAKURE
100
AcDbLine
 10
185.87381370826
 20
85.84399249695847
 30
0.0
 11
185.87381370826
 21
110.8439924969582
 31
0.0
  0
LINE
  5
326
330
A
100
AcDbEntity
  8
KAKURE
100
AcDbLine
 10
183.57381370826
 20
85.84399249695847
 30
0.0
 11
183.57381370826
 21
110.8439924969582
 31
0.0
  0
ARC
  5
327
330
A
100
AcDbEntity
  8
03
100
AcDbCircle
 10
197.5738137082601
 20
189.9350833304895
 30
0.0
 40
7.5
100
AcDbArc
 50
78.46304384085474
 51
109.4712178961644
  0
ARC
  5
328
330
A
100
AcDbEntity
  8
03
100
AcDbCircle
 10
208.5738137082601
 20
189.9350833304895
 30
0.0
 40
7.5
100
AcDbArc
 50
70.5287821038356
 51
101.5369561591455
  0
LINE
  5
329
330
A
100
AcDbEntity
  8
03
100
AcDbLine
 10
213.07381370826
 20
197.006151142355
 30
0.0
 11
211.07381370826
 21
197.006151142355
 31
0.0
  0
ARC
  5
32A
330
A
100
AcDbEntity
  8
03
100
AcDbCircle
 10
213.07381370826
 20
200.006151142355
 30
0.0
 40
3.0
100
AcDbArc
 50
270.0
 51
0.0000015352347393
  0
LINE
  5
32B
330
A
100
AcDbEntity
  8
03
100
AcDbLine
 10
195.07381370826
 20
197.006151142355
 30
0.0
 11
193.07381370826
 21
197.006151142355
 31
0.0
  0
ARC
  5
32C
330
A
100
AcDbEntity
  8
03
100
AcDbCircle
 10
193.07381370826
 20
200.006151142355
 30
0.0
 40
3.0
100
AcDbArc
 50
179.9999984647652
 51
269.9999999999998
  0
LINE
  5
32D
330
A
100
AcDbEntity
  8
03
100
AcDbLine
 10
211.07381370826
 20
224.006151142355
 30
0.0
 11
211.0738133703139
 21
197.006151261837
 31
0.0
  0
LINE
  5
330
330
A
100
AcDbEntity
  8
03
100
AcDbLine
 10
195.07381370826
 20
224.006151142355
 30
0.0
 11
195.0738140462064
 21
197.006151261837
 31
0.0
  0
LINE
  5
334
330
A
100
AcDbEntity
  8
03
100
AcDbLine
 10
211.07381370826
 20
224.006151142355
 30
0.0
 11
195.07381370826
 21
224.006151142355
 31
0.0
  0
LINE
  5
34F
330
A
100
AcDbEntity
  8
03
100
AcDbLine
 10
219.07381370826
 20
280.006151142355
 30
0.0
 11
219.07381370826
 21
183.8086251182913
 31
0.0
  0
LINE
  5
350
330
A
100
AcDbEntity
  8
03
100
AcDbLine
 10
187.0738137082599
 20
280.0061511423549
 30
0.0
 11
187.07381370826
 21
183.8086251182912
 31
0.0
  0
LINE
  5
351
330
A
100
AcDbEntity
  8
03
100
AcDbLine
 10
187.0738137082599
 20
280.006151142355
 30
0.0
 11
198.82381370826
 21
280.006151142355
 31
0.0
  0
LINE
  5
352
330
A
100
AcDbEntity
  8
03
100
AcDbLine
 10
207.32381370826
 20
280.006151142355
 30
0.0
 11
219.0206287071168
 21
280.006151142355
 31
0.0
  0
LINE
  5
353
330
A
100
AcDbEntity
  8
03
100
AcDbLine
 10
216.07381370826
 20
280.006151142355
 30
0.0
 11
216.07381370826
 21
200.006151142355
 31
0.0
  0
LINE
  5
354
330
A
100
AcDbEntity
  8
03
100
AcDbLine
 10
190.07381370826
 20
200.006151142355
 30
0.0
 11
190.07381370826
 21
280.006151142355
 31
0.0
  0
LINE
  5
379
330
A
100
AcDbEntity
  8
03
100
AcDbLine
 10
282.0738137082601
 20
287.506151142355
 30
0.0
 11
300.5738137082601
 21
287.506151142355
 31
0.0
  0
LINE
  5
37A
330
A
100
AcDbEntity
  8
03
100
AcDbLine
 10
282.0738137082601
 20
289.0061511423549
 30
0.0
 11
300.5738137082601
 21
289.0061511423549
 31
0.0
  0
LINE
  5
37B
330
A
100
AcDbEntity
  8
03
100
AcDbLine
 10
280.5738137082601
 20
274.006151142355
 30
0.0
 11
280.5738137082601
 21
287.506151142355
 31
0.0
  0
LINE
  5
37C
330
A
100
AcDbEntity
  8
03
100
AcDbLine
 10
300.5738137082601
 20
289.0061511423549
 30
0.0
 11
300.5738137082601
 21
287.506151142355
 31
0.0
  0
ARC
  5
37D
330
A
100
AcDbEntity
  8
03
100
AcDbCircle
 10
225.5738137082599
 20
274.006151142355
 30
0.0
 40
1.5
100
AcDbArc
 50
180.0
 51
270.0
  0
ARC
  5
37E
330
A
100
AcDbEntity
  8
03
100
AcDbCircle
 10
280.5738137082601
 20
274.006151142355
 30
0.0
 40
1.5
100
AcDbArc
 50
270.0
 51
0.0
  0
ARC
  5
37F
330
A
100
AcDbEntity
  8
03
100
AcDbCircle
 10
282.0738137082601
 20
287.506151142355
 30
0.0
 40
1.5
100
AcDbArc
 50
90.0
 51
180.0
  0
ARC
  5
380
330
A
100
AcDbEntity
  8
03
100
AcDbCircle
 10
180.57381370826
 20
274.006151142355
 30
0.0
 40
1.5
100
AcDbArc
 50
270.0
 51
0.0
  0
ARC
  5
381
330
A
100
AcDbEntity
  8
03
100
AcDbCircle
 10
142.0738137082601
 20
274.006151142355
 30
0.0
 40
1.5
100
AcDbArc
 50
180.0
 51
270.0
  0
ARC
  5
382
330
A
100
AcDbEntity
  8
03
100
AcDbCircle
 10
122.0738137082601
 20
274.006151142355
 30
0.0
 40
1.5
100
AcDbArc
 50
270.0
 51
0.0
  0
ARC
  5
383
330
A
100
AcDbEntity
  8
03
100
AcDbCircle
 10
83.5738137082601
 20
274.006151142355
 30
0.0
 40
1.5
100
AcDbArc
 50
180.0
 51
270.0
  0
ARC
  5
384
330
A
100
AcDbEntity
  8
03
100
AcDbCircle
 10
123.5738137082601
 20
289.4061511423549
 30
0.0
 40
1.5
100
AcDbArc
 50
90.0
 51
180.0
  0
ARC
  5
385
330
A
100
AcDbEntity
  8
03
100
AcDbCircle
 10
140.5738137082599
 20
289.4061511423549
 30
0.0
 40
1.5
100
AcDbArc
 50
0.0
 51
90.0
  0
LINE
  5
386
330
A
100
AcDbEntity
  8
03
100
AcDbLine
 10
349.0738137082601
 20
274.006151142355
 30
0.0
 11
349.0738137082601
 21
287.506151142355
 31
0.0
  0
LINE
  5
387
330
A
100
AcDbEntity
  8
03
100
AcDbLine
 10
399.0738137082601
 20
322.506151142355
 30
0.0
 11
399.0738137082601
 21
274.006151142355
 31
0.0
  0
LINE
  5
388
330
A
100
AcDbEntity
  8
03
100
AcDbLine
 10
397.5738137082601
 20
274.006151142355
 30
0.0
 11
350.5738137082601
 21
274.006151142355
 31
0.0
  0
LINE
  5
389
330
A
100
AcDbEntity
  8
03
100
AcDbLine
 10
397.5738137082601
 20
272.506151142355
 30
0.0
 11
350.5738137082601
 21
272.506151142355
 31
0.0
  0
LINE
  5
38A
330
A
100
AcDbEntity
  8
03
100
AcDbLine
 10
397.5738137082601
 20
322.506151142355
 30
0.0
 11
397.5738137082601
 21
274.006151142355
 31
0.0
  0
LINE
  5
38B
330
A
100
AcDbEntity
  8
03
100
AcDbLine
 10
399.0738137082601
 20
322.506151142355
 30
0.0
 11
397.5738137082601
 21
322.506151142355
 31
0.0
  0
LINE
  5
38C
330
A
100
AcDbEntity
  8
03
100
AcDbLine
 10
349.0738137082601
 20
287.506151142355
 30
0.0
 11
330.5738137082601
 21
287.506151142355
 31
0.0
  0
LINE
  5
38D
330
A
100
AcDbEntity
  8
03
100
AcDbLine
 10
349.0738137082601
 20
289.0061511423549
 30
0.0
 11
330.5738137082601
 21
289.0061511423549
 31
0.0
  0
LINE
  5
38E
330
A
100
AcDbEntity
  8
03
100
AcDbLine
 10
350.5738137082601
 20
274.006151142355
 30
0.0
 11
350.5738137082601
 21
287.506151142355
 31
0.0
  0
LINE
  5
38F
330
A
100
AcDbEntity
  8
03
100
AcDbLine
 10
330.5738137082601
 20
289.0061511423549
 30
0.0
 11
330.5738137082601
 21
287.506151142355
 31
0.0
  0
ARC
  5
390
330
A
100
AcDbEntity
  8
03
100
AcDbCircle
 10
397.5738137082601
 20
274.006151142355
 30
0.0
 40
1.5
100
AcDbArc
 50
270.0
 51
0.0
  0
ARC
  5
391
330
A
100
AcDbEntity
  8
03
100
AcDbCircle
 10
350.5738137082601
 20
274.006151142355
 30
0.0
 40
1.5
100
AcDbArc
 50
180.0
 51
270.0
  0
ARC
  5
392
330
A
100
AcDbEntity
  8
03
100
AcDbCircle
 10
349.0738137082601
 20
287.506151142355
 30
0.0
 40
1.5
100
AcDbArc
 50
0.0
 51
90.0
  0
LINE
  5
393
330
A
100
AcDbEntity
  8
03
100
AcDbLine
 10
278.97381370826
 20
527.5061511423549
 30
0.0
 11
283.4738137082601
 21
527.5061511423549
 31
0.0
  0
LINE
  5
394
330
A
100
AcDbEntity
  8
03
100
AcDbLine
 10
283.47381370826
 20
300.606151142355
 30
0.0
 11
278.97381370826
 21
300.606151142355
 31
0.0
  0
LINE
  5
395
330
A
100
AcDbEntity
  8
03
100
AcDbLine
 10
278.97381370826
 20
300.606151142355
 30
0.0
 11
278.97381370826
 21
527.5061511423549
 31
0.0
  0
LINE
  5
396
330
A
100
AcDbEntity
  8
03
100
AcDbLine
 10
283.4738137082601
 20
527.5061511423549
 30
0.0
 11
283.47381370826
 21
300.606151142355
 31
0.0
  0
LINE
  5
397
330
A
100
AcDbEntity
  8
03
100
AcDbLine
 10
123.6678138515221
 20
274.0947535634866
 30
0.0
 11
124.5738137082601
 21
289.4061511423549
 31
0.0
  0
LINE
  5
398
330
A
100
AcDbEntity
  8
03
100
AcDbLine
 10
140.4798135649977
 20
274.0947535634863
 30
0.0
 11
139.5738137082599
 21
289.4061511423549
 31
0.0
  0
LINE
  5
399
330
A
100
AcDbEntity
  8
03
100
AcDbLine
 10
125.165194768647
 20
272.506151142355
 30
0.0
 11
138.982432647873
 21
272.506151142355
 31
0.0
  0
LINE
  5
39A
330
A
100
AcDbEntity
  8
03
100
AcDbLine
 10
126.0711946253848
 20
289.3175487212234
 30
0.0
 11
125.165194768647
 21
274.006151142355
 31
0.0
  0
LINE
  5
39B
330
A
100
AcDbEntity
  8
03
100
AcDbLine
 10
125.165194768647
 20
274.006151142355
 30
0.0
 11
138.982432647873
 21
274.006151142355
 31
0.0
  0
LINE
  5
39C
330
A
100
AcDbEntity
  8
03
100
AcDbLine
 10
138.982432647873
 20
274.006151142355
 30
0.0
 11
138.0764327911352
 21
289.3175487212234
 31
0.0
  0
ARC
  5
39D
330
A
100
AcDbEntity
  8
03
100
AcDbCircle
 10
138.982432647873
 20
274.006151142355
 30
0.0
 40
1.5
100
AcDbArc
 50
270.0
 51
3.386334328771426
  0
ARC
  5
39E
330
A
100
AcDbEntity
  8
03
100
AcDbCircle
 10
125.165194768647
 20
274.006151142355
 30
0.0
 40
1.5
100
AcDbArc
 50
176.6136656712198
 51
270.0
  0
LINE
  5
39F
330
A
100
AcDbEntity
  8
03
100
AcDbLine
 10
182.0738137082599
 20
109.343992496957
 30
0.0
 11
48.7557117750439
 21
109.343992496957
 31
0.0
  0
LINE
  5
3A0
330
A
100
AcDbEntity
  8
03
100
AcDbLine
 10
227.9238137064651
 20
109.3439924969584
 30
0.0
 11
400.4745166959578
 21
109.3439924969584
 31
0.0
  0
CIRCLE
  5
3A1
330
A
100
AcDbEntity
  8
03
100
AcDbCircle
 10
161.2768136366289
 20
178.9581199459038
 30
0.0
 40
6.0
  0
LINE
  5
3A2
330
A
100
AcDbEntity
  8
03
100
AcDbLine
 10
87.07381370826011
 20
272.506151142355
 30
0.0
 11
87.07381370826011
 21
199.343992496957
 31
0.0
  0
LINE
  5
3A3
330
A
100
AcDbEntity
  8
03
100
AcDbLine
 10
87.07381370826011
 20
194.343992496957
 30
0.0
 11
87.07381370826011
 21
164.3439924969569
 31
0.0
  0
LINE
  5
3A4
330
A
100
AcDbEntity
  8
03
100
AcDbLine
 10
87.07381370826011
 20
159.3439924969569
 30
0.0
 11
87.07381370826011
 21
109.343992496957
 31
0.0
  0
LINE
  5
3A5
330
A
100
AcDbEntity
  8
03
100
AcDbLine
 10
182.0738137082599
 20
282.506151142355
 30
0.0
 11
182.0738137082599
 21
199.3439924969571
 31
0.0
  0
LINE
  5
3A6
330
A
100
AcDbEntity
  8
03
100
AcDbLine
 10
182.0738137082599
 20
194.3439924969571
 30
0.0
 11
182.0738137082599
 21
164.3439924969571
 31
0.0
  0
LINE
  5
3A7
330
A
100
AcDbEntity
  8
03
100
AcDbLine
 10
182.07381370826
 20
159.3439924969571
 30
0.0
 11
182.0738137082599
 21
109.343992496957
 31
0.0
  0
LINE
  5
3A8
330
A
100
AcDbEntity
  8
06
100
AcDbLine
 10
244.5738137082599
 20
500.0061511423551
 30
0.0
 11
244.5738137082599
 21
410.0061511423549
 31
0.0
  0
LINE
  5
3AB
330
A
100
AcDbEntity
  8
06
100
AcDbLine
 10
223.5738137082598
 20
410.0061511423549
 30
0.0
 11
223.5738137082598
 21
500.0061511423551
 31
0.0
  0
LINE
  5
3AC
330
A
100
AcDbEntity
  8
06
100
AcDbLine
 10
244.5738137082599
 20
500.0061511423551
 30
0.0
 11
242.5738137082598
 21
500.0061511423551
 31
0.0
  0
LINE
  5
3AD
330
A
100
AcDbEntity
  8
06
100
AcDbLine
 10
226.5738137082598
 20
500.0061511423551
 30
0.0
 11
223.5738137082598
 21
500.0061511423551
 31
0.0
  0
LINE
  5
3AE
330
A
100
AcDbEntity
  8
06
100
AcDbLine
 10
223.5738137082598
 20
410.0061511423549
 30
0.0
 11
226.5738137082598
 21
410.0061511423549
 31
0.0
  0
LINE
  5
3AF
330
A
100
AcDbEntity
  8
06
100
AcDbLine
 10
242.5738137082598
 20
410.0061511423549
 30
0.0
 11
244.5738137082599
 21
410.0061511423549
 31
0.0
  0
LINE
  5
3B0
330
A
100
AcDbEntity
  8
06
100
AcDbLine
 10
238.0738137082598
 20
484.0061511423551
 30
0.0
 11
231.07381370826
 21
484.0061511423551
 31
0.0
  0
LINE
  5
3B1
330
A
100
AcDbEntity
  8
06
100
AcDbLine
 10
238.0738137082598
 20
426.0061511423549
 30
0.0
 11
231.07381370826
 21
426.0061511423549
 31
0.0
  0
LINE
  5
3B4
330
A
100
AcDbEntity
  8
06
100
AcDbLine
 10
226.5738137082598
 20
410.0061511423549
 30
0.0
 11
231.07381370826
 21
424.2783277529895
 31
0.0
  0
LINE
  5
3B5
330
A
100
AcDbEntity
  8
06
100
AcDbLine
 10
242.5738137082598
 20
410.0061511423549
 30
0.0
 11
238.0738137082598
 21
424.2783277529895
 31
0.0
  0
LINE
  5
3B6
330
A
100
AcDbEntity
  8
06
100
AcDbLine
 10
242.5738137082598
 20
500.0061511423551
 30
0.0
 11
238.0738137082598
 21
485.7339745317204
 31
0.0
  0
LINE
  5
3B7
330
A
100
AcDbEntity
  8
06
100
AcDbLine
 10
231.07381370826
 20
485.7339745317204
 30
0.0
 11
226.5738137082598
 21
500.0061511423551
 31
0.0
  0
LINE
  5
3B8
330
A
100
AcDbEntity
  8
06
100
AcDbLine
 10
252.07381370826
 20
447.006151142355
 30
0.0
 11
255.0738137082598
 21
447.006151142355
 31
0.0
  0
LINE
  5
3B9
330
A
100
AcDbEntity
  8
06
100
AcDbLine
 10
252.07381370826
 20
463.0061511423551
 30
0.0
 11
255.0738137082598
 21
463.0061511423551
 31
0.0
  0
LINE
  5
3BA
330
A
100
AcDbEntity
  8
06
100
AcDbLine
 10
255.0738137082598
 20
447.006151142355
 30
0.0
 11
256.07381370826
 21
448.0061511423549
 31
0.0
  0
LINE
  5
3BB
330
A
100
AcDbEntity
  8
06
100
AcDbLine
 10
255.0738137082598
 20
463.0061511423551
 30
0.0
 11
256.07381370826
 21
462.0061511423549
 31
0.0
  0
LINE
  5
3BC
330
A
100
AcDbEntity
  8
06
100
AcDbLine
 10
256.07381370826
 20
462.0061511423549
 30
0.0
 11
256.07381370826
 21
448.0061511423549
 31
0.0
  0
LINE
  5
3BE
330
A
100
AcDbEntity
  8
06
100
AcDbLine
 10
245.3362762529883
 20
468.8625511423549
 30
0.0
 11
244.57381370826
 21
467.541926660276
 31
0.0
  0
LINE
  5
3BF
330
A
100
AcDbEntity
  8
06
100
AcDbLine
 10
245.3362762529883
 20
441.1497511423549
 30
0.0
 11
244.5738137082599
 21
442.4703756244341
 31
0.0
  0
LINE
  5
3C0
330
A
100
AcDbEntity
  8
06
100
AcDbLine
 10
245.3362762529883
 20
468.8625511423549
 30
0.0
 11
250.7133461682599
 21
468.8625511423549
 31
0.0
  0
LINE
  5
3C1
330
A
100
AcDbEntity
  8
06
100
AcDbLine
 10
245.3362762529883
 20
441.1497511423549
 30
0.0
 11
250.7133461682599
 21
441.1497511423549
 31
0.0
  0
LINE
  5
3C2
330
A
100
AcDbEntity
  8
06
100
AcDbLine
 10
250.7133461682599
 20
468.8625511423549
 30
0.0
 11
252.07381370826
 21
466.5061511423551
 31
0.0
  0
LINE
  5
3C3
330
A
100
AcDbEntity
  8
06
100
AcDbLine
 10
250.7133461682599
 20
441.1497511423549
 30
0.0
 11
252.07381370826
 21
443.5061511423549
 31
0.0
  0
LINE
  5
3C4
330
A
100
AcDbEntity
  8
06
100
AcDbLine
 10
252.07381370826
 20
443.5061511423549
 30
0.0
 11
252.07381370826
 21
466.5061511423551
 31
0.0
  0
ARC
  5
3C9
330
A
100
AcDbEntity
  8
06
100
AcDbCircle
 10
250.3984997129883
 20
465.398451142355
 30
0.0
 40
6.134015999999999
100
AcDbArc
 50
145.6111145019529
 51
161.7266412733061
  0
ARC
  5
3CF
330
A
100
AcDbEntity
  8
06
100
AcDbCircle
 10
250.3984997129883
 20
444.613851142355
 30
0.0
 40
6.134015999999999
100
AcDbArc
 50
198.2733587266938
 51
214.3888854980466
  0
LINE
  5
3D0
330
A
100
AcDbEntity
  8
06
100
AcDbLine
 10
242.8238137082598
 20
500.0061511423551
 30
0.0
 11
238.8201411313316
 21
489.0061511423549
 31
0.0
  0
LINE
  5
3D1
330
A
100
AcDbEntity
  8
06
100
AcDbLine
 10
238.8201411313316
 20
489.0061511423549
 30
0.0
 11
230.3274862851881
 21
489.0061511423549
 31
0.0
  0
LINE
  5
3D2
330
A
100
AcDbEntity
  8
06
100
AcDbLine
 10
226.3238137082598
 20
500.0061511423551
 30
0.0
 11
230.3274862851881
 21
489.0061511423549
 31
0.0
  0
LINE
  5
3D3
330
A
100
AcDbEntity
  8
06
100
AcDbLine
 10
226.3238137082598
 20
500.0061511423551
 30
0.0
 11
242.8238137082598
 21
500.0061511423551
 31
0.0
  0
LINE
  5
3D4
330
A
100
AcDbEntity
  8
06
100
AcDbLine
 10
242.8238137082598
 20
410.0061511423549
 30
0.0
 11
238.8201411313316
 21
421.0061511423549
 31
0.0
  0
LINE
  5
3D5
330
A
100
AcDbEntity
  8
06
100
AcDbLine
 10
238.8201411313316
 20
421.0061511423549
 30
0.0
 11
230.3274862851881
 21
421.0061511423551
 31
0.0
  0
LINE
  5
3D6
330
A
100
AcDbEntity
  8
06
100
AcDbLine
 10
226.3238137082598
 20
410.0061511423549
 30
0.0
 11
230.3274862851881
 21
421.0061511423551
 31
0.0
  0
LINE
  5
3D7
330
A
100
AcDbEntity
  8
06
100
AcDbLine
 10
226.3238137082598
 20
410.0061511423549
 30
0.0
 11
242.8238137082598
 21
410.0061511423549
 31
0.0
  0
CIRCLE
  5
3D9
330
A
100
AcDbEntity
  8
SAISEN
100
AcDbCircle
 10
136.3111821976972
 20
376.8750956123142
 30
0.0
 40
4.0
  0
CIRCLE
  5
3DA
330
A
100
AcDbEntity
  8
SAISEN
100
AcDbCircle
 10
157.1195828868462
 20
542.1467750400454
 30
0.0
 40
4.0
  0
LINE
  5
3DB
330
A
100
AcDbEntity
  8
KAKURE
100
AcDbLine
 10
87.07381370826011
 20
109.343992496957
 30
0.0
 11
87.07381370826011
 21
89.34399249695713
 31
0.0
  0
LINE
  5
3DC
330
A
100
AcDbEntity
  8
KAKURE
100
AcDbLine
 10
182.0738137082599
 20
109.343992496957
 30
0.0
 11
182.0738137082599
 21
89.34399249695708
 31
0.0
  0
LINE
  5
3DD
330
A
100
AcDbEntity
  8
KAKURE
100
AcDbLine
 10
182.0738137082599
 20
89.34399249695708
 30
0.0
 11
87.07381370826011
 21
89.34399249695713
 31
0.0
  0
LINE
  5
3DE
330
A
100
AcDbEntity
  8
CHUSIN
 48
0.3
100
AcDbLine
 10
161.2768136366289
 20
267.7864340013793
 30
0.0
 11
161.2768136366289
 21
296.5425918451726
 31
0.0
  0
LINE
  5
3DF
330
A
100
AcDbEntity
  8
SOUZOU
100
AcDbLine
 10
170.0738137082599
 20
396.5061511423549
 30
0.0
 11
170.0738137082599
 21
513.506151142355
 31
0.0
  0
LINE
  5
3E0
330
A
100
AcDbEntity
  8
SOUZOU
100
AcDbLine
 10
130.0738137082599
 20
513.506151142355
 30
0.0
 11
130.0738137082599
 21
396.5061511423549
 31
0.0
  0
LINE
  5
3E1
330
A
100
AcDbEntity
  8
SOUZOU
100
AcDbLine
 10
130.0738137082599
 20
396.5061511423549
 30
0.0
 11
170.0738137082599
 21
396.5061511423549
 31
0.0
  0
LINE
  5
3E2
330
A
100
AcDbEntity
  8
SOUZOU
100
AcDbLine
 10
170.0738137082599
 20
513.506151142355
 30
0.0
 11
130.0738137082599
 21
513.506151142355
 31
0.0
  0
LINE
  5
3E3
330
A
100
AcDbEntity
  8
SOUZOU
100
AcDbLine
 10
174.07381370826
 20
512.0061511423549
 30
0.0
 11
170.0738137082601
 21
512.0061511423549
 31
0.0
  0
LINE
  5
3E4
330
A
100
AcDbEntity
  8
SOUZOU
100
AcDbLine
 10
174.07381370826
 20
398.0061511423549
 30
0.0
 11
170.0738137082601
 21
398.0061511423549
 31
0.0
  0
LINE
  5
3E5
330
A
100
AcDbEntity
  8
SOUZOU
100
AcDbLine
 10
174.07381370826
 20
398.0061511423549
 30
0.0
 11
174.07381370826
 21
402.5061511423549
 31
0.0
  0
LINE
  5
3E6
330
A
100
AcDbEntity
  8
SOUZOU
100
AcDbLine
 10
174.07381370826
 20
507.5061511423548
 30
0.0
 11
174.07381370826
 21
512.0061511423549
 31
0.0
  0
LINE
  5
3F6
330
A
100
AcDbEntity
  8
02
100
AcDbLine
 10
85.17381370826006
 20
322.506151142355
 30
0.0
 11
85.17381370826006
 21
292.506151142355
 31
0.0
  0
LINE
  5
3F7
330
A
100
AcDbEntity
  8
03
100
AcDbLine
 10
85.17381370826006
 20
322.506151142355
 30
0.0
 11
83.5738137082601
 21
322.506151142355
 31
0.0
  0
LINE
  5
3F8
330
A
100
AcDbEntity
  8
03
100
AcDbLine
 10
83.5738137082601
 20
322.506151142355
 30
0.0
 11
83.5738137082601
 21
292.506151142355
 31
0.0
  0
LINE
  5
3F9
330
A
100
AcDbEntity
  8
03
100
AcDbLine
 10
180.57381370826
 20
274.006151142355
 30
0.0
 11
180.57381370826
 21
290.906151142355
 31
0.0
  0
LINE
  5
3FA
330
A
100
AcDbEntity
  8
03
100
AcDbLine
 10
85.17381370826006
 20
292.506151142355
 30
0.0
 11
178.97381370826
 21
292.506151142355
 31
0.0
  0
LINE
  5
3FB
330
A
100
AcDbEntity
  8
03
100
AcDbLine
 10
85.17381370826006
 20
290.906151142355
 30
0.0
 11
178.97381370826
 21
290.906151142355
 31
0.0
  0
LINE
  5
3FC
330
A
100
AcDbEntity
  8
03
100
AcDbLine
 10
178.97381370826
 20
290.906151142355
 30
0.0
 11
178.97381370826
 21
274.006151142355
 31
0.0
  0
LINE
  5
3FD
330
A
100
AcDbEntity
  8
03
100
AcDbLine
 10
300.5738137082601
 20
289.0061511423549
 30
0.0
 11
280.5738137082601
 21
289.0061511423549
 31
0.0
  0
LINE
  5
3FE
330
A
100
AcDbEntity
  8
03
100
AcDbLine
 10
300.5738137082601
 20
289.0061511423549
 30
0.0
 11
300.5738137082601
 21
290.606151142355
 31
0.0
  0
LINE
  5
3FF
330
A
100
AcDbEntity
  8
03
100
AcDbLine
 10
300.5738137082601
 20
290.606151142355
 30
0.0
 11
280.5738137082601
 21
290.606151142355
 31
0.0
  0
LINE
  5
400
330
A
100
AcDbEntity
  8
02
100
AcDbLine
 10
278.97381370826
 20
289.0061511423549
 30
0.0
 11
278.97381370826
 21
275.606151142355
 31
0.0
  0
LINE
  5
401
330
A
100
AcDbEntity
  8
03
100
AcDbLine
 10
280.5738137082601
 20
289.0061511423549
 30
0.0
 11
280.5738137082601
 21
275.606151142355
 31
0.0
  0
LINE
  5
402
330
A
100
AcDbEntity
  8
03
100
AcDbLine
 10
278.97381370826
 20
275.606151142355
 30
0.0
 11
227.1738137082599
 21
275.606151142355
 31
0.0
  0
LINE
  5
403
330
A
100
AcDbEntity
  8
03
100
AcDbLine
 10
227.1738137082599
 20
274.006151142355
 30
0.0
 11
278.97381370826
 21
274.006151142355
 31
0.0
  0
LINE
  5
404
330
A
100
AcDbEntity
  8
03
100
AcDbLine
 10
225.5738137082599
 20
282.506151142355
 30
0.0
 11
225.5738137082599
 21
275.606151142355
 31
0.0
  0
LINE
  5
405
330
A
100
AcDbEntity
  8
03
100
AcDbLine
 10
225.5738137082599
 20
282.506151142355
 30
0.0
 11
227.1738137082599
 21
282.506151142355
 31
0.0
  0
LINE
  5
406
330
A
100
AcDbEntity
  8
03
100
AcDbLine
 10
227.1738137082599
 20
282.506151142355
 30
0.0
 11
227.1738137082599
 21
275.606151142355
 31
0.0
  0
ARC
  5
407
330
A
100
AcDbEntity
  8
03
100
AcDbCircle
 10
227.1738137082599
 20
275.606151142355
 30
0.0
 40
1.6
100
AcDbArc
 50
180.0
 51
270.0
  0
ARC
  5
408
330
A
100
AcDbEntity
  8
03
100
AcDbCircle
 10
280.5738137082601
 20
289.0061511423549
 30
0.0
 40
1.6
100
AcDbArc
 50
90.0
 51
180.0
  0
ARC
  5
409
330
A
100
AcDbEntity
  8
03
100
AcDbCircle
 10
278.97381370826
 20
275.606151142355
 30
0.0
 40
1.6
100
AcDbArc
 50
270.0
 51
0.0
  0
ARC
  5
40A
330
A
100
AcDbEntity
  8
03
100
AcDbCircle
 10
85.17381370826006
 20
292.506151142355
 30
0.0
 40
1.6
100
AcDbArc
 50
180.0
 51
270.0
  0
ARC
  5
40B
330
A
100
AcDbEntity
  8
03
100
AcDbCircle
 10
178.97381370826
 20
290.906151142355
 30
0.0
 40
1.6
100
AcDbArc
 50
0.0
 51
90.0
  0
LINE
  5
40C
330
A
100
AcDbEntity
  8
03
100
AcDbLine
 10
330.5738137082601
 20
289.0061511423549
 30
0.0
 11
350.5738137082601
 21
289.0061511423549
 31
0.0
  0
LINE
  5
40D
330
A
100
AcDbEntity
  8
03
100
AcDbLine
 10
330.5738137082601
 20
289.0061511423549
 30
0.0
 11
330.5738137082601
 21
290.606151142355
 31
0.0
  0
LINE
  5
40E
330
A
100
AcDbEntity
  8
03
100
AcDbLine
 10
330.5738137082601
 20
290.606151142355
 30
0.0
 11
350.5738137082601
 21
290.606151142355
 31
0.0
  0
LINE
  5
40F
330
A
100
AcDbEntity
  8
03
100
AcDbLine
 10
352.17381370826
 20
289.0061511423549
 30
0.0
 11
352.17381370826
 21
275.606151142355
 31
0.0
  0
LINE
  5
410
330
A
100
AcDbEntity
  8
03
100
AcDbLine
 10
350.5738137082601
 20
289.0061511423549
 30
0.0
 11
350.5738137082601
 21
275.606151142355
 31
0.0
  0
LINE
  5
411
330
A
100
AcDbEntity
  8
03
100
AcDbLine
 10
352.17381370826
 20
275.606151142355
 30
0.0
 11
395.9738137082601
 21
275.606151142355
 31
0.0
  0
LINE
  5
412
330
A
100
AcDbEntity
  8
03
100
AcDbLine
 10
395.9738137082601
 20
274.006151142355
 30
0.0
 11
352.17381370826
 21
274.006151142355
 31
0.0
  0
LINE
  5
413
330
A
100
AcDbEntity
  8
03
100
AcDbLine
 10
397.5738137082601
 20
322.506151142355
 30
0.0
 11
397.5738137082601
 21
275.606151142355
 31
0.0
  0
LINE
  5
414
330
A
100
AcDbEntity
  8
03
100
AcDbLine
 10
397.5738137082601
 20
322.506151142355
 30
0.0
 11
395.9738137082601
 21
322.506151142355
 31
0.0
  0
LINE
  5
415
330
A
100
AcDbEntity
  8
03
100
AcDbLine
 10
395.9738137082601
 20
322.506151142355
 30
0.0
 11
395.9738137082601
 21
275.606151142355
 31
0.0
  0
ARC
  5
416
330
A
100
AcDbEntity
  8
03
100
AcDbCircle
 10
395.9738137082601
 20
275.606151142355
 30
0.0
 40
1.6
100
AcDbArc
 50
270.0
 51
0.0
  0
ARC
  5
417
330
A
100
AcDbEntity
  8
03
100
AcDbCircle
 10
350.5738137082601
 20
289.0061511423549
 30
0.0
 40
1.6
100
AcDbArc
 50
0.0
 51
90.0
  0
ARC
  5
418
330
A
100
AcDbEntity
  8
03
100
AcDbCircle
 10
352.17381370826
 20
275.606151142355
 30
0.0
 40
1.6
100
AcDbArc
 50
180.0
 51
270.0
  0
LINE
  5
419
330
A
100
AcDbEntity
  8
CHUSIN
100
AcDbLine
 10
132.0738137082599
 20
77.1656912159698
 30
0.0
 11
132.0738137082599
 21
209.5416718552935
 31
0.0
  0
LINE
  5
41A
330
A
100
AcDbEntity
  8
CHUSIN
100
AcDbLine
 10
101.0378261457347
 20
332.5061511423549
 30
0.0
 11
189.5279707989725
 21
332.5061511423549
 31
0.0
  0
LINE
  5
41B
330
A
100
AcDbEntity
  8
CHUSIN
100
AcDbLine
 10
347.5738137082601
 20
289.0061511423549
 30
0.0
 11
347.5738137082601
 21
207.4127889685006
 31
0.0
  0
LINE
  5
41C
330
A
100
AcDbEntity
  8
CHUSIN
 48
0.3
100
AcDbLine
 10
293.5738137082601
 20
295.8298366810361
 30
0.0
 11
293.5738137082601
 21
268.9019567554843
 31
0.0
  0
LINE
  5
41F
330
A
100
AcDbEntity
  8
03
100
AcDbLine
 10
207.0738137082603
 20
178.8086251182912
 30
0.0
 11
207.0738137082603
 21
177.8044059924046
 31
0.0
  0
LINE
  5
420
330
A
100
AcDbEntity
  8
03
100
AcDbLine
 10
199.0738137082603
 20
177.8044059924046
 30
0.0
 11
199.0738137082603
 21
178.8086251182912
 31
0.0
  0
LINE
  5
421
330
A
100
AcDbEntity
  8
03
100
AcDbLine
 10
199.5738137082603
 20
178.8086251182912
 30
0.0
 11
199.5738137082603
 21
177.8044059924046
 31
0.0
  0
LINE
  5
422
330
A
100
AcDbEntity
  8
03
100
AcDbLine
 10
206.5738137082603
 20
177.8044059924048
 30
0.0
 11
206.5738137082603
 21
178.8086251182912
 31
0.0
  0
LINE
  5
42C
330
A
100
AcDbEntity
  8
SAISEN
100
AcDbLine
 10
224.5539957988305
 20
178.8086251182913
 30
0.0
 11
183.9518481355066
 21
178.8086251182912
 31
0.0
  0
LINE
  5
42D
330
A
100
AcDbEntity
  8
03
100
AcDbLine
 10
199.0738137082604
 20
177.8044059924046
 30
0.0
 11
207.0738137082604
 21
177.8044059924046
 31
0.0
  0
LINE
  5
42E
330
A
100
AcDbEntity
  8
03
100
AcDbLine
 10
216.0738137082605
 20
119.3439924969581
 30
0.0
 11
216.0738137082606
 21
117.3439924969581
 31
0.0
  0
LINE
  5
42F
330
A
100
AcDbEntity
  8
03
100
AcDbLine
 10
190.0738137082606
 20
117.3439924969581
 30
0.0
 11
190.0738137082606
 21
119.3439924969581
 31
0.0
  0
LINE
  5
430
330
A
100
AcDbEntity
  8
03
100
AcDbLine
 10
216.0738137082606
 20
117.3439924969581
 30
0.0
 11
215.3238137082605
 21
117.3439924969581
 31
0.0
  0
LINE
  5
431
330
A
100
AcDbEntity
  8
03
100
AcDbLine
 10
213.8238137082606
 20
117.3439924969581
 30
0.0
 11
192.3238137082607
 21
117.3439924969581
 31
0.0
  0
LINE
  5
432
330
A
100
AcDbEntity
  8
03
100
AcDbLine
 10
190.8238137082607
 20
117.3439924969581
 30
0.0
 11
190.0738137082606
 21
117.3439924969581
 31
0.0
  0
LINE
  5
434
330
A
100
AcDbEntity
  8
03
100
AcDbLine
 10
216.0738137082605
 20
119.3439924969581
 30
0.0
 11
190.0738137082606
 21
119.3439924969581
 31
0.0
  0
LINE
  5
43C
330
A
100
AcDbEntity
  8
03
100
AcDbLine
 10
215.3238137082605
 20
117.3439924969581
 30
0.0
 11
215.01131370826
 21
112.3439924969584
 31
0.0
  0
LINE
  5
43D
330
A
100
AcDbEntity
  8
03
100
AcDbLine
 10
214.1363137082604
 20
112.3439924969583
 30
0.0
 11
213.8238137082606
 21
117.3439924969581
 31
0.0
  0
LINE
  5
43E
330
A
100
AcDbEntity
  8
03
100
AcDbLine
 10
192.0113137082611
 20
112.3439924969581
 30
0.0
 11
192.3238137082607
 21
117.3439924969581
 31
0.0
  0
LINE
  5
43F
330
A
100
AcDbEntity
  8
03
100
AcDbLine
 10
191.1363137082607
 20
112.3439924969581
 30
0.0
 11
190.8238137082607
 21
117.3439924969581
 31
0.0
  0
LINE
  5
466
330
A
100
AcDbEntity
  8
03
100
AcDbLine
 10
191.1363137082607
 20
112.3439924969581
 30
0.0
 11
192.0113137082611
 21
112.3439924969581
 31
0.0
  0
LINE
  5
467
330
A
100
AcDbEntity
  8
03
100
AcDbLine
 10
214.1363137082604
 20
112.3439924969583
 30
0.0
 11
215.01131370826
 21
112.3439924969584
 31
0.0
  0
LINE
  5
468
330
A
100
AcDbEntity
  8
03
100
AcDbLine
 10
199.07381370826
 20
220.506151142355
 30
0.0
 11
207.0738137082599
 21
220.506151142355
 31
0.0
  0
LINE
  5
469
330
A
100
AcDbEntity
  8
03
100
AcDbLine
 10
207.0738137082599
 20
220.506151142355
 30
0.0
 11
207.0738137082599
 21
183.8086251182912
 31
0.0
  0
LINE
  5
46A
330
A
100
AcDbEntity
  8
03
100
AcDbLine
 10
199.07381370826
 20
183.8086251182912
 30
0.0
 11
199.07381370826
 21
220.506151142355
 31
0.0
  0
LINE
  5
46B
330
A
100
AcDbEntity
  8
03
100
AcDbLine
 10
199.5738137082599
 20
220.506151142355
 30
0.0
 11
199.5738137082599
 21
183.8086251182912
 31
0.0
  0
LINE
  5
46C
330
A
100
AcDbEntity
  8
03
100
AcDbLine
 10
206.57381370826
 20
183.8086251182912
 30
0.0
 11
206.57381370826
 21
220.506151142355
 31
0.0
  0
LINE
  5
48C
330
A
100
AcDbEntity
  8
SAISEN
100
AcDbLine
 10
183.9518481355066
 20
183.8086251182912
 30
0.0
 11
224.5539957988305
 21
183.8086251182913
 31
0.0
  0
LINE
  5
48D
330
A
100
AcDbEntity
  8
06
100
AcDbLine
 10
184.9856502179058
 20
282.506151142355
 30
0.0
 11
202.5738137082598
 21
282.506151142355
 31
0.0
  0
LINE
  5
48E
330
A
100
AcDbEntity
  8
06
100
AcDbLine
 10
203.57381370826
 20
282.506151142355
 30
0.0
 11
216.07381370826
 21
282.506151142355
 31
0.0
  0
LINE
  5
48F
330
A
100
AcDbEntity
  8
06
100
AcDbLine
 10
216.07381370826
 20
282.506151142355
 30
0.0
 11
216.07381370826
 21
280.006151142355
 31
0.0
  0
LINE
  5
490
330
A
100
AcDbEntity
  8
06
100
AcDbLine
 10
216.07381370826
 20
280.006151142355
 30
0.0
 11
190.07381370826
 21
280.006151142355
 31
0.0
  0
LINE
  5
491
330
A
100
AcDbEntity
  8
06
100
AcDbLine
 10
190.07381370826
 20
280.006151142355
 30
0.0
 11
190.07381370826
 21
282.506151142355
 31
0.0
  0
LINE
  5
492
330
A
100
AcDbEntity
  8
06
100
AcDbLine
 10
190.07381370826
 20
282.006151142355
 30
0.0
 11
185.07381370826
 21
282.006151142355
 31
0.0
  0
LINE
  5
493
330
A
100
AcDbEntity
  8
06
100
AcDbLine
 10
203.57381370826
 20
282.506151142355
 30
0.0
 11
203.0738137082598
 21
282.006151142355
 31
0.0
  0
LINE
  5
494
330
A
100
AcDbEntity
  8
06
100
AcDbLine
 10
203.0738137082598
 20
282.006151142355
 30
0.0
 11
202.5738137082598
 21
282.506151142355
 31
0.0
  0
LINE
  5
495
330
A
100
AcDbEntity
  8
06
100
AcDbLine
 10
184.8786181503113
 20
281.9351057694004
 30
0.0
 11
185.4496635232656
 21
282.5061511423549
 31
0.0
  0
LINE
  5
496
330
A
100
AcDbEntity
  8
06
100
AcDbLine
 10
186.081034390023
 20
282.0061511423549
 30
0.0
 11
186.5810343900229
 21
282.5061511423549
 31
0.0
  0
LINE
  5
497
330
A
100
AcDbEntity
  8
06
100
AcDbLine
 10
187.2124052567803
 20
282.0061511423549
 30
0.0
 11
187.7124052567802
 21
282.5061511423549
 31
0.0
  0
LINE
  5
498
330
A
100
AcDbEntity
  8
06
100
AcDbLine
 10
188.3437761235374
 20
282.0061511423549
 30
0.0
 11
188.8437761235374
 21
282.5061511423549
 31
0.0
  0
LINE
  5
499
330
A
100
AcDbEntity
  8
06
100
AcDbLine
 10
189.4751469902946
 20
282.0061511423549
 30
0.0
 11
189.9751469902946
 21
282.5061511423549
 31
0.0
  0
LINE
  5
49A
330
A
100
AcDbEntity
  8
06
100
AcDbLine
 10
184.9856502179058
 20
282.506151142355
 30
0.0
 11
182.0738137082599
 21
281.4463293257944
 31
0.0
  0
LINE
  5
49B
330
A
100
AcDbEntity
  8
06
100
AcDbLine
 10
185.07381370826
 20
282.006151142355
 30
0.0
 11
182.2448237799233
 21
280.9764830154014
 31
0.0
  0
LINE
  5
49C
330
A
100
AcDbEntity
  8
06
100
AcDbLine
 10
182.0738137082599
 20
281.4463293257944
 30
0.0
 11
182.2448237799233
 21
280.9764830154012
 31
0.0
  0
LINE
  5
49D
330
A
100
AcDbEntity
  8
06
100
AcDbLine
 10
183.0998163902208
 20
281.287674876067
 30
0.0
 11
183.9363949827721
 21
282.1242534686186
 31
0.0
  0
LINE
  5
49E
330
A
100
AcDbEntity
  8
KAKURE
100
AcDbLine
 10
130.0738137082599
 20
505.4061511423549
 30
0.0
 11
124.0738137082601
 21
505.4061511423549
 31
0.0
  0
LINE
  5
49F
330
A
100
AcDbEntity
  8
KAKURE
100
AcDbLine
 10
130.0738137082599
 20
509.6061511423551
 30
0.0
 11
124.0738137082601
 21
509.6061511423551
 31
0.0
  0
LINE
  5
4A0
330
A
100
AcDbEntity
  8
KAKURE
100
AcDbLine
 10
130.0738137082599
 20
477.906151142355
 30
0.0
 11
124.0738137082601
 21
477.906151142355
 31
0.0
  0
LINE
  5
4A1
330
A
100
AcDbEntity
  8
KAKURE
100
AcDbLine
 10
130.0738137082599
 20
482.1061511423549
 30
0.0
 11
124.0738137082601
 21
482.1061511423549
 31
0.0
  0
LINE
  5
4A2
330
A
100
AcDbEntity
  8
KAKURE
100
AcDbLine
 10
130.0738137082599
 20
427.906151142355
 30
0.0
 11
124.0738137082601
 21
427.906151142355
 31
0.0
  0
LINE
  5
4A3
330
A
100
AcDbEntity
  8
KAKURE
100
AcDbLine
 10
130.0738137082599
 20
432.1061511423549
 30
0.0
 11
124.0738137082601
 21
432.1061511423549
 31
0.0
  0
LINE
  5
4A4
330
A
100
AcDbEntity
  8
KAKURE
100
AcDbLine
 10
130.0738137082599
 20
400.4061511423549
 30
0.0
 11
124.0738137082601
 21
400.4061511423549
 31
0.0
  0
LINE
  5
4A5
330
A
100
AcDbEntity
  8
KAKURE
100
AcDbLine
 10
130.0738137082599
 20
404.6061511423549
 30
0.0
 11
124.0738137082601
 21
404.6061511423549
 31
0.0
  0
LINE
  5
4A6
330
A
100
AcDbEntity
  8
SAISEN
100
AcDbLine
 10
313.0738137082601
 20
301.4070086228032
 30
0.0
 11
313.0738137082601
 21
261.4070086228033
 31
0.0
  0
LINE
  5
4A7
330
A
100
AcDbEntity
  8
SAISEN
100
AcDbLine
 10
318.0738137082601
 20
261.4070086228033
 30
0.0
 11
318.0738137082601
 21
301.4070086228032
 31
0.0
  0
LINE
  5
4A8
330
A
100
AcDbEntity
  8
SAISEN
100
AcDbLine
 10
80.35087197512508
 20
199.343992496957
 30
0.0
 11
184.7945112883602
 21
199.3439924969571
 31
0.0
  0
LINE
  5
4A9
330
A
100
AcDbEntity
  8
SAISEN
100
AcDbLine
 10
184.7945112883602
 20
194.3439924969571
 30
0.0
 11
80.35087197512508
 21
194.343992496957
 31
0.0
  0
LINE
  5
4AA
330
A
100
AcDbEntity
  8
SAISEN
100
AcDbLine
 10
80.35087197512508
 20
164.3439924969569
 30
0.0
 11
184.7945112883602
 21
164.3439924969571
 31
0.0
  0
LINE
  5
4AB
330
A
100
AcDbEntity
  8
SAISEN
100
AcDbLine
 10
184.7945112883602
 20
159.3439924969571
 30
0.0
 11
80.35087197512508
 21
159.3439924969569
 31
0.0
  0
LINE
  5
4AC
330
A
100
AcDbEntity
  8
CHUSIN
100
AcDbLine
 10
178.8195237189578
 20
332.5061511423549
 30
0.0
 11
162.3452636547713
 21
332.5061511423549
 31
0.0
  0
LINE
  5
4B2
330
A
100
AcDbEntity
  8
CHUSIN
 48
0.3
100
AcDbLine
 10
132.3892655332495
 20
507.5061511423549
 30
0.0
 11
118.4965545833126
 21
507.5061511423549
 31
0.0
  0
LINE
  5
4B3
330
A
100
AcDbEntity
  8
CHUSIN
 48
0.3
100
AcDbLine
 10
132.3892655332495
 20
480.0061511423549
 30
0.0
 11
118.4965545833126
 21
480.0061511423549
 31
0.0
  0
LINE
  5
4B4
330
A
100
AcDbEntity
  8
CHUSIN
 48
0.3
100
AcDbLine
 10
132.3892655332495
 20
430.0061511423549
 30
0.0
 11
118.4965545833126
 21
430.0061511423549
 31
0.0
  0
LINE
  5
4B5
330
A
100
AcDbEntity
  8
CHUSIN
 48
0.3
100
AcDbLine
 10
132.3892655332495
 20
402.5061511423549
 30
0.0
 11
118.4965545833126
 21
402.5061511423549
 31
0.0
  0
LINE
  5
4B6
330
A
100
AcDbEntity
  8
CHUSIN
 48
0.3
100
AcDbLine
 10
291.7357469244286
 20
308.1061511423551
 30
0.0
 11
265.7223291493779
 21
308.1061511423551
 31
0.0
  0
LINE
  5
4B7
330
A
100
AcDbEntity
  8
CHUSIN
 48
0.3
100
AcDbLine
 10
291.7357469244288
 20
520.0061511423549
 30
0.0
 11
265.7223291493779
 21
520.0061511423549
 31
0.0
  0
LINE
  5
4B8
330
A
100
AcDbEntity
  8
CHUSIN
100
AcDbLine
 10
176.8806481287917
 20
178.9581199459038
 30
0.0
 11
145.672979144466
 21
178.9581199459038
 31
0.0
  0
LINE
  5
4B9
330
A
100
AcDbEntity
  8
CHUSIN
 48
0.3
100
AcDbLine
 10
161.2768136366289
 20
189.5420193444667
 30
0.0
 11
161.2768136366289
 21
167.3930487766839
 31
0.0
  0
LINE
  5
4BA
330
A
100
AcDbEntity
  8
CHUSIN
100
AcDbLine
 10
113.0447478707583
 20
455.0061511423549
 30
0.0
 11
270.0738137082601
 21
455.0061511423549
 31
0.0
  0
ARC
  5
4BB
330
A
100
AcDbEntity
  8
KAKURE
100
AcDbCircle
 10
347.5738137082601
 20
272.506151142355
 30
0.0
 40
62.81719509815761
100
AcDbArc
 50
179.5416435419995
 51
270.0
  0
LINE
  5
4BC
330
A
100
AcDbEntity
  8
02
100
AcDbLine
 10
90.17381370826006
 20
522.5061511423549
 30
0.0
 11
96.17381370826009
 21
522.5061511423549
 31
0.0
  0
LINE
  5
4BD
330
A
100
AcDbEntity
  8
02
100
AcDbLine
 10
96.17381370826009
 20
322.506151142355
 30
0.0
 11
90.17381370826006
 21
322.506151142355
 31
0.0
  0
LINE
  5
4BE
330
A
100
AcDbEntity
  8
02
100
AcDbLine
 10
90.17381370826006
 20
322.506151142355
 30
0.0
 11
90.17381370826006
 21
522.5061511423549
 31
0.0
  0
LINE
  5
4BF
330
A
100
AcDbEntity
  8
02
100
AcDbLine
 10
96.17381370826009
 20
522.5061511423549
 30
0.0
 11
96.17381370826009
 21
322.506151142355
 31
0.0
  0
LINE
  5
4C0
330
A
100
AcDbEntity
  8
02
100
AcDbLine
 10
124.0738137082601
 20
547.5061511423549
 30
0.0
 11
130.0738137082599
 21
547.5061511423549
 31
0.0
  0
LINE
  5
4C1
330
A
100
AcDbEntity
  8
02
100
AcDbLine
 10
130.0738137082599
 20
297.506151142355
 30
0.0
 11
124.0738137082601
 21
297.506151142355
 31
0.0
  0
LINE
  5
4C2
330
A
100
AcDbEntity
  8
02
100
AcDbLine
 10
124.0738137082601
 20
297.506151142355
 30
0.0
 11
124.0738137082601
 21
547.5061511423549
 31
0.0
  0
LINE
  5
4C3
330
A
100
AcDbEntity
  8
02
100
AcDbLine
 10
130.0738137082599
 20
547.5061511423549
 30
0.0
 11
130.0738137082599
 21
297.506151142355
 31
0.0
  0
LINE
  5
4C4
330
A
100
AcDbEntity
  8
02
100
AcDbLine
 10
130.0738137082599
 20
362.5061511423549
 30
0.0
 11
170.0738137082601
 21
362.5061511423549
 31
0.0
  0
LINE
  5
4C5
330
A
100
AcDbEntity
  8
02
100
AcDbLine
 10
170.0738137082601
 20
302.506151142355
 30
0.0
 11
130.0738137082599
 21
302.506151142355
 31
0.0
  0
LINE
  5
4C6
330
A
100
AcDbEntity
  8
02
100
AcDbLine
 10
176.07381370826
 20
356.5061511423549
 30
0.0
 11
176.07381370826
 21
308.506151142355
 31
0.0
  0
LINE
  5
4C7
330
A
100
AcDbEntity
  8
02
100
AcDbLine
 10
130.0738137082599
 20
356.5061511423549
 30
0.0
 11
170.0738137082601
 21
356.5061511423549
 31
0.0
  0
LINE
  5
4C8
330
A
100
AcDbEntity
  8
02
100
AcDbLine
 10
170.0738137082601
 20
356.5061511423549
 30
0.0
 11
170.0738137082601
 21
308.506151142355
 31
0.0
  0
LINE
  5
4C9
330
A
100
AcDbEntity
  8
02
100
AcDbLine
 10
170.0738137082601
 20
308.506151142355
 30
0.0
 11
130.0738137082599
 21
308.506151142355
 31
0.0
  0
LINE
  5
4CA
330
A
100
AcDbEntity
  8
02
100
AcDbLine
 10
130.0738137082599
 20
302.506151142355
 30
0.0
 11
130.0738137082599
 21
308.506151142355
 31
0.0
  0
ARC
  5
4CC
330
A
100
AcDbEntity
  8
02
100
AcDbCircle
 10
170.0738137082601
 20
356.5061511423549
 30
0.0
 40
6.0
100
AcDbArc
 50
0.0
 51
90.0
  0
ARC
  5
4CD
330
A
100
AcDbEntity
  8
02
100
AcDbCircle
 10
170.0738137082601
 20
308.506151142355
 30
0.0
 40
6.0
100
AcDbArc
 50
270.0
 51
0.0
  0
LINE
  5
4EE
330
A
100
AcDbEntity
  8
CHUSIN
100
AcDbLine
 10
209.0738137082599
 20
282.506151142355
 30
0.0
 11
196.07381370826
 21
282.506151142355
 31
0.0
  0
LINE
  5
4EF
330
A
100
AcDbEntity
  8
CHUSIN
100
AcDbLine
 10
234.5738137082598
 20
503.533932675409
 30
0.0
 11
234.5738137082598
 21
403.5061511423549
 31
0.0
  0
LINE
  5
4F0
330
A
100
AcDbEntity
  8
KAKURE
100
AcDbLine
 10
105.1738137082601
 20
552.5061511423549
 30
0.0
 11
258.97381370826
 21
552.5061511423549
 31
0.0
  0
LINE
  5
4F1
330
A
100
AcDbEntity
  8
KAKURE
100
AcDbLine
 10
258.97381370826
 20
567.5061511423549
 30
0.0
 11
105.1738137082601
 21
567.5061511423549
 31
0.0
  0
LINE
  5
4F2
330
A
100
AcDbEntity
  8
KAKURE
100
AcDbLine
 10
105.1738137082601
 20
567.5061511423549
 30
0.0
 11
105.1738137082601
 21
552.5061511423549
 31
0.0
  0
LINE
  5
4F3
330
A
100
AcDbEntity
  8
KAKURE
100
AcDbLine
 10
258.97381370826
 20
552.5061511423549
 30
0.0
 11
258.97381370826
 21
567.5061511423549
 31
0.0
  0
LINE
  5
4F4
330
A
100
AcDbEntity
  8
KAKURE
100
AcDbLine
 10
105.1738137082601
 20
555.7061511423551
 30
0.0
 11
258.97381370826
 21
555.7061511423551
 31
0.0
  0
LINE
  5
4F7
330
A
100
AcDbEntity
  8
KAKURE
100
AcDbLine
 10
130.0738137082599
 20
505.0061511423549
 30
0.0
 11
124.0738137082601
 21
505.0061511423549
 31
0.0
  0
LINE
  5
4F8
330
A
100
AcDbEntity
  8
KAKURE
100
AcDbLine
 10
130.0738137082599
 20
510.0061511423549
 30
0.0
 11
124.0738137082601
 21
510.0061511423549
 31
0.0
  0
LINE
  5
4F9
330
A
100
AcDbEntity
  8
KAKURE
100
AcDbLine
 10
130.0738137082599
 20
477.5061511423549
 30
0.0
 11
124.0738137082601
 21
477.5061511423549
 31
0.0
  0
LINE
  5
4FA
330
A
100
AcDbEntity
  8
KAKURE
100
AcDbLine
 10
130.0738137082599
 20
482.5061511423549
 30
0.0
 11
124.0738137082601
 21
482.5061511423549
 31
0.0
  0
LINE
  5
4FB
330
A
100
AcDbEntity
  8
KAKURE
100
AcDbLine
 10
130.0738137082599
 20
427.5061511423549
 30
0.0
 11
124.0738137082601
 21
427.5061511423549
 31
0.0
  0
LINE
  5
4FC
330
A
100
AcDbEntity
  8
KAKURE
100
AcDbLine
 10
130.0738137082599
 20
432.5061511423549
 30
0.0
 11
124.0738137082601
 21
432.5061511423549
 31
0.0
  0
LINE
  5
4FD
330
A
100
AcDbEntity
  8
KAKURE
100
AcDbLine
 10
130.0738137082599
 20
400.0061511423551
 30
0.0
 11
124.0738137082601
 21
400.0061511423551
 31
0.0
  0
LINE
  5
4FE
330
A
100
AcDbEntity
  8
KAKURE
100
AcDbLine
 10
130.0738137082599
 20
405.0061511423549
 30
0.0
 11
124.0738137082601
 21
405.0061511423549
 31
0.0
  0
LINE
  5
4FF
330
A
100
AcDbEntity
  8
04
100
AcDbLine
 10
188.07381370826
 20
314.506151142355
 30
0.0
 11
195.07381370826
 21
314.506151142355
 31
0.0
  0
LINE
  5
500
330
A
100
AcDbEntity
  8
04
100
AcDbLine
 10
199.07381370826
 20
322.506151142355
 30
0.0
 11
207.07381370826
 21
322.506151142355
 31
0.0
  0
LINE
  5
501
330
A
100
AcDbEntity
  8
04
100
AcDbLine
 10
198.07381370826
 20
321.506151142355
 30
0.0
 11
198.07381370826
 21
317.506151142355
 31
0.0
  0
LINE
  5
502
330
A
100
AcDbEntity
  8
04
100
AcDbLine
 10
207.07381370826
 20
317.506151142355
 30
0.0
 11
205.07381370826
 21
317.506151142355
 31
0.0
  0
LINE
  5
503
330
A
100
AcDbEntity
  8
04
100
AcDbLine
 10
205.07381370826
 20
312.506151142355
 30
0.0
 11
208.07381370826
 21
312.506151142355
 31
0.0
  0
LINE
  5
504
330
A
100
AcDbEntity
  8
04
100
AcDbLine
 10
204.07381370826
 20
316.506151142355
 30
0.0
 11
204.07381370826
 21
313.506151142355
 31
0.0
  0
LINE
  5
505
330
A
100
AcDbEntity
  8
04
100
AcDbLine
 10
208.07381370826
 20
321.506151142355
 30
0.0
 11
208.07381370826
 21
318.506151142355
 31
0.0
  0
LINE
  5
506
330
A
100
AcDbEntity
  8
04
100
AcDbLine
 10
208.07381370826
 20
312.506151142355
 30
0.0
 11
208.07381370826
 21
309.506151142355
 31
0.0
  0
ARC
  5
507
330
A
100
AcDbEntity
  8
04
100
AcDbCircle
 10
199.07381370826
 20
321.506151142355
 30
0.0
 40
1.0
100
AcDbArc
 50
90.0
 51
180.0
  0
ARC
  5
508
330
A
100
AcDbEntity
  8
04
100
AcDbCircle
 10
207.07381370826
 20
321.506151142355
 30
0.0
 40
1.0
100
AcDbArc
 50
0.0
 51
90.0
  0
ARC
  5
509
330
A
100
AcDbEntity
  8
04
100
AcDbCircle
 10
207.07381370826
 20
309.506151142355
 30
0.0
 40
1.0
100
AcDbArc
 50
270.0
 51
0.0
  0
ARC
  5
50A
330
A
100
AcDbEntity
  8
04
100
AcDbCircle
 10
205.07381370826
 20
313.506151142355
 30
0.0
 40
1.0
100
AcDbArc
 50
180.0
 51
270.0
  0
ARC
  5
50B
330
A
100
AcDbEntity
  8
04
100
AcDbCircle
 10
205.07381370826
 20
316.506151142355
 30
0.0
 40
1.0
100
AcDbArc
 50
90.0
 51
180.0
  0
ARC
  5
50C
330
A
100
AcDbEntity
  8
04
100
AcDbCircle
 10
207.07381370826
 20
318.506151142355
 30
0.0
 40
1.0
100
AcDbArc
 50
270.0
 51
0.0
  0
ARC
  5
50D
330
A
100
AcDbEntity
  8
04
100
AcDbCircle
 10
195.07381370826
 20
317.506151142355
 30
0.0
 40
3.0
100
AcDbArc
 50
270.0
 51
0.0
  0
LINE
  5
50E
330
A
100
AcDbEntity
  8
04
100
AcDbLine
 10
190.0788759308113
 20
340.0117630947923
 30
0.0
 11
190.77469641839
 21
338.8061748915037
 31
0.0
  0
LINE
  5
50F
330
A
100
AcDbEntity
  8
04
100
AcDbLine
 10
190.0787430492287
 20
325.0006025512163
 30
0.0
 11
190.7747708680616
 21
326.2061665693161
 31
0.0
  0
LINE
  5
510
330
A
100
AcDbEntity
  8
04
100
AcDbLine
 10
190.7748013856721
 20
326.2061553222118
 30
0.0
 11
190.774831902788
 21
338.8061616801076
 31
0.0
  0
LINE
  5
514
330
A
100
AcDbEntity
  8
04
100
AcDbLine
 10
224.07381370826
 20
378.5061511423549
 30
0.0
 11
224.07381370826
 21
297.506151142355
 31
0.0
  0
LINE
  5
515
330
A
100
AcDbEntity
  8
04
100
AcDbLine
 10
219.57381370826
 20
291.0061511423549
 30
0.0
 11
191.5738137082599
 21
291.0061511423549
 31
0.0
  0
LINE
  5
516
330
A
100
AcDbEntity
  8
04
100
AcDbLine
 10
224.07381370826
 20
378.5061511423549
 30
0.0
 11
219.57381370826
 21
378.5061511423549
 31
0.0
  0
LINE
  5
517
330
A
100
AcDbEntity
  8
04
100
AcDbLine
 10
220.07381370826
 20
297.506151142355
 30
0.0
 11
224.07381370826
 21
297.506151142355
 31
0.0
  0
LINE
  5
518
330
A
100
AcDbEntity
  8
04
100
AcDbLine
 10
219.57381370826
 20
335.006151142355
 30
0.0
 11
215.07381370826
 21
335.006151142355
 31
0.0
  0
LINE
  5
519
330
A
100
AcDbEntity
  8
04
100
AcDbLine
 10
215.07381370826
 20
291.5061511423551
 30
0.0
 11
212.9250349626389
 21
291.5061511423551
 31
0.0
  0
LINE
  5
51A
330
A
100
AcDbEntity
  8
04
100
AcDbLine
 10
207.07381370826
 20
306.5061511423551
 30
0.0
 11
215.07381370826
 21
306.5061511423551
 31
0.0
  0
LINE
  5
51B
330
A
100
AcDbEntity
  8
04
100
AcDbLine
 10
207.07381370826
 20
308.0061511423551
 30
0.0
 11
196.57381370826
 21
308.0061511423551
 31
0.0
  0
LINE
  5
51D
330
A
100
AcDbEntity
  8
04
100
AcDbLine
 10
195.57381370826
 20
305.9947132340431
 30
0.0
 11
196.57381370826
 21
305.9947132340431
 31
0.0
  0
LINE
  5
51F
330
A
100
AcDbEntity
  8
04
100
AcDbLine
 10
194.07381370826
 20
294.0061511423551
 30
0.0
 11
194.07381370826
 21
304.0061511423551
 31
0.0
  0
LINE
  5
520
330
A
100
AcDbEntity
  8
04
100
AcDbLine
 10
194.07381370826
 20
304.0061511423551
 30
0.0
 11
195.57381370826
 21
304.0061511423551
 31
0.0
  0
LINE
  5
521
330
A
100
AcDbEntity
  8
04
100
AcDbLine
 10
219.57381370826
 20
292.0061511423551
 30
0.0
 11
220.07381370826
 21
292.0061511423551
 31
0.0
  0
LINE
  5
522
330
A
100
AcDbEntity
  8
04
100
AcDbLine
 10
220.07381370826
 20
292.0061511423551
 30
0.0
 11
220.07381370826
 21
306.0061511423551
 31
0.0
  0
LINE
  5
523
330
A
100
AcDbEntity
  8
04
100
AcDbLine
 10
220.07381370826
 20
306.0061511423551
 30
0.0
 11
219.57381370826
 21
306.0061511423551
 31
0.0
  0
LINE
  5
524
330
A
100
AcDbEntity
  8
04
100
AcDbLine
 10
219.57381370826
 20
358.475806256958
 30
0.0
 11
213.07381370826
 21
358.475806256958
 31
0.0
  0
LINE
  5
525
330
A
100
AcDbEntity
  8
04
100
AcDbLine
 10
213.07381370826
 20
336.5364960277521
 30
0.0
 11
219.57381370826
 21
336.5364960277521
 31
0.0
  0
LINE
  5
528
330
A
100
AcDbEntity
  8
04
100
AcDbLine
 10
213.07381370826
 20
377.5061511423549
 30
0.0
 11
213.07381370826
 21
317.506151142355
 31
0.0
  0
LINE
  5
529
330
A
100
AcDbEntity
  8
04
100
AcDbLine
 10
198.07381370826
 20
372.5061511423549
 30
0.0
 11
208.07381370826
 21
372.5061511423549
 31
0.0
  0
LINE
  5
52A
330
A
100
AcDbEntity
  8
04
100
AcDbLine
 10
208.07381370826
 20
372.5061511423549
 30
0.0
 11
209.4135596704156
 21
377.5061511423549
 31
0.0
  0
LINE
  5
52B
330
A
100
AcDbEntity
  8
04
100
AcDbLine
 10
209.4135596704156
 20
377.5061511423549
 30
0.0
 11
213.07381370826
 21
377.5061511423549
 31
0.0
  0
LINE
  5
52C
330
A
100
AcDbEntity
  8
04
100
AcDbLine
 10
198.07381370826
 20
372.5061511423549
 30
0.0
 11
196.7340677461045
 21
377.5061511423549
 31
0.0
  0
LINE
  5
52D
330
A
100
AcDbEntity
  8
04
100
AcDbLine
 10
196.7340677461045
 20
377.5061511423549
 30
0.0
 11
193.07381370826
 21
377.5061511423549
 31
0.0
  0
LINE
  5
52E
330
A
100
AcDbEntity
  8
04
100
AcDbLine
 10
193.07381370826
 20
377.5061511423549
 30
0.0
 11
193.07381370826
 21
317.506151142355
 31
0.0
  0
LINE
  5
52F
330
A
100
AcDbEntity
  8
04
100
AcDbLine
 10
198.07381370826
 20
322.506151142355
 30
0.0
 11
208.07381370826
 21
322.506151142355
 31
0.0
  0
LINE
  5
530
330
A
100
AcDbEntity
  8
04
100
AcDbLine
 10
208.07381370826
 20
322.506151142355
 30
0.0
 11
209.4135596704156
 21
317.506151142355
 31
0.0
  0
LINE
  5
531
330
A
100
AcDbEntity
  8
04
100
AcDbLine
 10
209.4135596704156
 20
317.506151142355
 30
0.0
 11
213.07381370826
 21
317.506151142355
 31
0.0
  0
LINE
  5
532
330
A
100
AcDbEntity
  8
04
100
AcDbLine
 10
198.07381370826
 20
322.506151142355
 30
0.0
 11
196.7340677461045
 21
317.5061511423551
 31
0.0
  0
LINE
  5
533
330
A
100
AcDbEntity
  8
04
100
AcDbLine
 10
196.7340677461045
 20
317.5061511423551
 30
0.0
 11
193.07381370826
 21
317.506151142355
 31
0.0
  0
LINE
  5
538
330
A
100
AcDbEntity
  8
04
100
AcDbLine
 10
193.07381370826
 20
355.0061511423549
 30
0.0
 11
192.57381370826
 21
355.0061511423549
 31
0.0
  0
LINE
  5
539
330
A
100
AcDbEntity
  8
04
100
AcDbLine
 10
192.57381370826
 20
355.0061511423549
 30
0.0
 11
192.57381370826
 21
340.006151142355
 31
0.0
  0
LINE
  5
53A
330
A
100
AcDbEntity
  8
04
100
AcDbLine
 10
192.57381370826
 20
340.006151142355
 30
0.0
 11
193.07381370826
 21
340.006151142355
 31
0.0
  0
LINE
  5
53B
330
A
100
AcDbEntity
  8
04
100
AcDbLine
 10
224.07381370826
 20
356.0061511423549
 30
0.0
 11
225.07381370826
 21
356.0061511423549
 31
0.0
  0
LINE
  5
53C
330
A
100
AcDbEntity
  8
04
100
AcDbLine
 10
225.07381370826
 20
356.0061511423549
 30
0.0
 11
225.07381370826
 21
339.0061511423549
 31
0.0
  0
LINE
  5
53D
330
A
100
AcDbEntity
  8
04
100
AcDbLine
 10
225.07381370826
 20
339.0061511423549
 30
0.0
 11
224.07381370826
 21
339.0061511423549
 31
0.0
  0
LINE
  5
53E
330
A
100
AcDbEntity
  8
04
100
AcDbLine
 10
224.07381370826
 20
333.256151142355
 30
0.0
 11
225.67381370826
 21
333.256151142355
 31
0.0
  0
LINE
  5
540
330
A
100
AcDbEntity
  8
04
100
AcDbLine
 10
225.67381370826
 20
320.756151142355
 30
0.0
 11
224.07381370826
 21
320.756151142355
 31
0.0
  0
LINE
  5
541
330
A
100
AcDbEntity
  8
04
100
AcDbLine
 10
225.67381370826
 20
320.9061511423549
 30
0.0
 11
227.1738137082599
 21
320.9061511423549
 31
0.0
  0
LINE
  5
543
330
A
100
AcDbEntity
  8
04
100
AcDbLine
 10
227.1738137082599
 20
333.1061511423551
 30
0.0
 11
225.67381370826
 21
333.1061511423551
 31
0.0
  0
LINE
  5
544
330
A
100
AcDbEntity
  8
04
100
AcDbLine
 10
227.17381370826
 20
332.779651142355
 30
0.0
 11
230.66949848326
 21
332.779651142355
 31
0.0
  0
LINE
  5
545
330
A
100
AcDbEntity
  8
04
100
AcDbLine
 10
227.17381370826
 20
321.232651142355
 30
0.0
 11
230.66949848326
 21
321.232651142355
 31
0.0
  0
LINE
  5
546
330
A
100
AcDbEntity
  8
04
100
AcDbLine
 10
230.66949848326
 20
332.779651142355
 30
0.0
 11
231.17381370826
 21
331.9061511423549
 31
0.0
  0
LINE
  5
547
330
A
100
AcDbEntity
  8
04
100
AcDbLine
 10
230.66949848326
 20
321.232651142355
 30
0.0
 11
231.17381370826
 21
322.106151142355
 31
0.0
  0
LINE
  5
548
330
A
100
AcDbEntity
  8
04
100
AcDbLine
 10
231.17381370826
 20
322.106151142355
 30
0.0
 11
231.17381370826
 21
331.9061511423549
 31
0.0
  0
LINE
  5
551
330
A
100
AcDbEntity
  8
04
100
AcDbLine
 10
225.67381370826
 20
310.756151142355
 30
0.0
 11
224.07381370826
 21
310.756151142355
 31
0.0
  0
LINE
  5
552
330
A
100
AcDbEntity
  8
04
100
AcDbLine
 10
225.67381370826
 20
310.9061511423551
 30
0.0
 11
227.1738137082599
 21
310.9061511423551
 31
0.0
  0
LINE
  5
554
330
A
100
AcDbEntity
  8
04
100
AcDbLine
 10
227.1738137082599
 20
311.232651142355
 30
0.0
 11
230.66949848326
 21
311.232651142355
 31
0.0
  0
LINE
  5
555
330
A
100
AcDbEntity
  8
04
100
AcDbLine
 10
230.66949848326
 20
311.232651142355
 30
0.0
 11
231.17381370826
 21
312.1061511423551
 31
0.0
  0
LINE
  5
556
330
A
100
AcDbEntity
  8
04
100
AcDbLine
 10
231.17381370826
 20
312.1061511423551
 30
0.0
 11
231.17381370826
 21
319.906151142355
 31
0.0
  0
LINE
  5
55E
330
A
100
AcDbEntity
  8
04
100
AcDbLine
 10
215.07381370826
 20
335.006151142355
 30
0.0
 11
215.07381370826
 21
291.0061511423549
 31
0.0
  0
LINE
  5
55F
330
A
100
AcDbEntity
  8
04
100
AcDbLine
 10
224.07381370826
 20
376.5061511423551
 30
0.0
 11
224.07381370826
 21
362.5061511423551
 31
0.0
  0
LINE
  5
560
330
A
100
AcDbEntity
  8
04
100
AcDbLine
 10
225.5819338514253
 20
375.2796511410914
 30
0.0
 11
229.56949848326
 21
375.2796511423551
 31
0.0
  0
LINE
  5
561
330
A
100
AcDbEntity
  8
04
100
AcDbLine
 10
225.5819338141507
 20
363.7326511410913
 30
0.0
 11
229.56949848326
 21
363.7326511423551
 31
0.0
  0
LINE
  5
562
330
A
100
AcDbEntity
  8
04
100
AcDbLine
 10
229.56949848326
 20
375.2796511423551
 30
0.0
 11
230.07381370826
 21
374.406151142355
 31
0.0
  0
LINE
  5
563
330
A
100
AcDbEntity
  8
04
100
AcDbLine
 10
229.56949848326
 20
363.7326511423551
 30
0.0
 11
230.07381370826
 21
364.6061511423551
 31
0.0
  0
LINE
  5
564
330
A
100
AcDbEntity
  8
04
100
AcDbLine
 10
230.07381370826
 20
364.6061511423551
 30
0.0
 11
230.07381370826
 21
374.406151142355
 31
0.0
  0
LINE
  5
56A
330
A
100
AcDbEntity
  8
04
100
AcDbLine
 10
224.87381370826
 20
376.5061511423551
 30
0.0
 11
224.07381370826
 21
376.5061511423551
 31
0.0
  0
LINE
  5
56B
330
A
100
AcDbEntity
  8
04
100
AcDbLine
 10
224.87381370826
 20
362.5061511423551
 30
0.0
 11
224.07381370826
 21
362.5061511423551
 31
0.0
  0
LINE
  5
56D
330
A
100
AcDbEntity
  8
04
100
AcDbLine
 10
224.87381370826
 20
362.5061511423551
 30
0.0
 11
225.5819338141507
 21
363.7326511410913
 31
0.0
  0
LINE
  5
56E
330
A
100
AcDbEntity
  8
04
100
AcDbLine
 10
224.87381370826
 20
376.5061511423551
 30
0.0
 11
225.5819338141507
 21
375.2796511410914
 31
0.0
  0
LINE
  5
572
330
A
100
AcDbEntity
  8
04
100
AcDbLine
 10
230.07381370826
 20
366.5061511423551
 30
0.0
 11
231.0738137082601
 21
366.5061511423551
 31
0.0
  0
LINE
  5
573
330
A
100
AcDbEntity
  8
04
100
AcDbLine
 10
230.07381370826
 20
372.5061511423551
 30
0.0
 11
231.0738137082601
 21
372.5061511423551
 31
0.0
  0
LINE
  5
574
330
A
100
AcDbEntity
  8
04
100
AcDbLine
 10
231.0738137082601
 20
366.5061511423551
 30
0.0
 11
232.07381370826
 21
367.5061511423551
 31
0.0
  0
LINE
  5
575
330
A
100
AcDbEntity
  8
04
100
AcDbLine
 10
231.0738137082601
 20
372.5061511423551
 30
0.0
 11
232.07381370826
 21
371.5061511423551
 31
0.0
  0
LINE
  5
576
330
A
100
AcDbEntity
  8
04
100
AcDbLine
 10
232.07381370826
 20
371.5061511423551
 30
0.0
 11
232.07381370826
 21
367.5061511423551
 31
0.0
  0
LINE
  5
583
330
A
100
AcDbEntity
  8
04
100
AcDbLine
 10
194.073810554105
 20
292.6047366130589
 30
0.0
 11
194.0738164418674
 21
291.0061285960899
 31
0.0
  0
LINE
  5
584
330
A
100
AcDbEntity
  8
04
100
AcDbLine
 10
212.0738109746525
 20
291.0061736886201
 30
0.0
 11
212.0738244672576
 21
292.6046577279413
 31
0.0
  0
LINE
  5
587
330
A
100
AcDbEntity
  8
04
100
AcDbLine
 10
195.5682653981958
 20
294.2046780721193
 30
0.0
 11
195.5682620146298
 21
299.0096767441849
 31
0.0
  0
LINE
  5
588
330
A
100
AcDbEntity
  8
04
100
AcDbLine
 10
210.5794532282529
 20
294.2046645927807
 30
0.0
 11
210.5793191502305
 21
299.0097235436953
 31
0.0
  0
LINE
  5
589
330
A
100
AcDbEntity
  8
04
100
AcDbLine
 10
195.5682061693759
 20
299.0097888772055
 30
0.0
 11
196.7737943726646
 21
299.7056093647843
 31
0.0
  0
LINE
  5
58A
330
A
100
AcDbEntity
  8
04
100
AcDbLine
 10
210.5793667129518
 20
299.009655995623
 30
0.0
 11
209.3738026948519
 21
299.7056838144558
 31
0.0
  0
LINE
  5
58B
330
A
100
AcDbEntity
  8
04
100
AcDbLine
 10
209.3738139419564
 20
299.7057143320665
 30
0.0
 11
196.7738075840605
 21
299.7057448491823
 31
0.0
  0
LINE
  5
591
330
A
100
AcDbEntity
  8
04
100
AcDbLine
 10
195.3738125755741
 20
294.2046227811768
 30
0.0
 11
195.3738099053971
 21
292.604693340043
 31
0.0
  0
LINE
  5
592
330
A
100
AcDbEntity
  8
04
100
AcDbLine
 10
210.7738131466132
 20
294.2047604785846
 30
0.0
 11
210.7738104029805
 21
292.6047217586069
 31
0.0
  0
LINE
  5
59D
330
A
100
AcDbEntity
  8
04
100
AcDbLine
 10
219.57381370826
 20
378.5061511423549
 30
0.0
 11
219.57381370826
 21
286.5061511423551
 31
0.0
  0
LINE
  5
59E
330
A
100
AcDbEntity
  8
04
100
AcDbLine
 10
176.07381370826
 20
342.506151142355
 30
0.0
 11
181.07381370826
 21
342.506151142355
 31
0.0
  0
ARC
  5
59F
330
A
100
AcDbEntity
  8
04
100
AcDbCircle
 10
181.07381370826
 20
341.506151142355
 30
0.0
 40
1.0
100
AcDbArc
 50
0.0
 51
90.0
  0
LINE
  5
5A0
330
A
100
AcDbEntity
  8
04
100
AcDbLine
 10
183.6738236666645
 20
341.5061587100633
 30
0.0
 11
182.0752156496957
 21
341.5061528223008
 31
0.0
  0
LINE
  5
5A1
330
A
100
AcDbEntity
  8
04
100
AcDbLine
 10
182.0752607422256
 20
323.5061582895156
 30
0.0
 11
183.6737447815469
 21
323.5061447969106
 31
0.0
  0
LINE
  5
5A4
330
A
100
AcDbEntity
  8
04
100
AcDbLine
 10
185.2737651257251
 20
340.0117038659725
 30
0.0
 11
190.0787637977904
 21
340.0117072495385
 31
0.0
  0
LINE
  5
5A5
330
A
100
AcDbEntity
  8
04
100
AcDbLine
 10
185.2737516463864
 20
325.0005160359153
 30
0.0
 11
190.078810597301
 21
325.0006501139377
 31
0.0
  0
LINE
  5
5A8
330
A
100
AcDbEntity
  8
04
100
AcDbLine
 10
185.2737098347826
 20
340.2061566885941
 30
0.0
 11
183.6737803936486
 21
340.2061593587711
 31
0.0
  0
LINE
  5
5A9
330
A
100
AcDbEntity
  8
04
100
AcDbLine
 10
185.2738475321903
 20
324.806156117555
 30
0.0
 11
183.6738088122126
 21
324.8061588611875
 31
0.0
  0
LINE
  5
5B8
330
A
100
AcDbEntity
  8
04
100
AcDbLine
 10
182.0738137082599
 20
341.506151142355
 30
0.0
 11
182.0738137082599
 21
320.506151142355
 31
0.0
  0
ARC
  5
5B9
330
A
100
AcDbEntity
  8
04
100
AcDbCircle
 10
188.07381370826
 20
320.506151142355
 30
0.0
 40
6.0
100
AcDbArc
 50
180.0
 51
270.0
  0
LINE
  5
5BA
330
A
100
AcDbEntity
  8
04
100
AcDbLine
 10
176.07381370826
 20
308.506151142355
 30
0.0
 11
207.07381370826
 21
308.506151142355
 31
0.0
  0
LINE
  5
5BB
330
A
100
AcDbEntity
  8
04
100
AcDbLine
 10
191.5738137082599
 20
291.0061511423549
 30
0.0
 11
191.5738137082599
 21
286.5061511423551
 31
0.0
  0
LINE
  5
5BC
330
A
100
AcDbEntity
  8
04
100
AcDbLine
 10
191.5738137082599
 20
286.5061511423551
 30
0.0
 11
219.57381370826
 21
286.5061511423551
 31
0.0
  0
LINE
  5
5C1
330
A
100
AcDbEntity
  8
CHUSIN
100
AcDbLine
 10
161.1262774838893
 20
332.5061511423549
 30
0.0
 11
193.3329184025238
 21
332.5061511423549
 31
0.0
  0
LINE
  5
5C2
330
A
100
AcDbEntity
  8
CHUSIN
100
AcDbLine
 10
203.07381370826
 20
378.3829873305078
 30
0.0
 11
203.07381370826
 21
251.2646783767185
 31
0.0
  0
LINE
  5
5C3
330
A
100
AcDbEntity
  8
CHUSIN
100
AcDbLine
 10
184.020548871164
 20
347.5061511423549
 30
0.0
 11
229.07381370826
 21
347.5061511423549
 31
0.0
  0
LINE
  5
5F6
330
A
100
AcDbEntity
  8
03
100
AcDbLine
 10
285.0738137082601
 20
274.006151142355
 30
0.0
 11
285.0738137082601
 21
286.006151142355
 31
0.0
  0
LINE
  5
5F7
330
A
100
AcDbEntity
  8
03
100
AcDbLine
 10
346.07381370826
 20
286.006151142355
 30
0.0
 11
346.07381370826
 21
274.006151142355
 31
0.0
  0
LINE
  5
5F8
330
A
100
AcDbEntity
  8
03
100
AcDbLine
 10
344.5738137082601
 20
286.006151142355
 30
0.0
 11
344.5738137082601
 21
274.006151142355
 31
0.0
  0
LINE
  5
5F9
330
A
100
AcDbEntity
  8
03
100
AcDbLine
 10
286.5738137082601
 20
274.006151142355
 30
0.0
 11
286.5738137082601
 21
286.006151142355
 31
0.0
  0
ARC
  5
5FA
330
A
100
AcDbEntity
  8
03
100
AcDbCircle
 10
344.5738137082601
 20
286.006151142355
 30
0.0
 40
1.5
100
AcDbArc
 50
0.0
 51
90.0
  0
ARC
  5
5FB
330
A
100
AcDbEntity
  8
03
100
AcDbCircle
 10
286.5738137082601
 20
286.006151142355
 30
0.0
 40
1.5
100
AcDbArc
 50
90.0
 51
180.0
  0
ARC
  5
5FC
330
A
100
AcDbEntity
  8
03
100
AcDbCircle
 10
344.5738137082601
 20
274.006151142355
 30
0.0
 40
1.5
100
AcDbArc
 50
270.0
 51
0.0
  0
ARC
  5
5FD
330
A
100
AcDbEntity
  8
03
100
AcDbCircle
 10
286.5738137082601
 20
274.006151142355
 30
0.0
 40
1.5
100
AcDbArc
 50
180.0
 51
270.0
  0
LINE
  5
5FE
330
A
100
AcDbEntity
  8
03
100
AcDbLine
 10
286.5738137082601
 20
287.506151142355
 30
0.0
 11
300.5738137082601
 21
287.506151142355
 31
0.0
  0
LINE
  5
5FF
330
A
100
AcDbEntity
  8
03
100
AcDbLine
 10
330.5738137082601
 20
287.506151142355
 30
0.0
 11
344.5738137082601
 21
287.506151142355
 31
0.0
  0
LINE
  5
600
330
A
100
AcDbEntity
  8
03
100
AcDbLine
 10
286.5738137082601
 20
286.006151142355
 30
0.0
 11
300.5738137082601
 21
286.006151142355
 31
0.0
  0
LINE
  5
601
330
A
100
AcDbEntity
  8
03
100
AcDbLine
 10
330.5738137082601
 20
286.006151142355
 30
0.0
 11
344.5738137082601
 21
286.006151142355
 31
0.0
  0
LINE
  5
602
330
A
100
AcDbEntity
  8
03
100
AcDbLine
 10
330.5738137082601
 20
287.506151142355
 30
0.0
 11
330.5738137082601
 21
286.006151142355
 31
0.0
  0
LINE
  5
603
330
A
100
AcDbEntity
  8
03
100
AcDbLine
 10
300.5738137082601
 20
287.506151142355
 30
0.0
 11
300.5738137082601
 21
286.006151142355
 31
0.0
  0
LINE
  5
604
330
A
100
AcDbEntity
  8
03
100
AcDbLine
 10
344.5738137082601
 20
274.006151142355
 30
0.0
 11
318.0738137082601
 21
274.006151142355
 31
0.0
  0
LINE
  5
605
330
A
100
AcDbEntity
  8
03
100
AcDbLine
 10
313.0738137082601
 20
274.006151142355
 30
0.0
 11
286.5738137082601
 21
274.006151142355
 31
0.0
  0
LINE
  5
606
330
A
100
AcDbEntity
  8
03
100
AcDbLine
 10
344.5738137082601
 20
272.506151142355
 30
0.0
 11
318.0738137082601
 21
272.506151142355
 31
0.0
  0
LINE
  5
607
330
A
100
AcDbEntity
  8
03
100
AcDbLine
 10
313.0738137082601
 20
272.506151142355
 30
0.0
 11
286.5738137082601
 21
272.506151142355
 31
0.0
  0
LINE
  5
608
330
A
100
AcDbEntity
  8
KAKURE
 48
0.3
100
AcDbLine
 10
155.2768136366289
 20
274.006151142355
 30
0.0
 11
155.2768136366289
 21
272.506151142355
 31
0.0
  0
LINE
  5
609
330
A
100
AcDbEntity
  8
KAKURE
 48
0.3
100
AcDbLine
 10
155.2768136366289
 20
272.506151142355
 30
0.0
 11
167.2768136366288
 21
272.506151142355
 31
0.0
  0
LINE
  5
60A
330
A
100
AcDbEntity
  8
KAKURE
 48
0.3
100
AcDbLine
 10
167.2768136366288
 20
272.506151142355
 30
0.0
 11
167.2768136366288
 21
274.006151142355
 31
0.0
  0
LINE
  5
60B
330
A
100
AcDbEntity
  8
KAKURE
 48
0.3
100
AcDbLine
 10
167.2768136366288
 20
274.006151142355
 30
0.0
 11
155.2768136366289
 21
274.006151142355
 31
0.0
  0
LINE
  5
60C
330
A
100
AcDbEntity
  8
KAKURE
 48
0.3
100
AcDbLine
 10
155.2768136366289
 20
292.506151142355
 30
0.0
 11
167.2768136366288
 21
292.506151142355
 31
0.0
  0
LINE
  5
60D
330
A
100
AcDbEntity
  8
KAKURE
 48
0.3
100
AcDbLine
 10
167.2768136366288
 20
292.506151142355
 30
0.0
 11
167.2768136366288
 21
290.906151142355
 31
0.0
  0
LINE
  5
60E
330
A
100
AcDbEntity
  8
KAKURE
 48
0.3
100
AcDbLine
 10
167.2768136366288
 20
290.906151142355
 30
0.0
 11
155.2768136366289
 21
290.906151142355
 31
0.0
  0
LINE
  5
60F
330
A
100
AcDbEntity
  8
KAKURE
 48
0.3
100
AcDbLine
 10
155.2768136366289
 20
290.906151142355
 30
0.0
 11
155.2768136366289
 21
292.506151142355
 31
0.0
  0
LINE
  5
64F
330
A
100
AcDbEntity
  8
SOUZOU
100
AcDbLine
 10
239.07381370826
 20
507.5061511423548
 30
0.0
 11
261.0738137082601
 21
507.5061511423548
 31
0.0
  0
ARC
  5
650
330
A
100
AcDbEntity
  8
SOUZOU
100
AcDbCircle
 10
261.0738137082601
 20
504.5061511423549
 30
0.0
 40
3.0
100
AcDbArc
 50
0.0
 51
90.0
  0
LINE
  5
651
330
A
100
AcDbEntity
  8
SOUZOU
100
AcDbLine
 10
264.0738137082601
 20
505.0064510619399
 30
0.0
 11
264.0738137082601
 21
405.5061511423549
 31
0.0
  0
LINE
  5
652
330
A
100
AcDbEntity
  8
SOUZOU
100
AcDbLine
 10
261.0738137082601
 20
402.5061511423549
 30
0.0
 11
239.07381370826
 21
402.5061511423549
 31
0.0
  0
LINE
  5
653
330
A
100
AcDbEntity
  8
SOUZOU
100
AcDbLine
 10
199.07381370826
 20
403.5061511423549
 30
0.0
 11
239.07381370826
 21
403.5061511423549
 31
0.0
  0
LINE
  5
654
330
A
100
AcDbEntity
  8
SOUZOU
100
AcDbLine
 10
199.07381370826
 20
506.5061511423548
 30
0.0
 11
239.07381370826
 21
506.5061511423548
 31
0.0
  0
LINE
  5
655
330
A
100
AcDbEntity
  8
SOUZOU
100
AcDbLine
 10
199.07381370826
 20
507.5061511423548
 30
0.0
 11
174.07381370826
 21
507.5061511423548
 31
0.0
  0
LINE
  5
656
330
A
100
AcDbEntity
  8
SOUZOU
100
AcDbLine
 10
174.07381370826
 20
402.5061511423549
 30
0.0
 11
199.07381370826
 21
402.5061511423549
 31
0.0
  0
ARC
  5
657
330
A
100
AcDbEntity
  8
SOUZOU
100
AcDbCircle
 10
261.0738137082601
 20
405.5061511423549
 30
0.0
 40
3.0
100
AcDbArc
 50
270.0
 51
0.0
  0
LINE
  5
658
330
A
100
AcDbEntity
  8
SOUZOU
100
AcDbLine
 10
199.07381370826
 20
507.5061511423548
 30
0.0
 11
199.07381370826
 21
506.5061511423548
 31
0.0
  0
LINE
  5
659
330
A
100
AcDbEntity
  8
SOUZOU
100
AcDbLine
 10
199.07381370826
 20
403.5061511423549
 30
0.0
 11
199.07381370826
 21
402.5061511423549
 31
0.0
  0
LINE
  5
65A
330
A
100
AcDbEntity
  8
SOUZOU
100
AcDbLine
 10
239.07381370826
 20
403.5061511423549
 30
0.0
 11
239.07381370826
 21
402.5061511423549
 31
0.0
  0
LINE
  5
65B
330
A
100
AcDbEntity
  8
SOUZOU
100
AcDbLine
 10
239.07381370826
 20
507.5061511423548
 30
0.0
 11
239.07381370826
 21
506.5061511423548
 31
0.0
  0
LINE
  5
74E
330
A
100
AcDbEntity
  8
02
100
AcDbLine
 10
393.9738137082601
 20
315.606151142355
 30
0.0
 11
395.9738137082601
 21
315.606151142355
 31
0.0
  0
LINE
  5
74F
330
A
100
AcDbEntity
  8
02
100
AcDbLine
 10
395.9738137082601
 20
275.606151142355
 30
0.0
 11
355.97381370826
 21
275.606151142355
 31
0.0
  0
LINE
  5
750
330
A
100
AcDbEntity
  8
02
100
AcDbLine
 10
355.97381370826
 20
275.606151142355
 30
0.0
 11
355.97381370826
 21
277.606151142355
 31
0.0
  0
LINE
  5
751
330
A
100
AcDbEntity
  8
02
100
AcDbLine
 10
395.9738137082601
 20
315.606151142355
 30
0.0
 11
395.9738137082601
 21
275.606151142355
 31
0.0
  0
LINE
  5
752
330
A
100
AcDbEntity
  8
02
100
AcDbLine
 10
390.97381370826
 20
312.6061511423551
 30
0.0
 11
390.97381370826
 21
285.6061511423551
 31
0.0
  0
LINE
  5
753
330
A
100
AcDbEntity
  8
02
100
AcDbLine
 10
385.9738137082601
 20
280.606151142355
 30
0.0
 11
358.97381370826
 21
280.606151142355
 31
0.0
  0
ARC
  5
754
330
A
100
AcDbEntity
  8
02
100
AcDbCircle
 10
393.9738137082601
 20
312.6061511423551
 30
0.0
 40
3.0
100
AcDbArc
 50
90.0
 51
180.0
  0
ARC
  5
755
330
A
100
AcDbEntity
  8
02
100
AcDbCircle
 10
358.97381370826
 20
277.606151142355
 30
0.0
 40
3.0
100
AcDbArc
 50
90.0
 51
180.0
  0
ARC
  5
756
330
A
100
AcDbEntity
  8
02
100
AcDbCircle
 10
385.9738137082601
 20
285.6061511423551
 30
0.0
 40
5.0
100
AcDbArc
 50
270.0
 51
0.0
  0
LINE
  5
757
330
A
100
AcDbEntity
  8
02
100
AcDbLine
 10
395.9738137082601
 20
305.0822901176153
 30
0.0
 11
390.97381370826
 21
300.0822901176153
 31
0.0
  0
LINE
  5
758
330
A
100
AcDbEntity
  8
02
100
AcDbLine
 10
371.4976747329997
 20
280.606151142355
 30
0.0
 11
366.4976747329997
 21
275.606151142355
 31
0.0
  0
LINE
  5
759
330
A
100
AcDbEntity
  8
02
100
AcDbLine
 10
395.9738137082601
 20
302.0822901176153
 30
0.0
 11
390.97381370826
 21
297.0822901176153
 31
0.0
  0
LINE
  5
75A
330
A
100
AcDbEntity
  8
02
100
AcDbLine
 10
374.4976747329997
 20
280.606151142355
 30
0.0
 11
369.4976747329997
 21
275.606151142355
 31
0.0
  0
LINE
  5
75B
330
A
100
AcDbEntity
  8
02
100
AcDbLine
 10
238.9738137082599
 20
550.5061511423551
 30
0.0
 11
238.9738137082599
 21
552.5061511423549
 31
0.0
  0
LINE
  5
75C
330
A
100
AcDbEntity
  8
02
100
AcDbLine
 10
278.97381370826
 20
552.5061511423549
 30
0.0
 11
278.97381370826
 21
512.5061511423551
 31
0.0
  0
LINE
  5
75D
330
A
100
AcDbEntity
  8
02
100
AcDbLine
 10
278.97381370826
 20
512.5061511423551
 30
0.0
 11
276.9738137082601
 21
512.5061511423551
 31
0.0
  0
LINE
  5
75E
330
A
100
AcDbEntity
  8
02
100
AcDbLine
 10
238.9738137082599
 20
552.5061511423549
 30
0.0
 11
278.97381370826
 21
552.5061511423549
 31
0.0
  0
LINE
  5
75F
330
A
100
AcDbEntity
  8
02
100
AcDbLine
 10
241.97381370826
 20
547.5061511423549
 30
0.0
 11
268.9738137082601
 21
547.5061511423549
 31
0.0
  0
LINE
  5
760
330
A
100
AcDbEntity
  8
02
100
AcDbLine
 10
273.97381370826
 20
542.5061511423549
 30
0.0
 11
273.97381370826
 21
515.5061511423549
 31
0.0
  0
ARC
  5
761
330
A
100
AcDbEntity
  8
02
100
AcDbCircle
 10
241.97381370826
 20
550.5061511423551
 30
0.0
 40
3.0
100
AcDbArc
 50
180.0
 51
270.0
  0
ARC
  5
762
330
A
100
AcDbEntity
  8
02
100
AcDbCircle
 10
276.9738137082601
 20
515.5061511423549
 30
0.0
 40
3.0
100
AcDbArc
 50
180.0
 51
270.0
  0
ARC
  5
763
330
A
100
AcDbEntity
  8
02
100
AcDbCircle
 10
268.9738137082601
 20
542.5061511423549
 30
0.0
 40
5.0
100
AcDbArc
 50
0.0
 51
89.99999999999998
  0
LINE
  5
764
330
A
100
AcDbEntity
  8
02
100
AcDbLine
 10
249.4976747329998
 20
552.5061511423549
 30
0.0
 11
254.4976747329998
 21
547.5061511423549
 31
0.0
  0
LINE
  5
765
330
A
100
AcDbEntity
  8
02
100
AcDbLine
 10
273.97381370826
 20
528.0300121670948
 30
0.0
 11
278.97381370826
 21
523.0300121670946
 31
0.0
  0
LINE
  5
766
330
A
100
AcDbEntity
  8
02
100
AcDbLine
 10
252.4976747329997
 20
552.5061511423549
 30
0.0
 11
257.4976747329998
 21
547.5061511423549
 31
0.0
  0
LINE
  5
767
330
A
100
AcDbEntity
  8
02
100
AcDbLine
 10
273.97381370826
 20
531.0300121670946
 30
0.0
 11
278.97381370826
 21
526.0300121670947
 31
0.0
  0
LINE
  5
768
330
A
100
AcDbEntity
  8
02
100
AcDbLine
 10
276.9738137082601
 20
315.606151142355
 30
0.0
 11
278.97381370826
 21
315.606151142355
 31
0.0
  0
LINE
  5
769
330
A
100
AcDbEntity
  8
02
100
AcDbLine
 10
278.97381370826
 20
275.606151142355
 30
0.0
 11
238.9738137082599
 21
275.606151142355
 31
0.0
  0
LINE
  5
76A
330
A
100
AcDbEntity
  8
02
100
AcDbLine
 10
238.9738137082599
 20
275.606151142355
 30
0.0
 11
238.9738137082599
 21
277.606151142355
 31
0.0
  0
LINE
  5
76B
330
A
100
AcDbEntity
  8
02
100
AcDbLine
 10
278.97381370826
 20
315.606151142355
 30
0.0
 11
278.97381370826
 21
275.606151142355
 31
0.0
  0
LINE
  5
76C
330
A
100
AcDbEntity
  8
02
100
AcDbLine
 10
273.97381370826
 20
312.6061511423551
 30
0.0
 11
273.97381370826
 21
285.6061511423551
 31
0.0
  0
LINE
  5
76D
330
A
100
AcDbEntity
  8
02
100
AcDbLine
 10
268.9738137082601
 20
280.606151142355
 30
0.0
 11
241.97381370826
 21
280.606151142355
 31
0.0
  0
ARC
  5
76E
330
A
100
AcDbEntity
  8
02
100
AcDbCircle
 10
276.9738137082601
 20
312.6061511423551
 30
0.0
 40
3.0
100
AcDbArc
 50
90.0
 51
180.0
  0
ARC
  5
76F
330
A
100
AcDbEntity
  8
02
100
AcDbCircle
 10
241.97381370826
 20
277.606151142355
 30
0.0
 40
3.0
100
AcDbArc
 50
90.0
 51
180.0
  0
ARC
  5
770
330
A
100
AcDbEntity
  8
02
100
AcDbCircle
 10
268.9738137082601
 20
285.6061511423551
 30
0.0
 40
5.0
100
AcDbArc
 50
270.0
 51
0.0
  0
LINE
  5
771
330
A
100
AcDbEntity
  8
02
100
AcDbLine
 10
278.97381370826
 20
305.0822901176153
 30
0.0
 11
273.97381370826
 21
300.0822901176153
 31
0.0
  0
LINE
  5
772
330
A
100
AcDbEntity
  8
02
100
AcDbLine
 10
254.4976747329996
 20
280.606151142355
 30
0.0
 11
249.4976747329996
 21
275.606151142355
 31
0.0
  0
LINE
  5
773
330
A
100
AcDbEntity
  8
02
100
AcDbLine
 10
278.97381370826
 20
302.0822901176153
 30
0.0
 11
273.97381370826
 21
297.0822901176153
 31
0.0
  0
LINE
  5
774
330
A
100
AcDbEntity
  8
02
100
AcDbLine
 10
257.4976747329997
 20
280.606151142355
 30
0.0
 11
252.4976747329997
 21
275.606151142355
 31
0.0
  0
LINE
  5
775
330
A
100
AcDbEntity
  8
02
100
AcDbLine
 10
85.17381370826006
 20
292.506151142355
 30
0.0
 11
85.17381370826006
 21
342.506151142355
 31
0.0
  0
LINE
  5
776
330
A
100
AcDbEntity
  8
02
100
AcDbLine
 10
135.17381370826
 20
294.506151142355
 30
0.0
 11
135.17381370826
 21
292.506151142355
 31
0.0
  0
LINE
  5
777
330
A
100
AcDbEntity
  8
02
100
AcDbLine
 10
135.17381370826
 20
292.506151142355
 30
0.0
 11
85.17381370826006
 21
292.506151142355
 31
0.0
  0
LINE
  5
778
330
A
100
AcDbEntity
  8
02
100
AcDbLine
 10
85.17381370826006
 20
342.506151142355
 30
0.0
 11
87.17381370826005
 21
342.506151142355
 31
0.0
  0
LINE
  5
779
330
A
100
AcDbEntity
  8
02
100
AcDbLine
 10
90.17381370826006
 20
339.506151142355
 30
0.0
 11
90.17381370826006
 21
302.506151142355
 31
0.0
  0
LINE
  5
77A
330
A
100
AcDbEntity
  8
02
100
AcDbLine
 10
95.17381370826006
 20
297.506151142355
 30
0.0
 11
132.17381370826
 21
297.506151142355
 31
0.0
  0
ARC
  5
77B
330
A
100
AcDbEntity
  8
02
100
AcDbCircle
 10
87.17381370826005
 20
339.506151142355
 30
0.0
 40
3.0
100
AcDbArc
 50
0.0
 51
89.99999999999998
  0
ARC
  5
77C
330
A
100
AcDbEntity
  8
02
100
AcDbCircle
 10
132.17381370826
 20
294.506151142355
 30
0.0
 40
3.0
100
AcDbArc
 50
0.0
 51
89.99999999999998
  0
LINE
  5
77D
330
A
100
AcDbEntity
  8
02
100
AcDbLine
 10
85.17381370826006
 20
329.0221441124779
 30
0.0
 11
90.17381370826006
 21
324.0221441124781
 31
0.0
  0
LINE
  5
77E
330
A
100
AcDbEntity
  8
02
100
AcDbLine
 10
111.689806678383
 20
297.506151142355
 30
0.0
 11
116.689806678383
 21
292.506151142355
 31
0.0
  0
LINE
  5
77F
330
A
100
AcDbEntity
  8
02
100
AcDbLine
 10
85.17381370826006
 20
332.0221441124779
 30
0.0
 11
90.17381370826006
 21
327.0221441124779
 31
0.0
  0
LINE
  5
780
330
A
100
AcDbEntity
  8
02
100
AcDbLine
 10
114.6898066783829
 20
297.506151142355
 30
0.0
 11
119.689806678383
 21
292.506151142355
 31
0.0
  0
ARC
  5
781
330
A
100
AcDbEntity
  8
02
100
AcDbCircle
 10
95.17381370826006
 20
302.506151142355
 30
0.0
 40
5.0
100
AcDbArc
 50
180.0
 51
270.0
  0
LINE
  5
782
330
A
100
AcDbEntity
  8
02
100
AcDbLine
 10
85.17381370826013
 20
552.5061511423549
 30
0.0
 11
135.17381370826
 21
552.5061511423549
 31
0.0
  0
LINE
  5
783
330
A
100
AcDbEntity
  8
02
100
AcDbLine
 10
87.17381370826011
 20
502.5061511423549
 30
0.0
 11
85.17381370826013
 21
502.5061511423549
 31
0.0
  0
LINE
  5
784
330
A
100
AcDbEntity
  8
02
100
AcDbLine
 10
85.17381370826013
 20
502.5061511423549
 30
0.0
 11
85.17381370826013
 21
552.5061511423549
 31
0.0
  0
LINE
  5
785
330
A
100
AcDbEntity
  8
02
100
AcDbLine
 10
135.17381370826
 20
552.5061511423549
 30
0.0
 11
135.17381370826
 21
550.5061511423551
 31
0.0
  0
LINE
  5
786
330
A
100
AcDbEntity
  8
02
100
AcDbLine
 10
132.17381370826
 20
547.5061511423549
 30
0.0
 11
95.17381370826011
 21
547.5061511423549
 31
0.0
  0
LINE
  5
787
330
A
100
AcDbEntity
  8
02
100
AcDbLine
 10
90.17381370826011
 20
542.5061511423549
 30
0.0
 11
90.17381370826011
 21
505.5061511423549
 31
0.0
  0
ARC
  5
788
330
A
100
AcDbEntity
  8
02
100
AcDbCircle
 10
132.17381370826
 20
550.5061511423551
 30
0.0
 40
3.0
100
AcDbArc
 50
270.0
 51
0.0
  0
ARC
  5
789
330
A
100
AcDbEntity
  8
02
100
AcDbCircle
 10
87.17381370826011
 20
505.5061511423549
 30
0.0
 40
3.0
100
AcDbArc
 50
270.0
 51
0.0
  0
LINE
  5
78A
330
A
100
AcDbEntity
  8
02
100
AcDbLine
 10
121.689806678383
 20
552.5061511423549
 30
0.0
 11
116.689806678383
 21
547.5061511423549
 31
0.0
  0
LINE
  5
78B
330
A
100
AcDbEntity
  8
02
100
AcDbLine
 10
90.17381370826011
 20
525.9901581722321
 30
0.0
 11
85.17381370826013
 21
520.9901581722321
 31
0.0
  0
LINE
  5
78C
330
A
100
AcDbEntity
  8
02
100
AcDbLine
 10
124.689806678383
 20
552.5061511423549
 30
0.0
 11
119.689806678383
 21
547.5061511423549
 31
0.0
  0
LINE
  5
78D
330
A
100
AcDbEntity
  8
02
100
AcDbLine
 10
90.17381370826011
 20
522.990158172232
 30
0.0
 11
85.17381370826013
 21
517.9901581722321
 31
0.0
  0
ARC
  5
78E
330
A
100
AcDbEntity
  8
02
100
AcDbCircle
 10
95.17381370826011
 20
542.5061511423549
 30
0.0
 40
5.0
100
AcDbArc
 50
90.0
 51
180.0
  0
POLYLINE
  5
86D
330
A
100
AcDbEntity
  8
DEFPOINTS
100
AcDb2dPolyline
 66
     1
 10
0.0
 20
0.0
 30
0.0
 70
     1
  0
VERTEX
  5
15DA
330
86D
100
AcDbEntity
  8
DEFPOINTS
100
AcDbVertex
100
AcDb2dVertex
 10
0.0
 20
0.0
 30
0.0
  0
VERTEX
  5
15DB
330
86D
100
AcDbEntity
  8
DEFPOINTS
100
AcDbVertex
100
AcDb2dVertex
 10
420.0
 20
0.0
 30
0.0
  0
VERTEX
  5
15DC
330
86D
100
AcDbEntity
  8
DEFPOINTS
100
AcDbVertex
100
AcDb2dVertex
 10
420.0
 20
594.0
 30
0.0
  0
VERTEX
  5
15DD
330
86D
100
AcDbEntity
  8
DEFPOINTS
100
AcDbVertex
100
AcDb2dVertex
 10
0.0
 20
594.0
 30
0.0
  0
SEQEND
  5
15DE
330
86D
100
AcDbEntity
  8
DEFPOINTS
  0
LEADER
  5
878
330
A
100
AcDbEntity
  8
HIKIDASI
100
AcDbLeader
  3
SUNPOU_2
 73
     0
 74
     0
 75
     1
 40
5.0
 41
34.93333333333333
 76
     3
 10
276.5779640394753
 20
536.5258888738678
 30
0.0
 10
287.5298063319281
 20
554.8563471677709
 30
0.0
 10
292.5298063319281
 20
554.8563471677709
 30
0.0
340
879
213
5.410574681796788
223
0.0
233
0.0
1001
ACAD
1000
DSTYLE
1002
{
1070
     5
1000
OPEN30
1070
    77
1070
     1
1070
   147
1040
1.0
1070
   342
1005
85A
1002
}
1000
LEANOF
1010
5.410574681796788
1020
0.0
1030
0.0
1000
LEANOF
1010
5.410574681796788
1020
0.0
1030
0.0
  0
MTEXT
  5
879
330
A
100
AcDbEntity
  8
HIKIDASI
100
AcDbMText
 10
289.1192316501315
 20
556.8563471677706
 30
0.0
 40
5.0
 41
0.0
 71
     7
 72
     1
  1
L-40×40×5
  7
SUNPOU
1001
ACAD
1000
MTEXTBEGIN
1070
    73
1070
     1
1070
    44
1040
1.0
1070
    74
1070
     0
1000
MTEXTEND
1000
MTEXTBEGIN
1070
    73
1070
     1
1070
    44
1040
1.0
1070
    74
1070
     0
1000
MTEXTEND
  0
LEADER
  5
881
330
A
100
AcDbEntity
  8
HIKIDASI
100
AcDbLeader
  3
SUNPOU_2
 73
     0
 74
     0
 75
     1
 40
13.33333333333333
 41
32.13333333333333
 76
     3
 10
281.2837096120048
 20
478.9701770988236
 30
0.0
 10
293.6496460834987
 20
493.0178180343381
 30
0.0
 10
298.6496460834986
 20
493.0178180343381
 30
0.0
340
882
213
5.838376479234738
223
0.0
233
0.0
1001
ACAD
1000
DSTYLE
1002
{
1070
     5
1000
OPEN30
1070
    77
1070
     1
1070
   147
1040
1.0
1070
   342
1005
85A
1002
}
1000
LEANOF
1010
5.838376479234738
1020
0.0
1030
0.0
1000
LEANOF
1010
5.838376479234738
1020
0.0
1030
0.0
  0
MTEXT
  5
882
330
A
100
AcDbEntity
  8
HIKIDASI
100
AcDbMText
 10
294.811269604264
 20
495.0178180343382
 30
0.0
 40
5.0
 41
0.0
 71
     7
 72
     1
  1
FB-50×4.5\P取り外し可能
  7
SUNPOU
1001
ACAD
1000
MTEXTBEGIN
1070
    73
1070
     1
1070
    44
1040
1.0
1070
    74
1070
     0
1000
MTEXTEND
1000
MTEXTBEGIN
1070
    73
1070
     1
1070
    44
1040
1.0
1070
    74
1070
     0
1000
MTEXTEND
  0
LEADER
  5
883
330
A
100
AcDbEntity
  8
HIKIDASI
100
AcDbLeader
  3
SUNPOU_2
 73
     0
 74
     0
 75
     1
 40
5.0
 41
35.6
 76
     3
 10
130.088576449912
 20
528.7864810058131
 30
0.0
 10
153.6381279873876
 20
537.6840340678652
 30
0.0
 10
158.6381279873876
 20
537.6840340678652
 30
0.0
340
884
213
4.822743372003059
223
0.0
233
0.0
1001
ACAD
1000
DSTYLE
1002
{
1070
     5
1000
OPEN30
1070
    77
1070
     1
1070
   147
1040
1.0
1070
   342
1005
85A
1002
}
1000
LEANOF
1010
4.822743372003059
1020
0.0
1030
0.0
1000
LEANOF
1010
4.822743372003059
1020
0.0
1030
0.0
  0
MTEXT
  5
884
330
A
100
AcDbEntity
  8
HIKIDASI
100
AcDbMText
 10
155.8153846153845
 20
539.6840340678652
 30
0.0
 40
5.0
 41
0.0
 71
     7
 72
     1
  1
E　FB-50×6
  7
SUNPOU
1001
ACAD
1000
MTEXTBEGIN
1070
    73
1070
     1
1070
    44
1040
1.0
1070
    74
1070
     0
1000
MTEXTEND
1000
MTEXTBEGIN
1070
    73
1070
     1
1070
    44
1040
1.0
1070
    74
1070
     0
1000
MTEXTEND
  0
LEADER
  5
887
330
A
100
AcDbEntity
  8
HIKIDASI
100
AcDbLeader
  3
SUNPOU_2
 73
     0
 74
     0
 75
     1
 40
5.0
 41
35.6
 76
     3
 10
139.1931053129646
 20
362.5364336893334
 30
0.0
 10
132.1169672408817
 20
372.6992886751939
 30
0.0
 10
137.1169672408818
 20
372.6992886751939
 30
0.0
340
888
213
4.049960095043843
223
0.0
233
0.0
1001
ACAD
1000
DSTYLE
1002
{
1070
     5
1000
OPEN30
1070
    77
1070
     1
1070
   147
1040
1.0
1070
   342
1005
85A
1002
}
1000
LEANOF
1010
4.049960095043843
1020
0.0
1030
0.0
1000
LEANOF
1010
4.049960095043843
1020
0.0
1030
0.0
  0
MTEXT
  5
888
330
A
100
AcDbEntity
  8
HIKIDASI
100
AcDbMText
 10
135.067007145838
 20
374.6992886751939
 30
0.0
 40
5.0
 41
0.0
 71
     7
 72
     1
  1
R　FB-50×6
  7
SUNPOU
1001
ACAD
1000
MTEXTBEGIN
1070
    73
1070
     1
1070
    44
1040
1.0
1070
    74
1070
     0
1000
MTEXTEND
1000
MTEXTBEGIN
1070
    73
1070
     1
1070
    44
1040
1.0
1070
    74
1070
     0
1000
MTEXTEND
  0
LEADER
  5
889
330
A
100
AcDbEntity
  8
HIKIDASI
100
AcDbLeader
  3
SUNPOU_2
 73
     0
 75
     1
 40
5.0
 41
21.06666666666666
 76
     3
 10
170.0738137082601
 20
332.5061511423549
 30
0.0
 10
161.415890405157
 20
345.8252238620294
 30
0.0
 10
156.415890405157
 20
345.8252238620294
 30
0.0
340
88A
213
-3.836084057206591
223
0.0
233
0.0
1001
ACAD
1000
DSTYLE
1002
{
1070
     5
1000
OPEN30
1070
    77
1070
     1
1070
   147
1040
1.0
1070
   342
1005
85A
1002
}
1000
LEANOF
1010
-3.836084057206591
1020
0.0
1030
0.0
1000
LEANOF
1010
-3.836084057206591
1020
0.0
1030
0.0
  0
MTEXT
  5
88A
330
A
100
AcDbEntity
  8
HIKIDASI
100
AcDbMText
 10
137.1853077956971
 20
347.8252238620294
 30
0.0
 40
5.0
 41
0.0
 71
     7
 72
     1
  1
M8タップ
  7
SUNPOU
1001
ACAD
1000
MTEXTBEGIN
1070
    73
1070
     1
1070
    44
1040
1.0
1070
    74
1070
     0
1000
MTEXTEND
1000
MTEXTBEGIN
1070
    73
1070
     1
1070
    44
1040
1.0
1070
    74
1070
     0
1000
MTEXTEND
  0
LEADER
  5
88B
330
A
100
AcDbEntity
  8
HIKIDASI
100
AcDbLeader
  3
SUNPOU_2
 73
     0
 75
     1
 40
5.0
 41
62.93333333333333
 76
     3
 10
161.2768136366289
 20
178.9581199459038
 30
0.0
 10
177.7624776534526
 20
209.418810026072
 30
0.0
 10
172.7624776534526
 20
209.418810026072
 30
0.0
340
88C
1001
ACAD
1000
DSTYLE
1002
{
1070
     5
1000
OPEN30
1070
    77
1070
     1
1070
   147
1040
1.0
1070
   342
1005
85A
1002
}
1000
LEANOF
1010
0.0
1020
0.0
1030
0.0
1000
LEANOF
1010
0.0
1020
0.0
1030
0.0
  0
MTEXT
  5
88C
330
A
100
AcDbEntity
  8
HIKIDASI
100
AcDbMText
 10
170.7624776534525
 20
213.918810026072
 30
0.0
 40
5.0
 41
0.0
 71
     6
 72
     1
  1
補助光電スイッチ取付穴φ12
  7
SUNPOU
1001
ACAD
1000
MTEXTBEGIN
1070
    73
1070
     1
1070
    44
1040
1.0
1070
    74
1070
     0
1000
MTEXTEND
1000
MTEXTBEGIN
1070
    73
1070
     1
1070
    44
1040
1.0
1070
    74
1070
     0
1000
MTEXTEND
  0
LEADER
  5
88D
330
A
100
AcDbEntity
  8
HIKIDASI
100
AcDbLeader
  3
SUNPOU_2
 73
     0
 74
     0
 75
     1
 40
5.0
 41
41.33333333333334
 76
     3
 10
216.07381370826
 20
200.0061512227396
 30
0.0
 10
217.7249751969174
 20
212.6522117584904
 30
0.0
 10
222.7249751969174
 20
212.6522117584904
 30
0.0
340
88E
213
1.305659221183758
223
0.0
233
0.0
1001
ACAD
1000
DSTYLE
1002
{
1070
     5
1000
OPEN30
1070
    77
1070
     1
1070
   147
1040
1.0
1070
   342
1005
85A
1002
}
1000
LEANOF
1010
1.305659221183758
1020
0.0
1030
0.0
1000
LEANOF
1010
1.305659221183758
1020
0.0
1030
0.0
  0
MTEXT
  5
88E
330
A
100
AcDbEntity
  8
HIKIDASI
100
AcDbMText
 10
223.4193159757336
 20
214.6522117584904
 30
0.0
 40
5.0
 41
0.0
 71
     7
 72
     1
  1
スリムセナージドア
  7
SUNPOU
1001
ACAD
1000
MTEXTBEGIN
1070
    73
1070
     1
1070
    44
1040
1.0
1070
    74
1070
     0
1000
MTEXTEND
1000
MTEXTBEGIN
1070
    73
1070
     1
1070
    44
1040
1.0
1070
    74
1070
     0
1000
MTEXTEND
  0
LEADER
  5
88F
330
A
100
AcDbEntity
  8
HIKIDASI
100
AcDbLeader
  3
SUNPOU_2
 73
     0
 74
     0
 75
     1
 40
13.33333333333333
 41
52.26666666666666
 76
     3
 10
222.5992970123021
 20
112.5272407732863
 30
0.0
 10
264.8262639194421
 20
156.8622663380313
 30
0.0
 10
269.8262639194421
 20
156.8622663380313
 30
0.0
340
890
213
0.00196076486327
223
8.562604504758155
233
0.0
1001
ACAD
1000
DSTYLE
1002
{
1070
     5
1000
OPEN30
1070
    77
1070
     1
1070
   147
1040
1.0
1070
   342
1005
85A
1002
}
1000
LEANOF
1010
0.00196076486327
1020
8.562604504758155
1030
0.0
1000
LEANOF
1010
0.00196076486327
1020
8.562604504758155
1030
0.0
  0
MTEXT
  5
890
330
A
100
AcDbEntity
  8
HIKIDASI
100
AcDbMText
 10
271.8243031545788
 20
150.2996618332731
 30
0.0
 40
5.0
 41
0.0
 71
     7
 72
     1
  1
ステンレスガイドレール\P(サッシ工事)
  7
SUNPOU
1001
ACAD
1000
MTEXTBEGIN
1070
    73
1070
     1
1070
    44
1040
1.0
1070
    74
1070
     0
1000
MTEXTEND
1000
MTEXTBEGIN
1070
    73
1070
     1
1070
    44
1040
1.0
1070
    74
1070
     0
1000
MTEXTEND
  0
LEADER
  5
891
330
A
100
AcDbEntity
  8
HIKIDASI
100
AcDbLeader
  3
SUNPOU_2
 73
     0
 74
     0
 75
     1
 40
5.0
 41
34.93333333333333
 76
     3
 10
104.6915506286332
 20
550.1345410301474
 30
0.0
 10
114.7378238893105
 20
558.0028660267676
 30
0.0
 10
119.7378238893106
 20
558.0028660267676
 30
0.0
340
892
213
5.177948264057248
223
0.0
233
0.0
1001
ACAD
1000
DSTYLE
1002
{
1070
     5
1000
OPEN30
1070
    77
1070
     1
1070
   147
1040
1.0
1070
   342
1005
85A
1002
}
1000
LEANOF
1010
5.177948264057248
1020
0.0
1030
0.0
1000
LEANOF
1010
5.177948264057248
1020
0.0
1030
0.0
  0
MTEXT
  5
892
330
A
100
AcDbEntity
  8
HIKIDASI
100
AcDbMText
 10
116.5598756252534
 20
560.0028660267676
 30
0.0
 40
5.0
 41
0.0
 71
     7
 72
     1
  1
L-50×50×5
  7
SUNPOU
1001
ACAD
1000
MTEXTBEGIN
1070
    73
1070
     1
1070
    44
1040
1.0
1070
    74
1070
     0
1000
MTEXTEND
1000
MTEXTBEGIN
1070
    73
1070
     1
1070
    44
1040
1.0
1070
    74
1070
     0
1000
MTEXTEND
  0
DIMENSION
  5
894
330
A
100
AcDbEntity
  8
SUNPOU
100
AcDbDimension
  2
*D1
 10
50.75571177504396
 20
272.506151142355
 30
0.0
 11
46.2557117750439
 21
412.5061511423551
 31
0.0
 70
    32
  3
SUNPOU_2
100
AcDbAlignedDimension
 13
85.17381370826013
 23
552.5061511423549
 33
0.0
 14
85.17381370826013
 24
272.506151142355
 34
0.0
 50
90.0
100
AcDbRotatedDimension
  0
DIMENSION
  5
8A1
330
A
100
AcDbEntity
  8
SUNPOU
100
AcDbDimension
  2
*D2
 10
50.75571177504389
 20
109.343992496957
 30
0.0
 11
46.25571177504388
 21
190.9250718196561
 31
0.0
 70
    32
  1
H
  3
SUNPOU_2
100
AcDbAlignedDimension
 13
85.17381370826013
 23
272.506151142355
 33
0.0
 14
50.75571177504396
 24
109.343992496957
 34
0.0
 50
90.0
100
AcDbRotatedDimension
  0
DIMENSION
  5
8AE
330
A
100
AcDbEntity
  8
SUNPOU
100
AcDbDimension
  2
*D3
 10
67.98100786490249
 20
109.343992496957
 30
0.0
 11
63.48100786490246
 21
144.1510562214304
 31
0.0
 70
    32
  1
600
  3
SUNPOU_2
100
AcDbAlignedDimension
 13
145.672979144466
 23
178.9581199459038
 33
0.0
 14
115.4699792160972
 24
109.343992496957
 34
0.0
 50
90.0
100
AcDbRotatedDimension
  0
DIMENSION
  5
8BB
330
A
100
AcDbEntity
  8
SUNPOU
100
AcDbDimension
  2
*D4
 10
61.07702705430256
 20
402.5061511423549
 30
0.0
 11
56.57702705430249
 21
428.7561511423549
 31
0.0
 70
    32
  3
SUNPOU_2
100
AcDbAlignedDimension
 13
106.0447478707583
 23
455.0061511423549
 33
0.0
 14
118.4965545833126
 24
402.5061511423549
 34
0.0
 50
90.0
100
AcDbRotatedDimension
  0
DIMENSION
  5
8C8
330
A
100
AcDbEntity
  8
SUNPOU
100
AcDbDimension
  2
*D5
 10
61.07702705430253
 20
272.506151142355
 30
0.0
 11
56.57702705430249
 21
337.506151142355
 31
0.0
 70
    32
  3
SUNPOU_2
100
AcDbAlignedDimension
 13
118.4965545833126
 23
402.5061511423549
 33
0.0
 14
83.5738137082601
 24
272.506151142355
 34
0.0
 50
90.0
100
AcDbRotatedDimension
  0
DIMENSION
  5
8D5
330
A
100
AcDbEntity
  8
SUNPOU
100
AcDbDimension
  2
*D6
 10
130.0738137082599
 20
391.2973367581451
 30
0.0
 11
106.0738137082601
 21
395.7973367581451
 31
0.0
 70
    32
  3
SUNPOU_2
100
AcDbAlignedDimension
 13
82.07381370826011
 23
322.506151142355
 33
0.0
 14
130.0738137082599
 24
391.2973367581451
 34
0.0
100
AcDbRotatedDimension
  0
DIMENSION
  5
8E2
330
A
100
AcDbEntity
  8
SUNPOU
100
AcDbDimension
  2
*D7
 10
203.07381370826
 20
391.2973367581451
 30
0.0
 11
180.5634017355378
 21
395.7973367581451
 31
0.0
 70
   160
  3
SUNPOU_2
100
AcDbAlignedDimension
 13
130.0738137082599
 23
391.2973367581451
 33
0.0
 14
203.07381370826
 24
378.3829873305078
 34
0.0
100
AcDbRotatedDimension
  0
DIMENSION
  5
8EF
330
A
100
AcDbEntity
  8
SUNPOU
100
AcDbDimension
  2
*D8
 10
176.07381370826
 20
382.6745978099229
 30
0.0
 11
153.0738137082599
 21
387.1745978099228
 31
0.0
 70
    32
  3
SUNPOU_2
100
AcDbAlignedDimension
 13
130.0738137082599
 23
382.6745978099229
 33
0.0
 14
176.07381370826
 24
356.5061511423549
 34
0.0
100
AcDbRotatedDimension
  0
DIMENSION
  5
8FC
330
A
100
AcDbEntity
  8
SUNPOU
100
AcDbDimension
  2
*D9
 10
203.07381370826
 20
382.6745978099229
 30
0.0
 11
189.5738137082599
 21
387.1745978099228
 31
0.0
 70
    32
  3
SUNPOU_2
100
AcDbAlignedDimension
 13
176.07381370826
 23
356.5061511423549
 33
0.0
 14
203.07381370826
 24
378.3829873305078
 34
0.0
100
AcDbRotatedDimension
  0
DIMENSION
  5
909
330
A
100
AcDbEntity
  8
SUNPOU
100
AcDbDimension
  2
*D10
 10
109.5623631201837
 20
332.5061511423549
 30
0.0
 11
105.0623631201836
 21
347.5061511423549
 31
0.0
 70
    32
  3
SUNPOU_2
100
AcDbAlignedDimension
 13
130.0738137082599
 23
362.5061511423549
 33
0.0
 14
116.0738137082601
 24
332.5061511423549
 34
0.0
 50
90.0
100
AcDbRotatedDimension
  0
DIMENSION
  5
916
330
A
100
AcDbEntity
  8
SUNPOU
100
AcDbDimension
  2
*D11
 10
109.5623631201837
 20
272.506151142355
 30
0.0
 11
105.0623631201836
 21
302.506151142355
 31
0.0
 70
    32
  3
SUNPOU_2
100
AcDbAlignedDimension
 13
116.0738137082601
 23
332.5061511423549
 33
0.0
 14
109.5623631201837
 24
272.506151142355
 34
0.0
 50
90.0
100
AcDbRotatedDimension
  0
DIMENSION
  5
923
330
A
100
AcDbEntity
  8
SUNPOU
100
AcDbDimension
  2
*D12
 10
82.07381370826011
 20
430.0061511423549
 30
0.0
 11
77.57381370826003
 21
442.5061511423549
 31
0.0
 70
    32
  3
SUNPOU_2
100
AcDbAlignedDimension
 13
106.0447478707583
 23
455.0061511423549
 33
0.0
 14
118.4965545833126
 24
430.0061511423549
 34
0.0
 50
90.0
100
AcDbRotatedDimension
  0
DIMENSION
  5
930
330
A
100
AcDbEntity
  8
SUNPOU
100
AcDbDimension
  2
*D13
 10
130.0738137082599
 20
518.4755982154928
 30
0.0
 11
197.07381370826
 21
522.9755982154927
 31
0.0
 70
    32
  3
SUNPOU_2
100
AcDbAlignedDimension
 13
264.0738137082601
 23
504.5061511423549
 33
0.0
 14
130.0738137082599
 24
504.5061511423549
 34
0.0
100
AcDbRotatedDimension
  0
DIMENSION
  5
93D
330
A
100
AcDbEntity
  8
SUNPOU
100
AcDbDimension
  2
*D14
 10
87.07381370826011
 20
252.2599847217922
 30
0.0
 11
84.70533200974115
 21
258.0936545288129
 31
0.0
 70
   160
  3
SUNPOU_2
100
AcDbAlignedDimension
 13
82.07381370826011
 23
274.006151142355
 33
0.0
 14
87.07381370826011
 24
272.506151142355
 34
0.0
100
AcDbRotatedDimension
  0
DIMENSION
  5
94C
330
A
100
AcDbEntity
  8
SUNPOU
100
AcDbDimension
  2
*D15
 10
182.0738137082599
 20
252.2599847217922
 30
0.0
 11
131.9464262579419
 21
257.1046902431219
 31
0.0
 70
   160
  3
SUNPOU_2
100
AcDbAlignedDimension
 13
87.07381370826011
 23
272.506151142355
 33
0.0
 14
182.0738137082599
 24
262.6016030672924
 34
0.0
100
AcDbRotatedDimension
  0
DIMENSION
  5
959
330
A
100
AcDbEntity
  8
SUNPOU
100
AcDbDimension
  2
*D16
 10
182.0738137082599
 20
239.2987954316647
 30
0.0
 11
132.0738137082601
 21
244.8323507172356
 31
0.0
 70
   160
  3
SUNPOU_2
100
AcDbAlignedDimension
 13
82.07381370826011
 23
274.006151142355
 33
0.0
 14
182.0738137082599
 24
274.006151142355
 34
0.0
100
AcDbRotatedDimension
  0
DIMENSION
  5
966
330
A
100
AcDbEntity
  8
SUNPOU
100
AcDbDimension
  2
*D17
 10
187.0738137082599
 20
239.2987954316647
 30
0.0
 11
184.5973498165644
 21
244.9228399418506
 31
0.0
 70
   160
  3
SUNPOU_2
100
AcDbAlignedDimension
 13
182.0738137082599
 23
274.006151142355
 33
0.0
 14
187.0738137082599
 24
239.2987954316647
 34
0.0
100
AcDbRotatedDimension
  0
DIMENSION
  5
975
330
A
100
AcDbEntity
  8
SUNPOU
100
AcDbDimension
  2
*D18
 10
219.07381370826
 20
239.2987954316647
 30
0.0
 11
203.07381370826
 21
244.9228399418506
 31
0.0
 70
   160
  3
SUNPOU_2
100
AcDbAlignedDimension
 13
187.0738137082599
 23
239.2987954316647
 33
0.0
 14
219.07381370826
 24
239.2987954316647
 34
0.0
100
AcDbRotatedDimension
  0
DIMENSION
  5
982
330
A
100
AcDbEntity
  8
SUNPOU
100
AcDbDimension
  2
*D19
 10
224.0738137082599
 20
239.2987954316648
 30
0.0
 11
221.6958360844082
 21
244.9228399418506
 31
0.0
 70
   160
  3
SUNPOU_2
100
AcDbAlignedDimension
 13
219.07381370826
 23
239.2987954316647
 33
0.0
 14
224.0738137082599
 24
274.006151142355
 34
0.0
100
AcDbRotatedDimension
  0
DIMENSION
  5
991
330
A
100
AcDbEntity
  8
SUNPOU
100
AcDbDimension
  2
*D20
 10
282.0738137082601
 20
239.2987954316648
 30
0.0
 11
253.07381370826
 21
243.7987954316648
 31
0.0
 70
    32
  3
SUNPOU_2
100
AcDbAlignedDimension
 13
224.0738137082599
 23
274.006151142355
 33
0.0
 14
282.0738137082601
 24
274.006151142355
 34
0.0
100
AcDbRotatedDimension
  0
DIMENSION
  5
99E
330
A
100
AcDbEntity
  8
SUNPOU
100
AcDbDimension
  2
*D21
 10
285.0738137082601
 20
239.2987954316648
 30
0.0
 11
278.6702941883472
 21
243.7261510987076
 31
0.0
 70
   160
  3
SUNPOU_2
100
AcDbAlignedDimension
 13
282.0738137082601
 23
274.006151142355
 33
0.0
 14
285.0738137082601
 24
274.006151142355
 34
0.0
100
AcDbRotatedDimension
  0
DIMENSION
  5
9AD
330
A
100
AcDbEntity
  8
SUNPOU
100
AcDbDimension
  2
*D22
 10
349.0738137082601
 20
247.6766256590508
 30
0.0
 11
374.0738137082601
 21
252.1766256590509
 31
0.0
 70
    32
  3
SUNPOU_2
100
AcDbAlignedDimension
 13
399.0738137082601
 23
274.006151142355
 33
0.0
 14
349.0738137082601
 24
273.006151142355
 34
0.0
100
AcDbRotatedDimension
  0
DIMENSION
  5
9BA
330
A
100
AcDbEntity
  8
SUNPOU
100
AcDbDimension
  2
*D23
 10
282.0738137082601
 20
227.5595912160905
 30
0.0
 11
315.5738137082601
 21
232.0595912160905
 31
0.0
 70
    32
  1
400～450
  3
SUNPOU_2
100
AcDbAlignedDimension
 13
349.0738137082601
 23
274.006151142355
 33
0.0
 14
282.0738137082601
 24
274.006151142355
 34
0.0
100
AcDbRotatedDimension
  0
DIMENSION
  5
9C7
330
A
100
AcDbEntity
  8
SUNPOU
100
AcDbDimension
  2
*D24
 10
82.07381370826011
 20
227.5595912160905
 30
0.0
 11
203.07381370826
 21
232.6936200272232
 31
0.0
 70
   160
  3
SUNPOU_2
100
AcDbAlignedDimension
 13
282.0738137082601
 23
274.006151142355
 33
0.0
 14
82.07381370826011
 24
274.006151142355
 34
0.0
100
AcDbRotatedDimension
  0
DIMENSION
  5
9D4
330
A
100
AcDbEntity
  8
SUNPOU
100
AcDbDimension
  2
*D25
 10
309.7069082060293
 20
272.506151142355
 30
0.0
 11
305.2069082060293
 21
280.006151142355
 31
0.0
 70
    32
  3
SUNPOU_2
100
AcDbAlignedDimension
 13
300.5738137082601
 23
287.506151142355
 33
0.0
 14
307.7069082060293
 24
272.506151142355
 34
0.0
 50
90.0
100
AcDbRotatedDimension
  0
DIMENSION
  5
9E1
330
A
100
AcDbEntity
  8
SUNPOU
100
AcDbDimension
  2
*D26
 10
236.2755961014399
 20
272.506151142355
 30
0.0
 11
230.4271783518014
 21
265.9573948238577
 31
0.0
 70
   160
  3
SUNPOU_2
100
AcDbAlignedDimension
 13
216.0738137082599
 23
280.006151142355
 33
0.0
 14
236.2755961014399
 24
272.506151142355
 34
0.0
 50
90.0
100
AcDbRotatedDimension
  0
DIMENSION
  5
9F0
330
A
100
AcDbEntity
  8
SUNPOU
100
AcDbDimension
  2
*D27
 10
267.8945518453426
 20
119.3439924969586
 30
0.0
 11
263.3945518453426
 21
199.6750718196568
 31
0.0
 70
    32
  1
DH
  3
SUNPOU_2
100
AcDbAlignedDimension
 13
216.0738137082599
 23
280.006151142355
 33
0.0
 14
219.0738137082536
 24
119.3439924969586
 34
0.0
 50
90.0
100
AcDbRotatedDimension
  0
DIMENSION
  5
9FD
330
A
100
AcDbEntity
  8
SUNPOU
100
AcDbDimension
  2
*D28
 10
267.8945518453426
 20
109.3439924969584
 30
0.0
 11
263.3945518453426
 21
114.3439924969585
 31
0.0
 70
    32
  3
SUNPOU_2
100
AcDbAlignedDimension
 13
219.0738137082536
 23
119.3439924969586
 33
0.0
 14
267.8945518453426
 24
109.3439924969584
 34
0.0
 50
90.0
100
AcDbRotatedDimension
  0
DIMENSION
  5
A0C
330
A
100
AcDbEntity
  8
SUNPOU
100
AcDbDimension
  2
*D29
 10
234.9174674674959
 20
109.3439924969584
 30
0.0
 11
230.716353958916
 21
115.4987068134279
 31
0.0
 70
   160
  3
SUNPOU_2
100
AcDbAlignedDimension
 13
227.1738137064651
 23
112.3439924969584
 33
0.0
 14
227.1738137064651
 24
109.3439924969584
 34
0.0
 50
90.0
100
AcDbRotatedDimension
  0
DIMENSION
  5
A1B
330
A
100
AcDbEntity
  8
SUNPOU
100
AcDbDimension
  2
*D30
 10
243.1166689198323
 20
87.34399249695833
 30
0.0
 11
238.5037829761335
 21
99.11006770348265
 31
0.0
 70
   160
  3
SUNPOU_2
100
AcDbAlignedDimension
 13
227.1738137064651
 23
112.3439924969584
 33
0.0
 14
211.4238137064651
 24
87.34399249695835
 34
0.0
 50
90.0
100
AcDbRotatedDimension
  0
DIMENSION
  5
A43
330
A
100
AcDbEntity
  8
SUNPOU
100
AcDbDimension
  2
*D31
 10
349.0738137082601
 20
247.6766256590508
 30
0.0
 11
340.4199441482155
 21
252.3820085272955
 31
0.0
 70
   160
  3
SUNPOU_2
100
AcDbAlignedDimension
 13
346.07381370826
 23
274.006151142355
 33
0.0
 14
349.0738137082601
 24
274.006151142355
 34
0.0
100
AcDbRotatedDimension
  0
DIMENSION
  5
B20
330
A
100
AcDbEntity
  8
SUNPOU
100
AcDbDimension
  2
*D32
 10
211.4238137064651
 20
74.25792107945716
 30
0.0
 11
202.9238137064651
 21
78.75792107945716
 31
0.0
 70
    32
  3
SUNPOU_2
100
AcDbAlignedDimension
 13
194.4238137064651
 23
87.34399249695837
 33
0.0
 14
211.4238137064651
 24
87.34399249695837
 34
0.0
100
AcDbRotatedDimension
  0
LINE
  5
E0F
330
A
100
AcDbEntity
  8
CHUSIN
100
AcDbLine
 10
132.0738137082601
 20
271.0143114848239
 30
0.0
 11
132.0738137082601
 21
312.506151142355
 31
0.0
  0
LINE
  5
E10
330
A
100
AcDbEntity
  8
CHUSIN
100
AcDbLine
 10
132.0738137082599
 20
217.8068681485622
 30
0.0
 11
132.0738137082599
 21
233.9134481706139
 31
0.0
  0
LINE
  5
E64
330
A
100
AcDbEntity
  8
CHUSIN
100
AcDbLine
 10
203.07381370826
 20
71.24213742331495
 30
0.0
 11
203.07381370826
 21
64.18331787618512
 31
0.0
  0
INSERT
  5
F1F
330
A
100
AcDbEntity
  8
KAKURE
  6
CONTINUOUS
100
AcDbBlockReference
  2
*X35
 10
0.0
 20
0.0
 30
0.0
1001
ACAD
1000
HATCH
1002
{
1070
    19
1000
ANSI31
1040
15.0
1040
1.570796326794896
1000
R14_HATCH_DATA
1000
F1F
1011
1.0
1021
0.0
1031
0.0
1011
0.0
1021
1.0
1031
0.0
1011
0.0
1021
0.0
1031
1.0
1040
0.0
1010
0.0
1020
0.0
1030
1.0
1000
ANSI31
1070
     0
1070
     0
1071
        4
1071
        7
1070
     0
1070
     1
1071
        4
1040
167.2768136366288
1040
290.906151142355
1040
167.2768136366288
1040
292.506151142355
1040
161.2768136366289
1040
292.506151142355
1040
161.2768136366289
1040
290.906151142355
1071
        0
1071
        7
1070
     0
1070
     1
1071
        4
1040
161.2768136366289
1040
290.906151142355
1040
161.2768136366289
1040
292.506151142355
1040
155.2768136366289
1040
292.506151142355
1040
155.2768136366289
1040
290.906151142355
1071
        0
1071
        7
1070
     0
1070
     1
1071
        4
1040
155.2768136366289
1040
274.006151142355
1040
155.2768136366289
1040
272.506151142355
1040
161.2768136366289
1040
272.506151142355
1040
161.2768136366289
1040
274.006151142355
1071
        0
1071
        7
1070
     0
1070
     1
1071
        4
1040
167.2768136366288
1040
272.506151142355
1040
167.2768136366288
1040
274.006151142355
1040
161.2768136366289
1040
274.006151142355
1040
161.2768136366289
1040
272.506151142355
1071
        0
1070
     0
1070
     1
1040
1.570796326794896
1040
15.0
1070
     0
1070
     1
1040
2.356194490192344
1040
0.0
1040
0.0
1040
-1.325825214724775
1040
-1.325825214724775
1070
     0
1040
0.070767915559799
1071
        4
1040
164.57059857842
1040
291.1556884134944
1040
0.0
1040
156.924889648531
1040
291.2972241776567
1040
0.0
1040
159.0486969105994
1040
273.3221737387805
1040
0.0
1040
164.6413916313641
1040
272.8267985642129
1040
0.0
1002
}
  0
POLYLINE
  5
FAF
330
A
100
AcDbEntity
  8
SAISEN
100
AcDb2dPolyline
 66
     1
 10
0.0
 20
0.0
 30
0.0
 70
     1
  0
VERTEX
  5
15DF
330
FAF
100
AcDbEntity
  8
SAISEN
100
AcDbVertex
100
AcDb2dVertex
 10
370.2853340870416
 20
157.7803355889525
 30
0.0
  0
VERTEX
  5
15E0
330
FAF
100
AcDbEntity
  8
SAISEN
100
AcDbVertex
100
AcDb2dVertex
 10
380.2853340870417
 20
157.7803355889525
 30
0.0
  0
VERTEX
  5
15E1
330
FAF
100
AcDbEntity
  8
SAISEN
100
AcDbVertex
100
AcDb2dVertex
 10
380.2853340870417
 20
187.7803355889525
 30
0.0
  0
VERTEX
  5
15E2
330
FAF
100
AcDbEntity
  8
SAISEN
100
AcDbVertex
100
AcDb2dVertex
 10
370.2853340870416
 20
187.7803355889525
 30
0.0
  0
SEQEND
  5
15E3
330
FAF
100
AcDbEntity
  8
SAISEN
  0
MTEXT
  5
FB0
330
A
100
AcDbEntity
  8
MOJI
100
AcDbMText
 10
375.2853340870416
 20
172.7803355889526
 30
0.0
 40
6.0
 41
10.0
 71
     5
 72
     1
  1
内\P\P部
  7
0_8
1001
ACAD
1000
MTEXTBEGIN
1070
    73
1070
     1
1070
    44
1040
1.0
1070
    74
1070
     0
1000
MTEXTEND
1000
MTEXTBEGIN
1070
    73
1070
     1
1070
    44
1040
1.0
1070
    74
1070
     0
1000
MTEXTEND
  0
MTEXT
  5
FC0
330
A
100
AcDbEntity
  8
MOJI
  6
CONTINUOUS
100
AcDbMText
 10
308.0
 20
85.0
 30
0.0
 40
6.0
 41
0.0
 71
     4
 72
     1
  1
\U+203B扉１枚質量１００kg以内\P（１００kgを超える場合\P　は係員にご相談下さい。）
  7
0_8
1001
ACAD
1000
MTEXTBEGIN
1070
    73
1070
     1
1070
    44
1040
1.0
1070
    74
1070
     0
1000
MTEXTEND
1000
MTEXTBEGIN
1070
    73
1070
     1
1070
    44
1040
1.0
1070
    74
1070
     0
1000
MTEXTEND
  0
LINE
  5
FC3
330
A
100
AcDbEntity
  8
04
  6
CONTINUOUS
100
AcDbLine
 10
225.67381370826
 20
320.756151142355
 30
0.0
 11
225.67381370826
 21
320.9061511423549
 31
0.0
  0
LINE
  5
FC4
330
A
100
AcDbEntity
  8
04
  6
CONTINUOUS
100
AcDbLine
 10
227.1738137082599
 20
320.9061511423549
 30
0.0
 11
227.17381370826
 21
321.232651142355
 31
0.0
  0
LINE
  5
FC5
330
A
100
AcDbEntity
  8
04
  6
CONTINUOUS
100
AcDbLine
 10
225.67381370826
 20
333.256151142355
 30
0.0
 11
225.67381370826
 21
333.1061511423551
 31
0.0
  0
LINE
  5
FC6
330
A
100
AcDbEntity
  8
04
  6
CONTINUOUS
100
AcDbLine
 10
227.1738137082599
 20
333.1061511423551
 30
0.0
 11
227.17381370826
 21
332.779651142355
 31
0.0
  0
LINE
  5
FC7
330
A
100
AcDbEntity
  8
04
  6
CONTINUOUS
100
AcDbLine
 10
225.67381370826
 20
310.756151142355
 30
0.0
 11
225.67381370826
 21
310.9061511423551
 31
0.0
  0
LINE
  5
FC8
330
A
100
AcDbEntity
  8
04
  6
CONTINUOUS
100
AcDbLine
 10
227.1738137082599
 20
310.9061511423551
 30
0.0
 11
227.1738137082599
 21
311.232651142355
 31
0.0
  0
LINE
  5
FCA
330
A
100
AcDbEntity
  8
04
  6
CONTINUOUS
100
AcDbLine
 10
195.57381370826
 20
304.0061511423551
 30
0.0
 11
195.57381370826
 21
305.9947132340431
 31
0.0
  0
LINE
  5
FCB
330
A
100
AcDbEntity
  8
04
  6
CONTINUOUS
100
AcDbLine
 10
196.57381370826
 20
305.9947132340431
 30
0.0
 11
196.57381370826
 21
308.0061511423551
 31
0.0
  0
LINE
  5
FCC
330
A
100
AcDbEntity
  8
04
  6
CONTINUOUS
100
AcDbLine
 10
207.07381370826
 20
306.5061511423551
 30
0.0
 11
207.07381370826
 21
308.0061511423551
 31
0.0
  0
LINE
  5
FCD
330
A
100
AcDbEntity
  8
04
  6
CONTINUOUS
100
AcDbLine
 10
195.5682653981958
 20
294.2046780721193
 30
0.0
 11
195.3738125755741
 21
294.2046227811768
 31
0.0
  0
LINE
  5
FCE
330
A
100
AcDbEntity
  8
04
  6
CONTINUOUS
100
AcDbLine
 10
195.3738099053971
 20
292.604693340043
 30
0.0
 11
194.0738105542821
 21
292.6046885520728
 31
0.0
  0
LINE
  5
FCF
330
A
100
AcDbEntity
  8
04
  6
CONTINUOUS
100
AcDbLine
 10
210.5794532282529
 20
294.2046645927807
 30
0.0
 11
210.7738131466132
 21
294.2047604785846
 31
0.0
  0
LINE
  5
FD0
330
A
100
AcDbEntity
  8
04
  6
CONTINUOUS
100
AcDbLine
 10
210.7738104029805
 20
292.6047217586069
 30
0.0
 11
212.0738244677054
 21
292.6047107853498
 31
0.0
  0
LINE
  5
FD2
330
A
100
AcDbEntity
  8
04
  6
CONTINUOUS
100
AcDbLine
 10
183.6738236666645
 20
341.5061587100633
 30
0.0
 11
183.6738214970512
 21
340.2061593587025
 31
0.0
  0
LINE
  5
FD3
330
A
100
AcDbEntity
  8
04
  6
CONTINUOUS
100
AcDbLine
 10
185.2737098347826
 20
340.2061566885941
 30
0.0
 11
185.2737651257251
 21
340.0117038659725
 31
0.0
  0
LINE
  5
FD4
330
A
100
AcDbEntity
  8
04
  6
CONTINUOUS
100
AcDbLine
 10
185.2738475321903
 20
324.806156117555
 30
0.0
 11
185.2738421088659
 21
325.0005160384396
 31
0.0
  0
LINE
  5
FD5
330
A
100
AcDbEntity
  8
04
  6
CONTINUOUS
100
AcDbLine
 10
183.6737447815469
 20
323.5061447969106
 30
0.0
 11
183.6737470107186
 21
324.8061588612936
 31
0.0
  0
LINE
  5
FD6
330
A
100
AcDbEntity
  8
06
  6
CONTINUOUS
100
AcDbLine
 10
231.07381370826
 20
424.2783277529895
 30
0.0
 11
231.07381370826
 21
426.0061511423549
 31
0.0
  0
LINE
  5
FD7
330
A
100
AcDbEntity
  8
06
  6
CONTINUOUS
100
AcDbLine
 10
238.0738137082598
 20
424.2783277529895
 30
0.0
 11
238.0738137082598
 21
426.0061511423549
 31
0.0
  0
LINE
  5
FD8
330
A
100
AcDbEntity
  8
06
  6
CONTINUOUS
100
AcDbLine
 10
231.07381370826
 20
485.7339745317204
 30
0.0
 11
231.07381370826
 21
484.0061511423551
 31
0.0
  0
LINE
  5
FD9
330
A
100
AcDbEntity
  8
06
  6
CONTINUOUS
100
AcDbLine
 10
238.0738137082598
 20
485.7339745317204
 30
0.0
 11
238.0738137082598
 21
484.0061511423551
 31
0.0
  0
LINE
  5
FE9
330
A
100
AcDbEntity
  8
KAKURE
 48
0.3
100
AcDbLine
 10
155.2768136366289
 20
290.906151142355
 30
0.0
 11
155.2768136366289
 21
274.006151142355
 31
0.0
  0
LINE
  5
FEA
330
A
100
AcDbEntity
  8
KAKURE
 48
0.3
100
AcDbLine
 10
167.2768136366288
 20
290.906151142355
 30
0.0
 11
167.2768136366288
 21
274.006151142355
 31
0.0
  0
MTEXT
  5
1011
330
A
100
AcDbEntity
  8
MOJI
100
AcDbMText
 10
67.49439380720514
 20
488.4112521744441
 30
0.0
 40
5.0
 41
22.0
 71
     1
 72
     1
  1
M5タップ
  7
0_8
1001
ACAD
1000
MTEXTBEGIN
1070
    73
1070
     1
1070
    44
1040
1.0
1070
    74
1070
     0
1000
MTEXTEND
1000
MTEXTBEGIN
1070
    73
1070
     1
1070
    44
1040
1.0
1070
    74
1070
     0
1000
MTEXTEND
  0
MTEXT
  5
1062
330
A
100
AcDbEntity
  8
MOJI
100
AcDbMText
 10
62.84488812127118
 20
514.9103886665876
 30
0.0
 40
5.0
 41
22.0
 71
     1
 72
     1
  1
M5タップ
  7
0_8
1001
ACAD
1000
MTEXTBEGIN
1070
    73
1070
     1
1070
    44
1040
1.0
1070
    74
1070
     0
1000
MTEXTEND
1000
MTEXTBEGIN
1070
    73
1070
     1
1070
    44
1040
1.0
1070
    74
1070
     0
1000
MTEXTEND
  0
MTEXT
  5
1063
330
A
100
AcDbEntity
  8
MOJI
100
AcDbMText
 10
67.49439380720514
 20
428.0334708295144
 30
0.0
 40
5.0
 41
22.0
 71
     1
 72
     1
  1
M5タップ
  7
0_8
1001
ACAD
1000
MTEXTBEGIN
1070
    73
1070
     1
1070
    44
1040
1.0
1070
    74
1070
     0
1000
MTEXTEND
1000
MTEXTBEGIN
1070
    73
1070
     1
1070
    44
1040
1.0
1070
    74
1070
     0
1000
MTEXTEND
  0
MTEXT
  5
1064
330
A
100
AcDbEntity
  8
MOJI
100
AcDbMText
 10
67.49439380720514
 20
408.6555620628928
 30
0.0
 40
5.0
 41
22.0
 71
     1
 72
     1
  1
M5タップ
  7
0_8
1001
ACAD
1000
MTEXTBEGIN
1070
    73
1070
     1
1070
    44
1040
1.0
1070
    74
1070
     0
1000
MTEXTEND
1000
MTEXTBEGIN
1070
    73
1070
     1
1070
    44
1040
1.0
1070
    74
1070
     0
1000
MTEXTEND
  0
MTEXT
  5
1067
330
A
100
AcDbEntity
  8
HIKIDASI
 62
     6
100
AcDbMText
 10
144.4751477550346
 20
266.1622689894046
 30
0.0
 40
5.0
 41
0.0
 71
     6
 72
     1
  1

  7
SUNPOU
1001
ACAD
1000
MTEXTBEGIN
1070
    73
1070
     1
1070
    44
1040
1.0
1070
    74
1070
     0
1000
MTEXTEND
1000
MTEXTBEGIN
1070
    73
1070
     1
1070
    44
1040
1.0
1070
    74
1070
     0
1000
MTEXTEND
  0
MTEXT
  5
10B5
330
A
100
AcDbEntity
  8
HIKIDASI
100
AcDbMText
 10
48.20810405125826
 20
287.1609403278313
 30
0.0
 40
5.0
 41
0.0
 71
     6
 72
     1
  1
L-50×50×5
  7
SUNPOU
1001
ACAD
1000
MTEXTBEGIN
1070
    73
1070
     1
1070
    44
1040
1.0
1070
    74
1070
     0
1000
MTEXTEND
1000
MTEXTBEGIN
1070
    73
1070
     1
1070
    44
1040
1.0
1070
    74
1070
     0
1000
MTEXTEND
  0
LEADER
  5
10B6
330
A
100
AcDbEntity
  8
HIKIDASI
100
AcDbLeader
  3
SUNPOU_2
 73
     0
 75
     1
 40
5.0
 41
34.93333333333333
 76
     3
 10
87.5017838376009
 20
310.4563329917902
 30
0.0
 10
55.20810405125826
 20
283.7165306690978
 30
0.0
 10
50.20810405125826
 20
283.7165306690978
 30
0.0
340
10B5
210
0.0
220
0.0
230
-1.0
213
0.0
223
-2.944409658733546
233
0.0
1001
ACAD
1000
DSTYLE
1002
{
1070
     5
1000
OPEN30
1070
    77
1070
     1
1070
   147
1040
1.0
1070
   342
1005
85A
1002
}
1000
LEANOF
1010
0.0
1020
-2.944409658733546
1030
0.0
1000
LEANOF
1010
0.0
1020
-2.944409658733546
1030
0.0
  0
MTEXT
  5
1100
330
A
100
AcDbEntity
  8
MOJI
100
AcDbMText
 10
396.6462070560485
 20
116.2836040619666
 30
0.0
 40
5.0
 41
0.0
 71
     5
 72
     1
  1
F.L
  7
0_8
1001
ACAD
1000
MTEXTBEGIN
1070
    73
1070
     1
1070
    44
1040
1.0
1070
    74
1070
     0
1000
MTEXTEND
1000
MTEXTBEGIN
1070
    73
1070
     1
1070
    44
1040
1.0
1070
    74
1070
     0
1000
MTEXTEND
  0
MTEXT
  5
1101
330
A
100
AcDbEntity
  8
MOJI
100
AcDbMText
 10
316.8678677373486
 20
202.4512744796937
 30
0.0
 40
5.0
 41
0.0
 71
     5
 72
     1
  1
{\L点検口（全　面)}
  7
0_8
1001
ACAD
1000
MTEXTBEGIN
1070
    73
1070
     1
1070
    44
1040
1.0
1070
    74
1070
     0
1000
MTEXTEND
1000
MTEXTBEGIN
1070
    73
1070
     1
1070
    44
1040
1.0
1070
    74
1070
     0
1000
MTEXTEND
  0
LINE
  5
1126
330
A
100
AcDbEntity
  8
06
100
AcDbLine
 10
190.5738137082599
 20
286.5061511423551
 30
0.0
 11
190.5738137082599
 21
282.506151142355
 31
0.0
  0
LINE
  5
1127
330
A
100
AcDbEntity
  8
06
100
AcDbLine
 10
215.57381370826
 20
282.506151142355
 30
0.0
 11
215.57381370826
 21
286.5061511423551
 31
0.0
  0
LINE
  5
1296
330
A
100
AcDbEntity
  8
CHUSIN
100
AcDbLine
 10
203.07381370826
 20
225.3240067911753
 30
0.0
 11
203.07381370826
 21
82.40088684804664
 31
0.0
  0
LINE
  5
1297
330
A
100
AcDbEntity
  8
06
100
AcDbLine
 10
190.5738137082599
 20
286.5061511423551
 30
0.0
 11
215.57381370826
 21
286.5061511423551
 31
0.0
  0
DIMENSION
  5
12C5
330
A
100
AcDbEntity
  8
SUNPOU
100
AcDbDimension
  2
*D33
 10
61.07702705430256
 20
507.5061511423549
 30
0.0
 11
56.57702705430248
 21
481.2561511423551
 31
0.0
 70
    32
  3
SUNPOU_2
100
AcDbAlignedDimension
 13
113.0447478707583
 23
455.0061511423549
 33
0.0
 14
118.4965545833126
 24
507.5061511423549
 34
0.0
 50
270.0
100
AcDbRotatedDimension
  0
DIMENSION
  5
12C6
330
A
100
AcDbEntity
  8
SUNPOU
100
AcDbDimension
  2
*D34
 10
82.07381370826011
 20
480.0061511423549
 30
0.0
 11
77.57381370826
 21
467.5061511423549
 31
0.0
 70
    32
  3
SUNPOU_2
100
AcDbAlignedDimension
 13
113.0447478707583
 23
455.0061511423549
 33
0.0
 14
118.4965545833126
 24
480.0061511423549
 34
0.0
 50
270.0
100
AcDbRotatedDimension
  0
LEADER
  5
1358
330
A
100
AcDbEntity
  8
HIKIDASI
100
AcDbLeader
  3
SUNPOU_2
 73
     0
 75
     1
 40
5.0
 41
48.53333333333331
 76
     3
 10
161.2768136366289
 20
272.506151142355
 30
0.0
 10
147.0734773459192
 20
261.4190997655749
 30
0.0
 10
142.0734773459192
 20
261.4190997655749
 30
0.0
340
1359
1001
ACAD
1000
DSTYLE
1002
{
1070
     5
1000
OPEN30
1070
    77
1070
     1
1070
   147
1040
1.0
1070
   342
1005
85A
1002
}
1000
LEANOF
1010
0.0
1020
0.0
1030
0.0
1000
LEANOF
1010
0.0
1020
0.0
1030
0.0
  0
MTEXT
  5
1359
330
A
100
AcDbEntity
  8
HIKIDASI
 62
     6
100
AcDbMText
 10
91.54014401258594
 20
263.4190997655749
 30
0.0
 40
5.0
 41
0.0
 71
     7
 72
     1
  1
方立上部φ12穴加工図
  7
SUNPOU
1001
ACAD
1000
MTEXTBEGIN
1070
    73
1070
     1
1070
    44
1040
1.0
1070
    74
1070
     0
1000
MTEXTEND
1000
MTEXTBEGIN
1070
    73
1070
     1
1070
    44
1040
1.0
1070
    74
1070
     0
1000
MTEXTEND
  0
LINE
  5
135A
330
A
100
AcDbEntity
  8
KAKURE
100
AcDbLine
 10
176.07381370826
 20
336.506151142355
 30
0.0
 11
170.0738137082601
 21
336.506151142355
 31
0.0
  0
LINE
  5
135B
330
A
100
AcDbEntity
  8
KAKURE
100
AcDbLine
 10
170.0738137082601
 20
335.756151142355
 30
0.0
 11
176.07381370826
 21
335.756151142355
 31
0.0
  0
LINE
  5
135C
330
A
100
AcDbEntity
  8
KAKURE
100
AcDbLine
 10
176.07381370826
 20
329.256151142355
 30
0.0
 11
170.0738137082601
 21
329.256151142355
 31
0.0
  0
LINE
  5
135D
330
A
100
AcDbEntity
  8
KAKURE
100
AcDbLine
 10
170.0738137082601
 20
328.5061511423549
 30
0.0
 11
176.07381370826
 21
328.5061511423549
 31
0.0
  0
MTEXT
  5
1587
330
A
100
AcDbEntity
  8
MOJI
100
AcDbMText
 10
310.9999999999967
 20
29.0
 30
0.0
 40
7.0
 41
50.0
 71
     5
 72
     1
  1
図番６－１
  7
0_80
1001
ACAD
1000
MTEXTBEGIN
1070
    73
1070
     1
1070
    44
1040
1.0
1070
    74
1070
     0
1000
MTEXTEND
1000
MTEXTBEGIN
1070
    73
1070
     1
1070
    44
1040
1.0
1070
    74
1070
     0
1000
MTEXTEND
  0
MTEXT
  5
1588
330
A
100
AcDbEntity
  8
MOJI
100
AcDbMText
 10
360.9999999999968
 20
28.50000000000011
 30
0.0
 40
7.0
 41
49.99999999999994
 71
     5
 72
     1
  1
たて断面図　
  7
0_80
1001
ACAD
1000
MTEXTBEGIN
1070
    73
1070
     1
1070
    44
1040
1.0
1070
    74
1070
     0
1000
MTEXTEND
1000
MTEXTBEGIN
1070
    73
1070
     1
1070
    44
1040
1.0
1070
    74
1070
     0
1000
MTEXTEND
  0
MTEXT
  5
1589
330
A
100
AcDbEntity
  8
MOJI
100
AcDbMText
 10
255.9999999999998
 20
29.00000000000011
 30
0.0
 40
7.0
 41
60.0
 71
     5
 72
     1
  1
片引き又は両引き
  7
0_80
1001
ACAD
1000
MTEXTBEGIN
1070
    73
1070
     1
1070
    44
1040
1.0
1070
    74
1070
     0
1000
MTEXTEND
1000
MTEXTBEGIN
1070
    73
1070
     1
1070
    44
1040
1.0
1070
    74
1070
     0
1000
MTEXTEND
  0
POLYLINE
  5
158A
330
A
100
AcDbEntity
  8
SAISEN
100
AcDb2dPolyline
 66
     1
 10
0.0
 20
0.0
 30
0.0
 70
     1
  0
VERTEX
  5
15E4
330
158A
100
AcDbEntity
  8
SAISEN
100
AcDbVertex
100
AcDb2dVertex
 10
35.99999999999693
 20
17.0
 30
0.0
  0
VERTEX
  5
15E5
330
158A
100
AcDbEntity
  8
SAISEN
100
AcDbVertex
100
AcDb2dVertex
 10
385.9999999999968
 20
17.0
 30
0.0
  0
VERTEX
  5
15E6
330
158A
100
AcDbEntity
  8
SAISEN
100
AcDbVertex
100
AcDb2dVertex
 10
385.9999999999968
 20
41.00000000000022
 30
0.0
  0
VERTEX
  5
15E7
330
158A
100
AcDbEntity
  8
SAISEN
100
AcDbVertex
100
AcDb2dVertex
 10
35.99999999999693
 20
41.00000000000022
 30
0.0
  0
SEQEND
  5
15E8
330
158A
100
AcDbEntity
  8
SAISEN
  0
MTEXT
  5
158B
330
A
100
AcDbEntity
  8
MOJI
100
AcDbMText
 10
185.9999999999969
 20
29.00000000000011
 30
0.0
 40
7.0
 41
80.0
 71
     5
 72
     1
  1
ＳＯＶ－２００ＫＤＣ
  7
0_8
1001
ACAD
1000
MTEXTBEGIN
1070
    73
1070
     1
1070
    44
1040
1.0
1070
    74
1070
     0
1000
MTEXTEND
1000
MTEXTBEGIN
1070
    73
1070
     1
1070
    44
1040
1.0
1070
    74
1070
     0
1000
MTEXTEND
  0
MTEXT
  5
158C
330
A
100
AcDbEntity
  8
MOJI
100
AcDbMText
 10
90.99999999999694
 20
29.00000000000011
 30
0.0
 40
7.0
 41
110.0
 71
     5
 72
     1
  1
天井納り
  7
0_8
1001
ACAD
1000
MTEXTBEGIN
1070
    73
1070
     1
1070
    44
1040
1.0
1070
    74
1070
     0
1000
MTEXTEND
1000
MTEXTBEGIN
1070
    73
1070
     1
1070
    44
1040
1.0
1070
    74
1070
     0
1000
MTEXTEND
  0
LINE
  5
158D
330
A
100
AcDbEntity
  8
SAISEN
100
AcDbLine
 10
145.9999999999969
 20
41.00000000000022
 30
0.0
 11
145.9999999999969
 21
17.0
 31
0.0
  0
LINE
  5
158E
330
A
100
AcDbEntity
  8
SAISEN
100
AcDbLine
 10
225.9999999999969
 20
41.00000000000022
 30
0.0
 11
225.9999999999969
 21
17.0
 31
0.0
  0
LINE
  5
158F
330
A
100
AcDbEntity
  8
SAISEN
100
AcDbLine
 10
285.9999999999968
 20
41.00000000000022
 30
0.0
 11
285.9999999999968
 21
17.0
 31
0.0
  0
TEXT
  5
1597
330
A
100
AcDbEntity
  8
MOJI
100
AcDbText
 10
394.048819039213
 20
45.27151320611594
 30
0.0
 40
8.0
  1
Ｓ
 41
0.8
  7
0_80
 11
394.048819039213
 21
53.27151320611594
 31
0.0
100
AcDbText
 73
     3
  0
CIRCLE
  5
1598
330
A
100
AcDbEntity
  8
SAISEN
100
AcDbCircle
 10
397.0976380784291
 20
49.54302641223165
 30
0.0
 40
5.0
  0
VIEWPORT
  5
B46
102
{ACAD_XDICTIONARY
360
15C9
102
}
330
B
100
AcDbEntity
 67
     1
  8
0
100
AcDbViewport
 10
198.0508299538852
 20
285.1874487354477
 30
0.0
 40
1032.489316232031
 41
600.5181104138734
 68
     1
 69
     1
1001
ACAD
1000
MVIEW
1002
{
1070
    16
1010
0.0
1020
0.0
1030
0.0
1010
0.0
1020
0.0
1030
1.0
1040
0.0
1040
600.5181104138734
1040
198.0508299538852
1040
285.1874487354477
1040
50.0
1040
0.0
1040
0.0
1070
     0
1070
   100
1070
     1
1070
     1
1070
     0
1070
     0
1070
     0
1070
     0
1040
0.0
1040
0.0
1040
0.0
1040
10.0
1040
10.0
1040
10.0
1040
10.0
1070
     0
1002
{
1002
}
1002
}
  0
VIEWPORT
  5
15B3
102
{ACAD_XDICTIONARY
360
15CF
102
}
330
B
100
AcDbEntity
 67
     1
  8
DEFPOINTS
100
AcDbViewport
 10
198.0508309076477
 20
285.1874477816852
 30
0.0
 40
396.4883172119752
 41
570.409736121624
 68
     2
 69
     2
1001
ACAD
1000
MVIEW
1002
{
1070
    16
1010
0.0
1020
0.0
1030
0.0
1010
0.0
1020
0.0
1030
1.0
1040
0.0
1040
570.409736121624
1040
210.0
1040
297.0
1040
50.0
1040
0.0
1040
0.0
1070
     0
1070
   100
1070
     1
1070
     1
1070
     0
1070
     0
1070
     0
1070
     0
1040
0.0
1040
0.0
1040
0.0
1040
1.0
1040
1.0
1040
0.0
1040
0.0
1070
     0
1002
{
1002
}
1002
}
  0
ENDSEC
  0
SECTION
  2
OBJECTS
  0
DICTIONARY
  5
19
330
0
100
AcDbDictionary
  3
ACAD_COLOR
350
1570
  3
ACAD_GROUP
350
1A
  3
ACAD_LAYOUT
350
662
  3
ACAD_MATERIAL
350
156F
  3
ACAD_MLINESTYLE
350
1B
  3
ACAD_PLOTSETTINGS
350
663
  3
ACADDIM
350
1065
  3
ASE_INDEX_DICTIONARY
350
159A
1001
ACAD
1000
TREAT_AS_HARD
1070
     0
1000
TREAT_AS_HARD
1070
     0
  0
DICTIONARY
  5
F78
330
2
100
AcDbDictionary
  3
ACAD_LAYERFILTERS
350
F79
  3
ACAD_LAYERSTATES
350
10FA
1001
ACAD
1000
TREAT_AS_HARD
1070
     1
1000
TREAT_AS_HARD
1070
     1
  0
DICTIONARY
  5
1543
330
A
100
AcDbDictionary
  3
ACAD_LAYOUTSELFREF
350
15D7
1001
ACAD
1000
TREAT_AS_HARD
1070
     1
  0
DICTIONARY
  5
1545
330
B
100
AcDbDictionary
  3
ACAD_LAYOUTSELFREF
350
15D8
1001
ACAD
1000
TREAT_AS_HARD
1070
     1
  0
DICTIONARY
  5
15C9
330
B46
100
AcDbDictionary
  3
ACAD_XREC_ROUNDTRIP
350
15CA
1001
ACAD
1000
TREAT_AS_HARD
1070
     1
  0
DICTIONARY
  5
15CF
330
15B3
100
AcDbDictionary
  3
ACAD_XREC_ROUNDTRIP
350
15D0
1001
ACAD
1000
TREAT_AS_HARD
1070
     1
  0
DICTIONARY
  5
1570
102
{ACAD_REACTORS
330
19
102
}
330
19
100
AcDbDictionary
1001
ACAD
1000
TREAT_AS_HARD
1070
     0
  0
DICTIONARY
  5
1A
102
{ACAD_REACTORS
330
19
102
}
330
19
100
AcDbDictionary
  3
DAGROUP634
350
634
  3
DAGROUP638
350
638
  3
DAGROUP63C
350
63C
  3
DAGROUP640
350
640
  3
DAGROUP644
350
644
  3
DAGROUP648
350
648
1001
ACAD
1000
TREAT_AS_HARD
1070
     0
1000
TREAT_AS_HARD
1070
     0
  0
DICTIONARY
  5
662
102
{ACAD_REACTORS
330
19
102
}
330
19
100
AcDbDictionary
1001
ACAD
1000
TREAT_AS_HARD
1070
     0
1000
TREAT_AS_HARD
1070
     0
  0
DICTIONARY
  5
156F
102
{ACAD_REACTORS
330
19
102
}
330
19
100
AcDbDictionary
1001
ACAD
1000
TREAT_AS_HARD
1070
     0
  0
DICTIONARY
  5
1B
102
{ACAD_REACTORS
330
19
102
}
330
19
100
AcDbDictionary
  3
STANDARD
350
1C
1001
ACAD
1000
TREAT_AS_HARD
1070
     0
1000
TREAT_AS_HARD
1070
     0
  0
DICTIONARY
  5
663
102
{ACAD_REACTORS
330
19
102
}
330
19
100
AcDbDictionary
1001
ACAD
1000
TREAT_AS_HARD
1070
     0
1000
TREAT_AS_HARD
1070
     0
  0
XRECORD
  5
1065
102
{ACAD_REACTORS
330
19
102
}
330
19
100
AcDbXrecord
 90
   990106
  3

 60
     0
 61
     0
 62
     4
 63
     4
 64
     1
 65
     0
 66
     0
 67
     3
 68
     0
 69
     1
 70
     0
 71
     0
 72
     0
 40
0.0
170
     0
340
1359
  0
DICTIONARY
  5
159A
102
{ACAD_REACTORS
330
19
102
}
330
19
100
AcDbDictionary
  3
ASEBLOCKHIERARCHYINDEXRECORD
350
159C
1001
DCO15
1040
1508669243.734
1001
ACAD
1000
TREAT_AS_HARD
1070
     0
  0
DICTIONARY
  5
F79
102
{ACAD_REACTORS
330
F78
102
}
330
F78
100
AcDbDictionary
  3
HIHYOJI
350
10F8
1001
ACAD
1000
TREAT_AS_HARD
1070
     1
1000
TREAT_AS_HARD
1070
     0
  0
DICTIONARY
  5
10FA
102
{ACAD_REACTORS
330
F78
102
}
330
F78
100
AcDbDictionary
1001
ACAD
1000
TREAT_AS_HARD
1070
     0
1000
TREAT_AS_HARD
1070
     0
  0
XRECORD
  5
15D7
102
{ACAD_REACTORS
330
1543
102
}
330
1543
100
AcDbXrecord
340
A
  0
XRECORD
  5
15D8
102
{ACAD_REACTORS
330
1545
102
}
330
1545
100
AcDbXrecord
340
B
  0
XRECORD
  5
15CA
102
{ACAD_REACTORS
330
15C9
102
}
330
15C9
100
AcDbXrecord
102
SHADEPLOT
 70
     0
  0
XRECORD
  5
15D0
102
{ACAD_REACTORS
330
15CF
102
}
330
15CF
100
AcDbXrecord
102
SHADEPLOT
 70
     0
  0
GROUP
  5
634
102
{ACAD_REACTORS
330
1A
102
}
330
1A
100
AcDbGroup
300

 70
     0
 71
     1
  0
GROUP
  5
638
102
{ACAD_REACTORS
330
1A
102
}
330
1A
100
AcDbGroup
300

 70
     0
 71
     1
  0
GROUP
  5
63C
102
{ACAD_REACTORS
330
1A
102
}
330
1A
100
AcDbGroup
300

 70
     0
 71
     1
  0
GROUP
  5
640
102
{ACAD_REACTORS
330
1A
102
}
330
1A
100
AcDbGroup
300

 70
     0
 71
     1
  0
GROUP
  5
644
102
{ACAD_REACTORS
330
1A
102
}
330
1A
100
AcDbGroup
300

 70
     0
 71
     1
  0
GROUP
  5
648
102
{ACAD_REACTORS
330
1A
102
}
330
1A
100
AcDbGroup
300

 70
     0
 71
     1
  0
MLINESTYLE
  5
1C
102
{ACAD_REACTORS
330
1B
102
}
330
1B
100
AcDbMlineStyle
  2
STANDARD
 70
     0
  3

 62
     0
 51
90.00000000000019
 52
90.00000000000019
 71
     2
 49
0.5
 62
   256
  6
BYLAYER
 49
-0.5
 62
   256
  6
BYLAYER
  0
XRECORD
  5
159C
102
{ACAD_REACTORS
330
159A
102
}
330
159A
100
AcDbXrecord
330
F1F
330
DDB
330
DDC
330
DD2
330
DD3
330
1003
330
1004
330
13DE
330
13DF
330
13E7
330
13E8
330
138D
330
138E
330
13A9
330
13AA
330
1396
330
1397
330
114F
330
1150
330
13F9
330
13FA
330
D81
330
D82
330
13D5
330
13D6
330
1402
330
1403
330
125A
330
125B
330
1278
330
1279
330
121E
330
121F
330
1215
330
1216
330
11FF
330
1200
330
11F6
330
11F7
330
11D4
330
11D5
330
11EB
330
11EC
330
D16
330
D17
330
1185
330
1186
330
118F
330
1190
330
1290
330
1291
330
10DE
330
10DF
330
10E6
330
10E7
330
10F1
330
10F2
330
E54
330
E55
330
E33
330
E34
330
CC0
330
CC1
330
CA9
330
CAA
330
13CC
330
13CD
330
13C3
330
13C4
  0
XRECORD
  5
10F8
102
{ACAD_REACTORS
330
F79
102
}
330
F79
100
AcDbXrecord
  1
hihyoji
  1
08,09,*_h
  1
*
  1
*
 70
     0
  1
*
  1
*
  0
ENDSEC
  0
EOF
