  0
SECTION
  2
HEADER
  9
$ACADVER
  1
AC1012
  9
$DWGCODEPAGE
  3
dos932
  9
$INSBASE
 10
0.0
 20
0.0
 30
0.0
  9
$EXTMIN
 10
-0.0256335921286564
 20
-0.0362532231533805
 30
-0.0000000349181948
  9
$EXTMAX
 10
420.025637503803
 20
594.0362587553784
 30
0.0000000814935746
  9
$LIMMIN
 10
0.0
 20
0.0
  9
$LIMMAX
 10
420.0
 20
594.0
  9
$ORTHOMODE
 70
     1
  9
$REGENMODE
 70
     1
  9
$FILLMODE
 70
     1
  9
$QTEXTMODE
 70
     0
  9
$MIRRTEXT
 70
     1
  9
$DRAGMODE
 70
     2
  9
$LTSCALE
 40
1.0
  9
$OSMODE
 70
    37
  9
$ATTMODE
 70
     1
  9
$TEXTSIZE
 40
2.5
  9
$TRACEWID
 40
0.05
  9
$TEXTSTYLE
  7
0_8
  9
$CLAYER
  8
KAKURE
  9
$CELTYPE
  6
BYLAYER
  9
$CECOLOR
 62
   256
  9
$CELTSCALE
 40
1.0
  9
$DELOBJ
 70
     1
  9
$DISPSILH
 70
     0
  9
$DIMSCALE
 40
2.0
  9
$DIMASZ
 40
2.5
  9
$DIMEXO
 40
1.5
  9
$DIMDLI
 40
0.0
  9
$DIMRND
 40
0.0
  9
$DIMDLE
 40
0.0
  9
$DIMEXE
 40
1.0
  9
$DIMTP
 40
0.0
  9
$DIMTM
 40
0.0
  9
$DIMTXT
 40
2.5
  9
$DIMCEN
 40
0.0
  9
$DIMTSZ
 40
0.0
  9
$DIMTOL
 70
     0
  9
$DIMLIM
 70
     0
  9
$DIMTIH
 70
     0
  9
$DIMTOH
 70
     0
  9
$DIMSE1
 70
     0
  9
$DIMSE2
 70
     0
  9
$DIMTAD
 70
     1
  9
$DIMZIN
 70
     8
  9
$DIMBLK
  1
OPEN30
  9
$DIMASO
 70
     1
  9
$DIMSHO
 70
     1
  9
$DIMPOST
  1

  9
$DIMAPOST
  1

  9
$DIMALT
 70
     0
  9
$DIMALTD
 70
     2
  9
$DIMALTF
 40
25.4
  9
$DIMLFAC
 40
1.0
  9
$DIMTOFL
 70
     1
  9
$DIMTVP
 40
0.0
  9
$DIMTIX
 70
     0
  9
$DIMSOXD
 70
     0
  9
$DIMSAH
 70
     0
  9
$DIMBLK1
  1

  9
$DIMBLK2
  1

  9
$DIMSTYLE
  2
SUNPOU_2
  9
$DIMCLRD
 70
   256
  9
$DIMCLRE
 70
   256
  9
$DIMCLRT
 70
     6
  9
$DIMTFAC
 40
1.0
  9
$DIMGAP
 40
1.0
  9
$DIMJUST
 70
     0
  9
$DIMSD1
 70
     0
  9
$DIMSD2
 70
     0
  9
$DIMTOLJ
 70
     1
  9
$DIMTZIN
 70
     0
  9
$DIMALTZ
 70
     0
  9
$DIMALTTZ
 70
     0
  9
$DIMFIT
 70
     3
  9
$DIMUPT
 70
     0
  9
$DIMUNIT
 70
     2
  9
$DIMDEC
 70
     1
  9
$DIMTDEC
 70
     1
  9
$DIMALTU
 70
     2
  9
$DIMALTTD
 70
     2
  9
$DIMTXSTY
  7
SUNPOU
  9
$DIMAUNIT
 70
     0
  9
$LUNITS
 70
     2
  9
$LUPREC
 70
     4
  9
$SKETCHINC
 40
0.1
  9
$FILLETRAD
 40
0.0
  9
$AUNITS
 70
     0
  9
$AUPREC
 70
     0
  9
$MENU
  1
acad
  9
$ELEVATION
 40
0.0
  9
$PELEVATION
 40
0.0
  9
$THICKNESS
 40
0.0
  9
$LIMCHECK
 70
     0
  9
$BLIPMODE
 70
     0
  9
$CHAMFERA
 40
0.0
  9
$CHAMFERB
 40
0.0
  9
$CHAMFERC
 40
0.0
  9
$CHAMFERD
 40
0.0
  9
$SKPOLY
 70
     0
  9
$TDCREATE
 40
2444972.375000000
  9
$TDUPDATE
 40
2453266.435171979
  9
$TDINDWG
 40
1.8643612269
  9
$TDUSRTIMER
 40
1.8643610417
  9
$USRTIMER
 70
     1
  9
$ANGBASE
 50
0.0
  9
$ANGDIR
 70
     0
  9
$PDMODE
 70
     0
  9
$PDSIZE
 40
1.0
  9
$PLINEWID
 40
0.0
  9
$COORDS
 70
     1
  9
$SPLFRAME
 70
     0
  9
$SPLINETYPE
 70
     6
  9
$SPLINESEGS
 70
     8
  9
$ATTDIA
 70
     0
  9
$ATTREQ
 70
     1
  9
$HANDLING
 70
-16383
  9
$HANDSEED
  5
3DDA
  9
$SURFTAB1
 70
     6
  9
$SURFTAB2
 70
     6
  9
$SURFTYPE
 70
     6
  9
$SURFU
 70
     6
  9
$SURFV
 70
     6
  9
$UCSNAME
  2

  9
$UCSORG
 10
0.0
 20
0.0
 30
0.0
  9
$UCSXDIR
 10
1.0
 20
0.0
 30
0.0
  9
$UCSYDIR
 10
0.0
 20
1.0
 30
0.0
  9
$PUCSNAME
  2

  9
$PUCSORG
 10
0.0
 20
0.0
 30
0.0
  9
$PUCSXDIR
 10
1.0
 20
0.0
 30
0.0
  9
$PUCSYDIR
 10
0.0
 20
1.0
 30
0.0
  9
$USERI1
 70
     0
  9
$USERI2
 70
     0
  9
$USERI3
 70
     0
  9
$USERI4
 70
     0
  9
$USERI5
 70
     0
  9
$USERR1
 40
0.0
  9
$USERR2
 40
0.0
  9
$USERR3
 40
0.0
  9
$USERR4
 40
0.0
  9
$USERR5
 40
0.0
  9
$WORLDVIEW
 70
     1
  9
$SHADEDGE
 70
     3
  9
$SHADEDIF
 70
    70
  9
$TILEMODE
 70
     1
  9
$MAXACTVP
 70
    16
  9
$PINSBASE
 10
0.0
 20
0.0
 30
0.0
  9
$PLIMCHECK
 70
     0
  9
$PEXTMIN
 10
-0.1933276983398855
 20
-0.0174202791267817
 30
-0.0015258207003583
  9
$PEXTMAX
 10
396.2949895136353
 20
570.3923158424973
 30
0.0000000349246037
  9
$PLIMMIN
 10
-11.94191342824453
 20
-11.7660021939814
  9
$PLIMMAX
 10
408.0435733360148
 20
582.1408996648767
  9
$UNITMODE
 70
     0
  9
$VISRETAIN
 70
     0
  9
$PLINEGEN
 70
     1
  9
$PSLTSCALE
 70
     0
  9
$TREEDEPTH
 70
  3020
  9
$PICKSTYLE
 70
     1
  9
$CMLSTYLE
  2
STANDARD
  9
$CMLJUST
 70
     0
  9
$CMLSCALE
 40
1.0
  9
$SAVEIMAGES
 70
     1
  0
ENDSEC
  0
SECTION
  2
CLASSES
  0
CLASS
  1
LWPOLYLINE
  2
AcDbPolyline
  3
AutoCAD 2000
 90
    32768
280
     0
281
     1
  0
CLASS
  1
IMAGE
  2
AcDbRasterImage
  3
ISM
 90
    32895
280
     0
281
     1
  0
CLASS
  1
OLE2FRAME
  2
AcDbOle2Frame
  3
AutoCAD 2000
 90
    32768
280
     0
281
     1
  0
CLASS
  1
HATCH
  2
AcDbHatch
  3
AutoCAD 2000
 90
    32768
280
     0
281
     1
  0
CLASS
  1
DICTIONARYVAR
  2
AcDbDictionaryVar
  3
AutoCAD 2000
 90
    32768
280
     0
281
     0
  0
CLASS
  1
RASTERVARIABLES
  2
AcDbRasterVariables
  3
ISM
 90
    32768
280
     0
281
     0
  0
CLASS
  1
IMAGEDEF
  2
AcDbRasterImageDef
  3
ISM
 90
    32768
280
     0
281
     0
  0
CLASS
  1
IMAGEDEF_REACTOR
  2
AcDbRasterImageDefReactor
  3
ISM
 90
    32769
280
     0
281
     0
  0
CLASS
  1
IDBUFFER
  2
AcDbIdBuffer
  3
AutoCAD 2000
 90
    32768
280
     0
281
     0
  0
CLASS
  1
SPATIAL_FILTER
  2
AcDbSpatialFilter
  3
AutoCAD 2000
 90
    32768
280
     0
281
     0
  0
CLASS
  1
XRECORD
  2
AcDbXrecord
  3
AutoCAD 2000
 90
    32768
280
     0
281
     0
  0
CLASS
  1
SORTENTSTABLE
  2
AcDbSortentsTable
  3
AutoCAD 2000
 90
    32768
280
     0
281
     0
  0
CLASS
  1
LAYER_INDEX
  2
AcDbLayerIndex
  3
AutoCAD 2000
 90
    32768
280
     0
281
     0
  0
CLASS
  1
SPATIAL_INDEX
  2
AcDbSpatialIndex
  3
AutoCAD 2000
 90
    32768
280
     0
281
     0
  0
CLASS
  1
OBJECT_PTR
  2
CAseDLPNTableRecord
  3
ASE-LPNTableRecord
 90
    32769
280
     0
281
     0
  0
CLASS
  1
ACDBDICTIONARYWDFLT
  2
AcDbDictionaryWithDefault
  3
AutoCAD 2000
 90
    32768
280
     0
281
     0
  0
CLASS
  1
ACDBPLACEHOLDER
  2
AcDbPlaceHolder
  3
AutoCAD 2000
 90
    32768
280
     0
281
     0
  0
CLASS
  1
LAYOUT
  2
AcDbLayout
  3
AutoCAD 2000
 90
    32768
280
     0
281
     0
  0
CLASS
  1
LONG_TRANSACTION
  2
AcDbLongTransaction
  3
AutoCAD 2000
 90
    32768
280
     0
281
     0
  0
CLASS
  1
LWPOLYLINE
  2
AcDbPolyline
  3
AutoCAD 2000
 90
    32768
280
     0
281
     1
  0
CLASS
  1
HATCH
  2
AcDbHatch
  3
AutoCAD 2000
 90
    32768
280
     0
281
     1
  0
CLASS
  1
XRECORD
  2
AcDbXrecord
  3
AutoCAD 2000
 90
    32768
280
     0
281
     0
  0
CLASS
  1
LONG_TRANSACTION
  2
AcDbLongTransaction
  3
AutoCAD 2000
 90
    32768
280
     0
281
     0
  0
CLASS
  1
LWPOLYLINE
  2
AcDbPolyline
  3
AutoCAD 2000
 90
    32768
280
     0
281
     1
  0
CLASS
  1
HATCH
  2
AcDbHatch
  3
AutoCAD 2000
 90
    32768
280
     0
281
     1
  0
CLASS
  1
XRECORD
  2
AcDbXrecord
  3
AutoCAD 2000
 90
    32768
280
     0
281
     0
  0
CLASS
  1
LONG_TRANSACTION
  2
AcDbLongTransaction
  3
AutoCAD 2000
 90
    32768
280
     0
281
     0
  0
CLASS
  1
LWPOLYLINE
  2
AcDbPolyline
  3
AutoCAD 2000
 90
    32768
280
     0
281
     1
  0
CLASS
  1
HATCH
  2
AcDbHatch
  3
AutoCAD 2000
 90
    32768
280
     0
281
     1
  0
CLASS
  1
XRECORD
  2
AcDbXrecord
  3
AutoCAD 2000
 90
    32768
280
     0
281
     0
  0
ENDSEC
  0
SECTION
  2
TABLES
  0
TABLE
  2
VPORT
  5
7
330
0
100
AcDbSymbolTable
 70
     2
  0
VPORT
  5
3DBF
330
7
100
AcDbSymbolTableRecord
100
AcDbViewportTableRecord
  2
*ACTIVE
 70
     0
 10
0.0
 20
0.0
 11
1.0
 21
1.0
 12
210.0000019558372
 22
297.0000027661125
 13
0.0
 23
0.0
 14
1.0
 24
1.0
 15
0.0
 25
0.0
 16
0.0
 26
0.0
 36
1.0
 17
0.0
 27
0.0
 37
0.0
 40
600.6368491274659
 41
1.780442804428044
 42
50.0
 43
0.0
 44
0.0
 50
0.0
 51
0.0
 71
     0
 72
   100
 73
     1
 74
     1
 75
     0
 76
     0
 77
     0
 78
     0
  0
ENDTAB
  0
TABLE
  2
LTYPE
  5
4
330
0
100
AcDbSymbolTable
 70
     3
  0
LTYPE
  5
11
330
4
100
AcDbSymbolTableRecord
100
AcDbLinetypeTableRecord
  2
BYBLOCK
 70
     0
  3

 72
    65
 73
     0
 40
0.0
  0
LTYPE
  5
12
330
4
100
AcDbSymbolTableRecord
100
AcDbLinetypeTableRecord
  2
BYLAYER
 70
     0
  3

 72
    65
 73
     0
 40
0.0
  0
LTYPE
  5
13
330
4
100
AcDbSymbolTableRecord
100
AcDbLinetypeTableRecord
  2
CONTINUOUS
 70
     0
  3
Solid line
 72
    65
 73
     0
 40
0.0
  0
LTYPE
  5
21
330
4
100
AcDbSymbolTableRecord
100
AcDbLinetypeTableRecord
  2
DASHED2
 70
     0
  3
CADPAC FUSION LINETYPE
 72
    65
 73
     2
 40
13.365
 49
8.91
 74
     0
 49
-4.455
 74
     0
  0
LTYPE
  5
77D
330
4
100
AcDbSymbolTableRecord
100
AcDbLinetypeTableRecord
  2
CENTER2
 70
     0
  3
Center (.5x) ___ _ ___ _ ___ _ ___ _ ___ _ ___
 72
    65
 73
     4
 40
28.57499999999999
 49
19.05
 74
     0
 49
-3.174999999999998
 74
     0
 49
3.174999999999998
 74
     0
 49
-3.174999999999998
 74
     0
  0
ENDTAB
  0
TABLE
  2
LAYER
  5
2
102
{ACAD_XDICTIONARY
360
13F3
102
}
330
0
100
AcDbSymbolTable
 70
    12
  0
LAYER
  5
14
330
2
100
AcDbSymbolTableRecord
100
AcDbLayerTableRecord
  2
0
 70
     0
 62
     7
  6
CONTINUOUS
  0
LAYER
  5
773
330
2
100
AcDbSymbolTableRecord
100
AcDbLayerTableRecord
  2
DEFPOINTS
 70
     0
 62
     7
  6
CONTINUOUS
  0
LAYER
  5
78D
330
2
100
AcDbSymbolTableRecord
100
AcDbLayerTableRecord
  2
02
 70
     0
 62
     2
  6
CONTINUOUS
  0
LAYER
  5
78E
330
2
100
AcDbSymbolTableRecord
100
AcDbLayerTableRecord
  2
03
 70
     0
 62
     3
  6
CONTINUOUS
  0
LAYER
  5
791
330
2
100
AcDbSymbolTableRecord
100
AcDbLayerTableRecord
  2
06
 70
     0
 62
     6
  6
CONTINUOUS
  0
LAYER
  5
793
330
2
100
AcDbSymbolTableRecord
100
AcDbLayerTableRecord
  2
CHUSIN
 70
     0
 62
     6
  6
CENTER2
  0
LAYER
  5
794
330
2
100
AcDbSymbolTableRecord
100
AcDbLayerTableRecord
  2
HIKIDASI
 70
     0
 62
     6
  6
CONTINUOUS
  0
LAYER
  5
795
330
2
100
AcDbSymbolTableRecord
100
AcDbLayerTableRecord
  2
KAKURE
 70
     0
 62
     6
  6
DASHED2
  0
LAYER
  5
796
330
2
100
AcDbSymbolTableRecord
100
AcDbLayerTableRecord
  2
MOJI
 70
     0
 62
     3
  6
CONTINUOUS
  0
LAYER
  5
798
330
2
100
AcDbSymbolTableRecord
100
AcDbLayerTableRecord
  2
SUNPOU
 70
     0
 62
     6
  6
CONTINUOUS
  0
LAYER
  5
3BBD
330
2
100
AcDbSymbolTableRecord
100
AcDbLayerTableRecord
  2
SAISEN
 70
     0
 62
     3
  6
CONTINUOUS
  0
LAYER
  5
3C57
330
2
100
AcDbSymbolTableRecord
100
AcDbLayerTableRecord
  2
04
 70
     0
 62
     4
  6
CONTINUOUS
  0
ENDTAB
  0
TABLE
  2
STYLE
  5
3
330
0
100
AcDbSymbolTable
 70
     4
  0
STYLE
  5
17
330
3
100
AcDbSymbolTableRecord
100
AcDbTextStyleTableRecord
  2
STANDARD
 70
     0
 40
0.0
 41
0.8
 50
0.0
 71
     0
 42
6.0
  3
txt.shx
  4
bigfont.shx
  0
STYLE
  5
775
330
3
100
AcDbSymbolTableRecord
100
AcDbTextStyleTableRecord
  2
SUNPOU
 70
     0
 40
0.0
 41
0.8
 50
0.0
 71
     0
 42
0.2
  3
txt.shx
  4
extfont.shx
  0
STYLE
  5
77F
330
3
100
AcDbSymbolTableRecord
100
AcDbTextStyleTableRecord
  2
0_8
 70
     0
 40
0.0
 41
0.8
 50
0.0
 71
     0
 42
2.5
  3
txt.shx
  4
extfont.shx
  0
STYLE
  5
3D08
330
3
100
AcDbSymbolTableRecord
100
AcDbTextStyleTableRecord
  2
0_80
 70
     0
 40
0.0
 41
0.8
 50
0.0
 71
     0
 42
7.0
  3
txt.shx
  4
extfont.shx
  0
ENDTAB
  0
TABLE
  2
VIEW
  5
5
330
0
100
AcDbSymbolTable
 70
     1
  0
VIEW
  5
136
330
5
100
AcDbSymbolTableRecord
100
AcDbViewTableRecord
  2
QQQQ
 70
     0
 40
590.1106891743737
 10
-6.487170474516714
 20
0.0184113911194004
 41
398.8766467486819
 11
0.0
 21
0.0
 31
1.0
 12
100.0
 22
100.0
 32
0.0
 42
50.0
 43
0.0
 44
0.0
 50
0.0
 71
     0
  0
ENDTAB
  0
TABLE
  2
UCS
  5
6
330
0
100
AcDbSymbolTable
 70
     0
  0
ENDTAB
  0
TABLE
  2
APPID
  5
8
330
0
100
AcDbSymbolTable
 70
     3
  0
APPID
  5
16
330
8
100
AcDbSymbolTableRecord
100
AcDbRegAppTableRecord
  2
ACAD
 70
     0
  0
APPID
  5
3CAB
330
8
100
AcDbSymbolTableRecord
100
AcDbRegAppTableRecord
  2
CONTENTBLOCKICON
 70
     0
  0
APPID
  5
3D2D
330
8
100
AcDbSymbolTableRecord
100
AcDbRegAppTableRecord
  2
DCO15
 70
     0
  0
ENDTAB
  0
TABLE
  2
DIMSTYLE
  5
9
330
0
100
AcDbSymbolTable
 70
     2
  0
DIMSTYLE
105
18
330
9
100
AcDbSymbolTableRecord
100
AcDbDimStyleTableRecord
  2
STANDARD
 70
     0
  3

  4

  5

  6

  7

 40
1.0
 41
0.18
 42
0.0625
 43
0.38
 44
0.18
 45
0.0
 46
0.0
 47
0.0
 48
0.0
140
0.18
141
0.09
142
0.0
143
25.4
144
1.0
145
0.0
146
1.0
147
0.09
 71
     0
 72
     0
 73
     1
 74
     1
 75
     0
 76
     0
 77
     0
 78
     0
170
     0
171
     2
172
     0
173
     0
174
     0
175
     0
176
     0
177
     0
178
     0
270
     2
271
     4
272
     4
273
     2
274
     2
340
17
275
     0
280
     0
281
     0
282
     0
283
     1
284
     0
285
     0
286
     0
287
     3
288
     0
  0
DIMSTYLE
105
774
102
{ACAD_REACTORS
330
7CF
330
7E5
330
7F4
330
803
330
810
330
81F
330
848
330
857
330
864
330
873
330
8BB
330
8C8
330
8E2
330
8EF
330
8FC
330
916
330
92F
330
93C
330
94B
330
958
330
967
330
974
330
981
330
990
330
99D
330
9AC
330
9BB
330
9C8
330
EBF
330
138B
102
}
330
9
100
AcDbSymbolTableRecord
100
AcDbDimStyleTableRecord
  2
SUNPOU_2
 70
     0
  3

  4

  5
OPEN30
  6

  7

 40
2.0
 41
2.5
 42
1.5
 43
0.0
 44
1.0
 45
0.0
 46
0.0
 47
0.0
 48
0.0
140
2.5
141
0.0
142
0.0
143
25.4
144
1.0
145
0.0
146
1.0
147
1.0
 71
     0
 72
     0
 73
     0
 74
     0
 75
     0
 76
     0
 77
     1
 78
     8
170
     0
171
     2
172
     1
173
     0
174
     0
175
     0
176
   256
177
   256
178
     6
270
     2
271
     1
272
     1
273
     2
274
     2
340
775
275
     0
280
     0
281
     0
282
     0
283
     1
284
     0
285
     0
286
     0
287
     3
288
     0
  0
ENDTAB
  0
TABLE
  2
BLOCK_RECORD
  5
1
330
0
100
AcDbSymbolTable
 70
    34
  0
BLOCK_RECORD
  5
A
102
{ACAD_XDICTIONARY
360
3CA7
102
}
330
1
100
AcDbSymbolTableRecord
100
AcDbBlockTableRecord
  2
*MODEL_SPACE
  0
BLOCK_RECORD
  5
B
102
{ACAD_XDICTIONARY
360
3CA9
102
}
330
1
100
AcDbSymbolTableRecord
100
AcDbBlockTableRecord
  2
*PAPER_SPACE
  0
BLOCK_RECORD
  5
776
330
1
100
AcDbSymbolTableRecord
100
AcDbBlockTableRecord
  2
_OPEN30
1001
CONTENTBLOCKICON
1071
        0
1004
2800000020000000200000000100080000000000000400000000000000000000000000000000000000000000000080000080000000808000800000008000800080800000C0C0C000C0DCC000F0CAA6000020400000206000002080000020A0000020C0000020E00000400000004020000040400000406000004080000040A0
1004
000040C0000040E00000600000006020000060400000606000006080000060A0000060C0000060E00000800000008020000080400000806000008080000080A0000080C0000080E00000A0000000A0200000A0400000A0600000A0800000A0A00000A0C00000A0E00000C0000000C0200000C0400000C0600000C0800000C0
1004
A00000C0C00000C0E00000E0000000E0200000E0400000E0600000E0800000E0A00000E0C00000E0E00040000000400020004000400040006000400080004000A0004000C0004000E00040200000402020004020400040206000402080004020A0004020C0004020E000404000004040200040404000404060004040800040
1004
40A0004040C0004040E00040600000406020004060400040606000406080004060A0004060C0004060E00040800000408020004080400040806000408080004080A0004080C0004080E00040A0000040A0200040A0400040A0600040A0800040A0A00040A0C00040A0E00040C0000040C0200040C0400040C0600040C08000
1004
40C0A00040C0C00040C0E00040E0000040E0200040E0400040E0600040E0800040E0A00040E0C00040E0E00080000000800020008000400080006000800080008000A0008000C0008000E00080200000802020008020400080206000802080008020A0008020C0008020E00080400000804020008040400080406000804080
1004
008040A0008040C0008040E00080600000806020008060400080606000806080008060A0008060C0008060E00080800000808020008080400080806000808080008080A0008080C0008080E00080A0000080A0200080A0400080A0600080A0800080A0A00080A0C00080A0E00080C0000080C0200080C0400080C0600080C0
1004
800080C0A00080C0C00080C0E00080E0000080E0200080E0400080E0600080E0800080E0A00080E0C00080E0E000C0000000C0002000C0004000C0006000C0008000C000A000C000C000C000E000C0200000C0202000C0204000C0206000C0208000C020A000C020C000C020E000C0400000C0402000C0404000C0406000C0
1004
408000C040A000C040C000C040E000C0600000C0602000C0604000C0606000C0608000C060A000C060C000C060E000C0800000C0802000C0804000C0806000C0808000C080A000C080C000C080E000C0A00000C0A02000C0A04000C0A06000C0A08000C0A0A000C0A0C000C0A0E000C0C00000C0C02000C0C04000C0C06000
1004
C0C08000C0C0A000F0FBFF00A4A0A000808080000000FF0000FF000000FFFF00FF000000FF00FF00FFFF0000FFFFFF0000000000000000000000000000000000000000000000000000000000000000000000000000000000000000000000000000000000000000000000000000000000000000000000000000000000000000
1004
00000000000000000000000000000000000000000000000000000000000000000000000000000000000000000000000000000000000000000000000000000000000000000000000000000000000000000000000000000000000000000000000000000000000000000000000000000000000000000000000000000000000000
1004
000000000000000000000000000000000000000000000000000000000000000000000000000000000000000000000000000000FFFF0000000000000000000000000000000000000000000000000000000000000000FFFFFFFF0000000000000000000000000000000000000000000000000000000000000000FFFFFFFF0000
1004
000000000000000000000000000000000000000000000000000000000000FFFFFF0000000000000000000000000000000000000000000000000000000000000000FFFFFFFF0000000000000000000000000000000000000000000000000000000000000000FFFFFF0000000000000000000000000000000000000000000000
1004
000000000000000000FFFFFFFF0000000000000000000000000000000000000000000000000000000000000000FFFFFFFF00000000FFFFFFFFFFFFFFFFFFFFFFFFFFFFFFFFFFFFFFFFFFFFFFFFFFFFFFFFFFFF00000000000000000000000000000000000000000000000000FFFFFFFF000000000000000000000000000000
1004
000000000000000000FFFFFFFF000000000000000000000000000000000000000000000000FFFFFFFF000000000000000000000000000000000000000000000000FFFFFFFF000000000000000000000000000000000000000000000000FFFFFFFF000000000000000000000000000000000000000000000000FFFFFFFF0000
1004
0000000000000000000000000000000000000000000000FFFFFF0000000000000000000000000000000000000000000000000000000000000000000000000000000000000000000000000000000000000000000000000000000000000000000000000000000000000000000000000000000000000000000000000000000000
1004
00000000000000000000000000000000000000000000000000000000000000000000000000000000000000000000000000000000000000000000000000000000000000000000000000000000000000000000000000000000000000000000000000000000000000000000000000000000000000000000000000000000000000
1004
0000000000000000000000000000000000000000000000000000000000000000000000000000000000000000000000000000000000000000
  0
BLOCK_RECORD
  5
7D0
330
1
100
AcDbSymbolTableRecord
100
AcDbBlockTableRecord
  2
*D1
  0
BLOCK_RECORD
  5
7E6
330
1
100
AcDbSymbolTableRecord
100
AcDbBlockTableRecord
  2
*D2
  0
BLOCK_RECORD
  5
7F5
330
1
100
AcDbSymbolTableRecord
100
AcDbBlockTableRecord
  2
*D3
  0
BLOCK_RECORD
  5
804
330
1
100
AcDbSymbolTableRecord
100
AcDbBlockTableRecord
  2
*D4
  0
BLOCK_RECORD
  5
811
330
1
100
AcDbSymbolTableRecord
100
AcDbBlockTableRecord
  2
*D5
  0
BLOCK_RECORD
  5
820
330
1
100
AcDbSymbolTableRecord
100
AcDbBlockTableRecord
  2
*D6
  0
BLOCK_RECORD
  5
849
330
1
100
AcDbSymbolTableRecord
100
AcDbBlockTableRecord
  2
*D7
  0
BLOCK_RECORD
  5
858
330
1
100
AcDbSymbolTableRecord
100
AcDbBlockTableRecord
  2
*D8
  0
BLOCK_RECORD
  5
865
330
1
100
AcDbSymbolTableRecord
100
AcDbBlockTableRecord
  2
*D9
  0
BLOCK_RECORD
  5
874
330
1
100
AcDbSymbolTableRecord
100
AcDbBlockTableRecord
  2
*D10
  0
BLOCK_RECORD
  5
8BC
330
1
100
AcDbSymbolTableRecord
100
AcDbBlockTableRecord
  2
*D11
  0
BLOCK_RECORD
  5
8C9
330
1
100
AcDbSymbolTableRecord
100
AcDbBlockTableRecord
  2
*D12
  0
BLOCK_RECORD
  5
8E3
330
1
100
AcDbSymbolTableRecord
100
AcDbBlockTableRecord
  2
*D13
  0
BLOCK_RECORD
  5
8F0
330
1
100
AcDbSymbolTableRecord
100
AcDbBlockTableRecord
  2
*D14
  0
BLOCK_RECORD
  5
8FD
330
1
100
AcDbSymbolTableRecord
100
AcDbBlockTableRecord
  2
*D15
  0
BLOCK_RECORD
  5
917
330
1
100
AcDbSymbolTableRecord
100
AcDbBlockTableRecord
  2
*D16
  0
BLOCK_RECORD
  5
930
330
1
100
AcDbSymbolTableRecord
100
AcDbBlockTableRecord
  2
*D17
  0
BLOCK_RECORD
  5
93D
330
1
100
AcDbSymbolTableRecord
100
AcDbBlockTableRecord
  2
*D18
  0
BLOCK_RECORD
  5
94C
330
1
100
AcDbSymbolTableRecord
100
AcDbBlockTableRecord
  2
*D19
  0
BLOCK_RECORD
  5
959
330
1
100
AcDbSymbolTableRecord
100
AcDbBlockTableRecord
  2
*D20
  0
BLOCK_RECORD
  5
968
330
1
100
AcDbSymbolTableRecord
100
AcDbBlockTableRecord
  2
*D21
  0
BLOCK_RECORD
  5
975
330
1
100
AcDbSymbolTableRecord
100
AcDbBlockTableRecord
  2
*D22
  0
BLOCK_RECORD
  5
982
330
1
100
AcDbSymbolTableRecord
100
AcDbBlockTableRecord
  2
*D23
  0
BLOCK_RECORD
  5
991
330
1
100
AcDbSymbolTableRecord
100
AcDbBlockTableRecord
  2
*D24
  0
BLOCK_RECORD
  5
99E
330
1
100
AcDbSymbolTableRecord
100
AcDbBlockTableRecord
  2
*D25
  0
BLOCK_RECORD
  5
9AD
330
1
100
AcDbSymbolTableRecord
100
AcDbBlockTableRecord
  2
*D26
  0
BLOCK_RECORD
  5
9BC
330
1
100
AcDbSymbolTableRecord
100
AcDbBlockTableRecord
  2
*D27
  0
BLOCK_RECORD
  5
9C9
330
1
100
AcDbSymbolTableRecord
100
AcDbBlockTableRecord
  2
*D28
  0
BLOCK_RECORD
  5
ABD
330
1
100
AcDbSymbolTableRecord
100
AcDbBlockTableRecord
  2
_DOTSMALL
  0
BLOCK_RECORD
  5
EC0
330
1
100
AcDbSymbolTableRecord
100
AcDbBlockTableRecord
  2
*D30
  0
BLOCK_RECORD
  5
138C
330
1
100
AcDbSymbolTableRecord
100
AcDbBlockTableRecord
  2
*D31
  0
BLOCK_RECORD
  5
3BC3
330
1
100
AcDbSymbolTableRecord
100
AcDbBlockTableRecord
  2
_NONE
  0
BLOCK_RECORD
  5
3CD8
330
1
100
AcDbSymbolTableRecord
100
AcDbBlockTableRecord
  2
*X33
  0
ENDTAB
  0
ENDSEC
  0
SECTION
  2
BLOCKS
  0
BLOCK
  5
D
330
A
100
AcDbEntity
  8
0
100
AcDbBlockBegin
  2
*MODEL_SPACE
 70
     0
 10
0.0
 20
0.0
 30
0.0
  3
*MODEL_SPACE
  1

  0
ENDBLK
  5
E
330
A
100
AcDbEntity
  8
0
100
AcDbBlockEnd
  0
BLOCK
  5
F
330
B
100
AcDbEntity
 67
     1
  8
0
100
AcDbBlockBegin
  2
*PAPER_SPACE
 70
     0
 10
0.0
 20
0.0
 30
0.0
  3
*PAPER_SPACE
  1

  0
ENDBLK
  5
10
330
B
100
AcDbEntity
 67
     1
  8
0
100
AcDbBlockEnd
  0
BLOCK
  5
77A
330
776
100
AcDbEntity
  8
0
100
AcDbBlockBegin
  2
_OPEN30
 70
     0
 10
0.0
 20
0.0
 30
0.0
  3
_OPEN30
  1

  0
LINE
  5
777
330
776
100
AcDbEntity
  8
0
  6
BYBLOCK
 62
     0
100
AcDbLine
 10
-1.0
 20
0.26794919
 30
0.0
 11
0.0
 21
0.0
 31
0.0
  0
LINE
  5
778
330
776
100
AcDbEntity
  8
0
  6
BYBLOCK
 62
     0
100
AcDbLine
 10
0.0
 20
0.0
 30
0.0
 11
-1.0
 21
-0.26794919
 31
0.0
  0
LINE
  5
779
330
776
100
AcDbEntity
  8
0
  6
BYBLOCK
 62
     0
100
AcDbLine
 10
0.0
 20
0.0
 30
0.0
 11
-1.0
 21
0.0
 31
0.0
  0
ENDBLK
  5
77B
330
776
100
AcDbEntity
  8
0
100
AcDbBlockEnd
  0
BLOCK
  5
7DA
330
7D0
100
AcDbEntity
  8
0
100
AcDbBlockBegin
  2
*D1
 70
     1
 10
0.0
 20
0.0
 30
0.0
  3
*D1
  1

  0
LINE
  5
36B5
330
7D0
100
AcDbEntity
  8
SUNPOU
100
AcDbLine
 10
179.1717820391369
 20
162.6950407402065
 30
0.0
 11
147.9639313235095
 21
162.6950407402065
 31
0.0
  0
LINE
  5
36B6
330
7D0
100
AcDbEntity
  8
SUNPOU
100
AcDbLine
 10
179.1717820391369
 20
88.29504074020633
 30
0.0
 11
147.9639313235095
 21
88.29504074020633
 31
0.0
  0
LINE
  5
36B7
330
7D0
100
AcDbEntity
  8
SUNPOU
100
AcDbLine
 10
149.9639313235095
 20
157.6950407402065
 30
0.0
 11
149.9639313235095
 21
93.29504074020631
 31
0.0
  0
INSERT
  5
36B8
330
7D0
100
AcDbEntity
  8
SUNPOU
100
AcDbBlockReference
  2
_OPEN30
 10
149.9639313235095
 20
162.6950407402065
 30
0.0
 41
5.0
 42
5.0
 43
5.0
 50
90.0
  0
INSERT
  5
36B9
330
7D0
100
AcDbEntity
  8
SUNPOU
100
AcDbBlockReference
  2
_OPEN30
 10
149.9639313235095
 20
88.29504074020633
 30
0.0
 41
5.0
 42
5.0
 43
5.0
 50
270.0
  0
MTEXT
  5
36BA
330
7D0
100
AcDbEntity
  8
SUNPOU
 62
     6
100
AcDbMText
 10
145.4639313235095
 20
125.4950407402064
 30
0.0
 40
5.0
 41
0.0
 71
     5
 72
     1
  1
\A1;600
  7
SUNPOU
 11
0.0000000000000001
 21
1.0
 31
0.0
1001
ACAD
1000
MTEXTBEGIN
1070
    73
1070
     1
1070
    44
1040
1.0
1070
    74
1070
     0
1000
MTEXTEND
1000
MTEXTBEGIN
1070
    73
1070
     1
1070
    44
1040
1.0
1070
    74
1070
     0
1000
MTEXTEND
  0
POINT
  5
36BB
330
7D0
100
AcDbEntity
  8
DEFPOINTS
 62
     0
100
AcDbPoint
 10
182.1717820391369
 20
162.6950407402065
 30
0.0
  0
POINT
  5
36BC
330
7D0
100
AcDbEntity
  8
DEFPOINTS
 62
     0
100
AcDbPoint
 10
182.1717820391369
 20
88.29504074020633
 30
0.0
  0
POINT
  5
36BD
330
7D0
100
AcDbEntity
  8
DEFPOINTS
 62
     0
100
AcDbPoint
 10
149.9639313235095
 20
88.29504074020633
 30
0.0
  0
ENDBLK
  5
7DB
330
7D0
100
AcDbEntity
  8
0
100
AcDbBlockEnd
  0
BLOCK
  5
7F2
330
7E6
100
AcDbEntity
  8
0
100
AcDbBlockBegin
  2
*D2
 70
     1
 10
0.0
 20
0.0
 30
0.0
  3
*D2
  1

  0
LINE
  5
3CB1
330
7E6
100
AcDbEntity
  8
SUNPOU
100
AcDbLine
 10
165.3804920913883
 20
246.8744783500484
 30
0.0
 11
165.3804920913883
 21
245.8744783500484
 31
0.0
  0
LINE
  5
3CB2
330
7E6
100
AcDbEntity
  8
SUNPOU
100
AcDbLine
 10
168.3804920913883
 20
268.2950407402064
 30
0.0
 11
168.3804920913883
 21
241.8744783500484
 31
0.0
  0
LINE
  5
3CB3
330
7E6
100
AcDbEntity
  8
SUNPOU
100
AcDbLine
 10
160.3804920913884
 20
243.8744783500484
 30
0.0
 11
155.3804920913884
 21
243.8744783500484
 31
0.0
  0
LINE
  5
3CB4
330
7E6
100
AcDbEntity
  8
SUNPOU
100
AcDbLine
 10
168.3804920913883
 20
243.8744783500484
 30
0.0
 11
173.3804920913883
 21
243.8744783500484
 31
0.0
  0
MTEXT
  5
3CB5
330
7E6
100
AcDbEntity
  8
SUNPOU
 62
     6
100
AcDbMText
 10
161.5581119947766
 20
249.0308516016973
 30
0.0
 40
5.0
 41
0.0
 71
     5
 72
     1
  1
\A1;3
  7
SUNPOU
1001
ACAD
1000
MTEXTBEGIN
1070
    73
1070
     1
1070
    44
1040
1.0
1070
    74
1070
     0
1000
MTEXTEND
1000
MTEXTBEGIN
1070
    73
1070
     1
1070
    44
1040
1.0
1070
    74
1070
     0
1000
MTEXTEND
  0
LINE
  5
3CB6
330
7E6
100
AcDbEntity
  8
SUNPOU
100
AcDbLine
 10
165.3804920913883
 20
243.8744783500484
 30
0.0
 11
168.3804920913883
 21
243.8744783500484
 31
0.0
  0
INSERT
  5
3CB7
330
7E6
100
AcDbEntity
  8
SUNPOU
100
AcDbBlockReference
  2
_OPEN30
 10
165.3804920913883
 20
243.8744783500484
 30
0.0
 41
5.0
 42
5.0
 43
5.0
  0
INSERT
  5
3CB8
330
7E6
100
AcDbEntity
  8
SUNPOU
100
AcDbBlockReference
  2
_DOTSMALL
 10
168.3804920913883
 20
243.8744783500484
 30
0.0
 41
5.0
 42
5.0
 43
5.0
 50
180.0
  0
POINT
  5
3CB9
330
7E6
100
AcDbEntity
  8
DEFPOINTS
 62
     0
100
AcDbPoint
 10
165.3804920913883
 20
243.8744783500484
 30
0.0
  0
POINT
  5
3CBA
330
7E6
100
AcDbEntity
  8
DEFPOINTS
 62
     0
100
AcDbPoint
 10
168.3804920913883
 20
271.2950407402065
 30
0.0
  0
POINT
  5
3CBB
330
7E6
100
AcDbEntity
  8
DEFPOINTS
 62
     0
100
AcDbPoint
 10
168.3804920913883
 20
243.8744783500484
 30
0.0
  0
ENDBLK
  5
7F3
330
7E6
100
AcDbEntity
  8
0
100
AcDbBlockEnd
  0
BLOCK
  5
801
330
7F5
100
AcDbEntity
  8
0
100
AcDbBlockBegin
  2
*D3
 70
     1
 10
0.0
 20
0.0
 30
0.0
  3
*D3
  1

  0
LINE
  5
3CBC
330
7F5
100
AcDbEntity
  8
SUNPOU
100
AcDbLine
 10
168.3804920913883
 20
268.2950407402064
 30
0.0
 11
168.3804920913883
 21
241.8744783500484
 31
0.0
  0
LINE
  5
3CBD
330
7F5
100
AcDbEntity
  8
SUNPOU
100
AcDbLine
 10
171.3804920913883
 20
246.8744783500484
 30
0.0
 11
171.3804920913883
 21
245.8744783500484
 31
0.0
  0
LINE
  5
3CBE
330
7F5
100
AcDbEntity
  8
SUNPOU
100
AcDbLine
 10
168.3804920913883
 20
243.8744783500484
 30
0.0
 11
158.3804920913884
 21
243.8744783500484
 31
0.0
  0
LINE
  5
3CBF
330
7F5
100
AcDbEntity
  8
SUNPOU
100
AcDbLine
 10
171.3804920913883
 20
243.8744783500484
 30
0.0
 11
181.3804920913884
 21
243.8744783500484
 31
0.0
  0
MTEXT
  5
3CC0
330
7F5
100
AcDbEntity
  8
SUNPOU
 62
     6
100
AcDbMText
 10
175.2603460899601
 20
248.8424183241209
 30
0.0
 40
5.0
 41
0.0
 71
     5
 72
     1
  1
\A1;3
  7
SUNPOU
1001
ACAD
1000
MTEXTBEGIN
1070
    73
1070
     1
1070
    44
1040
1.0
1070
    74
1070
     0
1000
MTEXTEND
1000
MTEXTBEGIN
1070
    73
1070
     1
1070
    44
1040
1.0
1070
    74
1070
     0
1000
MTEXTEND
  0
LINE
  5
3CC1
330
7F5
100
AcDbEntity
  8
SUNPOU
100
AcDbLine
 10
168.3804920913883
 20
243.8744783500484
 30
0.0
 11
171.3804920913883
 21
243.8744783500484
 31
0.0
  0
INSERT
  5
3CC2
330
7F5
100
AcDbEntity
  8
SUNPOU
100
AcDbBlockReference
  2
_DOTSMALL
 10
168.3804920913883
 20
243.8744783500484
 30
0.0
 41
10.0
 42
10.0
 43
10.0
  0
POINT
  5
3CC3
330
7F5
100
AcDbEntity
  8
DEFPOINTS
 62
     0
100
AcDbPoint
 10
168.3804920913883
 20
271.2950407402065
 30
0.0
  0
POINT
  5
3CC4
330
7F5
100
AcDbEntity
  8
DEFPOINTS
 62
     0
100
AcDbPoint
 10
171.3804920913883
 20
243.8744783500484
 30
0.0
  0
POINT
  5
3CC5
330
7F5
100
AcDbEntity
  8
DEFPOINTS
 62
     0
100
AcDbPoint
 10
171.3804920913883
 20
243.8744783500484
 30
0.0
  0
ENDBLK
  5
802
330
7F5
100
AcDbEntity
  8
0
100
AcDbBlockEnd
  0
BLOCK
  5
80E
330
804
100
AcDbEntity
  8
0
100
AcDbBlockBegin
  2
*D4
 70
     1
 10
0.0
 20
0.0
 30
0.0
  3
*D4
  1

  0
LINE
  5
3710
330
804
100
AcDbEntity
  8
SUNPOU
100
AcDbLine
 10
171.3804920913883
 20
246.8744783500484
 30
0.0
 11
171.3804920913883
 21
245.8744783500484
 31
0.0
  0
LINE
  5
3711
330
804
100
AcDbEntity
  8
SUNPOU
100
AcDbLine
 10
227.3804920913883
 20
246.8744783500484
 30
0.0
 11
227.3804920913883
 21
245.8744783500484
 31
0.0
  0
LINE
  5
3712
330
804
100
AcDbEntity
  8
SUNPOU
100
AcDbLine
 10
176.3804920913884
 20
243.8744783500484
 30
0.0
 11
222.3804920913884
 21
243.8744783500484
 31
0.0
  0
INSERT
  5
3713
330
804
100
AcDbEntity
  8
SUNPOU
100
AcDbBlockReference
  2
_OPEN30
 10
171.3804920913883
 20
243.8744783500484
 30
0.0
 41
5.0
 42
5.0
 43
5.0
 50
180.0
  0
INSERT
  5
3714
330
804
100
AcDbEntity
  8
SUNPOU
100
AcDbBlockReference
  2
_OPEN30
 10
227.3804920913883
 20
243.8744783500484
 30
0.0
 41
5.0
 42
5.0
 43
5.0
  0
MTEXT
  5
3715
330
804
100
AcDbEntity
  8
SUNPOU
 62
     6
100
AcDbMText
 10
199.3804920913883
 20
248.3744783500484
 30
0.0
 40
5.0
 41
0.0
 71
     5
 72
     1
  1
\A1;56
  7
SUNPOU
1001
ACAD
1000
MTEXTBEGIN
1070
    73
1070
     1
1070
    44
1040
1.0
1070
    74
1070
     0
1000
MTEXTEND
1000
MTEXTBEGIN
1070
    73
1070
     1
1070
    44
1040
1.0
1070
    74
1070
     0
1000
MTEXTEND
  0
POINT
  5
3716
330
804
100
AcDbEntity
  8
DEFPOINTS
 62
     0
100
AcDbPoint
 10
171.3804920913883
 20
243.8744783500484
 30
0.0
  0
POINT
  5
3717
330
804
100
AcDbEntity
  8
DEFPOINTS
 62
     0
100
AcDbPoint
 10
227.3804920913883
 20
243.8744783500484
 30
0.0
  0
POINT
  5
3718
330
804
100
AcDbEntity
  8
DEFPOINTS
 62
     0
100
AcDbPoint
 10
227.3804920913883
 20
243.8744783500484
 30
0.0
  0
ENDBLK
  5
80F
330
804
100
AcDbEntity
  8
0
100
AcDbBlockEnd
  0
BLOCK
  5
81D
330
811
100
AcDbEntity
  8
0
100
AcDbBlockBegin
  2
*D5
 70
     1
 10
0.0
 20
0.0
 30
0.0
  3
*D5
  1

  0
LINE
  5
3719
330
811
100
AcDbEntity
  8
SUNPOU
100
AcDbLine
 10
227.3804920913883
 20
246.8744783500484
 30
0.0
 11
227.3804920913883
 21
245.8744783500484
 31
0.0
  0
LINE
  5
371A
330
811
100
AcDbEntity
  8
SUNPOU
100
AcDbLine
 10
232.3804920913883
 20
246.8744783500484
 30
0.0
 11
232.3804920913883
 21
245.8744783500484
 31
0.0
  0
LINE
  5
371B
330
811
100
AcDbEntity
  8
SUNPOU
100
AcDbLine
 10
222.3804920913884
 20
243.8744783500484
 30
0.0
 11
217.3804920913883
 21
243.8744783500484
 31
0.0
  0
LINE
  5
371C
330
811
100
AcDbEntity
  8
SUNPOU
100
AcDbLine
 10
237.3804920913884
 20
243.8744783500484
 30
0.0
 11
242.3804920913883
 21
243.8744783500484
 31
0.0
  0
MTEXT
  5
371D
330
811
100
AcDbEntity
  8
SUNPOU
 62
     6
100
AcDbMText
 10
230.0148758184866
 20
249.5176225670109
 30
0.0
 40
5.0
 41
0.0
 71
     5
 72
     1
  1
\A1;5
  7
SUNPOU
1001
ACAD
1000
MTEXTBEGIN
1070
    73
1070
     1
1070
    44
1040
1.0
1070
    74
1070
     0
1000
MTEXTEND
1000
MTEXTBEGIN
1070
    73
1070
     1
1070
    44
1040
1.0
1070
    74
1070
     0
1000
MTEXTEND
  0
LINE
  5
371E
330
811
100
AcDbEntity
  8
SUNPOU
100
AcDbLine
 10
227.3804920913883
 20
243.8744783500484
 30
0.0
 11
232.3804920913883
 21
243.8744783500484
 31
0.0
  0
INSERT
  5
371F
330
811
100
AcDbEntity
  8
SUNPOU
100
AcDbBlockReference
  2
_OPEN30
 10
227.3804920913883
 20
243.8744783500484
 30
0.0
 41
5.0
 42
5.0
 43
5.0
  0
INSERT
  5
3720
330
811
100
AcDbEntity
  8
SUNPOU
100
AcDbBlockReference
  2
_OPEN30
 10
232.3804920913883
 20
243.8744783500484
 30
0.0
 41
5.0
 42
5.0
 43
5.0
 50
180.0
  0
POINT
  5
3721
330
811
100
AcDbEntity
  8
DEFPOINTS
 62
     0
100
AcDbPoint
 10
227.3804920913883
 20
243.8744783500484
 30
0.0
  0
POINT
  5
3722
330
811
100
AcDbEntity
  8
DEFPOINTS
 62
     0
100
AcDbPoint
 10
232.3804920913883
 20
243.8744783500484
 30
0.0
  0
POINT
  5
3723
330
811
100
AcDbEntity
  8
DEFPOINTS
 62
     0
100
AcDbPoint
 10
232.3804920913883
 20
243.8744783500484
 30
0.0
  0
ENDBLK
  5
81E
330
811
100
AcDbEntity
  8
0
100
AcDbBlockEnd
  0
BLOCK
  5
82A
330
820
100
AcDbEntity
  8
0
100
AcDbBlockBegin
  2
*D6
 70
     1
 10
0.0
 20
0.0
 30
0.0
  3
*D6
  1

  0
LINE
  5
3724
330
820
100
AcDbEntity
  8
SUNPOU
100
AcDbLine
 10
232.3804920913883
 20
246.8744783500484
 30
0.0
 11
232.3804920913883
 21
245.8744783500484
 31
0.0
  0
LINE
  5
3725
330
820
100
AcDbEntity
  8
SUNPOU
100
AcDbLine
 10
260.3804920913884
 20
246.8744783500484
 30
0.0
 11
260.3804920913884
 21
245.8744783500484
 31
0.0
  0
LINE
  5
3726
330
820
100
AcDbEntity
  8
SUNPOU
100
AcDbLine
 10
237.3804920913884
 20
243.8744783500484
 30
0.0
 11
255.3804920913883
 21
243.8744783500484
 31
0.0
  0
INSERT
  5
3727
330
820
100
AcDbEntity
  8
SUNPOU
100
AcDbBlockReference
  2
_OPEN30
 10
232.3804920913883
 20
243.8744783500484
 30
0.0
 41
5.0
 42
5.0
 43
5.0
 50
180.0
  0
INSERT
  5
3728
330
820
100
AcDbEntity
  8
SUNPOU
100
AcDbBlockReference
  2
_OPEN30
 10
260.3804920913884
 20
243.8744783500484
 30
0.0
 41
5.0
 42
5.0
 43
5.0
  0
MTEXT
  5
3729
330
820
100
AcDbEntity
  8
SUNPOU
 62
     6
100
AcDbMText
 10
246.3804920913883
 20
248.3744783500484
 30
0.0
 40
5.0
 41
0.0
 71
     5
 72
     1
  1
\A1;28
  7
SUNPOU
1001
ACAD
1000
MTEXTBEGIN
1070
    73
1070
     1
1070
    44
1040
1.0
1070
    74
1070
     0
1000
MTEXTEND
1000
MTEXTBEGIN
1070
    73
1070
     1
1070
    44
1040
1.0
1070
    74
1070
     0
1000
MTEXTEND
  0
POINT
  5
372A
330
820
100
AcDbEntity
  8
DEFPOINTS
 62
     0
100
AcDbPoint
 10
232.3804920913883
 20
243.8744783500484
 30
0.0
  0
POINT
  5
372B
330
820
100
AcDbEntity
  8
DEFPOINTS
 62
     0
100
AcDbPoint
 10
260.3804920913884
 20
243.8744783500484
 30
0.0
  0
POINT
  5
372C
330
820
100
AcDbEntity
  8
DEFPOINTS
 62
     0
100
AcDbPoint
 10
260.3804920913884
 20
243.8744783500484
 30
0.0
  0
ENDBLK
  5
82B
330
820
100
AcDbEntity
  8
0
100
AcDbBlockEnd
  0
BLOCK
  5
855
330
849
100
AcDbEntity
  8
0
100
AcDbBlockBegin
  2
*D7
 70
     1
 10
0.0
 20
0.0
 30
0.0
  3
*D7
  1

  0
LINE
  5
36E6
330
849
100
AcDbEntity
  8
SUNPOU
100
AcDbLine
 10
260.3804920913884
 20
246.8744783500484
 30
0.0
 11
260.3804920913884
 21
245.8744783500484
 31
0.0
  0
LINE
  5
36E7
330
849
100
AcDbEntity
  8
SUNPOU
100
AcDbLine
 10
265.3804920913882
 20
268.2950407402066
 30
0.0
 11
265.3804920913882
 21
241.8744783500484
 31
0.0
  0
LINE
  5
36E8
330
849
100
AcDbEntity
  8
SUNPOU
100
AcDbLine
 10
255.3804920913883
 20
243.8744783500484
 30
0.0
 11
250.3804920913883
 21
243.8744783500484
 31
0.0
  0
LINE
  5
36E9
330
849
100
AcDbEntity
  8
SUNPOU
100
AcDbLine
 10
270.3804920913883
 20
243.8744783500484
 30
0.0
 11
275.3804920913883
 21
243.8744783500484
 31
0.0
  0
MTEXT
  5
36EA
330
849
100
AcDbEntity
  8
SUNPOU
 62
     6
100
AcDbMText
 10
262.9350777135253
 20
249.6678883529323
 30
0.0
 40
5.0
 41
0.0
 71
     5
 72
     1
  1
\A1;5
  7
SUNPOU
1001
ACAD
1000
MTEXTBEGIN
1070
    73
1070
     1
1070
    44
1040
1.0
1070
    74
1070
     0
1000
MTEXTEND
1000
MTEXTBEGIN
1070
    73
1070
     1
1070
    44
1040
1.0
1070
    74
1070
     0
1000
MTEXTEND
  0
LINE
  5
36EB
330
849
100
AcDbEntity
  8
SUNPOU
100
AcDbLine
 10
260.3804920913884
 20
243.8744783500484
 30
0.0
 11
265.3804920913882
 21
243.8744783500484
 31
0.0
  0
INSERT
  5
36EC
330
849
100
AcDbEntity
  8
SUNPOU
100
AcDbBlockReference
  2
_OPEN30
 10
260.3804920913884
 20
243.8744783500484
 30
0.0
 41
5.0
 42
5.0
 43
5.0
  0
INSERT
  5
36ED
330
849
100
AcDbEntity
  8
SUNPOU
100
AcDbBlockReference
  2
_OPEN30
 10
265.3804920913882
 20
243.8744783500484
 30
0.0
 41
5.0
 42
5.0
 43
5.0
 50
180.0
  0
POINT
  5
36EE
330
849
100
AcDbEntity
  8
DEFPOINTS
 62
     0
100
AcDbPoint
 10
260.3804920913884
 20
243.8744783500484
 30
0.0
  0
POINT
  5
36EF
330
849
100
AcDbEntity
  8
DEFPOINTS
 62
     0
100
AcDbPoint
 10
265.3804920913882
 20
271.2950407402066
 30
0.0
  0
POINT
  5
36F0
330
849
100
AcDbEntity
  8
DEFPOINTS
 62
     0
100
AcDbPoint
 10
265.3804920913882
 20
243.8744783500484
 30
0.0
  0
ENDBLK
  5
856
330
849
100
AcDbEntity
  8
0
100
AcDbBlockEnd
  0
BLOCK
  5
862
330
858
100
AcDbEntity
  8
0
100
AcDbBlockBegin
  2
*D8
 70
     1
 10
0.0
 20
0.0
 30
0.0
  3
*D8
  1

  0
LINE
  5
3767
330
858
100
AcDbEntity
  8
SUNPOU
100
AcDbLine
 10
265.3804920913882
 20
268.2950407402066
 30
0.0
 11
265.3804920913882
 21
241.8744783500484
 31
0.0
  0
LINE
  5
3768
330
858
100
AcDbEntity
  8
SUNPOU
100
AcDbLine
 10
297.3804920913883
 20
268.2950407402066
 30
0.0
 11
297.3804920913883
 21
241.8744783500484
 31
0.0
  0
LINE
  5
3769
330
858
100
AcDbEntity
  8
SUNPOU
100
AcDbLine
 10
270.3804920913883
 20
243.8744783500484
 30
0.0
 11
292.3804920913882
 21
243.8744783500484
 31
0.0
  0
INSERT
  5
376A
330
858
100
AcDbEntity
  8
SUNPOU
100
AcDbBlockReference
  2
_OPEN30
 10
265.3804920913882
 20
243.8744783500484
 30
0.0
 41
5.0
 42
5.0
 43
5.0
 50
180.0
  0
INSERT
  5
376B
330
858
100
AcDbEntity
  8
SUNPOU
100
AcDbBlockReference
  2
_OPEN30
 10
297.3804920913883
 20
243.8744783500484
 30
0.0
 41
5.0
 42
5.0
 43
5.0
  0
MTEXT
  5
376C
330
858
100
AcDbEntity
  8
SUNPOU
 62
     6
100
AcDbMText
 10
281.3804920913884
 20
248.3744783500484
 30
0.0
 40
5.0
 41
0.0
 71
     5
 72
     1
  1
\A1;32
  7
SUNPOU
1001
ACAD
1000
MTEXTBEGIN
1070
    73
1070
     1
1070
    44
1040
1.0
1070
    74
1070
     0
1000
MTEXTEND
1000
MTEXTBEGIN
1070
    73
1070
     1
1070
    44
1040
1.0
1070
    74
1070
     0
1000
MTEXTEND
  0
POINT
  5
376D
330
858
100
AcDbEntity
  8
DEFPOINTS
 62
     0
100
AcDbPoint
 10
265.3804920913882
 20
271.2950407402066
 30
0.0
  0
POINT
  5
376E
330
858
100
AcDbEntity
  8
DEFPOINTS
 62
     0
100
AcDbPoint
 10
297.3804920913883
 20
271.2950407402066
 30
0.0
  0
POINT
  5
376F
330
858
100
AcDbEntity
  8
DEFPOINTS
 62
     0
100
AcDbPoint
 10
297.3804920913883
 20
243.8744783500484
 30
0.0
  0
ENDBLK
  5
863
330
858
100
AcDbEntity
  8
0
100
AcDbBlockEnd
  0
BLOCK
  5
871
330
865
100
AcDbEntity
  8
0
100
AcDbBlockBegin
  2
*D9
 70
     1
 10
0.0
 20
0.0
 30
0.0
  3
*D9
  1

  0
LINE
  5
3751
330
865
100
AcDbEntity
  8
SUNPOU
100
AcDbLine
 10
297.3804920913883
 20
268.2950407402066
 30
0.0
 11
297.3804920913883
 21
241.8744783500484
 31
0.0
  0
LINE
  5
3752
330
865
100
AcDbEntity
  8
SUNPOU
100
AcDbLine
 10
300.3804920913883
 20
246.8744783500484
 30
0.0
 11
300.3804920913883
 21
245.8744783500484
 31
0.0
  0
LINE
  5
3753
330
865
100
AcDbEntity
  8
SUNPOU
100
AcDbLine
 10
292.3804920913882
 20
243.8744783500484
 30
0.0
 11
287.3804920913883
 21
243.8744783500484
 31
0.0
  0
LINE
  5
3754
330
865
100
AcDbEntity
  8
SUNPOU
100
AcDbLine
 10
305.3804920913883
 20
243.8744783500484
 30
0.0
 11
310.3804920913883
 21
243.8744783500484
 31
0.0
  0
MTEXT
  5
3755
330
865
100
AcDbEntity
  8
SUNPOU
 62
     6
100
AcDbMText
 10
303.840855856019
 20
249.3212709579788
 30
0.0
 40
5.0
 41
0.0
 71
     5
 72
     1
  1
\A1;3
  7
SUNPOU
1001
ACAD
1000
MTEXTBEGIN
1070
    73
1070
     1
1070
    44
1040
1.0
1070
    74
1070
     0
1000
MTEXTEND
1000
MTEXTBEGIN
1070
    73
1070
     1
1070
    44
1040
1.0
1070
    74
1070
     0
1000
MTEXTEND
  0
LINE
  5
3756
330
865
100
AcDbEntity
  8
SUNPOU
100
AcDbLine
 10
297.3804920913883
 20
243.8744783500484
 30
0.0
 11
300.3804920913883
 21
243.8744783500484
 31
0.0
  0
INSERT
  5
3757
330
865
100
AcDbEntity
  8
SUNPOU
100
AcDbBlockReference
  2
_OPEN30
 10
297.3804920913883
 20
243.8744783500484
 30
0.0
 41
5.0
 42
5.0
 43
5.0
  0
INSERT
  5
3758
330
865
100
AcDbEntity
  8
SUNPOU
100
AcDbBlockReference
  2
_OPEN30
 10
300.3804920913883
 20
243.8744783500484
 30
0.0
 41
5.0
 42
5.0
 43
5.0
 50
180.0
  0
POINT
  5
3759
330
865
100
AcDbEntity
  8
DEFPOINTS
 62
     0
100
AcDbPoint
 10
297.3804920913883
 20
271.2950407402066
 30
0.0
  0
POINT
  5
375A
330
865
100
AcDbEntity
  8
DEFPOINTS
 62
     0
100
AcDbPoint
 10
300.3804920913883
 20
243.8744783500484
 30
0.0
  0
POINT
  5
375B
330
865
100
AcDbEntity
  8
DEFPOINTS
 62
     0
100
AcDbPoint
 10
300.3804920913883
 20
243.8744783500484
 30
0.0
  0
ENDBLK
  5
872
330
865
100
AcDbEntity
  8
0
100
AcDbBlockEnd
  0
BLOCK
  5
87E
330
874
100
AcDbEntity
  8
0
100
AcDbBlockBegin
  2
*D10
 70
     1
 10
0.0
 20
0.0
 30
0.0
  3
*D10
  1

  0
LINE
  5
36F1
330
874
100
AcDbEntity
  8
SUNPOU
100
AcDbLine
 10
165.3804920913883
 20
230.05549768221
 30
0.0
 11
165.3804920913883
 21
229.05549768221
 31
0.0
  0
LINE
  5
36F2
330
874
100
AcDbEntity
  8
SUNPOU
100
AcDbLine
 10
300.3804920913883
 20
230.05549768221
 30
0.0
 11
300.3804920913883
 21
229.05549768221
 31
0.0
  0
LINE
  5
36F3
330
874
100
AcDbEntity
  8
SUNPOU
100
AcDbLine
 10
170.3804920913883
 20
227.05549768221
 30
0.0
 11
295.3804920913883
 21
227.05549768221
 31
0.0
  0
MTEXT
  5
36F4
330
874
100
AcDbEntity
  8
SUNPOU
 62
     6
100
AcDbMText
 10
246.0284969466095
 20
232.8380965561695
 30
0.0
 40
5.0
 41
0.0
 71
     5
 72
     1
  1
\A1;135
  7
SUNPOU
1001
ACAD
1000
MTEXTBEGIN
1070
    73
1070
     1
1070
    44
1040
1.0
1070
    74
1070
     0
1000
MTEXTEND
1000
MTEXTBEGIN
1070
    73
1070
     1
1070
    44
1040
1.0
1070
    74
1070
     0
1000
MTEXTEND
  0
INSERT
  5
36F5
330
874
100
AcDbEntity
  8
SUNPOU
100
AcDbBlockReference
  2
_OPEN30
 10
165.3804920913883
 20
227.05549768221
 30
0.0
 41
5.0
 42
5.0
 43
5.0
 50
180.0
  0
INSERT
  5
36F6
330
874
100
AcDbEntity
  8
SUNPOU
100
AcDbBlockReference
  2
_OPEN30
 10
300.3804920913883
 20
227.05549768221
 30
0.0
 41
5.0
 42
5.0
 43
5.0
  0
POINT
  5
36F7
330
874
100
AcDbEntity
  8
DEFPOINTS
 62
     0
100
AcDbPoint
 10
165.3804920913883
 20
227.05549768221
 30
0.0
  0
POINT
  5
36F8
330
874
100
AcDbEntity
  8
DEFPOINTS
 62
     0
100
AcDbPoint
 10
300.3804920913883
 20
227.05549768221
 30
0.0
  0
POINT
  5
36F9
330
874
100
AcDbEntity
  8
DEFPOINTS
 62
     0
100
AcDbPoint
 10
300.3804920913883
 20
227.05549768221
 30
0.0
  0
ENDBLK
  5
87F
330
874
100
AcDbEntity
  8
0
100
AcDbBlockEnd
  0
BLOCK
  5
8C6
330
8BC
100
AcDbEntity
  8
0
100
AcDbBlockBegin
  2
*D11
 70
     1
 10
0.0
 20
0.0
 30
0.0
  3
*D11
  1

  0
LINE
  5
3B2D
330
8BC
100
AcDbEntity
  8
SUNPOU
100
AcDbLine
 10
166.9804920913883
 20
269.6950407402064
 30
0.0
 11
147.9639313235095
 21
269.6950407402064
 31
0.0
  0
LINE
  5
3B2E
330
8BC
100
AcDbEntity
  8
SUNPOU
100
AcDbLine
 10
195.7448184511993
 20
329.6950456799046
 30
0.0
 11
147.9639313235095
 21
329.6950456799046
 31
0.0
  0
LINE
  5
3B2F
330
8BC
100
AcDbEntity
  8
SUNPOU
100
AcDbLine
 10
149.9639313235095
 20
274.6950407402064
 30
0.0
 11
149.9639313235095
 21
324.6950456799046
 31
0.0
  0
INSERT
  5
3B30
330
8BC
100
AcDbEntity
  8
SUNPOU
100
AcDbBlockReference
  2
_OPEN30
 10
149.9639313235095
 20
269.6950407402064
 30
0.0
 41
5.0
 42
5.0
 43
5.0
 50
270.0
  0
INSERT
  5
3B31
330
8BC
100
AcDbEntity
  8
SUNPOU
100
AcDbBlockReference
  2
_OPEN30
 10
149.9639313235095
 20
329.6950456799046
 30
0.0
 41
5.0
 42
5.0
 43
5.0
 50
90.0
  0
MTEXT
  5
3B32
330
8BC
100
AcDbEntity
  8
SUNPOU
 62
     6
100
AcDbMText
 10
145.4639313235094
 20
299.6950432100556
 30
0.0
 40
5.0
 41
0.0
 71
     5
 72
     1
  1
\A1;60
  7
SUNPOU
 11
0.0000000000000001
 21
1.0
 31
0.0
1001
ACAD
1000
MTEXTBEGIN
1070
    73
1070
     1
1070
    44
1040
1.0
1070
    74
1070
     0
1000
MTEXTEND
1000
MTEXTBEGIN
1070
    73
1070
     1
1070
    44
1040
1.0
1070
    74
1070
     0
1000
MTEXTEND
  0
POINT
  5
3B33
330
8BC
100
AcDbEntity
  8
DEFPOINTS
 62
     0
100
AcDbPoint
 10
169.9804920913883
 20
269.6950407402064
 30
0.0
  0
POINT
  5
3B34
330
8BC
100
AcDbEntity
  8
DEFPOINTS
 62
     0
100
AcDbPoint
 10
198.7448184511993
 20
329.6950456799046
 30
0.0
  0
POINT
  5
3B35
330
8BC
100
AcDbEntity
  8
DEFPOINTS
 62
     0
100
AcDbPoint
 10
149.9639313235095
 20
329.6950456799046
 30
0.0
  0
ENDBLK
  5
8C7
330
8BC
100
AcDbEntity
  8
0
100
AcDbBlockEnd
  0
BLOCK
  5
8D3
330
8C9
100
AcDbEntity
  8
0
100
AcDbBlockBegin
  2
*D12
 70
     1
 10
0.0
 20
0.0
 30
0.0
  3
*D12
  1

  0
LINE
  5
3C09
330
8C9
100
AcDbEntity
  8
SUNPOU
100
AcDbLine
 10
195.7448184511991
 20
329.6950456799046
 30
0.0
 11
147.9639313235095
 21
329.6950456799046
 31
0.0
  0
LINE
  5
3C0A
330
8C9
100
AcDbEntity
  8
SUNPOU
100
AcDbLine
 10
172.134838854956
 20
394.6950500657306
 30
0.0
 11
147.9639313235095
 21
394.6950500657306
 31
0.0
  0
LINE
  5
3C0B
330
8C9
100
AcDbEntity
  8
SUNPOU
100
AcDbLine
 10
149.9639313235095
 20
334.6950456799046
 30
0.0
 11
149.9639313235095
 21
389.6950500657305
 31
0.0
  0
MTEXT
  5
3C0C
330
8C9
100
AcDbEntity
  8
SUNPOU
 62
     6
100
AcDbMText
 10
145.3826517670331
 20
359.594364914212
 30
0.0
 40
5.0
 41
0.0
 71
     5
 72
     1
  1
\A1;65
  7
SUNPOU
 11
0.0000000000000001
 21
1.0
 31
0.0
1001
ACAD
1000
MTEXTBEGIN
1070
    73
1070
     1
1070
    44
1040
1.0
1070
    74
1070
     0
1000
MTEXTEND
1000
MTEXTBEGIN
1070
    73
1070
     1
1070
    44
1040
1.0
1070
    74
1070
     0
1000
MTEXTEND
  0
INSERT
  5
3C0D
330
8C9
100
AcDbEntity
  8
SUNPOU
100
AcDbBlockReference
  2
_OPEN30
 10
149.9639313235095
 20
329.6950456799046
 30
0.0
 41
5.0
 42
5.0
 43
5.0
 50
270.0
  0
INSERT
  5
3C0E
330
8C9
100
AcDbEntity
  8
SUNPOU
100
AcDbBlockReference
  2
_OPEN30
 10
149.9639313235095
 20
394.6950500657306
 30
0.0
 41
5.0
 42
5.0
 43
5.0
 50
90.0
  0
POINT
  5
3C0F
330
8C9
100
AcDbEntity
  8
DEFPOINTS
 62
     0
100
AcDbPoint
 10
198.7448184511992
 20
329.6950456799046
 30
0.0
  0
POINT
  5
3C10
330
8C9
100
AcDbEntity
  8
DEFPOINTS
 62
     0
100
AcDbPoint
 10
175.134838854956
 20
394.6950500657306
 30
0.0
  0
POINT
  5
3C11
330
8C9
100
AcDbEntity
  8
DEFPOINTS
 62
     0
100
AcDbPoint
 10
149.9639313235095
 20
394.6950500657306
 30
0.0
  0
ENDBLK
  5
8D4
330
8C9
100
AcDbEntity
  8
0
100
AcDbBlockEnd
  0
BLOCK
  5
8ED
330
8E3
100
AcDbEntity
  8
0
100
AcDbBlockBegin
  2
*D13
 70
     1
 10
0.0
 20
0.0
 30
0.0
  3
*D13
  1

  0
LINE
  5
3BE5
330
8E3
100
AcDbEntity
  8
SUNPOU
100
AcDbLine
 10
166.9804920913883
 20
269.6950407402064
 30
0.0
 11
133.4291199134783
 21
269.6950407402064
 31
0.0
  0
LINE
  5
3BE6
330
8E3
100
AcDbEntity
  8
SUNPOU
100
AcDbLine
 10
172.7712704273485
 20
421.1950407402065
 30
0.0
 11
133.4291199134784
 21
421.1950407402065
 31
0.0
  0
LINE
  5
3BE7
330
8E3
100
AcDbEntity
  8
SUNPOU
100
AcDbLine
 10
135.4291199134783
 20
274.6950407402064
 30
0.0
 11
135.4291199134784
 21
416.1950407402065
 31
0.0
  0
MTEXT
  5
3BE8
330
8E3
100
AcDbEntity
  8
SUNPOU
 62
     6
100
AcDbMText
 10
130.9291199134783
 20
337.939328769256
 30
0.0
 40
5.0
 41
0.0
 71
     5
 72
     1
  1
\A1;151.5
  7
SUNPOU
 11
0.0000000000000001
 21
1.0
 31
0.0
1001
ACAD
1000
MTEXTBEGIN
1070
    73
1070
     1
1070
    44
1040
1.0
1070
    74
1070
     0
1000
MTEXTEND
1000
MTEXTBEGIN
1070
    73
1070
     1
1070
    44
1040
1.0
1070
    74
1070
     0
1000
MTEXTEND
  0
INSERT
  5
3BE9
330
8E3
100
AcDbEntity
  8
SUNPOU
100
AcDbBlockReference
  2
_OPEN30
 10
135.4291199134783
 20
269.6950407402064
 30
0.0
 41
5.0
 42
5.0
 43
5.0
 50
270.0
  0
INSERT
  5
3BEA
330
8E3
100
AcDbEntity
  8
SUNPOU
100
AcDbBlockReference
  2
_OPEN30
 10
135.4291199134784
 20
421.1950407402065
 30
0.0
 41
5.0
 42
5.0
 43
5.0
 50
90.0
  0
POINT
  5
3BEB
330
8E3
100
AcDbEntity
  8
DEFPOINTS
 62
     0
100
AcDbPoint
 10
169.9804920913883
 20
269.6950407402064
 30
0.0
  0
POINT
  5
3BEC
330
8E3
100
AcDbEntity
  8
DEFPOINTS
 62
     0
100
AcDbPoint
 10
175.7712704273485
 20
421.1950407402065
 30
0.0
  0
POINT
  5
3BED
330
8E3
100
AcDbEntity
  8
DEFPOINTS
 62
     0
100
AcDbPoint
 10
135.4291199134784
 20
421.1950407402065
 30
0.0
  0
ENDBLK
  5
8EE
330
8E3
100
AcDbEntity
  8
0
100
AcDbBlockEnd
  0
BLOCK
  5
8FA
330
8F0
100
AcDbEntity
  8
0
100
AcDbBlockBegin
  2
*D14
 70
     1
 10
0.0
 20
0.0
 30
0.0
  3
*D14
  1

  0
LINE
  5
3B12
330
8F0
100
AcDbEntity
  8
SUNPOU
100
AcDbLine
 10
168.3804920913883
 20
361.9741169774087
 30
0.0
 11
168.3804920913883
 21
359.3455964207021
 31
0.0
  0
LINE
  5
3B13
330
8F0
100
AcDbEntity
  8
SUNPOU
100
AcDbLine
 10
190.3804920913883
 20
364.3455964207021
 30
0.0
 11
190.3804920913883
 21
363.3455964207021
 31
0.0
  0
LINE
  5
3B14
330
8F0
100
AcDbEntity
  8
SUNPOU
100
AcDbLine
 10
173.3804920913883
 20
361.3455964207021
 30
0.0
 11
185.3804920913884
 21
361.3455964207021
 31
0.0
  0
MTEXT
  5
3B15
330
8F0
100
AcDbEntity
  8
SUNPOU
 62
     6
100
AcDbMText
 10
179.2616738176259
 20
366.9243406446627
 30
0.0
 40
5.0
 41
0.0
 71
     5
 72
     1
  1
\A1;22
  7
SUNPOU
1001
ACAD
1000
MTEXTBEGIN
1070
    73
1070
     1
1070
    44
1040
1.0
1070
    74
1070
     0
1000
MTEXTEND
1000
MTEXTBEGIN
1070
    73
1070
     1
1070
    44
1040
1.0
1070
    74
1070
     0
1000
MTEXTEND
  0
INSERT
  5
3B16
330
8F0
100
AcDbEntity
  8
SUNPOU
100
AcDbBlockReference
  2
_OPEN30
 10
168.3804920913883
 20
361.3455964207021
 30
0.0
 41
5.0
 42
5.0
 43
5.0
 50
180.0
  0
INSERT
  5
3B17
330
8F0
100
AcDbEntity
  8
SUNPOU
100
AcDbBlockReference
  2
_OPEN30
 10
190.3804920913883
 20
361.3455964207021
 30
0.0
 41
5.0
 42
5.0
 43
5.0
  0
POINT
  5
3B18
330
8F0
100
AcDbEntity
  8
DEFPOINTS
 62
     0
100
AcDbPoint
 10
168.3804920913883
 20
364.9741169774088
 30
0.0
  0
POINT
  5
3B19
330
8F0
100
AcDbEntity
  8
DEFPOINTS
 62
     0
100
AcDbPoint
 10
190.3804920913883
 20
361.3455964207021
 30
0.0
  0
POINT
  5
3B1A
330
8F0
100
AcDbEntity
  8
DEFPOINTS
 62
     0
100
AcDbPoint
 10
190.3804920913883
 20
361.3455964207021
 30
0.0
  0
ENDBLK
  5
8FB
330
8F0
100
AcDbEntity
  8
0
100
AcDbBlockEnd
  0
BLOCK
  5
907
330
8FD
100
AcDbEntity
  8
0
100
AcDbBlockBegin
  2
*D15
 70
     1
 10
0.0
 20
0.0
 30
0.0
  3
*D15
  1

  0
LINE
  5
3B09
330
8FD
100
AcDbEntity
  8
SUNPOU
100
AcDbLine
 10
190.3804920913883
 20
358.9741169774088
 30
0.0
 11
190.3804920913883
 21
359.3455964207021
 31
0.0
  0
LINE
  5
3B0A
330
8FD
100
AcDbEntity
  8
SUNPOU
100
AcDbLine
 10
219.3804920913883
 20
364.3455964207021
 30
0.0
 11
219.3804920913883
 21
363.3455964207021
 31
0.0
  0
LINE
  5
3B0B
330
8FD
100
AcDbEntity
  8
SUNPOU
100
AcDbLine
 10
195.3804920913883
 20
361.3455964207021
 30
0.0
 11
214.3804920913884
 21
361.3455964207021
 31
0.0
  0
MTEXT
  5
3B0C
330
8FD
100
AcDbEntity
  8
SUNPOU
 62
     6
100
AcDbMText
 10
204.8627274511539
 20
367.0075835213806
 30
0.0
 40
5.0
 41
0.0
 71
     5
 72
     1
  1
\A1;29
  7
SUNPOU
1001
ACAD
1000
MTEXTBEGIN
1070
    73
1070
     1
1070
    44
1040
1.0
1070
    74
1070
     0
1000
MTEXTEND
1000
MTEXTBEGIN
1070
    73
1070
     1
1070
    44
1040
1.0
1070
    74
1070
     0
1000
MTEXTEND
  0
INSERT
  5
3B0D
330
8FD
100
AcDbEntity
  8
SUNPOU
100
AcDbBlockReference
  2
_OPEN30
 10
190.3804920913883
 20
361.3455964207021
 30
0.0
 41
5.0
 42
5.0
 43
5.0
 50
180.0
  0
INSERT
  5
3B0E
330
8FD
100
AcDbEntity
  8
SUNPOU
100
AcDbBlockReference
  2
_OPEN30
 10
219.3804920913883
 20
361.3455964207021
 30
0.0
 41
5.0
 42
5.0
 43
5.0
  0
POINT
  5
3B0F
330
8FD
100
AcDbEntity
  8
DEFPOINTS
 62
     0
100
AcDbPoint
 10
190.3804920913883
 20
361.9741169774087
 30
0.0
  0
POINT
  5
3B10
330
8FD
100
AcDbEntity
  8
DEFPOINTS
 62
     0
100
AcDbPoint
 10
219.3804920913883
 20
361.3455964207021
 30
0.0
  0
POINT
  5
3B11
330
8FD
100
AcDbEntity
  8
DEFPOINTS
 62
     0
100
AcDbPoint
 10
219.3804920913883
 20
361.3455964207021
 30
0.0
  0
ENDBLK
  5
908
330
8FD
100
AcDbEntity
  8
0
100
AcDbBlockEnd
  0
BLOCK
  5
91F
330
917
100
AcDbEntity
  8
0
100
AcDbBlockBegin
  2
*D16
 70
     1
 10
0.0
 20
0.0
 30
0.0
  3
*D16
  1

  0
LINE
  5
3976
330
917
100
AcDbEntity
  8
SUNPOU
100
AcDbLine
 10
254.1449600597093
 20
426.3995260400868
 30
0.0
 11
258.7859452415961
 21
428.2599712936501
 31
0.0
  0
LINE
  5
3977
330
917
100
AcDbEntity
  8
SUNPOU
100
AcDbLine
 10
217.0170786046138
 20
411.5159640115808
 30
0.0
 11
212.376093422727
 21
409.6555187580174
 31
0.0
  0
MTEXT
  5
3978
330
917
100
AcDbEntity
  8
SUNPOU
 62
     6
100
AcDbMText
 10
234.4229852076308
 20
418.5425758799766
 30
0.0
 40
5.0
 41
0.0
 71
     5
 72
     1
  1
\A1;φ30通線穴\P(両端)
  7
SUNPOU
 11
0.928197036377384
 21
0.3720890507126502
 31
0.0
1001
ACAD
1000
MTEXTBEGIN
1070
    73
1070
     1
1070
    44
1040
1.0
1070
    74
1070
     0
1000
MTEXTEND
1000
MTEXTBEGIN
1070
    73
1070
     1
1070
    44
1040
1.0
1070
    74
1070
     0
1000
MTEXTEND
  0
LINE
  5
3979
330
917
100
AcDbEntity
  8
SUNPOU
100
AcDbLine
 10
249.5039748778223
 20
424.5390807865235
 30
0.0
 11
221.6580637865007
 21
413.3764092651441
 31
0.0
  0
INSERT
  5
397A
330
917
100
AcDbEntity
  8
SUNPOU
100
AcDbBlockReference
  2
_OPEN30
 10
249.5039748778223
 20
424.5390807865235
 30
0.0
 41
5.0
 42
5.0
 43
5.0
 50
201.8445122682678
  0
INSERT
  5
397B
330
917
100
AcDbEntity
  8
SUNPOU
100
AcDbBlockReference
  2
_OPEN30
 10
221.6580637865007
 20
413.3764092651441
 30
0.0
 41
5.0
 42
5.0
 43
5.0
 50
21.84451226826789
  0
POINT
  5
397C
330
917
100
AcDbEntity
  8
DEFPOINTS
 62
     0
100
AcDbPoint
 10
221.6580637865007
 20
413.3764092651441
 30
0.0
  0
POINT
  5
397D
330
917
100
AcDbEntity
  8
DEFPOINTS
 62
     0
100
AcDbPoint
 10
249.5039748778223
 20
424.5390807865235
 30
0.0
  0
ENDBLK
  5
920
330
917
100
AcDbEntity
  8
0
100
AcDbBlockEnd
  0
BLOCK
  5
93A
330
930
100
AcDbEntity
  8
0
100
AcDbBlockBegin
  2
*D17
 70
     1
 10
0.0
 20
0.0
 30
0.0
  3
*D17
  1

  0
LINE
  5
37B4
330
930
100
AcDbEntity
  8
SUNPOU
100
AcDbLine
 10
190.3804920913883
 20
463.3479814962278
 30
0.0
 11
190.3804920913883
 21
462.3479814962278
 31
0.0
  0
LINE
  5
37B5
330
930
100
AcDbEntity
  8
SUNPOU
100
AcDbLine
 10
279.851656636173
 20
450.1949467041563
 30
0.0
 11
279.851656636173
 21
462.3479814962278
 31
0.0
  0
LINE
  5
37B6
330
930
100
AcDbEntity
  8
SUNPOU
100
AcDbLine
 10
195.3804920913883
 20
460.3479814962279
 30
0.0
 11
274.8516566361729
 21
460.3479814962279
 31
0.0
  0
INSERT
  5
37B7
330
930
100
AcDbEntity
  8
SUNPOU
100
AcDbBlockReference
  2
_OPEN30
 10
190.3804920913883
 20
460.3479814962279
 30
0.0
 41
5.0
 42
5.0
 43
5.0
 50
180.0
  0
INSERT
  5
37B8
330
930
100
AcDbEntity
  8
SUNPOU
100
AcDbBlockReference
  2
_OPEN30
 10
279.851656636173
 20
460.3479814962279
 30
0.0
 41
5.0
 42
5.0
 43
5.0
  0
MTEXT
  5
37B9
330
930
100
AcDbEntity
  8
SUNPOU
 62
     6
100
AcDbMText
 10
235.1160743637807
 20
464.8479814962279
 30
0.0
 40
5.0
 41
0.0
 71
     5
 72
     1
  1
\A1;Ａ
  7
SUNPOU
1001
ACAD
1000
MTEXTBEGIN
1070
    73
1070
     1
1070
    44
1040
1.0
1070
    74
1070
     0
1000
MTEXTEND
1000
MTEXTBEGIN
1070
    73
1070
     1
1070
    44
1040
1.0
1070
    74
1070
     0
1000
MTEXTEND
  0
POINT
  5
37BA
330
930
100
AcDbEntity
  8
DEFPOINTS
 62
     0
100
AcDbPoint
 10
190.3804920913883
 20
460.3479814962279
 30
0.0
  0
POINT
  5
37BB
330
930
100
AcDbEntity
  8
DEFPOINTS
 62
     0
100
AcDbPoint
 10
279.851656636173
 20
447.1949467041563
 30
0.0
  0
POINT
  5
37BC
330
930
100
AcDbEntity
  8
DEFPOINTS
 62
     0
100
AcDbPoint
 10
279.851656636173
 20
460.3479814962279
 30
0.0
  0
ENDBLK
  5
93B
330
930
100
AcDbEntity
  8
0
100
AcDbBlockEnd
  0
BLOCK
  5
949
330
93D
100
AcDbEntity
  8
0
100
AcDbBlockBegin
  2
*D18
 70
     1
 10
0.0
 20
0.0
 30
0.0
  3
*D18
  1

  0
LINE
  5
375C
330
93D
100
AcDbEntity
  8
SUNPOU
100
AcDbLine
 10
269.8804920913884
 20
279.6950407402066
 30
0.0
 11
323.5112883601459
 21
279.6950407402066
 31
0.0
  0
LINE
  5
375D
330
93D
100
AcDbEntity
  8
SUNPOU
100
AcDbLine
 10
298.7804920913883
 20
269.6950407402066
 30
0.0
 11
323.5112883601459
 21
269.6950407402066
 31
0.0
  0
LINE
  5
375E
330
93D
100
AcDbEntity
  8
SUNPOU
100
AcDbLine
 10
321.5112883601459
 20
284.6950407402065
 30
0.0
 11
321.5112883601459
 21
289.6950407402063
 31
0.0
  0
LINE
  5
375F
330
93D
100
AcDbEntity
  8
SUNPOU
100
AcDbLine
 10
321.5112883601459
 20
264.6950407402064
 30
0.0
 11
321.5112883601459
 21
259.6950407402065
 31
0.0
  0
LINE
  5
3760
330
93D
100
AcDbEntity
  8
SUNPOU
100
AcDbLine
 10
321.5112883601459
 20
279.6950407402066
 30
0.0
 11
321.5112883601459
 21
269.6950407402066
 31
0.0
  0
INSERT
  5
3761
330
93D
100
AcDbEntity
  8
SUNPOU
100
AcDbBlockReference
  2
_OPEN30
 10
321.5112883601459
 20
279.6950407402066
 30
0.0
 41
5.0
 42
5.0
 43
5.0
 50
270.0
  0
INSERT
  5
3762
330
93D
100
AcDbEntity
  8
SUNPOU
100
AcDbBlockReference
  2
_OPEN30
 10
321.5112883601459
 20
269.6950407402066
 30
0.0
 41
5.0
 42
5.0
 43
5.0
 50
90.0
  0
MTEXT
  5
3763
330
93D
100
AcDbEntity
  8
SUNPOU
 62
     6
100
AcDbMText
 10
317.0112883601459
 20
274.6950407402064
 30
0.0
 40
5.0
 41
0.0
 71
     5
 72
     1
  1
\A1;10
  7
SUNPOU
 11
0.0000000000000001
 21
1.0
 31
0.0
1001
ACAD
1000
MTEXTBEGIN
1070
    73
1070
     1
1070
    44
1040
1.0
1070
    74
1070
     0
1000
MTEXTEND
1000
MTEXTBEGIN
1070
    73
1070
     1
1070
    44
1040
1.0
1070
    74
1070
     0
1000
MTEXTEND
  0
POINT
  5
3764
330
93D
100
AcDbEntity
  8
DEFPOINTS
 62
     0
100
AcDbPoint
 10
266.8804920913884
 20
279.6950407402066
 30
0.0
  0
POINT
  5
3765
330
93D
100
AcDbEntity
  8
DEFPOINTS
 62
     0
100
AcDbPoint
 10
295.7804920913883
 20
269.6950407402066
 30
0.0
  0
POINT
  5
3766
330
93D
100
AcDbEntity
  8
DEFPOINTS
 62
     0
100
AcDbPoint
 10
321.5112883601459
 20
269.6950407402066
 30
0.0
  0
ENDBLK
  5
94A
330
93D
100
AcDbEntity
  8
0
100
AcDbBlockEnd
  0
BLOCK
  5
956
330
94C
100
AcDbEntity
  8
0
100
AcDbBlockBegin
  2
*D19
 70
     1
 10
0.0
 20
0.0
 30
0.0
  3
*D19
  1

  0
LINE
  5
36A3
330
94C
100
AcDbEntity
  8
SUNPOU
100
AcDbLine
 10
269.8804920913884
 20
279.6950407402066
 30
0.0
 11
336.1357847776126
 21
279.6950407402066
 31
0.0
  0
LINE
  5
36A4
330
94C
100
AcDbEntity
  8
SUNPOU
100
AcDbLine
 10
263.3804920913884
 20
98.29504074020649
 30
0.0
 11
336.1357847776125
 21
98.29504074020649
 31
0.0
  0
LINE
  5
36A5
330
94C
100
AcDbEntity
  8
SUNPOU
100
AcDbLine
 10
334.1357847776126
 20
274.6950407402064
 30
0.0
 11
334.1357847776125
 21
103.2950407402064
 31
0.0
  0
INSERT
  5
36A6
330
94C
100
AcDbEntity
  8
SUNPOU
100
AcDbBlockReference
  2
_OPEN30
 10
334.1357847776126
 20
279.6950407402066
 30
0.0
 41
5.0
 42
5.0
 43
5.0
 50
90.0
  0
INSERT
  5
36A7
330
94C
100
AcDbEntity
  8
SUNPOU
100
AcDbBlockReference
  2
_OPEN30
 10
334.1357847776125
 20
98.29504074020649
 30
0.0
 41
5.0
 42
5.0
 43
5.0
 50
270.0
  0
MTEXT
  5
36A8
330
94C
100
AcDbEntity
  8
SUNPOU
 62
     6
100
AcDbMText
 10
329.6357847776125
 20
188.9950407402064
 30
0.0
 40
5.0
 41
0.0
 71
     5
 72
     1
  1
\A1;DH
  7
SUNPOU
 11
0.0000000000000001
 21
1.0
 31
0.0
1001
ACAD
1000
MTEXTBEGIN
1070
    73
1070
     1
1070
    44
1040
1.0
1070
    74
1070
     0
1000
MTEXTEND
1000
MTEXTBEGIN
1070
    73
1070
     1
1070
    44
1040
1.0
1070
    74
1070
     0
1000
MTEXTEND
  0
POINT
  5
36A9
330
94C
100
AcDbEntity
  8
DEFPOINTS
 62
     0
100
AcDbPoint
 10
266.8804920913884
 20
279.6950407402066
 30
0.0
  0
POINT
  5
36AA
330
94C
100
AcDbEntity
  8
DEFPOINTS
 62
     0
100
AcDbPoint
 10
260.3804920913884
 20
98.29504074020649
 30
0.0
  0
POINT
  5
36AB
330
94C
100
AcDbEntity
  8
DEFPOINTS
 62
     0
100
AcDbPoint
 10
334.1357847776125
 20
98.29504074020649
 30
0.0
  0
ENDBLK
  5
957
330
94C
100
AcDbEntity
  8
0
100
AcDbBlockEnd
  0
BLOCK
  5
965
330
959
100
AcDbEntity
  8
0
100
AcDbBlockBegin
  2
*D20
 70
     1
 10
0.0
 20
0.0
 30
0.0
  3
*D20
  1

  0
LINE
  5
36BE
330
959
100
AcDbEntity
  8
SUNPOU
100
AcDbLine
 10
263.3804920913884
 20
98.29504074020649
 30
0.0
 11
336.1357847776125
 21
98.29504074020649
 31
0.0
  0
LINE
  5
36BF
330
959
100
AcDbEntity
  8
SUNPOU
100
AcDbLine
 10
331.1357847776125
 20
88.2950407402065
 30
0.0
 11
332.1357847776125
 21
88.2950407402065
 31
0.0
  0
LINE
  5
36C0
330
959
100
AcDbEntity
  8
SUNPOU
100
AcDbLine
 10
334.1357847776125
 20
103.2950407402064
 30
0.0
 11
334.1357847776125
 21
108.2950407402064
 31
0.0
  0
LINE
  5
36C1
330
959
100
AcDbEntity
  8
SUNPOU
100
AcDbLine
 10
334.1357847776125
 20
83.2950407402065
 30
0.0
 11
334.1357847776125
 21
78.2950407402065
 31
0.0
  0
LINE
  5
36C2
330
959
100
AcDbEntity
  8
SUNPOU
100
AcDbLine
 10
334.1357847776125
 20
98.29504074020649
 30
0.0
 11
334.1357847776125
 21
88.2950407402065
 31
0.0
  0
INSERT
  5
36C3
330
959
100
AcDbEntity
  8
SUNPOU
100
AcDbBlockReference
  2
_OPEN30
 10
334.1357847776125
 20
98.29504074020649
 30
0.0
 41
5.0
 42
5.0
 43
5.0
 50
270.0
  0
INSERT
  5
36C4
330
959
100
AcDbEntity
  8
SUNPOU
100
AcDbBlockReference
  2
_OPEN30
 10
334.1357847776125
 20
88.2950407402065
 30
0.0
 41
5.0
 42
5.0
 43
5.0
 50
90.0
  0
MTEXT
  5
36C5
330
959
100
AcDbEntity
  8
SUNPOU
 62
     6
100
AcDbMText
 10
329.6357847776125
 20
93.29504074020654
 30
0.0
 40
5.0
 41
0.0
 71
     5
 72
     1
  1
\A1;10
  7
SUNPOU
 11
0.0000000000000001
 21
1.0
 31
0.0
1001
ACAD
1000
MTEXTBEGIN
1070
    73
1070
     1
1070
    44
1040
1.0
1070
    74
1070
     0
1000
MTEXTEND
1000
MTEXTBEGIN
1070
    73
1070
     1
1070
    44
1040
1.0
1070
    74
1070
     0
1000
MTEXTEND
  0
POINT
  5
36C6
330
959
100
AcDbEntity
  8
DEFPOINTS
 62
     0
100
AcDbPoint
 10
260.3804920913884
 20
98.29504074020649
 30
0.0
  0
POINT
  5
36C7
330
959
100
AcDbEntity
  8
DEFPOINTS
 62
     0
100
AcDbPoint
 10
334.1357847776125
 20
88.2950407402065
 30
0.0
  0
POINT
  5
36C8
330
959
100
AcDbEntity
  8
DEFPOINTS
 62
     0
100
AcDbPoint
 10
334.1357847776125
 20
88.2950407402065
 30
0.0
  0
ENDBLK
  5
966
330
959
100
AcDbEntity
  8
0
100
AcDbBlockEnd
  0
BLOCK
  5
972
330
968
100
AcDbEntity
  8
0
100
AcDbBlockBegin
  2
*D21
 70
     1
 10
0.0
 20
0.0
 30
0.0
  3
*D21
  1

  0
LINE
  5
36AC
330
968
100
AcDbEntity
  8
SUNPOU
100
AcDbLine
 10
298.7804920913883
 20
269.6950407402066
 30
0.0
 11
354.3163444639718
 21
269.6950407402066
 31
0.0
  0
LINE
  5
36AD
330
968
100
AcDbEntity
  8
SUNPOU
100
AcDbLine
 10
349.3163444639717
 20
88.2950407402065
 30
0.0
 11
350.3163444639718
 21
88.2950407402065
 31
0.0
  0
LINE
  5
36AE
330
968
100
AcDbEntity
  8
SUNPOU
100
AcDbLine
 10
352.3163444639718
 20
264.6950407402064
 30
0.0
 11
352.3163444639718
 21
93.2950407402065
 31
0.0
  0
INSERT
  5
36AF
330
968
100
AcDbEntity
  8
SUNPOU
100
AcDbBlockReference
  2
_OPEN30
 10
352.3163444639718
 20
269.6950407402066
 30
0.0
 41
5.0
 42
5.0
 43
5.0
 50
90.0
  0
INSERT
  5
36B0
330
968
100
AcDbEntity
  8
SUNPOU
100
AcDbBlockReference
  2
_OPEN30
 10
352.3163444639718
 20
88.2950407402065
 30
0.0
 41
5.0
 42
5.0
 43
5.0
 50
270.0
  0
MTEXT
  5
36B1
330
968
100
AcDbEntity
  8
SUNPOU
 62
     6
100
AcDbMText
 10
347.8163444639718
 20
178.9950407402064
 30
0.0
 40
5.0
 41
0.0
 71
     5
 72
     1
  1
\A1;H
  7
SUNPOU
 11
0.0000000000000001
 21
1.0
 31
0.0
1001
ACAD
1000
MTEXTBEGIN
1070
    73
1070
     1
1070
    44
1040
1.0
1070
    74
1070
     0
1000
MTEXTEND
1000
MTEXTBEGIN
1070
    73
1070
     1
1070
    44
1040
1.0
1070
    74
1070
     0
1000
MTEXTEND
  0
POINT
  5
36B2
330
968
100
AcDbEntity
  8
DEFPOINTS
 62
     0
100
AcDbPoint
 10
295.7804920913883
 20
269.6950407402066
 30
0.0
  0
POINT
  5
36B3
330
968
100
AcDbEntity
  8
DEFPOINTS
 62
     0
100
AcDbPoint
 10
352.3163444639718
 20
88.2950407402065
 30
0.0
  0
POINT
  5
36B4
330
968
100
AcDbEntity
  8
DEFPOINTS
 62
     0
100
AcDbPoint
 10
352.3163444639718
 20
88.2950407402065
 30
0.0
  0
ENDBLK
  5
973
330
968
100
AcDbEntity
  8
0
100
AcDbBlockEnd
  0
BLOCK
  5
97F
330
975
100
AcDbEntity
  8
0
100
AcDbBlockBegin
  2
*D22
 70
     1
 10
0.0
 20
0.0
 30
0.0
  3
*D22
  1

  0
LINE
  5
369A
330
975
100
AcDbEntity
  8
SUNPOU
100
AcDbLine
 10
298.7804920913883
 20
489.6950407402063
 30
0.0
 11
354.3163444639718
 21
489.6950407402063
 31
0.0
  0
LINE
  5
369B
330
975
100
AcDbEntity
  8
SUNPOU
100
AcDbLine
 10
298.7804920913883
 20
269.6950407402066
 30
0.0
 11
354.3163444639718
 21
269.6950407402066
 31
0.0
  0
LINE
  5
369C
330
975
100
AcDbEntity
  8
SUNPOU
100
AcDbLine
 10
352.3163444639718
 20
484.6950407402062
 30
0.0
 11
352.3163444639718
 21
274.6950407402064
 31
0.0
  0
INSERT
  5
369D
330
975
100
AcDbEntity
  8
SUNPOU
100
AcDbBlockReference
  2
_OPEN30
 10
352.3163444639718
 20
489.6950407402063
 30
0.0
 41
5.0
 42
5.0
 43
5.0
 50
90.0
  0
INSERT
  5
369E
330
975
100
AcDbEntity
  8
SUNPOU
100
AcDbBlockReference
  2
_OPEN30
 10
352.3163444639718
 20
269.6950407402066
 30
0.0
 41
5.0
 42
5.0
 43
5.0
 50
270.0
  0
MTEXT
  5
369F
330
975
100
AcDbEntity
  8
SUNPOU
 62
     6
100
AcDbMText
 10
347.8163444639718
 20
379.6950407402065
 30
0.0
 40
5.0
 41
0.0
 71
     5
 72
     1
  1
\A1;220
  7
SUNPOU
 11
0.0000000000000001
 21
1.0
 31
0.0
1001
ACAD
1000
MTEXTBEGIN
1070
    73
1070
     1
1070
    44
1040
1.0
1070
    74
1070
     0
1000
MTEXTEND
1000
MTEXTBEGIN
1070
    73
1070
     1
1070
    44
1040
1.0
1070
    74
1070
     0
1000
MTEXTEND
  0
POINT
  5
36A0
330
975
100
AcDbEntity
  8
DEFPOINTS
 62
     0
100
AcDbPoint
 10
295.7804920913883
 20
489.6950407402063
 30
0.0
  0
POINT
  5
36A1
330
975
100
AcDbEntity
  8
DEFPOINTS
 62
     0
100
AcDbPoint
 10
295.7804920913883
 20
269.6950407402066
 30
0.0
  0
POINT
  5
36A2
330
975
100
AcDbEntity
  8
DEFPOINTS
 62
     0
100
AcDbPoint
 10
352.3163444639718
 20
269.6950407402066
 30
0.0
  0
ENDBLK
  5
980
330
975
100
AcDbEntity
  8
0
100
AcDbBlockEnd
  0
BLOCK
  5
98E
330
982
100
AcDbEntity
  8
0
100
AcDbBlockBegin
  2
*D23
 70
     1
 10
0.0
 20
0.0
 30
0.0
  3
*D23
  1

  0
LINE
  5
378B
330
982
100
AcDbEntity
  8
SUNPOU
100
AcDbLine
 10
165.3804920913883
 20
525.6336039261998
 30
0.0
 11
165.3804920913883
 21
524.6336039261998
 31
0.0
  0
LINE
  5
378C
330
982
100
AcDbEntity
  8
SUNPOU
100
AcDbLine
 10
168.3804920913883
 20
533.9742185312327
 30
0.0
 11
168.3804920913883
 21
520.6336039261998
 31
0.0
  0
LINE
  5
378D
330
982
100
AcDbEntity
  8
SUNPOU
100
AcDbLine
 10
160.3804920913884
 20
522.6336039261998
 30
0.0
 11
155.3804920913884
 21
522.6336039261998
 31
0.0
  0
LINE
  5
378E
330
982
100
AcDbEntity
  8
SUNPOU
100
AcDbLine
 10
173.3804920913883
 20
522.6336039261998
 30
0.0
 11
178.3804920913883
 21
522.6336039261998
 31
0.0
  0
MTEXT
  5
378F
330
982
100
AcDbEntity
  8
SUNPOU
 62
     6
100
AcDbMText
 10
161.6926249892608
 20
527.7835984356128
 30
0.0
 40
5.0
 41
0.0
 71
     5
 72
     1
  1
\A1;3
  7
SUNPOU
1001
ACAD
1000
MTEXTBEGIN
1070
    73
1070
     1
1070
    44
1040
1.0
1070
    74
1070
     0
1000
MTEXTEND
1000
MTEXTBEGIN
1070
    73
1070
     1
1070
    44
1040
1.0
1070
    74
1070
     0
1000
MTEXTEND
  0
LINE
  5
3790
330
982
100
AcDbEntity
  8
SUNPOU
100
AcDbLine
 10
165.3804920913883
 20
522.6336039261998
 30
0.0
 11
168.3804920913883
 21
522.6336039261998
 31
0.0
  0
INSERT
  5
3791
330
982
100
AcDbEntity
  8
SUNPOU
100
AcDbBlockReference
  2
_OPEN30
 10
165.3804920913883
 20
522.6336039261998
 30
0.0
 41
5.0
 42
5.0
 43
5.0
  0
INSERT
  5
3792
330
982
100
AcDbEntity
  8
SUNPOU
100
AcDbBlockReference
  2
_OPEN30
 10
168.3804920913883
 20
522.6336039261998
 30
0.0
 41
5.0
 42
5.0
 43
5.0
 50
180.0
  0
POINT
  5
3793
330
982
100
AcDbEntity
  8
DEFPOINTS
 62
     0
100
AcDbPoint
 10
165.3804920913883
 20
522.6336039261998
 30
0.0
  0
POINT
  5
3794
330
982
100
AcDbEntity
  8
DEFPOINTS
 62
     0
100
AcDbPoint
 10
168.3804920913883
 20
536.9742185312327
 30
0.0
  0
POINT
  5
3795
330
982
100
AcDbEntity
  8
DEFPOINTS
 62
     0
100
AcDbPoint
 10
168.3804920913883
 20
522.6336039261998
 30
0.0
  0
ENDBLK
  5
98F
330
982
100
AcDbEntity
  8
0
100
AcDbBlockEnd
  0
BLOCK
  5
99B
330
991
100
AcDbEntity
  8
0
100
AcDbBlockBegin
  2
*D24
 70
     1
 10
0.0
 20
0.0
 30
0.0
  3
*D24
  1

  0
LINE
  5
3779
330
991
100
AcDbEntity
  8
SUNPOU
100
AcDbLine
 10
168.3804920913883
 20
533.9742185312327
 30
0.0
 11
168.3804920913883
 21
520.6336039261998
 31
0.0
  0
LINE
  5
377A
330
991
100
AcDbEntity
  8
SUNPOU
100
AcDbLine
 10
297.3804920913883
 20
533.9742185312327
 30
0.0
 11
297.3804920913883
 21
520.6336039261998
 31
0.0
  0
LINE
  5
377B
330
991
100
AcDbEntity
  8
SUNPOU
100
AcDbLine
 10
173.3804920913883
 20
522.6336039261998
 30
0.0
 11
292.3804920913882
 21
522.6336039261998
 31
0.0
  0
INSERT
  5
377C
330
991
100
AcDbEntity
  8
SUNPOU
100
AcDbBlockReference
  2
_OPEN30
 10
168.3804920913883
 20
522.6336039261998
 30
0.0
 41
5.0
 42
5.0
 43
5.0
 50
180.0
  0
INSERT
  5
377D
330
991
100
AcDbEntity
  8
SUNPOU
100
AcDbBlockReference
  2
_OPEN30
 10
297.3804920913883
 20
522.6336039261998
 30
0.0
 41
5.0
 42
5.0
 43
5.0
  0
MTEXT
  5
377E
330
991
100
AcDbEntity
  8
SUNPOU
 62
     6
100
AcDbMText
 10
232.8804920913885
 20
527.1336039261998
 30
0.0
 40
5.0
 41
0.0
 71
     5
 72
     1
  1
\A1;129
  7
SUNPOU
1001
ACAD
1000
MTEXTBEGIN
1070
    73
1070
     1
1070
    44
1040
1.0
1070
    74
1070
     0
1000
MTEXTEND
1000
MTEXTBEGIN
1070
    73
1070
     1
1070
    44
1040
1.0
1070
    74
1070
     0
1000
MTEXTEND
  0
POINT
  5
377F
330
991
100
AcDbEntity
  8
DEFPOINTS
 62
     0
100
AcDbPoint
 10
168.3804920913883
 20
536.9742185312327
 30
0.0
  0
POINT
  5
3780
330
991
100
AcDbEntity
  8
DEFPOINTS
 62
     0
100
AcDbPoint
 10
297.3804920913883
 20
536.9742185312327
 30
0.0
  0
POINT
  5
3781
330
991
100
AcDbEntity
  8
DEFPOINTS
 62
     0
100
AcDbPoint
 10
297.3804920913883
 20
522.6336039261998
 30
0.0
  0
ENDBLK
  5
99C
330
991
100
AcDbEntity
  8
0
100
AcDbBlockEnd
  0
BLOCK
  5
9AA
330
99E
100
AcDbEntity
  8
0
100
AcDbBlockBegin
  2
*D25
 70
     1
 10
0.0
 20
0.0
 30
0.0
  3
*D25
  1

  0
LINE
  5
3796
330
99E
100
AcDbEntity
  8
SUNPOU
100
AcDbLine
 10
297.3804920913883
 20
533.9742185312327
 30
0.0
 11
297.3804920913883
 21
520.6336039261998
 31
0.0
  0
LINE
  5
3797
330
99E
100
AcDbEntity
  8
SUNPOU
100
AcDbLine
 10
300.3804920913883
 20
525.6336039261998
 30
0.0
 11
300.3804920913883
 21
524.6336039261998
 31
0.0
  0
LINE
  5
3798
330
99E
100
AcDbEntity
  8
SUNPOU
100
AcDbLine
 10
292.3804920913882
 20
522.6336039261998
 30
0.0
 11
287.3804920913885
 21
522.6336039261998
 31
0.0
  0
LINE
  5
3799
330
99E
100
AcDbEntity
  8
SUNPOU
100
AcDbLine
 10
305.3804920913883
 20
522.6336039261998
 30
0.0
 11
310.3804920913883
 21
522.6336039261998
 31
0.0
  0
MTEXT
  5
379A
330
99E
100
AcDbEntity
  8
SUNPOU
 62
     6
100
AcDbMText
 10
304.0057761000803
 20
527.7777864953391
 30
0.0
 40
5.0
 41
0.0
 71
     5
 72
     1
  1
\A1;3
  7
SUNPOU
1001
ACAD
1000
MTEXTBEGIN
1070
    73
1070
     1
1070
    44
1040
1.0
1070
    74
1070
     0
1000
MTEXTEND
1000
MTEXTBEGIN
1070
    73
1070
     1
1070
    44
1040
1.0
1070
    74
1070
     0
1000
MTEXTEND
  0
LINE
  5
379B
330
99E
100
AcDbEntity
  8
SUNPOU
100
AcDbLine
 10
297.3804920913883
 20
522.6336039261998
 30
0.0
 11
300.3804920913883
 21
522.6336039261998
 31
0.0
  0
INSERT
  5
379C
330
99E
100
AcDbEntity
  8
SUNPOU
100
AcDbBlockReference
  2
_OPEN30
 10
297.3804920913883
 20
522.6336039261998
 30
0.0
 41
5.0
 42
5.0
 43
5.0
  0
INSERT
  5
379D
330
99E
100
AcDbEntity
  8
SUNPOU
100
AcDbBlockReference
  2
_OPEN30
 10
300.3804920913883
 20
522.6336039261998
 30
0.0
 41
5.0
 42
5.0
 43
5.0
 50
180.0
  0
POINT
  5
379E
330
99E
100
AcDbEntity
  8
DEFPOINTS
 62
     0
100
AcDbPoint
 10
297.3804920913883
 20
536.9742185312327
 30
0.0
  0
POINT
  5
379F
330
99E
100
AcDbEntity
  8
DEFPOINTS
 62
     0
100
AcDbPoint
 10
300.3804920913883
 20
522.6336039261998
 30
0.0
  0
POINT
  5
37A0
330
99E
100
AcDbEntity
  8
DEFPOINTS
 62
     0
100
AcDbPoint
 10
300.3804920913883
 20
522.6336039261998
 30
0.0
  0
ENDBLK
  5
9AB
330
99E
100
AcDbEntity
  8
0
100
AcDbBlockEnd
  0
BLOCK
  5
9B9
330
9AD
100
AcDbEntity
  8
0
100
AcDbBlockBegin
  2
*D26
 70
     1
 10
0.0
 20
0.0
 30
0.0
  3
*D26
  1

  0
LINE
  5
36DB
330
9AD
100
AcDbEntity
  8
SUNPOU
100
AcDbLine
 10
273.6304920913884
 20
91.29504074020649
 30
0.0
 11
283.4098965414331
 21
91.29504074020649
 31
0.0
  0
LINE
  5
36DC
330
9AD
100
AcDbEntity
  8
SUNPOU
100
AcDbLine
 10
274.3804920913884
 20
88.2950407402065
 30
0.0
 11
283.4098965414331
 21
88.2950407402065
 31
0.0
  0
LINE
  5
36DD
330
9AD
100
AcDbEntity
  8
SUNPOU
100
AcDbLine
 10
281.4098965414331
 20
96.29504074020651
 30
0.0
 11
281.4098965414331
 21
101.2950407402064
 31
0.0
  0
LINE
  5
36DE
330
9AD
100
AcDbEntity
  8
SUNPOU
100
AcDbLine
 10
281.4098965414331
 20
83.2950407402065
 30
0.0
 11
281.4098965414331
 21
78.2950407402065
 31
0.0
  0
MTEXT
  5
36DF
330
9AD
100
AcDbEntity
  8
SUNPOU
 62
     6
100
AcDbMText
 10
276.1594022670539
 20
84.64532316893246
 30
0.0
 40
5.0
 41
0.0
 71
     5
 72
     1
  1
\A1;3
  7
SUNPOU
 11
0.0000000000000001
 21
1.0
 31
0.0
1001
ACAD
1000
MTEXTBEGIN
1070
    73
1070
     1
1070
    44
1040
1.0
1070
    74
1070
     0
1000
MTEXTEND
1000
MTEXTBEGIN
1070
    73
1070
     1
1070
    44
1040
1.0
1070
    74
1070
     0
1000
MTEXTEND
  0
LINE
  5
36E0
330
9AD
100
AcDbEntity
  8
SUNPOU
100
AcDbLine
 10
281.4098965414331
 20
91.29504074020649
 30
0.0
 11
281.4098965414331
 21
88.2950407402065
 31
0.0
  0
INSERT
  5
36E1
330
9AD
100
AcDbEntity
  8
SUNPOU
100
AcDbBlockReference
  2
_OPEN30
 10
281.4098965414331
 20
91.29504074020649
 30
0.0
 41
5.0
 42
5.0
 43
5.0
 50
270.0
  0
INSERT
  5
36E2
330
9AD
100
AcDbEntity
  8
SUNPOU
100
AcDbBlockReference
  2
_OPEN30
 10
281.4098965414331
 20
88.2950407402065
 30
0.0
 41
5.0
 42
5.0
 43
5.0
 50
90.0
  0
POINT
  5
36E3
330
9AD
100
AcDbEntity
  8
DEFPOINTS
 62
     0
100
AcDbPoint
 10
270.6304920913884
 20
91.29504074020649
 30
0.0
  0
POINT
  5
36E4
330
9AD
100
AcDbEntity
  8
DEFPOINTS
 62
     0
100
AcDbPoint
 10
271.3804920913884
 20
88.2950407402065
 30
0.0
  0
POINT
  5
36E5
330
9AD
100
AcDbEntity
  8
DEFPOINTS
 62
     0
100
AcDbPoint
 10
281.4098965414331
 20
88.2950407402065
 30
0.0
  0
ENDBLK
  5
9BA
330
9AD
100
AcDbEntity
  8
0
100
AcDbBlockEnd
  0
BLOCK
  5
9C6
330
9BC
100
AcDbEntity
  8
0
100
AcDbBlockBegin
  2
*D27
 70
     1
 10
0.0
 20
0.0
 30
0.0
  3
*D27
  1

  0
LINE
  5
36C9
330
9BC
100
AcDbEntity
  8
SUNPOU
100
AcDbLine
 10
273.6304920913884
 20
91.29504074020649
 30
0.0
 11
295.8115694531948
 21
91.29504074020649
 31
0.0
  0
LINE
  5
36CA
330
9BC
100
AcDbEntity
  8
SUNPOU
100
AcDbLine
 10
257.8804920913884
 20
66.29504074020641
 30
0.0
 11
295.8115694531948
 21
66.29504074020641
 31
0.0
  0
LINE
  5
36CB
330
9BC
100
AcDbEntity
  8
SUNPOU
100
AcDbLine
 10
293.8115694531948
 20
86.29504074020649
 30
0.0
 11
293.8115694531948
 21
71.29504074020641
 31
0.0
  0
INSERT
  5
36CC
330
9BC
100
AcDbEntity
  8
SUNPOU
100
AcDbBlockReference
  2
_OPEN30
 10
293.8115694531948
 20
91.29504074020649
 30
0.0
 41
5.0
 42
5.0
 43
5.0
 50
90.0
  0
INSERT
  5
36CD
330
9BC
100
AcDbEntity
  8
SUNPOU
100
AcDbBlockReference
  2
_OPEN30
 10
293.8115694531948
 20
66.29504074020641
 30
0.0
 41
5.0
 42
5.0
 43
5.0
 50
270.0
  0
MTEXT
  5
36CE
330
9BC
100
AcDbEntity
  8
SUNPOU
 62
     6
100
AcDbMText
 10
289.3115694531948
 20
78.7950407402065
 30
0.0
 40
5.0
 41
0.0
 71
     5
 72
     1
  1
\A1;25
  7
SUNPOU
 11
0.0000000000000001
 21
1.0
 31
0.0
1001
ACAD
1000
MTEXTBEGIN
1070
    73
1070
     1
1070
    44
1040
1.0
1070
    74
1070
     0
1000
MTEXTEND
1000
MTEXTBEGIN
1070
    73
1070
     1
1070
    44
1040
1.0
1070
    74
1070
     0
1000
MTEXTEND
  0
POINT
  5
36CF
330
9BC
100
AcDbEntity
  8
DEFPOINTS
 62
     0
100
AcDbPoint
 10
270.6304920913884
 20
91.29504074020649
 30
0.0
  0
POINT
  5
36D0
330
9BC
100
AcDbEntity
  8
DEFPOINTS
 62
     0
100
AcDbPoint
 10
254.8804920913883
 20
66.29504074020641
 30
0.0
  0
POINT
  5
36D1
330
9BC
100
AcDbEntity
  8
DEFPOINTS
 62
     0
100
AcDbPoint
 10
293.8115694531948
 20
66.29504074020641
 30
0.0
  0
ENDBLK
  5
9C7
330
9BC
100
AcDbEntity
  8
0
100
AcDbBlockEnd
  0
BLOCK
  5
9D3
330
9C9
100
AcDbEntity
  8
0
100
AcDbBlockBegin
  2
*D28
 70
     1
 10
0.0
 20
0.0
 30
0.0
  3
*D28
  1

  0
LINE
  5
36D2
330
9C9
100
AcDbEntity
  8
SUNPOU
100
AcDbLine
 10
237.8804920913885
 20
63.29504074020642
 30
0.0
 11
237.8804920913885
 21
48.69258786837257
 31
0.0
  0
LINE
  5
36D3
330
9C9
100
AcDbEntity
  8
SUNPOU
100
AcDbLine
 10
254.8804920913883
 20
63.29504074020646
 30
0.0
 11
254.8804920913883
 21
48.69258786837257
 31
0.0
  0
LINE
  5
36D4
330
9C9
100
AcDbEntity
  8
SUNPOU
100
AcDbLine
 10
242.8804920913885
 20
50.69258786837258
 30
0.0
 11
249.8804920913884
 21
50.69258786837258
 31
0.0
  0
INSERT
  5
36D5
330
9C9
100
AcDbEntity
  8
SUNPOU
100
AcDbBlockReference
  2
_OPEN30
 10
237.8804920913885
 20
50.69258786837258
 30
0.0
 41
5.0
 42
5.0
 43
5.0
 50
180.0
  0
INSERT
  5
36D6
330
9C9
100
AcDbEntity
  8
SUNPOU
100
AcDbBlockReference
  2
_OPEN30
 10
254.8804920913883
 20
50.69258786837258
 30
0.0
 41
5.0
 42
5.0
 43
5.0
  0
MTEXT
  5
36D7
330
9C9
100
AcDbEntity
  8
SUNPOU
 62
     6
100
AcDbMText
 10
246.3804920913883
 20
55.19258786837259
 30
0.0
 40
5.0
 41
0.0
 71
     5
 72
     1
  1
\A1;17
  7
SUNPOU
1001
ACAD
1000
MTEXTBEGIN
1070
    73
1070
     1
1070
    44
1040
1.0
1070
    74
1070
     0
1000
MTEXTEND
1000
MTEXTBEGIN
1070
    73
1070
     1
1070
    44
1040
1.0
1070
    74
1070
     0
1000
MTEXTEND
  0
POINT
  5
36D8
330
9C9
100
AcDbEntity
  8
DEFPOINTS
 62
     0
100
AcDbPoint
 10
237.8804920913885
 20
66.29504074020641
 30
0.0
  0
POINT
  5
36D9
330
9C9
100
AcDbEntity
  8
DEFPOINTS
 62
     0
100
AcDbPoint
 10
254.8804920913883
 20
66.29504074020646
 30
0.0
  0
POINT
  5
36DA
330
9C9
100
AcDbEntity
  8
DEFPOINTS
 62
     0
100
AcDbPoint
 10
254.8804920913883
 20
50.69258786837258
 30
0.0
  0
ENDBLK
  5
9D4
330
9C9
100
AcDbEntity
  8
0
100
AcDbBlockEnd
  0
BLOCK
  5
ABF
330
ABD
100
AcDbEntity
  8
0
100
AcDbBlockBegin
  2
_DOTSMALL
 70
     0
 10
0.0
 20
0.0
 30
0.0
  3
_DOTSMALL
  1

  0
POLYLINE
  5
ABE
330
ABD
100
AcDbEntity
  8
0
  6
BYBLOCK
 62
     0
100
AcDb2dPolyline
 66
     1
 10
0.0
 20
0.0
 30
0.0
 70
     1
 40
0.5
 41
0.5
  0
VERTEX
  5
3DC8
330
ABE
100
AcDbEntity
  8
0
  6
BYBLOCK
 62
     0
100
AcDbVertex
100
AcDb2dVertex
 10
-0.0625
 20
0.0
 30
0.0
 42
1.0
  0
VERTEX
  5
3DC9
330
ABE
100
AcDbEntity
  8
0
  6
BYBLOCK
 62
     0
100
AcDbVertex
100
AcDb2dVertex
 10
0.0625
 20
0.0
 30
0.0
 42
1.0
  0
SEQEND
  5
3DCA
330
ABE
100
AcDbEntity
  8
0
  6
BYBLOCK
 62
     0
  0
ENDBLK
  5
AC0
330
ABD
100
AcDbEntity
  8
0
100
AcDbBlockEnd
  0
BLOCK
  5
ECA
330
EC0
100
AcDbEntity
  8
0
100
AcDbBlockBegin
  2
*D30
 70
     1
 10
0.0
 20
0.0
 30
0.0
  3
*D30
  1

  0
LINE
  5
3AF6
330
EC0
100
AcDbEntity
  8
SUNPOU
  6
CONTINUOUS
100
AcDbLine
 10
219.3804920913883
 20
348.6950407402066
 30
0.0
 11
219.3804920913883
 21
363.3455964207021
 31
0.0
  0
LINE
  5
3AF7
330
EC0
100
AcDbEntity
  8
SUNPOU
  6
CONTINUOUS
100
AcDbLine
 10
246.3804920913883
 20
364.3455964207021
 30
0.0
 11
246.3804920913883
 21
363.3455964207021
 31
0.0
  0
LINE
  5
3AF8
330
EC0
100
AcDbEntity
  8
SUNPOU
  6
CONTINUOUS
100
AcDbLine
 10
224.3804920913884
 20
361.3455964207021
 30
0.0
 11
241.3804920913884
 21
361.3455964207021
 31
0.0
  0
MTEXT
  5
3AF9
330
EC0
100
AcDbEntity
  8
SUNPOU
  6
CONTINUOUS
 62
     6
100
AcDbMText
 10
229.7013762717916
 20
367.2253519657782
 30
0.0
 40
5.0
 41
0.0
 71
     5
 72
     1
  1
\A1;27
  7
SUNPOU
1001
ACAD
1000
MTEXTBEGIN
1070
    73
1070
     1
1070
    44
1040
1.0
1070
    74
1070
     0
1000
MTEXTEND
1000
MTEXTBEGIN
1070
    73
1070
     1
1070
    44
1040
1.0
1070
    74
1070
     0
1000
MTEXTEND
  0
INSERT
  5
3AFA
330
EC0
100
AcDbEntity
  8
SUNPOU
  6
CONTINUOUS
100
AcDbBlockReference
  2
_OPEN30
 10
219.3804920913883
 20
361.3455964207021
 30
0.0
 41
5.0
 42
5.0
 43
5.0
 50
180.0
  0
INSERT
  5
3AFB
330
EC0
100
AcDbEntity
  8
SUNPOU
  6
CONTINUOUS
100
AcDbBlockReference
  2
_OPEN30
 10
246.3804920913883
 20
361.3455964207021
 30
0.0
 41
5.0
 42
5.0
 43
5.0
  0
POINT
  5
3AFC
330
EC0
100
AcDbEntity
  8
DEFPOINTS
  6
CONTINUOUS
 62
     0
100
AcDbPoint
 10
219.3804920913883
 20
345.6950407402065
 30
0.0
  0
POINT
  5
3AFD
330
EC0
100
AcDbEntity
  8
DEFPOINTS
  6
CONTINUOUS
 62
     0
100
AcDbPoint
 10
246.3804920913883
 20
361.3455964207021
 30
0.0
  0
POINT
  5
3AFE
330
EC0
100
AcDbEntity
  8
DEFPOINTS
  6
CONTINUOUS
 62
     0
100
AcDbPoint
 10
246.3804920913883
 20
361.3455964207021
 30
0.0
  0
ENDBLK
  5
ECB
330
EC0
100
AcDbEntity
  8
0
100
AcDbBlockEnd
  0
BLOCK
  5
1396
330
138C
100
AcDbEntity
  8
0
100
AcDbBlockBegin
  2
*D31
 70
     1
 10
0.0
 20
0.0
 30
0.0
  3
*D31
  1

  0
LINE
  5
3C1B
330
138C
100
AcDbEntity
  8
SUNPOU
  6
CONTINUOUS
100
AcDbLine
 10
172.134838854956
 20
394.6950500657306
 30
0.0
 11
147.9639313235095
 21
394.6950500657306
 31
0.0
  0
LINE
  5
3C1C
330
138C
100
AcDbEntity
  8
SUNPOU
  6
CONTINUOUS
100
AcDbLine
 10
172.1844888186349
 20
444.6950500657306
 30
0.0
 11
147.9639313235095
 21
444.6950500657306
 31
0.0
  0
LINE
  5
3C1D
330
138C
100
AcDbEntity
  8
SUNPOU
  6
CONTINUOUS
100
AcDbLine
 10
149.9639313235095
 20
399.6950500657305
 30
0.0
 11
149.9639313235095
 21
439.6950500657306
 31
0.0
  0
MTEXT
  5
3C1E
330
138C
100
AcDbEntity
  8
SUNPOU
  6
CONTINUOUS
 62
     6
100
AcDbMText
 10
145.430198296462
 20
425.1906010496075
 30
0.0
 40
5.0
 41
0.0
 71
     5
 72
     1
  1
\A1;50
  7
SUNPOU
 11
0.0000000000000001
 21
1.0
 31
0.0
1001
ACAD
1000
MTEXTBEGIN
1070
    73
1070
     1
1070
    44
1040
1.0
1070
    74
1070
     0
1000
MTEXTEND
1000
MTEXTBEGIN
1070
    73
1070
     1
1070
    44
1040
1.0
1070
    74
1070
     0
1000
MTEXTEND
  0
INSERT
  5
3C1F
330
138C
100
AcDbEntity
  8
SUNPOU
  6
CONTINUOUS
100
AcDbBlockReference
  2
_OPEN30
 10
149.9639313235095
 20
394.6950500657306
 30
0.0
 41
5.0
 42
5.0
 43
5.0
 50
270.0
  0
INSERT
  5
3C20
330
138C
100
AcDbEntity
  8
SUNPOU
  6
CONTINUOUS
100
AcDbBlockReference
  2
_OPEN30
 10
149.9639313235095
 20
444.6950500657306
 30
0.0
 41
5.0
 42
5.0
 43
5.0
 50
90.0
  0
POINT
  5
3C21
330
138C
100
AcDbEntity
  8
DEFPOINTS
  6
CONTINUOUS
 62
     0
100
AcDbPoint
 10
175.134838854956
 20
394.6950500657306
 30
0.0
  0
POINT
  5
3C22
330
138C
100
AcDbEntity
  8
DEFPOINTS
  6
CONTINUOUS
 62
     0
100
AcDbPoint
 10
175.1844888186349
 20
444.6950500657306
 30
0.0
  0
POINT
  5
3C23
330
138C
100
AcDbEntity
  8
DEFPOINTS
  6
CONTINUOUS
 62
     0
100
AcDbPoint
 10
149.9639313235095
 20
444.6950500657306
 30
0.0
  0
ENDBLK
  5
1397
330
138C
100
AcDbEntity
  8
0
100
AcDbBlockEnd
  0
BLOCK
  5
3BC4
330
3BC3
100
AcDbEntity
  8
0
100
AcDbBlockBegin
  2
_NONE
 70
     0
 10
0.0
 20
0.0
 30
0.0
  3
_NONE
  1

  0
ENDBLK
  5
3BC5
330
3BC3
100
AcDbEntity
  8
0
100
AcDbBlockEnd
  0
BLOCK
  5
3CF6
330
3CD8
100
AcDbEntity
  8
0
100
AcDbBlockBegin
  2
*X33
 70
     1
 10
0.0
 20
0.0
 30
0.0
  3
*X33
  1

  0
LINE
  5
3CD9
330
3CD8
100
AcDbEntity
  8
0
 62
     0
100
AcDbLine
 10
205.4597825371756
 20
269.6950407402066
 30
0.0
 11
206.3778026955619
 21
270.6130608985931
 31
0.0
  0
LINE
  5
3CDA
330
3CD8
100
AcDbEntity
  8
0
 62
     0
100
AcDbLine
 10
204.3081321077261
 20
271.1950407402064
 30
0.0
 11
206.3778026955619
 21
273.2647113280425
 31
0.0
  0
LINE
  5
3CDB
330
3CD8
100
AcDbEntity
  8
0
 62
     0
100
AcDbLine
 10
202.8081321077261
 20
269.6950407402066
 30
0.0
 11
204.3081321077261
 21
271.1950407402064
 31
0.0
  0
LINE
  5
3CDC
330
3CD8
100
AcDbEntity
  8
0
 62
     0
100
AcDbLine
 10
201.6564816782763
 20
271.1950407402064
 30
0.0
 11
206.377802695562
 21
275.9163617574921
 31
0.0
  0
LINE
  5
3CDD
330
3CD8
100
AcDbEntity
  8
0
 62
     0
100
AcDbLine
 10
200.1564816782765
 20
269.6950407402066
 30
0.0
 11
201.6564816782763
 21
271.1950407402064
 31
0.0
  0
LINE
  5
3CDE
330
3CD8
100
AcDbEntity
  8
0
 62
     0
100
AcDbLine
 10
199.0048312488269
 20
271.1950407402064
 30
0.0
 11
206.2908278874536
 21
278.4810373788333
 31
0.0
  0
LINE
  5
3CDF
330
3CD8
100
AcDbEntity
  8
0
 62
     0
100
AcDbLine
 10
206.2908278874536
 20
278.4810373788333
 30
0.0
 11
206.3778026955619
 21
278.5680121869416
 31
0.0
  0
LINE
  5
3CE0
330
3CD8
100
AcDbEntity
  8
0
 62
     0
100
AcDbLine
 10
197.504831248827
 20
269.6950407402066
 30
0.0
 11
199.0048312488269
 21
271.1950407402064
 31
0.0
  0
LINE
  5
3CE1
330
3CD8
100
AcDbEntity
  8
0
 62
     0
100
AcDbLine
 10
196.3531808193773
 20
271.1950407402064
 30
0.0
 11
206.1240574201927
 21
280.9659173410218
 31
0.0
  0
LINE
  5
3CE2
330
3CD8
100
AcDbEntity
  8
0
 62
     0
100
AcDbLine
 10
206.1240574201927
 20
280.9659173410218
 30
0.0
 11
206.377802695562
 21
281.2196626163913
 31
0.0
  0
LINE
  5
3CE3
330
3CD8
100
AcDbEntity
  8
0
 62
     0
100
AcDbLine
 10
194.8531808193775
 20
269.6950407402066
 30
0.0
 11
196.3531808193773
 21
271.1950407402064
 31
0.0
  0
LINE
  5
3CE4
330
3CD8
100
AcDbEntity
  8
0
 62
     0
100
AcDbLine
 10
205.9572869529318
 20
283.4507973032103
 30
0.0
 11
206.377802695562
 21
283.8713130458407
 31
0.0
  0
LINE
  5
3CE5
330
3CD8
100
AcDbEntity
  8
0
 62
     0
100
AcDbLine
 10
194.3855558868996
 20
271.8790662371783
 30
0.0
 11
205.9572869529318
 21
283.4507973032103
 31
0.0
  0
LINE
  5
3CE6
330
3CD8
100
AcDbEntity
  8
0
 62
     0
100
AcDbLine
 10
204.4498799604783
 20
284.5950407402065
 30
0.0
 11
205.9498799604783
 21
286.0950407402065
 31
0.0
  0
LINE
  5
3CE7
330
3CD8
100
AcDbEntity
  8
0
 62
     0
100
AcDbLine
 10
205.9498799604784
 20
286.0950407402066
 30
0.0
 11
206.3778026955619
 21
286.5229634752902
 31
0.0
  0
LINE
  5
3CE8
330
3CD8
100
AcDbEntity
  8
0
 62
     0
100
AcDbLine
 10
194.3894300535788
 20
274.534590833307
 30
0.0
 11
204.4498799604783
 21
284.5950407402065
 31
0.0
  0
LINE
  5
3CE9
330
3CD8
100
AcDbEntity
  8
0
 62
     0
100
AcDbLine
 10
201.7982295310288
 20
284.5950407402065
 30
0.0
 11
203.2982295310286
 21
286.0950407402065
 31
0.0
  0
LINE
  5
3CEA
330
3CD8
100
AcDbEntity
  8
0
 62
     0
100
AcDbLine
 10
203.2982295310288
 20
286.0950407402066
 30
0.0
 11
204.8982295310288
 21
287.6950407402066
 31
0.0
  0
LINE
  5
3CEB
330
3CD8
100
AcDbEntity
  8
0
 62
     0
100
AcDbLine
 10
194.3933042202581
 20
277.1901154294358
 30
0.0
 11
201.7982295310288
 21
284.5950407402065
 31
0.0
  0
LINE
  5
3CEC
330
3CD8
100
AcDbEntity
  8
0
 62
     0
100
AcDbLine
 10
199.1465791015791
 20
284.5950407402065
 30
0.0
 11
200.6465791015791
 21
286.0950407402065
 31
0.0
  0
LINE
  5
3CED
330
3CD8
100
AcDbEntity
  8
0
 62
     0
100
AcDbLine
 10
194.5735793568423
 20
280.0220409954695
 30
0.0
 11
199.1465791015791
 21
284.5950407402065
 31
0.0
  0
LINE
  5
3CEE
330
3CD8
100
AcDbEntity
  8
0
 62
     0
100
AcDbLine
 10
200.6465791015793
 20
286.0950407402066
 30
0.0
 11
202.2465791015791
 21
287.6950407402066
 31
0.0
  0
LINE
  5
3CEF
330
3CD8
100
AcDbEntity
  8
0
 62
     0
100
AcDbLine
 10
194.3971783869373
 20
279.8456400255647
 30
0.0
 11
194.5735793568422
 21
280.0220409954695
 31
0.0
  0
LINE
  5
3CF0
330
3CD8
100
AcDbEntity
  8
0
 62
     0
100
AcDbLine
 10
196.4949286721294
 20
284.5950407402065
 30
0.0
 11
197.9949286721295
 21
286.0950407402065
 31
0.0
  0
LINE
  5
3CF1
330
3CD8
100
AcDbEntity
  8
0
 62
     0
100
AcDbLine
 10
194.7643455747883
 20
282.8644576428652
 30
0.0
 11
196.4949286721294
 21
284.5950407402065
 31
0.0
  0
LINE
  5
3CF2
330
3CD8
100
AcDbEntity
  8
0
 62
     0
100
AcDbLine
 10
197.9949286721295
 20
286.0950407402065
 30
0.0
 11
199.5949286721295
 21
287.6950407402066
 31
0.0
  0
LINE
  5
3CF3
330
3CD8
100
AcDbEntity
  8
0
 62
     0
100
AcDbLine
 10
194.4010525536166
 20
282.5011646216935
 30
0.0
 11
194.7643455747883
 21
282.8644576428652
 31
0.0
  0
LINE
  5
3CF4
330
3CD8
100
AcDbEntity
  8
0
 62
     0
100
AcDbLine
 10
195.34327824268
 20
286.0950407402065
 30
0.0
 11
196.94327824268
 21
287.6950407402066
 31
0.0
  0
LINE
  5
3CF5
330
3CD8
100
AcDbEntity
  8
0
 62
     0
100
AcDbLine
 10
194.4049267202959
 20
285.1566892178222
 30
0.0
 11
195.34327824268
 21
286.0950407402065
 31
0.0
  0
ENDBLK
  5
3CF7
330
3CD8
100
AcDbEntity
  8
0
100
AcDbBlockEnd
  0
ENDSEC
  0
SECTION
  2
ENTITIES
  0
LINE
  5
397
330
A
100
AcDbEntity
  8
03
100
AcDbLine
 10
269.3804920913884
 20
488.0950407402058
 30
0.0
 11
269.3804920913884
 21
471.6950407402056
 31
0.0
  0
LINE
  5
398
330
A
100
AcDbEntity
  8
03
100
AcDbLine
 10
280.3804920913884
 20
471.6950407402056
 30
0.0
 11
269.3804920913884
 21
471.6950407402056
 31
0.0
  0
LINE
  5
399
330
A
100
AcDbEntity
  8
03
100
AcDbLine
 10
271.3804920913884
 20
488.0950407402058
 30
0.0
 11
271.3804920913884
 21
472.6950407402056
 31
0.0
  0
LINE
  5
39A
330
A
100
AcDbEntity
  8
03
100
AcDbLine
 10
271.3804920913884
 20
472.6950407402056
 30
0.0
 11
272.8804920913884
 21
472.6950407402056
 31
0.0
  0
LINE
  5
39B
330
A
100
AcDbEntity
  8
03
100
AcDbLine
 10
272.8804920913884
 20
488.1950407402056
 30
0.0
 11
295.8804920913883
 21
488.1950407402062
 31
0.0
  0
LINE
  5
39C
330
A
100
AcDbEntity
  8
03
100
AcDbLine
 10
272.8804920913884
 20
488.1950407402056
 30
0.0
 11
272.8804920913884
 21
472.6950407402056
 31
0.0
  0
LINE
  5
39D
330
A
100
AcDbEntity
  8
03
100
AcDbLine
 10
295.7804920913883
 20
489.6950407402063
 30
0.0
 11
272.9804920913883
 21
489.6950407402063
 31
0.0
  0
LINE
  5
39E
330
A
100
AcDbEntity
  8
03
100
AcDbLine
 10
267.7804920913883
 20
489.6950407402057
 30
0.0
 11
209.9804920913884
 21
489.6950407402057
 31
0.0
  0
LINE
  5
39F
330
A
100
AcDbEntity
  8
03
100
AcDbLine
 10
267.8804920913884
 20
488.1950407402056
 30
0.0
 11
209.8804920913884
 21
488.1950407402056
 31
0.0
  0
LINE
  5
3A0
330
A
100
AcDbEntity
  8
03
100
AcDbLine
 10
269.4804920913883
 20
470.1950407402057
 30
0.0
 11
280.3804920913884
 21
470.1950407402057
 31
0.0
  0
LINE
  5
3A1
330
A
100
AcDbEntity
  8
03
100
AcDbLine
 10
280.3804920913884
 20
471.6950407402056
 30
0.0
 11
280.3804920913884
 21
470.1950407402057
 31
0.0
  0
LINE
  5
3A2
330
A
100
AcDbEntity
  8
03
100
AcDbLine
 10
267.8804920913884
 20
488.1950407402056
 30
0.0
 11
267.8804920913884
 21
470.1950407402065
 31
0.0
  0
LINE
  5
3A3
330
A
100
AcDbEntity
  8
03
100
AcDbLine
 10
209.8804920913884
 20
488.1950407402056
 30
0.0
 11
209.8804920913884
 21
471.7950407402057
 31
0.0
  0
LINE
  5
3A4
330
A
100
AcDbEntity
  8
03
100
AcDbLine
 10
208.3804920913884
 20
471.6950407402056
 30
0.0
 11
169.9804920913883
 21
471.6950407402056
 31
0.0
  0
LINE
  5
3A5
330
A
100
AcDbEntity
  8
03
100
AcDbLine
 10
169.8804920913883
 20
470.1950407402065
 30
0.0
 11
266.2804920913884
 21
470.1950407402046
 31
0.0
  0
LINE
  5
3A6
330
A
100
AcDbEntity
  8
03
100
AcDbLine
 10
173.3804920913883
 20
471.6950407402061
 30
0.0
 11
173.3804920913883
 21
488.0950407402058
 31
0.0
  0
LINE
  5
3A7
330
A
100
AcDbEntity
  8
03
100
AcDbLine
 10
174.9804920913883
 20
489.6950407402057
 30
0.0
 11
190.7804920913884
 21
489.6950407402057
 31
0.0
  0
LINE
  5
3A8
330
A
100
AcDbEntity
  8
03
100
AcDbLine
 10
174.8804920913883
 20
471.6950407402062
 30
0.0
 11
174.8804920913883
 21
488.1950407402056
 31
0.0
  0
LINE
  5
3A9
330
A
100
AcDbEntity
  8
03
100
AcDbLine
 10
190.8804920913883
 20
488.1950407402056
 30
0.0
 11
190.8804920913883
 21
471.6950407402061
 31
0.0
  0
LINE
  5
3AA
330
A
100
AcDbEntity
  8
03
100
AcDbLine
 10
174.8804920913883
 20
488.1950407402056
 30
0.0
 11
190.8804920913883
 21
488.1950407402056
 31
0.0
  0
LINE
  5
3AB
330
A
100
AcDbEntity
  8
03
100
AcDbLine
 10
171.4804920913883
 20
468.5950407402065
 30
0.0
 11
266.2804920913884
 21
468.5950407402065
 31
0.0
  0
LINE
  5
3AC
330
A
100
AcDbEntity
  8
03
100
AcDbLine
 10
266.2804920913884
 20
488.1950407402056
 30
0.0
 11
266.2804920913884
 21
470.1950407402046
 31
0.0
  0
CIRCLE
  5
3AD
330
A
100
AcDbEntity
  8
03
100
AcDbCircle
 10
270.3804920913884
 20
494.6950407402057
 30
0.0
 40
4.0
  0
ARC
  5
3AE
330
A
100
AcDbEntity
  8
03
100
AcDbCircle
 10
266.2804920913884
 20
470.1950407402065
 30
0.0
 40
1.6
100
AcDbArc
 50
270.0
 51
0.0
  0
ARC
  5
3AF
330
A
100
AcDbEntity
  8
03
100
AcDbCircle
 10
171.4804920913883
 20
468.5950407402065
 30
0.0
 40
1.6
100
AcDbArc
 50
90.0
 51
180.0
  0
LINE
  5
3B0
330
A
100
AcDbEntity
  8
03
100
AcDbLine
 10
193.3804920913883
 20
481.195040740206
 30
0.0
 11
207.3804920913883
 21
481.195040740206
 31
0.0
  0
LINE
  5
3B1
330
A
100
AcDbEntity
  8
03
100
AcDbLine
 10
207.3804920913883
 20
481.195040740206
 30
0.0
 11
207.3804920913883
 21
471.6950407402058
 31
0.0
  0
LINE
  5
3B2
330
A
100
AcDbEntity
  8
03
100
AcDbLine
 10
193.3804920913883
 20
471.6950407402061
 30
0.0
 11
193.3804920913883
 21
481.195040740206
 31
0.0
  0
LINE
  5
3B3
330
A
100
AcDbEntity
  8
03
100
AcDbLine
 10
192.3804920913883
 20
489.6950407402057
 30
0.0
 11
197.3804920913883
 21
491.6950407402056
 31
0.0
  0
LINE
  5
3B4
330
A
100
AcDbEntity
  8
03
100
AcDbLine
 10
208.3804920913884
 20
489.6950407402057
 30
0.0
 11
203.3804920913883
 21
491.6950407402056
 31
0.0
  0
ARC
  5
3B5
330
A
100
AcDbEntity
  8
03
100
AcDbCircle
 10
295.7804920913883
 20
488.0950407402064
 30
0.0
 40
1.6
100
AcDbArc
 50
0.0
 51
90.0
  0
ARC
  5
3B6
330
A
100
AcDbEntity
  8
03
100
AcDbCircle
 10
272.9804920913883
 20
488.0950407402058
 30
0.0
 40
1.6
100
AcDbArc
 50
90.0
 51
180.0
  0
ARC
  5
3B7
330
A
100
AcDbEntity
  8
03
100
AcDbCircle
 10
267.7804920913883
 20
488.0950407402058
 30
0.0
 40
1.6
100
AcDbArc
 50
0.0
 51
90.0
  0
ARC
  5
3B8
330
A
100
AcDbEntity
  8
03
100
AcDbCircle
 10
269.4804920913883
 20
471.7950407402057
 30
0.0
 40
1.6
100
AcDbArc
 50
180.0
 51
270.0
  0
ARC
  5
3B9
330
A
100
AcDbEntity
  8
03
100
AcDbCircle
 10
174.9804920913883
 20
488.0950407402058
 30
0.0
 40
1.6
100
AcDbArc
 50
90.0
 51
180.0
  0
ARC
  5
3BA
330
A
100
AcDbEntity
  8
03
100
AcDbCircle
 10
169.9804920913883
 20
470.0950407402065
 30
0.0
 40
1.6
100
AcDbArc
 50
90.0
 51
180.0
  0
LINE
  5
3BB
330
A
100
AcDbEntity
  8
03
100
AcDbLine
 10
208.3804920913884
 20
555.3742185312326
 30
0.0
 11
208.3804920913884
 21
536.9742185312327
 31
0.0
  0
LINE
  5
3BC
330
A
100
AcDbEntity
  8
03
100
AcDbLine
 10
192.3804920913883
 20
536.9742185312327
 30
0.0
 11
192.3804920913883
 21
555.3742185312326
 31
0.0
  0
LINE
  5
3BD
330
A
100
AcDbEntity
  8
03
100
AcDbLine
 10
197.3804920913883
 20
481.195040740206
 30
0.0
 11
197.3804920913883
 21
506.9742185312327
 31
0.0
  0
LINE
  5
3BE
330
A
100
AcDbEntity
  8
03
100
AcDbLine
 10
197.3804920913883
 20
511.9742185312325
 30
0.0
 11
197.3804920913883
 21
545.3742185312327
 31
0.0
  0
LINE
  5
3BF
330
A
100
AcDbEntity
  8
03
100
AcDbLine
 10
203.3804920913883
 20
481.195040740206
 30
0.0
 11
203.3804920913883
 21
506.9742185312327
 31
0.0
  0
LINE
  5
3C0
330
A
100
AcDbEntity
  8
03
100
AcDbLine
 10
203.3804920913883
 20
511.9742185312325
 30
0.0
 11
203.3804920913883
 21
545.3742185312327
 31
0.0
  0
LINE
  5
3C1
330
A
100
AcDbEntity
  8
03
100
AcDbLine
 10
208.3804920913884
 20
471.6950407402056
 30
0.0
 11
208.3804920913884
 21
506.9742185312327
 31
0.0
  0
LINE
  5
3C2
330
A
100
AcDbEntity
  8
03
100
AcDbLine
 10
208.3804920913884
 20
511.9742185312325
 30
0.0
 11
208.3804920913884
 21
555.3742185312326
 31
0.0
  0
LINE
  5
3C3
330
A
100
AcDbEntity
  8
03
100
AcDbLine
 10
192.3804920913883
 20
471.6950407402061
 30
0.0
 11
192.3804920913883
 21
506.9742185312327
 31
0.0
  0
LINE
  5
3C4
330
A
100
AcDbEntity
  8
03
100
AcDbLine
 10
192.3804920913883
 20
511.9742185312325
 30
0.0
 11
192.3804920913883
 21
555.3742185312326
 31
0.0
  0
LINE
  5
3C5
330
A
100
AcDbEntity
  8
03
100
AcDbLine
 10
300.3804920913883
 20
511.9742185312325
 30
0.0
 11
300.3804920913883
 21
565.3742185312327
 31
0.0
  0
LINE
  5
3C6
330
A
100
AcDbEntity
  8
03
100
AcDbLine
 10
165.3804920913883
 20
511.9742185312325
 30
0.0
 11
165.3804920913883
 21
565.3742185312327
 31
0.0
  0
ARC
  5
3C7
330
A
100
AcDbEntity
  8
03
100
AcDbCircle
 10
295.7804920913883
 20
271.2950407402066
 30
0.0
 40
1.6
100
AcDbArc
 50
270.0
 51
0.0
  0
LINE
  5
3C8
330
A
100
AcDbEntity
  8
03
100
AcDbLine
 10
266.8804920913884
 20
271.1950407402066
 30
0.0
 11
295.8804920913883
 21
271.1950407402066
 31
0.0
  0
LINE
  5
3C9
330
A
100
AcDbEntity
  8
03
100
AcDbLine
 10
265.3804920913884
 20
271.2950407402066
 30
0.0
 11
265.3804920913884
 21
279.6950407402066
 31
0.0
  0
LINE
  5
3CA
330
A
100
AcDbEntity
  8
03
100
AcDbLine
 10
266.8804920913884
 20
279.6950407402066
 30
0.0
 11
266.8804920913884
 21
271.1950407402066
 31
0.0
  0
LINE
  5
3CB
330
A
100
AcDbEntity
  8
03
100
AcDbLine
 10
265.3804920913884
 20
279.6950407402066
 30
0.0
 11
266.8804920913884
 21
279.6950407402066
 31
0.0
  0
LINE
  5
3CC
330
A
100
AcDbEntity
  8
03
100
AcDbLine
 10
266.9804920913883
 20
269.6950407402066
 30
0.0
 11
295.7804920913883
 21
269.6950407402066
 31
0.0
  0
ARC
  5
3CD
330
A
100
AcDbEntity
  8
03
100
AcDbCircle
 10
266.9804920913883
 20
271.2950407402066
 30
0.0
 40
1.6
100
AcDbArc
 50
180.0
 51
270.0
  0
LINE
  5
3CE
330
A
100
AcDbEntity
  8
03
100
AcDbLine
 10
225.8804920913883
 20
286.0950407402065
 30
0.0
 11
225.8804920913883
 21
271.1950407402064
 31
0.0
  0
LINE
  5
3CF
330
A
100
AcDbEntity
  8
03
100
AcDbLine
 10
225.8804920913883
 20
279.6950407402066
 30
0.0
 11
227.3804920913883
 21
279.6950407402066
 31
0.0
  0
LINE
  5
3D0
330
A
100
AcDbEntity
  8
03
100
AcDbLine
 10
192.3804920913883
 20
271.2950407402065
 30
0.0
 11
192.3804920913883
 21
284.5950407402065
 31
0.0
  0
LINE
  5
3D1
330
A
100
AcDbEntity
  8
03
100
AcDbLine
 10
208.3804920913884
 20
271.1950407402064
 30
0.0
 11
208.3804920913884
 21
284.5950407402065
 31
0.0
  0
LINE
  5
3D2
330
A
100
AcDbEntity
  8
03
100
AcDbLine
 10
171.4804920913883
 20
287.6950407402066
 30
0.0
 11
224.2804920913882
 21
287.6950407402066
 31
0.0
  0
LINE
  5
3D3
330
A
100
AcDbEntity
  8
03
100
AcDbLine
 10
224.2804920913882
 20
286.0950407402065
 30
0.0
 11
171.4804920913883
 21
286.0950407402065
 31
0.0
  0
LINE
  5
3D4
330
A
100
AcDbEntity
  8
03
100
AcDbLine
 10
224.2804920913882
 20
286.0950407402065
 30
0.0
 11
224.2804920913882
 21
271.1950407402064
 31
0.0
  0
LINE
  5
3D5
330
A
100
AcDbEntity
  8
03
100
AcDbLine
 10
192.3804920913883
 20
284.5950407402065
 30
0.0
 11
208.3804920913884
 21
284.5950407402065
 31
0.0
  0
LINE
  5
3D6
330
A
100
AcDbEntity
  8
03
100
AcDbLine
 10
209.8804920913884
 20
284.4950407402066
 30
0.0
 11
209.8804920913884
 21
271.1950407402064
 31
0.0
  0
LINE
  5
3D7
330
A
100
AcDbEntity
  8
03
100
AcDbLine
 10
190.8804920913883
 20
284.4950407402066
 30
0.0
 11
190.8804920913883
 21
271.1950407402064
 31
0.0
  0
LINE
  5
3D8
330
A
100
AcDbEntity
  8
03
100
AcDbLine
 10
169.8804920913883
 20
271.1950407402064
 30
0.0
 11
190.8804920913883
 21
271.1950407402064
 31
0.0
  0
LINE
  5
3D9
330
A
100
AcDbEntity
  8
03
100
AcDbLine
 10
209.8804920913884
 20
271.1950407402064
 30
0.0
 11
225.8804920913883
 21
271.1950407402064
 31
0.0
  0
ARC
  5
3DA
330
A
100
AcDbEntity
  8
03
100
AcDbCircle
 10
171.4804920913883
 20
287.6950407402066
 30
0.0
 40
1.6
100
AcDbArc
 50
180.0
 51
270.0
  0
ARC
  5
3DB
330
A
100
AcDbEntity
  8
03
100
AcDbCircle
 10
224.2804920913882
 20
286.0950407402065
 30
0.0
 40
1.6
100
AcDbArc
 50
0.0
 51
90.0
  0
LINE
  5
3DC
330
A
100
AcDbEntity
  8
03
100
AcDbLine
 10
169.9804920913883
 20
269.6950407402064
 30
0.0
 11
190.7804920913884
 21
269.6950407402064
 31
0.0
  0
LINE
  5
3DD
330
A
100
AcDbEntity
  8
03
100
AcDbLine
 10
209.9804920913884
 20
269.6950407402066
 30
0.0
 11
225.7804920913883
 21
269.6950407402066
 31
0.0
  0
LINE
  5
3DE
330
A
100
AcDbEntity
  8
02
100
AcDbLine
 10
190.3804920913883
 20
293.6950407402066
 30
0.0
 11
213.3830235209966
 21
293.6950407402067
 31
0.0
  0
ARC
  5
3DF
330
A
100
AcDbEntity
  8
02
100
AcDbCircle
 10
213.3867651564274
 20
293.6887670705175
 30
0.0
 40
5.993727498184893
100
AcDbArc
 50
269.9642326194081
 51
0.0248387511762767
  0
ARC
  5
3E0
330
A
100
AcDbEntity
  8
03
100
AcDbCircle
 10
169.9804920913883
 20
271.2950407402065
 30
0.0
 40
1.6
100
AcDbArc
 50
180.0
 51
270.0
  0
ARC
  5
3E1
330
A
100
AcDbEntity
  8
03
100
AcDbCircle
 10
190.7804920913884
 20
271.2950407402065
 30
0.0
 40
1.6
100
AcDbArc
 50
270.0
 51
0.0
  0
ARC
  5
3E2
330
A
100
AcDbEntity
  8
03
100
AcDbCircle
 10
209.9804920913884
 20
271.2950407402065
 30
0.0
 40
1.6
100
AcDbArc
 50
180.0
 51
270.0
  0
ARC
  5
3E3
330
A
100
AcDbEntity
  8
02
100
AcDbCircle
 10
213.3804920913883
 20
345.6950407402065
 30
0.0
 40
6.0
100
AcDbArc
 50
0.0
 51
90.0
  0
LINE
  5
3E4
330
A
100
AcDbEntity
  8
02
100
AcDbLine
 10
213.3830235209966
 20
345.6950407402065
 30
0.0
 11
190.3804920913883
 21
345.6950407402065
 31
0.0
  0
LINE
  5
3E5
330
A
100
AcDbEntity
  8
03
100
AcDbLine
 10
297.3804920913883
 20
271.2950407402066
 30
0.0
 11
297.3804920913883
 21
488.0950407402064
 31
0.0
  0
LINE
  5
3E6
330
A
100
AcDbEntity
  8
03
100
AcDbLine
 10
295.8804920913883
 20
271.1950407402066
 30
0.0
 11
295.8804920913883
 21
488.0950407402064
 31
0.0
  0
LINE
  5
3E7
330
A
100
AcDbEntity
  8
03
100
AcDbLine
 10
168.3804920913883
 20
271.2950407402065
 30
0.0
 11
168.3804920913883
 21
470.0950407402065
 31
0.0
  0
LINE
  5
3E8
330
A
100
AcDbEntity
  8
03
100
AcDbLine
 10
169.8804920913883
 20
271.1950407402064
 30
0.0
 11
169.8804920913883
 21
470.1950407402065
 31
0.0
  0
LINE
  5
3E9
330
A
100
AcDbEntity
  8
03
100
AcDbLine
 10
171.4804920913883
 20
287.6950407402066
 30
0.0
 11
171.4804920913883
 21
468.5950407402065
 31
0.0
  0
LINE
  5
3EA
330
A
100
AcDbEntity
  8
02
100
AcDbLine
 10
184.3804920913884
 20
287.6950407402066
 30
0.0
 11
184.3804920913884
 21
468.5950407402065
 31
0.0
  0
LINE
  5
3EB
330
A
100
AcDbEntity
  8
02
100
AcDbLine
 10
190.3804920913883
 20
287.6950407402066
 30
0.0
 11
190.3804920913883
 21
468.5950407402065
 31
0.0
  0
LINE
  5
3EC
330
A
100
AcDbEntity
  8
02
100
AcDbLine
 10
213.3830235209966
 20
293.6950407402067
 30
0.0
 11
213.3825815918569
 21
345.6950407402065
 31
0.0
  0
LINE
  5
3EE
330
A
100
AcDbEntity
  8
03
100
AcDbLine
 10
227.3804920913883
 20
88.29504074020633
 30
0.0
 11
227.3804920913883
 21
137.6950407402065
 31
0.0
  0
LINE
  5
3EF
330
A
100
AcDbEntity
  8
03
100
AcDbLine
 10
171.3804920913883
 20
88.29504074020633
 30
0.0
 11
171.3804920913883
 21
137.6950407402065
 31
0.0
  0
LINE
  5
3F0
330
A
100
AcDbEntity
  8
03
100
AcDbLine
 10
165.3804920913883
 20
88.29504074020633
 30
0.0
 11
165.3804920913883
 21
137.6950407402065
 31
0.0
  0
LINE
  5
3F2
330
A
100
AcDbEntity
  8
03
100
AcDbLine
 10
300.3804920913883
 20
142.6950407402065
 30
0.0
 11
300.3804920913883
 21
181.301881459392
 31
0.0
  0
LINE
  5
3F3
330
A
100
AcDbEntity
  8
03
100
AcDbLine
 10
227.3804920913883
 20
142.6950407402065
 30
0.0
 11
227.3804920913883
 21
181.301881459392
 31
0.0
  0
LINE
  5
3F4
330
A
100
AcDbEntity
  8
03
100
AcDbLine
 10
227.3804920913883
 20
186.3018814593921
 30
0.0
 11
227.3804920913883
 21
279.6950407402066
 31
0.0
  0
LINE
  5
3F5
330
A
100
AcDbEntity
  8
03
100
AcDbLine
 10
171.3804920913883
 20
142.6950407402065
 30
0.0
 11
171.3804920913883
 21
181.301881459392
 31
0.0
  0
LINE
  5
3F6
330
A
100
AcDbEntity
  8
03
100
AcDbLine
 10
171.3804920913883
 20
186.3018814593921
 30
0.0
 11
171.3804920913883
 21
269.6950407402064
 31
0.0
  0
LINE
  5
3F7
330
A
100
AcDbEntity
  8
03
100
AcDbLine
 10
165.3804920913883
 20
142.6950407402065
 30
0.0
 11
165.3804920913883
 21
181.301881459392
 31
0.0
  0
LINE
  5
3F8
330
A
100
AcDbEntity
  8
03
100
AcDbLine
 10
300.3804920913883
 20
186.3018814593921
 30
0.0
 11
300.3804920913883
 21
506.9742185312327
 31
0.0
  0
LINE
  5
3F9
330
A
100
AcDbEntity
  8
03
100
AcDbLine
 10
300.3804920913883
 20
511.9742185312325
 30
0.0
 11
300.3804920913883
 21
565.3742185312327
 31
0.0
  0
LINE
  5
3FA
330
A
100
AcDbEntity
  8
03
100
AcDbLine
 10
165.3804920913883
 20
186.3018814593921
 30
0.0
 11
165.3804920913883
 21
506.9742185312327
 31
0.0
  0
LINE
  5
3FB
330
A
100
AcDbEntity
  8
03
100
AcDbLine
 10
165.3804920913883
 20
511.9742185312325
 30
0.0
 11
165.3804920913883
 21
565.3742185312327
 31
0.0
  0
LINE
  5
3FC
330
A
100
AcDbEntity
  8
CHUSIN
 48
0.3
100
AcDbLine
 10
270.3804920913884
 20
500.6546176791816
 30
0.0
 11
270.3804920913884
 21
482.9494350504031
 31
0.0
  0
LINE
  5
3FD
330
A
100
AcDbEntity
  8
CHUSIN
 48
0.1
100
AcDbLine
 10
265.839429321152
 20
494.6950407402057
 30
0.0
 11
274.1962755219357
 21
494.6950407402057
 31
0.0
  0
LINE
  5
3FE
330
A
100
AcDbEntity
  8
CHUSIN
100
AcDbLine
 10
200.3804920913883
 20
471.6950407402058
 30
0.0
 11
200.3804920913883
 21
558.9053176463425
 31
0.0
  0
LINE
  5
3FF
330
A
100
AcDbEntity
  8
03
100
AcDbLine
 10
207.3804920913883
 20
481.195040740206
 30
0.0
 11
193.3804920913883
 21
471.6950407402061
 31
0.0
  0
LINE
  5
400
330
A
100
AcDbEntity
  8
03
100
AcDbLine
 10
192.3804920913883
 20
488.0950407402058
 30
0.0
 11
192.3804920913883
 21
471.6950407402061
 31
0.0
  0
LINE
  5
401
330
A
100
AcDbEntity
  8
03
100
AcDbLine
 10
208.3804920913884
 20
488.0950407402058
 30
0.0
 11
208.3804920913884
 21
471.6950407402056
 31
0.0
  0
ARC
  5
402
330
A
100
AcDbEntity
  8
03
100
AcDbCircle
 10
190.7804920913884
 20
488.0950407402058
 30
0.0
 40
1.6
100
AcDbArc
 50
0.0
 51
90.0
  0
ARC
  5
403
330
A
100
AcDbEntity
  8
03
100
AcDbCircle
 10
209.9804920913884
 20
488.0950407402058
 30
0.0
 40
1.6
100
AcDbArc
 50
90.0
 51
180.0
  0
LINE
  5
404
330
A
100
AcDbEntity
  8
03
100
AcDbLine
 10
169.8804920913883
 20
470.1950407402065
 30
0.0
 11
208.2804920913884
 21
470.1950407402065
 31
0.0
  0
ARC
  5
405
330
A
100
AcDbEntity
  8
03
100
AcDbCircle
 10
208.2804920913884
 20
471.7950407402057
 30
0.0
 40
1.6
100
AcDbArc
 50
270.0
 51
0.0
  0
LINE
  5
406
330
A
100
AcDbEntity
  8
03
100
AcDbLine
 10
168.3804920913883
 20
536.9742185312327
 30
0.0
 11
168.3804920913883
 21
563.7742185312325
 31
0.0
  0
LINE
  5
407
330
A
100
AcDbEntity
  8
03
100
AcDbLine
 10
297.3804920913883
 20
563.7742185312325
 30
0.0
 11
297.3804920913883
 21
536.9742185312327
 31
0.0
  0
LINE
  5
408
330
A
100
AcDbEntity
  8
03
100
AcDbLine
 10
295.7804920913883
 20
563.7742185312325
 30
0.0
 11
295.7804920913883
 21
536.9742185312327
 31
0.0
  0
LINE
  5
409
330
A
100
AcDbEntity
  8
03
100
AcDbLine
 10
169.9804920913883
 20
536.9742185312327
 30
0.0
 11
169.9804920913883
 21
563.7742185312325
 31
0.0
  0
LINE
  5
40A
330
A
100
AcDbEntity
  8
03
100
AcDbLine
 10
183.3804920913884
 20
565.3742185312327
 30
0.0
 11
183.3804920913884
 21
563.7742185312325
 31
0.0
  0
LINE
  5
40B
330
A
100
AcDbEntity
  8
03
100
AcDbLine
 10
282.3804920913882
 20
563.7742185312325
 30
0.0
 11
282.3804920913882
 21
565.3742185312327
 31
0.0
  0
LINE
  5
40C
330
A
100
AcDbEntity
  8
03
100
AcDbLine
 10
169.9804920913883
 20
565.3742185312327
 30
0.0
 11
183.3804920913884
 21
565.3742185312327
 31
0.0
  0
LINE
  5
40D
330
A
100
AcDbEntity
  8
03
100
AcDbLine
 10
282.3804920913882
 20
565.3742185312327
 30
0.0
 11
295.7804920913883
 21
565.3742185312327
 31
0.0
  0
LINE
  5
40E
330
A
100
AcDbEntity
  8
03
100
AcDbLine
 10
169.9804920913883
 20
563.7742185312325
 30
0.0
 11
183.3804920913884
 21
563.7742185312325
 31
0.0
  0
LINE
  5
40F
330
A
100
AcDbEntity
  8
03
100
AcDbLine
 10
282.3804920913882
 20
563.7742185312325
 30
0.0
 11
295.7804920913883
 21
563.7742185312325
 31
0.0
  0
LINE
  5
410
330
A
100
AcDbEntity
  8
03
100
AcDbLine
 10
192.3804920913883
 20
555.3742185312326
 30
0.0
 11
208.3804920913884
 21
555.3742185312326
 31
0.0
  0
LINE
  5
411
330
A
100
AcDbEntity
  8
03
100
AcDbLine
 10
295.7804920913883
 20
536.9742185312327
 30
0.0
 11
209.9804920913884
 21
536.9742185312327
 31
0.0
  0
LINE
  5
412
330
A
100
AcDbEntity
  8
03
100
AcDbLine
 10
190.7804920913884
 20
536.9742185312327
 30
0.0
 11
169.9804920913883
 21
536.9742185312327
 31
0.0
  0
LINE
  5
413
330
A
100
AcDbEntity
  8
03
100
AcDbLine
 10
295.7804920913883
 20
535.3742185312325
 30
0.0
 11
209.9804920913884
 21
535.3742185312325
 31
0.0
  0
LINE
  5
414
330
A
100
AcDbEntity
  8
03
100
AcDbLine
 10
190.7804920913884
 20
535.3742185312325
 30
0.0
 11
169.9804920913883
 21
535.3742185312325
 31
0.0
  0
LINE
  5
415
330
A
100
AcDbEntity
  8
03
100
AcDbLine
 10
190.7804920913884
 20
536.9742185312327
 30
0.0
 11
190.7804920913884
 21
555.3742185312326
 31
0.0
  0
LINE
  5
416
330
A
100
AcDbEntity
  8
03
100
AcDbLine
 10
192.3804920913883
 20
556.9742185312327
 30
0.0
 11
208.3804920913884
 21
556.9742185312327
 31
0.0
  0
LINE
  5
417
330
A
100
AcDbEntity
  8
03
100
AcDbLine
 10
209.9804920913884
 20
536.9742185312327
 30
0.0
 11
209.9804920913884
 21
555.3742185312326
 31
0.0
  0
ARC
  5
418
330
A
100
AcDbEntity
  8
03
100
AcDbCircle
 10
192.3804920913883
 20
555.3742185312326
 30
0.0
 40
1.6
100
AcDbArc
 50
90.0
 51
180.0
  0
ARC
  5
419
330
A
100
AcDbEntity
  8
03
100
AcDbCircle
 10
208.3804920913884
 20
555.3742185312326
 30
0.0
 40
1.6
100
AcDbArc
 50
0.0
 51
90.0
  0
ARC
  5
41A
330
A
100
AcDbEntity
  8
03
100
AcDbCircle
 10
209.9804920913884
 20
536.9742185312327
 30
0.0
 40
1.6
100
AcDbArc
 50
180.0
 51
270.0
  0
ARC
  5
41B
330
A
100
AcDbEntity
  8
03
100
AcDbCircle
 10
190.7804920913884
 20
536.9742185312327
 30
0.0
 40
1.6
100
AcDbArc
 50
270.0
 51
0.0
  0
ARC
  5
41C
330
A
100
AcDbEntity
  8
03
100
AcDbCircle
 10
295.7804920913883
 20
536.9742185312327
 30
0.0
 40
1.6
100
AcDbArc
 50
270.0
 51
0.0
  0
ARC
  5
41D
330
A
100
AcDbEntity
  8
03
100
AcDbCircle
 10
295.7804920913883
 20
563.7742185312325
 30
0.0
 40
1.6
100
AcDbArc
 50
0.0
 51
90.0
  0
ARC
  5
41E
330
A
100
AcDbEntity
  8
03
100
AcDbCircle
 10
169.9804920913883
 20
563.7742185312325
 30
0.0
 40
1.6
100
AcDbArc
 50
90.0
 51
180.0
  0
ARC
  5
41F
330
A
100
AcDbEntity
  8
03
100
AcDbCircle
 10
169.9804920913883
 20
536.9742185312327
 30
0.0
 40
1.6
100
AcDbArc
 50
180.0
 51
270.0
  0
LINE
  5
420
330
A
100
AcDbEntity
  8
03
100
AcDbLine
 10
197.3804920913883
 20
545.3742185312327
 30
0.0
 11
203.3804920913883
 21
545.3742185312327
 31
0.0
  0
LINE
  5
421
330
A
100
AcDbEntity
  8
03
100
AcDbLine
 10
165.3804920913883
 20
565.3742185312327
 30
0.0
 11
169.9804920913883
 21
565.3742185312327
 31
0.0
  0
LINE
  5
422
330
A
100
AcDbEntity
  8
03
100
AcDbLine
 10
300.3804920913883
 20
565.3742185312327
 30
0.0
 11
295.7804920913883
 21
565.3742185312327
 31
0.0
  0
LINE
  5
424
330
A
100
AcDbEntity
  8
03
100
AcDbLine
 10
192.4804920913883
 20
286.0950407402065
 30
0.0
 11
208.2804920913884
 21
286.0950407402065
 31
0.0
  0
ARC
  5
425
330
A
100
AcDbEntity
  8
03
100
AcDbCircle
 10
192.4804920913883
 20
284.4950407402066
 30
0.0
 40
1.6
100
AcDbArc
 50
90.0
 51
180.0
  0
ARC
  5
426
330
A
100
AcDbEntity
  8
03
100
AcDbCircle
 10
208.2804920913884
 20
284.4950407402066
 30
0.0
 40
1.6
100
AcDbArc
 50
0.0
 51
90.0
  0
LINE
  5
427
330
A
100
AcDbEntity
  8
03
100
AcDbLine
 10
227.3804920913883
 20
279.6950407402066
 30
0.0
 11
227.3804920913883
 21
271.2950407402065
 31
0.0
  0
ARC
  5
428
330
A
100
AcDbEntity
  8
03
100
AcDbCircle
 10
225.7804920913883
 20
271.2950407402065
 30
0.0
 40
1.6
100
AcDbArc
 50
270.0
 51
0.0
  0
LINE
  5
432
330
A
100
AcDbEntity
  8
03
100
AcDbLine
 10
232.3804920913883
 20
279.6950407402064
 30
0.0
 11
260.3804920913884
 21
279.6950407402064
 31
0.0
  0
LINE
  5
433
330
A
100
AcDbEntity
  8
03
100
AcDbLine
 10
232.3804920913883
 20
98.29504074020649
 30
0.0
 11
260.3804920913884
 21
98.29504074020649
 31
0.0
  0
LINE
  5
434
330
A
100
AcDbEntity
  8
03
100
AcDbLine
 10
271.3804920913884
 20
88.2950407402065
 30
0.0
 11
380.8104637015004
 21
88.2950407402065
 31
0.0
  0
LINE
  5
435
330
A
100
AcDbEntity
  8
03
100
AcDbLine
 10
111.7197431032534
 20
88.29504074020633
 30
0.0
 11
227.3804920913883
 21
88.29504074020633
 31
0.0
  0
LINE
  5
436
330
A
100
AcDbEntity
  8
03
100
AcDbLine
 10
236.3804920913883
 20
197.6950407402064
 30
0.0
 11
256.3804920913884
 21
197.6950407402064
 31
0.0
  0
LINE
  5
437
330
A
100
AcDbEntity
  8
03
100
AcDbLine
 10
256.3804920913884
 20
197.6950407402064
 30
0.0
 11
260.3804920913884
 21
201.6950407402064
 31
0.0
  0
LINE
  5
438
330
A
100
AcDbEntity
  8
03
100
AcDbLine
 10
236.3804920913883
 20
197.6950407402064
 30
0.0
 11
232.3804920913883
 21
201.6950407402064
 31
0.0
  0
LINE
  5
439
330
A
100
AcDbEntity
  8
03
100
AcDbLine
 10
232.3804920913883
 20
98.29504074020649
 30
0.0
 11
232.3804920913883
 21
137.6950407402065
 31
0.0
  0
LINE
  5
43A
330
A
100
AcDbEntity
  8
03
100
AcDbLine
 10
260.3804920913884
 20
98.29504074020649
 30
0.0
 11
260.3804920913884
 21
137.6950407402065
 31
0.0
  0
LINE
  5
43B
330
A
100
AcDbEntity
  8
03
100
AcDbLine
 10
192.487904519403
 20
271.295485917625
 30
0.0
 11
193.3804920913883
 21
284.5950407402065
 31
0.0
  0
LINE
  5
43C
330
A
100
AcDbEntity
  8
03
100
AcDbLine
 10
208.2730796633736
 20
271.295485917625
 30
0.0
 11
207.3804920913883
 21
284.5950407402065
 31
0.0
  0
LINE
  5
43D
330
A
100
AcDbEntity
  8
03
100
AcDbLine
 10
193.9811632323279
 20
271.1950407402066
 30
0.0
 11
194.8804920913883
 21
284.5950407402065
 31
0.0
  0
LINE
  5
43E
330
A
100
AcDbEntity
  8
03
100
AcDbLine
 10
206.7798209504486
 20
271.1950407402066
 30
0.0
 11
205.8804920913884
 21
284.5950407402065
 31
0.0
  0
LINE
  5
43F
330
A
100
AcDbEntity
  8
03
100
AcDbLine
 10
193.9811632323279
 20
271.1950407402064
 30
0.0
 11
206.7798209504486
 21
271.1950407402066
 31
0.0
  0
LINE
  5
440
330
A
100
AcDbEntity
  8
03
100
AcDbLine
 10
193.9845376629399
 20
269.6950407402066
 30
0.0
 11
206.7764465198365
 21
269.6950407402066
 31
0.0
  0
ARC
  5
441
330
A
100
AcDbEntity
  8
03
100
AcDbCircle
 10
206.7764465198365
 20
271.1950407402064
 30
0.0
 40
1.5
100
AcDbArc
 50
270.0
 51
3.83959633795091
  0
ARC
  5
442
330
A
100
AcDbEntity
  8
03
100
AcDbCircle
 10
193.9845376629399
 20
271.1950407402064
 30
0.0
 40
1.5
100
AcDbArc
 50
176.1604036620425
 51
270.0
  0
LINE
  5
443
330
A
100
AcDbEntity
  8
03
100
AcDbLine
 10
260.3804920913884
 20
142.6950407402065
 30
0.0
 11
260.3804920913884
 21
181.301881459392
 31
0.0
  0
LINE
  5
444
330
A
100
AcDbEntity
  8
03
100
AcDbLine
 10
260.3804920913884
 20
186.3018814593921
 30
0.0
 11
260.3804920913884
 21
279.6950407402064
 31
0.0
  0
LINE
  5
445
330
A
100
AcDbEntity
  8
03
100
AcDbLine
 10
232.3804920913883
 20
142.6950407402065
 30
0.0
 11
232.3804920913883
 21
181.301881459392
 31
0.0
  0
LINE
  5
446
330
A
100
AcDbEntity
  8
03
100
AcDbLine
 10
232.3804920913883
 20
186.3018814593921
 30
0.0
 11
232.3804920913883
 21
279.6950407402064
 31
0.0
  0
LINE
  5
447
330
A
100
AcDbEntity
  8
KAKURE
100
AcDbLine
 10
165.3804920913883
 20
88.29504074020633
 30
0.0
 11
165.3804920913883
 21
63.29504074020633
 31
0.0
  0
LINE
  5
448
330
A
100
AcDbEntity
  8
KAKURE
100
AcDbLine
 10
171.3804920913883
 20
88.29504074020633
 30
0.0
 11
171.3804920913883
 21
63.29504074020633
 31
0.0
  0
LINE
  5
449
330
A
100
AcDbEntity
  8
KAKURE
100
AcDbLine
 10
300.3804920913883
 20
88.2950407402065
 30
0.0
 11
300.3804920913883
 21
63.2950407402065
 31
0.0
  0
LINE
  5
44A
330
A
100
AcDbEntity
  8
KAKURE
100
AcDbLine
 10
165.3804920913883
 20
63.29504074020633
 30
0.0
 11
300.3804920913883
 21
63.2950407402065
 31
0.0
  0
LINE
  5
44B
330
A
100
AcDbEntity
  8
KAKURE
100
AcDbLine
 10
227.3804920913883
 20
88.29504074020633
 30
0.0
 11
227.3804920913883
 21
63.29504074020633
 31
0.0
  0
LINE
  5
44C
330
A
100
AcDbEntity
  8
KAKURE
100
AcDbLine
 10
174.9804920913883
 20
563.7742185312325
 30
0.0
 11
290.7804920913883
 21
563.7742185312325
 31
0.0
  0
LINE
  5
44D
330
A
100
AcDbEntity
  8
KAKURE
100
AcDbLine
 10
290.7804920913883
 20
560.7742185312327
 30
0.0
 11
174.9804920913883
 21
560.7742185312327
 31
0.0
  0
LINE
  5
44E
330
A
100
AcDbEntity
  8
KAKURE
100
AcDbLine
 10
174.9804920913883
 20
560.7742185312327
 30
0.0
 11
174.9804920913883
 21
563.7742185312325
 31
0.0
  0
LINE
  5
44F
330
A
100
AcDbEntity
  8
KAKURE
100
AcDbLine
 10
290.7804920913883
 20
563.7742185312325
 30
0.0
 11
290.7804920913883
 21
560.7742185312327
 31
0.0
  0
CIRCLE
  5
450
330
A
100
AcDbEntity
  8
03
100
AcDbCircle
 10
199.3804920913883
 20
162.6950407402065
 30
0.0
 40
6.0
  0
CIRCLE
  5
451
330
A
100
AcDbEntity
  8
SAISEN
100
AcDbCircle
 10
93.7081570756465
 20
387.7925781685771
 30
0.0
 40
4.0
  0
CIRCLE
  5
452
330
A
100
AcDbEntity
  8
SAISEN
100
AcDbCircle
 10
94.39122473717828
 20
328.1517318201283
 30
0.0
 40
4.0
  0
CIRCLE
  5
45B
330
A
100
AcDbEntity
  8
KAKURE
100
AcDbCircle
 10
235.5810193321616
 20
418.9577450258345
 30
0.0
 40
15.0
  0
LINE
  5
45C
330
A
100
AcDbEntity
  8
SAISEN
100
AcDbLine
 10
157.1492496958225
 20
506.9742185312327
 30
0.0
 11
307.169774015983
 21
506.9742185312327
 31
0.0
  0
LINE
  5
45D
330
A
100
AcDbEntity
  8
SAISEN
100
AcDbLine
 10
307.169774015983
 20
511.9742185312325
 30
0.0
 11
157.1492496958225
 21
511.9742185312325
 31
0.0
  0
LINE
  5
468
330
A
100
AcDbEntity
  8
SAISEN
100
AcDbLine
 10
157.1492496958225
 20
137.6950407402065
 30
0.0
 11
307.1697740159827
 21
137.6950407402065
 31
0.0
  0
LINE
  5
469
330
A
100
AcDbEntity
  8
SAISEN
100
AcDbLine
 10
307.169774015983
 20
181.301881459392
 30
0.0
 11
156.328376368798
 21
181.301881459392
 31
0.0
  0
LINE
  5
46A
330
A
100
AcDbEntity
  8
KAKURE
 48
0.3
100
AcDbLine
 10
194.3823695941349
 20
269.6950407402066
 30
0.0
 11
194.4086299422139
 21
287.6950407402066
 31
0.0
  0
LINE
  5
46B
330
A
100
AcDbEntity
  8
KAKURE
 48
0.3
100
AcDbLine
 10
206.377802695562
 20
269.6950407402066
 30
0.0
 11
206.377802695562
 21
287.6950407402066
 31
0.0
  0
LINE
  5
46C
330
A
100
AcDbEntity
  8
SAISEN
100
AcDbLine
 10
157.1492496958225
 20
142.6950407402065
 30
0.0
 11
307.1697740159827
 21
142.6950407402065
 31
0.0
  0
LINE
  5
46E
330
A
100
AcDbEntity
  8
SAISEN
100
AcDbLine
 10
157.1492496958225
 20
186.3018814593921
 30
0.0
 11
307.169774015983
 21
186.3018814593921
 31
0.0
  0
LINE
  5
46F
330
A
100
AcDbEntity
  8
03
100
AcDbLine
 10
252.3804920913883
 20
142.6950407402065
 30
0.0
 11
252.3804920913883
 21
181.301881459392
 31
0.0
  0
LINE
  5
470
330
A
100
AcDbEntity
  8
03
100
AcDbLine
 10
252.3804920913883
 20
186.3018814593921
 30
0.0
 11
252.3804920913883
 21
197.6950407402064
 31
0.0
  0
LINE
  5
471
330
A
100
AcDbEntity
  8
03
100
AcDbLine
 10
251.3804920913883
 20
142.6950407402065
 30
0.0
 11
251.3804920913883
 21
181.301881459392
 31
0.0
  0
LINE
  5
472
330
A
100
AcDbEntity
  8
03
100
AcDbLine
 10
251.3804920913883
 20
186.3018814593921
 30
0.0
 11
251.3804920913883
 21
197.6950407402064
 31
0.0
  0
LINE
  5
473
330
A
100
AcDbEntity
  8
03
100
AcDbLine
 10
240.3804920913883
 20
142.6950407402065
 30
0.0
 11
240.3804920913883
 21
181.301881459392
 31
0.0
  0
LINE
  5
474
330
A
100
AcDbEntity
  8
03
100
AcDbLine
 10
240.3804920913883
 20
186.3018814593921
 30
0.0
 11
240.3804920913883
 21
197.6950407402064
 31
0.0
  0
LINE
  5
475
330
A
100
AcDbEntity
  8
03
100
AcDbLine
 10
241.3804920913884
 20
142.6950407402065
 30
0.0
 11
241.3804920913884
 21
181.301881459392
 31
0.0
  0
LINE
  5
476
330
A
100
AcDbEntity
  8
03
100
AcDbLine
 10
241.3804920913884
 20
186.3018814593921
 30
0.0
 11
241.3804920913884
 21
197.6950407402064
 31
0.0
  0
LINE
  5
479
330
A
100
AcDbEntity
  8
CHUSIN
100
AcDbLine
 10
246.3804920913883
 20
58.92547401135994
 30
0.0
 11
246.3804920913883
 21
225.9784129335319
 31
0.0
  0
LINE
  5
47A
330
A
100
AcDbEntity
  8
CHUSIN
 48
0.5
100
AcDbLine
 10
216.5892021436399
 20
162.6950407402065
 30
0.0
 11
182.1717820391369
 21
162.6950407402065
 31
0.0
  0
LINE
  5
47B
330
A
100
AcDbEntity
  8
CHUSIN
 48
0.5
100
AcDbLine
 10
199.3804920913883
 20
179.5393154461683
 30
0.0
 11
199.3804920913883
 21
146.247548513628
 31
0.0
  0
LINE
  5
66B
330
A
100
AcDbEntity
  8
03
100
AcDbLine
 10
238.8804920913883
 20
98.29504074020649
 30
0.0
 11
238.8804920913883
 21
73.2950407402065
 31
0.0
  0
LINE
  5
66C
330
A
100
AcDbEntity
  8
03
100
AcDbLine
 10
238.8804920913883
 20
98.29504074020649
 30
0.0
 11
253.8804920913884
 21
73.2950407402065
 31
0.0
  0
LINE
  5
66D
330
A
100
AcDbEntity
  8
03
100
AcDbLine
 10
253.8804920913884
 20
98.29504074020649
 30
0.0
 11
238.8804920913883
 21
73.2950407402065
 31
0.0
  0
LINE
  5
66E
330
A
100
AcDbEntity
  8
03
100
AcDbLine
 10
253.8804920913884
 20
98.29504074020649
 30
0.0
 11
253.8804920913884
 21
73.2950407402065
 31
0.0
  0
LINE
  5
66F
330
A
100
AcDbEntity
  8
03
100
AcDbLine
 10
238.8804920913883
 20
73.29504074020644
 30
0.0
 11
253.8804920913884
 21
73.2950407402065
 31
0.0
  0
LINE
  5
670
330
A
100
AcDbEntity
  8
03
100
AcDbLine
 10
238.8804920913883
 20
98.29504074020649
 30
0.0
 11
253.8804920913884
 21
98.29504074020649
 31
0.0
  0
ARC
  5
671
330
A
100
AcDbEntity
  8
KAKURE
100
AcDbCircle
 10
229.8804920913883
 20
63.49504074020646
 30
0.0
 40
1.0
100
AcDbArc
 50
180.0
 51
269.9999999999999
  0
LINE
  5
672
330
A
100
AcDbEntity
  8
03
100
AcDbLine
 10
227.3804920913883
 20
90.54504074020632
 30
0.0
 11
227.3804920913883
 21
81.29504074020644
 31
0.0
  0
ARC
  5
673
330
A
100
AcDbEntity
  8
03
100
AcDbCircle
 10
228.1304920913883
 20
90.54504074020632
 30
0.0
 40
0.75
100
AcDbArc
 50
90.00000000000044
 51
180.0
  0
LINE
  5
674
330
A
100
AcDbEntity
  8
03
100
AcDbLine
 10
227.3804920913883
 20
81.29504074020644
 30
0.0
 11
228.8804920913884
 21
81.29504074020644
 31
0.0
  0
ARC
  5
678
330
A
100
AcDbEntity
  8
03
100
AcDbCircle
 10
237.1304920913885
 20
65.54504074020653
 30
0.0
 40
0.75
100
AcDbArc
 50
180.0
 51
269.9999999999997
  0
LINE
  5
67A
330
A
100
AcDbEntity
  8
03
100
AcDbLine
 10
237.8804920913883
 20
90.54504074020659
 30
0.0
 11
237.8804920913883
 21
66.29504074020641
 31
0.0
  0
LINE
  5
67B
330
A
100
AcDbEntity
  8
03
100
AcDbLine
 10
236.3804920913883
 20
89.79504074020647
 30
0.0
 11
236.3804920913885
 21
65.54504074020653
 31
0.0
  0
LINE
  5
67D
330
A
100
AcDbEntity
  8
03
100
AcDbLine
 10
228.1304920913883
 20
91.29504074020632
 30
0.0
 11
237.1304920913885
 21
91.29504074020658
 31
0.0
  0
LINE
  5
67E
330
A
100
AcDbEntity
  8
03
100
AcDbLine
 10
228.8804920913884
 20
89.79504074020644
 30
0.0
 11
236.3804920913883
 21
89.79504074020647
 31
0.0
  0
ARC
  5
680
330
A
100
AcDbEntity
  8
03
100
AcDbCircle
 10
237.1304920913885
 20
90.54504074020659
 30
0.0
 40
0.75
100
AcDbArc
 50
0.0000000000000325
 51
90.00000000000119
  0
ARC
  5
681
330
A
100
AcDbEntity
  8
03
100
AcDbCircle
 10
255.6304920913885
 20
65.54504074020639
 30
0.0
 40
0.75
100
AcDbArc
 50
269.9999999999998
 51
0.0000000000000369
  0
ARC
  5
682
330
A
100
AcDbEntity
  8
KAKURE
100
AcDbCircle
 10
268.8804920913885
 20
63.49504074020657
 30
0.0
 40
1.0
100
AcDbArc
 50
269.9999999999999
 51
0.0000000000000369
  0
LINE
  5
685
330
A
100
AcDbEntity
  8
03
100
AcDbLine
 10
237.8804920913883
 20
66.29504074020641
 30
0.0
 11
254.8804920913885
 21
66.29504074020641
 31
0.0
  0
LINE
  5
688
330
A
100
AcDbEntity
  8
03
100
AcDbLine
 10
271.3804920913884
 20
90.5450407402065
 30
0.0
 11
271.3804920913884
 21
81.29504074020648
 31
0.0
  0
ARC
  5
689
330
A
100
AcDbEntity
  8
03
100
AcDbCircle
 10
270.6304920913884
 20
90.5450407402065
 30
0.0
 40
0.75
100
AcDbArc
 50
0.0000000000000325
 51
90.00000000000005
  0
LINE
  5
68A
330
A
100
AcDbEntity
  8
03
100
AcDbLine
 10
269.8804920913885
 20
81.29504074020648
 30
0.0
 11
271.3804920913884
 21
81.29504074020648
 31
0.0
  0
LINE
  5
68E
330
A
100
AcDbEntity
  8
03
100
AcDbLine
 10
256.3804920913885
 20
89.79504074020647
 30
0.0
 11
256.3804920913885
 21
65.54504074020639
 31
0.0
  0
LINE
  5
68F
330
A
100
AcDbEntity
  8
03
100
AcDbLine
 10
254.8804920913883
 20
90.54504074020648
 30
0.0
 11
254.8804920913883
 21
66.29504074020641
 31
0.0
  0
LINE
  5
691
330
A
100
AcDbEntity
  8
03
100
AcDbLine
 10
256.3804920913885
 20
89.79504074020647
 30
0.0
 11
269.8804920913884
 21
89.79504074020651
 31
0.0
  0
LINE
  5
692
330
A
100
AcDbEntity
  8
03
100
AcDbLine
 10
255.6304920913884
 20
91.29504074020649
 30
0.0
 11
270.6304920913884
 21
91.29504074020649
 31
0.0
  0
ARC
  5
694
330
A
100
AcDbEntity
  8
03
100
AcDbCircle
 10
255.6304920913884
 20
90.54504074020648
 30
0.0
 40
0.75
100
AcDbArc
 50
90.00000000000005
 51
180.0
  0
LINE
  5
695
330
A
100
AcDbEntity
  8
KAKURE
100
AcDbLine
 10
228.8804920913884
 20
89.79504074020644
 30
0.0
 11
228.8804920913884
 21
63.49504074020646
 31
0.0
  0
LINE
  5
696
330
A
100
AcDbEntity
  8
KAKURE
100
AcDbLine
 10
231.1804920913885
 20
89.79504074020647
 30
0.0
 11
231.1804920913885
 21
64.79504074020653
 31
0.0
  0
LINE
  5
697
330
A
100
AcDbEntity
  8
KAKURE
100
AcDbLine
 10
231.1804920913885
 20
64.79504074020653
 30
0.0
 11
267.5804920913885
 21
64.79504074020642
 31
0.0
  0
LINE
  5
698
330
A
100
AcDbEntity
  8
KAKURE
100
AcDbLine
 10
229.8804920913883
 20
62.49504074020646
 30
0.0
 11
268.8804920913885
 21
62.49504074020657
 31
0.0
  0
LINE
  5
699
330
A
100
AcDbEntity
  8
KAKURE
100
AcDbLine
 10
269.8804920913884
 20
89.79504074020651
 30
0.0
 11
269.8804920913885
 21
63.49504074020657
 31
0.0
  0
LINE
  5
69A
330
A
100
AcDbEntity
  8
KAKURE
100
AcDbLine
 10
267.5804920913885
 20
89.79504074020651
 30
0.0
 11
267.5804920913885
 21
64.79504074020642
 31
0.0
  0
POLYLINE
  5
7A2
330
A
100
AcDbEntity
  8
DEFPOINTS
100
AcDb2dPolyline
 66
     1
 10
0.0
 20
0.0
 30
0.0
 70
     1
  0
VERTEX
  5
3DC3
330
7A2
100
AcDbEntity
  8
DEFPOINTS
100
AcDbVertex
100
AcDb2dVertex
 10
0.0
 20
0.0
 30
0.0
  0
VERTEX
  5
3DC4
330
7A2
100
AcDbEntity
  8
DEFPOINTS
100
AcDbVertex
100
AcDb2dVertex
 10
420.0
 20
0.0
 30
0.0
  0
VERTEX
  5
3DC5
330
7A2
100
AcDbEntity
  8
DEFPOINTS
100
AcDbVertex
100
AcDb2dVertex
 10
420.0
 20
594.0
 30
0.0
  0
VERTEX
  5
3DC6
330
7A2
100
AcDbEntity
  8
DEFPOINTS
100
AcDbVertex
100
AcDb2dVertex
 10
0.0
 20
594.0
 30
0.0
  0
SEQEND
  5
3DC7
330
7A2
100
AcDbEntity
  8
DEFPOINTS
  0
LEADER
  5
7B0
330
A
100
AcDbEntity
  8
HIKIDASI
100
AcDbLeader
  3
SUNPOU_2
 73
     0
 75
     1
 40
5.0
 41
35.6
 76
     3
 10
187.8155085236776
 20
344.4446245917056
 30
0.0
 10
131.762399411092
 20
383.4306083422713
 30
0.0
 10
126.7623994110919
 20
383.4306083422713
 30
0.0
340
7B1
213
-3.380502602646259
223
0.2471393066496148
233
0.0
1001
ACAD
1000
DSTYLE
1002
{
1070
     5
1000
OPEN30
1070
    77
1070
     1
1070
   147
1040
1.0
1070
   342
1005
776
1002
}
1000
LEANOF
1010
-3.380502602646259
1020
0.2471393066496148
1030
0.0
1000
LEANOF
1010
-3.380502602646259
1020
0.2471393066496148
1030
0.0
1000
LEANOF
1010
-3.380502602646259
1020
0.2471393066496148
1030
0.0
  0
MTEXT
  5
7B1
330
A
100
AcDbEntity
  8
HIKIDASI
100
AcDbMText
 10
92.54290201373844
 20
385.1834690356217
 30
0.0
 40
5.0
 41
0.0
 71
     7
 72
     1
  1
E　FB-50×6
  7
SUNPOU
1001
ACAD
1000
MTEXTBEGIN
1070
    73
1070
     1
1070
    44
1040
1.0
1070
    74
1070
     0
1000
MTEXTEND
1000
MTEXTBEGIN
1070
    73
1070
     1
1070
    44
1040
1.0
1070
    74
1070
     0
1000
MTEXTEND
  0
LEADER
  5
7B2
330
A
100
AcDbEntity
  8
HIKIDASI
100
AcDbLeader
  3
SUNPOU_2
 73
     0
 40
5.0
 41
35.6
 76
     2
 10
216.1395213991947
 20
300.514625526323
 30
0.0
 10
128.4294893770209
 20
323.5707407185551
 30
0.0
340
7B3
213
-2.443690031420231
223
0.1005388852172473
233
0.0
1001
ACAD
1000
DSTYLE
1002
{
1070
     5
1000
OPEN30
1070
    77
1070
     1
1070
   147
1040
1.0
1070
   342
1005
776
1002
}
1000
LEANOF
1010
-2.443690031420231
1020
0.1005388852172473
1030
0.0
1000
LEANOF
1010
-2.443690031420231
1020
0.1005388852172473
1030
0.0
1000
LEANOF
1010
-2.443690031420231
1020
0.1005388852172473
1030
0.0
  0
MTEXT
  5
7B3
330
A
100
AcDbEntity
  8
HIKIDASI
100
AcDbMText
 10
93.27317940844123
 20
325.470201833338
 30
0.0
 40
5.0
 41
0.0
 71
     7
 72
     1
  1
R　FB-50×6
  7
SUNPOU
1001
ACAD
1000
MTEXTBEGIN
1070
    73
1070
     1
1070
    44
1040
1.0
1070
    74
1070
     0
1000
MTEXTEND
1000
MTEXTBEGIN
1070
    73
1070
     1
1070
    44
1040
1.0
1070
    74
1070
     0
1000
MTEXTEND
  0
LEADER
  5
7B4
330
A
100
AcDbEntity
  8
HIKIDASI
100
AcDbLeader
  3
SUNPOU_2
 73
     0
 40
13.33333333333333
 41
28.0
 76
     2
 10
213.3827141839431
 20
330.0934705544917
 30
0.0
 10
120.7661942521998
 20
353.2372657483329
 30
0.0
340
7B5
213
0.0
223
8.683080555021717
233
0.0
1001
ACAD
1000
DSTYLE
1002
{
1070
     5
1000
OPEN30
1070
    77
1070
     1
1070
   147
1040
1.0
1070
   342
1005
776
1002
}
1000
LEANOF
1010
0.0
1020
8.683080555021717
1030
0.0
1000
LEANOF
1010
0.0
1020
8.683080555021717
1030
0.0
1000
LEANOF
1010
0.0
1020
8.683080555021717
1030
0.0
  0
MTEXT
  5
7B5
330
A
100
AcDbEntity
  8
HIKIDASI
100
AcDbMText
 10
90.76619425220005
 20
346.5541851933112
 30
0.0
 40
5.0
 41
0.0
 71
     7
 72
     1
  1
M8タップ\P(サッシ工事)
  7
SUNPOU
1001
ACAD
1000
MTEXTBEGIN
1070
    73
1070
     1
1070
    44
1040
1.0
1070
    74
1070
     0
1000
MTEXTEND
1000
MTEXTBEGIN
1070
    73
1070
     1
1070
    44
1040
1.0
1070
    74
1070
     0
1000
MTEXTEND
  0
LEADER
  5
7BB
330
A
100
AcDbEntity
  8
HIKIDASI
100
AcDbLeader
  3
SUNPOU_2
 73
     0
 75
     1
 40
13.33333333333333
 41
62.93333333333333
 76
     3
 10
193.7539543057996
 20
166.2315961004875
 30
0.0
 10
132.5315726845939
 20
237.0151606235124
 30
0.0
 10
127.531572684594
 20
237.0151606235124
 30
0.0
340
7BC
213
0.0
223
8.723065790863671
233
0.0
1001
ACAD
1000
DSTYLE
1002
{
1070
     5
1000
OPEN30
1070
    77
1070
     1
1070
   147
1040
1.0
1070
   342
1005
776
1002
}
1000
LEANOF
1010
0.0
1020
8.723065790863671
1030
0.0
1000
LEANOF
1010
0.0
1020
8.723065790863671
1030
0.0
1000
LEANOF
1010
0.0
1020
8.723065790863671
1030
0.0
  0
MTEXT
  5
7BC
330
A
100
AcDbEntity
  8
HIKIDASI
100
AcDbMText
 10
94.06490601792734
 20
236.9587614993154
 30
0.0
 40
5.0
 41
0.0
 71
     5
 72
     1
  1
補助光電スイッチ取付穴φ12\P(サッシ工事)
  7
SUNPOU
1001
ACAD
1000
MTEXTBEGIN
1070
    73
1070
     1
1070
    44
1040
1.0
1070
    74
1070
     0
1000
MTEXTEND
1000
MTEXTBEGIN
1070
    73
1070
     1
1070
    44
1040
1.0
1070
    74
1070
     0
1000
MTEXTEND
  0
LEADER
  5
7BE
330
A
100
AcDbEntity
  8
HIKIDASI
100
AcDbLeader
  3
SUNPOU_2
 73
     0
 74
     0
 75
     1
 40
13.33333333333333
 41
52.26666666666666
 76
     3
 10
271.3804920913884
 20
81.29504074020648
 30
0.0
 10
306.1033296036598
 20
54.35729759175433
 30
0.0
 10
311.1033296036598
 20
54.35729759175433
 30
0.0
340
7BF
213
5.107153513409912
223
9.133555433793844
233
0.0
1001
ACAD
1000
DSTYLE
1002
{
1070
     5
1000
OPEN30
1070
    77
1070
     1
1070
   147
1040
1.0
1070
   342
1005
776
1002
}
1000
LEANOF
1010
5.107153513409912
1020
9.133555433793844
1030
0.0
1000
LEANOF
1010
5.107153513409912
1020
9.133555433793844
1030
0.0
1000
LEANOF
1010
5.107153513409912
1020
9.133555433793844
1030
0.0
  0
MTEXT
  5
7BF
330
A
100
AcDbEntity
  8
HIKIDASI
100
AcDbMText
 10
307.9961760902499
 20
47.22374215796047
 30
0.0
 40
5.0
 41
0.0
 71
     7
 72
     1
  1
ステンレスガイドレール\P(サッシ工事)
  7
SUNPOU
1001
ACAD
1000
MTEXTBEGIN
1070
    73
1070
     1
1070
    44
1040
1.0
1070
    74
1070
     0
1000
MTEXTEND
1000
MTEXTBEGIN
1070
    73
1070
     1
1070
    44
1040
1.0
1070
    74
1070
     0
1000
MTEXTEND
  0
DIMENSION
  5
7CF
330
A
100
AcDbEntity
  8
SUNPOU
100
AcDbDimension
  2
*D1
 10
149.9639313235095
 20
88.29504074020633
 30
0.0
 11
145.4639313235095
 21
125.4950407402064
 31
0.0
 70
    32
  1
600
  3
SUNPOU_2
100
AcDbAlignedDimension
 13
182.1717820391369
 23
162.6950407402065
 33
0.0
 14
182.1717820391369
 24
88.29504074020633
 34
0.0
 50
90.0
100
AcDbRotatedDimension
  0
DIMENSION
  5
7E5
330
A
100
AcDbEntity
  8
SUNPOU
100
AcDbDimension
  2
*D2
 10
168.3804920913883
 20
243.8744783500484
 30
0.0
 11
161.5581119947766
 21
249.0308516016973
 31
0.0
 70
   160
  3
SUNPOU_2
100
AcDbAlignedDimension
 13
165.3804920913883
 23
243.8744783500484
 33
0.0
 14
168.3804920913883
 24
271.2950407402065
 34
0.0
100
AcDbRotatedDimension
1001
ACAD
1000
DSTYLE
1002
{
1070
     7
1000
DOTSMALL
1070
     5
1000

1070
   173
1070
     1
1070
     6
1000
OPEN30
1002
}
  0
DIMENSION
  5
7F4
330
A
100
AcDbEntity
  8
SUNPOU
100
AcDbDimension
  2
*D3
 10
171.3804920913883
 20
243.8744783500484
 30
0.0
 11
175.2603460899601
 21
248.8424183241209
 31
0.0
 70
   160
  3
SUNPOU_2
100
AcDbAlignedDimension
 13
168.3804920913883
 23
271.2950407402065
 33
0.0
 14
171.3804920913883
 24
243.8744783500484
 34
0.0
100
AcDbRotatedDimension
1001
ACAD
1000
DSTYLE
1002
{
1070
    41
1040
5.0
1070
     6
1000
DOTSMALL
1070
     5
1000

1070
   173
1070
     1
1070
     7
1000
NONE
1002
}
  0
DIMENSION
  5
803
330
A
100
AcDbEntity
  8
SUNPOU
100
AcDbDimension
  2
*D4
 10
227.3804920913883
 20
243.8744783500484
 30
0.0
 11
199.3804920913883
 21
248.3744783500484
 31
0.0
 70
    32
  3
SUNPOU_2
100
AcDbAlignedDimension
 13
171.3804920913883
 23
243.8744783500484
 33
0.0
 14
227.3804920913883
 24
243.8744783500484
 34
0.0
100
AcDbRotatedDimension
  0
DIMENSION
  5
810
330
A
100
AcDbEntity
  8
SUNPOU
100
AcDbDimension
  2
*D5
 10
232.3804920913883
 20
243.8744783500484
 30
0.0
 11
230.0148758184866
 21
249.5176225670109
 31
0.0
 70
   160
  3
SUNPOU_2
100
AcDbAlignedDimension
 13
227.3804920913883
 23
243.8744783500484
 33
0.0
 14
232.3804920913883
 24
243.8744783500484
 34
0.0
100
AcDbRotatedDimension
  0
DIMENSION
  5
81F
330
A
100
AcDbEntity
  8
SUNPOU
100
AcDbDimension
  2
*D6
 10
260.3804920913884
 20
243.8744783500484
 30
0.0
 11
246.3804920913883
 21
248.3744783500484
 31
0.0
 70
    32
  3
SUNPOU_2
100
AcDbAlignedDimension
 13
232.3804920913883
 23
243.8744783500484
 33
0.0
 14
260.3804920913884
 24
243.8744783500484
 34
0.0
100
AcDbRotatedDimension
  0
DIMENSION
  5
848
330
A
100
AcDbEntity
  8
SUNPOU
100
AcDbDimension
  2
*D7
 10
265.3804920913882
 20
243.8744783500484
 30
0.0
 11
262.9350777135253
 21
249.6678883529323
 31
0.0
 70
   160
  3
SUNPOU_2
100
AcDbAlignedDimension
 13
260.3804920913884
 23
243.8744783500484
 33
0.0
 14
265.3804920913882
 24
271.2950407402066
 34
0.0
100
AcDbRotatedDimension
  0
DIMENSION
  5
857
330
A
100
AcDbEntity
  8
SUNPOU
100
AcDbDimension
  2
*D8
 10
297.3804920913883
 20
243.8744783500484
 30
0.0
 11
281.3804920913884
 21
248.3744783500484
 31
0.0
 70
    32
  3
SUNPOU_2
100
AcDbAlignedDimension
 13
265.3804920913882
 23
271.2950407402066
 33
0.0
 14
297.3804920913883
 24
271.2950407402066
 34
0.0
100
AcDbRotatedDimension
  0
DIMENSION
  5
864
330
A
100
AcDbEntity
  8
SUNPOU
100
AcDbDimension
  2
*D9
 10
300.3804920913883
 20
243.8744783500484
 30
0.0
 11
303.840855856019
 21
249.3212709579788
 31
0.0
 70
   160
  3
SUNPOU_2
100
AcDbAlignedDimension
 13
297.3804920913883
 23
271.2950407402066
 33
0.0
 14
300.3804920913883
 24
243.8744783500484
 34
0.0
100
AcDbRotatedDimension
  0
DIMENSION
  5
873
330
A
100
AcDbEntity
  8
SUNPOU
100
AcDbDimension
  2
*D10
 10
300.3804920913883
 20
227.05549768221
 30
0.0
 11
246.0284969466095
 21
232.8380965561695
 31
0.0
 70
   160
  3
SUNPOU_2
100
AcDbAlignedDimension
 13
165.3804920913883
 23
227.05549768221
 33
0.0
 14
300.3804920913883
 24
227.05549768221
 34
0.0
100
AcDbRotatedDimension
  0
DIMENSION
  5
8BB
330
A
100
AcDbEntity
  8
SUNPOU
100
AcDbDimension
  2
*D11
 10
149.9639313235095
 20
329.6950456799046
 30
0.0
 11
145.4639313235094
 21
299.6950432100556
 31
0.0
 70
    32
  3
SUNPOU_2
100
AcDbAlignedDimension
 13
169.9804920913883
 23
269.6950407402064
 33
0.0
 14
198.7448184511993
 24
329.6950456799046
 34
0.0
 50
90.0
100
AcDbRotatedDimension
  0
DIMENSION
  5
8C8
330
A
100
AcDbEntity
  8
SUNPOU
100
AcDbDimension
  2
*D12
 10
149.9639313235095
 20
394.6950500657306
 30
0.0
 11
145.3826517670331
 21
359.594364914212
 31
0.0
 70
   160
  3
SUNPOU_2
100
AcDbAlignedDimension
 13
198.7448184511992
 23
329.6950456799046
 33
0.0
 14
175.134838854956
 24
394.6950500657306
 34
0.0
 50
90.0
100
AcDbRotatedDimension
  0
DIMENSION
  5
8E2
330
A
100
AcDbEntity
  8
SUNPOU
100
AcDbDimension
  2
*D13
 10
135.4291199134784
 20
421.1950407402065
 30
0.0
 11
130.9291199134783
 21
337.939328769256
 31
0.0
 70
   160
  3
SUNPOU_2
100
AcDbAlignedDimension
 13
169.9804920913883
 23
269.6950407402064
 33
0.0
 14
175.7712704273485
 24
421.1950407402065
 34
0.0
 50
90.0
100
AcDbRotatedDimension
  0
DIMENSION
  5
8EF
330
A
100
AcDbEntity
  8
SUNPOU
100
AcDbDimension
  2
*D14
 10
190.3804920913883
 20
361.3455964207021
 30
0.0
 11
179.2616738176259
 21
366.9243406446627
 31
0.0
 70
   160
  3
SUNPOU_2
100
AcDbAlignedDimension
 13
168.3804920913883
 23
364.9741169774088
 33
0.0
 14
190.3804920913883
 24
361.3455964207021
 34
0.0
100
AcDbRotatedDimension
  0
DIMENSION
  5
8FC
330
A
100
AcDbEntity
  8
SUNPOU
100
AcDbDimension
  2
*D15
 10
219.3804920913883
 20
361.3455964207021
 30
0.0
 11
204.8627274511539
 21
367.0075835213806
 31
0.0
 70
   160
  3
SUNPOU_2
100
AcDbAlignedDimension
 13
190.3804920913883
 23
361.9741169774087
 33
0.0
 14
219.3804920913883
 24
361.3455964207021
 34
0.0
100
AcDbRotatedDimension
  0
DIMENSION
  5
916
330
A
100
AcDbEntity
  8
SUNPOU
100
AcDbDimension
  2
*D16
 10
249.5039748778223
 20
424.5390807865235
 30
0.0
 11
234.4229852076308
 21
418.5425758799766
 31
0.0
 70
   163
  1
φ30通線穴\P(両端)
  3
SUNPOU_2
100
AcDbDiametricDimension
 15
221.6580637865007
 25
413.3764092651441
 35
0.0
 40
0.0
1001
ACAD
1000
DSTYLE
1002
{
1070
   288
1070
     1
1002
}
  0
DIMENSION
  5
92F
330
A
100
AcDbEntity
  8
SUNPOU
100
AcDbDimension
  2
*D17
 10
279.851656636173
 20
460.3479814962279
 30
0.0
 11
235.1160743637807
 21
464.8479814962279
 31
0.0
 70
    32
  1
Ａ
  3
SUNPOU_2
100
AcDbAlignedDimension
 13
190.3804920913883
 23
460.3479814962279
 33
0.0
 14
279.851656636173
 24
447.1949467041563
 34
0.0
100
AcDbRotatedDimension
  0
DIMENSION
  5
93C
330
A
100
AcDbEntity
  8
SUNPOU
100
AcDbDimension
  2
*D18
 10
321.5112883601459
 20
269.6950407402066
 30
0.0
 11
317.0112883601459
 21
274.6950407402064
 31
0.0
 70
    32
  3
SUNPOU_2
100
AcDbAlignedDimension
 13
266.8804920913884
 23
279.6950407402066
 33
0.0
 14
295.7804920913883
 24
269.6950407402066
 34
0.0
 50
90.0
100
AcDbRotatedDimension
  0
DIMENSION
  5
94B
330
A
100
AcDbEntity
  8
SUNPOU
100
AcDbDimension
  2
*D19
 10
334.1357847776125
 20
98.29504074020649
 30
0.0
 11
329.6357847776125
 21
188.9950407402064
 31
0.0
 70
    32
  1
DH
  3
SUNPOU_2
100
AcDbAlignedDimension
 13
266.8804920913884
 23
279.6950407402066
 33
0.0
 14
260.3804920913884
 24
98.29504074020649
 34
0.0
 50
90.0
100
AcDbRotatedDimension
  0
DIMENSION
  5
958
330
A
100
AcDbEntity
  8
SUNPOU
100
AcDbDimension
  2
*D20
 10
334.1357847776125
 20
88.2950407402065
 30
0.0
 11
329.6357847776125
 21
93.29504074020654
 31
0.0
 70
    32
  3
SUNPOU_2
100
AcDbAlignedDimension
 13
260.3804920913884
 23
98.29504074020649
 33
0.0
 14
334.1357847776125
 24
88.2950407402065
 34
0.0
 50
90.0
100
AcDbRotatedDimension
  0
DIMENSION
  5
967
330
A
100
AcDbEntity
  8
SUNPOU
100
AcDbDimension
  2
*D21
 10
352.3163444639718
 20
88.2950407402065
 30
0.0
 11
347.8163444639718
 21
178.9950407402064
 31
0.0
 70
    32
  1
H
  3
SUNPOU_2
100
AcDbAlignedDimension
 13
295.7804920913883
 23
269.6950407402066
 33
0.0
 14
352.3163444639718
 24
88.2950407402065
 34
0.0
 50
90.0
100
AcDbRotatedDimension
  0
DIMENSION
  5
974
330
A
100
AcDbEntity
  8
SUNPOU
100
AcDbDimension
  2
*D22
 10
352.3163444639718
 20
269.6950407402066
 30
0.0
 11
347.8163444639718
 21
379.6950407402065
 31
0.0
 70
    32
  3
SUNPOU_2
100
AcDbAlignedDimension
 13
295.7804920913883
 23
489.6950407402063
 33
0.0
 14
295.7804920913883
 24
269.6950407402066
 34
0.0
 50
90.0
100
AcDbRotatedDimension
  0
DIMENSION
  5
981
330
A
100
AcDbEntity
  8
SUNPOU
100
AcDbDimension
  2
*D23
 10
168.3804920913883
 20
522.6336039261998
 30
0.0
 11
161.6926249892608
 21
527.7835984356128
 31
0.0
 70
   160
  3
SUNPOU_2
100
AcDbAlignedDimension
 13
165.3804920913883
 23
522.6336039261998
 33
0.0
 14
168.3804920913883
 24
536.9742185312327
 34
0.0
100
AcDbRotatedDimension
  0
DIMENSION
  5
990
330
A
100
AcDbEntity
  8
SUNPOU
100
AcDbDimension
  2
*D24
 10
297.3804920913883
 20
522.6336039261998
 30
0.0
 11
232.8804920913885
 21
527.1336039261998
 31
0.0
 70
    32
  3
SUNPOU_2
100
AcDbAlignedDimension
 13
168.3804920913883
 23
536.9742185312327
 33
0.0
 14
297.3804920913883
 24
536.9742185312327
 34
0.0
100
AcDbRotatedDimension
  0
DIMENSION
  5
99D
330
A
100
AcDbEntity
  8
SUNPOU
100
AcDbDimension
  2
*D25
 10
300.3804920913883
 20
522.6336039261998
 30
0.0
 11
304.0057761000803
 21
527.7777864953391
 31
0.0
 70
   160
  3
SUNPOU_2
100
AcDbAlignedDimension
 13
297.3804920913883
 23
536.9742185312327
 33
0.0
 14
300.3804920913883
 24
522.6336039261998
 34
0.0
100
AcDbRotatedDimension
  0
DIMENSION
  5
9AC
330
A
100
AcDbEntity
  8
SUNPOU
100
AcDbDimension
  2
*D26
 10
281.4098965414331
 20
88.2950407402065
 30
0.0
 11
276.1594022670539
 21
84.64532316893246
 31
0.0
 70
   160
  3
SUNPOU_2
100
AcDbAlignedDimension
 13
270.6304920913884
 23
91.29504074020649
 33
0.0
 14
271.3804920913884
 24
88.2950407402065
 34
0.0
 50
90.0
100
AcDbRotatedDimension
  0
DIMENSION
  5
9BB
330
A
100
AcDbEntity
  8
SUNPOU
100
AcDbDimension
  2
*D27
 10
293.8115694531948
 20
66.29504074020641
 30
0.0
 11
289.3115694531948
 21
78.7950407402065
 31
0.0
 70
    32
  3
SUNPOU_2
100
AcDbAlignedDimension
 13
270.6304920913884
 23
91.29504074020649
 33
0.0
 14
254.8804920913883
 24
66.29504074020641
 34
0.0
 50
90.0
100
AcDbRotatedDimension
  0
DIMENSION
  5
9C8
330
A
100
AcDbEntity
  8
SUNPOU
100
AcDbDimension
  2
*D28
 10
254.8804920913883
 20
50.69258786837258
 30
0.0
 11
246.3804920913883
 21
55.19258786837259
 31
0.0
 70
    32
  3
SUNPOU_2
100
AcDbAlignedDimension
 13
237.8804920913885
 23
66.29504074020641
 33
0.0
 14
254.8804920913883
 24
66.29504074020646
 34
0.0
100
AcDbRotatedDimension
  0
LINE
  5
D73
330
A
100
AcDbEntity
  8
03
100
AcDbLine
 10
300.3804920913883
 20
88.2950407402065
 30
0.0
 11
300.3804920913883
 21
137.6950407402065
 31
0.0
  0
LINE
  5
DDE
330
A
100
AcDbEntity
  8
CHUSIN
100
AcDbLine
 10
246.3804920913883
 20
253.0578345359038
 30
0.0
 11
246.3804920913883
 21
376.8492274806415
 31
0.0
  0
LINE
  5
DDF
330
A
100
AcDbEntity
  8
CHUSIN
100
AcDbLine
 10
246.3804920913883
 20
236.5638922286514
 30
0.0
 11
246.3804920913883
 21
242.2633699533486
 31
0.0
  0
POLYLINE
  5
E0A
330
A
100
AcDbEntity
  8
SAISEN
100
AcDb2dPolyline
 66
     1
 10
0.0
 20
0.0
 30
0.0
 70
     1
  0
VERTEX
  5
3DCB
330
E0A
100
AcDbEntity
  8
SAISEN
100
AcDbVertex
100
AcDb2dVertex
 10
113.8763833278077
 20
145.1177313379464
 30
0.0
  0
VERTEX
  5
3DCC
330
E0A
100
AcDbEntity
  8
SAISEN
100
AcDbVertex
100
AcDb2dVertex
 10
123.8763833278077
 20
145.1177313379464
 30
0.0
  0
VERTEX
  5
3DCD
330
E0A
100
AcDbEntity
  8
SAISEN
100
AcDbVertex
100
AcDb2dVertex
 10
123.8763833278077
 20
175.1177313379463
 30
0.0
  0
VERTEX
  5
3DCE
330
E0A
100
AcDbEntity
  8
SAISEN
100
AcDbVertex
100
AcDb2dVertex
 10
113.8763833278077
 20
175.1177313379463
 30
0.0
  0
SEQEND
  5
3DCF
330
E0A
100
AcDbEntity
  8
SAISEN
  0
MTEXT
  5
E0B
330
A
100
AcDbEntity
  8
MOJI
100
AcDbMText
 10
118.8763833278077
 20
160.1177313379464
 30
0.0
 40
6.0
 41
10.0
 71
     5
 72
     1
  1
外\P\P部
  7
0_8
1001
ACAD
1000
MTEXTBEGIN
1070
    73
1070
     1
1070
    44
1040
1.0
1070
    74
1070
     0
1000
MTEXTEND
1000
MTEXTBEGIN
1070
    73
1070
     1
1070
    44
1040
1.0
1070
    74
1070
     0
1000
MTEXTEND
  0
POLYLINE
  5
E0C
330
A
100
AcDbEntity
  8
SAISEN
100
AcDb2dPolyline
 66
     1
 10
0.0
 20
0.0
 30
0.0
 70
     1
  0
VERTEX
  5
3DD0
330
E0C
100
AcDbEntity
  8
SAISEN
100
AcDbVertex
100
AcDb2dVertex
 10
370.2853340870416
 20
145.1177313379464
 30
0.0
  0
VERTEX
  5
3DD1
330
E0C
100
AcDbEntity
  8
SAISEN
100
AcDbVertex
100
AcDb2dVertex
 10
380.2853340870417
 20
145.1177313379464
 30
0.0
  0
VERTEX
  5
3DD2
330
E0C
100
AcDbEntity
  8
SAISEN
100
AcDbVertex
100
AcDb2dVertex
 10
380.2853340870417
 20
175.1177313379463
 30
0.0
  0
VERTEX
  5
3DD3
330
E0C
100
AcDbEntity
  8
SAISEN
100
AcDbVertex
100
AcDb2dVertex
 10
370.2853340870416
 20
175.1177313379463
 30
0.0
  0
SEQEND
  5
3DD4
330
E0C
100
AcDbEntity
  8
SAISEN
  0
MTEXT
  5
E0D
330
A
100
AcDbEntity
  8
MOJI
100
AcDbMText
 10
375.2853340870416
 20
160.1177313379464
 30
0.0
 40
6.0
 41
10.0
 71
     5
 72
     1
  1
内\P\P部
  7
0_8
1001
ACAD
1000
MTEXTBEGIN
1070
    73
1070
     1
1070
    44
1040
1.0
1070
    74
1070
     0
1000
MTEXTEND
1000
MTEXTBEGIN
1070
    73
1070
     1
1070
    44
1040
1.0
1070
    74
1070
     0
1000
MTEXTEND
  0
LEADER
  5
E12
330
A
100
AcDbEntity
  8
HIKIDASI
  6
CONTINUOUS
100
AcDbLeader
  3
SUNPOU_2
 73
     0
 75
     1
 40
13.33333333333333
 41
28.0
 76
     3
 10
184.3804920913884
 20
444.6950500657306
 30
0.0
 10
129.434549545644
 20
468.2727703407651
 30
0.0
 10
124.4345495456441
 20
468.2727703407651
 30
0.0
340
E13
213
0.0
223
8.106056969948667
233
0.0
1001
ACAD
1000
DSTYLE
1002
{
1070
     5
1000
OPEN30
1070
    77
1070
     1
1070
   147
1040
1.0
1070
   342
1005
776
1002
}
1000
LEANOF
1010
0.0
1020
8.106056969948667
1030
0.0
1000
LEANOF
1010
0.0
1020
8.106056969948667
1030
0.0
1000
LEANOF
1010
0.0
1020
8.106056969948667
1030
0.0
  0
MTEXT
  5
E13
330
A
100
AcDbEntity
  8
HIKIDASI
  6
CONTINUOUS
 62
     6
100
AcDbMText
 10
94.43454954564414
 20
462.1667133708166
 30
0.0
 40
5.0
 41
0.0
 71
     7
 72
     1
  1
M6タップ\P(サッシ工事)
  7
SUNPOU
1001
ACAD
1000
MTEXTBEGIN
1070
    73
1070
     1
1070
    44
1040
1.0
1070
    74
1070
     0
1000
MTEXTEND
1000
MTEXTBEGIN
1070
    73
1070
     1
1070
    44
1040
1.0
1070
    74
1070
     0
1000
MTEXTEND
  0
LINE
  5
E18
330
A
100
AcDbEntity
  8
02
  6
CONTINUOUS
100
AcDbLine
 10
213.3809340205281
 20
351.6950407402065
 30
0.0
 11
190.3804920913883
 21
351.6950407402065
 31
0.0
  0
DIMENSION
  5
EBF
330
A
100
AcDbEntity
  8
SUNPOU
  6
CONTINUOUS
100
AcDbDimension
  2
*D30
 10
246.3804920913883
 20
361.3455964207021
 30
0.0
 11
229.7013762717916
 21
367.2253519657782
 31
0.0
 70
   160
  3
SUNPOU_2
100
AcDbAlignedDimension
 13
219.3804920913883
 23
345.6950407402065
 33
0.0
 14
246.3804920913883
 24
361.3455964207021
 34
0.0
100
AcDbRotatedDimension
  0
LEADER
  5
ED5
330
A
100
AcDbEntity
  8
HIKIDASI
  6
CONTINUOUS
100
AcDbLeader
  3
SUNPOU_2
 73
     0
 40
5.0
 41
46.66666666666665
 76
     2
 10
194.3823695941349
 20
269.6950407402066
 30
0.0
 10
142.152972509186
 20
257.3390091381829
 30
0.0
340
ED6
1001
ACAD
1000
DSTYLE
1002
{
1070
     5
1000
OPEN30
1070
    77
1070
     1
1070
   147
1040
1.0
1070
   342
1005
776
1002
}
1000
LEANOF
1010
0.0
1020
0.0
1030
0.0
1000
LEANOF
1010
0.0
1020
0.0
1030
0.0
1000
LEANOF
1010
0.0
1020
0.0
1030
0.0
  0
MTEXT
  5
ED6
330
A
100
AcDbEntity
  8
HIKIDASI
  6
CONTINUOUS
 62
     6
100
AcDbMText
 10
93.48630584251941
 20
259.3390091381829
 30
0.0
 40
5.0
 41
0.0
 71
     7
 72
     1
  1
方立上部φ１２穴加工
  7
SUNPOU
1001
ACAD
1000
MTEXTBEGIN
1070
    73
1070
     1
1070
    44
1040
1.0
1070
    74
1070
     0
1000
MTEXTEND
1000
MTEXTBEGIN
1070
    73
1070
     1
1070
    44
1040
1.0
1070
    74
1070
     0
1000
MTEXTEND
  0
MTEXT
  5
F0B
330
A
100
AcDbEntity
  8
MOJI
  6
CONTINUOUS
100
AcDbMText
 10
37.16820041727919
 20
68.20371620016465
 30
0.0
 40
6.0
 41
0.0
 71
     4
 72
     1
  1
\U+203B扉1枚質量100kg以内\P（100kgを超える場合は\P　係員にご相談下さい。）
  7
0_8
1001
ACAD
1000
MTEXTBEGIN
1070
    73
1070
     1
1070
    44
1040
1.0
1070
    74
1070
     0
1000
MTEXTEND
1000
MTEXTBEGIN
1070
    73
1070
     1
1070
    44
1040
1.0
1070
    74
1070
     0
1000
MTEXTEND
  0
DIMENSION
  5
138B
330
A
100
AcDbEntity
  8
SUNPOU
  6
CONTINUOUS
100
AcDbDimension
  2
*D31
 10
149.9639313235095
 20
444.6950500657306
 30
0.0
 11
145.430198296462
 21
425.1906010496075
 31
0.0
 70
   160
  3
SUNPOU_2
100
AcDbAlignedDimension
 13
175.134838854956
 23
394.6950500657306
 33
0.0
 14
175.1844888186349
 24
444.6950500657306
 34
0.0
 50
90.0
100
AcDbRotatedDimension
  0
INSERT
  5
13E9
330
A
100
AcDbEntity
  8
KAKURE
  6
CONTINUOUS
100
AcDbBlockReference
  2
*X33
 10
0.0
 20
0.0
 30
0.0
1001
ACAD
1000
HATCH
1002
{
1070
    19
1000
ANSI31
1040
15.0
1040
0.0
1000
R14_HATCH_DATA
1000
13E9
1011
1.0
1021
0.0
1031
0.0
1011
0.0
1021
1.0
1031
0.0
1011
0.0
1021
0.0
1031
1.0
1040
0.0
1010
0.0
1020
0.0
1030
1.0
1000
ANSI31
1070
     0
1070
     0
1071
        6
1071
        7
1070
     0
1070
     1
1071
        4
1040
206.377802695562
1040
271.1950407402066
1040
194.3845579564746
1040
271.1950407402064
1040
194.3823695941349
1040
269.6950407402066
1040
206.377802695562
1040
269.6950407402066
1071
        0
1071
        7
1070
     0
1070
     1
1071
        6
1040
206.377802695562
1040
277.1851127380164
1040
205.8804920913884
1040
284.5950407402065
1040
194.8804920913883
1040
284.5950407402065
1040
194.3935216944501
1040
277.3391818258261
1040
194.3845579564746
1040
271.1950407402064
1040
206.377802695562
1040
271.1950407402066
1071
        0
1071
       22
1070
     0
1070
     1
1071
        3
1040
194.8804920913883
1040
284.5950407402065
1040
194.4041073267113
1040
284.5950407402065
1040
194.3935216944501
1040
277.339181825826
1071
        0
1071
       23
1070
     0
1070
     1
1071
        3
1040
206.377802695562
1040
284.5950407402065
1040
205.8804920913884
1040
284.5950407402065
1040
206.377802695562
1040
277.1851127380167
1071
        0
1071
        7
1070
     0
1070
     1
1071
        4
1040
206.377802695562
1040
286.0950407402066
1040
194.4062956890513
1040
286.0950407402065
1040
194.4041073267113
1040
284.5950407402065
1040
206.377802695562
1040
284.5950407402065
1071
        0
1071
        7
1070
     0
1070
     1
1071
        4
1040
206.377802695562
1040
287.6950407402066
1040
194.4086299422139
1040
287.6950407402066
1040
194.4062956890513
1040
286.0950407402065
1040
206.377802695562
1040
286.0950407402065
1071
        0
1070
     0
1070
     1
1040
0.0
1040
15.0
1070
     0
1070
     1
1040
0.7853981633974483
1040
0.0
1040
-12.66260425100608
1040
-1.325825214724774
1040
1.325825214724774
1070
     0
1040
0.0519203178512417
1071
        6
1040
203.7179679910309
1040
270.462900168784
1040
0.0
1040
197.6930249467718
1040
276.58949878317
1040
0.0
1040
194.7324918210013
1040
284.0660241946233
1040
0.0
1040
206.1071684799351
1040
283.962183352615
1040
0.0
1040
205.6916567415446
1040
284.637148134163
1040
0.0
1040
204.7048123662874
1040
286.9735622388038
1040
0.0
1002
}
  0
LINE
  5
1403
330
A
100
AcDbEntity
  8
04
100
AcDbLine
 10
233.8804920913883
 20
283.6950407402066
 30
0.0
 11
258.8804920913884
 21
283.6950407402066
 31
0.0
  0
LINE
  5
1407
330
A
100
AcDbEntity
  8
04
100
AcDbLine
 10
258.8804920913884
 20
279.6950407402064
 30
0.0
 11
258.8804920913884
 21
283.6950298098467
 31
0.0
  0
LINE
  5
1408
330
A
100
AcDbEntity
  8
04
100
AcDbLine
 10
233.8804920913883
 20
283.6950407402063
 30
0.0
 11
233.8804920913883
 21
279.6950407402064
 31
0.0
  0
MTEXT
  5
1838
330
A
100
AcDbEntity
  8
HIKIDASI
  6
CONTINUOUS
 62
     6
100
AcDbMText
 10
94.43454954564399
 20
408.0659225023445
 30
0.0
 40
5.0
 41
0.0
 71
     7
 72
     1
  1
M6タップ\P(サッシ工事)
  7
SUNPOU
1001
ACAD
1000
MTEXTBEGIN
1070
    73
1070
     1
1070
    44
1040
1.0
1070
    74
1070
     0
1000
MTEXTEND
1000
MTEXTBEGIN
1070
    73
1070
     1
1070
    44
1040
1.0
1070
    74
1070
     0
1000
MTEXTEND
  0
LEADER
  5
1839
330
A
100
AcDbEntity
  8
HIKIDASI
  6
CONTINUOUS
100
AcDbLeader
  3
SUNPOU_2
 73
     0
 75
     1
 40
13.33333333333333
 41
28.0
 76
     3
 10
184.3804920913884
 20
394.6950500657306
 30
0.0
 10
129.434549545644
 20
414.1719794722932
 30
0.0
 10
124.434549545644
 20
414.1719794722932
 30
0.0
340
1838
213
0.0
223
8.106056969948667
233
0.0
1001
ACAD
1000
DSTYLE
1002
{
1070
     5
1000
OPEN30
1070
    77
1070
     1
1070
   147
1040
1.0
1070
   342
1005
776
1002
}
1000
LEANOF
1010
0.0
1020
8.106056969948667
1030
0.0
1000
LEANOF
1010
0.0
1020
8.106056969948667
1030
0.0
1000
LEANOF
1010
0.0
1020
8.106056969948667
1030
0.0
  0
MTEXT
  5
1B72
330
A
100
AcDbEntity
  8
MOJI
  6
CONTINUOUS
100
AcDbMText
 10
38.0
 20
116.6753278739914
 30
0.0
 40
6.0
 41
0.0
 71
     4
 72
     1
  1
{\L100KLDM  A=91.7\P160KLDM  A=86\P200KLDM A=90.5}
  7
0_8
1001
ACAD
1000
MTEXTBEGIN
1070
    73
1070
     1
1070
    44
1040
1.0
1070
    74
1070
     0
1000
MTEXTEND
1000
MTEXTBEGIN
1070
    73
1070
     1
1070
    44
1040
1.0
1070
    74
1070
     0
1000
MTEXTEND
  0
LINE
  5
37BD
330
A
100
AcDbEntity
  8
KAKURE
100
AcDbLine
 10
277.8805034162682
 20
396.4150850846873
 30
0.0
 11
278.6093252196808
 21
393.6950850846873
 31
0.0
  0
LINE
  5
37BF
330
A
100
AcDbEntity
  8
KAKURE
100
AcDbLine
 10
261.8805034162682
 20
396.4150850846873
 30
0.0
 11
261.1516816128554
 21
393.6950850846873
 31
0.0
  0
LINE
  5
37C1
330
A
100
AcDbEntity
  8
KAKURE
100
AcDbLine
 10
259.8805034162682
 20
448.6950850846873
 30
0.0
 11
259.8805034162682
 21
393.6950850846873
 31
0.0
  0
LINE
  5
37C3
330
A
100
AcDbEntity
  8
KAKURE
100
AcDbLine
 10
279.851656636173
 20
393.6950850846873
 30
0.0
 11
279.851656636173
 21
448.6950850846873
 31
0.0
  0
LINE
  5
37C5
330
A
100
AcDbEntity
  8
KAKURE
100
AcDbLine
 10
258.0805830454126
 20
456.1949903029671
 30
0.0
 11
258.0805619684664
 21
386.195068226995
 31
0.0
  0
LINE
  5
37C9
330
A
100
AcDbEntity
  8
KAKURE
100
AcDbLine
 10
195.5806554191653
 20
454.6948834093463
 30
0.0
 11
195.5805529908248
 21
384.6948636735556
 31
0.0
  0
LINE
  5
37CA
330
A
100
AcDbEntity
  8
KAKURE
100
AcDbLine
 10
199.5804954158403
 20
454.6950156656658
 30
0.0
 11
199.5805696995365
 21
384.6948517002751
 31
0.0
  0
LINE
  5
37CB
330
A
100
AcDbEntity
  8
04
100
AcDbLine
 10
195.3804920913883
 20
454.6950500657308
 30
0.0
 11
195.3804920913883
 21
384.6950500657305
 31
0.0
  0
LINE
  5
37CD
330
A
100
AcDbEntity
  8
CHUSIN
100
AcDbLine
 10
269.8804920913884
 20
458.304984640098
 30
0.0
 11
269.8804920913884
 21
391.3283010020514
 31
0.0
  0
LINE
  5
37CE
330
A
100
AcDbEntity
  8
04
100
AcDbLine
 10
190.3804920913883
 20
381.6950500657306
 30
0.0
 11
190.3804920913883
 21
457.6950500657308
 31
0.0
  0
LINE
  5
37CF
330
A
100
AcDbEntity
  8
KAKURE
100
AcDbLine
 10
255.0806098587234
 20
385.1950985634458
 30
0.0
 11
201.8804920913884
 21
385.1950500657305
 31
0.0
  0
LINE
  5
37D0
330
A
100
AcDbEntity
  8
04
100
AcDbLine
 10
190.3804920913883
 20
381.6950500657306
 30
0.0
 11
201.8804920913884
 21
381.6950500657306
 31
0.0
  0
LINE
  5
37D6
330
A
100
AcDbEntity
  8
04
100
AcDbLine
 10
199.5804920913884
 20
384.6950500657305
 30
0.0
 11
199.5804920913884
 21
387.1950500657305
 31
0.0
  0
LINE
  5
37D7
330
A
100
AcDbEntity
  8
04
100
AcDbLine
 10
199.5804920913884
 20
387.1950500657305
 30
0.0
 11
200.8804920913883
 21
387.1950500657305
 31
0.0
  0
LINE
  5
37D8
330
A
100
AcDbEntity
  8
04
100
AcDbLine
 10
200.8804920913883
 20
387.1950500657305
 30
0.0
 11
201.8804920913884
 21
385.1950500657305
 31
0.0
  0
LINE
  5
37D9
330
A
100
AcDbEntity
  8
04
100
AcDbLine
 10
195.3806251412346
 20
384.6948572039297
 30
0.0
 11
199.5805696309363
 21
384.6948717322644
 31
0.0
  0
LINE
  5
37DA
330
A
100
AcDbEntity
  8
04
100
AcDbLine
 10
201.8804920913884
 20
381.6950500657306
 30
0.0
 11
201.8804920913884
 21
385.1950500657305
 31
0.0
  0
LINE
  5
37DE
330
A
100
AcDbEntity
  8
KAKURE
100
AcDbLine
 10
258.0805434016891
 20
386.1952570776052
 30
0.0
 11
255.0805300642962
 21
386.1951350073888
 31
0.0
  0
LINE
  5
37DF
330
A
100
AcDbEntity
  8
KAKURE
100
AcDbLine
 10
259.8805034162682
 20
393.6950850846873
 30
0.0
 11
261.1516816128554
 21
393.6950850846873
 31
0.0
  0
LINE
  5
37E0
330
A
100
AcDbEntity
  8
KAKURE
100
AcDbLine
 10
278.6093252196808
 20
393.6950850846873
 30
0.0
 11
279.851656636173
 21
393.6950850846873
 31
0.0
  0
LINE
  5
37E4
330
A
100
AcDbEntity
  8
KAKURE
100
AcDbLine
 10
201.8804920913884
 20
457.1951918249251
 30
0.0
 11
255.0805238530464
 21
457.1952455085326
 31
0.0
  0
LINE
  5
37E5
330
A
100
AcDbEntity
  8
CHUSIN
100
AcDbLine
 10
283.4376370642352
 20
421.1950480131569
 30
0.0
 11
254.6825183777059
 21
421.1950640355531
 31
0.0
  0
LINE
  5
37E6
330
A
100
AcDbEntity
  8
04
100
AcDbLine
 10
201.8804920913884
 20
457.6950500657308
 30
0.0
 11
201.8804920913884
 21
454.1950500657308
 31
0.0
  0
LINE
  5
37E7
330
A
100
AcDbEntity
  8
CHUSIN
 48
0.3
100
AcDbLine
 10
181.4394399172975
 20
419.6950500657306
 30
0.0
 11
202.8085763249221
 21
419.6950500657306
 31
0.0
  0
LINE
  5
37E9
330
A
100
AcDbEntity
  8
CHUSIN
100
AcDbLine
 10
175.1844888186349
 20
444.6950500657306
 30
0.0
 11
216.0929417786501
 21
444.6950500657306
 31
0.0
  0
LINE
  5
37EA
330
A
100
AcDbEntity
  8
CHUSIN
100
AcDbLine
 10
175.134838854956
 20
394.6950500657306
 30
0.0
 11
216.0929417786501
 21
394.6950500657306
 31
0.0
  0
LINE
  5
3804
330
A
100
AcDbEntity
  8
KAKURE
100
AcDbLine
 10
205.3805647707856
 20
444.6951659318833
 30
0.0
 11
199.5805060276126
 21
444.6951659318833
 31
0.0
  0
LINE
  5
3807
330
A
100
AcDbEntity
  8
KAKURE
100
AcDbLine
 10
195.5807179198078
 20
454.6952089805404
 30
0.0
 11
199.5804920913884
 21
454.6950500657308
 31
0.0
  0
LINE
  5
3808
330
A
100
AcDbEntity
  8
04
100
AcDbLine
 10
199.5804920913884
 20
452.1950500657306
 30
0.0
 11
200.8804920913883
 21
452.1950500657306
 31
0.0
  0
LINE
  5
380A
330
A
100
AcDbEntity
  8
04
100
AcDbLine
 10
199.5804920913884
 20
452.1950500657306
 30
0.0
 11
199.5804920913884
 21
454.6950500657308
 31
0.0
  0
LINE
  5
380B
330
A
100
AcDbEntity
  8
04
100
AcDbLine
 10
201.8804920913884
 20
454.1950500657308
 30
0.0
 11
200.8804920913883
 21
452.1950500657306
 31
0.0
  0
LINE
  5
380C
330
A
100
AcDbEntity
  8
04
100
AcDbLine
 10
195.3805665139291
 20
454.6949061646817
 30
0.0
 11
199.580552348464
 21
454.6944942363079
 31
0.0
  0
LINE
  5
3819
330
A
100
AcDbEntity
  8
04
100
AcDbLine
 10
190.3804920913883
 20
457.6950500657308
 30
0.0
 11
201.8804920913884
 21
457.6950500657308
 31
0.0
  0
LINE
  5
381E
330
A
100
AcDbEntity
  8
KAKURE
100
AcDbLine
 10
279.8805034162682
 20
441.1950850846872
 30
0.0
 11
279.8805034162682
 21
401.1950850846873
 31
0.0
  0
LINE
  5
381F
330
A
100
AcDbEntity
  8
CHUSIN
100
AcDbLine
 10
262.2733736188791
 20
395.7300850846873
 30
0.0
 11
277.4384318813766
 21
395.7300850846873
 31
0.0
  0
LINE
  5
3820
330
A
100
AcDbEntity
  8
06
100
AcDbLine
 10
263.8804951414862
 20
396.4151026283132
 30
0.0
 11
275.8804951414862
 21
396.415067540898
 31
0.0
  0
LINE
  5
3821
330
A
100
AcDbEntity
  8
06
 48
3.0
100
AcDbLine
 10
275.8805034162682
 20
399.2450675406253
 30
0.0
 11
263.8805034162682
 21
399.2451026280404
 31
0.0
  0
LINE
  5
3822
330
A
100
AcDbEntity
  8
06
 48
3.0
100
AcDbLine
 10
263.8805034162682
 20
394.1701026282793
 30
0.0
 11
275.8805034162682
 21
394.1700675408641
 31
0.0
  0
LINE
  5
382C
330
A
100
AcDbEntity
  8
KAKURE
100
AcDbLine
 10
277.8805034162682
 20
396.4150850846873
 30
0.0
 11
261.8805034162682
 21
396.4150850846873
 31
0.0
  0
LINE
  5
3836
330
A
100
AcDbEntity
  8
06
 48
3.0
100
AcDbLine
 10
263.8805034162682
 20
399.2451026280404
 30
0.0
 11
263.8805034162682
 21
394.1701026282793
 31
0.0
  0
LINE
  5
3837
330
A
100
AcDbEntity
  8
KAKURE
100
AcDbLine
 10
259.8805034162682
 20
413.6950850846873
 30
0.0
 11
258.0805059420043
 21
413.6950850846873
 31
0.0
  0
LINE
  5
3839
330
A
100
AcDbEntity
  8
06
 48
3.0
100
AcDbLine
 10
275.8805034162682
 20
399.2450675406253
 30
0.0
 11
275.8805034162682
 21
394.1700675408641
 31
0.0
  0
LINE
  5
383A
330
A
100
AcDbEntity
  8
CHUSIN
100
AcDbLine
 10
262.2733736188791
 20
446.6600850846873
 30
0.0
 11
277.4384318813766
 21
446.6600850846873
 31
0.0
  0
LINE
  5
383B
330
A
100
AcDbEntity
  8
06
 48
10.0
100
AcDbLine
 10
263.8805034162682
 20
448.2200850846873
 30
0.0
 11
275.8805034162682
 21
448.2200850846873
 31
0.0
  0
LINE
  5
383C
330
A
100
AcDbEntity
  8
06
 48
10.0
100
AcDbLine
 10
275.8805034162682
 20
443.1450850849478
 30
0.0
 11
263.8805034162682
 21
443.1450850849478
 31
0.0
  0
LINE
  5
383D
330
A
100
AcDbEntity
  8
06
100
AcDbLine
 10
263.8805034162682
 20
445.9750850846873
 30
0.0
 11
275.8805034162682
 21
445.9750850846873
 31
0.0
  0
LINE
  5
3844
330
A
100
AcDbEntity
  8
KAKURE
100
AcDbLine
 10
277.8805034162682
 20
445.9750850846873
 30
0.0
 11
261.8805034162682
 21
445.9750850846873
 31
0.0
  0
LINE
  5
384A
330
A
100
AcDbEntity
  8
KAKURE
100
AcDbLine
 10
258.0804750557723
 20
428.6950850846872
 30
0.0
 11
259.8805034162682
 21
428.6950850846872
 31
0.0
  0
LINE
  5
384B
330
A
100
AcDbEntity
  8
KAKURE
100
AcDbLine
 10
258.0805830454126
 20
456.1949903029671
 30
0.0
 11
255.0805783885683
 21
456.1951123736031
 31
0.0
  0
LINE
  5
384C
330
A
100
AcDbEntity
  8
06
 48
10.0
100
AcDbLine
 10
263.8805034162682
 20
443.1450850849478
 30
0.0
 11
263.8805034162682
 21
448.2200850846873
 31
0.0
  0
LINE
  5
384D
330
A
100
AcDbEntity
  8
KAKURE
100
AcDbLine
 10
261.8805034162682
 20
445.9750850846873
 30
0.0
 11
261.1516816128554
 21
448.6950850846873
 31
0.0
  0
LINE
  5
384E
330
A
100
AcDbEntity
  8
KAKURE
100
AcDbLine
 10
259.8805034162682
 20
448.6950850846873
 30
0.0
 11
261.1516816128554
 21
448.6950850846873
 31
0.0
  0
LINE
  5
384F
330
A
100
AcDbEntity
  8
KAKURE
100
AcDbLine
 10
279.8805034162682
 20
441.1950850846872
 30
0.0
 11
279.851656636173
 21
441.1950850846872
 31
0.0
  0
LINE
  5
3850
330
A
100
AcDbEntity
  8
06
 48
10.0
100
AcDbLine
 10
275.8805034162682
 20
443.1450865479018
 30
0.0
 11
275.8805034162682
 21
448.2200858163181
 31
0.0
  0
LINE
  5
3851
330
A
100
AcDbEntity
  8
KAKURE
100
AcDbLine
 10
277.8805034162682
 20
445.9750850846873
 30
0.0
 11
278.6093252196808
 21
448.6950850846873
 31
0.0
  0
LINE
  5
3852
330
A
100
AcDbEntity
  8
KAKURE
100
AcDbLine
 10
277.8805034162682
 20
445.9750850846873
 30
0.0
 11
278.6093252196808
 21
448.6950850846873
 31
0.0
  0
LINE
  5
3853
330
A
100
AcDbEntity
  8
KAKURE
100
AcDbLine
 10
278.6093252196808
 20
448.6950850846873
 30
0.0
 11
279.851656636173
 21
448.6950850846873
 31
0.0
  0
LINE
  5
386D
330
A
100
AcDbEntity
  8
04
100
AcDbLine
 10
236.3804920913883
 20
374.6950407402065
 30
0.0
 11
236.3804920913883
 21
314.6950407402066
 31
0.0
  0
LINE
  5
386E
330
A
100
AcDbEntity
  8
04
100
AcDbLine
 10
256.3804920913884
 20
374.6950407402065
 30
0.0
 11
256.3804920913884
 21
314.6950407402066
 31
0.0
  0
LINE
  5
3873
330
A
100
AcDbEntity
  8
04
100
AcDbLine
 10
267.3804920899844
 20
334.6950836260218
 30
0.0
 11
267.3804921092775
 21
354.6950836260218
 31
0.0
  0
LINE
  5
3874
330
A
100
AcDbEntity
  8
04
100
AcDbLine
 10
267.3804921072859
 20
334.6950311514273
 30
0.0
 11
267.3804920879928
 21
354.6950311514275
 31
0.0
  0
LINE
  5
3875
330
A
100
AcDbEntity
  8
04
100
AcDbLine
 10
267.3804920913884
 20
375.6950298098467
 30
0.0
 11
267.3804920913884
 21
294.6950298098466
 31
0.0
  0
LINE
  5
3876
330
A
100
AcDbEntity
  8
04
100
AcDbLine
 10
271.8804920913884
 20
330.6950124208848
 30
0.0
 11
271.8804920913884
 21
362.6950124208847
 31
0.0
  0
LINE
  5
3877
330
A
100
AcDbEntity
  8
04
100
AcDbLine
 10
267.3804920913884
 20
330.6950124208848
 30
0.0
 11
267.3804920913884
 21
362.6950124208847
 31
0.0
  0
LINE
  5
3878
330
A
100
AcDbEntity
  8
04
100
AcDbLine
 10
271.8804745697015
 20
330.8381352966088
 30
0.0
 11
271.8804949288427
 21
358.5509751902881
 31
0.0
  0
LINE
  5
3879
330
A
100
AcDbEntity
  8
04
100
AcDbLine
 10
274.380451088013
 20
358.5509751902881
 30
0.0
 11
274.380465306217
 21
352.3950298088725
 31
0.0
  0
LINE
  5
387B
330
A
100
AcDbEntity
  8
04
100
AcDbLine
 10
262.8804920913884
 20
352.1950298098467
 30
0.0
 11
262.8804920913884
 21
363.5950298098467
 31
0.0
  0
LINE
  5
387C
330
A
100
AcDbEntity
  8
04
100
AcDbLine
 10
262.8804920913884
 20
294.6950298098466
 30
0.0
 11
262.8804920913884
 21
375.6950298098467
 31
0.0
  0
LINE
  5
3881
330
A
100
AcDbEntity
  8
04
100
AcDbLine
 10
236.3804920913883
 20
314.6950407402066
 30
0.0
 11
240.0407461292328
 21
314.6950407402066
 31
0.0
  0
LINE
  5
3882
330
A
100
AcDbEntity
  8
04
100
AcDbLine
 10
237.8804616493702
 20
302.7449986600768
 30
0.0
 11
236.8804617541958
 21
302.7449986600768
 31
0.0
  0
LINE
  5
3883
330
A
100
AcDbEntity
  8
04
100
AcDbLine
 10
237.8804618590128
 20
290.6449986600768
 30
0.0
 11
236.8804617541448
 21
290.6449986600768
 31
0.0
  0
LINE
  5
3884
330
A
100
AcDbEntity
  8
04
100
AcDbLine
 10
234.8804920913884
 20
288.1950298098466
 30
0.0
 11
262.8804920913884
 21
288.1950298098466
 31
0.0
  0
LINE
  5
3885
330
A
100
AcDbEntity
  8
04
100
AcDbLine
 10
234.8804920913884
 20
283.6950298098467
 30
0.0
 11
262.8804920913884
 21
283.6950298098467
 31
0.0
  0
LINE
  5
3886
330
A
100
AcDbEntity
  8
CHUSIN
100
AcDbLine
 10
287.6046179494275
 20
344.6950407402066
 30
0.0
 11
231.3804920913884
 21
344.6950407402066
 31
0.0
  0
LINE
  5
3887
330
A
100
AcDbEntity
  8
CHUSIN
100
AcDbLine
 10
230.3311863647393
 20
296.6949986600768
 30
0.0
 11
265.4065365909608
 21
296.6949986600768
 31
0.0
  0
LINE
  5
388A
330
A
100
AcDbEntity
  8
04
100
AcDbLine
 10
235.8804444140818
 20
291.9948366551961
 30
0.0
 11
235.8804779205327
 21
301.3950650364473
 31
0.0
  0
LINE
  5
388B
330
A
100
AcDbEntity
  8
04
100
AcDbLine
 10
236.8804617541488
 20
291.6949777183782
 30
0.0
 11
236.1804433417681
 21
291.6948789733726
 31
0.0
  0
LINE
  5
388C
330
A
100
AcDbEntity
  8
04
100
AcDbLine
 10
236.1804433417681
 20
291.6948789733726
 30
0.0
 11
235.8804444140818
 21
291.9948366551961
 31
0.0
  0
LINE
  5
388D
330
A
100
AcDbEntity
  8
04
100
AcDbLine
 10
234.8804920913884
 20
288.1950298098466
 30
0.0
 11
234.8804920913884
 21
283.6950298098467
 31
0.0
  0
LINE
  5
388E
330
A
100
AcDbEntity
  8
04
100
AcDbLine
 10
236.8804617541913
 20
301.6950040020605
 30
0.0
 11
236.1804789893028
 21
301.6950467258145
 31
0.0
  0
LINE
  5
388F
330
A
100
AcDbEntity
  8
04
100
AcDbLine
 10
236.1804789893028
 20
301.6950467258145
 30
0.0
 11
235.8804779205327
 21
301.3950650364473
 31
0.0
  0
LINE
  5
3894
330
A
100
AcDbEntity
  8
04
100
AcDbLine
 10
233.7804921777183
 20
349.6777396301076
 30
0.0
 11
233.7804921777183
 21
339.8777396301076
 31
0.0
  0
LINE
  5
3895
330
A
100
AcDbEntity
  8
04
100
AcDbLine
 10
233.7804921777183
 20
349.6777396301076
 30
0.0
 11
234.284935391842
 21
350.5514300825231
 31
0.0
  0
LINE
  5
3896
330
A
100
AcDbEntity
  8
04
100
AcDbLine
 10
234.284935391842
 20
350.5514300825231
 30
0.0
 11
236.3804920913883
 21
350.5513159079125
 31
0.0
  0
LINE
  5
3897
330
A
100
AcDbEntity
  8
04
100
AcDbLine
 10
234.2849290705509
 20
339.0040584135042
 30
0.0
 11
236.3804920913883
 21
339.0041670514548
 31
0.0
  0
LINE
  5
3898
330
A
100
AcDbEntity
  8
04
100
AcDbLine
 10
233.7804921777183
 20
339.8777396301076
 30
0.0
 11
234.2849290705509
 21
339.0040584135042
 31
0.0
  0
LINE
  5
389A
330
A
100
AcDbEntity
  8
04
100
AcDbLine
 10
258.3804920913884
 20
325.6950298098467
 30
0.0
 11
258.3804920913884
 21
291.1950298098466
 31
0.0
  0
LINE
  5
389B
330
A
100
AcDbEntity
  8
04
100
AcDbLine
 10
262.8804920913884
 20
325.6950298098467
 30
0.0
 11
262.8804920913884
 21
291.1950298098466
 31
0.0
  0
LINE
  5
389C
330
A
100
AcDbEntity
  8
04
100
AcDbLine
 10
258.3804920913884
 20
288.1950298098466
 30
0.0
 11
258.3804920913884
 21
333.6950298098467
 31
0.0
  0
LINE
  5
389D
330
A
100
AcDbEntity
  8
04
100
AcDbLine
 10
262.8804920913884
 20
333.6950298098467
 30
0.0
 11
262.8804920913884
 21
283.6950298098467
 31
0.0
  0
LINE
  5
389E
330
A
100
AcDbEntity
  8
04
100
AcDbLine
 10
264.3804920913884
 20
301.1949986600768
 30
0.0
 11
264.3804920913884
 21
292.1949986600768
 31
0.0
  0
LINE
  5
38A1
330
A
100
AcDbEntity
  8
04
100
AcDbLine
 10
248.3804902077334
 20
305.1949687746304
 30
0.0
 11
248.3805204644226
 21
288.1952496438178
 31
0.0
  0
LINE
  5
38A3
330
A
100
AcDbEntity
  8
04
100
AcDbLine
 10
248.3805179732215
 20
290.1949980022156
 30
0.0
 11
258.3804920913884
 21
290.1949369679302
 31
0.0
  0
LINE
  5
38A4
330
A
100
AcDbEntity
  8
04
100
AcDbLine
 10
238.380461165245
 20
288.1948834329926
 30
0.0
 11
248.3805204644226
 21
288.1952496438178
 31
0.0
  0
LINE
  5
38A5
330
A
100
AcDbEntity
  8
04
100
AcDbLine
 10
238.3804609053548
 20
288.1949675113588
 30
0.0
 11
248.3804830877054
 21
288.1950285465878
 31
0.0
  0
LINE
  5
38A7
330
A
100
AcDbEntity
  8
04
100
AcDbLine
 10
237.8804618408238
 20
291.6948172839113
 30
0.0
 11
238.3804801579539
 21
291.6949727466775
 31
0.0
  0
LINE
  5
38AB
330
A
100
AcDbEntity
  8
04
100
AcDbLine
 10
264.3804920913884
 20
292.1949986600768
 30
0.0
 11
264.0144104600252
 21
291.6949661970688
 31
0.0
  0
LINE
  5
38AC
330
A
100
AcDbEntity
  8
04
100
AcDbLine
 10
262.8804930295771
 20
291.6949880234646
 30
0.0
 11
264.0144104600252
 21
291.6949661970688
 31
0.0
  0
LINE
  5
38AD
330
A
100
AcDbEntity
  8
04
100
AcDbLine
 10
267.3804920913884
 20
294.6950298098466
 30
0.0
 11
264.3804920913884
 21
294.6950298098466
 31
0.0
  0
LINE
  5
38AE
330
A
100
AcDbEntity
  8
04
100
AcDbLine
 10
267.3804920913884
 20
330.6950124208848
 30
0.0
 11
271.8804920913884
 21
330.6950124208848
 31
0.0
  0
LINE
  5
38B0
330
A
100
AcDbEntity
  8
04
100
AcDbLine
 10
270.4804920913883
 20
323.7950298098467
 30
0.0
 11
268.9804920913883
 21
323.7950298098467
 31
0.0
  0
LINE
  5
38B1
330
A
100
AcDbEntity
  8
04
100
AcDbLine
 10
270.4804920913883
 20
310.7950298098467
 30
0.0
 11
268.9804920913883
 21
310.7950298098467
 31
0.0
  0
LINE
  5
38B2
330
A
100
AcDbEntity
  8
04
100
AcDbLine
 10
268.9804920913883
 20
311.5950298098466
 30
0.0
 11
270.4804920913883
 21
311.5950298098466
 31
0.0
  0
LINE
  5
38B6
330
A
100
AcDbEntity
  8
04
100
AcDbLine
 10
268.9804920913883
 20
298.5950298098466
 30
0.0
 11
270.4804920913883
 21
298.5950298098466
 31
0.0
  0
LINE
  5
38B8
330
A
100
AcDbEntity
  8
04
100
AcDbLine
 10
252.7202380535439
 20
314.6950407402066
 30
0.0
 11
256.3804920913884
 21
314.6950407402066
 31
0.0
  0
LINE
  5
38B9
330
A
100
AcDbEntity
  8
04
100
AcDbLine
 10
248.3804855794563
 20
303.1949993179379
 30
0.0
 11
258.3804920913884
 21
303.1948930641231
 31
0.0
  0
LINE
  5
38BA
330
A
100
AcDbEntity
  8
04
100
AcDbLine
 10
238.3804609053548
 20
305.1950298098466
 30
0.0
 11
248.3804830877054
 21
305.1949687746176
 31
0.0
  0
LINE
  5
38BB
330
A
100
AcDbEntity
  8
04
100
AcDbLine
 10
237.880461667561
 20
301.6950650371545
 30
0.0
 11
238.3804438250455
 21
301.6949983848782
 31
0.0
  0
LINE
  5
38BC
330
A
100
AcDbEntity
  8
04
100
AcDbLine
 10
241.3804920913884
 20
319.6950407402066
 30
0.0
 11
251.3804920913883
 21
319.6950407402066
 31
0.0
  0
LINE
  5
38BD
330
A
100
AcDbEntity
  8
04
100
AcDbLine
 10
240.0407461292328
 20
314.6950407402066
 30
0.0
 11
241.3804920913884
 21
319.6950407402066
 31
0.0
  0
LINE
  5
38BE
330
A
100
AcDbEntity
  8
04
100
AcDbLine
 10
251.3804920913883
 20
319.6950407402066
 30
0.0
 11
252.7202380535439
 21
314.6950407402066
 31
0.0
  0
LINE
  5
38C0
330
A
100
AcDbEntity
  8
04
100
AcDbLine
 10
258.3804920913884
 20
308.6950298098467
 30
0.0
 11
262.8804920913884
 21
308.6950298098467
 31
0.0
  0
LINE
  5
38C2
330
A
100
AcDbEntity
  8
04
100
AcDbLine
 10
268.9804920913883
 20
298.4450298098467
 30
0.0
 11
267.3804920913884
 21
298.4450298098467
 31
0.0
  0
LINE
  5
38C3
330
A
100
AcDbEntity
  8
04
100
AcDbLine
 10
264.3804920913884
 20
301.1949986600768
 30
0.0
 11
264.0144104600252
 21
301.6950311230846
 31
0.0
  0
LINE
  5
38C4
330
A
100
AcDbEntity
  8
04
100
AcDbLine
 10
262.8804930295771
 20
301.6950092966889
 30
0.0
 11
264.0144104600252
 21
301.6950311230846
 31
0.0
  0
LINE
  5
38C8
330
A
100
AcDbEntity
  8
04
100
AcDbLine
 10
267.3804920913884
 20
323.9450298098468
 30
0.0
 11
268.9804920913883
 21
323.9450298098468
 31
0.0
  0
LINE
  5
38C9
330
A
100
AcDbEntity
  8
04
100
AcDbLine
 10
267.3804920913884
 20
310.9450298098467
 30
0.0
 11
268.9804920913883
 21
310.9450298098467
 31
0.0
  0
LINE
  5
38CA
330
A
100
AcDbEntity
  8
04
100
AcDbLine
 10
268.9804920913883
 20
311.4450298098466
 30
0.0
 11
267.3804920913884
 21
311.4450298098466
 31
0.0
  0
LINE
  5
38CE
330
A
100
AcDbEntity
  8
04
100
AcDbLine
 10
267.3804920899844
 20
334.6950836260218
 30
0.0
 11
256.3804920913884
 21
334.6950836260218
 31
0.0
  0
LINE
  5
38CF
330
A
100
AcDbEntity
  8
04
100
AcDbLine
 10
258.3804920913884
 20
333.6950298098467
 30
0.0
 11
262.8804920913884
 21
333.6950298098467
 31
0.0
  0
LINE
  5
38D0
330
A
100
AcDbEntity
  8
04
100
AcDbLine
 10
258.3804920913884
 20
325.6950298098467
 30
0.0
 11
262.8804920913884
 21
325.6950298098467
 31
0.0
  0
LINE
  5
38D4
330
A
100
AcDbEntity
  8
04
100
AcDbLine
 10
273.9760488772643
 20
310.468720262262
 30
0.0
 11
274.4804920913883
 21
309.5950298098466
 31
0.0
  0
LINE
  5
38D8
330
A
100
AcDbEntity
  8
04
100
AcDbLine
 10
273.9760551985558
 20
298.9213485932431
 30
0.0
 11
274.4804920913883
 21
299.7950298098467
 31
0.0
  0
LINE
  5
38DA
330
A
100
AcDbEntity
  8
04
100
AcDbLine
 10
270.4804920913883
 20
298.9215298098466
 30
0.0
 11
273.9760551985558
 21
298.9213485932431
 31
0.0
  0
LINE
  5
38DC
330
A
100
AcDbEntity
  8
04
100
AcDbLine
 10
274.4804920913883
 20
299.7950298098467
 30
0.0
 11
274.4804920913883
 21
309.5950298098466
 31
0.0
  0
LINE
  5
38DE
330
A
100
AcDbEntity
  8
04
100
AcDbLine
 10
273.9760488772643
 20
323.468720262262
 30
0.0
 11
274.4804920913883
 21
322.5950298098466
 31
0.0
  0
LINE
  5
38E1
330
A
100
AcDbEntity
  8
04
100
AcDbLine
 10
270.4804920913883
 20
323.4685298098467
 30
0.0
 11
273.9760488772643
 21
323.468720262262
 31
0.0
  0
LINE
  5
38E2
330
A
100
AcDbEntity
  8
04
100
AcDbLine
 10
273.9760551985558
 20
311.9213485932433
 30
0.0
 11
274.4804920913883
 21
312.7950298098467
 31
0.0
  0
LINE
  5
38E4
330
A
100
AcDbEntity
  8
04
100
AcDbLine
 10
270.4804920913883
 20
310.4685298098467
 30
0.0
 11
273.9760488772643
 21
310.468720262262
 31
0.0
  0
LINE
  5
38E5
330
A
100
AcDbEntity
  8
04
100
AcDbLine
 10
270.4804920913883
 20
311.9215298098466
 30
0.0
 11
273.9760551985558
 21
311.9213485932433
 31
0.0
  0
LINE
  5
38E7
330
A
100
AcDbEntity
  8
04
100
AcDbLine
 10
274.4804920913883
 20
312.7950298098467
 30
0.0
 11
274.4804920913883
 21
322.5950298098466
 31
0.0
  0
LINE
  5
38EA
330
A
100
AcDbEntity
  8
04
100
AcDbLine
 10
271.880492088548
 20
336.1950612463217
 30
0.0
 11
271.880492088548
 21
353.1950619256932
 31
0.0
  0
LINE
  5
38ED
330
A
100
AcDbEntity
  8
04
100
AcDbLine
 10
283.6102840192054
 20
338.3251495529031
 30
0.0
 11
283.6102840192054
 21
351.0649100667901
 31
0.0
  0
LINE
  5
38EE
330
A
100
AcDbEntity
  8
04
100
AcDbLine
 10
281.1103185827461
 20
338.3251495529031
 30
0.0
 11
281.1103185827461
 21
351.0649100667901
 31
0.0
  0
LINE
  5
38F2
330
A
100
AcDbEntity
  8
04
100
AcDbLine
 10
275.91041633218
 20
337.1896208989359
 30
0.0
 11
280.4545629491693
 21
337.1893853217798
 31
0.0
  0
LINE
  5
38F4
330
A
100
AcDbEntity
  8
04
100
AcDbLine
 10
273.9604529882178
 20
336.9950298098467
 30
0.0
 11
275.91041633218
 21
336.9950298098467
 31
0.0
  0
LINE
  5
38F5
330
A
100
AcDbEntity
  8
04
100
AcDbLine
 10
273.9604529882178
 20
336.1950298098467
 30
0.0
 11
271.8804920879914
 21
336.1950298098467
 31
0.0
  0
LINE
  5
38F6
330
A
100
AcDbEntity
  8
04
100
AcDbLine
 10
274.3805150955357
 20
330.8381352966088
 30
0.0
 11
271.8804745697015
 21
330.8381352966088
 31
0.0
  0
LINE
  5
38F7
330
A
100
AcDbEntity
  8
04
100
AcDbLine
 10
274.3805008751393
 20
336.9950298029118
 30
0.0
 11
274.3805150955357
 21
330.8381352966088
 31
0.0
  0
LINE
  5
38F9
330
A
100
AcDbEntity
  8
04
100
AcDbLine
 10
282.9545283856281
 20
337.1893853217798
 30
0.0
 11
283.6102840192054
 21
338.3251495529031
 31
0.0
  0
LINE
  5
38FB
330
A
100
AcDbEntity
  8
04
100
AcDbLine
 10
280.4545629491693
 20
337.1893853217798
 30
0.0
 11
281.1103185827461
 21
338.3251495529031
 31
0.0
  0
LINE
  5
38FC
330
A
100
AcDbEntity
  8
04
100
AcDbLine
 10
280.4545629491693
 20
337.1896208989359
 30
0.0
 11
282.9545283856281
 21
337.1893853217798
 31
0.0
  0
LINE
  5
38FF
330
A
100
AcDbEntity
  8
04
100
AcDbLine
 10
275.91041633218
 20
352.2004387207575
 30
0.0
 11
280.454554731645
 21
352.2006863042431
 31
0.0
  0
LINE
  5
3902
330
A
100
AcDbEntity
  8
04
100
AcDbLine
 10
275.91041633218
 20
352.3950298098467
 30
0.0
 11
273.9604529882178
 21
352.3950298098467
 31
0.0
  0
LINE
  5
3903
330
A
100
AcDbEntity
  8
04
100
AcDbLine
 10
271.8804920879914
 20
353.1950298098467
 30
0.0
 11
273.9604529882178
 21
353.1950298098467
 31
0.0
  0
LINE
  5
3907
330
A
100
AcDbEntity
  8
04
100
AcDbLine
 10
282.9545201681042
 20
352.2006863042431
 30
0.0
 11
283.6102840192054
 21
351.0649100667901
 31
0.0
  0
LINE
  5
3909
330
A
100
AcDbEntity
  8
04
100
AcDbLine
 10
280.454554731645
 20
352.2006863042431
 30
0.0
 11
281.1103185827461
 21
351.0649100667901
 31
0.0
  0
LINE
  5
390A
330
A
100
AcDbEntity
  8
04
100
AcDbLine
 10
280.454554731645
 20
352.2004387207575
 30
0.0
 11
282.9545201681042
 21
352.2006863042431
 31
0.0
  0
LINE
  5
3911
330
A
100
AcDbEntity
  8
04
100
AcDbLine
 10
236.3804920913883
 20
374.6950407402065
 30
0.0
 11
240.0407461292328
 21
374.6950407402065
 31
0.0
  0
LINE
  5
3912
330
A
100
AcDbEntity
  8
04
100
AcDbLine
 10
268.8886084898014
 20
372.4685298492788
 30
0.0
 11
272.8761731620767
 21
372.4685298494017
 31
0.0
  0
LINE
  5
3915
330
A
100
AcDbEntity
  8
04
100
AcDbLine
 10
267.3804920913884
 20
362.6950124208847
 30
0.0
 11
271.8804920913884
 21
362.6950124208847
 31
0.0
  0
LINE
  5
3917
330
A
100
AcDbEntity
  8
04
100
AcDbLine
 10
252.7202380535439
 20
374.6950407402065
 30
0.0
 11
256.3804920913884
 21
374.6950407402065
 31
0.0
  0
LINE
  5
391D
330
A
100
AcDbEntity
  8
04
100
AcDbLine
 10
241.3804920913884
 20
369.6950407402066
 30
0.0
 11
251.3804920913883
 21
369.6950407402066
 31
0.0
  0
LINE
  5
391E
330
A
100
AcDbEntity
  8
04
100
AcDbLine
 10
240.0407461292328
 20
374.6950407402065
 30
0.0
 11
241.3804920913884
 21
369.6950407402066
 31
0.0
  0
LINE
  5
3920
330
A
100
AcDbEntity
  8
04
100
AcDbLine
 10
251.3804920913883
 20
369.6950407402066
 30
0.0
 11
252.7202380535439
 21
374.6950407402065
 31
0.0
  0
LINE
  5
3925
330
A
100
AcDbEntity
  8
04
100
AcDbLine
 10
267.3804921092775
 20
354.6950836260218
 30
0.0
 11
256.3804920913884
 21
354.6950836260218
 31
0.0
  0
LINE
  5
3932
330
A
100
AcDbEntity
  8
04
100
AcDbLine
 10
268.1804883701323
 20
373.6950298098467
 30
0.0
 11
268.8886084898014
 21
372.4685298492788
 31
0.0
  0
LINE
  5
3933
330
A
100
AcDbEntity
  8
04
100
AcDbLine
 10
268.1804883701323
 20
373.6950298098467
 30
0.0
 11
267.3804883701324
 21
373.6950298098467
 31
0.0
  0
LINE
  5
3935
330
A
100
AcDbEntity
  8
04
100
AcDbLine
 10
262.8804920913884
 20
375.6950298098467
 30
0.0
 11
267.3804920913884
 21
375.6950298098467
 31
0.0
  0
LINE
  5
3937
330
A
100
AcDbEntity
  8
04
100
AcDbLine
 10
262.8804920913884
 20
369.7950298098467
 30
0.0
 11
262.8804920913884
 21
375.1950298098467
 31
0.0
  0
LINE
  5
3938
330
A
100
AcDbEntity
  8
04
100
AcDbLine
 10
275.3804883701326
 20
368.6950298098468
 30
0.0
 11
275.3804883701326
 21
364.6950298098468
 31
0.0
  0
LINE
  5
393A
330
A
100
AcDbEntity
  8
04
100
AcDbLine
 10
273.3804883701322
 20
361.7950298098468
 30
0.0
 11
273.3804883701322
 21
371.5950298098467
 31
0.0
  0
LINE
  5
393C
330
A
100
AcDbEntity
  8
04
100
AcDbLine
 10
274.380451088013
 20
358.5509751902881
 30
0.0
 11
271.8804949288427
 21
358.5509751902881
 31
0.0
  0
LINE
  5
393D
330
A
100
AcDbEntity
  8
04
100
AcDbLine
 10
273.3804883701322
 20
363.6950298098468
 30
0.0
 11
274.3804883701324
 21
363.6950298098468
 31
0.0
  0
LINE
  5
393E
330
A
100
AcDbEntity
  8
04
100
AcDbLine
 10
272.8761731620767
 20
360.9215297702918
 30
0.0
 11
273.3804883701322
 21
361.7950298098468
 31
0.0
  0
LINE
  5
393F
330
A
100
AcDbEntity
  8
04
100
AcDbLine
 10
271.8804920913884
 20
360.9215297702611
 30
0.0
 11
272.8761731620767
 21
360.9215297702918
 31
0.0
  0
LINE
  5
3941
330
A
100
AcDbEntity
  8
04
100
AcDbLine
 10
271.8804949288427
 20
358.5509751902881
 30
0.0
 11
271.8804950346719
 21
358.6944701242217
 31
0.0
  0
LINE
  5
3942
330
A
100
AcDbEntity
  8
04
100
AcDbLine
 10
274.3804883701324
 20
363.6950298098468
 30
0.0
 11
275.3804883701326
 21
364.6950298098468
 31
0.0
  0
LINE
  5
3944
330
A
100
AcDbEntity
  8
04
100
AcDbLine
 10
272.8761731620767
 20
372.4685298494017
 30
0.0
 11
273.3804883701322
 21
371.5950298098467
 31
0.0
  0
LINE
  5
3945
330
A
100
AcDbEntity
  8
04
100
AcDbLine
 10
273.3804883701322
 20
369.6950298098467
 30
0.0
 11
274.3804883701324
 21
369.6950298098467
 31
0.0
  0
LINE
  5
3946
330
A
100
AcDbEntity
  8
04
100
AcDbLine
 10
274.3804883701324
 20
369.6950298098467
 30
0.0
 11
275.3804883701326
 21
368.6950298098468
 31
0.0
  0
LINE
  5
39AC
330
A
100
AcDbEntity
  8
KAKURE
100
AcDbLine
 10
184.3804920913884
 20
447.6950500657308
 30
0.0
 11
190.3804920913883
 21
447.6950500657308
 31
0.0
  0
LINE
  5
39AD
330
A
100
AcDbEntity
  8
KAKURE
100
AcDbLine
 10
184.3804920913884
 20
441.6950500657308
 30
0.0
 11
190.3804920913883
 21
441.6950500657308
 31
0.0
  0
LINE
  5
39AE
330
A
100
AcDbEntity
  8
KAKURE
100
AcDbLine
 10
184.3804920913884
 20
447.1950500657308
 30
0.0
 11
190.3804920913883
 21
447.1950500657308
 31
0.0
  0
LINE
  5
39AF
330
A
100
AcDbEntity
  8
KAKURE
100
AcDbLine
 10
184.3804920913884
 20
442.1950500657308
 30
0.0
 11
190.3804920913883
 21
442.1950500657308
 31
0.0
  0
LINE
  5
39B4
330
A
100
AcDbEntity
  8
KAKURE
100
AcDbLine
 10
184.3804920913884
 20
397.6950500657305
 30
0.0
 11
190.3804920913883
 21
397.6950500657305
 31
0.0
  0
LINE
  5
39B5
330
A
100
AcDbEntity
  8
KAKURE
100
AcDbLine
 10
184.3804920913884
 20
391.6950500657305
 30
0.0
 11
190.3804920913883
 21
391.6950500657305
 31
0.0
  0
LINE
  5
39B6
330
A
100
AcDbEntity
  8
KAKURE
100
AcDbLine
 10
184.3804920913884
 20
397.1950500657305
 30
0.0
 11
190.3804920913883
 21
397.1950500657305
 31
0.0
  0
LINE
  5
39B7
330
A
100
AcDbEntity
  8
KAKURE
100
AcDbLine
 10
184.3804920913884
 20
392.1950500657306
 30
0.0
 11
190.3804920913883
 21
392.1950500657306
 31
0.0
  0
LINE
  5
3A3B
330
A
100
AcDbEntity
  8
KAKURE
100
AcDbLine
 10
255.0805300642962
 20
386.1951350073888
 30
0.0
 11
255.0806098587234
 21
385.1950985634458
 31
0.0
  0
LINE
  5
3A3C
330
A
100
AcDbEntity
  8
KAKURE
100
AcDbLine
 10
255.0805783885683
 20
456.1951123736031
 30
0.0
 11
255.0805238530464
 21
457.1952455085326
 31
0.0
  0
ARC
  5
3A49
330
A
100
AcDbEntity
  8
04
100
AcDbCircle
 10
250.3804920913883
 20
306.6950407402066
 30
0.0
 40
1.0
100
AcDbArc
 50
270.0
 51
0.0
  0
LINE
  5
3A4A
330
A
100
AcDbEntity
  8
04
100
AcDbLine
 10
248.3804920913883
 20
309.6950407402065
 30
0.0
 11
251.3804920913883
 21
309.6950407402065
 31
0.0
  0
ARC
  5
3A4B
330
A
100
AcDbEntity
  8
04
100
AcDbCircle
 10
250.3804920913883
 20
318.6950407402063
 30
0.0
 40
1.0
100
AcDbArc
 50
0.0
 51
90.0
  0
ARC
  5
3A4C
330
A
100
AcDbEntity
  8
04
100
AcDbCircle
 10
250.3804920913883
 20
315.6950407402066
 30
0.0
 40
1.0
100
AcDbArc
 50
270.0
 51
0.0
  0
LINE
  5
3A4D
330
A
100
AcDbEntity
  8
04
100
AcDbLine
 10
234.0814797688004
 20
323.3950449200633
 30
0.0
 11
234.0815102859163
 21
335.9950512779592
 31
0.0
  0
LINE
  5
3A4E
330
A
100
AcDbEntity
  8
04
100
AcDbLine
 10
225.3804920913883
 20
338.6950407402063
 30
0.0
 11
225.3804920913883
 21
317.6950407402066
 31
0.0
  0
LINE
  5
3A53
330
A
100
AcDbEntity
  8
04
  6
CONTINUOUS
100
AcDbLine
 10
219.3804920913883
 20
339.6950407402066
 30
0.0
 11
219.3804920913883
 21
305.6950407402065
 31
0.0
  0
LINE
  5
3A54
330
A
100
AcDbEntity
  8
04
100
AcDbLine
 10
219.3804920913883
 20
305.6950407402065
 30
0.0
 11
250.3804920913883
 21
305.6950407402065
 31
0.0
  0
LINE
  5
3A55
330
A
100
AcDbEntity
  8
04
100
AcDbLine
 10
231.3804920913884
 20
311.6950407402065
 30
0.0
 11
238.3804920913883
 21
311.6950407402065
 31
0.0
  0
ARC
  5
3A56
330
A
100
AcDbEntity
  8
04
100
AcDbCircle
 10
231.3804920913884
 20
317.6950407402066
 30
0.0
 40
6.0
100
AcDbArc
 50
180.0
 51
270.0
  0
LINE
  5
3A57
330
A
100
AcDbEntity
  8
04
100
AcDbLine
 10
228.5805259153186
 20
321.9950457154066
 30
0.0
 11
226.9804871953409
 21
321.9950484590392
 31
0.0
  0
LINE
  5
3A5B
330
A
100
AcDbEntity
  8
04
100
AcDbLine
 10
225.3819391253539
 20
320.6950478873672
 30
0.0
 11
226.9804231646751
 21
320.6950343947621
 31
0.0
  0
LINE
  5
3A5C
330
A
100
AcDbEntity
  8
04
100
AcDbLine
 10
228.5804300295148
 20
322.1894056337668
 30
0.0
 11
233.3854889804294
 21
322.189539711789
 31
0.0
  0
LINE
  5
3A5E
330
A
100
AcDbEntity
  8
04
100
AcDbLine
 10
233.385421432357
 20
322.1894921490678
 30
0.0
 11
234.0814492511899
 21
323.3950561671678
 31
0.0
  0
ARC
  5
3A60
330
A
100
AcDbEntity
  8
04
100
AcDbCircle
 10
238.3804920913883
 20
314.6950407402066
 30
0.0
 40
3.0
100
AcDbArc
 50
270.0
 51
0.0
  0
ARC
  5
3A61
330
A
100
AcDbEntity
  8
04
100
AcDbCircle
 10
248.3804920913883
 20
313.6950407402063
 30
0.0
 40
1.0
100
AcDbArc
 50
90.0
 51
180.0
  0
LINE
  5
3A62
330
A
100
AcDbEntity
  8
04
100
AcDbLine
 10
247.3804920913884
 20
313.6950407402063
 30
0.0
 11
247.3804920913884
 21
310.6950407402066
 31
0.0
  0
ARC
  5
3A63
330
A
100
AcDbEntity
  8
04
100
AcDbCircle
 10
248.3804920913883
 20
310.6950407402066
 30
0.0
 40
1.0
100
AcDbArc
 50
180.0
 51
270.0
  0
LINE
  5
3A64
330
A
100
AcDbEntity
  8
04
100
AcDbLine
 10
242.3804920913883
 20
319.6950407402066
 30
0.0
 11
250.3804920913883
 21
319.6950407402066
 31
0.0
  0
LINE
  5
3A65
330
A
100
AcDbEntity
  8
04
100
AcDbLine
 10
241.3804920913884
 20
318.6950407402063
 30
0.0
 11
241.3804920913884
 21
314.6950407402066
 31
0.0
  0
ARC
  5
3A66
330
A
100
AcDbEntity
  8
04
100
AcDbCircle
 10
242.3804920913883
 20
318.6950407402063
 30
0.0
 40
1.0
100
AcDbArc
 50
90.0
 51
180.0
  0
LINE
  5
3A67
330
A
100
AcDbEntity
  8
04
100
AcDbLine
 10
250.3804920913883
 20
314.6950407402066
 30
0.0
 11
248.3804920913883
 21
314.6950407402066
 31
0.0
  0
LINE
  5
3A6B
330
A
100
AcDbEntity
  8
04
100
AcDbLine
 10
228.5803882179109
 20
337.3950462864458
 30
0.0
 11
226.9804587767769
 21
337.3950489566226
 31
0.0
  0
LINE
  5
3A6D
330
A
100
AcDbEntity
  8
04
100
AcDbLine
 10
219.3804920913883
 20
339.6950407402066
 30
0.0
 11
224.3804920913884
 21
339.6950407402066
 31
0.0
  0
ARC
  5
3A6E
330
A
100
AcDbEntity
  8
04
100
AcDbCircle
 10
224.3804920913884
 20
338.6950407402063
 30
0.0
 40
1.0
100
AcDbArc
 50
0.0
 51
90.0
  0
LINE
  5
3A6F
330
A
100
AcDbEntity
  8
04
100
AcDbLine
 10
226.9805020497928
 20
338.6950483079148
 30
0.0
 11
225.381894032824
 21
338.6950424201523
 31
0.0
  0
LINE
  5
3A72
330
A
100
AcDbEntity
  8
04
100
AcDbLine
 10
228.5804435088534
 20
337.200593463824
 30
0.0
 11
233.3854421809188
 21
337.2005968473901
 31
0.0
  0
LINE
  5
3A73
330
A
100
AcDbEntity
  8
04
100
AcDbLine
 10
233.3855543139395
 20
337.2006526926438
 30
0.0
 11
234.0813748015181
 21
335.9950644893551
 31
0.0
  0
LINE
  5
3A74
330
A
100
AcDbEntity
  8
04
100
AcDbLine
 10
251.3804920913883
 20
309.6950407402065
 30
0.0
 11
251.3804920913883
 21
306.6950407402066
 31
0.0
  0
LINE
  5
3A75
330
A
100
AcDbEntity
  8
04
100
AcDbLine
 10
251.3804920913883
 20
318.6950407402063
 30
0.0
 11
251.3804920913883
 21
315.6950407402066
 31
0.0
  0
LINE
  5
3A76
330
A
100
AcDbEntity
  8
CHUSIN
100
AcDbLine
 10
198.7448184511993
 20
329.6950456799046
 30
0.0
 11
236.0235676312825
 21
329.6950456799046
 31
0.0
  0
LINE
  5
3AE3
330
A
100
AcDbEntity
  8
02
100
AcDbLine
 10
190.3804920913883
 20
287.6950407402066
 30
0.0
 11
213.3830235209966
 21
287.6950407402067
 31
0.0
  0
LINE
  5
3AFF
330
A
100
AcDbEntity
  8
02
100
AcDbLine
 10
219.3804920913883
 20
345.6950407402065
 30
0.0
 11
219.3804920913883
 21
293.6913654591343
 31
0.0
  0
LINE
  5
3B9B
330
A
100
AcDbEntity
  8
CHUSIN
100
AcDbLine
 10
175.7712704273485
 20
421.1950407402065
 30
0.0
 11
218.1402532348418
 21
421.1950407402065
 31
0.0
  0
LINE
  5
3BA5
330
A
100
AcDbEntity
  8
04
100
AcDbLine
 10
226.9805020497928
 20
338.6950483079148
 30
0.0
 11
226.9804998801796
 21
337.3950489565538
 31
0.0
  0
LINE
  5
3BA6
330
A
100
AcDbEntity
  8
04
100
AcDbLine
 10
228.5803882179109
 20
337.3950462864458
 30
0.0
 11
228.580514468169
 21
337.2005934638738
 31
0.0
  0
LINE
  5
3BA7
330
A
100
AcDbEntity
  8
04
100
AcDbLine
 10
228.5804842055129
 20
322.1894056352786
 30
0.0
 11
228.5804838722383
 21
321.9950457154786
 31
0.0
  0
LINE
  5
3BA9
330
A
100
AcDbEntity
  8
04
100
AcDbLine
 10
226.9804871953409
 20
321.9950484590392
 30
0.0
 11
226.9804762220835
 21
320.6950343943141
 31
0.0
  0
LINE
  5
3BAA
330
A
100
AcDbEntity
  8
04
100
AcDbLine
 10
273.9604529882178
 20
336.1950298098467
 30
0.0
 11
273.9604529882178
 21
336.9950298098467
 31
0.0
  0
LINE
  5
3BAB
330
A
100
AcDbEntity
  8
04
100
AcDbLine
 10
275.91041633218
 20
336.9950298098467
 30
0.0
 11
275.91041633218
 21
337.1896208989359
 31
0.0
  0
LINE
  5
3BAC
330
A
100
AcDbEntity
  8
04
100
AcDbLine
 10
273.9604529882178
 20
353.1950298098467
 30
0.0
 11
273.9604529882178
 21
352.3950298098467
 31
0.0
  0
LINE
  5
3BAD
330
A
100
AcDbEntity
  8
04
100
AcDbLine
 10
275.91041633218
 20
352.3950298098467
 30
0.0
 11
275.9104269343088
 21
352.2004387213352
 31
0.0
  0
LINE
  5
3BAE
330
A
100
AcDbEntity
  8
04
100
AcDbLine
 10
268.9804920913883
 20
323.9450298098468
 30
0.0
 11
268.9804920913883
 21
323.7950298098467
 31
0.0
  0
LINE
  5
3BAF
330
A
100
AcDbEntity
  8
04
100
AcDbLine
 10
270.4804920913883
 20
323.7950298098467
 30
0.0
 11
270.4805098804608
 21
323.4685298108158
 31
0.0
  0
LINE
  5
3BB0
330
A
100
AcDbEntity
  8
04
100
AcDbLine
 10
270.4804920913883
 20
311.9215298098466
 30
0.0
 11
270.4804920913883
 21
311.5950298098466
 31
0.0
  0
LINE
  5
3BB1
330
A
100
AcDbEntity
  8
04
100
AcDbLine
 10
268.9804920913883
 20
311.5950298098466
 30
0.0
 11
268.9804920913883
 21
311.4450298098466
 31
0.0
  0
LINE
  5
3BB2
330
A
100
AcDbEntity
  8
04
100
AcDbLine
 10
268.9804920913883
 20
310.7950298098467
 30
0.0
 11
268.9804920913883
 21
310.9450298098467
 31
0.0
  0
LINE
  5
3BB3
330
A
100
AcDbEntity
  8
04
100
AcDbLine
 10
270.4804920913883
 20
310.4685298098467
 30
0.0
 11
270.4804920913883
 21
310.7950298098467
 31
0.0
  0
LINE
  5
3BB4
330
A
100
AcDbEntity
  8
04
100
AcDbLine
 10
270.4804920913883
 20
298.9215298098466
 30
0.0
 11
270.4804920913883
 21
298.5950298098466
 31
0.0
  0
LINE
  5
3BB6
330
A
100
AcDbEntity
  8
04
100
AcDbLine
 10
268.9804920913883
 20
298.5950298098466
 30
0.0
 11
268.9804920913883
 21
298.4450298098467
 31
0.0
  0
LINE
  5
3BB7
330
A
100
AcDbEntity
  8
04
100
AcDbLine
 10
236.8804617541958
 20
302.7449986600768
 30
0.0
 11
236.8803976673131
 21
301.6950040059721
 31
0.0
  0
LINE
  5
3BB8
330
A
100
AcDbEntity
  8
04
100
AcDbLine
 10
237.8804616493702
 20
302.7449986600768
 30
0.0
 11
237.8803216834461
 21
301.6950650558157
 31
0.0
  0
LINE
  5
3BB9
330
A
100
AcDbEntity
  8
04
100
AcDbLine
 10
236.8804617541488
 20
291.6949777183782
 30
0.0
 11
236.8804617541488
 21
290.6449986600768
 31
0.0
  0
LINE
  5
3BBA
330
A
100
AcDbEntity
  8
04
100
AcDbLine
 10
237.8804618408238
 20
291.6948172839113
 30
0.0
 11
237.8804618590128
 21
290.6449986600768
 31
0.0
  0
LINE
  5
3BBB
330
A
100
AcDbEntity
  8
04
100
AcDbLine
 10
238.3804438250455
 20
301.6949983848782
 30
0.0
 11
238.3804651875201
 21
305.1950298098205
 31
0.0
  0
LINE
  5
3BBC
330
A
100
AcDbEntity
  8
04
100
AcDbLine
 10
238.3804801579539
 20
291.6949727466775
 30
0.0
 11
238.3804801579539
 21
288.1950298098466
 31
0.0
  0
MTEXT
  5
3BBE
330
A
100
AcDbEntity
  8
MOJI
100
AcDbMText
 10
375.927241541144
 20
94.12979640975846
 30
0.0
 40
5.0
 41
0.0
 71
     5
 72
     1
  1
F.L
  7
0_8
1001
ACAD
1000
MTEXTBEGIN
1070
    73
1070
     1
1070
    44
1040
1.0
1070
    74
1070
     0
1000
MTEXTEND
1000
MTEXTBEGIN
1070
    73
1070
     1
1070
    44
1040
1.0
1070
    74
1070
     0
1000
MTEXTEND
  0
LINE
  5
3C61
330
A
100
AcDbEntity
  8
KAKURE
100
AcDbLine
 10
213.3804920913883
 20
333.6950407402066
 30
0.0
 11
219.3804920913883
 21
333.6950407402066
 31
0.0
  0
LINE
  5
3C62
330
A
100
AcDbEntity
  8
KAKURE
100
AcDbLine
 10
213.3804920913883
 20
332.9450407402063
 30
0.0
 11
219.3804920913883
 21
332.9450407402063
 31
0.0
  0
LINE
  5
3C63
330
A
100
AcDbEntity
  8
KAKURE
100
AcDbLine
 10
213.3804920913883
 20
326.4450407402065
 30
0.0
 11
219.3804920913883
 21
326.4450407402065
 31
0.0
  0
LINE
  5
3C64
330
A
100
AcDbEntity
  8
KAKURE
100
AcDbLine
 10
213.3804920913883
 20
325.6950407402066
 30
0.0
 11
219.3804920913883
 21
325.6950407402066
 31
0.0
  0
MTEXT
  5
3D18
330
A
100
AcDbEntity
  8
MOJI
100
AcDbMText
 10
360.999999999997
 20
29.00000000000005
 30
0.0
 40
7.0
 41
49.99999999999993
 71
     5
 72
     1
  1
たて断面図　
  7
0_80
1001
ACAD
1000
MTEXTBEGIN
1070
    73
1070
     1
1070
    44
1040
1.0
1070
    74
1070
     0
1000
MTEXTEND
1000
MTEXTBEGIN
1070
    73
1070
     1
1070
    44
1040
1.0
1070
    74
1070
     0
1000
MTEXTEND
  0
MTEXT
  5
3D19
330
A
100
AcDbEntity
  8
MOJI
100
AcDbMText
 10
310.999999999997
 20
29.00000000000005
 30
0.0
 40
7.0
 41
50.0
 71
     5
 72
     1
  1
図番４－５
  7
0_80
1001
ACAD
1000
MTEXTBEGIN
1070
    73
1070
     1
1070
    44
1040
1.0
1070
    74
1070
     0
1000
MTEXTEND
1000
MTEXTBEGIN
1070
    73
1070
     1
1070
    44
1040
1.0
1070
    74
1070
     0
1000
MTEXTEND
  0
MTEXT
  5
3D1A
330
A
100
AcDbEntity
  8
MOJI
100
AcDbMText
 10
255.9999999999998
 20
29.00000000000005
 30
0.0
 40
7.0
 41
60.0
 71
     5
 72
     1
  1
片引き又は両引き
  7
0_80
1001
ACAD
1000
MTEXTBEGIN
1070
    73
1070
     1
1070
    44
1040
1.0
1070
    74
1070
     0
1000
MTEXTEND
1000
MTEXTBEGIN
1070
    73
1070
     1
1070
    44
1040
1.0
1070
    74
1070
     0
1000
MTEXTEND
  0
POLYLINE
  5
3D1B
330
A
100
AcDbEntity
  8
SAISEN
100
AcDb2dPolyline
 66
     1
 10
0.0
 20
0.0
 30
0.0
 70
     1
  0
VERTEX
  5
3DD5
330
3D1B
100
AcDbEntity
  8
SAISEN
100
AcDbVertex
100
AcDb2dVertex
 10
35.99999999999693
 20
17.0
 30
0.0
  0
VERTEX
  5
3DD6
330
3D1B
100
AcDbEntity
  8
SAISEN
100
AcDbVertex
100
AcDb2dVertex
 10
385.9999999999968
 20
17.0
 30
0.0
  0
VERTEX
  5
3DD7
330
3D1B
100
AcDbEntity
  8
SAISEN
100
AcDbVertex
100
AcDb2dVertex
 10
385.9999999999968
 20
41.00000000000017
 30
0.0
  0
VERTEX
  5
3DD8
330
3D1B
100
AcDbEntity
  8
SAISEN
100
AcDbVertex
100
AcDb2dVertex
 10
35.99999999999693
 20
41.00000000000017
 30
0.0
  0
SEQEND
  5
3DD9
330
3D1B
100
AcDbEntity
  8
SAISEN
  0
MTEXT
  5
3D1C
330
A
100
AcDbEntity
  8
MOJI
100
AcDbMText
 10
90.99999999999694
 20
29.00000000000007
 30
0.0
 40
7.0
 41
110.0
 71
     5
 72
     1
  1
ステンレスサッシ枠見込135mm
  7
0_8
1001
ACAD
1000
MTEXTBEGIN
1070
    73
1070
     1
1070
    44
1040
1.0
1070
    74
1070
     0
1000
MTEXTEND
1000
MTEXTBEGIN
1070
    73
1070
     1
1070
    44
1040
1.0
1070
    74
1070
     0
1000
MTEXTEND
  0
LINE
  5
3D1D
330
A
100
AcDbEntity
  8
SAISEN
100
AcDbLine
 10
145.9999999999969
 20
41.00000000000017
 30
0.0
 11
145.9999999999969
 21
17.0
 31
0.0
  0
LINE
  5
3D1E
330
A
100
AcDbEntity
  8
SAISEN
100
AcDbLine
 10
225.9999999999969
 20
41.00000000000017
 30
0.0
 11
225.9999999999969
 21
17.0
 31
0.0
  0
LINE
  5
3D1F
330
A
100
AcDbEntity
  8
SAISEN
100
AcDbLine
 10
285.9999999999968
 20
41.00000000000017
 30
0.0
 11
285.9999999999968
 21
17.0
 31
0.0
  0
MTEXT
  5
3D20
330
A
100
AcDbEntity
  8
MOJI
100
AcDbMText
 10
185.9999999999969
 20
29.00000000000007
 30
0.0
 40
4.25
 41
80.0
 71
     5
 72
     1
  1
SOV－ 70KLDM･SOV－100KLDM\PSOV－160KLDM･SOV－200KLDM
  7
0_8
1001
ACAD
1000
MTEXTBEGIN
1070
    73
1070
     1
1070
    44
1040
1.0
1070
    74
1070
     0
1000
MTEXTEND
1000
MTEXTBEGIN
1070
    73
1070
     1
1070
    44
1040
1.0
1070
    74
1070
     0
1000
MTEXTEND
  0
CIRCLE
  5
3D29
330
A
100
AcDbEntity
  8
SAISEN
100
AcDbCircle
 10
392.0976380784291
 20
49.5430264122316
 30
0.0
 40
5.0
  0
TEXT
  5
3D2A
330
A
100
AcDbEntity
  8
MOJI
100
AcDbText
 10
389.0488190392129
 20
45.27151320611589
 30
0.0
 40
8.0
  1
Ｓ
 41
0.8
  7
0_8
 11
389.0488190392129
 21
53.27151320611589
 31
0.0
100
AcDbText
 73
     3
  0
VIEWPORT
  5
79D
102
{ACAD_XDICTIONARY
360
3DB2
102
}
330
B
100
AcDbEntity
 67
     1
  8
0
100
AcDbViewport
 10
198.0508299538852
 20
285.1874487354476
 30
0.0
 40
1078.343208727591
 41
628.3535021666721
 68
     1
 69
     1
1001
ACAD
1000
MVIEW
1002
{
1070
    16
1010
0.0
1020
0.0
1030
0.0
1010
0.0
1020
0.0
1030
1.0
1040
0.0
1040
628.3535021666721
1040
198.0508299538852
1040
285.1874487354476
1040
50.0
1040
0.0
1040
0.0
1070
     0
1070
   100
1070
     1
1070
     1
1070
     0
1070
     0
1070
     0
1070
     0
1040
0.0
1040
0.0
1040
0.0
1040
10.0
1040
10.0
1040
10.0
1040
10.0
1070
     0
1002
{
1002
}
1002
}
  0
VIEWPORT
  5
3D49
102
{ACAD_XDICTIONARY
360
3DB4
102
}
330
B
100
AcDbEntity
 67
     1
  8
DEFPOINTS
100
AcDbViewport
 10
198.0508309076476
 20
285.1874477816851
 30
0.0
 40
396.4883172119752
 41
570.409736121624
 68
     2
 69
     2
1001
ACAD
1000
MVIEW
1002
{
1070
    16
1010
0.0
1020
0.0
1030
0.0
1010
0.0
1020
0.0
1030
1.0
1040
0.0
1040
570.409736121624
1040
210.0
1040
297.0
1040
50.0
1040
0.0
1040
0.0
1070
     0
1070
   100
1070
     1
1070
     1
1070
     0
1070
     0
1070
     0
1070
     0
1040
0.0
1040
0.0
1040
0.0
1040
1.0
1040
1.0
1040
0.0
1040
0.0
1070
     0
1002
{
1002
}
1002
}
  0
ENDSEC
  0
SECTION
  2
OBJECTS
  0
DICTIONARY
  5
19
330
0
100
AcDbDictionary
  3
ACAD_COLOR
350
3D02
  3
ACAD_GROUP
350
1A
  3
ACAD_LAYOUT
350
4BF
  3
ACAD_MATERIAL
350
3D01
  3
ACAD_MLINESTYLE
350
1B
  3
ACAD_PLOTSETTINGS
350
4C0
  3
ACADDIM
350
E10
  3
ASE_INDEX_DICTIONARY
350
3D98
1001
ACAD
1000
TREAT_AS_HARD
1070
     0
1000
TREAT_AS_HARD
1070
     0
1000
TREAT_AS_HARD
1070
     0
  0
DICTIONARY
  5
13F3
330
2
100
AcDbDictionary
  3
ACAD_LAYERFILTERS
350
13F4
  3
ACAD_LAYERSTATES
350
13F8
1001
ACAD
1000
TREAT_AS_HARD
1070
     1
1000
TREAT_AS_HARD
1070
     1
1000
TREAT_AS_HARD
1070
     1
  0
DICTIONARY
  5
3CA7
330
A
100
AcDbDictionary
  3
ACAD_LAYOUTSELFREF
350
3DC0
1001
ACAD
1000
TREAT_AS_HARD
1070
     1
1000
TREAT_AS_HARD
1070
     1
  0
DICTIONARY
  5
3CA9
330
B
100
AcDbDictionary
  3
ACAD_LAYOUTSELFREF
350
3DC1
1001
ACAD
1000
TREAT_AS_HARD
1070
     1
1000
TREAT_AS_HARD
1070
     1
  0
DICTIONARY
  5
3DB2
330
79D
100
AcDbDictionary
  3
ACAD_XREC_ROUNDTRIP
350
3DB3
1001
ACAD
1000
TREAT_AS_HARD
1070
     1
  0
DICTIONARY
  5
3DB4
330
3D49
100
AcDbDictionary
  3
ACAD_XREC_ROUNDTRIP
350
3DB5
1001
ACAD
1000
TREAT_AS_HARD
1070
     1
  0
DICTIONARY
  5
3D02
102
{ACAD_REACTORS
330
19
102
}
330
19
100
AcDbDictionary
1001
ACAD
1000
TREAT_AS_HARD
1070
     0
1000
TREAT_AS_HARD
1070
     0
  0
DICTIONARY
  5
1A
102
{ACAD_REACTORS
330
19
102
}
330
19
100
AcDbDictionary
1001
ACAD
1000
TREAT_AS_HARD
1070
     0
1000
TREAT_AS_HARD
1070
     0
1000
TREAT_AS_HARD
1070
     0
  0
DICTIONARY
  5
4BF
102
{ACAD_REACTORS
330
19
102
}
330
19
100
AcDbDictionary
1001
ACAD
1000
TREAT_AS_HARD
1070
     0
1000
TREAT_AS_HARD
1070
     0
1000
TREAT_AS_HARD
1070
     0
  0
DICTIONARY
  5
3D01
102
{ACAD_REACTORS
330
19
102
}
330
19
100
AcDbDictionary
1001
ACAD
1000
TREAT_AS_HARD
1070
     0
1000
TREAT_AS_HARD
1070
     0
  0
DICTIONARY
  5
1B
102
{ACAD_REACTORS
330
19
102
}
330
19
100
AcDbDictionary
  3
STANDARD
350
1C
1001
ACAD
1000
TREAT_AS_HARD
1070
     0
1000
TREAT_AS_HARD
1070
     0
1000
TREAT_AS_HARD
1070
     0
  0
DICTIONARY
  5
4C0
102
{ACAD_REACTORS
330
19
102
}
330
19
100
AcDbDictionary
1001
ACAD
1000
TREAT_AS_HARD
1070
     0
1000
TREAT_AS_HARD
1070
     0
1000
TREAT_AS_HARD
1070
     0
  0
XRECORD
  5
E10
102
{ACAD_REACTORS
330
19
102
}
330
19
100
AcDbXrecord
 90
   990106
  3

 60
     0
 61
     0
 62
     4
 63
     4
 64
     1
 65
     0
 66
     0
 67
     3
 68
     0
 69
     1
 70
     0
 71
     0
 72
     0
 40
0.0
170
     2
340
ED6
  0
DICTIONARY
  5
3D98
102
{ACAD_REACTORS
330
19
102
}
330
19
100
AcDbDictionary
  3
ASEBLOCKHIERARCHYINDEXRECORD
350
3D99
1001
DCO15
1040
1508820815.203
1001
ACAD
1000
TREAT_AS_HARD
1070
     0
  0
DICTIONARY
  5
13F4
102
{ACAD_REACTORS
330
13F3
102
}
330
13F3
100
AcDbDictionary
  3
HIHYOJI
350
13F5
1001
ACAD
1000
TREAT_AS_HARD
1070
     1
1000
TREAT_AS_HARD
1070
     0
1000
TREAT_AS_HARD
1070
     0
  0
DICTIONARY
  5
13F8
102
{ACAD_REACTORS
330
13F3
102
}
330
13F3
100
AcDbDictionary
1001
ACAD
1000
TREAT_AS_HARD
1070
     0
1000
TREAT_AS_HARD
1070
     0
1000
TREAT_AS_HARD
1070
     0
  0
XRECORD
  5
3DC0
102
{ACAD_REACTORS
330
3CA7
102
}
330
3CA7
100
AcDbXrecord
340
A
  0
XRECORD
  5
3DC1
102
{ACAD_REACTORS
330
3CA9
102
}
330
3CA9
100
AcDbXrecord
340
B
  0
XRECORD
  5
3DB3
102
{ACAD_REACTORS
330
3DB2
102
}
330
3DB2
100
AcDbXrecord
102
SHADEPLOT
 70
     0
  0
XRECORD
  5
3DB5
102
{ACAD_REACTORS
330
3DB4
102
}
330
3DB4
100
AcDbXrecord
102
SHADEPLOT
 70
     0
  0
MLINESTYLE
  5
1C
102
{ACAD_REACTORS
330
1B
102
}
330
1B
100
AcDbMlineStyle
  2
STANDARD
 70
     0
  3

 62
     0
 51
90.00000000000019
 52
90.00000000000019
 71
     2
 49
0.5
 62
   256
  6
BYLAYER
 49
-0.5
 62
   256
  6
BYLAYER
  0
XRECORD
  5
3D99
102
{ACAD_REACTORS
330
3D98
102
}
330
3D98
100
AcDbXrecord
330
13E9
330
36B8
330
36B9
330
3CB7
330
3CB8
330
3CC2
330
3713
330
3714
330
371F
330
3720
330
3727
330
3728
330
36EC
330
36ED
330
376A
330
376B
330
3757
330
3758
330
36F5
330
36F6
330
3B30
330
3B31
330
3C0D
330
3C0E
330
3BE9
330
3BEA
330
3B16
330
3B17
330
3B0D
330
3B0E
330
397A
330
397B
330
37B7
330
37B8
330
3761
330
3762
330
36A6
330
36A7
330
36C3
330
36C4
330
36AF
330
36B0
330
369D
330
369E
330
3791
330
3792
330
377C
330
377D
330
379C
330
379D
330
36E1
330
36E2
330
36CC
330
36CD
330
36D5
330
36D6
330
3AFA
330
3AFB
330
3C1F
330
3C20
  0
XRECORD
  5
13F5
102
{ACAD_REACTORS
330
13F4
102
}
330
13F4
100
AcDbXrecord
  1
hihyoji
  1
08,09,*_h
  1
*
  1
*
 70
     0
  1
*
  1
*
  0
ENDSEC
  0
EOF
