  0
SECTION
  2
HEADER
  9
$ACADVER
  1
AC1012
  9
$DWGCODEPAGE
  3
dos932
  9
$INSBASE
 10
0.0
 20
0.0
 30
0.0
  9
$EXTMIN
 10
0.0
 20
0.0
 30
0.0
  9
$EXTMAX
 10
420.0
 20
594.0
 30
0.0
  9
$LIMMIN
 10
0.0
 20
0.0
  9
$LIMMAX
 10
420.0
 20
594.0
  9
$ORTHOMODE
 70
     0
  9
$REGENMODE
 70
     1
  9
$FILLMODE
 70
     1
  9
$QTEXTMODE
 70
     0
  9
$MIRRTEXT
 70
     1
  9
$DRAGMODE
 70
     2
  9
$LTSCALE
 40
0.3
  9
$OSMODE
 70
    37
  9
$ATTMODE
 70
     1
  9
$TEXTSIZE
 40
7.0
  9
$TRACEWID
 40
0.05
  9
$TEXTSTYLE
  7
STANDARD
  9
$CLAYER
  8
DEFPOINTS
  9
$CELTYPE
  6
BYLAYER
  9
$CECOLOR
 62
   256
  9
$CELTSCALE
 40
1.0
  9
$DELOBJ
 70
     1
  9
$DISPSILH
 70
     0
  9
$DIMSCALE
 40
2.0
  9
$DIMASZ
 40
2.5
  9
$DIMEXO
 40
1.5
  9
$DIMDLI
 40
0.0
  9
$DIMRND
 40
0.0
  9
$DIMDLE
 40
0.0
  9
$DIMEXE
 40
1.0
  9
$DIMTP
 40
0.0
  9
$DIMTM
 40
0.0
  9
$DIMTXT
 40
2.5
  9
$DIMCEN
 40
0.0
  9
$DIMTSZ
 40
0.0
  9
$DIMTOL
 70
     0
  9
$DIMLIM
 70
     0
  9
$DIMTIH
 70
     0
  9
$DIMTOH
 70
     0
  9
$DIMSE1
 70
     0
  9
$DIMSE2
 70
     0
  9
$DIMTAD
 70
     1
  9
$DIMZIN
 70
     8
  9
$DIMBLK
  1
OPEN30
  9
$DIMASO
 70
     1
  9
$DIMSHO
 70
     1
  9
$DIMPOST
  1

  9
$DIMAPOST
  1

  9
$DIMALT
 70
     0
  9
$DIMALTD
 70
     2
  9
$DIMALTF
 40
25.4
  9
$DIMLFAC
 40
1.0
  9
$DIMTOFL
 70
     1
  9
$DIMTVP
 40
0.0
  9
$DIMTIX
 70
     0
  9
$DIMSOXD
 70
     0
  9
$DIMSAH
 70
     0
  9
$DIMBLK1
  1

  9
$DIMBLK2
  1

  9
$DIMSTYLE
  2
SUNPOU_2
  9
$DIMCLRD
 70
   256
  9
$DIMCLRE
 70
   256
  9
$DIMCLRT
 70
   256
  9
$DIMTFAC
 40
1.0
  9
$DIMGAP
 40
1.0
  9
$DIMJUST
 70
     0
  9
$DIMSD1
 70
     0
  9
$DIMSD2
 70
     0
  9
$DIMTOLJ
 70
     1
  9
$DIMTZIN
 70
     0
  9
$DIMALTZ
 70
     0
  9
$DIMALTTZ
 70
     0
  9
$DIMFIT
 70
     3
  9
$DIMUPT
 70
     0
  9
$DIMUNIT
 70
     2
  9
$DIMDEC
 70
     1
  9
$DIMTDEC
 70
     1
  9
$DIMALTU
 70
     2
  9
$DIMALTTD
 70
     2
  9
$DIMTXSTY
  7
SUNPOU
  9
$DIMAUNIT
 70
     0
  9
$LUNITS
 70
     2
  9
$LUPREC
 70
     4
  9
$SKETCHINC
 40
0.1
  9
$FILLETRAD
 40
0.0
  9
$AUNITS
 70
     0
  9
$AUPREC
 70
     0
  9
$MENU
  1
acad
  9
$ELEVATION
 40
0.0
  9
$PELEVATION
 40
0.0
  9
$THICKNESS
 40
0.0
  9
$LIMCHECK
 70
     0
  9
$BLIPMODE
 70
     0
  9
$CHAMFERA
 40
0.0
  9
$CHAMFERB
 40
0.0
  9
$CHAMFERC
 40
0.0
  9
$CHAMFERD
 40
0.0
  9
$SKPOLY
 70
     0
  9
$TDCREATE
 40
2444972.375000000
  9
$TDUPDATE
 40
2453266.401407326
  9
$TDINDWG
 40
0.5943990625
  9
$TDUSRTIMER
 40
0.5943990625
  9
$USRTIMER
 70
     1
  9
$ANGBASE
 50
0.0
  9
$ANGDIR
 70
     0
  9
$PDMODE
 70
     0
  9
$PDSIZE
 40
1.0
  9
$PLINEWID
 40
0.0
  9
$COORDS
 70
     1
  9
$SPLFRAME
 70
     0
  9
$SPLINETYPE
 70
     6
  9
$SPLINESEGS
 70
     8
  9
$ATTDIA
 70
     0
  9
$ATTREQ
 70
     1
  9
$HANDLING
 70
-16383
  9
$HANDSEED
  5
1C65
  9
$SURFTAB1
 70
     6
  9
$SURFTAB2
 70
     6
  9
$SURFTYPE
 70
     6
  9
$SURFU
 70
     6
  9
$SURFV
 70
     6
  9
$UCSNAME
  2

  9
$UCSORG
 10
0.0
 20
0.0
 30
0.0
  9
$UCSXDIR
 10
1.0
 20
0.0
 30
0.0
  9
$UCSYDIR
 10
0.0
 20
1.0
 30
0.0
  9
$PUCSNAME
  2

  9
$PUCSORG
 10
0.0
 20
0.0
 30
0.0
  9
$PUCSXDIR
 10
1.0
 20
0.0
 30
0.0
  9
$PUCSYDIR
 10
0.0
 20
1.0
 30
0.0
  9
$USERI1
 70
     0
  9
$USERI2
 70
     0
  9
$USERI3
 70
     0
  9
$USERI4
 70
     0
  9
$USERI5
 70
     0
  9
$USERR1
 40
0.0
  9
$USERR2
 40
0.0
  9
$USERR3
 40
0.0
  9
$USERR4
 40
0.0
  9
$USERR5
 40
0.0
  9
$WORLDVIEW
 70
     1
  9
$SHADEDGE
 70
     3
  9
$SHADEDIF
 70
    70
  9
$TILEMODE
 70
     1
  9
$MAXACTVP
 70
    16
  9
$PINSBASE
 10
0.0
 20
0.0
 30
0.0
  9
$PLIMCHECK
 70
     0
  9
$PEXTMIN
 10
-0.1629329161993951
 20
-0.0031352180712929
 30
-0.0000000349181948
  9
$PEXTMAX
 10
396.2887253327019
 20
570.3780354545615
 30
0.0000000814935747
  9
$PLIMMIN
 10
-11.91043238214175
 20
-11.73063086931641
  9
$PLIMMAX
 10
408.0362228912957
 20
582.1213588767773
  9
$UNITMODE
 70
     0
  9
$VISRETAIN
 70
     0
  9
$PLINEGEN
 70
     1
  9
$PSLTSCALE
 70
     0
  9
$TREEDEPTH
 70
  3020
  9
$PICKSTYLE
 70
     1
  9
$CMLSTYLE
  2
STANDARD
  9
$CMLJUST
 70
     0
  9
$CMLSCALE
 40
1.0
  9
$SAVEIMAGES
 70
     1
  0
ENDSEC
  0
SECTION
  2
CLASSES
  0
CLASS
  1
LWPOLYLINE
  2
AcDbPolyline
  3
AutoCAD 2000
 90
    32768
280
     0
281
     1
  0
CLASS
  1
IMAGE
  2
AcDbRasterImage
  3
ISM
 90
    32895
280
     0
281
     1
  0
CLASS
  1
OLE2FRAME
  2
AcDbOle2Frame
  3
AutoCAD 2000
 90
    32768
280
     0
281
     1
  0
CLASS
  1
HATCH
  2
AcDbHatch
  3
AutoCAD 2000
 90
    32768
280
     0
281
     1
  0
CLASS
  1
DICTIONARYVAR
  2
AcDbDictionaryVar
  3
AutoCAD 2000
 90
    32768
280
     0
281
     0
  0
CLASS
  1
RASTERVARIABLES
  2
AcDbRasterVariables
  3
ISM
 90
    32768
280
     0
281
     0
  0
CLASS
  1
IMAGEDEF
  2
AcDbRasterImageDef
  3
ISM
 90
    32768
280
     0
281
     0
  0
CLASS
  1
IMAGEDEF_REACTOR
  2
AcDbRasterImageDefReactor
  3
ISM
 90
    32769
280
     0
281
     0
  0
CLASS
  1
IDBUFFER
  2
AcDbIdBuffer
  3
AutoCAD 2000
 90
    32768
280
     0
281
     0
  0
CLASS
  1
SPATIAL_FILTER
  2
AcDbSpatialFilter
  3
AutoCAD 2000
 90
    32768
280
     0
281
     0
  0
CLASS
  1
XRECORD
  2
AcDbXrecord
  3
AutoCAD 2000
 90
    32768
280
     0
281
     0
  0
CLASS
  1
SORTENTSTABLE
  2
AcDbSortentsTable
  3
AutoCAD 2000
 90
    32768
280
     0
281
     0
  0
CLASS
  1
LAYER_INDEX
  2
AcDbLayerIndex
  3
AutoCAD 2000
 90
    32768
280
     0
281
     0
  0
CLASS
  1
SPATIAL_INDEX
  2
AcDbSpatialIndex
  3
AutoCAD 2000
 90
    32768
280
     0
281
     0
  0
CLASS
  1
OBJECT_PTR
  2
CAseDLPNTableRecord
  3
ASE-LPNTableRecord
 90
    32769
280
     0
281
     0
  0
CLASS
  1
ACDBDICTIONARYWDFLT
  2
AcDbDictionaryWithDefault
  3
AutoCAD 2000
 90
    32768
280
     0
281
     0
  0
CLASS
  1
ACDBPLACEHOLDER
  2
AcDbPlaceHolder
  3
AutoCAD 2000
 90
    32768
280
     0
281
     0
  0
CLASS
  1
LAYOUT
  2
AcDbLayout
  3
AutoCAD 2000
 90
    32768
280
     0
281
     0
  0
CLASS
  1
LONG_TRANSACTION
  2
AcDbLongTransaction
  3
AutoCAD 2000
 90
    32768
280
     0
281
     0
  0
CLASS
  1
LWPOLYLINE
  2
AcDbPolyline
  3
AutoCAD 2000
 90
    32768
280
     0
281
     1
  0
CLASS
  1
HATCH
  2
AcDbHatch
  3
AutoCAD 2000
 90
    32768
280
     0
281
     1
  0
CLASS
  1
XRECORD
  2
AcDbXrecord
  3
AutoCAD 2000
 90
    32768
280
     0
281
     0
  0
CLASS
  1
LONG_TRANSACTION
  2
AcDbLongTransaction
  3
AutoCAD 2000
 90
    32768
280
     0
281
     0
  0
CLASS
  1
LWPOLYLINE
  2
AcDbPolyline
  3
AutoCAD 2000
 90
    32768
280
     0
281
     1
  0
CLASS
  1
HATCH
  2
AcDbHatch
  3
AutoCAD 2000
 90
    32768
280
     0
281
     1
  0
CLASS
  1
XRECORD
  2
AcDbXrecord
  3
AutoCAD 2000
 90
    32768
280
     0
281
     0
  0
CLASS
  1
LONG_TRANSACTION
  2
AcDbLongTransaction
  3
AutoCAD 2000
 90
    32768
280
     0
281
     0
  0
CLASS
  1
LWPOLYLINE
  2
AcDbPolyline
  3
AutoCAD 2000
 90
    32768
280
     0
281
     1
  0
CLASS
  1
HATCH
  2
AcDbHatch
  3
AutoCAD 2000
 90
    32768
280
     0
281
     1
  0
CLASS
  1
XRECORD
  2
AcDbXrecord
  3
AutoCAD 2000
 90
    32768
280
     0
281
     0
  0
ENDSEC
  0
SECTION
  2
TABLES
  0
TABLE
  2
VPORT
  5
7
330
0
100
AcDbSymbolTable
 70
     2
  0
VPORT
  5
1C4D
330
7
100
AcDbSymbolTableRecord
100
AcDbViewportTableRecord
  2
*ACTIVE
 70
     0
 10
0.0
 20
0.0
 11
1.0
 21
1.0
 12
229.3143069272029
 22
297.0000027661125
 13
0.0
 23
0.0
 14
1.0
 24
1.0
 15
0.0
 25
0.0
 16
0.0
 26
0.0
 36
1.0
 17
0.0
 27
0.0
 37
0.0
 40
601.1907329997832
 41
1.780442804428044
 42
50.0
 43
0.0
 44
0.0
 50
0.0
 51
0.0
 71
     0
 72
   100
 73
     1
 74
     1
 75
     0
 76
     0
 77
     0
 78
     0
  0
ENDTAB
  0
TABLE
  2
LTYPE
  5
4
330
0
100
AcDbSymbolTable
 70
     3
  0
LTYPE
  5
11
330
4
100
AcDbSymbolTableRecord
100
AcDbLinetypeTableRecord
  2
BYBLOCK
 70
     0
  3

 72
    65
 73
     0
 40
0.0
  0
LTYPE
  5
12
330
4
100
AcDbSymbolTableRecord
100
AcDbLinetypeTableRecord
  2
BYLAYER
 70
     0
  3

 72
    65
 73
     0
 40
0.0
  0
LTYPE
  5
13
330
4
100
AcDbSymbolTableRecord
100
AcDbLinetypeTableRecord
  2
CONTINUOUS
 70
     0
  3
Solid line
 72
    65
 73
     0
 40
0.0
  0
LTYPE
  5
21
330
4
100
AcDbSymbolTableRecord
100
AcDbLinetypeTableRecord
  2
DASHED2
 70
     0
  3
Dashed (.5x) _ _ _ _ _ _ _ _ _ _ _ _ _ _ _ _ _
 72
    65
 73
     2
 40
9.524999999999996
 49
6.349999999999997
 74
     0
 49
-3.174999999999998
 74
     0
  0
LTYPE
  5
6B4
330
4
100
AcDbSymbolTableRecord
100
AcDbLinetypeTableRecord
  2
CENTER2
 70
     0
  3
Center (.5x) ___ _ ___ _ ___ _ ___ _ ___ _ ___
 72
    65
 73
     4
 40
28.57499999999999
 49
19.05
 74
     0
 49
-3.174999999999998
 74
     0
 49
3.174999999999998
 74
     0
 49
-3.174999999999998
 74
     0
  0
ENDTAB
  0
TABLE
  2
LAYER
  5
2
102
{ACAD_XDICTIONARY
360
1BE3
102
}
330
0
100
AcDbSymbolTable
 70
    12
  0
LAYER
  5
14
330
2
100
AcDbSymbolTableRecord
100
AcDbLayerTableRecord
  2
0
 70
     0
 62
     7
  6
CONTINUOUS
  0
LAYER
  5
69D
330
2
100
AcDbSymbolTableRecord
100
AcDbLayerTableRecord
  2
DEFPOINTS
 70
     0
 62
     7
  6
CONTINUOUS
  0
LAYER
  5
6B6
330
2
100
AcDbSymbolTableRecord
100
AcDbLayerTableRecord
  2
03
 70
     0
 62
     3
  6
CONTINUOUS
  0
LAYER
  5
6B9
330
2
100
AcDbSymbolTableRecord
100
AcDbLayerTableRecord
  2
CHUSIN
 70
     0
 62
     6
  6
CENTER2
  0
LAYER
  5
6BA
330
2
100
AcDbSymbolTableRecord
100
AcDbLayerTableRecord
  2
HIKIDASI
 70
     0
 62
     6
  6
CONTINUOUS
  0
LAYER
  5
6BC
330
2
100
AcDbSymbolTableRecord
100
AcDbLayerTableRecord
  2
MOJI
 70
     0
 62
     3
  6
CONTINUOUS
  0
LAYER
  5
6BE
330
2
100
AcDbSymbolTableRecord
100
AcDbLayerTableRecord
  2
SUNPOU
 70
     0
 62
     6
  6
CONTINUOUS
  0
LAYER
  5
1108
330
2
100
AcDbSymbolTableRecord
100
AcDbLayerTableRecord
  2
SAISEN
 70
     0
 62
     3
  6
CONTINUOUS
  0
LAYER
  5
11CB
330
2
100
AcDbSymbolTableRecord
100
AcDbLayerTableRecord
  2
KAKURE
 70
     0
 62
     6
  6
DASHED2
  0
LAYER
  5
122D
330
2
100
AcDbSymbolTableRecord
100
AcDbLayerTableRecord
  2
06
 70
     0
 62
     6
  6
CONTINUOUS
  0
LAYER
  5
1B28
330
2
100
AcDbSymbolTableRecord
100
AcDbLayerTableRecord
  2
02
 70
     0
 62
     2
  6
CONTINUOUS
  0
LAYER
  5
1B29
330
2
100
AcDbSymbolTableRecord
100
AcDbLayerTableRecord
  2
04
 70
     0
 62
     4
  6
CONTINUOUS
  0
ENDTAB
  0
TABLE
  2
STYLE
  5
3
330
0
100
AcDbSymbolTable
 70
     4
  0
STYLE
  5
17
330
3
100
AcDbSymbolTableRecord
100
AcDbTextStyleTableRecord
  2
STANDARD
 70
     0
 40
0.0
 41
0.8
 50
0.0
 71
     0
 42
7.0
  3
txt.shx
  4
bigfont.shx
  0
STYLE
  5
69E
330
3
100
AcDbSymbolTableRecord
100
AcDbTextStyleTableRecord
  2
0_8
 70
     0
 40
0.0
 41
0.8
 50
0.0
 71
     0
 42
6.0
  3
txt.shx
  4
extfont.shx
  0
STYLE
  5
6A4
330
3
100
AcDbSymbolTableRecord
100
AcDbTextStyleTableRecord
  2
SUNPOU
 70
     0
 40
0.0
 41
0.8
 50
0.0
 71
     0
 42
3.5
  3
txt.shx
  4
extfont.shx
  0
STYLE
  5
1BE1
330
3
100
AcDbSymbolTableRecord
100
AcDbTextStyleTableRecord
  2
0_80
 70
     0
 40
0.0
 41
0.8
 50
0.0
 71
     0
 42
7.0
  3
txt.shx
  4
extfont.shx
  0
ENDTAB
  0
TABLE
  2
VIEW
  5
5
330
0
100
AcDbSymbolTable
 70
     1
  0
VIEW
  5
137
330
5
100
AcDbSymbolTableRecord
100
AcDbViewTableRecord
  2
QQQQ
 70
     0
 40
618.7999999999997
 10
-6.0
 20
-1.0
 41
419.8999999999998
 11
0.0
 21
0.0
 31
1.0
 12
100.0
 22
100.0
 32
0.0
 42
50.0
 43
0.0
 44
0.0
 50
0.0
 71
     0
  0
ENDTAB
  0
TABLE
  2
UCS
  5
6
330
0
100
AcDbSymbolTable
 70
     0
  0
ENDTAB
  0
TABLE
  2
APPID
  5
8
330
0
100
AcDbSymbolTable
 70
     3
  0
APPID
  5
16
330
8
100
AcDbSymbolTableRecord
100
AcDbRegAppTableRecord
  2
ACAD
 70
     0
  0
APPID
  5
8BC
330
8
100
AcDbSymbolTableRecord
100
AcDbRegAppTableRecord
  2
DCO15
 70
     0
  0
APPID
  5
1B7F
330
8
100
AcDbSymbolTableRecord
100
AcDbRegAppTableRecord
  2
CONTENTBLOCKICON
 70
     0
  0
ENDTAB
  0
TABLE
  2
DIMSTYLE
  5
9
330
0
100
AcDbSymbolTable
 70
     1
  0
DIMSTYLE
105
6AF
102
{ACAD_REACTORS
330
729
330
758
330
765
330
7A3
330
7AE
330
7B9
330
7C4
330
7D2
330
7E1
330
7EE
330
7FB
330
808
330
86C
330
8D0
330
8DD
330
8EA
330
8F7
330
903
330
919
330
926
330
934
330
941
330
959
330
965
330
877
330
97B
330
985
330
98E
330
98F
330
9AC
330
11D5
330
196B
330
196C
102
}
330
9
100
AcDbSymbolTableRecord
100
AcDbDimStyleTableRecord
  2
SUNPOU_2
 70
     0
  3

  4

  5
OPEN30
  6

  7

 40
2.0
 41
2.5
 42
1.5
 43
0.0
 44
1.0
 45
0.0
 46
0.0
 47
0.0
 48
0.0
140
2.5
141
0.0
142
0.0
143
25.4
144
1.0
145
0.0
146
1.0
147
1.0
 71
     0
 72
     0
 73
     0
 74
     0
 75
     0
 76
     0
 77
     1
 78
     8
170
     0
171
     2
172
     1
173
     0
174
     0
175
     0
176
   256
177
   256
178
   256
270
     2
271
     1
272
     1
273
     2
274
     2
340
6A4
275
     0
280
     0
281
     0
282
     0
283
     1
284
     0
285
     0
286
     0
287
     3
288
     0
  0
ENDTAB
  0
TABLE
  2
BLOCK_RECORD
  5
1
330
0
100
AcDbSymbolTable
 70
    30
  0
BLOCK_RECORD
  5
A
102
{ACAD_XDICTIONARY
360
1B7B
102
}
330
1
100
AcDbSymbolTableRecord
100
AcDbBlockTableRecord
  2
*MODEL_SPACE
  0
BLOCK_RECORD
  5
B
102
{ACAD_XDICTIONARY
360
1B7D
102
}
330
1
100
AcDbSymbolTableRecord
100
AcDbBlockTableRecord
  2
*PAPER_SPACE
  0
BLOCK_RECORD
  5
6A9
330
1
100
AcDbSymbolTableRecord
100
AcDbBlockTableRecord
  2
_OPEN30
1001
CONTENTBLOCKICON
1071
        0
1004
2800000020000000200000000100080000000000000400000000000000000000000000000000000000000000000080000080000000808000800000008000800080800000C0C0C000C0DCC000F0CAA6000020400000206000002080000020A0000020C0000020E00000400000004020000040400000406000004080000040A0
1004
000040C0000040E00000600000006020000060400000606000006080000060A0000060C0000060E00000800000008020000080400000806000008080000080A0000080C0000080E00000A0000000A0200000A0400000A0600000A0800000A0A00000A0C00000A0E00000C0000000C0200000C0400000C0600000C0800000C0
1004
A00000C0C00000C0E00000E0000000E0200000E0400000E0600000E0800000E0A00000E0C00000E0E00040000000400020004000400040006000400080004000A0004000C0004000E00040200000402020004020400040206000402080004020A0004020C0004020E000404000004040200040404000404060004040800040
1004
40A0004040C0004040E00040600000406020004060400040606000406080004060A0004060C0004060E00040800000408020004080400040806000408080004080A0004080C0004080E00040A0000040A0200040A0400040A0600040A0800040A0A00040A0C00040A0E00040C0000040C0200040C0400040C0600040C08000
1004
40C0A00040C0C00040C0E00040E0000040E0200040E0400040E0600040E0800040E0A00040E0C00040E0E00080000000800020008000400080006000800080008000A0008000C0008000E00080200000802020008020400080206000802080008020A0008020C0008020E00080400000804020008040400080406000804080
1004
008040A0008040C0008040E00080600000806020008060400080606000806080008060A0008060C0008060E00080800000808020008080400080806000808080008080A0008080C0008080E00080A0000080A0200080A0400080A0600080A0800080A0A00080A0C00080A0E00080C0000080C0200080C0400080C0600080C0
1004
800080C0A00080C0C00080C0E00080E0000080E0200080E0400080E0600080E0800080E0A00080E0C00080E0E000C0000000C0002000C0004000C0006000C0008000C000A000C000C000C000E000C0200000C0202000C0204000C0206000C0208000C020A000C020C000C020E000C0400000C0402000C0404000C0406000C0
1004
408000C040A000C040C000C040E000C0600000C0602000C0604000C0606000C0608000C060A000C060C000C060E000C0800000C0802000C0804000C0806000C0808000C080A000C080C000C080E000C0A00000C0A02000C0A04000C0A06000C0A08000C0A0A000C0A0C000C0A0E000C0C00000C0C02000C0C04000C0C06000
1004
C0C08000C0C0A000F0FBFF00A4A0A000808080000000FF0000FF000000FFFF00FF000000FF00FF00FFFF0000FFFFFF0000000000000000000000000000000000000000000000000000000000000000000000000000000000000000000000000000000000000000000000000000000000000000000000000000000000000000
1004
00000000000000000000000000000000000000000000000000000000000000000000000000000000000000000000000000000000000000000000000000000000000000000000000000000000000000000000000000000000000000000000000000000000000000000000000000000000000000000000000000000000000000
1004
000000000000000000000000000000000000000000000000000000000000000000000000000000000000000000000000000000FFFF0000000000000000000000000000000000000000000000000000000000000000FFFFFFFF0000000000000000000000000000000000000000000000000000000000000000FFFFFFFF0000
1004
000000000000000000000000000000000000000000000000000000000000FFFFFF0000000000000000000000000000000000000000000000000000000000000000FFFFFFFF0000000000000000000000000000000000000000000000000000000000000000FFFFFF0000000000000000000000000000000000000000000000
1004
000000000000000000FFFFFFFF0000000000000000000000000000000000000000000000000000000000000000FFFFFFFF00000000FFFFFFFFFFFFFFFFFFFFFFFFFFFFFFFFFFFFFFFFFFFFFFFFFFFFFFFFFFFF00000000000000000000000000000000000000000000000000FFFFFFFF000000000000000000000000000000
1004
000000000000000000FFFFFFFF000000000000000000000000000000000000000000000000FFFFFFFF000000000000000000000000000000000000000000000000FFFFFFFF000000000000000000000000000000000000000000000000FFFFFFFF000000000000000000000000000000000000000000000000FFFFFFFF0000
1004
0000000000000000000000000000000000000000000000FFFFFF0000000000000000000000000000000000000000000000000000000000000000000000000000000000000000000000000000000000000000000000000000000000000000000000000000000000000000000000000000000000000000000000000000000000
1004
00000000000000000000000000000000000000000000000000000000000000000000000000000000000000000000000000000000000000000000000000000000000000000000000000000000000000000000000000000000000000000000000000000000000000000000000000000000000000000000000000000000000000
1004
0000000000000000000000000000000000000000000000000000000000000000000000000000000000000000000000000000000000000000
  0
BLOCK_RECORD
  5
72A
330
1
100
AcDbSymbolTableRecord
100
AcDbBlockTableRecord
  2
*D1
  0
BLOCK_RECORD
  5
759
330
1
100
AcDbSymbolTableRecord
100
AcDbBlockTableRecord
  2
*D2
  0
BLOCK_RECORD
  5
766
330
1
100
AcDbSymbolTableRecord
100
AcDbBlockTableRecord
  2
*D3
  0
BLOCK_RECORD
  5
7A4
330
1
100
AcDbSymbolTableRecord
100
AcDbBlockTableRecord
  2
*D4
  0
BLOCK_RECORD
  5
7AF
330
1
100
AcDbSymbolTableRecord
100
AcDbBlockTableRecord
  2
*D5
  0
BLOCK_RECORD
  5
7BA
330
1
100
AcDbSymbolTableRecord
100
AcDbBlockTableRecord
  2
*D6
  0
BLOCK_RECORD
  5
7C5
330
1
100
AcDbSymbolTableRecord
100
AcDbBlockTableRecord
  2
*D7
  0
BLOCK_RECORD
  5
7D3
330
1
100
AcDbSymbolTableRecord
100
AcDbBlockTableRecord
  2
*D8
  0
BLOCK_RECORD
  5
7E2
330
1
100
AcDbSymbolTableRecord
100
AcDbBlockTableRecord
  2
*D9
  0
BLOCK_RECORD
  5
7EF
330
1
100
AcDbSymbolTableRecord
100
AcDbBlockTableRecord
  2
*D10
  0
BLOCK_RECORD
  5
7FC
330
1
100
AcDbSymbolTableRecord
100
AcDbBlockTableRecord
  2
*D11
  0
BLOCK_RECORD
  5
809
330
1
100
AcDbSymbolTableRecord
100
AcDbBlockTableRecord
  2
*D12
  0
BLOCK_RECORD
  5
86D
330
1
100
AcDbSymbolTableRecord
100
AcDbBlockTableRecord
  2
*D13
  0
BLOCK_RECORD
  5
878
330
1
100
AcDbSymbolTableRecord
100
AcDbBlockTableRecord
  2
*D14
  0
BLOCK_RECORD
  5
8D1
330
1
100
AcDbSymbolTableRecord
100
AcDbBlockTableRecord
  2
*D15
  0
BLOCK_RECORD
  5
8DE
330
1
100
AcDbSymbolTableRecord
100
AcDbBlockTableRecord
  2
*D16
  0
BLOCK_RECORD
  5
8EB
330
1
100
AcDbSymbolTableRecord
100
AcDbBlockTableRecord
  2
*D17
  0
BLOCK_RECORD
  5
8F8
330
1
100
AcDbSymbolTableRecord
100
AcDbBlockTableRecord
  2
*D18
  0
BLOCK_RECORD
  5
904
330
1
100
AcDbSymbolTableRecord
100
AcDbBlockTableRecord
  2
*D19
  0
BLOCK_RECORD
  5
91A
330
1
100
AcDbSymbolTableRecord
100
AcDbBlockTableRecord
  2
*D20
  0
BLOCK_RECORD
  5
927
330
1
100
AcDbSymbolTableRecord
100
AcDbBlockTableRecord
  2
*D21
  0
BLOCK_RECORD
  5
935
330
1
100
AcDbSymbolTableRecord
100
AcDbBlockTableRecord
  2
*D22
  0
BLOCK_RECORD
  5
942
330
1
100
AcDbSymbolTableRecord
100
AcDbBlockTableRecord
  2
*D23
  0
BLOCK_RECORD
  5
95A
330
1
100
AcDbSymbolTableRecord
100
AcDbBlockTableRecord
  2
*D24
  0
BLOCK_RECORD
  5
966
330
1
100
AcDbSymbolTableRecord
100
AcDbBlockTableRecord
  2
*D25
  0
BLOCK_RECORD
  5
11D7
330
1
100
AcDbSymbolTableRecord
100
AcDbBlockTableRecord
  2
*D26
  0
BLOCK_RECORD
  5
19C7
330
1
100
AcDbSymbolTableRecord
100
AcDbBlockTableRecord
  2
*D27
  0
BLOCK_RECORD
  5
19D5
330
1
100
AcDbSymbolTableRecord
100
AcDbBlockTableRecord
  2
*D28
  0
BLOCK_RECORD
  5
1B94
330
1
100
AcDbSymbolTableRecord
100
AcDbBlockTableRecord
  2
*X29
  0
ENDTAB
  0
ENDSEC
  0
SECTION
  2
BLOCKS
  0
BLOCK
  5
D
330
A
100
AcDbEntity
  8
0
100
AcDbBlockBegin
  2
*MODEL_SPACE
 70
     0
 10
0.0
 20
0.0
 30
0.0
  3
*MODEL_SPACE
  1

  0
ENDBLK
  5
E
330
A
100
AcDbEntity
  8
0
100
AcDbBlockEnd
  0
BLOCK
  5
F
330
B
100
AcDbEntity
 67
     1
  8
0
100
AcDbBlockBegin
  2
*PAPER_SPACE
 70
     0
 10
0.0
 20
0.0
 30
0.0
  3
*PAPER_SPACE
  1

  0
ENDBLK
  5
10
330
B
100
AcDbEntity
 67
     1
  8
0
100
AcDbBlockEnd
  0
BLOCK
  5
6AD
330
6A9
100
AcDbEntity
  8
0
100
AcDbBlockBegin
  2
_OPEN30
 70
     0
 10
0.0
 20
0.0
 30
0.0
  3
_OPEN30
  1

  0
LINE
  5
6AA
330
6A9
100
AcDbEntity
  8
0
  6
BYBLOCK
 62
     0
100
AcDbLine
 10
-1.0
 20
0.26794919
 30
0.0
 11
0.0
 21
0.0
 31
0.0
  0
LINE
  5
6AB
330
6A9
100
AcDbEntity
  8
0
  6
BYBLOCK
 62
     0
100
AcDbLine
 10
0.0
 20
0.0
 30
0.0
 11
-1.0
 21
-0.26794919
 31
0.0
  0
LINE
  5
6AC
330
6A9
100
AcDbEntity
  8
0
  6
BYBLOCK
 62
     0
100
AcDbLine
 10
0.0
 20
0.0
 30
0.0
 11
-1.0
 21
0.0
 31
0.0
  0
ENDBLK
  5
6AE
330
6A9
100
AcDbEntity
  8
0
100
AcDbBlockEnd
  0
BLOCK
  5
735
330
72A
100
AcDbEntity
  8
0
100
AcDbBlockBegin
  2
*D1
 70
     1
 10
0.0
 20
0.0
 30
0.0
  3
*D1
  1

  0
LINE
  5
152F
330
72A
100
AcDbEntity
  8
SUNPOU
100
AcDbLine
 10
155.3804920913884
 20
522.6368227822388
 30
0.0
 11
155.3804920913884
 21
531.542778716469
 31
0.0
  0
LINE
  5
1530
330
72A
100
AcDbEntity
  8
SUNPOU
100
AcDbLine
 10
158.3804920913884
 20
541.6368227822387
 30
0.0
 11
158.3804920913884
 21
527.542778716469
 31
0.0
  0
LINE
  5
1531
330
72A
100
AcDbEntity
  8
SUNPOU
100
AcDbLine
 10
150.3804920913883
 20
529.5427787164689
 30
0.0
 11
145.3804920913883
 21
529.5427787164689
 31
0.0
  0
LINE
  5
1532
330
72A
100
AcDbEntity
  8
SUNPOU
100
AcDbLine
 10
163.3804920913883
 20
529.5427787164689
 30
0.0
 11
168.3804920913883
 21
529.5427787164689
 31
0.0
  0
MTEXT
  5
1533
330
72A
100
AcDbEntity
  8
SUNPOU
100
AcDbMText
 10
147.7116390000275
 20
534.1422075604638
 30
0.0
 40
5.0
 41
0.0
 71
     5
 72
     1
  1
\A1;3
  7
SUNPOU
1001
ACAD
1000
MTEXTBEGIN
1070
    73
1070
     1
1070
    44
1040
1.0
1070
    74
1070
     0
1000
MTEXTEND
1000
MTEXTBEGIN
1070
    73
1070
     1
1070
    44
1040
1.0
1070
    74
1070
     0
1000
MTEXTEND
  0
LINE
  5
1534
330
72A
100
AcDbEntity
  8
SUNPOU
100
AcDbLine
 10
155.3804920913884
 20
529.5427787164689
 30
0.0
 11
158.3804920913884
 21
529.5427787164689
 31
0.0
  0
INSERT
  5
1535
330
72A
100
AcDbEntity
  8
SUNPOU
100
AcDbBlockReference
  2
_OPEN30
 10
155.3804920913884
 20
529.5427787164689
 30
0.0
 41
5.0
 42
5.0
 43
5.0
  0
INSERT
  5
1536
330
72A
100
AcDbEntity
  8
SUNPOU
100
AcDbBlockReference
  2
_OPEN30
 10
158.3804920913884
 20
529.5427787164689
 30
0.0
 41
5.0
 42
5.0
 43
5.0
 50
180.0
  0
POINT
  5
1537
330
72A
100
AcDbEntity
  8
DEFPOINTS
 62
     0
100
AcDbPoint
 10
155.3804920913884
 20
519.6368227822388
 30
0.0
  0
POINT
  5
1538
330
72A
100
AcDbEntity
  8
DEFPOINTS
 62
     0
100
AcDbPoint
 10
158.3804920913884
 20
544.6368227822388
 30
0.0
  0
POINT
  5
1539
330
72A
100
AcDbEntity
  8
DEFPOINTS
 62
     0
100
AcDbPoint
 10
158.3804920913884
 20
529.5427787164689
 30
0.0
  0
ENDBLK
  5
736
330
72A
100
AcDbEntity
  8
0
100
AcDbBlockEnd
  0
BLOCK
  5
763
330
759
100
AcDbEntity
  8
0
100
AcDbBlockBegin
  2
*D2
 70
     1
 10
0.0
 20
0.0
 30
0.0
  3
*D2
  1

  0
LINE
  5
1526
330
759
100
AcDbEntity
  8
SUNPOU
100
AcDbLine
 10
158.3804920913884
 20
541.6368227822387
 30
0.0
 11
158.3804920913884
 21
527.542778716469
 31
0.0
  0
LINE
  5
1527
330
759
100
AcDbEntity
  8
SUNPOU
100
AcDbLine
 10
287.3804920913885
 20
541.6368227822387
 30
0.0
 11
287.3804920913885
 21
527.542778716469
 31
0.0
  0
LINE
  5
1528
330
759
100
AcDbEntity
  8
SUNPOU
100
AcDbLine
 10
163.3804920913883
 20
529.5427787164689
 30
0.0
 11
282.3804920913882
 21
529.5427787164689
 31
0.0
  0
INSERT
  5
1529
330
759
100
AcDbEntity
  8
SUNPOU
100
AcDbBlockReference
  2
_OPEN30
 10
158.3804920913884
 20
529.5427787164689
 30
0.0
 41
5.0
 42
5.0
 43
5.0
 50
180.0
  0
INSERT
  5
152A
330
759
100
AcDbEntity
  8
SUNPOU
100
AcDbBlockReference
  2
_OPEN30
 10
287.3804920913885
 20
529.5427787164689
 30
0.0
 41
5.0
 42
5.0
 43
5.0
  0
MTEXT
  5
152B
330
759
100
AcDbEntity
  8
SUNPOU
100
AcDbMText
 10
222.8804920913884
 20
534.0427787164689
 30
0.0
 40
5.0
 41
0.0
 71
     5
 72
     1
  1
\A1;129
  7
SUNPOU
1001
ACAD
1000
MTEXTBEGIN
1070
    73
1070
     1
1070
    44
1040
1.0
1070
    74
1070
     0
1000
MTEXTEND
1000
MTEXTBEGIN
1070
    73
1070
     1
1070
    44
1040
1.0
1070
    74
1070
     0
1000
MTEXTEND
  0
POINT
  5
152C
330
759
100
AcDbEntity
  8
DEFPOINTS
 62
     0
100
AcDbPoint
 10
158.3804920913884
 20
544.6368227822388
 30
0.0
  0
POINT
  5
152D
330
759
100
AcDbEntity
  8
DEFPOINTS
 62
     0
100
AcDbPoint
 10
287.3804920913885
 20
544.6368227822388
 30
0.0
  0
POINT
  5
152E
330
759
100
AcDbEntity
  8
DEFPOINTS
 62
     0
100
AcDbPoint
 10
287.3804920913885
 20
529.5427787164689
 30
0.0
  0
ENDBLK
  5
764
330
759
100
AcDbEntity
  8
0
100
AcDbBlockEnd
  0
BLOCK
  5
772
330
766
100
AcDbEntity
  8
0
100
AcDbBlockBegin
  2
*D3
 70
     1
 10
0.0
 20
0.0
 30
0.0
  3
*D3
  1

  0
LINE
  5
151B
330
766
100
AcDbEntity
  8
SUNPOU
100
AcDbLine
 10
287.3804920913885
 20
541.6368227822387
 30
0.0
 11
287.3804920913885
 21
527.542778716469
 31
0.0
  0
LINE
  5
151C
330
766
100
AcDbEntity
  8
SUNPOU
100
AcDbLine
 10
290.3804920913882
 20
522.6368227822388
 30
0.0
 11
290.3804920913882
 21
531.542778716469
 31
0.0
  0
LINE
  5
151D
330
766
100
AcDbEntity
  8
SUNPOU
100
AcDbLine
 10
282.3804920913882
 20
529.5427787164689
 30
0.0
 11
277.3804920913884
 21
529.5427787164689
 31
0.0
  0
LINE
  5
151E
330
766
100
AcDbEntity
  8
SUNPOU
100
AcDbLine
 10
295.3804920913883
 20
529.5427787164689
 30
0.0
 11
300.3804920913883
 21
529.5427787164689
 31
0.0
  0
MTEXT
  5
151F
330
766
100
AcDbEntity
  8
SUNPOU
100
AcDbMText
 10
297.4566461493839
 20
534.0914464591175
 30
0.0
 40
5.0
 41
0.0
 71
     5
 72
     1
  1
\A1;3
  7
SUNPOU
1001
ACAD
1000
MTEXTBEGIN
1070
    73
1070
     1
1070
    44
1040
1.0
1070
    74
1070
     0
1000
MTEXTEND
1000
MTEXTBEGIN
1070
    73
1070
     1
1070
    44
1040
1.0
1070
    74
1070
     0
1000
MTEXTEND
  0
LINE
  5
1520
330
766
100
AcDbEntity
  8
SUNPOU
100
AcDbLine
 10
287.3804920913885
 20
529.5427787164689
 30
0.0
 11
290.3804920913882
 21
529.5427787164689
 31
0.0
  0
INSERT
  5
1521
330
766
100
AcDbEntity
  8
SUNPOU
100
AcDbBlockReference
  2
_OPEN30
 10
287.3804920913885
 20
529.5427787164689
 30
0.0
 41
5.0
 42
5.0
 43
5.0
  0
INSERT
  5
1522
330
766
100
AcDbEntity
  8
SUNPOU
100
AcDbBlockReference
  2
_OPEN30
 10
290.3804920913882
 20
529.5427787164689
 30
0.0
 41
5.0
 42
5.0
 43
5.0
 50
180.0
  0
POINT
  5
1523
330
766
100
AcDbEntity
  8
DEFPOINTS
 62
     0
100
AcDbPoint
 10
287.3804920913885
 20
544.6368227822388
 30
0.0
  0
POINT
  5
1524
330
766
100
AcDbEntity
  8
DEFPOINTS
 62
     0
100
AcDbPoint
 10
290.3804920913882
 20
519.6368227822388
 30
0.0
  0
POINT
  5
1525
330
766
100
AcDbEntity
  8
DEFPOINTS
 62
     0
100
AcDbPoint
 10
290.3804920913882
 20
529.5427787164689
 30
0.0
  0
ENDBLK
  5
773
330
766
100
AcDbEntity
  8
0
100
AcDbBlockEnd
  0
BLOCK
  5
7AC
330
7A4
100
AcDbEntity
  8
0
100
AcDbBlockBegin
  2
*D4
 70
     1
 10
0.0
 20
0.0
 30
0.0
  3
*D4
  1

  0
LINE
  5
1512
330
7A4
100
AcDbEntity
  8
SUNPOU
100
AcDbLine
 10
158.3804920913884
 20
355.1483249966202
 30
0.0
 11
158.3804920913884
 21
354.1483249966201
 31
0.0
  0
LINE
  5
1513
330
7A4
100
AcDbEntity
  8
SUNPOU
100
AcDbLine
 10
188.3804920913883
 20
355.1483249966202
 30
0.0
 11
188.3804920913883
 21
354.1483249966201
 31
0.0
  0
LINE
  5
1514
330
7A4
100
AcDbEntity
  8
SUNPOU
100
AcDbLine
 10
163.3804920913883
 20
352.1483249966202
 30
0.0
 11
183.3804920913884
 21
352.1483249966202
 31
0.0
  0
INSERT
  5
1515
330
7A4
100
AcDbEntity
  8
SUNPOU
100
AcDbBlockReference
  2
_OPEN30
 10
158.3804920913884
 20
352.1483249966202
 30
0.0
 41
5.0
 42
5.0
 43
5.0
 50
180.0
  0
INSERT
  5
1516
330
7A4
100
AcDbEntity
  8
SUNPOU
100
AcDbBlockReference
  2
_OPEN30
 10
188.3804920913883
 20
352.1483249966202
 30
0.0
 41
5.0
 42
5.0
 43
5.0
  0
MTEXT
  5
1517
330
7A4
100
AcDbEntity
  8
SUNPOU
100
AcDbMText
 10
173.3804920913883
 20
356.6483249966202
 30
0.0
 40
5.0
 41
0.0
 71
     5
 72
     1
  1
\A1;30
  7
SUNPOU
1001
ACAD
1000
MTEXTBEGIN
1070
    73
1070
     1
1070
    44
1040
1.0
1070
    74
1070
     0
1000
MTEXTEND
1000
MTEXTBEGIN
1070
    73
1070
     1
1070
    44
1040
1.0
1070
    74
1070
     0
1000
MTEXTEND
  0
POINT
  5
1518
330
7A4
100
AcDbEntity
  8
DEFPOINTS
 62
     0
100
AcDbPoint
 10
158.3804920913884
 20
352.1483249966202
 30
0.0
  0
POINT
  5
1519
330
7A4
100
AcDbEntity
  8
DEFPOINTS
 62
     0
100
AcDbPoint
 10
188.3804920913883
 20
352.1483249966202
 30
0.0
  0
POINT
  5
151A
330
7A4
100
AcDbEntity
  8
DEFPOINTS
 62
     0
100
AcDbPoint
 10
188.3804920913883
 20
352.1483249966202
 30
0.0
  0
ENDBLK
  5
7AD
330
7A4
100
AcDbEntity
  8
0
100
AcDbBlockEnd
  0
BLOCK
  5
7B7
330
7AF
100
AcDbEntity
  8
0
100
AcDbBlockBegin
  2
*D5
 70
     1
 10
0.0
 20
0.0
 30
0.0
  3
*D5
  1

  0
LINE
  5
1509
330
7AF
100
AcDbEntity
  8
SUNPOU
100
AcDbLine
 10
188.3804920913883
 20
355.1483249966202
 30
0.0
 11
188.3804920913883
 21
354.1483249966201
 31
0.0
  0
LINE
  5
150A
330
7AF
100
AcDbEntity
  8
SUNPOU
100
AcDbLine
 10
211.3804920913883
 20
349.1483249966203
 30
0.0
 11
211.3804920913883
 21
350.1483249966202
 31
0.0
  0
LINE
  5
150B
330
7AF
100
AcDbEntity
  8
SUNPOU
100
AcDbLine
 10
193.3804920913883
 20
352.1483249966202
 30
0.0
 11
206.3804920913884
 21
352.1483249966202
 31
0.0
  0
INSERT
  5
150C
330
7AF
100
AcDbEntity
  8
SUNPOU
100
AcDbBlockReference
  2
_OPEN30
 10
188.3804920913883
 20
352.1483249966202
 30
0.0
 41
5.0
 42
5.0
 43
5.0
 50
180.0
  0
INSERT
  5
150D
330
7AF
100
AcDbEntity
  8
SUNPOU
100
AcDbBlockReference
  2
_OPEN30
 10
211.3804920913883
 20
352.1483249966202
 30
0.0
 41
5.0
 42
5.0
 43
5.0
  0
MTEXT
  5
150E
330
7AF
100
AcDbEntity
  8
SUNPOU
100
AcDbMText
 10
199.8804920913883
 20
356.6483249966202
 30
0.0
 40
5.0
 41
0.0
 71
     5
 72
     1
  1
\A1;23
  7
SUNPOU
1001
ACAD
1000
MTEXTBEGIN
1070
    73
1070
     1
1070
    44
1040
1.0
1070
    74
1070
     0
1000
MTEXTEND
1000
MTEXTBEGIN
1070
    73
1070
     1
1070
    44
1040
1.0
1070
    74
1070
     0
1000
MTEXTEND
  0
POINT
  5
150F
330
7AF
100
AcDbEntity
  8
DEFPOINTS
 62
     0
100
AcDbPoint
 10
188.3804920913883
 20
352.1483249966202
 30
0.0
  0
POINT
  5
1510
330
7AF
100
AcDbEntity
  8
DEFPOINTS
 62
     0
100
AcDbPoint
 10
211.3804920913883
 20
352.1483249966203
 30
0.0
  0
POINT
  5
1511
330
7AF
100
AcDbEntity
  8
DEFPOINTS
 62
     0
100
AcDbPoint
 10
211.3804920913883
 20
352.1483249966202
 30
0.0
  0
ENDBLK
  5
7B8
330
7AF
100
AcDbEntity
  8
0
100
AcDbBlockEnd
  0
BLOCK
  5
7C2
330
7BA
100
AcDbEntity
  8
0
100
AcDbBlockBegin
  2
*D6
 70
     1
 10
0.0
 20
0.0
 30
0.0
  3
*D6
  1

  0
LINE
  5
1500
330
7BA
100
AcDbEntity
  8
SUNPOU
100
AcDbLine
 10
211.3804920913883
 20
345.3576449912127
 30
0.0
 11
211.3804920913883
 21
354.1483249966203
 31
0.0
  0
LINE
  5
1501
330
7BA
100
AcDbEntity
  8
SUNPOU
100
AcDbLine
 10
238.3804920913883
 20
355.1483249966203
 30
0.0
 11
238.3804920913883
 21
354.1483249966203
 31
0.0
  0
LINE
  5
1502
330
7BA
100
AcDbEntity
  8
SUNPOU
100
AcDbLine
 10
216.3804920913884
 20
352.1483249966203
 30
0.0
 11
233.3804920913884
 21
352.1483249966203
 31
0.0
  0
MTEXT
  5
1503
330
7BA
100
AcDbEntity
  8
SUNPOU
100
AcDbMText
 10
222.9949873031473
 20
356.6483249966202
 30
0.0
 40
5.0
 41
0.0
 71
     5
 72
     1
  1
\A1;27
  7
SUNPOU
1001
ACAD
1000
MTEXTBEGIN
1070
    73
1070
     1
1070
    44
1040
1.0
1070
    74
1070
     0
1000
MTEXTEND
1000
MTEXTBEGIN
1070
    73
1070
     1
1070
    44
1040
1.0
1070
    74
1070
     0
1000
MTEXTEND
  0
INSERT
  5
1504
330
7BA
100
AcDbEntity
  8
SUNPOU
100
AcDbBlockReference
  2
_OPEN30
 10
211.3804920913883
 20
352.1483249966203
 30
0.0
 41
5.0
 42
5.0
 43
5.0
 50
180.0
  0
INSERT
  5
1505
330
7BA
100
AcDbEntity
  8
SUNPOU
100
AcDbBlockReference
  2
_OPEN30
 10
238.3804920913883
 20
352.1483249966203
 30
0.0
 41
5.0
 42
5.0
 43
5.0
  0
POINT
  5
1506
330
7BA
100
AcDbEntity
  8
DEFPOINTS
 62
     0
100
AcDbPoint
 10
211.3804920913883
 20
342.3576449912126
 30
0.0
  0
POINT
  5
1507
330
7BA
100
AcDbEntity
  8
DEFPOINTS
 62
     0
100
AcDbPoint
 10
238.3804920913883
 20
352.1483249966203
 30
0.0
  0
POINT
  5
1508
330
7BA
100
AcDbEntity
  8
DEFPOINTS
 62
     0
100
AcDbPoint
 10
238.3804920913883
 20
352.1483249966203
 30
0.0
  0
ENDBLK
  5
7C3
330
7BA
100
AcDbEntity
  8
0
100
AcDbBlockEnd
  0
BLOCK
  5
7D0
330
7C5
100
AcDbEntity
  8
0
100
AcDbBlockBegin
  2
*D7
 70
     1
 10
0.0
 20
0.0
 30
0.0
  3
*D7
  1

  0
LINE
  5
14F5
330
7C5
100
AcDbEntity
  8
SUNPOU
100
AcDbLine
 10
155.3804920913884
 20
235.1517467967578
 30
0.0
 11
155.3804920913884
 21
234.1517467967578
 31
0.0
  0
LINE
  5
14F6
330
7C5
100
AcDbEntity
  8
SUNPOU
100
AcDbLine
 10
158.3804920913884
 20
265.9576449912126
 30
0.0
 11
158.3804920913884
 21
230.1517467967578
 31
0.0
  0
LINE
  5
14F7
330
7C5
100
AcDbEntity
  8
SUNPOU
100
AcDbLine
 10
150.3804920913883
 20
232.1517467967578
 30
0.0
 11
145.3804920913883
 21
232.1517467967578
 31
0.0
  0
LINE
  5
14F8
330
7C5
100
AcDbEntity
  8
SUNPOU
100
AcDbLine
 10
163.3804920913883
 20
232.1517467967578
 30
0.0
 11
168.3804920913883
 21
232.1517467967578
 31
0.0
  0
MTEXT
  5
14F9
330
7C5
100
AcDbEntity
  8
SUNPOU
100
AcDbMText
 10
148.1331486255765
 20
236.6965313274445
 30
0.0
 40
5.0
 41
0.0
 71
     5
 72
     1
  1
\A1;3
  7
SUNPOU
1001
ACAD
1000
MTEXTBEGIN
1070
    73
1070
     1
1070
    44
1040
1.0
1070
    74
1070
     0
1000
MTEXTEND
1000
MTEXTBEGIN
1070
    73
1070
     1
1070
    44
1040
1.0
1070
    74
1070
     0
1000
MTEXTEND
  0
LINE
  5
14FA
330
7C5
100
AcDbEntity
  8
SUNPOU
100
AcDbLine
 10
155.3804920913884
 20
232.1517467967578
 30
0.0
 11
158.3804920913884
 21
232.1517467967578
 31
0.0
  0
INSERT
  5
14FB
330
7C5
100
AcDbEntity
  8
SUNPOU
100
AcDbBlockReference
  2
_OPEN30
 10
155.3804920913884
 20
232.1517467967578
 30
0.0
 41
5.0
 42
5.0
 43
5.0
  0
INSERT
  5
14FC
330
7C5
100
AcDbEntity
  8
SUNPOU
100
AcDbBlockReference
  2
_OPEN30
 10
158.3804920913884
 20
232.1517467967578
 30
0.0
 41
5.0
 42
5.0
 43
5.0
 50
180.0
  0
POINT
  5
14FD
330
7C5
100
AcDbEntity
  8
DEFPOINTS
 62
     0
100
AcDbPoint
 10
155.3804920913884
 20
232.1517467967578
 30
0.0
  0
POINT
  5
14FE
330
7C5
100
AcDbEntity
  8
DEFPOINTS
 62
     0
100
AcDbPoint
 10
158.3804920913884
 20
268.9576449912124
 30
0.0
  0
POINT
  5
14FF
330
7C5
100
AcDbEntity
  8
DEFPOINTS
 62
     0
100
AcDbPoint
 10
158.3804920913884
 20
232.1517467967578
 30
0.0
  0
ENDBLK
  5
7D1
330
7C5
100
AcDbEntity
  8
0
100
AcDbBlockEnd
  0
BLOCK
  5
7DF
330
7D3
100
AcDbEntity
  8
0
100
AcDbBlockBegin
  2
*D8
 70
     1
 10
0.0
 20
0.0
 30
0.0
  3
*D8
  1

  0
LINE
  5
14EA
330
7D3
100
AcDbEntity
  8
SUNPOU
100
AcDbLine
 10
158.3804920913884
 20
265.8576449912125
 30
0.0
 11
158.3804920913884
 21
242.3673469794866
 31
0.0
  0
LINE
  5
14EB
330
7D3
100
AcDbEntity
  8
SUNPOU
100
AcDbLine
 10
161.3804920913883
 20
245.3673469794868
 30
0.0
 11
161.3804920913883
 21
246.3673469794867
 31
0.0
  0
LINE
  5
14EC
330
7D3
100
AcDbEntity
  8
SUNPOU
100
AcDbLine
 10
153.3804920913883
 20
244.3673469794866
 30
0.0
 11
148.3804920913883
 21
244.3673469794866
 31
0.0
  0
LINE
  5
14ED
330
7D3
100
AcDbEntity
  8
SUNPOU
100
AcDbLine
 10
166.3804920913883
 20
244.3673469794866
 30
0.0
 11
171.3804920913883
 21
244.3673469794866
 31
0.0
  0
MTEXT
  5
14EE
330
7D3
100
AcDbEntity
  8
SUNPOU
100
AcDbMText
 10
149.6214667603799
 20
253.5270598632253
 30
0.0
 40
5.0
 41
0.0
 71
     5
 72
     1
  1
\A1;3
  7
SUNPOU
1001
ACAD
1000
MTEXTBEGIN
1070
    73
1070
     1
1070
    44
1040
1.0
1070
    74
1070
     0
1000
MTEXTEND
1000
MTEXTBEGIN
1070
    73
1070
     1
1070
    44
1040
1.0
1070
    74
1070
     0
1000
MTEXTEND
  0
LINE
  5
14EF
330
7D3
100
AcDbEntity
  8
SUNPOU
100
AcDbLine
 10
158.3804920913884
 20
244.3673469794866
 30
0.0
 11
161.3804920913883
 21
244.3673469794866
 31
0.0
  0
INSERT
  5
14F0
330
7D3
100
AcDbEntity
  8
SUNPOU
100
AcDbBlockReference
  2
_OPEN30
 10
158.3804920913884
 20
244.3673469794866
 30
0.0
 41
5.0
 42
5.0
 43
5.0
  0
INSERT
  5
14F1
330
7D3
100
AcDbEntity
  8
SUNPOU
100
AcDbBlockReference
  2
_OPEN30
 10
161.3804920913883
 20
244.3673469794866
 30
0.0
 41
5.0
 42
5.0
 43
5.0
 50
180.0
  0
POINT
  5
14F2
330
7D3
100
AcDbEntity
  8
DEFPOINTS
 62
     0
100
AcDbPoint
 10
158.3804920913884
 20
268.8576449912125
 30
0.0
  0
POINT
  5
14F3
330
7D3
100
AcDbEntity
  8
DEFPOINTS
 62
     0
100
AcDbPoint
 10
161.3804920913883
 20
242.3673469794866
 30
0.0
  0
POINT
  5
14F4
330
7D3
100
AcDbEntity
  8
DEFPOINTS
 62
     0
100
AcDbPoint
 10
161.3804920913883
 20
244.3673469794866
 30
0.0
  0
ENDBLK
  5
7E0
330
7D3
100
AcDbEntity
  8
0
100
AcDbBlockEnd
  0
BLOCK
  5
7EC
330
7E2
100
AcDbEntity
  8
0
100
AcDbBlockBegin
  2
*D9
 70
     1
 10
0.0
 20
0.0
 30
0.0
  3
*D9
  1

  0
LINE
  5
14E1
330
7E2
100
AcDbEntity
  8
SUNPOU
100
AcDbLine
 10
161.3804920913883
 20
245.3673469794868
 30
0.0
 11
161.3804920913883
 21
246.3673469794867
 31
0.0
  0
LINE
  5
14E2
330
7E2
100
AcDbEntity
  8
SUNPOU
100
AcDbLine
 10
217.3804920913883
 20
265.9576449912127
 30
0.0
 11
217.3804920913883
 21
242.3673469794866
 31
0.0
  0
LINE
  5
14E3
330
7E2
100
AcDbEntity
  8
SUNPOU
100
AcDbLine
 10
166.3804920913883
 20
244.3673469794866
 30
0.0
 11
212.3804920913884
 21
244.3673469794866
 31
0.0
  0
INSERT
  5
14E4
330
7E2
100
AcDbEntity
  8
SUNPOU
100
AcDbBlockReference
  2
_OPEN30
 10
161.3804920913883
 20
244.3673469794866
 30
0.0
 41
5.0
 42
5.0
 43
5.0
 50
180.0
  0
INSERT
  5
14E5
330
7E2
100
AcDbEntity
  8
SUNPOU
100
AcDbBlockReference
  2
_OPEN30
 10
217.3804920913883
 20
244.3673469794866
 30
0.0
 41
5.0
 42
5.0
 43
5.0
  0
MTEXT
  5
14E6
330
7E2
100
AcDbEntity
  8
SUNPOU
100
AcDbMText
 10
189.3804920913883
 20
248.8673469794866
 30
0.0
 40
5.0
 41
0.0
 71
     5
 72
     1
  1
\A1;56
  7
SUNPOU
1001
ACAD
1000
MTEXTBEGIN
1070
    73
1070
     1
1070
    44
1040
1.0
1070
    74
1070
     0
1000
MTEXTEND
1000
MTEXTBEGIN
1070
    73
1070
     1
1070
    44
1040
1.0
1070
    74
1070
     0
1000
MTEXTEND
  0
POINT
  5
14E7
330
7E2
100
AcDbEntity
  8
DEFPOINTS
 62
     0
100
AcDbPoint
 10
161.3804920913883
 20
242.3673469794866
 30
0.0
  0
POINT
  5
14E8
330
7E2
100
AcDbEntity
  8
DEFPOINTS
 62
     0
100
AcDbPoint
 10
217.3804920913883
 20
268.9576449912127
 30
0.0
  0
POINT
  5
14E9
330
7E2
100
AcDbEntity
  8
DEFPOINTS
 62
     0
100
AcDbPoint
 10
217.3804920913883
 20
244.3673469794866
 30
0.0
  0
ENDBLK
  5
7ED
330
7E2
100
AcDbEntity
  8
0
100
AcDbBlockEnd
  0
BLOCK
  5
7F9
330
7EF
100
AcDbEntity
  8
0
100
AcDbBlockBegin
  2
*D10
 70
     1
 10
0.0
 20
0.0
 30
0.0
  3
*D10
  1

  0
LINE
  5
14D8
330
7EF
100
AcDbEntity
  8
SUNPOU
100
AcDbLine
 10
217.3804920913883
 20
265.9576449912127
 30
0.0
 11
217.3804920913883
 21
242.3673469794866
 31
0.0
  0
LINE
  5
14D9
330
7EF
100
AcDbEntity
  8
SUNPOU
100
AcDbLine
 10
259.3804920913884
 20
265.9576449912126
 30
0.0
 11
259.3804920913884
 21
242.3673469794866
 31
0.0
  0
LINE
  5
14DA
330
7EF
100
AcDbEntity
  8
SUNPOU
100
AcDbLine
 10
222.3804920913884
 20
244.3673469794866
 30
0.0
 11
254.3804920913883
 21
244.3673469794866
 31
0.0
  0
MTEXT
  5
14DB
330
7EF
100
AcDbEntity
  8
SUNPOU
100
AcDbMText
 10
242.9635639162625
 20
239.6266603940755
 30
0.0
 40
5.0
 41
0.0
 71
     5
 72
     1
  1
\A1;42
  7
SUNPOU
1001
ACAD
1000
MTEXTBEGIN
1070
    73
1070
     1
1070
    44
1040
1.0
1070
    74
1070
     0
1000
MTEXTEND
1000
MTEXTBEGIN
1070
    73
1070
     1
1070
    44
1040
1.0
1070
    74
1070
     0
1000
MTEXTEND
  0
INSERT
  5
14DC
330
7EF
100
AcDbEntity
  8
SUNPOU
100
AcDbBlockReference
  2
_OPEN30
 10
217.3804920913883
 20
244.3673469794866
 30
0.0
 41
5.0
 42
5.0
 43
5.0
 50
180.0
  0
INSERT
  5
14DD
330
7EF
100
AcDbEntity
  8
SUNPOU
100
AcDbBlockReference
  2
_OPEN30
 10
259.3804920913884
 20
244.3673469794866
 30
0.0
 41
5.0
 42
5.0
 43
5.0
  0
POINT
  5
14DE
330
7EF
100
AcDbEntity
  8
DEFPOINTS
 62
     0
100
AcDbPoint
 10
217.3804920913883
 20
268.9576449912127
 30
0.0
  0
POINT
  5
14DF
330
7EF
100
AcDbEntity
  8
DEFPOINTS
 62
     0
100
AcDbPoint
 10
259.3804920913884
 20
268.9576449912124
 30
0.0
  0
POINT
  5
14E0
330
7EF
100
AcDbEntity
  8
DEFPOINTS
 62
     0
100
AcDbPoint
 10
259.3804920913884
 20
244.3673469794866
 30
0.0
  0
ENDBLK
  5
7FA
330
7EF
100
AcDbEntity
  8
0
100
AcDbBlockEnd
  0
BLOCK
  5
806
330
7FC
100
AcDbEntity
  8
0
100
AcDbBlockBegin
  2
*D11
 70
     1
 10
0.0
 20
0.0
 30
0.0
  3
*D11
  1

  0
LINE
  5
14CF
330
7FC
100
AcDbEntity
  8
SUNPOU
100
AcDbLine
 10
259.3804920913884
 20
265.9576449912126
 30
0.0
 11
259.3804920913884
 21
242.3673469794866
 31
0.0
  0
LINE
  5
14D0
330
7FC
100
AcDbEntity
  8
SUNPOU
100
AcDbLine
 10
287.3804920913883
 20
265.9576449912126
 30
0.0
 11
287.3804920913883
 21
242.3673469794866
 31
0.0
  0
LINE
  5
14D1
330
7FC
100
AcDbEntity
  8
SUNPOU
100
AcDbLine
 10
264.3804920913884
 20
244.3673469794866
 30
0.0
 11
282.3804920913882
 21
244.3673469794866
 31
0.0
  0
INSERT
  5
14D2
330
7FC
100
AcDbEntity
  8
SUNPOU
100
AcDbBlockReference
  2
_OPEN30
 10
259.3804920913884
 20
244.3673469794866
 30
0.0
 41
5.0
 42
5.0
 43
5.0
 50
180.0
  0
INSERT
  5
14D3
330
7FC
100
AcDbEntity
  8
SUNPOU
100
AcDbBlockReference
  2
_OPEN30
 10
287.3804920913883
 20
244.3673469794866
 30
0.0
 41
5.0
 42
5.0
 43
5.0
  0
MTEXT
  5
14D4
330
7FC
100
AcDbEntity
  8
SUNPOU
100
AcDbMText
 10
273.3804920913884
 20
248.8673469794866
 30
0.0
 40
5.0
 41
0.0
 71
     5
 72
     1
  1
\A1;28
  7
SUNPOU
1001
ACAD
1000
MTEXTBEGIN
1070
    73
1070
     1
1070
    44
1040
1.0
1070
    74
1070
     0
1000
MTEXTEND
1000
MTEXTBEGIN
1070
    73
1070
     1
1070
    44
1040
1.0
1070
    74
1070
     0
1000
MTEXTEND
  0
POINT
  5
14D5
330
7FC
100
AcDbEntity
  8
DEFPOINTS
 62
     0
100
AcDbPoint
 10
259.3804920913884
 20
268.9576449912124
 30
0.0
  0
POINT
  5
14D6
330
7FC
100
AcDbEntity
  8
DEFPOINTS
 62
     0
100
AcDbPoint
 10
287.3804920913883
 20
268.9576449912124
 30
0.0
  0
POINT
  5
14D7
330
7FC
100
AcDbEntity
  8
DEFPOINTS
 62
     0
100
AcDbPoint
 10
287.3804920913883
 20
244.3673469794866
 30
0.0
  0
ENDBLK
  5
807
330
7FC
100
AcDbEntity
  8
0
100
AcDbBlockEnd
  0
BLOCK
  5
814
330
809
100
AcDbEntity
  8
0
100
AcDbBlockBegin
  2
*D12
 70
     1
 10
0.0
 20
0.0
 30
0.0
  3
*D12
  1

  0
LINE
  5
14C4
330
809
100
AcDbEntity
  8
SUNPOU
100
AcDbLine
 10
287.3804920913883
 20
265.9576449912126
 30
0.0
 11
287.3804920913883
 21
242.3673469794866
 31
0.0
  0
LINE
  5
14C5
330
809
100
AcDbEntity
  8
SUNPOU
100
AcDbLine
 10
290.3804920913882
 20
247.3673469794868
 30
0.0
 11
290.3804920913882
 21
246.3673469794867
 31
0.0
  0
LINE
  5
14C6
330
809
100
AcDbEntity
  8
SUNPOU
100
AcDbLine
 10
282.3804920913882
 20
244.3673469794866
 30
0.0
 11
277.3804920913884
 21
244.3673469794866
 31
0.0
  0
LINE
  5
14C7
330
809
100
AcDbEntity
  8
SUNPOU
100
AcDbLine
 10
295.3804920913883
 20
244.3673469794866
 30
0.0
 11
300.3804920913883
 21
244.3673469794866
 31
0.0
  0
MTEXT
  5
14C8
330
809
100
AcDbEntity
  8
SUNPOU
100
AcDbMText
 10
297.2341217850828
 20
248.8532754465428
 30
0.0
 40
5.0
 41
0.0
 71
     5
 72
     1
  1
\A1;3
  7
SUNPOU
1001
ACAD
1000
MTEXTBEGIN
1070
    73
1070
     1
1070
    44
1040
1.0
1070
    74
1070
     0
1000
MTEXTEND
1000
MTEXTBEGIN
1070
    73
1070
     1
1070
    44
1040
1.0
1070
    74
1070
     0
1000
MTEXTEND
  0
LINE
  5
14C9
330
809
100
AcDbEntity
  8
SUNPOU
100
AcDbLine
 10
287.3804920913883
 20
244.3673469794866
 30
0.0
 11
290.3804920913882
 21
244.3673469794866
 31
0.0
  0
INSERT
  5
14CA
330
809
100
AcDbEntity
  8
SUNPOU
100
AcDbBlockReference
  2
_OPEN30
 10
287.3804920913883
 20
244.3673469794866
 30
0.0
 41
5.0
 42
5.0
 43
5.0
  0
INSERT
  5
14CB
330
809
100
AcDbEntity
  8
SUNPOU
100
AcDbBlockReference
  2
_OPEN30
 10
290.3804920913882
 20
244.3673469794866
 30
0.0
 41
5.0
 42
5.0
 43
5.0
 50
180.0
  0
POINT
  5
14CC
330
809
100
AcDbEntity
  8
DEFPOINTS
 62
     0
100
AcDbPoint
 10
287.3804920913883
 20
268.9576449912124
 30
0.0
  0
POINT
  5
14CD
330
809
100
AcDbEntity
  8
DEFPOINTS
 62
     0
100
AcDbPoint
 10
290.3804920913882
 20
244.3673469794866
 30
0.0
  0
POINT
  5
14CE
330
809
100
AcDbEntity
  8
DEFPOINTS
 62
     0
100
AcDbPoint
 10
290.3804920913882
 20
244.3673469794866
 30
0.0
  0
ENDBLK
  5
815
330
809
100
AcDbEntity
  8
0
100
AcDbBlockEnd
  0
BLOCK
  5
875
330
86D
100
AcDbEntity
  8
0
100
AcDbBlockBegin
  2
*D13
 70
     1
 10
0.0
 20
0.0
 30
0.0
  3
*D13
  1

  0
LINE
  5
14BB
330
86D
100
AcDbEntity
  8
SUNPOU
100
AcDbLine
 10
155.3804920913884
 20
221.9348679105265
 30
0.0
 11
155.3804920913884
 21
220.9348679105264
 31
0.0
  0
LINE
  5
14BC
330
86D
100
AcDbEntity
  8
SUNPOU
100
AcDbLine
 10
290.3804920913882
 20
221.9348679105265
 30
0.0
 11
290.3804920913882
 21
220.9348679105264
 31
0.0
  0
LINE
  5
14BD
330
86D
100
AcDbEntity
  8
SUNPOU
100
AcDbLine
 10
160.3804920913884
 20
218.9348679105264
 30
0.0
 11
285.3804920913883
 21
218.9348679105264
 31
0.0
  0
MTEXT
  5
14BE
330
86D
100
AcDbEntity
  8
SUNPOU
100
AcDbMText
 10
214.1144511402961
 20
223.4348679105266
 30
0.0
 40
5.0
 41
0.0
 71
     5
 72
     1
  1
\A1;135
  7
SUNPOU
1001
ACAD
1000
MTEXTBEGIN
1070
    73
1070
     1
1070
    44
1040
1.0
1070
    74
1070
     0
1000
MTEXTEND
1000
MTEXTBEGIN
1070
    73
1070
     1
1070
    44
1040
1.0
1070
    74
1070
     0
1000
MTEXTEND
  0
INSERT
  5
14BF
330
86D
100
AcDbEntity
  8
SUNPOU
100
AcDbBlockReference
  2
_OPEN30
 10
155.3804920913884
 20
218.9348679105264
 30
0.0
 41
5.0
 42
5.0
 43
5.0
 50
180.0
  0
INSERT
  5
14C0
330
86D
100
AcDbEntity
  8
SUNPOU
100
AcDbBlockReference
  2
_OPEN30
 10
290.3804920913882
 20
218.9348679105264
 30
0.0
 41
5.0
 42
5.0
 43
5.0
  0
POINT
  5
14C1
330
86D
100
AcDbEntity
  8
DEFPOINTS
 62
     0
100
AcDbPoint
 10
155.3804920913884
 20
218.9348679105264
 30
0.0
  0
POINT
  5
14C2
330
86D
100
AcDbEntity
  8
DEFPOINTS
 62
     0
100
AcDbPoint
 10
290.3804920913882
 20
218.9348679105264
 30
0.0
  0
POINT
  5
14C3
330
86D
100
AcDbEntity
  8
DEFPOINTS
 62
     0
100
AcDbPoint
 10
290.3804920913882
 20
218.9348679105264
 30
0.0
  0
ENDBLK
  5
876
330
86D
100
AcDbEntity
  8
0
100
AcDbBlockEnd
  0
BLOCK
  5
881
330
878
100
AcDbEntity
  8
0
100
AcDbBlockBegin
  2
*D14
 70
     1
 10
0.0
 20
0.0
 30
0.0
  3
*D14
  1

  0
LINE
  5
18A5
330
878
100
AcDbEntity
  8
SUNPOU
100
AcDbLine
 10
128.4571853454103
 20
73.17398945518451
 30
0.0
 11
129.4571853454103
 21
73.17398945518451
 31
0.0
  0
LINE
  5
18A6
330
878
100
AcDbEntity
  8
SUNPOU
100
AcDbLine
 10
173.1817486992214
 20
188.8679870217655
 30
0.0
 11
129.4571853454103
 21
188.8679870217655
 31
0.0
  0
LINE
  5
18A7
330
878
100
AcDbEntity
  8
SUNPOU
100
AcDbLine
 10
131.45718534541
 20
78.17398945518451
 30
0.0
 11
131.45718534541
 21
183.8679870217655
 31
0.0
  0
INSERT
  5
18A8
330
878
100
AcDbEntity
  8
SUNPOU
100
AcDbBlockReference
  2
_OPEN30
 10
131.45718534541
 20
73.17398945518451
 30
0.0
 41
5.0
 42
5.0
 43
5.0
 50
270.0
  0
INSERT
  5
18A9
330
878
100
AcDbEntity
  8
SUNPOU
100
AcDbBlockReference
  2
_OPEN30
 10
131.45718534541
 20
188.8679870217655
 30
0.0
 41
5.0
 42
5.0
 43
5.0
 50
90.0
  0
MTEXT
  5
18AA
330
878
100
AcDbEntity
  8
SUNPOU
100
AcDbMText
 10
126.9571853454102
 20
131.0209882384749
 30
0.0
 40
5.0
 41
0.0
 71
     5
 72
     1
  1
\A1;600
  7
SUNPOU
 11
0.0000000000000001
 21
1.0
 31
0.0
1001
ACAD
1000
MTEXTBEGIN
1070
    73
1070
     1
1070
    44
1040
1.0
1070
    74
1070
     0
1000
MTEXTEND
1000
MTEXTBEGIN
1070
    73
1070
     1
1070
    44
1040
1.0
1070
    74
1070
     0
1000
MTEXTEND
  0
POINT
  5
18AB
330
878
100
AcDbEntity
  8
DEFPOINTS
 62
     0
100
AcDbPoint
 10
131.4571853454101
 20
73.17398945518451
 30
0.0
  0
POINT
  5
18AC
330
878
100
AcDbEntity
  8
DEFPOINTS
 62
     0
100
AcDbPoint
 10
176.1817486992214
 20
188.8679870217655
 30
0.0
  0
POINT
  5
18AD
330
878
100
AcDbEntity
  8
DEFPOINTS
 62
     0
100
AcDbPoint
 10
131.45718534541
 20
188.8679870217655
 30
0.0
  0
ENDBLK
  5
882
330
878
100
AcDbEntity
  8
0
100
AcDbBlockEnd
  0
BLOCK
  5
8DB
330
8D1
100
AcDbEntity
  8
0
100
AcDbBlockBegin
  2
*D15
 70
     1
 10
0.0
 20
0.0
 30
0.0
  3
*D15
  1

  0
LINE
  5
14A9
330
8D1
100
AcDbEntity
  8
SUNPOU
100
AcDbLine
 10
156.9804920913883
 20
267.3576449912125
 30
0.0
 11
113.9560632688928
 21
267.3576449912125
 31
0.0
  0
LINE
  5
14AA
330
8D1
100
AcDbEntity
  8
SUNPOU
100
AcDbLine
 10
160.3804920913884
 20
479.3576449912121
 30
0.0
 11
113.9560632688928
 21
479.3576449912121
 31
0.0
  0
LINE
  5
14AB
330
8D1
100
AcDbEntity
  8
SUNPOU
100
AcDbLine
 10
115.9560632688927
 20
272.3576449912125
 30
0.0
 11
115.9560632688928
 21
474.3576449912121
 31
0.0
  0
MTEXT
  5
14AC
330
8D1
100
AcDbEntity
  8
SUNPOU
100
AcDbMText
 10
111.4560632688927
 20
381.6604684304726
 30
0.0
 40
5.0
 41
0.0
 71
     5
 72
     1
  1
\A1;212
  7
SUNPOU
 11
0.0000000000000001
 21
1.0
 31
0.0
1001
ACAD
1000
MTEXTBEGIN
1070
    73
1070
     1
1070
    44
1040
1.0
1070
    74
1070
     0
1000
MTEXTEND
1000
MTEXTBEGIN
1070
    73
1070
     1
1070
    44
1040
1.0
1070
    74
1070
     0
1000
MTEXTEND
  0
INSERT
  5
14AD
330
8D1
100
AcDbEntity
  8
SUNPOU
100
AcDbBlockReference
  2
_OPEN30
 10
115.9560632688927
 20
267.3576449912125
 30
0.0
 41
5.0
 42
5.0
 43
5.0
 50
270.0
  0
INSERT
  5
14AE
330
8D1
100
AcDbEntity
  8
SUNPOU
100
AcDbBlockReference
  2
_OPEN30
 10
115.9560632688928
 20
479.3576449912121
 30
0.0
 41
5.0
 42
5.0
 43
5.0
 50
90.0
  0
POINT
  5
14AF
330
8D1
100
AcDbEntity
  8
DEFPOINTS
 62
     0
100
AcDbPoint
 10
159.9804920913883
 20
267.3576449912125
 30
0.0
  0
POINT
  5
14B0
330
8D1
100
AcDbEntity
  8
DEFPOINTS
 62
     0
100
AcDbPoint
 10
163.3804920913883
 20
479.3576449912121
 30
0.0
  0
POINT
  5
14B1
330
8D1
100
AcDbEntity
  8
DEFPOINTS
 62
     0
100
AcDbPoint
 10
115.9560632688928
 20
479.3576449912121
 30
0.0
  0
ENDBLK
  5
8DC
330
8D1
100
AcDbEntity
  8
0
100
AcDbBlockEnd
  0
BLOCK
  5
8E8
330
8DE
100
AcDbEntity
  8
0
100
AcDbBlockBegin
  2
*D16
 70
     1
 10
0.0
 20
0.0
 30
0.0
  3
*D16
  1

  0
LINE
  5
14A0
330
8DE
100
AcDbEntity
  8
SUNPOU
100
AcDbLine
 10
160.3804920913884
 20
479.3576449912121
 30
0.0
 11
113.9560632688928
 21
479.3576449912121
 31
0.0
  0
LINE
  5
14A1
330
8DE
100
AcDbEntity
  8
SUNPOU
100
AcDbLine
 10
161.9804920913883
 20
497.3576449912117
 30
0.0
 11
113.9560632688928
 21
497.357644991212
 31
0.0
  0
LINE
  5
14A2
330
8DE
100
AcDbEntity
  8
SUNPOU
100
AcDbLine
 10
115.9560632688928
 20
484.3576449912123
 30
0.0
 11
115.9560632688928
 21
492.3576449912117
 31
0.0
  0
INSERT
  5
14A3
330
8DE
100
AcDbEntity
  8
SUNPOU
100
AcDbBlockReference
  2
_OPEN30
 10
115.9560632688928
 20
479.3576449912121
 30
0.0
 41
5.0
 42
5.0
 43
5.0
 50
270.0
  0
INSERT
  5
14A4
330
8DE
100
AcDbEntity
  8
SUNPOU
100
AcDbBlockReference
  2
_OPEN30
 10
115.9560632688928
 20
497.357644991212
 30
0.0
 41
5.0
 42
5.0
 43
5.0
 50
90.0
  0
MTEXT
  5
14A5
330
8DE
100
AcDbEntity
  8
SUNPOU
100
AcDbMText
 10
111.4560632688927
 20
488.3576449912121
 30
0.0
 40
5.0
 41
0.0
 71
     5
 72
     1
  1
\A1;18
  7
SUNPOU
 11
0.0000000000000001
 21
1.0
 31
0.0
1001
ACAD
1000
MTEXTBEGIN
1070
    73
1070
     1
1070
    44
1040
1.0
1070
    74
1070
     0
1000
MTEXTEND
1000
MTEXTBEGIN
1070
    73
1070
     1
1070
    44
1040
1.0
1070
    74
1070
     0
1000
MTEXTEND
  0
POINT
  5
14A6
330
8DE
100
AcDbEntity
  8
DEFPOINTS
 62
     0
100
AcDbPoint
 10
163.3804920913883
 20
479.3576449912121
 30
0.0
  0
POINT
  5
14A7
330
8DE
100
AcDbEntity
  8
DEFPOINTS
 62
     0
100
AcDbPoint
 10
164.9804920913883
 20
497.3576449912117
 30
0.0
  0
POINT
  5
14A8
330
8DE
100
AcDbEntity
  8
DEFPOINTS
 62
     0
100
AcDbPoint
 10
115.9560632688928
 20
497.357644991212
 30
0.0
  0
ENDBLK
  5
8E9
330
8DE
100
AcDbEntity
  8
0
100
AcDbBlockEnd
  0
BLOCK
  5
8F5
330
8EB
100
AcDbEntity
  8
0
100
AcDbBlockBegin
  2
*D17
 70
     1
 10
0.0
 20
0.0
 30
0.0
  3
*D17
  1

  0
LINE
  5
1497
330
8EB
100
AcDbEntity
  8
SUNPOU
100
AcDbLine
 10
156.945474211564
 20
267.3580282408337
 30
0.0
 11
142.6223874543734
 21
267.3580282408337
 31
0.0
  0
LINE
  5
1498
330
8EB
100
AcDbEntity
  8
SUNPOU
100
AcDbLine
 10
174.7034523988689
 20
417.3576449912124
 30
0.0
 11
142.6223874543734
 21
417.3576449912124
 31
0.0
  0
LINE
  5
1499
330
8EB
100
AcDbEntity
  8
SUNPOU
100
AcDbLine
 10
144.6223874543734
 20
272.3580282408338
 30
0.0
 11
144.6223874543734
 21
412.3576449912127
 31
0.0
  0
MTEXT
  5
149A
330
8EB
100
AcDbEntity
  8
SUNPOU
100
AcDbMText
 10
140.1223874543733
 20
334.7816063764363
 30
0.0
 40
5.0
 41
0.0
 71
     5
 72
     1
  1
\A1;150
  7
SUNPOU
 11
0.0000000000000001
 21
1.0
 31
0.0
1001
ACAD
1000
MTEXTBEGIN
1070
    73
1070
     1
1070
    44
1040
1.0
1070
    74
1070
     0
1000
MTEXTEND
1000
MTEXTBEGIN
1070
    73
1070
     1
1070
    44
1040
1.0
1070
    74
1070
     0
1000
MTEXTEND
  0
INSERT
  5
149B
330
8EB
100
AcDbEntity
  8
SUNPOU
100
AcDbBlockReference
  2
_OPEN30
 10
144.6223874543734
 20
267.3580282408337
 30
0.0
 41
5.0
 42
5.0
 43
5.0
 50
270.0
  0
INSERT
  5
149C
330
8EB
100
AcDbEntity
  8
SUNPOU
100
AcDbBlockReference
  2
_OPEN30
 10
144.6223874543734
 20
417.3576449912124
 30
0.0
 41
5.0
 42
5.0
 43
5.0
 50
90.0
  0
POINT
  5
149D
330
8EB
100
AcDbEntity
  8
DEFPOINTS
 62
     0
100
AcDbPoint
 10
159.9454742115639
 20
267.3580282408337
 30
0.0
  0
POINT
  5
149E
330
8EB
100
AcDbEntity
  8
DEFPOINTS
 62
     0
100
AcDbPoint
 10
177.703452398869
 20
417.3576449912124
 30
0.0
  0
POINT
  5
149F
330
8EB
100
AcDbEntity
  8
DEFPOINTS
 62
     0
100
AcDbPoint
 10
144.6223874543734
 20
417.3576449912124
 30
0.0
  0
ENDBLK
  5
8F6
330
8EB
100
AcDbEntity
  8
0
100
AcDbBlockEnd
  0
BLOCK
  5
901
330
8F8
100
AcDbEntity
  8
0
100
AcDbBlockBegin
  2
*D18
 70
     1
 10
0.0
 20
0.0
 30
0.0
  3
*D18
  1

  0
LINE
  5
148E
330
8F8
100
AcDbEntity
  8
SUNPOU
100
AcDbLine
 10
176.1690793564959
 20
267.3576449912125
 30
0.0
 11
173.6536806837384
 21
267.3576449912125
 31
0.0
  0
LINE
  5
148F
330
8F8
100
AcDbEntity
  8
SUNPOU
100
AcDbLine
 10
193.4329558670176
 20
327.3576449912126
 30
0.0
 11
173.6536806837384
 21
327.3576449912126
 31
0.0
  0
LINE
  5
1490
330
8F8
100
AcDbEntity
  8
SUNPOU
100
AcDbLine
 10
175.6536806837384
 20
272.3576449912125
 30
0.0
 11
175.6536806837384
 21
322.3576449912126
 31
0.0
  0
INSERT
  5
1491
330
8F8
100
AcDbEntity
  8
SUNPOU
100
AcDbBlockReference
  2
_OPEN30
 10
175.6536806837384
 20
267.3576449912125
 30
0.0
 41
5.0
 42
5.0
 43
5.0
 50
270.0
  0
INSERT
  5
1492
330
8F8
100
AcDbEntity
  8
SUNPOU
100
AcDbBlockReference
  2
_OPEN30
 10
175.6536806837384
 20
327.3576449912126
 30
0.0
 41
5.0
 42
5.0
 43
5.0
 50
90.0
  0
MTEXT
  5
1493
330
8F8
100
AcDbEntity
  8
SUNPOU
100
AcDbMText
 10
171.1536806837384
 20
297.3576449912126
 30
0.0
 40
5.0
 41
0.0
 71
     5
 72
     1
  1
\A1;60
  7
SUNPOU
 11
0.0000000000000001
 21
1.0
 31
0.0
1001
ACAD
1000
MTEXTBEGIN
1070
    73
1070
     1
1070
    44
1040
1.0
1070
    74
1070
     0
1000
MTEXTEND
1000
MTEXTBEGIN
1070
    73
1070
     1
1070
    44
1040
1.0
1070
    74
1070
     0
1000
MTEXTEND
  0
POINT
  5
1494
330
8F8
100
AcDbEntity
  8
DEFPOINTS
 62
     0
100
AcDbPoint
 10
179.1690793564959
 20
267.3576449912125
 30
0.0
  0
POINT
  5
1495
330
8F8
100
AcDbEntity
  8
DEFPOINTS
 62
     0
100
AcDbPoint
 10
196.4329558670176
 20
327.3576449912126
 30
0.0
  0
POINT
  5
1496
330
8F8
100
AcDbEntity
  8
DEFPOINTS
 62
     0
100
AcDbPoint
 10
175.6536806837384
 20
327.3576449912126
 30
0.0
  0
ENDBLK
  5
902
330
8F8
100
AcDbEntity
  8
0
100
AcDbBlockEnd
  0
BLOCK
  5
90E
330
904
100
AcDbEntity
  8
0
100
AcDbBlockBegin
  2
*D19
 70
     1
 10
0.0
 20
0.0
 30
0.0
  3
*D19
  1

  0
LINE
  5
1485
330
904
100
AcDbEntity
  8
SUNPOU
100
AcDbLine
 10
251.3804920913883
 20
312.3576449912127
 30
0.0
 11
275.5690360957144
 21
312.3576449912127
 31
0.0
  0
LINE
  5
1486
330
904
100
AcDbEntity
  8
SUNPOU
100
AcDbLine
 10
251.3804920913883
 20
372.3576449912126
 30
0.0
 11
275.5690360957144
 21
372.3576449912126
 31
0.0
  0
LINE
  5
1487
330
904
100
AcDbEntity
  8
SUNPOU
100
AcDbLine
 10
273.5690360957144
 20
317.3576449912126
 30
0.0
 11
273.5690360957144
 21
367.3576449912126
 31
0.0
  0
INSERT
  5
1488
330
904
100
AcDbEntity
  8
SUNPOU
100
AcDbBlockReference
  2
_OPEN30
 10
273.5690360957144
 20
312.3576449912127
 30
0.0
 41
5.0
 42
5.0
 43
5.0
 50
270.0
  0
INSERT
  5
1489
330
904
100
AcDbEntity
  8
SUNPOU
100
AcDbBlockReference
  2
_OPEN30
 10
273.5690360957144
 20
372.3576449912126
 30
0.0
 41
5.0
 42
5.0
 43
5.0
 50
90.0
  0
MTEXT
  5
148A
330
904
100
AcDbEntity
  8
SUNPOU
100
AcDbMText
 10
269.0690360957144
 20
342.3576449912126
 30
0.0
 40
5.0
 41
0.0
 71
     5
 72
     1
  1
\A1;φ60
  7
SUNPOU
 11
0.0000000000000001
 21
1.0
 31
0.0
1001
ACAD
1000
MTEXTBEGIN
1070
    73
1070
     1
1070
    44
1040
1.0
1070
    74
1070
     0
1000
MTEXTEND
1000
MTEXTBEGIN
1070
    73
1070
     1
1070
    44
1040
1.0
1070
    74
1070
     0
1000
MTEXTEND
  0
POINT
  5
148B
330
904
100
AcDbEntity
  8
DEFPOINTS
 62
     0
100
AcDbPoint
 10
248.3804920913883
 20
312.3576449912127
 30
0.0
  0
POINT
  5
148C
330
904
100
AcDbEntity
  8
DEFPOINTS
 62
     0
100
AcDbPoint
 10
248.3804920913883
 20
372.3576449912126
 30
0.0
  0
POINT
  5
148D
330
904
100
AcDbEntity
  8
DEFPOINTS
 62
     0
100
AcDbPoint
 10
273.5690360957144
 20
372.3576449912126
 30
0.0
  0
ENDBLK
  5
90F
330
904
100
AcDbEntity
  8
0
100
AcDbBlockEnd
  0
BLOCK
  5
924
330
91A
100
AcDbEntity
  8
0
100
AcDbBlockBegin
  2
*D20
 70
     1
 10
0.0
 20
0.0
 30
0.0
  3
*D20
  1

  0
LINE
  5
147C
330
91A
100
AcDbEntity
  8
SUNPOU
100
AcDbLine
 10
257.8804920913885
 20
281.3576449912125
 30
0.0
 11
284.0808802856636
 21
281.3576449912125
 31
0.0
  0
LINE
  5
147D
330
91A
100
AcDbEntity
  8
SUNPOU
100
AcDbLine
 10
262.3804920913884
 20
373.3576449912126
 30
0.0
 11
284.0808802856636
 21
373.3576449912126
 31
0.0
  0
LINE
  5
147E
330
91A
100
AcDbEntity
  8
SUNPOU
100
AcDbLine
 10
282.0808802856636
 20
286.3576449912126
 30
0.0
 11
282.0808802856636
 21
368.3576449912127
 31
0.0
  0
INSERT
  5
147F
330
91A
100
AcDbEntity
  8
SUNPOU
100
AcDbBlockReference
  2
_OPEN30
 10
282.0808802856636
 20
281.3576449912125
 30
0.0
 41
5.0
 42
5.0
 43
5.0
 50
270.0
  0
INSERT
  5
1480
330
91A
100
AcDbEntity
  8
SUNPOU
100
AcDbBlockReference
  2
_OPEN30
 10
282.0808802856636
 20
373.3576449912126
 30
0.0
 41
5.0
 42
5.0
 43
5.0
 50
90.0
  0
MTEXT
  5
1481
330
91A
100
AcDbEntity
  8
SUNPOU
100
AcDbMText
 10
277.5808802856635
 20
327.3576449912126
 30
0.0
 40
5.0
 41
0.0
 71
     5
 72
     1
  1
\A1;92
  7
SUNPOU
 11
0.0000000000000001
 21
1.0
 31
0.0
1001
ACAD
1000
MTEXTBEGIN
1070
    73
1070
     1
1070
    44
1040
1.0
1070
    74
1070
     0
1000
MTEXTEND
1000
MTEXTBEGIN
1070
    73
1070
     1
1070
    44
1040
1.0
1070
    74
1070
     0
1000
MTEXTEND
  0
POINT
  5
1482
330
91A
100
AcDbEntity
  8
DEFPOINTS
 62
     0
100
AcDbPoint
 10
254.8804920913883
 20
281.3576449912125
 30
0.0
  0
POINT
  5
1483
330
91A
100
AcDbEntity
  8
DEFPOINTS
 62
     0
100
AcDbPoint
 10
259.3804920913884
 20
373.3576449912126
 30
0.0
  0
POINT
  5
1484
330
91A
100
AcDbEntity
  8
DEFPOINTS
 62
     0
100
AcDbPoint
 10
282.0808802856636
 20
373.3576449912126
 30
0.0
  0
ENDBLK
  5
925
330
91A
100
AcDbEntity
  8
0
100
AcDbBlockEnd
  0
BLOCK
  5
932
330
927
100
AcDbEntity
  8
0
100
AcDbBlockBegin
  2
*D21
 70
     1
 10
0.0
 20
0.0
 30
0.0
  3
*D21
  1

  0
LINE
  5
189A
330
927
100
AcDbEntity
  8
SUNPOU
100
AcDbLine
 10
311.6261457347571
 20
73.17398945518451
 30
0.0
 11
312.6261457347573
 21
73.17398945518451
 31
0.0
  0
LINE
  5
189B
330
927
100
AcDbEntity
  8
SUNPOU
100
AcDbLine
 10
257.3804920913884
 20
83.17398945518451
 30
0.0
 11
316.6261457347573
 21
83.1739894551845
 31
0.0
  0
LINE
  5
189C
330
927
100
AcDbEntity
  8
SUNPOU
100
AcDbLine
 10
314.6261457347573
 20
68.17398945518451
 30
0.0
 11
314.6261457347573
 21
63.1739894551845
 31
0.0
  0
LINE
  5
189D
330
927
100
AcDbEntity
  8
SUNPOU
100
AcDbLine
 10
314.6261457347573
 20
88.1739894551845
 30
0.0
 11
314.6261457347573
 21
93.1739894551845
 31
0.0
  0
LINE
  5
189E
330
927
100
AcDbEntity
  8
SUNPOU
100
AcDbLine
 10
314.6261457347573
 20
73.17398945518451
 30
0.0
 11
314.6261457347573
 21
83.1739894551845
 31
0.0
  0
INSERT
  5
189F
330
927
100
AcDbEntity
  8
SUNPOU
100
AcDbBlockReference
  2
_OPEN30
 10
314.6261457347573
 20
73.17398945518451
 30
0.0
 41
5.0
 42
5.0
 43
5.0
 50
90.0
  0
INSERT
  5
18A0
330
927
100
AcDbEntity
  8
SUNPOU
100
AcDbBlockReference
  2
_OPEN30
 10
314.6261457347573
 20
83.1739894551845
 30
0.0
 41
5.0
 42
5.0
 43
5.0
 50
270.0
  0
MTEXT
  5
18A1
330
927
100
AcDbEntity
  8
SUNPOU
100
AcDbMText
 10
310.1261457347573
 20
78.17398945518454
 30
0.0
 40
5.0
 41
0.0
 71
     5
 72
     1
  1
\A1;10
  7
SUNPOU
 11
0.0000000000000001
 21
1.0
 31
0.0
1001
ACAD
1000
MTEXTBEGIN
1070
    73
1070
     1
1070
    44
1040
1.0
1070
    74
1070
     0
1000
MTEXTEND
1000
MTEXTBEGIN
1070
    73
1070
     1
1070
    44
1040
1.0
1070
    74
1070
     0
1000
MTEXTEND
  0
POINT
  5
18A2
330
927
100
AcDbEntity
  8
DEFPOINTS
 62
     0
100
AcDbPoint
 10
314.6261457347573
 20
73.17398945518451
 30
0.0
  0
POINT
  5
18A3
330
927
100
AcDbEntity
  8
DEFPOINTS
 62
     0
100
AcDbPoint
 10
254.3804920913883
 20
83.17398945518451
 30
0.0
  0
POINT
  5
18A4
330
927
100
AcDbEntity
  8
DEFPOINTS
 62
     0
100
AcDbPoint
 10
314.6261457347573
 20
83.1739894551845
 30
0.0
  0
ENDBLK
  5
933
330
927
100
AcDbEntity
  8
0
100
AcDbBlockEnd
  0
BLOCK
  5
93F
330
935
100
AcDbEntity
  8
0
100
AcDbBlockBegin
  2
*D22
 70
     1
 10
0.0
 20
0.0
 30
0.0
  3
*D22
  1

  0
LINE
  5
1891
330
935
100
AcDbEntity
  8
SUNPOU
100
AcDbLine
 10
257.3804920913884
 20
83.17398945518451
 30
0.0
 11
316.6261457347573
 21
83.1739894551845
 31
0.0
  0
LINE
  5
1892
330
935
100
AcDbEntity
  8
SUNPOU
100
AcDbLine
 10
257.3804920913884
 20
277.3576449912125
 30
0.0
 11
316.6261457347573
 21
277.3576449912125
 31
0.0
  0
LINE
  5
1893
330
935
100
AcDbEntity
  8
SUNPOU
100
AcDbLine
 10
314.6261457347573
 20
88.1739894551845
 30
0.0
 11
314.6261457347573
 21
272.3576449912125
 31
0.0
  0
INSERT
  5
1894
330
935
100
AcDbEntity
  8
SUNPOU
100
AcDbBlockReference
  2
_OPEN30
 10
314.6261457347573
 20
83.1739894551845
 30
0.0
 41
5.0
 42
5.0
 43
5.0
 50
270.0
  0
INSERT
  5
1895
330
935
100
AcDbEntity
  8
SUNPOU
100
AcDbBlockReference
  2
_OPEN30
 10
314.6261457347573
 20
277.3576449912125
 30
0.0
 41
5.0
 42
5.0
 43
5.0
 50
90.0
  0
MTEXT
  5
1896
330
935
100
AcDbEntity
  8
SUNPOU
100
AcDbMText
 10
310.1261457347573
 20
180.2658172231985
 30
0.0
 40
5.0
 41
0.0
 71
     5
 72
     1
  1
\A1;DH
  7
SUNPOU
 11
0.0000000000000001
 21
1.0
 31
0.0
1001
ACAD
1000
MTEXTBEGIN
1070
    73
1070
     1
1070
    44
1040
1.0
1070
    74
1070
     0
1000
MTEXTEND
1000
MTEXTBEGIN
1070
    73
1070
     1
1070
    44
1040
1.0
1070
    74
1070
     0
1000
MTEXTEND
  0
POINT
  5
1897
330
935
100
AcDbEntity
  8
DEFPOINTS
 62
     0
100
AcDbPoint
 10
254.3804920913883
 20
83.17398945518451
 30
0.0
  0
POINT
  5
1898
330
935
100
AcDbEntity
  8
DEFPOINTS
 62
     0
100
AcDbPoint
 10
254.3804920913883
 20
277.3576449912125
 30
0.0
  0
POINT
  5
1899
330
935
100
AcDbEntity
  8
DEFPOINTS
 62
     0
100
AcDbPoint
 10
314.6261457347573
 20
277.3576449912125
 30
0.0
  0
ENDBLK
  5
940
330
935
100
AcDbEntity
  8
0
100
AcDbBlockEnd
  0
BLOCK
  5
94E
330
942
100
AcDbEntity
  8
0
100
AcDbBlockBegin
  2
*D23
 70
     1
 10
0.0
 20
0.0
 30
0.0
  3
*D23
  1

  0
LINE
  5
145D
330
942
100
AcDbEntity
  8
SUNPOU
100
AcDbLine
 10
288.7804920913883
 20
267.3576449912125
 30
0.0
 11
308.4941462755171
 21
267.3576449912125
 31
0.0
  0
LINE
  5
145E
330
942
100
AcDbEntity
  8
SUNPOU
100
AcDbLine
 10
257.3804920913884
 20
277.3576449912125
 30
0.0
 11
308.4941462755171
 21
277.3576449912125
 31
0.0
  0
LINE
  5
145F
330
942
100
AcDbEntity
  8
SUNPOU
100
AcDbLine
 10
306.4941462755171
 20
262.3576449912127
 30
0.0
 11
306.4941462755171
 21
257.3576449912124
 31
0.0
  0
LINE
  5
1460
330
942
100
AcDbEntity
  8
SUNPOU
100
AcDbLine
 10
306.4941462755171
 20
282.3576449912126
 30
0.0
 11
306.4941462755171
 21
287.3576449912127
 31
0.0
  0
LINE
  5
1461
330
942
100
AcDbEntity
  8
SUNPOU
100
AcDbLine
 10
306.4941462755171
 20
267.3576449912125
 30
0.0
 11
306.4941462755171
 21
277.3576449912125
 31
0.0
  0
INSERT
  5
1462
330
942
100
AcDbEntity
  8
SUNPOU
100
AcDbBlockReference
  2
_OPEN30
 10
306.4941462755171
 20
267.3576449912125
 30
0.0
 41
5.0
 42
5.0
 43
5.0
 50
90.0
  0
INSERT
  5
1463
330
942
100
AcDbEntity
  8
SUNPOU
100
AcDbBlockReference
  2
_OPEN30
 10
306.4941462755171
 20
277.3576449912125
 30
0.0
 41
5.0
 42
5.0
 43
5.0
 50
270.0
  0
MTEXT
  5
1464
330
942
100
AcDbEntity
  8
SUNPOU
100
AcDbMText
 10
301.9941462755168
 20
272.3576449912125
 30
0.0
 40
5.0
 41
0.0
 71
     5
 72
     1
  1
\A1;10
  7
SUNPOU
 11
0.0000000000000001
 21
1.0
 31
0.0
1001
ACAD
1000
MTEXTBEGIN
1070
    73
1070
     1
1070
    44
1040
1.0
1070
    74
1070
     0
1000
MTEXTEND
1000
MTEXTBEGIN
1070
    73
1070
     1
1070
    44
1040
1.0
1070
    74
1070
     0
1000
MTEXTEND
  0
POINT
  5
1465
330
942
100
AcDbEntity
  8
DEFPOINTS
 62
     0
100
AcDbPoint
 10
285.7804920913883
 20
267.3576449912125
 30
0.0
  0
POINT
  5
1466
330
942
100
AcDbEntity
  8
DEFPOINTS
 62
     0
100
AcDbPoint
 10
254.3804920913883
 20
277.3576449912125
 30
0.0
  0
POINT
  5
1467
330
942
100
AcDbEntity
  8
DEFPOINTS
 62
     0
100
AcDbPoint
 10
306.4941462755171
 20
277.3576449912125
 30
0.0
  0
ENDBLK
  5
94F
330
942
100
AcDbEntity
  8
0
100
AcDbBlockEnd
  0
BLOCK
  5
963
330
95A
100
AcDbEntity
  8
0
100
AcDbBlockBegin
  2
*D24
 70
     1
 10
0.0
 20
0.0
 30
0.0
  3
*D24
  1

  0
LINE
  5
1888
330
95A
100
AcDbEntity
  8
SUNPOU
100
AcDbLine
 10
332.5307557117751
 20
73.17398945518451
 30
0.0
 11
333.530755711775
 21
73.17398945518451
 31
0.0
  0
LINE
  5
1889
330
95A
100
AcDbEntity
  8
SUNPOU
100
AcDbLine
 10
288.7804920913883
 20
267.3576449912125
 30
0.0
 11
337.530755711775
 21
267.3576449912125
 31
0.0
  0
LINE
  5
188A
330
95A
100
AcDbEntity
  8
SUNPOU
100
AcDbLine
 10
335.530755711775
 20
78.17398945518451
 30
0.0
 11
335.530755711775
 21
262.3576449912127
 31
0.0
  0
INSERT
  5
188B
330
95A
100
AcDbEntity
  8
SUNPOU
100
AcDbBlockReference
  2
_OPEN30
 10
335.530755711775
 20
73.17398945518451
 30
0.0
 41
5.0
 42
5.0
 43
5.0
 50
270.0
  0
INSERT
  5
188C
330
95A
100
AcDbEntity
  8
SUNPOU
100
AcDbBlockReference
  2
_OPEN30
 10
335.530755711775
 20
267.3576449912125
 30
0.0
 41
5.0
 42
5.0
 43
5.0
 50
90.0
  0
MTEXT
  5
188D
330
95A
100
AcDbEntity
  8
SUNPOU
100
AcDbMText
 10
331.030755711775
 20
170.2658172231984
 30
0.0
 40
5.0
 41
0.0
 71
     5
 72
     1
  1
\A1;H
  7
SUNPOU
 11
0.0000000000000001
 21
1.0
 31
0.0
1001
ACAD
1000
MTEXTBEGIN
1070
    73
1070
     1
1070
    44
1040
1.0
1070
    74
1070
     0
1000
MTEXTEND
1000
MTEXTBEGIN
1070
    73
1070
     1
1070
    44
1040
1.0
1070
    74
1070
     0
1000
MTEXTEND
  0
POINT
  5
188E
330
95A
100
AcDbEntity
  8
DEFPOINTS
 62
     0
100
AcDbPoint
 10
335.530755711775
 20
73.17398945518451
 30
0.0
  0
POINT
  5
188F
330
95A
100
AcDbEntity
  8
DEFPOINTS
 62
     0
100
AcDbPoint
 10
285.7804920913883
 20
267.3576449912125
 30
0.0
  0
POINT
  5
1890
330
95A
100
AcDbEntity
  8
DEFPOINTS
 62
     0
100
AcDbPoint
 10
335.530755711775
 20
267.3576449912125
 30
0.0
  0
ENDBLK
  5
964
330
95A
100
AcDbEntity
  8
0
100
AcDbBlockEnd
  0
BLOCK
  5
970
330
966
100
AcDbEntity
  8
0
100
AcDbBlockBegin
  2
*D25
 70
     1
 10
0.0
 20
0.0
 30
0.0
  3
*D25
  1

  0
LINE
  5
144B
330
966
100
AcDbEntity
  8
SUNPOU
100
AcDbLine
 10
288.7804920913883
 20
267.3576449912125
 30
0.0
 11
337.530755711775
 21
267.3576449912125
 31
0.0
  0
LINE
  5
144C
330
966
100
AcDbEntity
  8
SUNPOU
100
AcDbLine
 10
288.7804920913883
 20
497.3576449912123
 30
0.0
 11
337.5307557117751
 21
497.3576449912123
 31
0.0
  0
LINE
  5
144D
330
966
100
AcDbEntity
  8
SUNPOU
100
AcDbLine
 10
335.530755711775
 20
272.3576449912125
 30
0.0
 11
335.5307557117751
 21
492.3576449912125
 31
0.0
  0
INSERT
  5
144E
330
966
100
AcDbEntity
  8
SUNPOU
100
AcDbBlockReference
  2
_OPEN30
 10
335.530755711775
 20
267.3576449912125
 30
0.0
 41
5.0
 42
5.0
 43
5.0
 50
270.0
  0
INSERT
  5
144F
330
966
100
AcDbEntity
  8
SUNPOU
100
AcDbBlockReference
  2
_OPEN30
 10
335.5307557117751
 20
497.3576449912123
 30
0.0
 41
5.0
 42
5.0
 43
5.0
 50
90.0
  0
MTEXT
  5
1450
330
966
100
AcDbEntity
  8
SUNPOU
100
AcDbMText
 10
331.030755711775
 20
382.3576449912126
 30
0.0
 40
5.0
 41
0.0
 71
     5
 72
     1
  1
\A1;230
  7
SUNPOU
 11
0.0000000000000001
 21
1.0
 31
0.0
1001
ACAD
1000
MTEXTBEGIN
1070
    73
1070
     1
1070
    44
1040
1.0
1070
    74
1070
     0
1000
MTEXTEND
1000
MTEXTBEGIN
1070
    73
1070
     1
1070
    44
1040
1.0
1070
    74
1070
     0
1000
MTEXTEND
  0
POINT
  5
1451
330
966
100
AcDbEntity
  8
DEFPOINTS
 62
     0
100
AcDbPoint
 10
285.7804920913883
 20
267.3576449912125
 30
0.0
  0
POINT
  5
1452
330
966
100
AcDbEntity
  8
DEFPOINTS
 62
     0
100
AcDbPoint
 10
285.7804920913883
 20
497.3576449912123
 30
0.0
  0
POINT
  5
1453
330
966
100
AcDbEntity
  8
DEFPOINTS
 62
     0
100
AcDbPoint
 10
335.5307557117751
 20
497.3576449912123
 30
0.0
  0
ENDBLK
  5
971
330
966
100
AcDbEntity
  8
0
100
AcDbBlockEnd
  0
BLOCK
  5
11E0
330
11D7
100
AcDbEntity
  8
0
100
AcDbBlockBegin
  2
*D26
 70
     1
 10
0.0
 20
0.0
 30
0.0
  3
*D26
  1

  0
LINE
  5
1443
330
11D7
100
AcDbEntity
  8
SUNPOU
100
AcDbLine
 10
211.2690608312898
 20
435.6980184437763
 30
0.0
 11
207.6166083586416
 21
432.283404126603
 31
0.0
  0
LINE
  5
1444
330
11D7
100
AcDbEntity
  8
SUNPOU
100
AcDbLine
 10
240.4886806124771
 20
463.0149329811628
 30
0.0
 11
244.1411330851255
 21
466.4295472983361
 31
0.0
  0
MTEXT
  5
1445
330
11D7
100
AcDbEntity
  8
SUNPOU
100
AcDbMText
 10
223.0342779063219
 20
452.4535105069004
 30
0.0
 40
5.0
 41
0.0
 71
     5
 72
     1
  1
\A1;配線孔\U+220530
  7
SUNPOU
 11
0.7304904945296761
 21
0.6829228634346558
 31
0.0
1001
ACAD
1000
MTEXTBEGIN
1070
    73
1070
     1
1070
    44
1040
1.0
1070
    74
1070
     0
1000
MTEXTEND
1000
MTEXTBEGIN
1070
    73
1070
     1
1070
    44
1040
1.0
1070
    74
1070
     0
1000
MTEXTEND
  0
LINE
  5
1446
330
11D7
100
AcDbEntity
  8
SUNPOU
100
AcDbLine
 10
214.9215133039384
 20
439.1126327609496
 30
0.0
 11
236.8362281398285
 21
459.6003186639896
 31
0.0
  0
INSERT
  5
1447
330
11D7
100
AcDbEntity
  8
SUNPOU
100
AcDbBlockReference
  2
_OPEN30
 10
214.9215133039384
 20
439.1126327609496
 30
0.0
 41
5.0
 42
5.0
 43
5.0
 50
43.07247028711786
  0
INSERT
  5
1448
330
11D7
100
AcDbEntity
  8
SUNPOU
100
AcDbBlockReference
  2
_OPEN30
 10
236.8362281398285
 20
459.6003186639896
 30
0.0
 41
5.0
 42
5.0
 43
5.0
 50
223.0724702871178
  0
POINT
  5
1449
330
11D7
100
AcDbEntity
  8
DEFPOINTS
 62
     0
100
AcDbPoint
 10
236.8362281398285
 20
459.6003186639896
 30
0.0
  0
POINT
  5
144A
330
11D7
100
AcDbEntity
  8
DEFPOINTS
 62
     0
100
AcDbPoint
 10
214.9215133039384
 20
439.1126327609496
 30
0.0
  0
ENDBLK
  5
11E1
330
11D7
100
AcDbEntity
  8
0
100
AcDbBlockEnd
  0
BLOCK
  5
19D3
330
19C7
100
AcDbEntity
  8
0
100
AcDbBlockBegin
  2
*D27
 70
     1
 10
0.0
 20
0.0
 30
0.0
  3
*D27
  1

  0
LINE
  5
19E1
330
19C7
100
AcDbEntity
  8
SUNPOU
100
AcDbLine
 10
269.6271666799905
 20
73.17398945518451
 30
0.0
 11
270.6271666799905
 21
73.17398945518451
 31
0.0
  0
LINE
  5
19E2
330
19C7
100
AcDbEntity
  8
SUNPOU
100
AcDbLine
 10
264.8804920913884
 20
76.17398945518456
 30
0.0
 11
274.6271666799905
 21
76.17398945518456
 31
0.0
  0
LINE
  5
19E3
330
19C7
100
AcDbEntity
  8
SUNPOU
100
AcDbLine
 10
272.6271666799905
 20
68.17398945518451
 30
0.0
 11
272.6271666799905
 21
63.1739894551845
 31
0.0
  0
LINE
  5
19E4
330
19C7
100
AcDbEntity
  8
SUNPOU
100
AcDbLine
 10
272.6271666799905
 20
81.17398945518457
 30
0.0
 11
272.6271666799905
 21
86.17398945518456
 31
0.0
  0
MTEXT
  5
19E5
330
19C7
100
AcDbEntity
  8
SUNPOU
100
AcDbMText
 10
268.1152845948498
 20
86.08610683820112
 30
0.0
 40
5.0
 41
0.0
 71
     5
 72
     1
  1
\A1;3
  7
SUNPOU
 11
0.0000000000000001
 21
1.0
 31
0.0
1001
ACAD
1000
MTEXTBEGIN
1070
    73
1070
     1
1070
    44
1040
1.0
1070
    74
1070
     0
1000
MTEXTEND
1000
MTEXTBEGIN
1070
    73
1070
     1
1070
    44
1040
1.0
1070
    74
1070
     0
1000
MTEXTEND
  0
LINE
  5
19E6
330
19C7
100
AcDbEntity
  8
SUNPOU
100
AcDbLine
 10
272.6271666799905
 20
73.17398945518451
 30
0.0
 11
272.6271666799905
 21
76.17398945518456
 31
0.0
  0
INSERT
  5
19E7
330
19C7
100
AcDbEntity
  8
SUNPOU
100
AcDbBlockReference
  2
_OPEN30
 10
272.6271666799905
 20
73.17398945518451
 30
0.0
 41
5.0
 42
5.0
 43
5.0
 50
90.0
  0
INSERT
  5
19E8
330
19C7
100
AcDbEntity
  8
SUNPOU
100
AcDbBlockReference
  2
_OPEN30
 10
272.6271666799905
 20
76.17398945518456
 30
0.0
 41
5.0
 42
5.0
 43
5.0
 50
270.0
  0
POINT
  5
19E9
330
19C7
100
AcDbEntity
  8
DEFPOINTS
 62
     0
100
AcDbPoint
 10
272.6271666799905
 20
73.17398945518451
 30
0.0
  0
POINT
  5
19EA
330
19C7
100
AcDbEntity
  8
DEFPOINTS
 62
     0
100
AcDbPoint
 10
261.8804920913884
 20
76.17398945518456
 30
0.0
  0
POINT
  5
19EB
330
19C7
100
AcDbEntity
  8
DEFPOINTS
 62
     0
100
AcDbPoint
 10
272.6271666799905
 20
76.17398945518456
 30
0.0
  0
ENDBLK
  5
19D4
330
19C7
100
AcDbEntity
  8
0
100
AcDbBlockEnd
  0
BLOCK
  5
19DF
330
19D5
100
AcDbEntity
  8
0
100
AcDbBlockBegin
  2
*D28
 70
     1
 10
0.0
 20
0.0
 30
0.0
  3
*D28
  1

  0
LINE
  5
19EC
330
19D5
100
AcDbEntity
  8
SUNPOU
100
AcDbLine
 10
249.8804920913884
 20
51.17398945518463
 30
0.0
 11
285.1139317995123
 21
51.17398945518463
 31
0.0
  0
LINE
  5
19ED
330
19D5
100
AcDbEntity
  8
SUNPOU
100
AcDbLine
 10
264.8804920913884
 20
76.17398945518463
 30
0.0
 11
285.1139317995123
 21
76.17398945518463
 31
0.0
  0
LINE
  5
19EE
330
19D5
100
AcDbEntity
  8
SUNPOU
100
AcDbLine
 10
283.1139317995123
 20
56.17398945518463
 30
0.0
 11
283.1139317995123
 21
71.17398945518463
 31
0.0
  0
INSERT
  5
19EF
330
19D5
100
AcDbEntity
  8
SUNPOU
100
AcDbBlockReference
  2
_OPEN30
 10
283.1139317995123
 20
51.17398945518463
 30
0.0
 41
5.0
 42
5.0
 43
5.0
 50
270.0
  0
INSERT
  5
19F0
330
19D5
100
AcDbEntity
  8
SUNPOU
100
AcDbBlockReference
  2
_OPEN30
 10
283.1139317995123
 20
76.17398945518463
 30
0.0
 41
5.0
 42
5.0
 43
5.0
 50
90.0
  0
MTEXT
  5
19F1
330
19D5
100
AcDbEntity
  8
SUNPOU
100
AcDbMText
 10
278.6139317995123
 20
63.67398945518466
 30
0.0
 40
5.0
 41
0.0
 71
     5
 72
     1
  1
\A1;25
  7
SUNPOU
 11
0.0000000000000001
 21
1.0
 31
0.0
1001
ACAD
1000
MTEXTBEGIN
1070
    73
1070
     1
1070
    44
1040
1.0
1070
    74
1070
     0
1000
MTEXTEND
1000
MTEXTBEGIN
1070
    73
1070
     1
1070
    44
1040
1.0
1070
    74
1070
     0
1000
MTEXTEND
  0
POINT
  5
19F2
330
19D5
100
AcDbEntity
  8
DEFPOINTS
 62
     0
100
AcDbPoint
 10
246.8804920913883
 20
51.17398945518463
 30
0.0
  0
POINT
  5
19F3
330
19D5
100
AcDbEntity
  8
DEFPOINTS
 62
     0
100
AcDbPoint
 10
261.8804920913884
 20
76.17398945518463
 30
0.0
  0
POINT
  5
19F4
330
19D5
100
AcDbEntity
  8
DEFPOINTS
 62
     0
100
AcDbPoint
 10
283.1139317995123
 20
76.17398945518463
 30
0.0
  0
ENDBLK
  5
19E0
330
19D5
100
AcDbEntity
  8
0
100
AcDbBlockEnd
  0
BLOCK
  5
1BA7
330
1B94
100
AcDbEntity
  8
0
100
AcDbBlockBegin
  2
*X29
 70
     1
 10
0.0
 20
0.0
 30
0.0
  3
*X29
  1

  0
LINE
  5
1B95
330
1B94
100
AcDbEntity
  8
0
 62
     0
100
AcDbLine
 10
194.7114329666249
 20
268.9576449912124
 30
0.0
 11
196.3804920913883
 21
270.6267041159758
 31
0.0
  0
LINE
  5
1B96
330
1B94
100
AcDbEntity
  8
0
 62
     0
100
AcDbLine
 10
193.2114329666251
 20
267.4576449912124
 30
0.0
 11
194.7114329666249
 21
268.9576449912124
 31
0.0
  0
LINE
  5
1B97
330
1B94
100
AcDbEntity
  8
0
 62
     0
100
AcDbLine
 10
191.1758990606924
 20
268.9576449912124
 30
0.0
 11
196.3804920913883
 21
274.1622380219084
 31
0.0
  0
LINE
  5
1B98
330
1B94
100
AcDbEntity
  8
0
 62
     0
100
AcDbLine
 10
189.6758990606924
 20
267.4576449912124
 30
0.0
 11
191.1758990606924
 21
268.9576449912124
 31
0.0
  0
LINE
  5
1B99
330
1B94
100
AcDbEntity
  8
0
 62
     0
100
AcDbLine
 10
187.6403651547594
 20
268.9576449912124
 30
0.0
 11
196.3804920913883
 21
277.6977719278411
 31
0.0
  0
LINE
  5
1B9A
330
1B94
100
AcDbEntity
  8
0
 62
     0
100
AcDbLine
 10
186.1403651547595
 20
267.4576449912124
 30
0.0
 11
187.6403651547594
 21
268.9576449912124
 31
0.0
  0
LINE
  5
1B9B
330
1B94
100
AcDbEntity
  8
0
 62
     0
100
AcDbLine
 10
184.3804920913884
 20
269.2333058337741
 30
0.0
 11
196.3804920913883
 21
281.2333058337741
 31
0.0
  0
LINE
  5
1B9C
330
1B94
100
AcDbEntity
  8
0
 62
     0
100
AcDbLine
 10
193.8692973428942
 20
282.2576449912125
 30
0.0
 11
195.3692973428941
 21
283.7576449912126
 31
0.0
  0
LINE
  5
1B9D
330
1B94
100
AcDbEntity
  8
0
 62
     0
100
AcDbLine
 10
195.3692973428941
 20
283.7576449912126
 30
0.0
 11
196.3804920913883
 21
284.7688397397066
 31
0.0
  0
LINE
  5
1B9E
330
1B94
100
AcDbEntity
  8
0
 62
     0
100
AcDbLine
 10
184.3804920913884
 20
272.7688397397066
 30
0.0
 11
193.8692973428942
 21
282.2576449912125
 31
0.0
  0
LINE
  5
1B9F
330
1B94
100
AcDbEntity
  8
0
 62
     0
100
AcDbLine
 10
190.3337634369615
 20
282.2576449912125
 30
0.0
 11
191.8337634369613
 21
283.7576449912126
 31
0.0
  0
LINE
  5
1BA0
330
1B94
100
AcDbEntity
  8
0
 62
     0
100
AcDbLine
 10
191.8337634369613
 20
283.7576449912126
 30
0.0
 11
193.4337634369615
 21
285.3576449912127
 31
0.0
  0
LINE
  5
1BA1
330
1B94
100
AcDbEntity
  8
0
 62
     0
100
AcDbLine
 10
184.3804920913884
 20
276.3043736456395
 30
0.0
 11
190.3337634369615
 21
282.2576449912125
 31
0.0
  0
LINE
  5
1BA2
330
1B94
100
AcDbEntity
  8
0
 62
     0
100
AcDbLine
 10
186.7982295310286
 20
282.2576449912125
 30
0.0
 11
188.2982295310288
 21
283.7576449912126
 31
0.0
  0
LINE
  5
1BA3
330
1B94
100
AcDbEntity
  8
0
 62
     0
100
AcDbLine
 10
188.2982295310288
 20
283.7576449912126
 30
0.0
 11
189.8982295310288
 21
285.3576449912127
 31
0.0
  0
LINE
  5
1BA4
330
1B94
100
AcDbEntity
  8
0
 62
     0
100
AcDbLine
 10
184.3804920913884
 20
279.8399075515723
 30
0.0
 11
186.7982295310286
 21
282.2576449912125
 31
0.0
  0
LINE
  5
1BA5
330
1B94
100
AcDbEntity
  8
0
 62
     0
100
AcDbLine
 10
184.762695625096
 20
283.7576449912127
 30
0.0
 11
186.362695625096
 21
285.3576449912127
 31
0.0
  0
LINE
  5
1BA6
330
1B94
100
AcDbEntity
  8
0
 62
     0
100
AcDbLine
 10
184.3804920913884
 20
283.375441457505
 30
0.0
 11
184.762695625096
 21
283.7576449912127
 31
0.0
  0
ENDBLK
  5
1BA8
330
1B94
100
AcDbEntity
  8
0
100
AcDbBlockEnd
  0
ENDSEC
  0
SECTION
  2
ENTITIES
  0
LINE
  5
22F
330
A
100
AcDbEntity
  8
03
100
AcDbLine
 10
287.3804920913883
 20
268.9576449912127
 30
0.0
 11
287.3804920913883
 21
495.7576449912123
 31
0.0
  0
LINE
  5
230
330
A
100
AcDbEntity
  8
03
100
AcDbLine
 10
158.3804920913884
 20
477.7576449912126
 30
0.0
 11
158.3804920913884
 21
268.9576449912124
 31
0.0
  0
LINE
  5
231
330
A
100
AcDbEntity
  8
03
100
AcDbLine
 10
259.3804920913884
 20
495.7576449912117
 30
0.0
 11
259.3804920913884
 21
479.3576449912118
 31
0.0
  0
LINE
  5
232
330
A
100
AcDbEntity
  8
03
100
AcDbLine
 10
270.3804920913884
 20
479.3576449912118
 30
0.0
 11
259.3804920913884
 21
479.3576449912118
 31
0.0
  0
LINE
  5
233
330
A
100
AcDbEntity
  8
03
100
AcDbLine
 10
261.3804920913884
 20
495.7576449912117
 30
0.0
 11
261.3804920913884
 21
480.3576449912116
 31
0.0
  0
LINE
  5
234
330
A
100
AcDbEntity
  8
03
100
AcDbLine
 10
261.3804920913884
 20
480.3576449912116
 30
0.0
 11
262.8804920913884
 21
480.3576449912116
 31
0.0
  0
LINE
  5
235
330
A
100
AcDbEntity
  8
03
100
AcDbLine
 10
262.8804920913884
 20
495.8576449912118
 30
0.0
 11
285.8804920913883
 21
495.8576449912126
 31
0.0
  0
LINE
  5
236
330
A
100
AcDbEntity
  8
03
100
AcDbLine
 10
262.8804920913884
 20
495.8576449912118
 30
0.0
 11
262.8804920913884
 21
480.3576449912116
 31
0.0
  0
LINE
  5
237
330
A
100
AcDbEntity
  8
03
100
AcDbLine
 10
285.8804920913883
 20
495.8576449912126
 30
0.0
 11
285.8804920913883
 21
268.8576449912125
 31
0.0
  0
LINE
  5
238
330
A
100
AcDbEntity
  8
03
100
AcDbLine
 10
285.7804920913883
 20
497.3576449912123
 30
0.0
 11
262.9804920913883
 21
497.3576449912123
 31
0.0
  0
LINE
  5
239
330
A
100
AcDbEntity
  8
03
100
AcDbLine
 10
257.7804920913883
 20
497.3576449912116
 30
0.0
 11
199.9804920913883
 21
497.3576449912116
 31
0.0
  0
LINE
  5
23A
330
A
100
AcDbEntity
  8
03
100
AcDbLine
 10
260.8804920913884
 20
268.8576449912125
 30
0.0
 11
285.8804920913883
 21
268.8576449912125
 31
0.0
  0
LINE
  5
23B
330
A
100
AcDbEntity
  8
03
100
AcDbLine
 10
259.3804920913884
 20
268.9576449912127
 30
0.0
 11
259.3804920913884
 21
277.3576449912125
 31
0.0
  0
LINE
  5
23C
330
A
100
AcDbEntity
  8
03
100
AcDbLine
 10
260.8804920913884
 20
277.3576449912125
 30
0.0
 11
260.8804920913884
 21
268.8576449912125
 31
0.0
  0
LINE
  5
23D
330
A
100
AcDbEntity
  8
03
100
AcDbLine
 10
259.3804920913884
 20
277.3576449912125
 30
0.0
 11
260.8804920913884
 21
277.3576449912125
 31
0.0
  0
LINE
  5
23E
330
A
100
AcDbEntity
  8
03
100
AcDbLine
 10
260.9804920913883
 20
267.3576449912125
 30
0.0
 11
285.7804920913883
 21
267.3576449912125
 31
0.0
  0
LINE
  5
23F
330
A
100
AcDbEntity
  8
03
100
AcDbLine
 10
257.8804920913884
 20
495.8576449912118
 30
0.0
 11
199.8804920913883
 21
495.8576449912118
 31
0.0
  0
LINE
  5
240
330
A
100
AcDbEntity
  8
03
100
AcDbLine
 10
259.4804920913883
 20
477.8576449912117
 30
0.0
 11
270.3804920913884
 21
477.8576449912117
 31
0.0
  0
LINE
  5
241
330
A
100
AcDbEntity
  8
03
100
AcDbLine
 10
270.3804920913884
 20
479.3576449912118
 30
0.0
 11
270.3804920913884
 21
477.8576449912117
 31
0.0
  0
LINE
  5
242
330
A
100
AcDbEntity
  8
03
100
AcDbLine
 10
257.8804920913884
 20
495.8576449912118
 30
0.0
 11
257.8804920913884
 21
477.8576449912126
 31
0.0
  0
LINE
  5
243
330
A
100
AcDbEntity
  8
03
100
AcDbLine
 10
199.8804920913883
 20
495.8576449912118
 30
0.0
 11
199.8804920913883
 21
479.4576449912118
 31
0.0
  0
LINE
  5
244
330
A
100
AcDbEntity
  8
03
100
AcDbLine
 10
198.3804920913883
 20
479.3576449912118
 30
0.0
 11
159.9804920913883
 21
479.3576449912118
 31
0.0
  0
LINE
  5
245
330
A
100
AcDbEntity
  8
03
100
AcDbLine
 10
159.8804920913883
 20
477.8576449912127
 30
0.0
 11
256.2804920913884
 21
477.8576449912106
 31
0.0
  0
LINE
  5
246
330
A
100
AcDbEntity
  8
03
100
AcDbLine
 10
159.8804920913883
 20
477.8576449912127
 30
0.0
 11
159.8804920913883
 21
268.8576449912125
 31
0.0
  0
LINE
  5
247
330
A
100
AcDbEntity
  8
03
100
AcDbLine
 10
215.8804920913883
 20
283.7576449912127
 30
0.0
 11
215.8804920913883
 21
268.8576449912125
 31
0.0
  0
LINE
  5
248
330
A
100
AcDbEntity
  8
03
100
AcDbLine
 10
215.8804920913883
 20
277.3576449912125
 30
0.0
 11
217.3804920913883
 21
277.3576449912125
 31
0.0
  0
LINE
  5
249
330
A
100
AcDbEntity
  8
03
100
AcDbLine
 10
163.3804920913883
 20
479.3576449912121
 30
0.0
 11
163.3804920913883
 21
495.7576449912117
 31
0.0
  0
LINE
  5
24A
330
A
100
AcDbEntity
  8
03
100
AcDbLine
 10
164.9804920913883
 20
497.3576449912116
 30
0.0
 11
180.7804920913883
 21
497.3576449912116
 31
0.0
  0
LINE
  5
24B
330
A
100
AcDbEntity
  8
03
100
AcDbLine
 10
164.8804920913883
 20
479.3576449912126
 30
0.0
 11
164.8804920913883
 21
495.8576449912118
 31
0.0
  0
LINE
  5
24C
330
A
100
AcDbEntity
  8
03
100
AcDbLine
 10
180.8804920913883
 20
495.8576449912118
 30
0.0
 11
180.8804920913883
 21
479.3576449912121
 31
0.0
  0
LINE
  5
24D
330
A
100
AcDbEntity
  8
03
100
AcDbLine
 10
164.8804920913883
 20
495.8576449912118
 30
0.0
 11
180.8804920913883
 21
495.8576449912118
 31
0.0
  0
LINE
  5
24E
330
A
100
AcDbEntity
  8
03
100
AcDbLine
 10
182.3804920913883
 20
268.9576449912124
 30
0.0
 11
182.3804920913883
 21
282.2576449912127
 31
0.0
  0
LINE
  5
24F
330
A
100
AcDbEntity
  8
03
100
AcDbLine
 10
198.3804920913883
 20
268.9576449912127
 30
0.0
 11
198.3804920913883
 21
282.2576449912127
 31
0.0
  0
LINE
  5
250
330
A
100
AcDbEntity
  8
03
100
AcDbLine
 10
161.4804920913883
 20
285.3576449912127
 30
0.0
 11
214.2804920913884
 21
285.3576449912127
 31
0.0
  0
LINE
  5
251
330
A
100
AcDbEntity
  8
03
100
AcDbLine
 10
214.2804920913884
 20
283.7576449912127
 30
0.0
 11
161.4804920913883
 21
283.7576449912127
 31
0.0
  0
LINE
  5
252
330
A
100
AcDbEntity
  8
03
100
AcDbLine
 10
214.2804920913884
 20
283.7576449912127
 30
0.0
 11
214.2804920913884
 21
268.8576449912125
 31
0.0
  0
LINE
  5
253
330
A
100
AcDbEntity
  8
03
100
AcDbLine
 10
161.4804920913883
 20
476.2576449912126
 30
0.0
 11
161.4804920913883
 21
285.3576449912127
 31
0.0
  0
LINE
  5
254
330
A
100
AcDbEntity
  8
03
100
AcDbLine
 10
182.3804920913883
 20
282.2576449912127
 30
0.0
 11
198.3804920913883
 21
282.2576449912127
 31
0.0
  0
LINE
  5
255
330
A
100
AcDbEntity
  8
03
100
AcDbLine
 10
199.8804920913883
 20
282.1576449912127
 30
0.0
 11
199.8804920913883
 21
268.8576449912125
 31
0.0
  0
LINE
  5
256
330
A
100
AcDbEntity
  8
03
100
AcDbLine
 10
180.8804920913883
 20
282.1576449912127
 30
0.0
 11
180.8804920913883
 21
268.8576449912125
 31
0.0
  0
LINE
  5
257
330
A
100
AcDbEntity
  8
03
100
AcDbLine
 10
159.8804920913883
 20
268.8576449912125
 30
0.0
 11
180.8804920913883
 21
268.8576449912125
 31
0.0
  0
LINE
  5
258
330
A
100
AcDbEntity
  8
03
100
AcDbLine
 10
199.8804920913883
 20
268.8576449912125
 30
0.0
 11
215.8804920913883
 21
268.8576449912125
 31
0.0
  0
LINE
  5
259
330
A
100
AcDbEntity
  8
03
100
AcDbLine
 10
161.4804920913883
 20
476.2576449912126
 30
0.0
 11
256.2804920913884
 21
476.2576449912126
 31
0.0
  0
LINE
  5
25A
330
A
100
AcDbEntity
  8
03
100
AcDbLine
 10
256.2804920913884
 20
495.8576449912118
 30
0.0
 11
256.2804920913884
 21
477.8576449912106
 31
0.0
  0
CIRCLE
  5
25B
330
A
100
AcDbEntity
  8
03
100
AcDbCircle
 10
260.3804920913884
 20
502.3576449912117
 30
0.0
 40
4.0
  0
ARC
  5
25C
330
A
100
AcDbEntity
  8
03
100
AcDbCircle
 10
256.2804920913884
 20
477.8576449912126
 30
0.0
 40
1.6
100
AcDbArc
 50
270.0
 51
0.0
  0
ARC
  5
25D
330
A
100
AcDbEntity
  8
03
100
AcDbCircle
 10
161.4804920913883
 20
476.2576449912127
 30
0.0
 40
1.6
100
AcDbArc
 50
90.0
 51
180.0
  0
ARC
  5
25E
330
A
100
AcDbEntity
  8
03
100
AcDbCircle
 10
161.4804920913883
 20
285.3576449912127
 30
0.0
 40
1.6
100
AcDbArc
 50
180.0
 51
270.0
  0
ARC
  5
25F
330
A
100
AcDbEntity
  8
03
100
AcDbCircle
 10
214.2804920913884
 20
283.7576449912127
 30
0.0
 40
1.6
100
AcDbArc
 50
0.0
 51
90.0
  0
LINE
  5
260
330
A
100
AcDbEntity
  8
03
100
AcDbLine
 10
199.9804920913883
 20
267.3576449912125
 30
0.0
 11
215.7804920913882
 21
267.3576449912125
 31
0.0
  0
LINE
  5
266
330
A
100
AcDbEntity
  8
03
100
AcDbLine
 10
183.3804920913884
 20
488.857644991212
 30
0.0
 11
197.3804920913883
 21
488.857644991212
 31
0.0
  0
LINE
  5
267
330
A
100
AcDbEntity
  8
03
100
AcDbLine
 10
197.3804920913883
 20
488.857644991212
 30
0.0
 11
197.3804920913883
 21
479.3576449912118
 31
0.0
  0
LINE
  5
268
330
A
100
AcDbEntity
  8
03
100
AcDbLine
 10
183.3804920913884
 20
479.3576449912121
 30
0.0
 11
183.3804920913884
 21
488.857644991212
 31
0.0
  0
LINE
  5
269
330
A
100
AcDbEntity
  8
03
100
AcDbLine
 10
182.3804920913883
 20
497.3576449912116
 30
0.0
 11
187.3804920913883
 21
499.3576449912118
 31
0.0
  0
LINE
  5
26A
330
A
100
AcDbEntity
  8
03
100
AcDbLine
 10
198.3804920913883
 20
497.3576449912116
 30
0.0
 11
193.3804920913883
 21
499.3576449912118
 31
0.0
  0
LINE
  5
29D
330
A
100
AcDbEntity
  8
06
100
AcDbLine
 10
226.3804920913883
 20
281.3576449912125
 30
0.0
 11
254.8804920913883
 21
281.3576449912125
 31
0.0
  0
LINE
  5
30F
330
A
100
AcDbEntity
  8
06
100
AcDbLine
 10
226.3804920913883
 20
278.3576449912125
 30
0.0
 11
250.3804920913883
 21
278.3576449912125
 31
0.0
  0
LINE
  5
310
330
A
100
AcDbEntity
  8
06
100
AcDbLine
 10
226.3804920913883
 20
279.3576449912125
 30
0.0
 11
250.3804920913883
 21
279.3576449912125
 31
0.0
  0
LINE
  5
311
330
A
100
AcDbEntity
  8
06
100
AcDbLine
 10
226.3804920913883
 20
280.3576449912125
 30
0.0
 11
250.3804920913883
 21
280.3576449912125
 31
0.0
  0
LINE
  5
312
330
A
100
AcDbEntity
  8
06
100
AcDbLine
 10
226.3804920913883
 20
281.3576449912125
 30
0.0
 11
226.3804920913883
 21
277.3576449912125
 31
0.0
  0
LINE
  5
313
330
A
100
AcDbEntity
  8
06
100
AcDbLine
 10
250.3804920913883
 20
277.3576449912125
 30
0.0
 11
250.3804920913883
 21
281.3576449912125
 31
0.0
  0
ARC
  5
330
330
A
100
AcDbEntity
  8
03
100
AcDbCircle
 10
260.9804920913883
 20
268.9576449912127
 30
0.0
 40
1.6
100
AcDbArc
 50
180.0
 51
270.0
  0
ARC
  5
331
330
A
100
AcDbEntity
  8
03
100
AcDbCircle
 10
285.7804920913883
 20
268.9576449912127
 30
0.0
 40
1.6
100
AcDbArc
 50
270.0
 51
0.0
  0
ARC
  5
332
330
A
100
AcDbEntity
  8
03
100
AcDbCircle
 10
285.7804920913883
 20
495.7576449912123
 30
0.0
 40
1.6
100
AcDbArc
 50
0.0
 51
90.0
  0
ARC
  5
333
330
A
100
AcDbEntity
  8
03
100
AcDbCircle
 10
262.9804920913883
 20
495.7576449912117
 30
0.0
 40
1.6
100
AcDbArc
 50
90.0
 51
180.0
  0
ARC
  5
334
330
A
100
AcDbEntity
  8
03
100
AcDbCircle
 10
257.7804920913883
 20
495.7576449912117
 30
0.0
 40
1.6
100
AcDbArc
 50
0.0
 51
90.0
  0
ARC
  5
335
330
A
100
AcDbEntity
  8
03
100
AcDbCircle
 10
259.4804920913883
 20
479.4576449912118
 30
0.0
 40
1.6
100
AcDbArc
 50
180.0
 51
270.0
  0
ARC
  5
336
330
A
100
AcDbEntity
  8
03
100
AcDbCircle
 10
164.9804920913883
 20
495.7576449912117
 30
0.0
 40
1.6
100
AcDbArc
 50
90.0
 51
180.0
  0
ARC
  5
337
330
A
100
AcDbEntity
  8
03
100
AcDbCircle
 10
159.9804920913883
 20
477.7576449912126
 30
0.0
 40
1.6
100
AcDbArc
 50
90.0
 51
180.0
  0
ARC
  5
338
330
A
100
AcDbEntity
  8
03
100
AcDbCircle
 10
159.9804920913883
 20
268.9576449912124
 30
0.0
 40
1.6
100
AcDbArc
 50
180.0
 51
270.0
  0
ARC
  5
339
330
A
100
AcDbEntity
  8
03
100
AcDbCircle
 10
180.7804920913883
 20
268.9576449912124
 30
0.0
 40
1.6
100
AcDbArc
 50
270.0
 51
0.0
  0
ARC
  5
33A
330
A
100
AcDbEntity
  8
03
100
AcDbCircle
 10
199.9804920913883
 20
268.9576449912127
 30
0.0
 40
1.6
100
AcDbArc
 50
180.0
 51
270.0
  0
LINE
  5
33B
330
A
100
AcDbEntity
  8
03
100
AcDbLine
 10
198.3804920913883
 20
563.0368227822388
 30
0.0
 11
198.3804920913883
 21
544.6368227822388
 31
0.0
  0
LINE
  5
33C
330
A
100
AcDbEntity
  8
03
100
AcDbLine
 10
182.3804920913883
 20
544.6368227822388
 30
0.0
 11
182.3804920913883
 21
563.0368227822388
 31
0.0
  0
LINE
  5
33D
330
A
100
AcDbEntity
  8
03
100
AcDbLine
 10
187.3804920913883
 20
488.857644991212
 30
0.0
 11
187.3804920913883
 21
514.6368227822388
 31
0.0
  0
LINE
  5
33E
330
A
100
AcDbEntity
  8
03
100
AcDbLine
 10
187.3804920913883
 20
519.6368227822388
 30
0.0
 11
187.3804920913883
 21
553.0368227822386
 31
0.0
  0
LINE
  5
33F
330
A
100
AcDbEntity
  8
03
100
AcDbLine
 10
193.3804920913883
 20
488.857644991212
 30
0.0
 11
193.3804920913883
 21
514.6368227822388
 31
0.0
  0
LINE
  5
340
330
A
100
AcDbEntity
  8
03
100
AcDbLine
 10
193.3804920913883
 20
519.6368227822388
 30
0.0
 11
193.3804920913883
 21
553.0368227822386
 31
0.0
  0
LINE
  5
341
330
A
100
AcDbEntity
  8
03
100
AcDbLine
 10
198.3804920913883
 20
479.3576449912118
 30
0.0
 11
198.3804920913883
 21
514.6368227822388
 31
0.0
  0
LINE
  5
342
330
A
100
AcDbEntity
  8
03
100
AcDbLine
 10
198.3804920913883
 20
519.6368227822388
 30
0.0
 11
198.3804920913883
 21
563.0368227822388
 31
0.0
  0
LINE
  5
343
330
A
100
AcDbEntity
  8
03
100
AcDbLine
 10
182.3804920913883
 20
479.3576449912121
 30
0.0
 11
182.3804920913883
 21
514.6368227822388
 31
0.0
  0
LINE
  5
344
330
A
100
AcDbEntity
  8
03
100
AcDbLine
 10
182.3804920913883
 20
519.6368227822388
 30
0.0
 11
182.3804920913883
 21
563.0368227822388
 31
0.0
  0
LINE
  5
345
330
A
100
AcDbEntity
  8
03
100
AcDbLine
 10
290.3804920913882
 20
519.6368227822388
 30
0.0
 11
290.3804920913882
 21
573.0368227822387
 31
0.0
  0
LINE
  5
346
330
A
100
AcDbEntity
  8
03
100
AcDbLine
 10
155.3804920913884
 20
519.6368227822388
 30
0.0
 11
155.3804920913884
 21
573.0368227822387
 31
0.0
  0
LINE
  5
347
330
A
100
AcDbEntity
  8
03
100
AcDbLine
 10
217.3804920913883
 20
73.17398945518451
 30
0.0
 11
217.3804920913883
 21
166.3679870217654
 31
0.0
  0
LINE
  5
349
330
A
100
AcDbEntity
  8
06
100
AcDbLine
 10
222.3804920913884
 20
183.1739894551845
 30
0.0
 11
222.3804920913885
 21
276.3576449912128
 31
0.0
  0
LINE
  5
34B
330
A
100
AcDbEntity
  8
06
100
AcDbLine
 10
254.3804920913883
 20
183.1739894551845
 30
0.0
 11
254.3804920913883
 21
276.3576449912128
 31
0.0
  0
LINE
  5
34C
330
A
100
AcDbEntity
  8
03
100
AcDbLine
 10
161.3804920913883
 20
73.17398945518451
 30
0.0
 11
161.3804920913883
 21
166.3679870217654
 31
0.0
  0
LINE
  5
34D
330
A
100
AcDbEntity
  8
03
100
AcDbLine
 10
290.3804920913882
 20
73.17398945518451
 30
0.0
 11
290.3804920913882
 21
178.1739894551845
 31
0.0
  0
LINE
  5
34E
330
A
100
AcDbEntity
  8
03
100
AcDbLine
 10
290.3804920913882
 20
183.1739894551845
 30
0.0
 11
290.3804920913882
 21
514.6368227822388
 31
0.0
  0
LINE
  5
34F
330
A
100
AcDbEntity
  8
03
100
AcDbLine
 10
155.3804920913884
 20
73.17398945518451
 30
0.0
 11
155.3804920913884
 21
166.3679870217654
 31
0.0
  0
LINE
  5
350
330
A
100
AcDbEntity
  8
03
100
AcDbLine
 10
217.3804920913883
 20
171.3679870217655
 30
0.0
 11
217.3804920913883
 21
206.3679870217655
 31
0.0
  0
LINE
  5
352
330
A
100
AcDbEntity
  8
03
100
AcDbLine
 10
161.3804920913883
 20
171.3679870217655
 30
0.0
 11
161.3804920913883
 21
206.3679870217655
 31
0.0
  0
LINE
  5
353
330
A
100
AcDbEntity
  8
03
100
AcDbLine
 10
161.3804920913883
 20
211.3679870217655
 30
0.0
 11
161.3804920913883
 21
267.3576449912125
 31
0.0
  0
LINE
  5
354
330
A
100
AcDbEntity
  8
03
100
AcDbLine
 10
155.3804920913884
 20
171.3679870217655
 30
0.0
 11
155.3804920913884
 21
206.3679870217655
 31
0.0
  0
LINE
  5
355
330
A
100
AcDbEntity
  8
03
100
AcDbLine
 10
155.3804920913884
 20
211.3679870217655
 30
0.0
 11
155.3804920913884
 21
514.6368227822388
 31
0.0
  0
LINE
  5
356
330
A
100
AcDbEntity
  8
CHUSIN
100
AcDbLine
 10
260.3804920913884
 20
508.3172219301876
 30
0.0
 11
260.3804920913884
 21
490.6120393014091
 31
0.0
  0
LINE
  5
357
330
A
100
AcDbEntity
  8
CHUSIN
 48
0.9
100
AcDbLine
 10
255.8394293211522
 20
502.3576449912117
 30
0.0
 11
264.1962755219357
 21
502.3576449912117
 31
0.0
  0
LINE
  5
359
330
A
100
AcDbEntity
  8
CHUSIN
100
AcDbLine
 10
190.3804920913883
 20
479.3576449912118
 30
0.0
 11
190.3804920913883
 21
566.5679218973488
 31
0.0
  0
LINE
  5
35A
330
A
100
AcDbEntity
  8
03
100
AcDbLine
 10
197.3804920913883
 20
488.857644991212
 30
0.0
 11
183.3804920913884
 21
479.3576449912121
 31
0.0
  0
LINE
  5
375
330
A
100
AcDbEntity
  8
KAKURE
100
AcDbLine
 10
205.3804920913883
 20
331.3576449912126
 30
0.0
 11
217.3804920913883
 21
331.3576449912126
 31
0.0
  0
LINE
  5
377
330
A
100
AcDbEntity
  8
KAKURE
100
AcDbLine
 10
205.3804920913883
 20
324.0976449912126
 30
0.0
 11
217.3804920913883
 21
324.0976449912126
 31
0.0
  0
LINE
  5
378
330
A
100
AcDbEntity
  8
KAKURE
100
AcDbLine
 10
205.3804920913883
 20
323.3576449912126
 30
0.0
 11
217.3804920913883
 21
323.3576449912126
 31
0.0
  0
LINE
  5
379
330
A
100
AcDbEntity
  8
CHUSIN
100
AcDbLine
 10
196.4329558670176
 20
327.3576449912126
 30
0.0
 11
228.6395967856519
 21
327.3576449912126
 31
0.0
  0
LINE
  5
37B
330
A
100
AcDbEntity
  8
CHUSIN
100
AcDbLine
 10
223.8804920913883
 20
342.3576449912126
 30
0.0
 11
264.3804920913884
 21
342.3576449912126
 31
0.0
  0
LINE
  5
37E
330
A
100
AcDbEntity
  8
CHUSIN
100
AcDbLine
 10
177.703452398869
 20
417.3576449912124
 30
0.0
 11
206.65005486916
 21
417.3576449912124
 31
0.0
  0
LINE
  5
37F
330
A
100
AcDbEntity
  8
CHUSIN
100
AcDbLine
 10
238.3804920913883
 20
73.17398945518451
 30
0.0
 11
238.3804920913883
 21
188.1739894551845
 31
0.0
  0
LINE
  5
380
330
A
100
AcDbEntity
  8
CHUSIN
100
AcDbLine
 10
238.3804920913883
 20
188.1739894551845
 30
0.0
 11
238.3804920913883
 21
373.2344811793656
 31
0.0
  0
LINE
  5
382
330
A
100
AcDbEntity
  8
03
100
AcDbLine
 10
60.97539543057997
 20
73.17398945518451
 30
0.0
 11
217.3804920913882
 21
73.17398945518451
 31
0.0
  0
LINE
  5
384
330
A
100
AcDbEntity
  8
03
100
AcDbLine
 10
182.3804920913883
 20
495.7576449912117
 30
0.0
 11
182.3804920913883
 21
479.3576449912121
 31
0.0
  0
LINE
  5
385
330
A
100
AcDbEntity
  8
03
100
AcDbLine
 10
198.3804920913883
 20
495.7576449912117
 30
0.0
 11
198.3804920913883
 21
479.3576449912118
 31
0.0
  0
ARC
  5
386
330
A
100
AcDbEntity
  8
03
100
AcDbCircle
 10
180.7804920913883
 20
495.7576449912117
 30
0.0
 40
1.6
100
AcDbArc
 50
0.0
 51
90.0
  0
ARC
  5
387
330
A
100
AcDbEntity
  8
03
100
AcDbCircle
 10
199.9804920913883
 20
495.7576449912117
 30
0.0
 40
1.6
100
AcDbArc
 50
90.0
 51
180.0
  0
LINE
  5
388
330
A
100
AcDbEntity
  8
03
100
AcDbLine
 10
159.8804920913883
 20
477.8576449912127
 30
0.0
 11
198.2804920913883
 21
477.8576449912127
 31
0.0
  0
ARC
  5
389
330
A
100
AcDbEntity
  8
03
100
AcDbCircle
 10
198.2804920913883
 20
479.4576449912118
 30
0.0
 40
1.6
100
AcDbArc
 50
270.0
 51
0.0
  0
LINE
  5
38A
330
A
100
AcDbEntity
  8
03
100
AcDbLine
 10
182.4804920913883
 20
283.7576449912127
 30
0.0
 11
198.2804920913883
 21
283.7576449912127
 31
0.0
  0
ARC
  5
38B
330
A
100
AcDbEntity
  8
03
100
AcDbCircle
 10
182.4804920913883
 20
282.1576449912127
 30
0.0
 40
1.6
100
AcDbArc
 50
90.0
 51
180.0
  0
ARC
  5
38C
330
A
100
AcDbEntity
  8
03
100
AcDbCircle
 10
198.2804920913883
 20
282.1576449912127
 30
0.0
 40
1.6
100
AcDbArc
 50
0.0
 51
90.0
  0
LINE
  5
38D
330
A
100
AcDbEntity
  8
03
100
AcDbLine
 10
217.3804920913883
 20
277.3576449912125
 30
0.0
 11
217.3804920913883
 21
268.9576449912127
 31
0.0
  0
ARC
  5
38E
330
A
100
AcDbEntity
  8
03
100
AcDbCircle
 10
215.7804920913882
 20
268.9576449912127
 30
0.0
 40
1.6
100
AcDbArc
 50
270.0
 51
0.0
  0
LINE
  5
38F
330
A
100
AcDbEntity
  8
03
100
AcDbLine
 10
158.3804920913884
 20
544.6368227822388
 30
0.0
 11
158.3804920913884
 21
571.4368227822387
 31
0.0
  0
LINE
  5
390
330
A
100
AcDbEntity
  8
03
100
AcDbLine
 10
287.3804920913885
 20
571.4368227822387
 30
0.0
 11
287.3804920913885
 21
544.6368227822388
 31
0.0
  0
LINE
  5
391
330
A
100
AcDbEntity
  8
03
100
AcDbLine
 10
285.7804920913883
 20
571.4368227822387
 30
0.0
 11
285.7804920913883
 21
544.6368227822388
 31
0.0
  0
LINE
  5
392
330
A
100
AcDbEntity
  8
03
100
AcDbLine
 10
159.9804920913883
 20
544.6368227822388
 30
0.0
 11
159.9804920913883
 21
571.4368227822387
 31
0.0
  0
LINE
  5
393
330
A
100
AcDbEntity
  8
03
100
AcDbLine
 10
173.3804920913883
 20
573.0368227822387
 30
0.0
 11
173.3804920913883
 21
571.4368227822387
 31
0.0
  0
LINE
  5
394
330
A
100
AcDbEntity
  8
03
100
AcDbLine
 10
272.3804920913884
 20
571.4368227822387
 30
0.0
 11
272.3804920913884
 21
573.0368227822387
 31
0.0
  0
LINE
  5
395
330
A
100
AcDbEntity
  8
03
100
AcDbLine
 10
159.9804920913883
 20
573.0368227822387
 30
0.0
 11
173.3804920913883
 21
573.0368227822387
 31
0.0
  0
LINE
  5
396
330
A
100
AcDbEntity
  8
03
100
AcDbLine
 10
272.3804920913884
 20
573.0368227822387
 30
0.0
 11
285.7804920913883
 21
573.0368227822387
 31
0.0
  0
LINE
  5
397
330
A
100
AcDbEntity
  8
03
100
AcDbLine
 10
159.9804920913883
 20
571.4368227822387
 30
0.0
 11
173.3804920913883
 21
571.4368227822387
 31
0.0
  0
LINE
  5
398
330
A
100
AcDbEntity
  8
03
100
AcDbLine
 10
272.3804920913884
 20
571.4368227822387
 30
0.0
 11
285.7804920913883
 21
571.4368227822387
 31
0.0
  0
LINE
  5
399
330
A
100
AcDbEntity
  8
03
100
AcDbLine
 10
182.3804920913883
 20
563.0368227822388
 30
0.0
 11
198.3804920913883
 21
563.0368227822388
 31
0.0
  0
LINE
  5
39A
330
A
100
AcDbEntity
  8
03
100
AcDbLine
 10
285.7804920913883
 20
544.6368227822388
 30
0.0
 11
199.9804920913883
 21
544.6368227822388
 31
0.0
  0
LINE
  5
39B
330
A
100
AcDbEntity
  8
03
100
AcDbLine
 10
180.7804920913883
 20
544.6368227822388
 30
0.0
 11
159.9804920913883
 21
544.6368227822388
 31
0.0
  0
LINE
  5
39C
330
A
100
AcDbEntity
  8
03
100
AcDbLine
 10
285.7804920913883
 20
543.0368227822388
 30
0.0
 11
199.9804920913883
 21
543.0368227822388
 31
0.0
  0
LINE
  5
39D
330
A
100
AcDbEntity
  8
03
100
AcDbLine
 10
180.7804920913883
 20
543.0368227822388
 30
0.0
 11
159.9804920913883
 21
543.0368227822388
 31
0.0
  0
LINE
  5
39E
330
A
100
AcDbEntity
  8
03
100
AcDbLine
 10
180.7804920913883
 20
544.6368227822388
 30
0.0
 11
180.7804920913883
 21
563.0368227822388
 31
0.0
  0
LINE
  5
39F
330
A
100
AcDbEntity
  8
03
100
AcDbLine
 10
182.3804920913883
 20
564.6368227822388
 30
0.0
 11
198.3804920913883
 21
564.6368227822388
 31
0.0
  0
LINE
  5
3A0
330
A
100
AcDbEntity
  8
03
100
AcDbLine
 10
199.9804920913883
 20
544.6368227822388
 30
0.0
 11
199.9804920913883
 21
563.0368227822388
 31
0.0
  0
ARC
  5
3A1
330
A
100
AcDbEntity
  8
03
100
AcDbCircle
 10
182.3804920913883
 20
563.0368227822388
 30
0.0
 40
1.6
100
AcDbArc
 50
90.0
 51
180.0
  0
ARC
  5
3A2
330
A
100
AcDbEntity
  8
03
100
AcDbCircle
 10
198.3804920913883
 20
563.0368227822388
 30
0.0
 40
1.6
100
AcDbArc
 50
0.0
 51
90.0
  0
ARC
  5
3A3
330
A
100
AcDbEntity
  8
03
100
AcDbCircle
 10
199.9804920913883
 20
544.6368227822388
 30
0.0
 40
1.6
100
AcDbArc
 50
180.0
 51
270.0
  0
ARC
  5
3A4
330
A
100
AcDbEntity
  8
03
100
AcDbCircle
 10
180.7804920913883
 20
544.6368227822388
 30
0.0
 40
1.6
100
AcDbArc
 50
270.0
 51
0.0
  0
ARC
  5
3A5
330
A
100
AcDbEntity
  8
03
100
AcDbCircle
 10
285.7804920913883
 20
544.6368227822388
 30
0.0
 40
1.6
100
AcDbArc
 50
270.0
 51
0.0
  0
ARC
  5
3A6
330
A
100
AcDbEntity
  8
03
100
AcDbCircle
 10
285.7804920913883
 20
571.4368227822387
 30
0.0
 40
1.6
100
AcDbArc
 50
0.0
 51
90.0
  0
ARC
  5
3A7
330
A
100
AcDbEntity
  8
03
100
AcDbCircle
 10
159.9804920913883
 20
571.4368227822387
 30
0.0
 40
1.6
100
AcDbArc
 50
90.0
 51
180.0
  0
ARC
  5
3A8
330
A
100
AcDbEntity
  8
03
100
AcDbCircle
 10
159.9804920913883
 20
544.6368227822388
 30
0.0
 40
1.6
100
AcDbArc
 50
180.0
 51
270.0
  0
LINE
  5
3A9
330
A
100
AcDbEntity
  8
03
100
AcDbLine
 10
187.3804920913883
 20
553.0368227822386
 30
0.0
 11
193.3804920913883
 21
553.0368227822386
 31
0.0
  0
LINE
  5
3AA
330
A
100
AcDbEntity
  8
03
100
AcDbLine
 10
155.3804920913884
 20
573.0368227822387
 30
0.0
 11
159.9804920913883
 21
573.0368227822387
 31
0.0
  0
LINE
  5
3AB
330
A
100
AcDbEntity
  8
03
100
AcDbLine
 10
290.3804920913882
 20
573.0368227822387
 30
0.0
 11
285.7804920913883
 21
573.0368227822387
 31
0.0
  0
ARC
  5
3AC
330
A
100
AcDbEntity
  8
03
100
AcDbCircle
 10
182.443086223715
 20
286.4630328014377
 30
0.0
 40
1.843534469407573
100
AcDbArc
 50
91.94575642711923
 51
167.9586853818062
  0
ARC
  5
3AD
330
A
100
AcDbEntity
  8
03
100
AcDbCircle
 10
181.2273324369774
 20
285.2472790147002
 30
0.0
 40
1.70467990638657
100
AcDbArc
 50
70.9065079995145
 51
176.2879068169055
  0
ARC
  5
3AE
330
A
100
AcDbEntity
  8
03
100
AcDbCircle
 10
182.443086223715
 20
475.1522571809871
 30
0.0
 40
1.843534469407573
100
AcDbArc
 50
192.0413146181935
 51
268.05424357288
  0
ARC
  5
3AF
330
A
100
AcDbEntity
  8
03
100
AcDbCircle
 10
181.2273324369774
 20
476.3680109677252
 30
0.0
 40
1.70467990638657
100
AcDbArc
 50
183.7120931830946
 51
289.0934920004852
  0
ARC
  5
3B2
330
A
100
AcDbEntity
  8
03
100
AcDbCircle
 10
188.3178979590615
 20
475.1522571809871
 30
0.0
 40
1.843534469407573
100
AcDbArc
 50
271.9457564271195
 51
347.958685381806
  0
ARC
  5
3B3
330
A
100
AcDbEntity
  8
03
100
AcDbCircle
 10
189.5336517457993
 20
476.3680109677252
 30
0.0
 40
1.70467990638657
100
AcDbArc
 50
250.9065079995145
 51
356.2879068169052
  0
LINE
  5
3B4
330
A
100
AcDbEntity
  8
03
100
AcDbLine
 10
198.2723082544295
 20
269.0587657782011
 30
0.0
 11
197.3804920913883
 21
282.2576449912127
 31
0.0
  0
LINE
  5
3B5
330
A
100
AcDbEntity
  8
03
100
AcDbLine
 10
182.488675928347
 20
269.0587657782011
 30
0.0
 11
183.3804920913884
 21
282.2576449912127
 31
0.0
  0
LINE
  5
3B6
330
A
100
AcDbEntity
  8
03
100
AcDbLine
 10
183.9852635757766
 20
267.4576449912124
 30
0.0
 11
196.775720607
 21
267.4576449912124
 31
0.0
  0
LINE
  5
3B7
330
A
100
AcDbEntity
  8
03
100
AcDbLine
 10
184.877079738818
 20
282.1565242042241
 30
0.0
 11
183.9852635757766
 21
268.9576449912127
 31
0.0
  0
LINE
  5
3B8
330
A
100
AcDbEntity
  8
03
100
AcDbLine
 10
183.9852635757766
 20
268.9576449912127
 30
0.0
 11
196.775720607
 21
268.9576449912127
 31
0.0
  0
LINE
  5
3B9
330
A
100
AcDbEntity
  8
03
100
AcDbLine
 10
196.775720607
 20
268.9576449912127
 30
0.0
 11
195.8839044439588
 21
282.1565242042241
 31
0.0
  0
ARC
  5
3BA
330
A
100
AcDbEntity
  8
03
100
AcDbCircle
 10
196.775720607
 20
268.9576449912124
 30
0.0
 40
1.5
100
AcDbArc
 50
270.0
 51
3.865461169852126
  0
ARC
  5
3BB
330
A
100
AcDbEntity
  8
03
100
AcDbCircle
 10
183.9852635757766
 20
268.9576449912124
 30
0.0
 40
1.5
100
AcDbArc
 50
176.1345388301478
 51
270.0
  0
CIRCLE
  5
3BC
330
A
100
AcDbEntity
  8
03
100
AcDbCircle
 10
189.3804920913883
 20
188.8679870217655
 30
0.0
 40
6.0
  0
LINE
  5
3BD
330
A
100
AcDbEntity
  8
03
100
AcDbLine
 10
159.9804920913883
 20
267.3576449912125
 30
0.0
 11
180.7804920913883
 21
267.3576449912125
 31
0.0
  0
LINE
  5
3E3
330
A
100
AcDbEntity
  8
03
100
AcDbLine
 10
164.9804920913883
 20
571.4368227822387
 30
0.0
 11
280.7804920913885
 21
571.4368227822387
 31
0.0
  0
LINE
  5
3E4
330
A
100
AcDbEntity
  8
03
100
AcDbLine
 10
280.7804920913885
 20
568.4368227822387
 30
0.0
 11
164.9804920913883
 21
568.4368227822387
 31
0.0
  0
LINE
  5
3E5
330
A
100
AcDbEntity
  8
03
100
AcDbLine
 10
164.9804920913883
 20
568.4368227822387
 30
0.0
 11
164.9804920913883
 21
571.4368227822387
 31
0.0
  0
LINE
  5
3E6
330
A
100
AcDbEntity
  8
03
100
AcDbLine
 10
280.7804920913885
 20
571.4368227822387
 30
0.0
 11
280.7804920913885
 21
568.4368227822387
 31
0.0
  0
LINE
  5
40F
330
A
100
AcDbEntity
  8
CHUSIN
100
AcDbLine
 10
267.6396441294258
 20
458.0258256243042
 30
0.0
 11
267.6396441294258
 21
380.8290036278608
 31
0.0
  0
LINE
  5
410
330
A
100
AcDbEntity
  8
CHUSIN
100
AcDbLine
 10
191.563794398291
 20
418.8569359330124
 30
0.0
 11
283.1373439934445
 21
418.8569359330124
 31
0.0
  0
LINE
  5
414
330
A
100
AcDbEntity
  8
SAISEN
100
AcDbLine
 10
137.9340320653356
 20
514.6368227822388
 30
0.0
 11
297.0342556888342
 21
514.6368227822388
 31
0.0
  0
LINE
  5
415
330
A
100
AcDbEntity
  8
SAISEN
100
AcDbLine
 10
297.0342556888342
 20
519.6368227822388
 30
0.0
 11
137.9340320653356
 21
519.6368227822388
 31
0.0
  0
LINE
  5
416
330
A
100
AcDbEntity
  8
SAISEN
100
AcDbLine
 10
297.0342556888342
 20
183.1739894551845
 30
0.0
 11
219.733664999324
 21
183.1739894551845
 31
0.0
  0
LINE
  5
417
330
A
100
AcDbEntity
  8
SAISEN
100
AcDbLine
 10
219.733664999324
 20
178.1739894551845
 30
0.0
 11
297.0342556888342
 21
178.1739894551845
 31
0.0
  0
LINE
  5
418
330
A
100
AcDbEntity
  8
SAISEN
100
AcDbLine
 10
220.1536392226992
 20
171.3679870217655
 30
0.0
 11
142.853048533189
 21
171.3679870217655
 31
0.0
  0
LINE
  5
419
330
A
100
AcDbEntity
  8
SAISEN
100
AcDbLine
 10
142.853048533189
 20
166.3679870217654
 30
0.0
 11
220.1536392226992
 21
166.3679870217654
 31
0.0
  0
LINE
  5
41A
330
A
100
AcDbEntity
  8
SAISEN
100
AcDbLine
 10
220.1536392226992
 20
211.3679870217655
 30
0.0
 11
142.853048533189
 21
211.3679870217655
 31
0.0
  0
LINE
  5
41B
330
A
100
AcDbEntity
  8
SAISEN
100
AcDbLine
 10
142.853048533189
 20
206.3679870217655
 30
0.0
 11
220.1536392226992
 21
206.3679870217655
 31
0.0
  0
LINE
  5
41C
330
A
100
AcDbEntity
  8
03
100
AcDbLine
 10
184.3804920913884
 20
285.3576449912127
 30
0.0
 11
184.3804920913884
 21
267.4576449912124
 31
0.0
  0
LINE
  5
41D
330
A
100
AcDbEntity
  8
03
100
AcDbLine
 10
196.3804920913883
 20
267.4576449912124
 30
0.0
 11
196.3804920913883
 21
285.3576449912127
 31
0.0
  0
LINE
  5
42A
330
A
100
AcDbEntity
  8
CHUSIN
100
AcDbLine
 10
202.5792354835554
 20
188.8679870217655
 30
0.0
 11
176.1817486992214
 21
188.8679870217655
 31
0.0
  0
LINE
  5
42B
330
A
100
AcDbEntity
  8
CHUSIN
100
AcDbLine
 10
189.3804920913883
 20
202.0667304139325
 30
0.0
 11
189.3804920913883
 21
175.6692436295985
 31
0.0
  0
LINE
  5
42C
330
A
100
AcDbEntity
  8
CHUSIN
100
AcDbLine
 10
259.4098866153324
 20
388.8574842863235
 30
0.0
 11
276.9562336383361
 21
388.8575015754003
 31
0.0
  0
LINE
  5
42D
330
A
100
AcDbEntity
  8
CHUSIN
100
AcDbLine
 10
259.4098878587959
 20
448.8574915690153
 30
0.0
 11
276.9562336382815
 21
448.8574915675996
 31
0.0
  0
LINE
  5
57A
330
A
100
AcDbEntity
  8
CHUSIN
100
AcDbLine
 10
186.439607429057
 20
442.3576449912125
 30
0.0
 11
196.4396074290565
 21
442.3576449912125
 31
0.0
  0
LINE
  5
57B
330
A
100
AcDbEntity
  8
CHUSIN
100
AcDbLine
 10
186.439607429057
 20
392.3576449912126
 30
0.0
 11
196.4396074290565
 21
392.3576449912126
 31
0.0
  0
POLYLINE
  5
6C4
330
A
100
AcDbEntity
  8
DEFPOINTS
100
AcDb2dPolyline
 66
     1
 10
0.0
 20
0.0
 30
0.0
 70
     1
  0
VERTEX
  5
1C51
330
6C4
100
AcDbEntity
  8
DEFPOINTS
100
AcDbVertex
100
AcDb2dVertex
 10
0.0
 20
0.0
 30
0.0
  0
VERTEX
  5
1C52
330
6C4
100
AcDbEntity
  8
DEFPOINTS
100
AcDbVertex
100
AcDb2dVertex
 10
420.0
 20
0.0
 30
0.0
  0
VERTEX
  5
1C53
330
6C4
100
AcDbEntity
  8
DEFPOINTS
100
AcDbVertex
100
AcDb2dVertex
 10
420.0
 20
594.0
 30
0.0
  0
VERTEX
  5
1C54
330
6C4
100
AcDbEntity
  8
DEFPOINTS
100
AcDbVertex
100
AcDb2dVertex
 10
0.0
 20
594.0
 30
0.0
  0
SEQEND
  5
1C55
330
6C4
100
AcDbEntity
  8
DEFPOINTS
  0
MTEXT
  5
6DC
330
A
100
AcDbEntity
  8
MOJI
100
AcDbMText
 10
70.12529405105166
 20
187.0493835968435
 30
0.0
 40
6.0
 41
10.0
 71
     5
 72
     1
  1
外\P\P部
  7
0_8
1001
ACAD
1000
MTEXTBEGIN
1070
    73
1070
     1
1070
    44
1040
1.0
1070
    74
1070
     0
1000
MTEXTEND
1000
MTEXTBEGIN
1070
    73
1070
     1
1070
    44
1040
1.0
1070
    74
1070
     0
1000
MTEXTEND
  0
POLYLINE
  5
6DD
330
A
100
AcDbEntity
  8
SAISEN
100
AcDb2dPolyline
 66
     1
 10
0.0
 20
0.0
 30
0.0
 70
     1
  0
VERTEX
  5
1C56
330
6DD
100
AcDbEntity
  8
SAISEN
100
AcDbVertex
100
AcDb2dVertex
 10
65.12529405105166
 20
172.0493835968436
 30
0.0
  0
VERTEX
  5
1C57
330
6DD
100
AcDbEntity
  8
SAISEN
100
AcDbVertex
100
AcDb2dVertex
 10
75.12529405105166
 20
172.0493835968436
 30
0.0
  0
VERTEX
  5
1C58
330
6DD
100
AcDbEntity
  8
SAISEN
100
AcDbVertex
100
AcDb2dVertex
 10
75.12529405105166
 20
202.0493835968435
 30
0.0
  0
VERTEX
  5
1C59
330
6DD
100
AcDbEntity
  8
SAISEN
100
AcDbVertex
100
AcDb2dVertex
 10
65.12529405105166
 20
202.0493835968435
 30
0.0
  0
SEQEND
  5
1C5A
330
6DD
100
AcDbEntity
  8
SAISEN
  0
POLYLINE
  5
6DE
330
A
100
AcDbEntity
  8
SAISEN
100
AcDb2dPolyline
 66
     1
 10
0.0
 20
0.0
 30
0.0
 70
     1
  0
VERTEX
  5
1C5B
330
6DE
100
AcDbEntity
  8
SAISEN
100
AcDbVertex
100
AcDb2dVertex
 10
360.4544815465728
 20
172.0493835968436
 30
0.0
  0
VERTEX
  5
1C5C
330
6DE
100
AcDbEntity
  8
SAISEN
100
AcDbVertex
100
AcDb2dVertex
 10
370.4544815465729
 20
172.0493835968436
 30
0.0
  0
VERTEX
  5
1C5D
330
6DE
100
AcDbEntity
  8
SAISEN
100
AcDbVertex
100
AcDb2dVertex
 10
370.4544815465729
 20
202.0493835968435
 30
0.0
  0
VERTEX
  5
1C5E
330
6DE
100
AcDbEntity
  8
SAISEN
100
AcDbVertex
100
AcDb2dVertex
 10
360.4544815465728
 20
202.0493835968435
 30
0.0
  0
SEQEND
  5
1C5F
330
6DE
100
AcDbEntity
  8
SAISEN
  0
MTEXT
  5
6DF
330
A
100
AcDbEntity
  8
MOJI
100
AcDbMText
 10
365.454481546573
 20
187.0493835968435
 30
0.0
 40
6.0
 41
10.0
 71
     5
 72
     1
  1
内\P\P部
  7
0_8
1001
ACAD
1000
MTEXTBEGIN
1070
    73
1070
     1
1070
    44
1040
1.0
1070
    74
1070
     0
1000
MTEXTEND
1000
MTEXTBEGIN
1070
    73
1070
     1
1070
    44
1040
1.0
1070
    74
1070
     0
1000
MTEXTEND
  0
TEXT
  5
6E5
330
A
100
AcDbEntity
  8
MOJI
100
AcDbText
 10
347.4898444702783
 20
86.27398945518448
 30
0.0
 40
5.0
  1
Ｆ.Ｌ
 41
0.8
  7
0_8
 11
347.4898444702783
 21
88.77398945518448
 31
0.0
100
AcDbText
 73
     2
  0
DIMENSION
  5
729
330
A
100
AcDbEntity
  8
SUNPOU
100
AcDbDimension
  2
*D1
 10
158.3804920913884
 20
529.5427787164689
 30
0.0
 11
147.7116390000275
 21
534.1422075604638
 31
0.0
 70
   160
  3
SUNPOU_2
100
AcDbAlignedDimension
 13
155.3804920913884
 23
519.6368227822388
 33
0.0
 14
158.3804920913884
 24
544.6368227822388
 34
0.0
100
AcDbRotatedDimension
  0
DIMENSION
  5
758
330
A
100
AcDbEntity
  8
SUNPOU
100
AcDbDimension
  2
*D2
 10
287.3804920913885
 20
529.5427787164689
 30
0.0
 11
222.8804920913884
 21
534.0427787164689
 31
0.0
 70
    32
  3
SUNPOU_2
100
AcDbAlignedDimension
 13
158.3804920913884
 23
544.6368227822388
 33
0.0
 14
287.3804920913885
 24
544.6368227822388
 34
0.0
100
AcDbRotatedDimension
  0
DIMENSION
  5
765
330
A
100
AcDbEntity
  8
SUNPOU
100
AcDbDimension
  2
*D3
 10
290.3804920913882
 20
529.5427787164689
 30
0.0
 11
297.4566461493839
 21
534.0914464591175
 31
0.0
 70
   160
  3
SUNPOU_2
100
AcDbAlignedDimension
 13
287.3804920913885
 23
544.6368227822388
 33
0.0
 14
290.3804920913882
 24
519.6368227822388
 34
0.0
100
AcDbRotatedDimension
  0
DIMENSION
  5
7A3
330
A
100
AcDbEntity
  8
SUNPOU
100
AcDbDimension
  2
*D4
 10
188.3804920913883
 20
352.1483249966202
 30
0.0
 11
173.3804920913883
 21
356.6483249966202
 31
0.0
 70
    32
  3
SUNPOU_2
100
AcDbAlignedDimension
 13
158.3804920913884
 23
352.1483249966202
 33
0.0
 14
188.3804920913883
 24
352.1483249966202
 34
0.0
100
AcDbRotatedDimension
  0
DIMENSION
  5
7AE
330
A
100
AcDbEntity
  8
SUNPOU
100
AcDbDimension
  2
*D5
 10
211.3804920913883
 20
352.1483249966202
 30
0.0
 11
199.8804920913883
 21
356.6483249966202
 31
0.0
 70
    32
  3
SUNPOU_2
100
AcDbAlignedDimension
 13
188.3804920913883
 23
352.1483249966202
 33
0.0
 14
211.3804920913883
 24
352.1483249966203
 34
0.0
100
AcDbRotatedDimension
  0
DIMENSION
  5
7B9
330
A
100
AcDbEntity
  8
SUNPOU
100
AcDbDimension
  2
*D6
 10
238.3804920913883
 20
352.1483249966203
 30
0.0
 11
222.9949873031473
 21
356.6483249966202
 31
0.0
 70
   160
  3
SUNPOU_2
100
AcDbAlignedDimension
 13
211.3804920913883
 23
342.3576449912126
 33
0.0
 14
238.3804920913883
 24
352.1483249966203
 34
0.0
100
AcDbRotatedDimension
  0
DIMENSION
  5
7C4
330
A
100
AcDbEntity
  8
SUNPOU
100
AcDbDimension
  2
*D7
 10
158.3804920913884
 20
232.1517467967578
 30
0.0
 11
148.1331486255765
 21
236.6965313274445
 31
0.0
 70
   160
  3
SUNPOU_2
100
AcDbAlignedDimension
 13
155.3804920913884
 23
232.1517467967578
 33
0.0
 14
158.3804920913884
 24
268.9576449912124
 34
0.0
100
AcDbRotatedDimension
  0
DIMENSION
  5
7D2
330
A
100
AcDbEntity
  8
SUNPOU
100
AcDbDimension
  2
*D8
 10
161.3804920913883
 20
244.3673469794866
 30
0.0
 11
149.6214667603799
 21
253.5270598632253
 31
0.0
 70
   160
  3
SUNPOU_2
100
AcDbAlignedDimension
 13
158.3804920913884
 23
268.8576449912125
 33
0.0
 14
161.3804920913883
 24
242.3673469794866
 34
0.0
100
AcDbRotatedDimension
  0
DIMENSION
  5
7E1
330
A
100
AcDbEntity
  8
SUNPOU
100
AcDbDimension
  2
*D9
 10
217.3804920913883
 20
244.3673469794866
 30
0.0
 11
189.3804920913883
 21
248.8673469794866
 31
0.0
 70
    32
  3
SUNPOU_2
100
AcDbAlignedDimension
 13
161.3804920913883
 23
242.3673469794866
 33
0.0
 14
217.3804920913883
 24
268.9576449912127
 34
0.0
100
AcDbRotatedDimension
  0
DIMENSION
  5
7EE
330
A
100
AcDbEntity
  8
SUNPOU
100
AcDbDimension
  2
*D10
 10
259.3804920913884
 20
244.3673469794866
 30
0.0
 11
242.9635639162625
 21
239.6266603940755
 31
0.0
 70
   160
  3
SUNPOU_2
100
AcDbAlignedDimension
 13
217.3804920913883
 23
268.9576449912127
 33
0.0
 14
259.3804920913884
 24
268.9576449912124
 34
0.0
100
AcDbRotatedDimension
  0
DIMENSION
  5
7FB
330
A
100
AcDbEntity
  8
SUNPOU
100
AcDbDimension
  2
*D11
 10
287.3804920913883
 20
244.3673469794866
 30
0.0
 11
273.3804920913884
 21
248.8673469794866
 31
0.0
 70
    32
  3
SUNPOU_2
100
AcDbAlignedDimension
 13
259.3804920913884
 23
268.9576449912124
 33
0.0
 14
287.3804920913883
 24
268.9576449912124
 34
0.0
100
AcDbRotatedDimension
  0
DIMENSION
  5
808
330
A
100
AcDbEntity
  8
SUNPOU
100
AcDbDimension
  2
*D12
 10
290.3804920913882
 20
244.3673469794866
 30
0.0
 11
297.2341217850828
 21
248.8532754465428
 31
0.0
 70
   160
  3
SUNPOU_2
100
AcDbAlignedDimension
 13
287.3804920913883
 23
268.9576449912124
 33
0.0
 14
290.3804920913882
 24
244.3673469794866
 34
0.0
100
AcDbRotatedDimension
  0
DIMENSION
  5
86C
330
A
100
AcDbEntity
  8
SUNPOU
100
AcDbDimension
  2
*D13
 10
290.3804920913882
 20
218.9348679105264
 30
0.0
 11
214.1144511402961
 21
223.4348679105266
 31
0.0
 70
   160
  3
SUNPOU_2
100
AcDbAlignedDimension
 13
155.3804920913884
 23
218.9348679105264
 33
0.0
 14
290.3804920913882
 24
218.9348679105264
 34
0.0
100
AcDbRotatedDimension
  0
DIMENSION
  5
877
330
A
100
AcDbEntity
  8
SUNPOU
100
AcDbDimension
  2
*D14
 10
131.45718534541
 20
188.8679870217655
 30
0.0
 11
126.9571853454102
 21
131.0209882384749
 31
0.0
 70
    32
  1
600
  3
SUNPOU_2
100
AcDbAlignedDimension
 13
131.4571853454101
 23
73.17398945518451
 33
0.0
 14
176.1817486992214
 24
188.8679870217655
 34
0.0
 50
90.0
100
AcDbRotatedDimension
  0
DIMENSION
  5
8D0
330
A
100
AcDbEntity
  8
SUNPOU
100
AcDbDimension
  2
*D15
 10
115.9560632688928
 20
479.3576449912121
 30
0.0
 11
111.4560632688927
 21
381.6604684304726
 31
0.0
 70
   160
  3
SUNPOU_2
100
AcDbAlignedDimension
 13
159.9804920913883
 23
267.3576449912125
 33
0.0
 14
163.3804920913883
 24
479.3576449912121
 34
0.0
 50
90.0
100
AcDbRotatedDimension
  0
DIMENSION
  5
8DD
330
A
100
AcDbEntity
  8
SUNPOU
100
AcDbDimension
  2
*D16
 10
115.9560632688928
 20
497.357644991212
 30
0.0
 11
111.4560632688927
 21
488.3576449912121
 31
0.0
 70
    32
  3
SUNPOU_2
100
AcDbAlignedDimension
 13
163.3804920913883
 23
479.3576449912121
 33
0.0
 14
164.9804920913883
 24
497.3576449912117
 34
0.0
 50
90.0
100
AcDbRotatedDimension
  0
DIMENSION
  5
8EA
330
A
100
AcDbEntity
  8
SUNPOU
100
AcDbDimension
  2
*D17
 10
144.6223874543734
 20
417.3576449912124
 30
0.0
 11
140.1223874543733
 21
334.7816063764363
 31
0.0
 70
   160
  3
SUNPOU_2
100
AcDbAlignedDimension
 13
159.9454742115639
 23
267.3580282408337
 33
0.0
 14
177.703452398869
 24
417.3576449912124
 34
0.0
 50
90.0
100
AcDbRotatedDimension
  0
DIMENSION
  5
8F7
330
A
100
AcDbEntity
  8
SUNPOU
100
AcDbDimension
  2
*D18
 10
175.6536806837384
 20
327.3576449912126
 30
0.0
 11
171.1536806837384
 21
297.3576449912126
 31
0.0
 70
    32
  3
SUNPOU_2
100
AcDbAlignedDimension
 13
179.1690793564959
 23
267.3576449912125
 33
0.0
 14
196.4329558670176
 24
327.3576449912126
 34
0.0
 50
90.0
100
AcDbRotatedDimension
  0
DIMENSION
  5
903
330
A
100
AcDbEntity
  8
SUNPOU
100
AcDbDimension
  2
*D19
 10
273.5690360957144
 20
372.3576449912126
 30
0.0
 11
269.0690360957144
 21
342.3576449912126
 31
0.0
 70
    32
  1
φ<>
  3
SUNPOU_2
100
AcDbAlignedDimension
 13
248.3804920913883
 23
312.3576449912127
 33
0.0
 14
248.3804920913883
 24
372.3576449912126
 34
0.0
 50
90.0
100
AcDbRotatedDimension
  0
DIMENSION
  5
919
330
A
100
AcDbEntity
  8
SUNPOU
100
AcDbDimension
  2
*D20
 10
282.0808802856636
 20
373.3576449912126
 30
0.0
 11
277.5808802856635
 21
327.3576449912126
 31
0.0
 70
    32
  3
SUNPOU_2
100
AcDbAlignedDimension
 13
254.8804920913883
 23
281.3576449912125
 33
0.0
 14
259.3804920913884
 24
373.3576449912126
 34
0.0
 50
90.0
100
AcDbRotatedDimension
  0
DIMENSION
  5
926
330
A
100
AcDbEntity
  8
SUNPOU
100
AcDbDimension
  2
*D21
 10
314.6261457347573
 20
83.1739894551845
 30
0.0
 11
310.1261457347573
 21
78.17398945518454
 31
0.0
 70
    32
  3
SUNPOU_2
100
AcDbAlignedDimension
 13
314.6261457347573
 23
73.17398945518451
 33
0.0
 14
254.3804920913883
 24
83.17398945518451
 34
0.0
 50
90.0
100
AcDbRotatedDimension
  0
DIMENSION
  5
934
330
A
100
AcDbEntity
  8
SUNPOU
100
AcDbDimension
  2
*D22
 10
314.6261457347573
 20
277.3576449912125
 30
0.0
 11
310.1261457347573
 21
180.2658172231985
 31
0.0
 70
    32
  1
DH
  3
SUNPOU_2
100
AcDbAlignedDimension
 13
254.3804920913883
 23
83.17398945518451
 33
0.0
 14
254.3804920913883
 24
277.3576449912125
 34
0.0
 50
90.0
100
AcDbRotatedDimension
  0
DIMENSION
  5
941
330
A
100
AcDbEntity
  8
SUNPOU
100
AcDbDimension
  2
*D23
 10
306.4941462755171
 20
277.3576449912125
 30
0.0
 11
301.9941462755168
 21
272.3576449912125
 31
0.0
 70
    32
  3
SUNPOU_2
100
AcDbAlignedDimension
 13
285.7804920913883
 23
267.3576449912125
 33
0.0
 14
254.3804920913883
 24
277.3576449912125
 34
0.0
 50
90.0
100
AcDbRotatedDimension
  0
DIMENSION
  5
959
330
A
100
AcDbEntity
  8
SUNPOU
100
AcDbDimension
  2
*D24
 10
335.530755711775
 20
267.3576449912125
 30
0.0
 11
331.030755711775
 21
170.2658172231984
 31
0.0
 70
    32
  1
H
  3
SUNPOU_2
100
AcDbAlignedDimension
 13
335.530755711775
 23
73.17398945518451
 33
0.0
 14
285.7804920913883
 24
267.3576449912125
 34
0.0
 50
90.0
100
AcDbRotatedDimension
  0
DIMENSION
  5
965
330
A
100
AcDbEntity
  8
SUNPOU
100
AcDbDimension
  2
*D25
 10
335.5307557117751
 20
497.3576449912123
 30
0.0
 11
331.030755711775
 21
382.3576449912126
 31
0.0
 70
    32
  3
SUNPOU_2
100
AcDbAlignedDimension
 13
285.7804920913883
 23
267.3576449912125
 33
0.0
 14
285.7804920913883
 24
497.3576449912123
 34
0.0
 50
90.0
100
AcDbRotatedDimension
  0
LEADER
  5
97B
330
A
100
AcDbEntity
  8
HIKIDASI
100
AcDbLeader
  3
SUNPOU_2
 73
     0
 40
5.0
 41
21.06666666666666
 76
     2
 10
182.3804920913883
 20
442.3576449912125
 30
0.0
 10
97.26529830311708
 20
464.9959081055023
 30
0.0
340
97C
1001
ACAD
1000
DSTYLE
1002
{
1070
     5
1000
OPEN30
1070
    77
1070
     1
1070
   147
1040
1.0
1070
   342
1005
6A9
1002
}
1000
LEANOF
1010
0.0
1020
0.0
1030
0.0
1000
LEANOF
1010
0.0
1020
0.0
1030
0.0
1000
LEANOF
1010
0.0
1020
0.0
1030
0.0
  0
MTEXT
  5
97C
330
A
100
AcDbEntity
  8
HIKIDASI
100
AcDbMText
 10
95.26529830311707
 20
466.9959081055024
 30
0.0
 40
5.0
 41
0.0
 71
     9
 72
     1
  1
M5タップ
  7
SUNPOU
1001
ACAD
1000
MTEXTBEGIN
1070
    73
1070
     1
1070
    44
1040
1.0
1070
    74
1070
     0
1000
MTEXTEND
1000
MTEXTBEGIN
1070
    73
1070
     1
1070
    44
1040
1.0
1070
    74
1070
     0
1000
MTEXTEND
  0
LEADER
  5
985
330
A
100
AcDbEntity
  8
HIKIDASI
100
AcDbLeader
  3
SUNPOU_2
 73
     0
 40
13.33333333333333
 41
34.0
 76
     2
 10
184.2339867513856
 20
374.047474996657
 30
0.0
 10
92.64103770690613
 20
398.1277449682406
 30
0.0
340
986
213
-0.2135847167482296
223
8.705814146170951
233
0.0
1001
ACAD
1000
DSTYLE
1002
{
1070
     5
1000
OPEN30
1070
    77
1070
     1
1070
   147
1040
1.0
1070
   342
1005
6A9
1002
}
1000
LEANOF
1010
-0.2135847167482296
1020
8.705814146170951
1030
0.0
1000
LEANOF
1010
-0.2135847167482296
1020
8.705814146170951
1030
0.0
1000
LEANOF
1010
-0.2135847167482296
1020
8.705814146170951
1030
0.0
  0
MTEXT
  5
986
330
A
100
AcDbEntity
  8
HIKIDASI
100
AcDbMText
 10
90.85462242365435
 20
391.4219308220697
 30
0.0
 40
5.0
 41
0.0
 71
     9
 72
     1
  1
Ｅ FB-50×6\P（サッシ工事）
  7
SUNPOU
1001
ACAD
1000
MTEXTBEGIN
1070
    73
1070
     1
1070
    44
1040
1.0
1070
    74
1070
     0
1000
MTEXTEND
1000
MTEXTBEGIN
1070
    73
1070
     1
1070
    44
1040
1.0
1070
    74
1070
     0
1000
MTEXTEND
  0
CIRCLE
  5
987
330
A
100
AcDbEntity
  8
HIKIDASI
100
AcDbCircle
 10
58.7205833167659
 20
402.4298182122702
 30
0.0
 40
3.0
  0
CIRCLE
  5
98C
330
A
100
AcDbEntity
  8
HIKIDASI
100
AcDbCircle
 10
63.3721762529467
 20
378.206708898906
 30
0.0
 40
3.0
  0
MTEXT
  5
98D
330
A
100
AcDbEntity
  8
HIKIDASI
100
AcDbMText
 10
95.26783399937885
 20
367.0453612438888
 30
0.0
 40
5.0
 41
0.0
 71
     9
 72
     1
  1
Ｒ FB-50×6\P（サッシ工事）
  7
SUNPOU
1001
ACAD
1000
MTEXTBEGIN
1070
    73
1070
     1
1070
    44
1040
1.0
1070
    74
1070
     0
1000
MTEXTEND
1000
MTEXTBEGIN
1070
    73
1070
     1
1070
    44
1040
1.0
1070
    74
1070
     0
1000
MTEXTEND
  0
LEADER
  5
98E
330
A
100
AcDbEntity
  8
HIKIDASI
100
AcDbLeader
  3
SUNPOU_2
 73
     0
 40
13.33333333333333
 41
34.0
 76
     2
 10
207.0408814384208
 20
344.1663395546973
 30
0.0
 10
97.26783399937886
 20
373.4348496012318
 30
0.0
340
98D
213
0.0
223
8.389488357342996
233
0.0
1001
ACAD
1000
DSTYLE
1002
{
1070
     5
1000
OPEN30
1070
    77
1070
     1
1070
   147
1040
1.0
1070
   342
1005
6A9
1002
}
1000
LEANOF
1010
0.0
1020
8.389488357342996
1030
0.0
1000
LEANOF
1010
0.0
1020
8.389488357342996
1030
0.0
1000
LEANOF
1010
0.0
1020
8.389488357342996
1030
0.0
  0
LEADER
  5
98F
330
A
100
AcDbEntity
  8
HIKIDASI
100
AcDbLeader
  3
SUNPOU_2
 73
     0
 75
     1
 40
5.0
 41
21.06666666666666
 76
     3
 10
205.3804920913883
 20
324.0976449912126
 30
0.0
 10
102.265298303117
 20
353.0770238563143
 30
0.0
 10
97.26529830311708
 20
353.0770238563143
 30
0.0
340
990
1001
ACAD
1000
DSTYLE
1002
{
1070
     5
1000
OPEN30
1070
    77
1070
     1
1070
   147
1040
1.0
1070
   342
1005
6A9
1002
}
1000
LEANOF
1010
0.0
1020
0.0
1030
0.0
1000
LEANOF
1010
0.0
1020
0.0
1030
0.0
1000
LEANOF
1010
0.0
1020
0.0
1030
0.0
  0
MTEXT
  5
990
330
A
100
AcDbEntity
  8
HIKIDASI
100
AcDbMText
 10
95.26529830311707
 20
355.0770238563143
 30
0.0
 40
5.0
 41
0.0
 71
     9
 72
     1
  1
M8タップ
  7
SUNPOU
1001
ACAD
1000
MTEXTBEGIN
1070
    73
1070
     1
1070
    44
1040
1.0
1070
    74
1070
     0
1000
MTEXTEND
1000
MTEXTBEGIN
1070
    73
1070
     1
1070
    44
1040
1.0
1070
    74
1070
     0
1000
MTEXTEND
  0
LEADER
  5
9AC
330
A
100
AcDbEntity
  8
HIKIDASI
100
AcDbLeader
  3
SUNPOU_2
 73
     0
 74
     0
 75
     1
 40
13.33333333333333
 41
55.73333333333335
 76
     3
 10
240.152711321138
 20
122.0872751884592
 30
0.0
 10
258.3975912242093
 20
132.0958371662583
 30
0.0
 10
263.3975912242094
 20
132.0958371662583
 30
0.0
340
9AD
213
0.0
223
8.56683629345639
233
0.0
1001
ACAD
1000
DSTYLE
1002
{
1070
     5
1000
OPEN30
1070
    77
1070
     1
1070
   147
1040
1.0
1070
   342
1005
6A9
1002
}
1000
LEANOF
1010
0.0
1020
8.56683629345639
1030
0.0
1000
LEANOF
1010
0.0
1020
8.56683629345639
1030
0.0
1000
LEANOF
1010
0.0
1020
8.56683629345639
1030
0.0
  0
MTEXT
  5
9AD
330
A
100
AcDbEntity
  8
HIKIDASI
100
AcDbMText
 10
265.3975912242094
 20
125.5290008728019
 30
0.0
 40
5.0
 41
0.0
 71
     7
 72
     1
  1
スリムセナージ･ドアI型　\P（強化ガラス）
  7
SUNPOU
1001
ACAD
1000
MTEXTBEGIN
1070
    73
1070
     1
1070
    44
1040
1.0
1070
    74
1070
     0
1000
MTEXTEND
1000
MTEXTBEGIN
1070
    73
1070
     1
1070
    44
1040
1.0
1070
    74
1070
     0
1000
MTEXTEND
  0
LINE
  5
C83
330
A
100
AcDbEntity
  8
06
100
AcDbLine
 10
279.6396441294258
 20
415.1569359468367
 30
0.0
 11
279.1396441294256
 21
414.6569359468367
 31
0.0
  0
LINE
  5
C84
330
A
100
AcDbEntity
  8
06
100
AcDbLine
 10
279.6396441294258
 20
422.5569359468368
 30
0.0
 11
279.1396441294256
 21
423.0569359468367
 31
0.0
  0
LINE
  5
C85
330
A
100
AcDbEntity
  8
06
100
AcDbLine
 10
279.6396441294258
 20
422.5569359468368
 30
0.0
 11
279.6396441294258
 21
415.1569359468367
 31
0.0
  0
LINE
  5
C86
330
A
100
AcDbEntity
  8
06
100
AcDbLine
 10
197.6396074290565
 20
382.357644991214
 30
0.0
 11
193.6395907214151
 21
382.357644991214
 31
0.0
  0
LINE
  5
C9A
330
A
100
AcDbEntity
  8
06
100
AcDbLine
 10
264.1272917951122
 20
392.8574918062574
 30
0.0
 11
271.1518120403543
 21
392.8574906908538
 31
0.0
  0
LINE
  5
C9B
330
A
100
AcDbEntity
  8
06
100
AcDbLine
 10
261.3625856923234
 20
383.8575509090882
 30
0.0
 11
273.989595061114
 21
383.8574307711253
 31
0.0
  0
LINE
  5
C9C
330
A
100
AcDbEntity
  8
06
100
AcDbLine
 10
273.9896020773623
 20
383.8575722713912
 30
0.0
 11
271.1519585844499
 21
392.8575368954685
 31
0.0
  0
LINE
  5
C9D
330
A
100
AcDbEntity
  8
06
100
AcDbLine
 10
261.2895726574348
 20
383.8575393137388
 30
0.0
 11
264.1272721108768
 21
392.8574918062605
 31
0.0
  0
LINE
  5
C9E
330
A
100
AcDbEntity
  8
06
100
AcDbLine
 10
193.639755649785
 20
452.357571435567
 30
0.0
 11
197.6395298213654
 21
452.3574125207572
 31
0.0
  0
LINE
  5
C9F
330
A
100
AcDbEntity
  8
06
100
AcDbLine
 10
193.6396931491426
 20
452.3572458643728
 30
0.0
 11
193.6395907208023
 21
382.3572261285818
 31
0.0
  0
LINE
  5
CA0
330
A
100
AcDbEntity
  8
06
100
AcDbLine
 10
197.6395331458176
 20
452.3573781206922
 30
0.0
 11
197.6396074295135
 21
382.3572141553012
 31
0.0
  0
LINE
  5
D04
330
A
100
AcDbEntity
  8
04
100
AcDbLine
 10
248.3804920913883
 20
355.8576449912127
 30
0.0
 11
252.9304920913884
 21
355.8576449912127
 31
0.0
  0
LINE
  5
D05
330
A
100
AcDbEntity
  8
04
100
AcDbLine
 10
252.9304920913884
 20
353.3273001058153
 30
0.0
 11
252.9304920913884
 21
355.8576449912127
 31
0.0
  0
LINE
  5
D0F
330
A
100
AcDbEntity
  8
04
100
AcDbLine
 10
230.6804865452622
 20
288.8576449919492
 30
0.0
 11
230.6804838749723
 21
287.4576116766013
 31
0.0
  0
LINE
  5
D1D
330
A
100
AcDbEntity
  8
04
100
AcDbLine
 10
229.3804845236799
 20
287.4576549496172
 30
0.0
 11
229.3804904114427
 21
285.8590469326482
 31
0.0
  0
ARC
  5
D26
330
A
100
AcDbEntity
  8
04
100
AcDbCircle
 10
243.3804920913884
 20
372.8576449912126
 30
0.0
 40
0.5
100
AcDbArc
 50
90.0
 51
180.0
  0
LINE
  5
D27
330
A
100
AcDbEntity
  8
04
100
AcDbLine
 10
250.8804920913883
 20
369.5076449912127
 30
0.0
 11
250.8804920913883
 21
367.4576449912124
 31
0.0
  0
LINE
  5
D28
330
A
100
AcDbEntity
  8
04
100
AcDbLine
 10
248.3804920913883
 20
359.2076449912124
 30
0.0
 11
250.8804920913883
 21
359.2076449912124
 31
0.0
  0
LINE
  5
D29
330
A
100
AcDbEntity
  8
04
100
AcDbLine
 10
248.3804920913883
 20
369.5076449912127
 30
0.0
 11
250.8804920913883
 21
369.5076449912127
 31
0.0
  0
LINE
  5
D2A
330
A
100
AcDbEntity
  8
04
100
AcDbLine
 10
254.8804920913883
 20
361.2576449912127
 30
0.0
 11
250.8804920913883
 21
361.2576449912127
 31
0.0
  0
LINE
  5
D2B
330
A
100
AcDbEntity
  8
04
100
AcDbLine
 10
254.8804920913883
 20
367.4576449912124
 30
0.0
 11
250.8804920913883
 21
367.4576449912124
 31
0.0
  0
LINE
  5
D2C
330
A
100
AcDbEntity
  8
04
100
AcDbLine
 10
243.3804920913884
 20
373.3576449912126
 30
0.0
 11
254.8804920913883
 21
373.3576449912126
 31
0.0
  0
LINE
  5
D2D
330
A
100
AcDbEntity
  8
04
100
AcDbLine
 10
242.8804920913883
 20
372.8576449912126
 30
0.0
 11
242.8804920913883
 21
367.3576449912126
 31
0.0
  0
LINE
  5
D2F
330
A
100
AcDbEntity
  8
04
100
AcDbLine
 10
267.3804920913884
 20
366.3576449912127
 30
0.0
 11
267.3804920913884
 21
362.3576449912127
 31
0.0
  0
LINE
  5
D30
330
A
100
AcDbEntity
  8
04
100
AcDbLine
 10
266.3804920913884
 20
367.3576449912126
 30
0.0
 11
267.3804920913884
 21
366.3576449912127
 31
0.0
  0
LINE
  5
D31
330
A
100
AcDbEntity
  8
04
100
AcDbLine
 10
266.3804920913884
 20
361.3576449912126
 30
0.0
 11
267.3804920913884
 21
362.3576449912127
 31
0.0
  0
LINE
  5
D32
330
A
100
AcDbEntity
  8
04
100
AcDbLine
 10
265.3804920913884
 20
367.3576449912126
 30
0.0
 11
266.3804920913884
 21
367.3576449912126
 31
0.0
  0
LINE
  5
D33
330
A
100
AcDbEntity
  8
04
100
AcDbLine
 10
265.3804920913884
 20
361.3576449912126
 30
0.0
 11
266.3804920913884
 21
361.3576449912126
 31
0.0
  0
LINE
  5
D37
330
A
100
AcDbEntity
  8
04
100
AcDbLine
 10
260.1804920913883
 20
371.3576449912126
 30
0.0
 11
260.8886121972791
 21
370.131144989949
 31
0.0
  0
LINE
  5
D38
330
A
100
AcDbEntity
  8
04
100
AcDbLine
 10
260.1804920913883
 20
357.3576449912126
 30
0.0
 11
260.8886121972791
 21
358.5841449899488
 31
0.0
  0
LINE
  5
D3A
330
A
100
AcDbEntity
  8
04
100
AcDbLine
 10
260.1804920913883
 20
357.3576449912126
 30
0.0
 11
259.3804920913884
 21
357.3576449912126
 31
0.0
  0
LINE
  5
D3B
330
A
100
AcDbEntity
  8
04
100
AcDbLine
 10
260.1804920913883
 20
371.3576449912126
 30
0.0
 11
259.3804920913884
 21
371.3576449912126
 31
0.0
  0
LINE
  5
D41
330
A
100
AcDbEntity
  8
04
100
AcDbLine
 10
265.3804920913884
 20
359.4576449912127
 30
0.0
 11
265.3804920913884
 21
361.3576449912126
 31
0.0
  0
LINE
  5
D42
330
A
100
AcDbEntity
  8
04
100
AcDbLine
 10
264.8761768663884
 20
358.5841449912126
 30
0.0
 11
265.3804920913884
 21
359.4576449912127
 31
0.0
  0
LINE
  5
D43
330
A
100
AcDbEntity
  8
04
100
AcDbLine
 10
264.8761768663884
 20
370.1311449912127
 30
0.0
 11
265.3804920913884
 21
369.2576449912128
 31
0.0
  0
LINE
  5
D44
330
A
100
AcDbEntity
  8
04
100
AcDbLine
 10
260.8886121972791
 20
358.5841449899488
 30
0.0
 11
264.8761768663884
 21
358.5841449912126
 31
0.0
  0
LINE
  5
D45
330
A
100
AcDbEntity
  8
04
100
AcDbLine
 10
260.8886122345537
 20
370.131144989949
 30
0.0
 11
264.8761768663884
 21
370.1311449912127
 31
0.0
  0
LINE
  5
D46
330
A
100
AcDbEntity
  8
04
100
AcDbLine
 10
259.3804920913884
 20
371.3576449912126
 30
0.0
 11
259.3804920913884
 21
357.3576449912126
 31
0.0
  0
LINE
  5
D47
330
A
100
AcDbEntity
  8
04
100
AcDbLine
 10
250.3804920913883
 20
329.8576449912126
 30
0.0
 11
250.3804920913883
 21
285.8576449912126
 31
0.0
  0
LINE
  5
D48
330
A
100
AcDbEntity
  8
04
100
AcDbLine
 10
242.3804920913883
 20
301.3576449912126
 30
0.0
 11
242.3804920913883
 21
302.8576449912126
 31
0.0
  0
LINE
  5
D49
330
A
100
AcDbEntity
  8
04
100
AcDbLine
 10
231.8804920913883
 20
302.8576449912126
 30
0.0
 11
231.8804920913883
 21
300.8462070829007
 31
0.0
  0
LINE
  5
D4F
330
A
100
AcDbEntity
  8
04
100
AcDbLine
 10
266.4804920913883
 20
306.9576449912124
 30
0.0
 11
266.4804920913883
 21
314.7576449912127
 31
0.0
  0
LINE
  5
D50
330
A
100
AcDbEntity
  8
04
100
AcDbLine
 10
265.9761768663883
 20
306.0841449912126
 30
0.0
 11
266.4804920913883
 21
306.9576449912124
 31
0.0
  0
LINE
  5
D51
330
A
100
AcDbEntity
  8
04
100
AcDbLine
 10
262.4804920913883
 20
306.0841449912126
 30
0.0
 11
265.9761768663883
 21
306.0841449912126
 31
0.0
  0
LINE
  5
D52
330
A
100
AcDbEntity
  8
04
100
AcDbLine
 10
262.4804920913883
 20
305.7576449912127
 30
0.0
 11
262.4804920913883
 21
306.0841449912126
 31
0.0
  0
LINE
  5
D53
330
A
100
AcDbEntity
  8
04
100
AcDbLine
 10
260.9804920913883
 20
305.7576449912127
 30
0.0
 11
262.4804920913883
 21
305.7576449912127
 31
0.0
  0
LINE
  5
D54
330
A
100
AcDbEntity
  8
04
100
AcDbLine
 10
260.9804920913883
 20
305.6076449912126
 30
0.0
 11
259.3804920913884
 21
305.6076449912126
 31
0.0
  0
LINE
  5
D55
330
A
100
AcDbEntity
  8
04
100
AcDbLine
 10
260.9804920913883
 20
305.7576449912127
 30
0.0
 11
260.9804920913883
 21
305.6076449912126
 31
0.0
  0
LINE
  5
D5D
330
A
100
AcDbEntity
  8
04
100
AcDbLine
 10
266.4804920913883
 20
316.9576449912124
 30
0.0
 11
266.4804920913883
 21
326.7576449912127
 31
0.0
  0
LINE
  5
D5E
330
A
100
AcDbEntity
  8
04
100
AcDbLine
 10
265.9761768663884
 20
316.0841449912126
 30
0.0
 11
266.4804920913883
 21
316.9576449912124
 31
0.0
  0
LINE
  5
D5F
330
A
100
AcDbEntity
  8
04
100
AcDbLine
 10
265.9761768663885
 20
327.6311449912126
 30
0.0
 11
266.4804920913883
 21
326.7576449912127
 31
0.0
  0
LINE
  5
D60
330
A
100
AcDbEntity
  8
04
100
AcDbLine
 10
262.4804920913883
 20
316.0841449912126
 30
0.0
 11
265.9761768663884
 21
316.0841449912126
 31
0.0
  0
LINE
  5
D61
330
A
100
AcDbEntity
  8
04
100
AcDbLine
 10
262.4804920913883
 20
327.6311449912126
 30
0.0
 11
265.9761768663885
 21
327.6311449912126
 31
0.0
  0
LINE
  5
D62
330
A
100
AcDbEntity
  8
04
100
AcDbLine
 10
262.4804920913883
 20
327.9576449912124
 30
0.0
 11
260.9804920913883
 21
327.9576449912124
 31
0.0
  0
LINE
  5
D63
330
A
100
AcDbEntity
  8
04
100
AcDbLine
 10
262.4804920913883
 20
327.6311449912126
 30
0.0
 11
262.4804920913883
 21
327.9576449912124
 31
0.0
  0
LINE
  5
D64
330
A
100
AcDbEntity
  8
04
100
AcDbLine
 10
260.9804920913883
 20
315.7576449912127
 30
0.0
 11
262.4804920913883
 21
315.7576449912127
 31
0.0
  0
LINE
  5
D65
330
A
100
AcDbEntity
  8
04
100
AcDbLine
 10
260.9804920913883
 20
315.6076449912126
 30
0.0
 11
259.3804920913884
 21
315.6076449912126
 31
0.0
  0
LINE
  5
D66
330
A
100
AcDbEntity
  8
04
100
AcDbLine
 10
260.9804920913883
 20
328.1076449912126
 30
0.0
 11
260.9804920913883
 21
327.9576449912124
 31
0.0
  0
LINE
  5
D67
330
A
100
AcDbEntity
  8
04
100
AcDbLine
 10
259.3804920913884
 20
328.1076449912126
 30
0.0
 11
260.9804920913883
 21
328.1076449912126
 31
0.0
  0
LINE
  5
D68
330
A
100
AcDbEntity
  8
04
100
AcDbLine
 10
260.3804920913884
 20
333.8576449912126
 30
0.0
 11
259.3804920913884
 21
333.8576449912126
 31
0.0
  0
LINE
  5
D69
330
A
100
AcDbEntity
  8
04
100
AcDbLine
 10
260.3804920913884
 20
350.8576449912126
 30
0.0
 11
260.3804920913884
 21
333.8576449912126
 31
0.0
  0
LINE
  5
D6A
330
A
100
AcDbEntity
  8
04
100
AcDbLine
 10
259.3804920913884
 20
350.8576449912126
 30
0.0
 11
260.3804920913884
 21
350.8576449912126
 31
0.0
  0
LINE
  5
D6B
330
A
100
AcDbEntity
  8
04
100
AcDbLine
 10
227.8804920913883
 20
334.8576449912126
 30
0.0
 11
228.3804920913883
 21
334.8576449912126
 31
0.0
  0
LINE
  5
D6C
330
A
100
AcDbEntity
  8
04
100
AcDbLine
 10
227.8804920913883
 20
349.8576449912127
 30
0.0
 11
227.8804920913883
 21
334.8576449912126
 31
0.0
  0
LINE
  5
D6D
330
A
100
AcDbEntity
  8
04
100
AcDbLine
 10
228.3804920913883
 20
349.8576449912127
 30
0.0
 11
227.8804920913883
 21
349.8576449912127
 31
0.0
  0
LINE
  5
D72
330
A
100
AcDbEntity
  8
04
100
AcDbLine
 10
232.0407461292328
 20
312.3576449912127
 30
0.0
 11
228.3804920913883
 21
312.3576449912127
 31
0.0
  0
LINE
  5
D73
330
A
100
AcDbEntity
  8
04
100
AcDbLine
 10
233.3804920913884
 20
317.3576449912126
 30
0.0
 11
232.0407461292328
 21
312.3576449912127
 31
0.0
  0
LINE
  5
D74
330
A
100
AcDbEntity
  8
04
100
AcDbLine
 10
244.7202380535439
 20
312.3576449912127
 30
0.0
 11
248.3804920913883
 21
312.3576449912127
 31
0.0
  0
LINE
  5
D75
330
A
100
AcDbEntity
  8
04
100
AcDbLine
 10
243.3804920913884
 20
317.3576449912126
 30
0.0
 11
244.7202380535439
 21
312.3576449912127
 31
0.0
  0
LINE
  5
D76
330
A
100
AcDbEntity
  8
04
100
AcDbLine
 10
233.3804920913884
 20
317.3576449912126
 30
0.0
 11
243.3804920913884
 21
317.3576449912126
 31
0.0
  0
LINE
  5
D77
330
A
100
AcDbEntity
  8
04
100
AcDbLine
 10
228.3804920913883
 20
372.3576449912126
 30
0.0
 11
228.3804920913883
 21
349.8576449912127
 31
0.0
  0
LINE
  5
D78
330
A
100
AcDbEntity
  8
04
100
AcDbLine
 10
232.0407461292328
 20
372.3576449912126
 30
0.0
 11
228.3804920913883
 21
372.3576449912126
 31
0.0
  0
LINE
  5
D79
330
A
100
AcDbEntity
  8
04
100
AcDbLine
 10
233.3804920913884
 20
367.3576449912126
 30
0.0
 11
232.0407461292328
 21
372.3576449912126
 31
0.0
  0
LINE
  5
D7A
330
A
100
AcDbEntity
  8
04
100
AcDbLine
 10
244.7202380535439
 20
372.3576449912126
 30
0.0
 11
248.3804920913883
 21
372.3576449912126
 31
0.0
  0
LINE
  5
D7B
330
A
100
AcDbEntity
  8
04
100
AcDbLine
 10
243.3804920913884
 20
367.3576449912126
 30
0.0
 11
244.7202380535439
 21
372.3576449912126
 31
0.0
  0
LINE
  5
D7C
330
A
100
AcDbEntity
  8
04
100
AcDbLine
 10
233.3804920913884
 20
367.3576449912126
 30
0.0
 11
243.3804920913884
 21
367.3576449912126
 31
0.0
  0
LINE
  5
D7D
330
A
100
AcDbEntity
  8
04
100
AcDbLine
 10
248.3804920913883
 20
372.3576449912126
 30
0.0
 11
248.3804920913883
 21
312.3576449912127
 31
0.0
  0
LINE
  5
D80
330
A
100
AcDbEntity
  8
04
100
AcDbLine
 10
248.3804920913883
 20
331.3879898766098
 30
0.0
 11
254.8804920913883
 21
331.3879898766098
 31
0.0
  0
LINE
  5
D81
330
A
100
AcDbEntity
  8
04
100
AcDbLine
 10
254.8804920913883
 20
353.3273001058153
 30
0.0
 11
252.9304920913884
 21
353.3273001058153
 31
0.0
  0
LINE
  5
D82
330
A
100
AcDbEntity
  8
04
100
AcDbLine
 10
255.3804920913883
 20
300.8576449912126
 30
0.0
 11
254.8804920913883
 21
300.8576449912126
 31
0.0
  0
LINE
  5
D83
330
A
100
AcDbEntity
  8
04
100
AcDbLine
 10
255.3804920913883
 20
286.8576449912126
 30
0.0
 11
255.3804920913883
 21
300.8576449912126
 31
0.0
  0
LINE
  5
D84
330
A
100
AcDbEntity
  8
04
100
AcDbLine
 10
254.8804920913883
 20
286.8576449912126
 30
0.0
 11
255.3804920913883
 21
286.8576449912126
 31
0.0
  0
LINE
  5
D85
330
A
100
AcDbEntity
  8
04
100
AcDbLine
 10
229.3804920913883
 20
298.8576449912126
 30
0.0
 11
230.8804920913884
 21
298.8576449912126
 31
0.0
  0
LINE
  5
D86
330
A
100
AcDbEntity
  8
04
100
AcDbLine
 10
229.3804920913883
 20
288.8576449912126
 30
0.0
 11
229.3804920913883
 21
298.8576449912126
 31
0.0
  0
LINE
  5
D87
330
A
100
AcDbEntity
  8
04
100
AcDbLine
 10
230.6804862115356
 20
288.8576449919492
 30
0.0
 11
229.3804920913883
 21
288.8576449912126
 31
0.0
  0
LINE
  5
D88
330
A
100
AcDbEntity
  8
04
100
AcDbLine
 10
230.8804920913884
 20
300.8462070829007
 30
0.0
 11
231.8804920913883
 21
300.8462070829007
 31
0.0
  0
LINE
  5
D89
330
A
100
AcDbEntity
  8
04
100
AcDbLine
 10
230.8804920913884
 20
300.8462070829007
 30
0.0
 11
230.8804920913884
 21
298.8576449912126
 31
0.0
  0
LINE
  5
D8A
330
A
100
AcDbEntity
  8
04
100
AcDbLine
 10
242.3804920913883
 20
302.8576449912126
 30
0.0
 11
231.8804920913883
 21
302.8576449912126
 31
0.0
  0
LINE
  5
D8B
330
A
100
AcDbEntity
  8
04
100
AcDbLine
 10
242.3804920913883
 20
301.3576449912126
 30
0.0
 11
250.3804920913883
 21
301.3576449912126
 31
0.0
  0
LINE
  5
D8D
330
A
100
AcDbEntity
  8
04
100
AcDbLine
 10
254.8804920913883
 20
329.8576449912126
 30
0.0
 11
250.3804920913883
 21
329.8576449912126
 31
0.0
  0
LINE
  5
D8E
330
A
100
AcDbEntity
  8
04
100
AcDbLine
 10
255.3804920913883
 20
292.3576449912126
 30
0.0
 11
259.3804920913884
 21
292.3576449912126
 31
0.0
  0
LINE
  5
D8F
330
A
100
AcDbEntity
  8
04
100
AcDbLine
 10
254.8804920913883
 20
373.3576449912126
 30
0.0
 11
254.8804920913883
 21
281.3576449912125
 31
0.0
  0
LINE
  5
D90
330
A
100
AcDbEntity
  8
04
100
AcDbLine
 10
259.3804920913884
 20
373.3576449912126
 30
0.0
 11
254.8804920913883
 21
373.3576449912126
 31
0.0
  0
LINE
  5
D91
330
A
100
AcDbEntity
  8
04
100
AcDbLine
 10
226.8804920913884
 20
285.8576449912126
 30
0.0
 11
226.8804920913884
 21
281.3576449912125
 31
0.0
  0
LINE
  5
D92
330
A
100
AcDbEntity
  8
04
100
AcDbLine
 10
254.8804920913883
 20
285.8576449912126
 30
0.0
 11
226.8804920913884
 21
285.8576449912126
 31
0.0
  0
LINE
  5
D93
330
A
100
AcDbEntity
  8
04
100
AcDbLine
 10
259.3804920913884
 20
373.3576449912126
 30
0.0
 11
259.3804920913884
 21
292.3576449912126
 31
0.0
  0
LINE
  5
D94
330
A
100
AcDbEntity
  8
04
100
AcDbLine
 10
226.8804920913884
 20
281.3576449912125
 30
0.0
 11
254.8804920913883
 21
281.3576449912125
 31
0.0
  0
LINE
  5
D9E
330
A
100
AcDbEntity
  8
04
100
AcDbLine
 10
200.5804990724518
 20
324.5576449912126
 30
0.0
 11
200.5804990724518
 21
330.1576449912126
 31
0.0
  0
LINE
  5
D9F
330
A
100
AcDbEntity
  8
04
100
AcDbLine
 10
201.7804990724517
 20
323.3576449912126
 30
0.0
 11
200.5804990724518
 21
324.5576449912126
 31
0.0
  0
LINE
  5
DA0
330
A
100
AcDbEntity
  8
04
100
AcDbLine
 10
201.7804990724517
 20
331.3576449912126
 30
0.0
 11
200.5804990724518
 21
330.1576449912126
 31
0.0
  0
LINE
  5
DA1
330
A
100
AcDbEntity
  8
04
100
AcDbLine
 10
205.3804920913883
 20
323.3576449912126
 30
0.0
 11
201.7804990724517
 21
323.3576449912126
 31
0.0
  0
LINE
  5
DA2
330
A
100
AcDbEntity
  8
04
100
AcDbLine
 10
205.3804920913883
 20
331.3576449912126
 30
0.0
 11
201.7804990724517
 21
331.3576449912126
 31
0.0
  0
LINE
  5
DA3
330
A
100
AcDbEntity
  8
04
100
AcDbLine
 10
220.5805259153186
 20
319.6576499664126
 30
0.0
 11
218.9804871953409
 21
319.6576527100453
 31
0.0
  0
LINE
  5
DA4
330
A
100
AcDbEntity
  8
04
100
AcDbLine
 10
220.580388217911
 20
335.0576505374518
 30
0.0
 11
218.980458776777
 21
335.0576532076288
 31
0.0
  0
LINE
  5
DAA
330
A
100
AcDbEntity
  8
04
100
AcDbLine
 10
226.0814797688005
 20
321.0576491710694
 30
0.0
 11
226.0815102859163
 21
333.6576555289651
 31
0.0
  0
LINE
  5
DAB
330
A
100
AcDbEntity
  8
04
100
AcDbLine
 10
225.385421432357
 20
319.8520964000739
 30
0.0
 11
226.0814492511899
 21
321.0576604181738
 31
0.0
  0
LINE
  5
DAC
330
A
100
AcDbEntity
  8
04
100
AcDbLine
 10
225.3855543139394
 20
334.8632569436498
 30
0.0
 11
226.0813748015183
 21
333.6576687403612
 31
0.0
  0
LINE
  5
DAD
330
A
100
AcDbEntity
  8
04
100
AcDbLine
 10
220.5804300295147
 20
319.852009884773
 30
0.0
 11
225.3854889804295
 21
319.8521439627953
 31
0.0
  0
LINE
  5
DAE
330
A
100
AcDbEntity
  8
04
100
AcDbLine
 10
220.5804435088534
 20
334.8631977148301
 30
0.0
 11
225.3854421809188
 21
334.8632010983962
 31
0.0
  0
LINE
  5
DB1
330
A
100
AcDbEntity
  8
04
100
AcDbLine
 10
217.381939125354
 20
318.3576521383733
 30
0.0
 11
218.9804231646752
 21
318.3576386457681
 31
0.0
  0
LINE
  5
DB2
330
A
100
AcDbEntity
  8
04
100
AcDbLine
 10
218.9805020497928
 20
336.357652558921
 30
0.0
 11
217.3818940328241
 21
336.3576466711583
 31
0.0
  0
ARC
  5
DB3
330
A
100
AcDbEntity
  8
04
100
AcDbCircle
 10
230.3804920913883
 20
312.3576449912127
 30
0.0
 40
3.0
100
AcDbArc
 50
270.0
 51
0.0
  0
ARC
  5
DB4
330
A
100
AcDbEntity
  8
04
100
AcDbCircle
 10
223.3804920913883
 20
315.3576449912126
 30
0.0
 40
6.0
100
AcDbArc
 50
180.0
 51
270.0
  0
ARC
  5
DB5
330
A
100
AcDbEntity
  8
04
100
AcDbCircle
 10
216.3804920913884
 20
336.3576449912126
 30
0.0
 40
1.0
100
AcDbArc
 50
0.0
 51
90.0
  0
ARC
  5
DB6
330
A
100
AcDbEntity
  8
04
100
AcDbCircle
 10
242.3804920913883
 20
313.3576449912126
 30
0.0
 40
1.0
100
AcDbArc
 50
270.0
 51
0.0
  0
ARC
  5
DB7
330
A
100
AcDbEntity
  8
04
100
AcDbCircle
 10
240.3804920913883
 20
311.3576449912126
 30
0.0
 40
1.0
100
AcDbArc
 50
90.0
 51
180.0
  0
ARC
  5
DB8
330
A
100
AcDbEntity
  8
04
100
AcDbCircle
 10
240.3804920913883
 20
308.3576449912126
 30
0.0
 40
1.0
100
AcDbArc
 50
180.0
 51
270.0
  0
ARC
  5
DB9
330
A
100
AcDbEntity
  8
04
100
AcDbCircle
 10
242.3804920913883
 20
304.3576449912126
 30
0.0
 40
1.0
100
AcDbArc
 50
270.0
 51
0.0
  0
ARC
  5
DBA
330
A
100
AcDbEntity
  8
04
100
AcDbCircle
 10
242.3804920913883
 20
316.3576449912127
 30
0.0
 40
1.0
100
AcDbArc
 50
0.0
 51
90.0
  0
ARC
  5
DBB
330
A
100
AcDbEntity
  8
04
100
AcDbCircle
 10
234.3804920913883
 20
316.3576449912127
 30
0.0
 40
1.0
100
AcDbArc
 50
90.0
 51
180.0
  0
LINE
  5
DBC
330
A
100
AcDbEntity
  8
04
100
AcDbLine
 10
243.3804920913884
 20
307.3576449912126
 30
0.0
 11
243.3804920913884
 21
304.3576449912126
 31
0.0
  0
LINE
  5
DBD
330
A
100
AcDbEntity
  8
04
100
AcDbLine
 10
243.3804920913884
 20
316.3576449912127
 30
0.0
 11
243.3804920913884
 21
313.3576449912126
 31
0.0
  0
LINE
  5
DBE
330
A
100
AcDbEntity
  8
04
100
AcDbLine
 10
239.3804920913884
 20
311.3576449912126
 30
0.0
 11
239.3804920913884
 21
308.3576449912126
 31
0.0
  0
LINE
  5
DBF
330
A
100
AcDbEntity
  8
04
100
AcDbLine
 10
240.3804920913883
 20
307.3576449912126
 30
0.0
 11
243.3804920913884
 21
307.3576449912126
 31
0.0
  0
LINE
  5
DC0
330
A
100
AcDbEntity
  8
04
100
AcDbLine
 10
242.3804920913883
 20
312.3576449912127
 30
0.0
 11
240.3804920913883
 21
312.3576449912127
 31
0.0
  0
LINE
  5
DC1
330
A
100
AcDbEntity
  8
04
100
AcDbLine
 10
233.3804920913884
 20
316.3576449912127
 30
0.0
 11
233.3804920913884
 21
312.3576449912127
 31
0.0
  0
LINE
  5
DC2
330
A
100
AcDbEntity
  8
04
100
AcDbLine
 10
234.3804920913883
 20
317.3576449912126
 30
0.0
 11
242.3804920913883
 21
317.3576449912126
 31
0.0
  0
LINE
  5
DC3
330
A
100
AcDbEntity
  8
04
100
AcDbLine
 10
223.3804920913883
 20
309.3576449912126
 30
0.0
 11
230.3804920913883
 21
309.3576449912126
 31
0.0
  0
LINE
  5
DC4
330
A
100
AcDbEntity
  8
04
100
AcDbLine
 10
217.3804920913883
 20
336.3576449912126
 30
0.0
 11
217.3804920913883
 21
315.3576449912126
 31
0.0
  0
LINE
  5
DC5
330
A
100
AcDbEntity
  8
04
100
AcDbLine
 10
211.3804920913883
 20
337.3576449912127
 30
0.0
 11
216.3804920913884
 21
337.3576449912127
 31
0.0
  0
LINE
  5
DC6
330
A
100
AcDbEntity
  8
04
100
AcDbLine
 10
211.3804920913883
 20
303.3576449912126
 30
0.0
 11
242.3804920913883
 21
303.3576449912126
 31
0.0
  0
ARC
  5
DCD
330
A
100
AcDbEntity
  8
02
100
AcDbCircle
 10
205.3804920913883
 20
291.3576449912127
 30
0.0
 40
6.0
100
AcDbArc
 50
270.0
 51
0.0
  0
LINE
  5
DCE
330
A
100
AcDbEntity
  8
02
100
AcDbLine
 10
188.3804920913883
 20
291.3576449912127
 30
0.0
 11
205.3804920913883
 21
291.3576449912127
 31
0.0
  0
LINE
  5
DCF
330
A
100
AcDbEntity
  8
02
100
AcDbLine
 10
205.3804920913883
 20
342.3576449912126
 30
0.0
 11
205.3804920913883
 21
291.3576449912127
 31
0.0
  0
LINE
  5
DD0
330
A
100
AcDbEntity
  8
02
100
AcDbLine
 10
211.3804920913883
 20
342.3576449912126
 30
0.0
 11
211.3804920913883
 21
291.3576449912127
 31
0.0
  0
LINE
  5
E04
330
A
100
AcDbEntity
  8
04
100
AcDbLine
 10
265.3804920913884
 20
369.2576449912128
 30
0.0
 11
265.3804920913884
 21
367.3576449912126
 31
0.0
  0
LINE
  5
E05
330
A
100
AcDbEntity
  8
04
100
AcDbLine
 10
220.580388217911
 20
335.0576505374518
 30
0.0
 11
220.5803883548401
 21
334.8631977147911
 31
0.0
  0
LINE
  5
E06
330
A
100
AcDbEntity
  8
04
100
AcDbLine
 10
220.5804300295147
 20
319.852009884773
 30
0.0
 11
220.5805259153186
 21
319.6576499664126
 31
0.0
  0
LINE
  5
E07
330
A
100
AcDbEntity
  8
04
100
AcDbLine
 10
218.9805020497928
 20
336.357652558921
 30
0.0
 11
218.9804998801793
 21
335.0576532075602
 31
0.0
  0
LINE
  5
E08
330
A
100
AcDbEntity
  8
04
100
AcDbLine
 10
218.9804871953409
 20
319.6576527100453
 30
0.0
 11
218.9804231646752
 21
318.3576386457681
 31
0.0
  0
LINE
  5
E0A
330
A
100
AcDbEntity
  8
04
100
AcDbLine
 10
229.3804845236799
 20
287.4576549496172
 30
0.0
 11
230.6804838749723
 21
287.4576116766013
 31
0.0
  0
LINE
  5
E0C
330
A
100
AcDbEntity
  8
06
100
AcDbLine
 10
264.127291897805
 20
444.8563800736405
 30
0.0
 11
271.151812143047
 21
444.8563811612985
 31
0.0
  0
LINE
  5
E0D
330
A
100
AcDbEntity
  8
06
100
AcDbLine
 10
261.2895727956756
 20
453.8563325773674
 30
0.0
 11
264.1272722135695
 21
444.8563800736375
 31
0.0
  0
LINE
  5
E0E
330
A
100
AcDbEntity
  8
06
100
AcDbLine
 10
273.9896022156029
 20
453.8562995695524
 30
0.0
 11
271.1519586871423
 21
444.8563349566832
 31
0.0
  0
LINE
  5
E0F
330
A
100
AcDbEntity
  8
06
100
AcDbLine
 10
261.362585830564
 20
453.8563209817298
 30
0.0
 11
273.9895951993555
 21
453.8564410698183
 31
0.0
  0
LINE
  5
E10
330
A
100
AcDbEntity
  8
06
100
AcDbLine
 10
278.236120246926
 20
428.6718859330123
 30
0.0
 11
279.1396441294256
 21
427.1069359330123
 31
0.0
  0
LINE
  5
E11
330
A
100
AcDbEntity
  8
06
100
AcDbLine
 10
278.2359134858909
 20
428.6721938927088
 30
0.0
 11
276.6396441294256
 21
428.6721938927088
 31
0.0
  0
LINE
  5
E12
330
A
100
AcDbEntity
  8
06
100
AcDbLine
 10
279.1396441294256
 20
410.6069359330123
 30
0.0
 11
279.1396441294256
 21
414.7319359330123
 31
0.0
  0
LINE
  5
E13
330
A
100
AcDbEntity
  8
06
100
AcDbLine
 10
278.236120246926
 20
409.0419859330123
 30
0.0
 11
279.1396441294256
 21
410.6069359330123
 31
0.0
  0
LINE
  5
E14
330
A
100
AcDbEntity
  8
06
100
AcDbLine
 10
278.236120246926
 20
409.0419859330123
 30
0.0
 11
276.6396441294259
 21
409.0419859330124
 31
0.0
  0
LINE
  5
E15
330
A
100
AcDbEntity
  8
06
100
AcDbLine
 10
279.1396441294256
 20
422.9819359330121
 30
0.0
 11
279.1396441294256
 21
427.1069359330123
 31
0.0
  0
LINE
  5
E1A
330
A
100
AcDbEntity
  8
06
100
AcDbLine
 10
198.9396074290565
 20
384.8576449912139
 30
0.0
 11
199.9396074290565
 21
382.8576449912139
 31
0.0
  0
LINE
  5
E1B
330
A
100
AcDbEntity
  8
06
100
AcDbLine
 10
197.6396074290567
 20
384.8576449912139
 30
0.0
 11
198.9396074290565
 21
384.8576449912139
 31
0.0
  0
LINE
  5
E1C
330
A
100
AcDbEntity
  8
06
100
AcDbLine
 10
198.9396074290565
 20
449.8576449912113
 30
0.0
 11
199.9396074290565
 21
451.8576449912114
 31
0.0
  0
LINE
  5
E1D
330
A
100
AcDbEntity
  8
06
100
AcDbLine
 10
197.6396074290567
 20
449.8576449912113
 30
0.0
 11
198.9396074290565
 21
449.8576449912113
 31
0.0
  0
LINE
  5
E1E
330
A
100
AcDbEntity
  8
06
100
AcDbLine
 10
197.6396074290567
 20
449.8576449912113
 30
0.0
 11
197.6396074290565
 21
452.3576449912114
 31
0.0
  0
LINE
  5
E1F
330
A
100
AcDbEntity
  8
06
100
AcDbLine
 10
197.6396074290565
 20
382.357644991214
 30
0.0
 11
197.6396074290567
 21
384.8576449912139
 31
0.0
  0
LINE
  5
E20
330
A
100
AcDbEntity
  8
06
100
AcDbLine
 10
199.9396074290564
 20
451.8576449912114
 30
0.0
 11
199.9396074290565
 21
455.357644991211
 31
0.0
  0
LINE
  5
E21
330
A
100
AcDbEntity
  8
06
100
AcDbLine
 10
199.9396074290565
 20
379.3576449912141
 30
0.0
 11
199.9396074290565
 21
382.8576449912146
 31
0.0
  0
LINE
  5
E22
330
A
100
AcDbEntity
  8
06
100
AcDbLine
 10
197.6396074290565
 20
382.357644991214
 30
0.0
 11
193.4396074290568
 21
382.357644991214
 31
0.0
  0
LINE
  5
E23
330
A
100
AcDbEntity
  8
06
100
AcDbLine
 10
197.6396074290565
 20
452.3576449912114
 30
0.0
 11
193.4396074290568
 21
452.3576449912114
 31
0.0
  0
LINE
  5
E24
330
A
100
AcDbEntity
  8
06
100
AcDbLine
 10
193.4396074290568
 20
452.3576449912114
 30
0.0
 11
193.4396074290568
 21
382.3576449912139
 31
0.0
  0
ARC
  5
E27
330
A
100
AcDbEntity
  8
06
100
AcDbCircle
 10
190.4396074290568
 20
381.3576449912141
 30
0.0
 40
1.999999999999918
100
AcDbArc
 50
180.0
 51
270.0
  0
LINE
  5
E28
330
A
100
AcDbEntity
  8
06
100
AcDbLine
 10
190.4396074290568
 20
379.3576449912141
 30
0.0
 11
199.9396074290565
 21
379.3576449912141
 31
0.0
  0
ARC
  5
E29
330
A
100
AcDbEntity
  8
06
100
AcDbCircle
 10
190.4396074290568
 20
453.3576449912111
 30
0.0
 40
1.999999999999918
100
AcDbArc
 50
90.00000000000005
 51
180.0
  0
LINE
  5
E2A
330
A
100
AcDbEntity
  8
06
100
AcDbLine
 10
188.439607429057
 20
453.3576449912111
 30
0.0
 11
188.439607429057
 21
381.3576449912141
 31
0.0
  0
LINE
  5
E2B
330
A
100
AcDbEntity
  8
06
100
AcDbLine
 10
199.9396074290565
 20
455.357644991211
 30
0.0
 11
190.4396074290568
 21
455.357644991211
 31
0.0
  0
LINE
  5
E2D
330
A
100
AcDbEntity
  8
06
100
AcDbLine
 10
258.639644129426
 20
447.8569359468367
 30
0.0
 11
258.639644129426
 21
452.8569359468368
 31
0.0
  0
LINE
  5
E2E
330
A
100
AcDbEntity
  8
06
100
AcDbLine
 10
258.639644129426
 20
384.8569359468367
 30
0.0
 11
258.639644129426
 21
389.8569359468367
 31
0.0
  0
ARC
  5
E2F
330
A
100
AcDbEntity
  8
06
100
AcDbCircle
 10
275.6396441294258
 20
384.8569359468366
 30
0.0
 40
1.0
100
AcDbArc
 50
270.0
 51
0.0
  0
ARC
  5
E30
330
A
100
AcDbEntity
  8
06
100
AcDbCircle
 10
259.639644129426
 20
384.8569359468367
 30
0.0
 40
1.0
100
AcDbArc
 50
180.0
 51
270.0
  0
LINE
  5
E34
330
A
100
AcDbEntity
  8
06
100
AcDbLine
 10
273.9896441294258
 20
383.8569359468367
 30
0.0
 11
275.6396441294258
 21
383.8569359468367
 31
0.0
  0
LINE
  5
E35
330
A
100
AcDbEntity
  8
06
100
AcDbLine
 10
259.639644129426
 20
383.8569359468367
 30
0.0
 11
261.2896441294259
 21
383.8569359468364
 31
0.0
  0
ARC
  5
E3A
330
A
100
AcDbEntity
  8
06
100
AcDbCircle
 10
275.6396441294258
 20
452.8569359468368
 30
0.0
 40
1.0
100
AcDbArc
 50
0.0000000000000891
 51
90.00000000000012
  0
ARC
  5
E3B
330
A
100
AcDbEntity
  8
06
100
AcDbCircle
 10
259.639644129426
 20
452.8569359468368
 30
0.0
 40
1.0
100
AcDbArc
 50
90.00000000000012
 51
180.0
  0
LINE
  5
E3F
330
A
100
AcDbEntity
  8
06
100
AcDbLine
 10
273.9896022156029
 20
453.8562995695524
 30
0.0
 11
275.6396441294258
 21
453.8569359468366
 31
0.0
  0
LINE
  5
E40
330
A
100
AcDbEntity
  8
06
100
AcDbLine
 10
259.639644129426
 20
453.8569359468366
 30
0.0
 11
261.362585830564
 21
453.8563209817298
 31
0.0
  0
LINE
  5
E41
330
A
100
AcDbEntity
  8
06
100
AcDbLine
 10
276.6396441294256
 20
452.8569359468368
 30
0.0
 11
276.6396441294256
 21
428.6721938927088
 31
0.0
  0
ARC
  5
E45
330
A
100
AcDbEntity
  8
06
100
AcDbCircle
 10
258.639644129426
 20
445.8569359468366
 30
0.0
 40
2.0
100
AcDbArc
 50
0.0
 51
90.0
  0
ARC
  5
E46
330
A
100
AcDbEntity
  8
06
100
AcDbCircle
 10
258.639644129426
 20
391.8569359468367
 30
0.0
 40
2.0
100
AcDbArc
 50
270.0
 51
359.9999999999998
  0
LINE
  5
E47
330
A
100
AcDbEntity
  8
06
100
AcDbLine
 10
260.6396441294256
 20
445.8569359468366
 30
0.0
 11
260.6396441294256
 21
391.8569359468367
 31
0.0
  0
LINE
  5
E48
330
A
100
AcDbEntity
  8
06
100
AcDbLine
 10
258.4396441803931
 20
389.8569359330124
 30
0.0
 11
199.9396074290565
 21
389.8569359330123
 31
0.0
  0
LINE
  5
E49
330
A
100
AcDbEntity
  8
06
100
AcDbLine
 10
258.639644129426
 20
447.8569359468367
 30
0.0
 11
199.9396074290565
 21
447.8569359330125
 31
0.0
  0
LINE
  5
E4A
330
A
100
AcDbEntity
  8
06
100
AcDbLine
 10
276.6396441294259
 20
409.0419859330124
 30
0.0
 11
276.6396441294256
 21
384.8569359468367
 31
0.0
  0
LINE
  5
E4C
330
A
100
AcDbEntity
  8
04
100
AcDbLine
 10
228.3804920913883
 20
334.8576449912126
 30
0.0
 11
228.3804920913883
 21
312.3576449912127
 31
0.0
  0
INSERT
  5
E64
330
A
100
AcDbEntity
  8
03
  6
CONTINUOUS
100
AcDbBlockReference
  2
*X29
 10
0.0
 20
0.0
 30
0.0
1001
ACAD
1000
HATCH
1002
{
1070
    19
1000
ANSI31
1040
20.0
1040
0.0
1000
R14_HATCH_DATA
1000
E64
1011
1.0
1021
0.0
1031
0.0
1011
0.0
1021
1.0
1031
0.0
1011
0.0
1021
0.0
1031
1.0
1040
0.0
1010
0.0
1020
0.0
1030
1.0
1000
ANSI31
1070
     0
1070
     0
1071
        4
1071
        7
1070
     0
1070
     1
1071
        4
1040
196.3804920913883
1040
283.7576449912127
1040
196.3804920913883
1040
285.3576449912127
1040
184.3804920913884
1040
285.3576449912127
1040
184.3804920913884
1040
283.7576449912127
1071
        0
1071
        7
1070
     0
1070
     1
1071
        4
1040
196.3804920913883
1040
282.2576449912127
1040
196.3804920913883
1040
283.7576449912127
1040
184.3804920913884
1040
283.7576449912127
1040
184.3804920913884
1040
282.2576449912127
1071
        0
1071
        7
1070
     0
1070
     1
1071
        4
1040
184.3804920913884
1040
268.9576449912124
1040
196.3804920913883
1040
268.9576449912124
1040
196.3804920913883
1040
282.2576449912127
1040
184.3804920913884
1040
282.2576449912127
1071
        0
1071
        7
1070
     0
1070
     1
1071
        4
1040
184.3804920913884
1040
268.9576449912124
1040
184.3804920913884
1040
267.4576449912124
1040
196.3804920913883
1040
267.4576449912124
1040
196.3804920913883
1040
268.9576449912124
1071
        0
1070
     0
1070
     1
1040
0.0
1040
20.0
1070
     0
1070
     1
1040
0.7853981633974483
1040
0.0
1040
0.0
1040
-1.767766952966368
1040
1.767766952966368
1070
     0
1040
0.0426593693401027
1071
        4
1040
188.2151981356237
1040
284.3457199345257
1040
0.0
1040
188.0871253258844
1040
282.8526411830842
1040
0.0
1040
184.7571871807852
1040
281.7861568710545
1040
0.0
1040
189.5813278833156
1040
268.3484552540762
1040
0.0
1002
}
  0
LINE
  5
EB1
330
A
100
AcDbEntity
  8
04
100
AcDbLine
 10
250.8804920913883
 20
361.2576449912127
 30
0.0
 11
250.8804920913883
 21
359.2076449912124
 31
0.0
  0
LINE
  5
EB2
330
A
100
AcDbEntity
  8
04
100
AcDbLine
 10
260.9804920913883
 20
315.6076449912126
 30
0.0
 11
260.9804920913883
 21
315.7576449912125
 31
0.0
  0
LINE
  5
EB3
330
A
100
AcDbEntity
  8
04
100
AcDbLine
 10
262.4804920913883
 20
315.7576449912127
 30
0.0
 11
262.4804920913883
 21
316.0841449912126
 31
0.0
  0
LINE
  5
EB4
330
A
100
AcDbEntity
  8
02
100
AcDbLine
 10
188.3804920913883
 20
285.3576449912127
 30
0.0
 11
205.3804920913883
 21
285.3576449912127
 31
0.0
  0
LINE
  5
EE1
330
A
100
AcDbEntity
  8
02
100
AcDbLine
 10
182.3804920913883
 20
476.2576449912126
 30
0.0
 11
182.3804920913883
 21
285.3576449912127
 31
0.0
  0
LINE
  5
EE2
330
A
100
AcDbEntity
  8
02
100
AcDbLine
 10
188.3804920913883
 20
285.3576449912127
 30
0.0
 11
188.3804920913883
 21
476.2576449912126
 31
0.0
  0
LINE
  5
114D
330
A
100
AcDbEntity
  8
02
100
AcDbLine
 10
188.3804920913883
 20
342.3576449912126
 30
0.0
 11
205.3804920913883
 21
342.3576449912126
 31
0.0
  0
LINE
  5
114E
330
A
100
AcDbEntity
  8
02
100
AcDbLine
 10
188.3804920913883
 20
348.3576449912126
 30
0.0
 11
205.3804920913883
 21
348.3576449912126
 31
0.0
  0
ARC
  5
114F
330
A
100
AcDbEntity
  8
02
100
AcDbCircle
 10
205.3804920913883
 20
342.3576449912126
 30
0.0
 40
6.0
100
AcDbArc
 50
0.0
 51
90.00000000000005
  0
CIRCLE
  5
11D4
330
A
100
AcDbEntity
  8
KAKURE
100
AcDbCircle
 10
225.8788707218835
 20
449.3564757124698
 30
0.0
 40
15.0
  0
DIMENSION
  5
11D5
330
A
100
AcDbEntity
  8
SUNPOU
100
AcDbDimension
  2
*D26
 10
214.9215133039384
 20
439.1126327609496
 30
0.0
 11
223.0342779063219
 21
452.4535105069004
 31
0.0
 70
   163
  1
配線孔<>
  3
SUNPOU_2
100
AcDbDiametricDimension
 15
236.8362281398285
 25
459.6003186639896
 35
0.0
 40
0.0
1001
ACAD
1000
DSTYLE
1002
{
1070
   288
1070
     1
1002
}
  0
TEXT
  5
11D6
330
A
100
AcDbEntity
  8
SUNPOU
100
AcDbText
 10
221.045830191022
 20
438.3326285184143
 30
0.0
 40
3.0
  1
（両端及び方立部）
 50
44.83352120439746
 41
0.7
  7
SUNPOU
 72
     1
 11
228.8891217088173
 21
446.1304729748574
 31
0.0
100
AcDbText
 73
     1
  0
LEADER
  5
1234
330
A
100
AcDbEntity
  8
HIKIDASI
  6
CONTINUOUS
100
AcDbLeader
  3
SUNPOU_2
 73
     0
 40
13.33333333333333
 41
29.86666666666666
 76
     2
 10
189.3804920913883
 20
188.8679870217655
 30
0.0
 10
122.9432250095203
 20
206.543834790004
 30
0.0
340
1235
213
0.0
223
8.373094240880844
233
0.0
1001
ACAD
1000
DSTYLE
1002
{
1070
     5
1000
OPEN30
1070
    77
1070
     1
1070
   147
1040
1.0
1070
   342
1005
6A9
1002
}
1000
LEANOF
1010
0.0
1020
8.373094240880844
1030
0.0
1000
LEANOF
1010
0.0
1020
8.373094240880844
1030
0.0
1000
LEANOF
1010
0.0
1020
8.373094240880844
1030
0.0
  0
MTEXT
  5
1235
330
A
100
AcDbEntity
  8
HIKIDASI
  6
CONTINUOUS
100
AcDbMText
 10
120.9432250095203
 20
200.1707405491233
 30
0.0
 40
5.0
 41
0.0
 71
     9
 72
     1
  1
φ12穴加工\P（サッシ工事）
  7
SUNPOU
1001
ACAD
1000
MTEXTBEGIN
1070
    73
1070
     1
1070
    44
1040
1.0
1070
    74
1070
     0
1000
MTEXTEND
1000
MTEXTBEGIN
1070
    73
1070
     1
1070
    44
1040
1.0
1070
    74
1070
     0
1000
MTEXTEND
  0
MTEXT
  5
123C
102
{ACAD_REACTORS
330
123D
102
}
330
A
100
AcDbEntity
  8
HIKIDASI
100
AcDbMText
 10
90.85812455774684
 20
235.0766587879689
 30
0.0
 40
5.0
 41
0.0
 71
     9
 72
     1
  1
方立て上部通線穴φ12\P（サッシ工事）
  7
SUNPOU
1001
ACAD
1000
MTEXTBEGIN
1070
    73
1070
     1
1070
    44
1040
1.0
1070
    74
1070
     0
1000
MTEXTEND
1000
MTEXTBEGIN
1070
    73
1070
     1
1070
    44
1040
1.0
1070
    74
1070
     0
1000
MTEXTEND
  0
LEADER
  5
123D
330
A
100
AcDbEntity
  8
HIKIDASI
100
AcDbLeader
  3
SUNPOU_2
 73
     0
 40
13.33333333333333
 41
48.53333333333334
 76
     2
 10
189.7279372611206
 20
267.4576449912124
 30
0.0
 10
92.85812455774685
 20
241.5668540456298
 30
0.0
213
0.0
223
8.490195257660843
233
0.0
1001
ACAD
1000
DSTYLE
1002
{
1070
     5
1000
OPEN30
1070
    77
1070
     1
1070
   147
1040
1.0
1070
   342
1005
6A9
1002
}
1000
LEANOF
1010
0.0
1020
8.490195257660843
1030
0.0
1000
LEANOF
1010
0.0
1020
8.490195257660843
1030
0.0
1000
LEANOF
1010
0.0
1020
8.490195257660843
1030
0.0
  0
LEADER
  5
123E
330
A
100
AcDbEntity
  8
HIKIDASI
100
AcDbLeader
  3
SUNPOU_2
 76
     2
 10
182.3804920913883
 20
392.3576449912126
 30
0.0
 10
97.26529830311712
 20
464.9959081055023
 30
0.0
1001
ACAD
1000
DSTYLE
1002
{
1070
     5
1000
OPEN30
1070
    77
1070
     1
1070
   147
1040
1.0
1070
   342
1005
6A9
1002
}
1000
LEANOF
1010
0.0
1020
0.0
1030
0.0
1000
LEANOF
1010
0.0
1020
0.0
1030
0.0
1000
LEANOF
1010
0.0
1020
0.0
1030
0.0
  0
LINE
  5
125D
330
A
100
AcDbEntity
  8
06
100
AcDbLine
 10
188.3804920913883
 20
439.8576449912126
 30
0.0
 11
182.3804920913883
 21
439.8576449912126
 31
0.0
  0
LINE
  5
125E
330
A
100
AcDbEntity
  8
06
100
AcDbLine
 10
182.3804920913883
 20
444.8576449912127
 30
0.0
 11
188.3804920913883
 21
444.8576449912127
 31
0.0
  0
LINE
  5
125F
330
A
100
AcDbEntity
  8
06
100
AcDbLine
 10
182.3804920913883
 20
394.8576449912126
 30
0.0
 11
188.3804920913883
 21
394.8576449912126
 31
0.0
  0
LINE
  5
1260
330
A
100
AcDbEntity
  8
06
100
AcDbLine
 10
188.3804920913883
 20
389.8576449912127
 30
0.0
 11
182.3804920913883
 21
389.8576449912127
 31
0.0
  0
LINE
  5
12D1
330
A
100
AcDbEntity
  8
06
100
AcDbLine
 10
251.3804920913885
 20
276.3576449912128
 30
0.0
 11
252.8804920913886
 21
276.3576449912128
 31
0.0
  0
LINE
  5
12D2
330
A
100
AcDbEntity
  8
06
100
AcDbLine
 10
225.3804920913885
 20
276.3576449912128
 30
0.0
 11
223.8804920913885
 21
276.3576449912128
 31
0.0
  0
LINE
  5
12D8
330
A
100
AcDbEntity
  8
06
100
AcDbLine
 10
230.3804920913883
 20
191.3576449912125
 30
0.0
 11
224.6304920913885
 21
191.3576449912124
 31
0.0
  0
LINE
  5
12D9
330
A
100
AcDbEntity
  8
06
100
AcDbLine
 10
246.3804920913883
 20
191.3576449912125
 30
0.0
 11
252.1304920913884
 21
191.3576449912125
 31
0.0
  0
LINE
  5
12DA
330
A
100
AcDbEntity
  8
06
100
AcDbLine
 10
230.3804920913883
 20
192.8576449912125
 30
0.0
 11
225.3804920913883
 21
192.8576449912125
 31
0.0
  0
LINE
  5
12DB
330
A
100
AcDbEntity
  8
06
100
AcDbLine
 10
246.3804920913883
 20
192.8576449912125
 30
0.0
 11
251.3804920913883
 21
192.8576449912125
 31
0.0
  0
LINE
  5
12F8
330
A
100
AcDbEntity
  8
06
100
AcDbLine
 10
235.3804920913884
 20
216.6576449912127
 30
0.0
 11
241.3804920913884
 21
216.6576449912128
 31
0.0
  0
ARC
  5
1323
330
A
100
AcDbEntity
  8
06
100
AcDbCircle
 10
243.8804920913884
 20
184.286577179347
 30
0.0
 40
7.5
100
AcDbArc
 50
70.52877936550858
 51
109.4712206344914
  0
ARC
  5
1324
330
A
100
AcDbEntity
  8
06
100
AcDbCircle
 10
232.8804920913885
 20
184.286577179347
 30
0.0
 40
7.5
100
AcDbArc
 50
70.52877936550858
 51
109.4712206344914
  0
LINE
  5
1325
330
A
100
AcDbEntity
  8
06
100
AcDbLine
 10
250.8804920913885
 20
277.3576449912125
 30
0.0
 11
220.8804920913884
 21
277.3576449912125
 31
0.0
  0
LINE
  5
1326
330
A
100
AcDbEntity
  8
06
100
AcDbLine
 10
225.8804920913885
 20
275.8576449912125
 30
0.0
 11
225.8804920913885
 21
276.8576449912127
 31
0.0
  0
LINE
  5
1327
330
A
100
AcDbEntity
  8
06
100
AcDbLine
 10
250.8804920913885
 20
275.8576449912125
 30
0.0
 11
225.8804920913885
 21
275.8576449912125
 31
0.0
  0
LINE
  5
1328
330
A
100
AcDbEntity
  8
06
100
AcDbLine
 10
250.8804920913885
 20
275.8576449912125
 30
0.0
 11
250.8804920913885
 21
277.3576449912125
 31
0.0
  0
LINE
  5
1329
330
A
100
AcDbEntity
  8
06
100
AcDbLine
 10
225.3804920913885
 20
275.8576449912125
 30
0.0
 11
234.1304920913885
 21
275.8576449912125
 31
0.0
  0
LINE
  5
132A
330
A
100
AcDbEntity
  8
06
100
AcDbLine
 10
242.6304920913885
 20
275.8576449912125
 30
0.0
 11
251.3804920913885
 21
275.8576449912125
 31
0.0
  0
LINE
  5
132B
330
A
100
AcDbEntity
  8
06
100
AcDbLine
 10
223.8804920913885
 20
276.3576449912128
 30
0.0
 11
222.3804920913885
 21
276.3576449912128
 31
0.0
  0
LINE
  5
132C
330
A
100
AcDbEntity
  8
06
100
AcDbLine
 10
252.8804920913886
 20
276.3576449912128
 30
0.0
 11
254.3804920913883
 21
276.3576449912128
 31
0.0
  0
ARC
  5
132D
330
A
100
AcDbEntity
  8
06
100
AcDbCircle
 10
224.6304920913885
 20
192.1076449912125
 30
0.0
 40
0.75
100
AcDbArc
 50
180.0
 51
270.0000000000016
  0
LINE
  5
132E
330
A
100
AcDbEntity
  8
06
100
AcDbLine
 10
223.8804920913885
 20
192.1076449912125
 30
0.0
 11
223.8804920913885
 21
276.3576449912128
 31
0.0
  0
ARC
  5
132F
330
A
100
AcDbEntity
  8
06
100
AcDbCircle
 10
252.1304920913884
 20
192.1076449912128
 30
0.0
 40
0.75
100
AcDbArc
 50
270.0
 51
0.0
  0
LINE
  5
1330
330
A
100
AcDbEntity
  8
06
100
AcDbLine
 10
252.8804920913885
 20
276.3576449912128
 30
0.0
 11
252.8804920913885
 21
192.1076449912128
 31
0.0
  0
LINE
  5
1331
330
A
100
AcDbEntity
  8
06
100
AcDbLine
 10
225.3804920913885
 20
192.8576449912125
 30
0.0
 11
225.3804920913885
 21
276.3576449912128
 31
0.0
  0
LINE
  5
1332
330
A
100
AcDbEntity
  8
06
100
AcDbLine
 10
251.3804920913885
 20
276.3576449912128
 30
0.0
 11
251.3804920913885
 21
192.8576449912125
 31
0.0
  0
LINE
  5
1334
330
A
100
AcDbEntity
  8
06
100
AcDbLine
 10
220.8804920913884
 20
277.3576449912125
 30
0.0
 11
217.6804920913884
 21
276.8576449912127
 31
0.0
  0
LINE
  5
1335
330
A
100
AcDbEntity
  8
06
100
AcDbLine
 10
217.6804920913884
 20
276.8576449912127
 30
0.0
 11
225.8804920913885
 21
276.8576449912127
 31
0.0
  0
LINE
  5
1336
330
A
100
AcDbEntity
  8
06
100
AcDbLine
 10
240.8804920913885
 20
183.1739894551845
 30
0.0
 11
240.8804920913885
 21
216.6576449912129
 31
0.0
  0
LINE
  5
1337
330
A
100
AcDbEntity
  8
06
100
AcDbLine
 10
235.8804920913885
 20
183.1739894551845
 30
0.0
 11
235.8804920913885
 21
216.6576449912127
 31
0.0
  0
LINE
  5
1338
330
A
100
AcDbEntity
  8
06
100
AcDbLine
 10
235.3804920913884
 20
183.1739894551845
 30
0.0
 11
235.3804920913884
 21
216.6576449912127
 31
0.0
  0
LINE
  5
1339
330
A
100
AcDbEntity
  8
06
100
AcDbLine
 10
241.3804920913884
 20
183.1739894551845
 30
0.0
 11
241.3804920913884
 21
216.6576449912128
 31
0.0
  0
LINE
  5
194A
330
A
100
AcDbEntity
  8
06
100
AcDbLine
 10
228.0804920913884
 20
83.45983105729798
 30
0.0
 11
248.6850162895088
 21
83.45983105729811
 31
0.0
  0
LINE
  5
194B
330
A
100
AcDbEntity
  8
06
100
AcDbLine
 10
248.7350162895089
 20
75.45983105729741
 30
0.0
 11
248.6850162895088
 21
75.45983105729796
 31
0.0
  0
ARC
  5
194C
330
A
100
AcDbEntity
  8
06
100
AcDbCircle
 10
248.735016289509
 20
76.15983105729729
 30
0.0
 40
0.7
100
AcDbArc
 50
269.9999999999902
 51
0.0
  0
LINE
  5
194D
330
A
100
AcDbEntity
  8
06
100
AcDbLine
 10
249.4350162895091
 20
84.65983105729803
 30
0.0
 11
249.4350162895091
 21
83.45983105729811
 31
0.0
  0
LINE
  5
194E
330
A
100
AcDbEntity
  8
06
100
AcDbLine
 10
249.8304920913884
 20
84.65983105729803
 30
0.0
 11
249.4350162895091
 21
84.65983105729803
 31
0.0
  0
LINE
  5
194F
330
A
100
AcDbEntity
  8
06
100
AcDbLine
 10
249.4304920913883
 20
89.65983105729803
 30
0.0
 11
249.9189952719554
 21
89.65983105729824
 31
0.0
  0
LINE
  5
1950
330
A
100
AcDbEntity
  8
06
100
AcDbLine
 10
249.9219944667411
 20
89.65339926332413
 30
0.0
 11
249.466914960044
 21
89.65339926332413
 31
0.0
  0
LINE
  5
1951
330
A
100
AcDbEntity
  8
06
100
AcDbLine
 10
249.8304920913884
 20
84.65983105729803
 30
0.0
 11
249.4304920913883
 21
89.65983105729803
 31
0.0
  0
LINE
  5
1952
330
A
100
AcDbEntity
  8
06
100
AcDbLine
 10
249.466914960044
 20
89.65339926332413
 30
0.0
 11
249.8304920913884
 21
84.65983105729803
 31
0.0
  0
LINE
  5
1953
330
A
100
AcDbEntity
  8
06
100
AcDbLine
 10
249.4350162895087
 20
84.65983105729984
 30
0.0
 11
249.4350162895091
 21
76.15983105729734
 31
0.0
  0
LINE
  5
1954
330
A
100
AcDbEntity
  8
06
100
AcDbLine
 10
248.6850162895091
 20
75.45983105729796
 30
0.0
 11
248.6850162895091
 21
83.45983105729811
 31
0.0
  0
LINE
  5
1955
330
A
100
AcDbEntity
  8
06
100
AcDbLine
 10
228.0804920913884
 20
75.45983105729821
 30
0.0
 11
228.0304920913888
 21
75.45983105729821
 31
0.0
  0
ARC
  5
1956
330
A
100
AcDbEntity
  8
06
100
AcDbCircle
 10
228.0304920913883
 20
76.15983105729821
 30
0.0
 40
0.7
100
AcDbArc
 50
180.0
 51
270.0000000000455
  0
LINE
  5
1957
330
A
100
AcDbEntity
  8
06
100
AcDbLine
 10
227.3304920913884
 20
84.65983105729803
 30
0.0
 11
227.3304920913884
 21
83.45983105729811
 31
0.0
  0
LINE
  5
1958
330
A
100
AcDbEntity
  8
06
100
AcDbLine
 10
227.3304920913884
 20
84.65983105729803
 30
0.0
 11
226.9304920913884
 21
84.65983105729803
 31
0.0
  0
LINE
  5
1959
330
A
100
AcDbEntity
  8
06
100
AcDbLine
 10
227.3304920913884
 20
89.65983105729803
 30
0.0
 11
226.9304920913884
 21
89.65983105729803
 31
0.0
  0
LINE
  5
195A
330
A
100
AcDbEntity
  8
06
100
AcDbLine
 10
227.3304920913884
 20
89.65983105729803
 30
0.0
 11
226.9304920913884
 21
89.65983105729803
 31
0.0
  0
LINE
  5
195B
330
A
100
AcDbEntity
  8
06
100
AcDbLine
 10
226.9304920913885
 20
84.65983105729746
 30
0.0
 11
227.3304920913884
 21
89.65983105729803
 31
0.0
  0
LINE
  5
195C
330
A
100
AcDbEntity
  8
06
100
AcDbLine
 10
226.9304920913884
 20
84.65983105729803
 30
0.0
 11
227.3304920913884
 21
89.65983105729803
 31
0.0
  0
LINE
  5
195D
330
A
100
AcDbEntity
  8
06
100
AcDbLine
 10
227.3304920913883
 20
84.65983105729746
 30
0.0
 11
227.3304920913884
 21
76.15983105729815
 31
0.0
  0
LINE
  5
195E
330
A
100
AcDbEntity
  8
06
100
AcDbLine
 10
228.0804920913884
 20
75.45983105729821
 30
0.0
 11
228.0804920913884
 21
83.45983105729811
 31
0.0
  0
LINE
  5
195F
330
A
100
AcDbEntity
  8
06
100
AcDbLine
 10
228.5200722974904
 20
84.67398945518395
 30
0.0
 11
248.0200722974904
 21
84.67398945518405
 31
0.0
  0
LINE
  5
1960
330
A
100
AcDbEntity
  8
06
100
AcDbLine
 10
248.5200722974905
 20
93.15983105729721
 30
0.0
 11
248.0200722974904
 21
93.15983105729799
 31
0.0
  0
LINE
  5
1961
330
A
100
AcDbEntity
  8
06
100
AcDbLine
 10
248.5200722974905
 20
93.15983105729799
 30
0.0
 11
248.5200722974905
 21
92.659831057298
 31
0.0
  0
LINE
  5
1962
330
A
100
AcDbEntity
  8
06
100
AcDbLine
 10
228.0200722974905
 20
93.15983105729799
 30
0.0
 11
228.5200722974905
 21
93.15983105729799
 31
0.0
  0
LINE
  5
1963
330
A
100
AcDbEntity
  8
06
100
AcDbLine
 10
228.0200722974905
 20
92.659831057298
 30
0.0
 11
228.0200722974905
 21
93.15983105729799
 31
0.0
  0
LINE
  5
1964
330
A
100
AcDbEntity
  8
06
100
AcDbLine
 10
249.9219944667411
 20
89.65339926332413
 30
0.0
 11
248.5200722974905
 21
92.659831057298
 31
0.0
  0
LINE
  5
1965
330
A
100
AcDbEntity
  8
06
100
AcDbLine
 10
228.0200722974905
 20
92.65983105729722
 30
0.0
 11
226.9304920913884
 21
89.65983105729803
 31
0.0
  0
LINE
  5
1966
330
A
100
AcDbEntity
  8
06
100
AcDbLine
 10
228.5200722974904
 20
93.15983105729713
 30
0.0
 11
228.5200722974905
 21
84.67398945518395
 31
0.0
  0
LINE
  5
1967
330
A
100
AcDbEntity
  8
06
100
AcDbLine
 10
248.0200722974904
 20
93.15983105729799
 30
0.0
 11
248.0200722974905
 21
84.67398945518405
 31
0.0
  0
LINE
  5
1968
330
A
100
AcDbEntity
  8
06
100
AcDbLine
 10
226.9304920913884
 20
89.65983105729803
 30
0.0
 11
228.0200722974905
 21
92.659831057298
 31
0.0
  0
LINE
  5
1969
330
A
100
AcDbEntity
  8
06
100
AcDbLine
 10
248.5200722974905
 20
92.659831057298
 30
0.0
 11
249.9219944667411
 21
89.65339926332413
 31
0.0
  0
DIMENSION
  5
196B
330
A
100
AcDbEntity
  8
SUNPOU
100
AcDbDimension
  2
*D27
 10
272.6271666799905
 20
76.17398945518456
 30
0.0
 11
268.1152845948498
 21
86.08610683820112
 31
0.0
 70
   160
  3
SUNPOU_2
100
AcDbAlignedDimension
 13
272.6271666799905
 23
73.17398945518451
 33
0.0
 14
261.8804920913884
 24
76.17398945518456
 34
0.0
 50
90.0
100
AcDbRotatedDimension
  0
DIMENSION
  5
196C
330
A
100
AcDbEntity
  8
SUNPOU
100
AcDbDimension
  2
*D28
 10
283.1139317995123
 20
76.17398945518463
 30
0.0
 11
278.6139317995123
 21
63.67398945518466
 31
0.0
 70
    32
  3
SUNPOU_2
100
AcDbAlignedDimension
 13
246.8804920913883
 23
51.17398945518463
 33
0.0
 14
261.8804920913884
 24
76.17398945518463
 34
0.0
 50
90.0
100
AcDbRotatedDimension
  0
LINE
  5
196D
330
A
100
AcDbEntity
  8
06
100
AcDbLine
 10
230.8804920913879
 20
58.1739894551845
 30
0.0
 11
230.8804920913879
 21
83.45983105729798
 31
0.0
  0
LINE
  5
196E
330
A
100
AcDbEntity
  8
06
100
AcDbLine
 10
245.8804920913879
 20
58.1739894551845
 30
0.0
 11
230.8804920913879
 21
58.1739894551845
 31
0.0
  0
LINE
  5
196F
330
A
100
AcDbEntity
  8
06
100
AcDbLine
 10
245.8804920913879
 20
83.45983105729805
 30
0.0
 11
245.8804920913879
 21
58.1739894551845
 31
0.0
  0
LINE
  5
1970
330
A
100
AcDbEntity
  8
KAKURE
100
AcDbLine
 10
221.1804920913881
 20
49.67398945518457
 30
0.0
 11
221.1804920913881
 21
74.67398945518457
 31
0.0
  0
LINE
  5
1971
330
A
100
AcDbEntity
  8
KAKURE
100
AcDbLine
 10
259.580492091388
 20
49.67398945518457
 30
0.0
 11
221.1804920913881
 21
49.67398945518457
 31
0.0
  0
LINE
  5
1972
330
A
100
AcDbEntity
  8
KAKURE
100
AcDbLine
 10
259.580492091388
 20
74.67398945518457
 30
0.0
 11
259.580492091388
 21
49.67398945518457
 31
0.0
  0
LINE
  5
1973
330
A
100
AcDbEntity
  8
KAKURE
100
AcDbLine
 10
218.880492091388
 20
61.17398945518463
 30
0.0
 11
218.880492091388
 21
49.67398945518457
 31
0.0
  0
LINE
  5
1974
330
A
100
AcDbEntity
  8
KAKURE
100
AcDbLine
 10
261.8804920913884
 20
49.67398945518457
 30
0.0
 11
261.8804920913884
 21
61.17398945518463
 31
0.0
  0
ARC
  5
1976
330
A
100
AcDbEntity
  8
03
100
AcDbCircle
 10
218.880492091388
 20
74.67398945518457
 30
0.0
 40
1.5
100
AcDbArc
 50
90.0
 51
180.0
  0
ARC
  5
1977
330
A
100
AcDbEntity
  8
03
100
AcDbCircle
 10
228.3804920913881
 20
74.67398945518457
 30
0.0
 40
1.5
100
AcDbArc
 50
0.0
 51
90.0
  0
ARC
  5
1978
330
A
100
AcDbEntity
  8
03
100
AcDbCircle
 10
229.8804920913882
 20
51.17398945518463
 30
0.0
 40
1.5
100
AcDbArc
 50
180.0
 51
270.0
  0
ARC
  5
1979
330
A
100
AcDbEntity
  8
03
100
AcDbCircle
 10
246.8804920913883
 20
51.17398945518463
 30
0.0
 40
1.5
100
AcDbArc
 50
270.0
 51
0.0
  0
ARC
  5
197A
330
A
100
AcDbEntity
  8
03
100
AcDbCircle
 10
248.3804920913881
 20
74.67398945518457
 30
0.0
 40
1.5
100
AcDbArc
 50
90.0
 51
180.0
  0
ARC
  5
197B
330
A
100
AcDbEntity
  8
03
100
AcDbCircle
 10
261.8804920913884
 20
74.67398945518457
 30
0.0
 40
1.5
100
AcDbArc
 50
0.0
 51
90.0
  0
LINE
  5
197C
330
A
100
AcDbEntity
  8
03
100
AcDbLine
 10
261.8804920913884
 20
61.17398945518463
 30
0.0
 11
261.8804920913884
 21
74.67398945518457
 31
0.0
  0
LINE
  5
197D
330
A
100
AcDbEntity
  8
03
100
AcDbLine
 10
218.880492091388
 20
61.17398945518463
 30
0.0
 11
218.880492091388
 21
74.67398945518457
 31
0.0
  0
LINE
  5
197E
330
A
100
AcDbEntity
  8
03
100
AcDbLine
 10
228.3804920913881
 20
74.67398945518457
 30
0.0
 11
218.880492091388
 21
74.67398945518457
 31
0.0
  0
LINE
  5
197F
330
A
100
AcDbEntity
  8
03
100
AcDbLine
 10
228.3804920913881
 20
51.17398945518463
 30
0.0
 11
228.3804920913881
 21
74.67398945518457
 31
0.0
  0
LINE
  5
1980
330
A
100
AcDbEntity
  8
03
100
AcDbLine
 10
246.8804920913883
 20
49.67398945518457
 30
0.0
 11
229.8804920913882
 21
49.67398945518457
 31
0.0
  0
LINE
  5
1981
330
A
100
AcDbEntity
  8
03
100
AcDbLine
 10
248.3804920913881
 20
74.67398945518457
 30
0.0
 11
248.3804920913881
 21
51.17398945518463
 31
0.0
  0
LINE
  5
1982
330
A
100
AcDbEntity
  8
03
100
AcDbLine
 10
261.8804920913884
 20
74.67398945518457
 30
0.0
 11
248.3804920913881
 21
74.67398945518457
 31
0.0
  0
LINE
  5
1983
330
A
100
AcDbEntity
  8
03
100
AcDbLine
 10
263.3804920913882
 20
61.17398945518463
 30
0.0
 11
261.8804920913884
 21
61.17398945518463
 31
0.0
  0
LINE
  5
1984
330
A
100
AcDbEntity
  8
03
100
AcDbLine
 10
263.3804920913882
 20
74.67398945518457
 30
0.0
 11
263.3804920913882
 21
61.17398945518463
 31
0.0
  0
LINE
  5
1985
330
A
100
AcDbEntity
  8
03
100
AcDbLine
 10
248.3804920913881
 20
76.17398945518463
 30
0.0
 11
261.8804920913884
 21
76.17398945518463
 31
0.0
  0
LINE
  5
1986
330
A
100
AcDbEntity
  8
03
100
AcDbLine
 10
246.8804920913883
 20
51.17398945518463
 30
0.0
 11
246.8804920913883
 21
74.67398945518457
 31
0.0
  0
LINE
  5
1987
330
A
100
AcDbEntity
  8
03
100
AcDbLine
 10
229.8804920913882
 20
51.17398945518463
 30
0.0
 11
246.8804920913883
 21
51.17398945518463
 31
0.0
  0
LINE
  5
1988
330
A
100
AcDbEntity
  8
03
100
AcDbLine
 10
229.8804920913882
 20
74.67398945518457
 30
0.0
 11
229.8804920913882
 21
51.17398945518463
 31
0.0
  0
LINE
  5
1989
330
A
100
AcDbEntity
  8
03
100
AcDbLine
 10
218.880492091388
 20
76.17398945518463
 30
0.0
 11
228.3804920913881
 21
76.17398945518463
 31
0.0
  0
LINE
  5
198A
330
A
100
AcDbEntity
  8
03
100
AcDbLine
 10
217.3804920913882
 20
61.17398945518463
 30
0.0
 11
217.3804920913882
 21
74.67398945518457
 31
0.0
  0
LINE
  5
198B
330
A
100
AcDbEntity
  8
03
100
AcDbLine
 10
218.880492091388
 20
61.17398945518463
 30
0.0
 11
217.3804920913882
 21
61.17398945518463
 31
0.0
  0
LINE
  5
198C
330
A
100
AcDbEntity
  8
06
100
AcDbLine
 10
222.3804920913881
 20
83.17398945518451
 30
0.0
 11
227.3304920913883
 21
83.17398945518451
 31
0.0
  0
LINE
  5
198D
330
A
100
AcDbEntity
  8
06
100
AcDbLine
 10
249.4350162895087
 20
83.1739894551845
 30
0.0
 11
254.3804920913879
 21
83.17398945518451
 31
0.0
  0
ARC
  5
198F
330
A
100
AcDbEntity
  8
KAKURE
100
AcDbCircle
 10
259.580492091388
 20
49.67398945518457
 30
0.0
 40
2.299999999999998
100
AcDbArc
 50
270.0
 51
0.0
  0
ARC
  5
1990
330
A
100
AcDbEntity
  8
KAKURE
100
AcDbCircle
 10
221.1804920913881
 20
49.67398945518457
 30
0.0
 40
2.299999999999998
100
AcDbArc
 50
180.0
 51
270.0
  0
LINE
  5
1991
330
A
100
AcDbEntity
  8
KAKURE
100
AcDbLine
 10
221.1804920913881
 20
47.37398945518466
 30
0.0
 11
259.580492091388
 21
47.37398945518466
 31
0.0
  0
LINE
  5
19A2
330
A
100
AcDbEntity
  8
06
100
AcDbLine
 10
235.380492091388
 20
142.8739894551847
 30
0.0
 11
241.380492091388
 21
142.8739894551847
 31
0.0
  0
ARC
  5
19AD
330
A
100
AcDbEntity
  8
06
100
AcDbCircle
 10
243.8804920913879
 20
175.24505726705
 30
0.0
 40
7.5
100
AcDbArc
 50
250.5287793655087
 51
289.4712206344911
  0
ARC
  5
19AE
330
A
100
AcDbEntity
  8
06
100
AcDbCircle
 10
232.8804920913879
 20
175.24505726705
 30
0.0
 40
7.5
100
AcDbArc
 50
250.5287793655087
 51
289.4712206344911
  0
ARC
  5
19B4
330
A
100
AcDbEntity
  8
06
100
AcDbCircle
 10
224.6304920913881
 20
167.4239894551845
 30
0.0
 40
0.7500000000000001
100
AcDbArc
 50
90.0
 51
180.0
  0
LINE
  5
19B5
330
A
100
AcDbEntity
  8
06
100
AcDbLine
 10
223.8804920913882
 20
167.4239894551845
 30
0.0
 11
223.8804920913882
 21
83.17398945518451
 31
0.0
  0
ARC
  5
19B6
330
A
100
AcDbEntity
  8
06
100
AcDbCircle
 10
252.1304920913882
 20
167.4239894551845
 30
0.0
 40
0.7500000000000001
100
AcDbArc
 50
0.0
 51
90.0
  0
LINE
  5
19B7
330
A
100
AcDbEntity
  8
06
100
AcDbLine
 10
252.8804920913878
 20
167.4239894551845
 30
0.0
 11
252.8804920913878
 21
83.17398945518451
 31
0.0
  0
LINE
  5
19B8
330
A
100
AcDbEntity
  8
06
100
AcDbLine
 10
225.3804920913879
 20
166.6739894551845
 30
0.0
 11
225.3804920913879
 21
83.17398945518451
 31
0.0
  0
LINE
  5
19B9
330
A
100
AcDbEntity
  8
06
100
AcDbLine
 10
251.3804920913879
 20
166.6739894551845
 30
0.0
 11
251.3804920913879
 21
83.17398945518451
 31
0.0
  0
LINE
  5
19BA
330
A
100
AcDbEntity
  8
06
100
AcDbLine
 10
230.3804920913879
 20
166.6739894551845
 30
0.0
 11
225.3804920913879
 21
166.6739894551845
 31
0.0
  0
LINE
  5
19BB
330
A
100
AcDbEntity
  8
06
100
AcDbLine
 10
230.3804920913879
 20
168.1739894551845
 30
0.0
 11
224.6304920913881
 21
168.1739894551845
 31
0.0
  0
LINE
  5
19BD
330
A
100
AcDbEntity
  8
06
100
AcDbLine
 10
246.3804920913879
 20
166.6739894551845
 30
0.0
 11
251.3804920913879
 21
166.6739894551845
 31
0.0
  0
LINE
  5
19BE
330
A
100
AcDbEntity
  8
06
100
AcDbLine
 10
246.3804920913879
 20
168.1739894551845
 30
0.0
 11
252.130492091388
 21
168.1739894551845
 31
0.0
  0
LINE
  5
19C0
330
A
100
AcDbEntity
  8
06
100
AcDbLine
 10
235.380492091388
 20
142.8739894551847
 30
0.0
 11
235.3804920913879
 21
178.1739894551845
 31
0.0
  0
LINE
  5
19C1
330
A
100
AcDbEntity
  8
06
100
AcDbLine
 10
235.8804920913882
 20
178.1739894551845
 30
0.0
 11
235.8804920913882
 21
142.8739894551848
 31
0.0
  0
LINE
  5
19C2
330
A
100
AcDbEntity
  8
06
100
AcDbLine
 10
240.8804920913882
 20
142.8739894551848
 30
0.0
 11
240.8804920913881
 21
178.1739894551845
 31
0.0
  0
LINE
  5
19C3
330
A
100
AcDbEntity
  8
06
100
AcDbLine
 10
241.3804920913879
 20
178.1739894551845
 30
0.0
 11
241.380492091388
 21
142.8739894551847
 31
0.0
  0
LINE
  5
19C4
330
A
100
AcDbEntity
  8
06
100
AcDbLine
 10
222.3804920913881
 20
178.1739894551845
 30
0.0
 11
222.3804920913881
 21
83.17398945518451
 31
0.0
  0
LINE
  5
19C5
330
A
100
AcDbEntity
  8
06
100
AcDbLine
 10
254.3804920913879
 20
178.1739894551845
 30
0.0
 11
254.3804920913879
 21
83.17398945518451
 31
0.0
  0
LINE
  5
19C6
330
A
100
AcDbEntity
  8
03
100
AcDbLine
 10
217.3804920913882
 20
173.1739894551844
 30
0.0
 11
217.3804920913882
 21
74.29352767558495
 31
0.0
  0
LINE
  5
19F5
330
A
100
AcDbEntity
  8
03
100
AcDbLine
 10
263.380492091388
 20
73.17398945518451
 30
0.0
 11
387.7275922671353
 21
73.17398945518451
 31
0.0
  0
LINE
  5
1A47
330
A
100
AcDbEntity
  8
06
100
AcDbLine
 10
246.3804920913883
 20
219.8576449912125
 30
0.0
 11
230.3804920913883
 21
219.8576449912125
 31
0.0
  0
LINE
  5
1A48
330
A
100
AcDbEntity
  8
06
100
AcDbLine
 10
230.3804920913883
 20
219.8576449912125
 30
0.0
 11
230.3804920913881
 21
191.3576449912125
 31
0.0
  0
LINE
  5
1A49
330
A
100
AcDbEntity
  8
06
100
AcDbLine
 10
246.3804920913886
 20
191.3576449912125
 30
0.0
 11
246.3804920913883
 21
219.8576449912125
 31
0.0
  0
LINE
  5
1A4A
330
A
100
AcDbEntity
  8
06
100
AcDbLine
 10
230.3804920913883
 20
139.6739894551847
 30
0.0
 11
246.3804920913883
 21
139.6739894551847
 31
0.0
  0
LINE
  5
1A4B
330
A
100
AcDbEntity
  8
06
100
AcDbLine
 10
230.3804920913879
 20
168.1739894551845
 30
0.0
 11
230.3804920913883
 21
139.6739894551847
 31
0.0
  0
LINE
  5
1A4C
330
A
100
AcDbEntity
  8
06
100
AcDbLine
 10
246.3804920913883
 20
139.6739894551847
 30
0.0
 11
246.3804920913878
 21
168.1739894551845
 31
0.0
  0
LINE
  5
1AC5
330
A
100
AcDbEntity
  8
KAKURE
100
AcDbLine
 10
205.3804920913883
 20
330.6176449912126
 30
0.0
 11
217.3804920913883
 21
330.6176449912126
 31
0.0
  0
CIRCLE
  5
1ADE
330
A
100
AcDbEntity
  8
SAISEN
100
AcDbCircle
 10
392.0976380784291
 20
49.5430264122316
 30
0.0
 40
5.0
  0
TEXT
  5
1ADF
330
A
100
AcDbEntity
  8
MOJI
100
AcDbText
 10
389.0488190392131
 20
45.27151320611588
 30
0.0
 40
8.0
  1
Ｓ
 41
0.8
  7
0_8
 11
389.0488190392131
 21
53.27151320611588
 31
0.0
100
AcDbText
 73
     3
  0
MTEXT
  5
1BF3
330
A
100
AcDbEntity
  8
MOJI
100
AcDbMText
 10
360.999999999997
 20
28.50000000000011
 30
0.0
 40
7.0
 41
49.99999999999994
 71
     5
 72
     1
  1
たて断面図　
  7
0_80
1001
ACAD
1000
MTEXTBEGIN
1070
    73
1070
     1
1070
    44
1040
1.0
1070
    74
1070
     0
1000
MTEXTEND
1000
MTEXTBEGIN
1070
    73
1070
     1
1070
    44
1040
1.0
1070
    74
1070
     0
1000
MTEXTEND
  0
MTEXT
  5
1BF4
330
A
100
AcDbEntity
  8
MOJI
100
AcDbMText
 10
310.9999999999968
 20
29.0
 30
0.0
 40
7.0
 41
50.0
 71
     5
 72
     1
  1
図番３－７
  7
0_80
1001
ACAD
1000
MTEXTBEGIN
1070
    73
1070
     1
1070
    44
1040
1.0
1070
    74
1070
     0
1000
MTEXTEND
1000
MTEXTBEGIN
1070
    73
1070
     1
1070
    44
1040
1.0
1070
    74
1070
     0
1000
MTEXTEND
  0
LINE
  5
1BF5
330
A
100
AcDbEntity
  8
SAISEN
100
AcDbLine
 10
285.999999999997
 20
41.00000000000022
 30
0.0
 11
285.999999999997
 21
17.0
 31
0.0
  0
LINE
  5
1BF6
330
A
100
AcDbEntity
  8
SAISEN
100
AcDbLine
 10
225.999999999997
 20
41.00000000000022
 30
0.0
 11
225.999999999997
 21
17.0
 31
0.0
  0
MTEXT
  5
1BF8
330
A
100
AcDbEntity
  8
MOJI
100
AcDbMText
 10
145.9999999999969
 20
29.00000000000011
 30
0.0
 40
7.0
 41
80.0
 71
     4
 72
     1
  1
 ＳＯＶ－　６０ＫＬＴＭ\P ＳＯＶ－１５０ＫＬＴＭ
  7
0_8
1001
ACAD
1000
MTEXTBEGIN
1070
    73
1070
     1
1070
    44
1040
1.0
1070
    74
1070
     0
1000
MTEXTEND
1000
MTEXTBEGIN
1070
    73
1070
     1
1070
    44
1040
1.0
1070
    74
1070
     0
1000
MTEXTEND
  0
LINE
  5
1BF9
330
A
100
AcDbEntity
  8
SAISEN
100
AcDbLine
 10
145.9999999999969
 20
41.00000000000022
 30
0.0
 11
145.9999999999969
 21
17.0
 31
0.0
  0
MTEXT
  5
1BFA
330
A
100
AcDbEntity
  8
MOJI
100
AcDbMText
 10
90.99999999999701
 20
29.00000000000011
 30
0.0
 40
6.5
 41
110.0
 71
     5
 72
     1
  1
ステンレスサッシ 枠見込１３５mm\Pφ６０戸車使用納り例
  7
0_8
1001
ACAD
1000
MTEXTBEGIN
1070
    73
1070
     1
1070
    44
1040
1.0
1070
    74
1070
     0
1000
MTEXTEND
1000
MTEXTBEGIN
1070
    73
1070
     1
1070
    44
1040
1.0
1070
    74
1070
     0
1000
MTEXTEND
  0
POLYLINE
  5
1BFB
330
A
100
AcDbEntity
  8
SAISEN
100
AcDb2dPolyline
 66
     1
 10
0.0
 20
0.0
 30
0.0
 70
     1
  0
VERTEX
  5
1C60
330
1BFB
100
AcDbEntity
  8
SAISEN
100
AcDbVertex
100
AcDb2dVertex
 10
35.99999999999698
 20
17.0
 30
0.0
  0
VERTEX
  5
1C61
330
1BFB
100
AcDbEntity
  8
SAISEN
100
AcDbVertex
100
AcDb2dVertex
 10
385.999999999997
 20
17.0
 30
0.0
  0
VERTEX
  5
1C62
330
1BFB
100
AcDbEntity
  8
SAISEN
100
AcDbVertex
100
AcDb2dVertex
 10
385.999999999997
 20
41.00000000000022
 30
0.0
  0
VERTEX
  5
1C63
330
1BFB
100
AcDbEntity
  8
SAISEN
100
AcDbVertex
100
AcDb2dVertex
 10
35.99999999999698
 20
41.00000000000022
 30
0.0
  0
SEQEND
  5
1C64
330
1BFB
100
AcDbEntity
  8
SAISEN
  0
MTEXT
  5
1C16
330
A
100
AcDbEntity
  8
MOJI
100
AcDbMText
 10
255.9999999999969
 20
29.00000000000011
 30
0.0
 40
7.0
 41
60.0
 71
     5
 72
     1
  1
片引き又は両引き
  7
0_80
1001
ACAD
1000
MTEXTBEGIN
1070
    73
1070
     1
1070
    44
1040
1.0
1070
    74
1070
     0
1000
MTEXTEND
1000
MTEXTBEGIN
1070
    73
1070
     1
1070
    44
1040
1.0
1070
    74
1070
     0
1000
MTEXTEND
  0
VIEWPORT
  5
714
102
{ACAD_XDICTIONARY
360
1C40
102
}
330
B
100
AcDbEntity
 67
     1
  8
0
100
AcDbViewport
 10
198.0628952545769
 20
285.1953640037304
 30
0.0
 40
1078.243506057541
 41
628.2954051513671
 68
     1
 69
     1
1001
ACAD
1000
MVIEW
1002
{
1070
    16
1010
0.0
1020
0.0
1030
0.0
1010
0.0
1020
0.0
1030
1.0
1040
0.0
1040
628.2954051513671
1040
198.0628952545769
1040
285.1953640037304
1040
50.0
1040
0.0
1040
0.0
1070
     0
1070
   100
1070
     1
1070
     1
1070
     0
1070
     0
1070
     0
1070
     0
1040
0.0
1040
0.0
1040
0.0
1040
10.0
1040
10.0
1040
10.0
1040
10.0
1070
     0
1002
{
1002
}
1002
}
  0
VIEWPORT
  5
1C2A
102
{ACAD_XDICTIONARY
360
1C46
102
}
330
B
100
AcDbEntity
 67
     1
  8
DEFPOINTS
100
AcDbViewport
 10
198.0628962082512
 20
285.1953630500561
 30
0.0
 40
396.4516582489013
 41
570.3569965362548
 68
     2
 69
     2
1001
ACAD
1000
MVIEW
1002
{
1070
    16
1010
0.0
1020
0.0
1030
0.0
1010
0.0
1020
0.0
1030
1.0
1040
0.0
1040
570.3569965362548
1040
210.0
1040
297.0
1040
50.0
1040
0.0
1040
0.0
1070
     0
1070
   100
1070
     1
1070
     1
1070
     0
1070
     0
1070
     0
1070
     0
1040
0.0
1040
0.0
1040
0.0
1040
1.0
1040
1.0
1040
0.0
1040
0.0
1070
     0
1002
{
1002
}
1002
}
  0
ENDSEC
  0
SECTION
  2
OBJECTS
  0
DICTIONARY
  5
19
330
0
100
AcDbDictionary
  3
ACAD_COLOR
350
6CD
  3
ACAD_GROUP
350
1A
  3
ACAD_LAYOUT
350
55C
  3
ACAD_MATERIAL
350
6CC
  3
ACAD_MLINESTYLE
350
1B
  3
ACAD_PLOTSETTINGS
350
55D
  3
ACADDIM
350
9AA
  3
ASE_INDEX_DICTIONARY
350
1BDE
1001
ACAD
1000
TREAT_AS_HARD
1070
     0
1000
TREAT_AS_HARD
1070
     0
1000
TREAT_AS_HARD
1070
     0
  0
DICTIONARY
  5
1BE3
330
2
100
AcDbDictionary
  3
ACAD_LAYERSTATES
350
1BE4
1001
ACAD
1000
TREAT_AS_HARD
1070
     1
  0
DICTIONARY
  5
1B7B
330
A
100
AcDbDictionary
  3
ACAD_LAYOUTSELFREF
350
1C4E
1001
ACAD
1000
TREAT_AS_HARD
1070
     0
1000
TREAT_AS_HARD
1070
     1
  0
DICTIONARY
  5
1B7D
330
B
100
AcDbDictionary
  3
ACAD_LAYOUTSELFREF
350
1C4F
1001
ACAD
1000
TREAT_AS_HARD
1070
     0
1000
TREAT_AS_HARD
1070
     1
  0
DICTIONARY
  5
1C40
330
714
100
AcDbDictionary
  3
ACAD_XREC_ROUNDTRIP
350
1C41
1001
ACAD
1000
TREAT_AS_HARD
1070
     1
  0
DICTIONARY
  5
1C46
330
1C2A
100
AcDbDictionary
  3
ACAD_XREC_ROUNDTRIP
350
1C47
1001
ACAD
1000
TREAT_AS_HARD
1070
     1
  0
DICTIONARY
  5
6CD
102
{ACAD_REACTORS
330
19
102
}
330
19
100
AcDbDictionary
1001
ACAD
1000
TREAT_AS_HARD
1070
     0
1000
TREAT_AS_HARD
1070
     0
1000
TREAT_AS_HARD
1070
     0
  0
DICTIONARY
  5
1A
102
{ACAD_REACTORS
330
19
102
}
330
19
100
AcDbDictionary
  3
DAGROUP40A
350
40A
  3
DAGROUP40E
350
40E
  3
DAGROUP443
350
443
  3
DAGROUP446
350
446
  3
DAGROUP449
350
449
  3
DAGROUP44C
350
44C
  3
DAGROUP450
350
450
  3
DAGROUP454
350
454
  3
DAGROUP458
350
458
  3
DAGROUP45C
350
45C
  3
DAGROUP460
350
460
  3
DAGROUP557
350
557
1001
ACAD
1000
TREAT_AS_HARD
1070
     0
1000
TREAT_AS_HARD
1070
     0
1000
TREAT_AS_HARD
1070
     0
  0
DICTIONARY
  5
55C
102
{ACAD_REACTORS
330
19
102
}
330
19
100
AcDbDictionary
1001
ACAD
1000
TREAT_AS_HARD
1070
     0
1000
TREAT_AS_HARD
1070
     0
1000
TREAT_AS_HARD
1070
     0
  0
DICTIONARY
  5
6CC
102
{ACAD_REACTORS
330
19
102
}
330
19
100
AcDbDictionary
1001
ACAD
1000
TREAT_AS_HARD
1070
     0
1000
TREAT_AS_HARD
1070
     0
1000
TREAT_AS_HARD
1070
     0
  0
DICTIONARY
  5
1B
102
{ACAD_REACTORS
330
19
102
}
330
19
100
AcDbDictionary
  3
STANDARD
350
1C
1001
ACAD
1000
TREAT_AS_HARD
1070
     0
1000
TREAT_AS_HARD
1070
     0
1000
TREAT_AS_HARD
1070
     0
  0
DICTIONARY
  5
55D
102
{ACAD_REACTORS
330
19
102
}
330
19
100
AcDbDictionary
1001
ACAD
1000
TREAT_AS_HARD
1070
     0
1000
TREAT_AS_HARD
1070
     0
1000
TREAT_AS_HARD
1070
     0
  0
XRECORD
  5
9AA
102
{ACAD_REACTORS
330
19
102
}
330
19
100
AcDbXrecord
 90
   990106
  3

 60
     0
 61
     0
 62
     4
 63
     4
 64
     1
 65
     0
 66
     0
 67
     3
 68
     1
 69
     0
 70
     0
 71
     0
 72
     0
 40
0.0
170
     2
340
9AD
  0
DICTIONARY
  5
1BDE
102
{ACAD_REACTORS
330
19
102
}
330
19
100
AcDbDictionary
  3
ASEBLOCKHIERARCHYINDEXRECORD
350
1BDF
1001
DCO15
1040
1508669080.687
1001
ACAD
1000
TREAT_AS_HARD
1070
     0
  0
DICTIONARY
  5
1BE4
102
{ACAD_REACTORS
330
1BE3
102
}
330
1BE3
100
AcDbDictionary
1001
ACAD
1000
TREAT_AS_HARD
1070
     0
  0
XRECORD
  5
1C4E
102
{ACAD_REACTORS
330
1B7B
102
}
330
1B7B
100
AcDbXrecord
340
A
  0
XRECORD
  5
1C4F
102
{ACAD_REACTORS
330
1B7D
102
}
330
1B7D
100
AcDbXrecord
340
B
  0
XRECORD
  5
1C41
102
{ACAD_REACTORS
330
1C40
102
}
330
1C40
100
AcDbXrecord
102
SHADEPLOT
 70
     0
  0
XRECORD
  5
1C47
102
{ACAD_REACTORS
330
1C46
102
}
330
1C46
100
AcDbXrecord
102
SHADEPLOT
 70
     0
  0
GROUP
  5
40A
102
{ACAD_REACTORS
330
1A
102
}
330
1A
100
AcDbGroup
300

 70
     0
 71
     1
  0
GROUP
  5
40E
102
{ACAD_REACTORS
330
1A
102
}
330
1A
100
AcDbGroup
300

 70
     0
 71
     1
  0
GROUP
  5
443
102
{ACAD_REACTORS
330
1A
102
}
330
1A
100
AcDbGroup
300

 70
     0
 71
     1
  0
GROUP
  5
446
102
{ACAD_REACTORS
330
1A
102
}
330
1A
100
AcDbGroup
300

 70
     0
 71
     1
  0
GROUP
  5
449
102
{ACAD_REACTORS
330
1A
102
}
330
1A
100
AcDbGroup
300

 70
     0
 71
     1
  0
GROUP
  5
44C
102
{ACAD_REACTORS
330
1A
102
}
330
1A
100
AcDbGroup
300

 70
     0
 71
     1
  0
GROUP
  5
450
102
{ACAD_REACTORS
330
1A
102
}
330
1A
100
AcDbGroup
300

 70
     0
 71
     1
  0
GROUP
  5
454
102
{ACAD_REACTORS
330
1A
102
}
330
1A
100
AcDbGroup
300

 70
     0
 71
     1
  0
GROUP
  5
458
102
{ACAD_REACTORS
330
1A
102
}
330
1A
100
AcDbGroup
300

 70
     0
 71
     1
  0
GROUP
  5
45C
102
{ACAD_REACTORS
330
1A
102
}
330
1A
100
AcDbGroup
300

 70
     0
 71
     1
  0
GROUP
  5
460
102
{ACAD_REACTORS
330
1A
102
}
330
1A
100
AcDbGroup
300

 70
     0
 71
     1
  0
GROUP
  5
557
102
{ACAD_REACTORS
330
1A
102
}
330
1A
100
AcDbGroup
300

 70
     0
 71
     1
  0
MLINESTYLE
  5
1C
102
{ACAD_REACTORS
330
1B
102
}
330
1B
100
AcDbMlineStyle
  2
STANDARD
 70
     0
  3

 62
     0
 51
90.00000000000019
 52
90.00000000000019
 71
     2
 49
0.5
 62
   256
  6
BYLAYER
 49
-0.5
 62
   256
  6
BYLAYER
  0
XRECORD
  5
1BDF
102
{ACAD_REACTORS
330
1BDE
102
}
330
1BDE
100
AcDbXrecord
330
E64
330
1535
330
1536
330
1529
330
152A
330
1521
330
1522
330
1515
330
1516
330
150C
330
150D
330
1504
330
1505
330
14FB
330
14FC
330
14F0
330
14F1
330
14E4
330
14E5
330
14DC
330
14DD
330
14D2
330
14D3
330
14CA
330
14CB
330
14BF
330
14C0
330
18A8
330
18A9
330
14AD
330
14AE
330
14A3
330
14A4
330
149B
330
149C
330
1491
330
1492
330
1488
330
1489
330
147F
330
1480
330
189F
330
18A0
330
1894
330
1895
330
1462
330
1463
330
188B
330
188C
330
144E
330
144F
330
1447
330
1448
330
19E7
330
19E8
330
19EF
330
19F0
  0
ENDSEC
  0
EOF
