  0
SECTION
  2
HEADER
  9
$ACADVER
  1
AC1012
  9
$DWGCODEPAGE
  3
dos932
  9
$INSBASE
 10
0.0
 20
0.0
 30
0.0
  9
$EXTMIN
 10
0.0
 20
0.0
 30
0.0
  9
$EXTMAX
 10
420.0000000000001
 20
594.0
 30
0.0
  9
$LIMMIN
 10
0.0
 20
0.0
  9
$LIMMAX
 10
420.0000000000001
 20
594.0
  9
$ORTHOMODE
 70
     1
  9
$REGENMODE
 70
     1
  9
$FILLMODE
 70
     1
  9
$QTEXTMODE
 70
     0
  9
$MIRRTEXT
 70
     1
  9
$DRAGMODE
 70
     2
  9
$LTSCALE
 40
0.3
  9
$OSMODE
 70
    37
  9
$ATTMODE
 70
     1
  9
$TEXTSIZE
 40
7.0
  9
$TRACEWID
 40
0.05
  9
$TEXTSTYLE
  7
STANDARD
  9
$CLAYER
  8
0
  9
$CELTYPE
  6
BYLAYER
  9
$CECOLOR
 62
   256
  9
$CELTSCALE
 40
1.0
  9
$DELOBJ
 70
     1
  9
$DISPSILH
 70
     0
  9
$DIMSCALE
 40
2.0
  9
$DIMASZ
 40
2.5
  9
$DIMEXO
 40
1.5
  9
$DIMDLI
 40
0.0
  9
$DIMRND
 40
0.0
  9
$DIMDLE
 40
0.0
  9
$DIMEXE
 40
1.0
  9
$DIMTP
 40
0.0
  9
$DIMTM
 40
0.0
  9
$DIMTXT
 40
2.5
  9
$DIMCEN
 40
0.0
  9
$DIMTSZ
 40
0.0
  9
$DIMTOL
 70
     0
  9
$DIMLIM
 70
     0
  9
$DIMTIH
 70
     0
  9
$DIMTOH
 70
     0
  9
$DIMSE1
 70
     0
  9
$DIMSE2
 70
     0
  9
$DIMTAD
 70
     1
  9
$DIMZIN
 70
     8
  9
$DIMBLK
  1
OPEN30
  9
$DIMASO
 70
     1
  9
$DIMSHO
 70
     1
  9
$DIMPOST
  1

  9
$DIMAPOST
  1

  9
$DIMALT
 70
     0
  9
$DIMALTD
 70
     2
  9
$DIMALTF
 40
25.4
  9
$DIMLFAC
 40
1.0
  9
$DIMTOFL
 70
     1
  9
$DIMTVP
 40
0.0
  9
$DIMTIX
 70
     0
  9
$DIMSOXD
 70
     0
  9
$DIMSAH
 70
     0
  9
$DIMBLK1
  1

  9
$DIMBLK2
  1

  9
$DIMSTYLE
  2
SUNPOU_2
  9
$DIMCLRD
 70
   256
  9
$DIMCLRE
 70
   256
  9
$DIMCLRT
 70
   256
  9
$DIMTFAC
 40
1.0
  9
$DIMGAP
 40
1.0
  9
$DIMJUST
 70
     0
  9
$DIMSD1
 70
     0
  9
$DIMSD2
 70
     0
  9
$DIMTOLJ
 70
     1
  9
$DIMTZIN
 70
     0
  9
$DIMALTZ
 70
     0
  9
$DIMALTTZ
 70
     0
  9
$DIMFIT
 70
     3
  9
$DIMUPT
 70
     0
  9
$DIMUNIT
 70
     2
  9
$DIMDEC
 70
     1
  9
$DIMTDEC
 70
     1
  9
$DIMALTU
 70
     2
  9
$DIMALTTD
 70
     2
  9
$DIMTXSTY
  7
SUNPOU
  9
$DIMAUNIT
 70
     0
  9
$LUNITS
 70
     2
  9
$LUPREC
 70
     4
  9
$SKETCHINC
 40
0.1
  9
$FILLETRAD
 40
0.0
  9
$AUNITS
 70
     0
  9
$AUPREC
 70
     0
  9
$MENU
  1
acad
  9
$ELEVATION
 40
0.0
  9
$PELEVATION
 40
0.0
  9
$THICKNESS
 40
0.0
  9
$LIMCHECK
 70
     0
  9
$BLIPMODE
 70
     0
  9
$CHAMFERA
 40
0.0
  9
$CHAMFERB
 40
0.0
  9
$CHAMFERC
 40
0.0
  9
$CHAMFERD
 40
0.0
  9
$SKPOLY
 70
     0
  9
$TDCREATE
 40
2444972.375000000
  9
$TDUPDATE
 40
2453266.401609154
  9
$TDINDWG
 40
0.4071827315
  9
$TDUSRTIMER
 40
0.4071827315
  9
$USRTIMER
 70
     1
  9
$ANGBASE
 50
0.0
  9
$ANGDIR
 70
     0
  9
$PDMODE
 70
     0
  9
$PDSIZE
 40
1.0
  9
$PLINEWID
 40
0.0
  9
$COORDS
 70
     1
  9
$SPLFRAME
 70
     0
  9
$SPLINETYPE
 70
     6
  9
$SPLINESEGS
 70
     8
  9
$ATTDIA
 70
     0
  9
$ATTREQ
 70
     1
  9
$HANDLING
 70
-16383
  9
$HANDSEED
  5
20B9
  9
$SURFTAB1
 70
     6
  9
$SURFTAB2
 70
     6
  9
$SURFTYPE
 70
     6
  9
$SURFU
 70
     6
  9
$SURFV
 70
     6
  9
$UCSNAME
  2

  9
$UCSORG
 10
0.0
 20
0.0
 30
0.0
  9
$UCSXDIR
 10
1.0
 20
0.0
 30
0.0
  9
$UCSYDIR
 10
0.0
 20
1.0
 30
0.0
  9
$PUCSNAME
  2

  9
$PUCSORG
 10
0.0
 20
0.0
 30
0.0
  9
$PUCSXDIR
 10
1.0
 20
0.0
 30
0.0
  9
$PUCSYDIR
 10
0.0
 20
1.0
 30
0.0
  9
$USERI1
 70
     0
  9
$USERI2
 70
     0
  9
$USERI3
 70
     0
  9
$USERI4
 70
     0
  9
$USERI5
 70
     0
  9
$USERR1
 40
0.0
  9
$USERR2
 40
0.0
  9
$USERR3
 40
0.0
  9
$USERR4
 40
0.0
  9
$USERR5
 40
0.0
  9
$WORLDVIEW
 70
     1
  9
$SHADEDGE
 70
     3
  9
$SHADEDIF
 70
    70
  9
$TILEMODE
 70
     1
  9
$MAXACTVP
 70
    16
  9
$PINSBASE
 10
0.0
 20
0.0
 30
0.0
  9
$PLIMCHECK
 70
     0
  9
$PEXTMIN
 10
-0.1933276983398855
 20
-0.0174202791267817
 30
-0.0015258207003583
  9
$PEXTMAX
 10
396.2949895136353
 20
570.3923158424973
 30
0.0000000349246037
  9
$PLIMMIN
 10
-11.94191342824454
 20
-11.76600219398141
  9
$PLIMMAX
 10
408.0435733360149
 20
582.1408996648768
  9
$UNITMODE
 70
     0
  9
$VISRETAIN
 70
     0
  9
$PLINEGEN
 70
     1
  9
$PSLTSCALE
 70
     0
  9
$TREEDEPTH
 70
  3020
  9
$PICKSTYLE
 70
     1
  9
$CMLSTYLE
  2
STANDARD
  9
$CMLJUST
 70
     0
  9
$CMLSCALE
 40
1.0
  9
$SAVEIMAGES
 70
     1
  0
ENDSEC
  0
SECTION
  2
CLASSES
  0
CLASS
  1
LWPOLYLINE
  2
AcDbPolyline
  3
AutoCAD 2000
 90
    32768
280
     0
281
     1
  0
CLASS
  1
IMAGE
  2
AcDbRasterImage
  3
ISM
 90
    32895
280
     0
281
     1
  0
CLASS
  1
OLE2FRAME
  2
AcDbOle2Frame
  3
AutoCAD 2000
 90
    32768
280
     0
281
     1
  0
CLASS
  1
HATCH
  2
AcDbHatch
  3
AutoCAD 2000
 90
    32768
280
     0
281
     1
  0
CLASS
  1
DICTIONARYVAR
  2
AcDbDictionaryVar
  3
AutoCAD 2000
 90
    32768
280
     0
281
     0
  0
CLASS
  1
RASTERVARIABLES
  2
AcDbRasterVariables
  3
ISM
 90
    32768
280
     0
281
     0
  0
CLASS
  1
IMAGEDEF
  2
AcDbRasterImageDef
  3
ISM
 90
    32768
280
     0
281
     0
  0
CLASS
  1
IMAGEDEF_REACTOR
  2
AcDbRasterImageDefReactor
  3
ISM
 90
    32769
280
     0
281
     0
  0
CLASS
  1
IDBUFFER
  2
AcDbIdBuffer
  3
AutoCAD 2000
 90
    32768
280
     0
281
     0
  0
CLASS
  1
SPATIAL_FILTER
  2
AcDbSpatialFilter
  3
AutoCAD 2000
 90
    32768
280
     0
281
     0
  0
CLASS
  1
XRECORD
  2
AcDbXrecord
  3
AutoCAD 2000
 90
    32768
280
     0
281
     0
  0
CLASS
  1
SORTENTSTABLE
  2
AcDbSortentsTable
  3
AutoCAD 2000
 90
    32768
280
     0
281
     0
  0
CLASS
  1
LAYER_INDEX
  2
AcDbLayerIndex
  3
AutoCAD 2000
 90
    32768
280
     0
281
     0
  0
CLASS
  1
SPATIAL_INDEX
  2
AcDbSpatialIndex
  3
AutoCAD 2000
 90
    32768
280
     0
281
     0
  0
CLASS
  1
OBJECT_PTR
  2
CAseDLPNTableRecord
  3
ASE-LPNTableRecord
 90
    32769
280
     0
281
     0
  0
CLASS
  1
ACDBDICTIONARYWDFLT
  2
AcDbDictionaryWithDefault
  3
AutoCAD 2000
 90
    32768
280
     0
281
     0
  0
CLASS
  1
ACDBPLACEHOLDER
  2
AcDbPlaceHolder
  3
AutoCAD 2000
 90
    32768
280
     0
281
     0
  0
CLASS
  1
LAYOUT
  2
AcDbLayout
  3
AutoCAD 2000
 90
    32768
280
     0
281
     0
  0
CLASS
  1
LONG_TRANSACTION
  2
AcDbLongTransaction
  3
AutoCAD 2000
 90
    32768
280
     0
281
     0
  0
CLASS
  1
LWPOLYLINE
  2
AcDbPolyline
  3
AutoCAD 2000
 90
    32768
280
     0
281
     1
  0
CLASS
  1
HATCH
  2
AcDbHatch
  3
AutoCAD 2000
 90
    32768
280
     0
281
     1
  0
CLASS
  1
XRECORD
  2
AcDbXrecord
  3
AutoCAD 2000
 90
    32768
280
     0
281
     0
  0
CLASS
  1
LONG_TRANSACTION
  2
AcDbLongTransaction
  3
AutoCAD 2000
 90
    32768
280
     0
281
     0
  0
CLASS
  1
LWPOLYLINE
  2
AcDbPolyline
  3
AutoCAD 2000
 90
    32768
280
     0
281
     1
  0
CLASS
  1
HATCH
  2
AcDbHatch
  3
AutoCAD 2000
 90
    32768
280
     0
281
     1
  0
CLASS
  1
XRECORD
  2
AcDbXrecord
  3
AutoCAD 2000
 90
    32768
280
     0
281
     0
  0
ENDSEC
  0
SECTION
  2
TABLES
  0
TABLE
  2
VPORT
  5
7
330
0
100
AcDbSymbolTable
 70
     2
  0
VPORT
  5
2099
330
7
100
AcDbSymbolTableRecord
100
AcDbViewportTableRecord
  2
*ACTIVE
 70
     0
 10
0.0
 20
0.0
 11
1.0
 21
1.0
 12
229.3208028257667
 22
297.0000079528268
 13
0.0
 23
0.0
 14
1.0
 24
1.0
 15
0.0
 25
0.0
 16
0.0
 26
0.0
 36
1.0
 17
0.0
 27
0.0
 37
0.0
 40
601.2492275601783
 41
1.780442804428044
 42
50.0
 43
0.0
 44
0.0
 50
0.0
 51
0.0
 71
     0
 72
   100
 73
     1
 74
     1
 75
     0
 76
     0
 77
     0
 78
     0
  0
ENDTAB
  0
TABLE
  2
LTYPE
  5
4
330
0
100
AcDbSymbolTable
 70
     3
  0
LTYPE
  5
11
330
4
100
AcDbSymbolTableRecord
100
AcDbLinetypeTableRecord
  2
BYBLOCK
 70
     0
  3

 72
    65
 73
     0
 40
0.0
  0
LTYPE
  5
12
330
4
100
AcDbSymbolTableRecord
100
AcDbLinetypeTableRecord
  2
BYLAYER
 70
     0
  3

 72
    65
 73
     0
 40
0.0
  0
LTYPE
  5
13
330
4
100
AcDbSymbolTableRecord
100
AcDbLinetypeTableRecord
  2
CONTINUOUS
 70
     0
  3
Solid line
 72
    65
 73
     0
 40
0.0
  0
LTYPE
  5
5C8
330
4
100
AcDbSymbolTableRecord
100
AcDbLinetypeTableRecord
  2
CENTER2
 70
     0
  3
Center (.5x) ___ _ ___ _ ___ _ ___ _ ___ _ ___
 72
    65
 73
     4
 40
28.57499999999999
 49
19.05
 74
     0
 49
-3.174999999999998
 74
     0
 49
3.174999999999998
 74
     0
 49
-3.174999999999998
 74
     0
  0
LTYPE
  5
5C9
330
4
100
AcDbSymbolTableRecord
100
AcDbLinetypeTableRecord
  2
DASHED2
 70
     0
  3
Dashed (.5x) _ _ _ _ _ _ _ _ _ _ _ _ _ _ _ _ _
 72
    65
 73
     2
 40
9.524999999999996
 49
6.349999999999998
 74
     0
 49
-3.174999999999998
 74
     0
  0
ENDTAB
  0
TABLE
  2
LAYER
  5
2
102
{ACAD_XDICTIONARY
360
2022
102
}
330
0
100
AcDbSymbolTable
 70
    12
  0
LAYER
  5
14
330
2
100
AcDbSymbolTableRecord
100
AcDbLayerTableRecord
  2
0
 70
     0
 62
     7
  6
CONTINUOUS
  0
LAYER
  5
5CB
330
2
100
AcDbSymbolTableRecord
100
AcDbLayerTableRecord
  2
DEFPOINTS
 70
     0
 62
     7
  6
CONTINUOUS
  0
LAYER
  5
5CC
330
2
100
AcDbSymbolTableRecord
100
AcDbLayerTableRecord
  2
03
 70
     0
 62
     3
  6
CONTINUOUS
  0
LAYER
  5
5CE
330
2
100
AcDbSymbolTableRecord
100
AcDbLayerTableRecord
  2
06
 70
     0
 62
     6
  6
CONTINUOUS
  0
LAYER
  5
5CF
330
2
100
AcDbSymbolTableRecord
100
AcDbLayerTableRecord
  2
CHUSIN
 70
     0
 62
     6
  6
CENTER2
  0
LAYER
  5
5D0
330
2
100
AcDbSymbolTableRecord
100
AcDbLayerTableRecord
  2
HIKIDASI
 70
     0
 62
     6
  6
CONTINUOUS
  0
LAYER
  5
5D1
330
2
100
AcDbSymbolTableRecord
100
AcDbLayerTableRecord
  2
KAKURE
 70
     0
 62
     6
  6
DASHED2
  0
LAYER
  5
5D2
330
2
100
AcDbSymbolTableRecord
100
AcDbLayerTableRecord
  2
MOJI
 70
     0
 62
     3
  6
CONTINUOUS
  0
LAYER
  5
5D4
330
2
100
AcDbSymbolTableRecord
100
AcDbLayerTableRecord
  2
SUNPOU
 70
     0
 62
     6
  6
CONTINUOUS
  0
LAYER
  5
D08
330
2
100
AcDbSymbolTableRecord
100
AcDbLayerTableRecord
  2
SAISEN
 70
     0
 62
     3
  6
CONTINUOUS
  0
LAYER
  5
174C
330
2
100
AcDbSymbolTableRecord
100
AcDbLayerTableRecord
  2
02
 70
     0
 62
     2
  6
CONTINUOUS
  0
LAYER
  5
174D
330
2
100
AcDbSymbolTableRecord
100
AcDbLayerTableRecord
  2
04
 70
     0
 62
     4
  6
CONTINUOUS
  0
ENDTAB
  0
TABLE
  2
STYLE
  5
3
330
0
100
AcDbSymbolTable
 70
     5
  0
STYLE
  5
17
330
3
100
AcDbSymbolTableRecord
100
AcDbTextStyleTableRecord
  2
STANDARD
 70
     0
 40
0.0
 41
0.9
 50
0.0
 71
     0
 42
7.0
  3
txt.shx
  4
bigfont.shx
  0
STYLE
  5
5DF
330
3
100
AcDbSymbolTableRecord
100
AcDbTextStyleTableRecord
  2
SUNPOU
 70
     0
 40
0.0
 41
0.8
 50
0.0
 71
     0
 42
3.5
  3
txt.shx
  4
extfont.shx
  0
STYLE
  5
5E6
330
3
100
AcDbSymbolTableRecord
100
AcDbTextStyleTableRecord
  2
0_8
 70
     0
 40
0.0
 41
0.8
 50
0.0
 71
     0
 42
6.0
  3
txt.shx
  4
extfont.shx
  0
STYLE
  5
B76
330
3
100
AcDbSymbolTableRecord
100
AcDbTextStyleTableRecord
  2
0_7
 70
     0
 40
0.0
 41
0.7
 50
0.0
 71
     0
 42
0.2
  3
txt.shx
  4
extfont.shx
  0
STYLE
  5
2020
330
3
100
AcDbSymbolTableRecord
100
AcDbTextStyleTableRecord
  2
0_80
 70
     0
 40
0.0
 41
0.8
 50
0.0
 71
     0
 42
7.0
  3
txt.shx
  4
extfont.shx
  0
ENDTAB
  0
TABLE
  2
VIEW
  5
5
330
0
100
AcDbSymbolTable
 70
     1
  0
VIEW
  5
136
330
5
100
AcDbSymbolTableRecord
100
AcDbViewTableRecord
  2
QQQQ
 70
     0
 40
618.7999999999998
 10
-6.0
 20
-1.0
 41
419.8999999999999
 11
0.0
 21
0.0
 31
1.0
 12
100.0
 22
100.0
 32
0.0
 42
50.0
 43
0.0
 44
0.0
 50
0.0
 71
     0
  0
ENDTAB
  0
TABLE
  2
UCS
  5
6
330
0
100
AcDbSymbolTable
 70
     0
  0
ENDTAB
  0
TABLE
  2
APPID
  5
8
330
0
100
AcDbSymbolTable
 70
     3
  0
APPID
  5
16
330
8
100
AcDbSymbolTableRecord
100
AcDbRegAppTableRecord
  2
ACAD
 70
     0
  0
APPID
  5
82A
330
8
100
AcDbSymbolTableRecord
100
AcDbRegAppTableRecord
  2
DCO15
 70
     0
  0
APPID
  5
1FDB
330
8
100
AcDbSymbolTableRecord
100
AcDbRegAppTableRecord
  2
CONTENTBLOCKICON
 70
     0
  0
ENDTAB
  0
TABLE
  2
DIMSTYLE
  5
9
330
0
100
AcDbSymbolTable
 70
     2
  0
DIMSTYLE
105
5E0
102
{ACAD_REACTORS
330
658
330
664
330
670
330
67F
330
68B
330
6AC
330
6B9
330
6C7
330
6D4
330
6E2
330
716
330
725
330
732
330
73F
330
74C
330
792
330
79F
330
7AE
330
7BB
330
7C8
330
868
330
768
330
901
330
904
330
D57
330
15E6
330
15E7
330
1667
330
1671
330
1672
330
1673
330
14C8
330
1496
330
1F13
330
1F5A
102
}
330
9
100
AcDbSymbolTableRecord
100
AcDbDimStyleTableRecord
  2
SUNPOU_2
 70
     0
  3

  4

  5
OPEN30
  6

  7

 40
2.0
 41
2.5
 42
1.5
 43
0.0
 44
1.0
 45
0.0
 46
0.0
 47
0.0
 48
0.0
140
2.5
141
0.0
142
0.0
143
25.4
144
1.0
145
0.0
146
1.0
147
1.0
 71
     0
 72
     0
 73
     0
 74
     0
 75
     0
 76
     0
 77
     1
 78
     8
170
     0
171
     2
172
     1
173
     0
174
     0
175
     0
176
   256
177
   256
178
   256
270
     2
271
     1
272
     1
273
     2
274
     2
340
5DF
275
     0
280
     0
281
     0
282
     0
283
     1
284
     0
285
     0
286
     0
287
     3
288
     0
  0
DIMSTYLE
105
E6B
330
9
100
AcDbSymbolTableRecord
100
AcDbDimStyleTableRecord
  2
STANDARD
 70
     0
  3

  4

  5

  6

  7

 40
1.0
 41
0.18
 42
0.0625
 43
0.38
 44
0.18
 45
0.0
 46
0.0
 47
0.0
 48
0.0
140
0.18
141
0.09
142
0.0
143
25.4
144
1.0
145
0.0
146
1.0
147
0.09
 71
     0
 72
     0
 73
     1
 74
     1
 75
     0
 76
     0
 77
     0
 78
     0
170
     0
171
     2
172
     0
173
     0
174
     0
175
     0
176
     0
177
     0
178
     0
270
     2
271
     4
272
     4
273
     2
274
     2
340
17
275
     0
280
     0
281
     0
282
     0
283
     1
284
     0
285
     0
286
     0
287
     3
288
     0
  0
ENDTAB
  0
TABLE
  2
BLOCK_RECORD
  5
1
330
0
100
AcDbSymbolTable
 70
    35
  0
BLOCK_RECORD
  5
A
102
{ACAD_XDICTIONARY
360
1FD7
102
}
330
1
100
AcDbSymbolTableRecord
100
AcDbBlockTableRecord
  2
*MODEL_SPACE
  0
BLOCK_RECORD
  5
B
102
{ACAD_XDICTIONARY
360
1FD9
102
}
330
1
100
AcDbSymbolTableRecord
100
AcDbBlockTableRecord
  2
*PAPER_SPACE
  0
BLOCK_RECORD
  5
5D9
330
1
100
AcDbSymbolTableRecord
100
AcDbBlockTableRecord
  2
_OPEN30
1001
CONTENTBLOCKICON
1071
        0
1004
2800000020000000200000000100080000000000000400000000000000000000000000000000000000000000000080000080000000808000800000008000800080800000C0C0C000C0DCC000F0CAA6000020400000206000002080000020A0000020C0000020E00000400000004020000040400000406000004080000040A0
1004
000040C0000040E00000600000006020000060400000606000006080000060A0000060C0000060E00000800000008020000080400000806000008080000080A0000080C0000080E00000A0000000A0200000A0400000A0600000A0800000A0A00000A0C00000A0E00000C0000000C0200000C0400000C0600000C0800000C0
1004
A00000C0C00000C0E00000E0000000E0200000E0400000E0600000E0800000E0A00000E0C00000E0E00040000000400020004000400040006000400080004000A0004000C0004000E00040200000402020004020400040206000402080004020A0004020C0004020E000404000004040200040404000404060004040800040
1004
40A0004040C0004040E00040600000406020004060400040606000406080004060A0004060C0004060E00040800000408020004080400040806000408080004080A0004080C0004080E00040A0000040A0200040A0400040A0600040A0800040A0A00040A0C00040A0E00040C0000040C0200040C0400040C0600040C08000
1004
40C0A00040C0C00040C0E00040E0000040E0200040E0400040E0600040E0800040E0A00040E0C00040E0E00080000000800020008000400080006000800080008000A0008000C0008000E00080200000802020008020400080206000802080008020A0008020C0008020E00080400000804020008040400080406000804080
1004
008040A0008040C0008040E00080600000806020008060400080606000806080008060A0008060C0008060E00080800000808020008080400080806000808080008080A0008080C0008080E00080A0000080A0200080A0400080A0600080A0800080A0A00080A0C00080A0E00080C0000080C0200080C0400080C0600080C0
1004
800080C0A00080C0C00080C0E00080E0000080E0200080E0400080E0600080E0800080E0A00080E0C00080E0E000C0000000C0002000C0004000C0006000C0008000C000A000C000C000C000E000C0200000C0202000C0204000C0206000C0208000C020A000C020C000C020E000C0400000C0402000C0404000C0406000C0
1004
408000C040A000C040C000C040E000C0600000C0602000C0604000C0606000C0608000C060A000C060C000C060E000C0800000C0802000C0804000C0806000C0808000C080A000C080C000C080E000C0A00000C0A02000C0A04000C0A06000C0A08000C0A0A000C0A0C000C0A0E000C0C00000C0C02000C0C04000C0C06000
1004
C0C08000C0C0A000F0FBFF00A4A0A000808080000000FF0000FF000000FFFF00FF000000FF00FF00FFFF0000FFFFFF0000000000000000000000000000000000000000000000000000000000000000000000000000000000000000000000000000000000000000000000000000000000000000000000000000000000000000
1004
00000000000000000000000000000000000000000000000000000000000000000000000000000000000000000000000000000000000000000000000000000000000000000000000000000000000000000000000000000000000000000000000000000000000000000000000000000000000000000000000000000000000000
1004
000000000000000000000000000000000000000000000000000000000000000000000000000000000000000000000000000000FFFF0000000000000000000000000000000000000000000000000000000000000000FFFFFFFF0000000000000000000000000000000000000000000000000000000000000000FFFFFFFF0000
1004
000000000000000000000000000000000000000000000000000000000000FFFFFF0000000000000000000000000000000000000000000000000000000000000000FFFFFFFF0000000000000000000000000000000000000000000000000000000000000000FFFFFF0000000000000000000000000000000000000000000000
1004
000000000000000000FFFFFFFF0000000000000000000000000000000000000000000000000000000000000000FFFFFFFF00000000FFFFFFFFFFFFFFFFFFFFFFFFFFFFFFFFFFFFFFFFFFFFFFFFFFFFFFFFFFFF00000000000000000000000000000000000000000000000000FFFFFFFF000000000000000000000000000000
1004
000000000000000000FFFFFFFF000000000000000000000000000000000000000000000000FFFFFFFF000000000000000000000000000000000000000000000000FFFFFFFF000000000000000000000000000000000000000000000000FFFFFFFF000000000000000000000000000000000000000000000000FFFFFFFF0000
1004
0000000000000000000000000000000000000000000000FFFFFF0000000000000000000000000000000000000000000000000000000000000000000000000000000000000000000000000000000000000000000000000000000000000000000000000000000000000000000000000000000000000000000000000000000000
1004
00000000000000000000000000000000000000000000000000000000000000000000000000000000000000000000000000000000000000000000000000000000000000000000000000000000000000000000000000000000000000000000000000000000000000000000000000000000000000000000000000000000000000
1004
0000000000000000000000000000000000000000000000000000000000000000000000000000000000000000000000000000000000000000
  0
BLOCK_RECORD
  5
659
330
1
100
AcDbSymbolTableRecord
100
AcDbBlockTableRecord
  2
*D1
  0
BLOCK_RECORD
  5
665
330
1
100
AcDbSymbolTableRecord
100
AcDbBlockTableRecord
  2
*D2
  0
BLOCK_RECORD
  5
671
330
1
100
AcDbSymbolTableRecord
100
AcDbBlockTableRecord
  2
*D3
  0
BLOCK_RECORD
  5
680
330
1
100
AcDbSymbolTableRecord
100
AcDbBlockTableRecord
  2
*D4
  0
BLOCK_RECORD
  5
68C
330
1
100
AcDbSymbolTableRecord
100
AcDbBlockTableRecord
  2
*D5
  0
BLOCK_RECORD
  5
6AD
330
1
100
AcDbSymbolTableRecord
100
AcDbBlockTableRecord
  2
*D6
  0
BLOCK_RECORD
  5
6BA
330
1
100
AcDbSymbolTableRecord
100
AcDbBlockTableRecord
  2
*D7
  0
BLOCK_RECORD
  5
6C8
330
1
100
AcDbSymbolTableRecord
100
AcDbBlockTableRecord
  2
*D8
  0
BLOCK_RECORD
  5
6D5
330
1
100
AcDbSymbolTableRecord
100
AcDbBlockTableRecord
  2
*D9
  0
BLOCK_RECORD
  5
6E3
330
1
100
AcDbSymbolTableRecord
100
AcDbBlockTableRecord
  2
*D10
  0
BLOCK_RECORD
  5
717
330
1
100
AcDbSymbolTableRecord
100
AcDbBlockTableRecord
  2
*D11
  0
BLOCK_RECORD
  5
726
330
1
100
AcDbSymbolTableRecord
100
AcDbBlockTableRecord
  2
*D12
  0
BLOCK_RECORD
  5
733
330
1
100
AcDbSymbolTableRecord
100
AcDbBlockTableRecord
  2
*D13
  0
BLOCK_RECORD
  5
740
330
1
100
AcDbSymbolTableRecord
100
AcDbBlockTableRecord
  2
*D14
  0
BLOCK_RECORD
  5
74D
330
1
100
AcDbSymbolTableRecord
100
AcDbBlockTableRecord
  2
*D15
  0
BLOCK_RECORD
  5
769
330
1
100
AcDbSymbolTableRecord
100
AcDbBlockTableRecord
  2
*D16
  0
BLOCK_RECORD
  5
793
330
1
100
AcDbSymbolTableRecord
100
AcDbBlockTableRecord
  2
*D17
  0
BLOCK_RECORD
  5
7A0
330
1
100
AcDbSymbolTableRecord
100
AcDbBlockTableRecord
  2
*D18
  0
BLOCK_RECORD
  5
7AF
330
1
100
AcDbSymbolTableRecord
100
AcDbBlockTableRecord
  2
*D19
  0
BLOCK_RECORD
  5
7BC
330
1
100
AcDbSymbolTableRecord
100
AcDbBlockTableRecord
  2
*D20
  0
BLOCK_RECORD
  5
7C9
330
1
100
AcDbSymbolTableRecord
100
AcDbBlockTableRecord
  2
*D21
  0
BLOCK_RECORD
  5
869
330
1
100
AcDbSymbolTableRecord
100
AcDbBlockTableRecord
  2
*D22
  0
BLOCK_RECORD
  5
D59
330
1
100
AcDbSymbolTableRecord
100
AcDbBlockTableRecord
  2
*D23
  0
BLOCK_RECORD
  5
1497
330
1
100
AcDbSymbolTableRecord
100
AcDbBlockTableRecord
  2
*D24
  0
BLOCK_RECORD
  5
14C9
330
1
100
AcDbSymbolTableRecord
100
AcDbBlockTableRecord
  2
*D25
  0
BLOCK_RECORD
  5
153D
330
1
100
AcDbSymbolTableRecord
100
AcDbBlockTableRecord
  2
_DOTSMALL
  0
BLOCK_RECORD
  5
1679
330
1
100
AcDbSymbolTableRecord
100
AcDbBlockTableRecord
  2
*D27
  0
BLOCK_RECORD
  5
1685
330
1
100
AcDbSymbolTableRecord
100
AcDbBlockTableRecord
  2
*D28
  0
BLOCK_RECORD
  5
1691
330
1
100
AcDbSymbolTableRecord
100
AcDbBlockTableRecord
  2
*D29
  0
BLOCK_RECORD
  5
169F
330
1
100
AcDbSymbolTableRecord
100
AcDbBlockTableRecord
  2
*D30
  0
BLOCK_RECORD
  5
16AD
330
1
100
AcDbSymbolTableRecord
100
AcDbBlockTableRecord
  2
*D31
  0
BLOCK_RECORD
  5
16B9
330
1
100
AcDbSymbolTableRecord
100
AcDbBlockTableRecord
  2
*D32
  0
BLOCK_RECORD
  5
1F14
330
1
100
AcDbSymbolTableRecord
100
AcDbBlockTableRecord
  2
*D33
  0
BLOCK_RECORD
  5
1F5B
330
1
100
AcDbSymbolTableRecord
100
AcDbBlockTableRecord
  2
*D34
  0
ENDTAB
  0
ENDSEC
  0
SECTION
  2
BLOCKS
  0
BLOCK
  5
D
330
A
100
AcDbEntity
  8
0
100
AcDbBlockBegin
  2
*MODEL_SPACE
 70
     0
 10
0.0
 20
0.0
 30
0.0
  3
*MODEL_SPACE
  1

  0
ENDBLK
  5
E
330
A
100
AcDbEntity
  8
0
100
AcDbBlockEnd
  0
BLOCK
  5
F
330
B
100
AcDbEntity
 67
     1
  8
0
100
AcDbBlockBegin
  2
*PAPER_SPACE
 70
     0
 10
0.0
 20
0.0
 30
0.0
  3
*PAPER_SPACE
  1

  0
ENDBLK
  5
10
330
B
100
AcDbEntity
 67
     1
  8
0
100
AcDbBlockEnd
  0
BLOCK
  5
5DD
330
5D9
100
AcDbEntity
  8
0
100
AcDbBlockBegin
  2
_OPEN30
 70
     0
 10
0.0
 20
0.0
 30
0.0
  3
_OPEN30
  1

  0
LINE
  5
5DA
330
5D9
100
AcDbEntity
  8
0
  6
BYBLOCK
 62
     0
100
AcDbLine
 10
-1.0
 20
0.26794919
 30
0.0
 11
0.0
 21
0.0
 31
0.0
  0
LINE
  5
5DB
330
5D9
100
AcDbEntity
  8
0
  6
BYBLOCK
 62
     0
100
AcDbLine
 10
0.0
 20
0.0
 30
0.0
 11
-1.0
 21
-0.26794919
 31
0.0
  0
LINE
  5
5DC
330
5D9
100
AcDbEntity
  8
0
  6
BYBLOCK
 62
     0
100
AcDbLine
 10
0.0
 20
0.0
 30
0.0
 11
-1.0
 21
0.0
 31
0.0
  0
ENDBLK
  5
5DE
330
5D9
100
AcDbEntity
  8
0
100
AcDbBlockEnd
  0
BLOCK
  5
662
330
659
100
AcDbEntity
  8
0
100
AcDbBlockBegin
  2
*D1
 70
     1
 10
0.0
 20
0.0
 30
0.0
  3
*D1
  1

  0
LINE
  5
143C
330
659
100
AcDbEntity
  8
SUNPOU
100
AcDbLine
 10
183.3309004230176
 20
321.8323899371068
 30
0.0
 11
183.3309004230176
 21
305.0253478105473
 31
0.0
  0
LINE
  5
143D
330
659
100
AcDbEntity
  8
SUNPOU
100
AcDbLine
 10
206.3309004230155
 20
310.0253478105475
 30
0.0
 11
206.3309004230155
 21
309.0253478105474
 31
0.0
  0
LINE
  5
143E
330
659
100
AcDbEntity
  8
SUNPOU
100
AcDbLine
 10
188.3309004230176
 20
307.0253478105473
 30
0.0
 11
201.3309004230155
 21
307.0253478105473
 31
0.0
  0
INSERT
  5
143F
330
659
100
AcDbEntity
  8
SUNPOU
100
AcDbBlockReference
  2
_OPEN30
 10
183.3309004230176
 20
307.0253478105473
 30
0.0
 41
5.0
 42
5.0
 43
5.0
 50
180.0
  0
INSERT
  5
1440
330
659
100
AcDbEntity
  8
SUNPOU
100
AcDbBlockReference
  2
_OPEN30
 10
206.3309004230155
 20
307.0253478105473
 30
0.0
 41
5.0
 42
5.0
 43
5.0
  0
MTEXT
  5
1441
330
659
100
AcDbEntity
  8
SUNPOU
100
AcDbMText
 10
194.8309004230165
 20
311.5253478105473
 30
0.0
 40
5.0
 41
0.0
 71
     5
 72
     1
  1
\A1;23
  7
SUNPOU
1001
ACAD
1000
MTEXTBEGIN
1070
    73
1070
     1
1070
    44
1040
1.0
1070
    74
1070
     0
1000
MTEXTEND
1000
MTEXTBEGIN
1070
    73
1070
     1
1070
    44
1040
1.0
1070
    74
1070
     0
1000
MTEXTEND
  0
POINT
  5
1442
330
659
100
AcDbEntity
  8
DEFPOINTS
 62
     0
100
AcDbPoint
 10
183.3309004230176
 20
324.8323899371068
 30
0.0
  0
POINT
  5
1443
330
659
100
AcDbEntity
  8
DEFPOINTS
 62
     0
100
AcDbPoint
 10
206.3309004230155
 20
307.0253478105473
 30
0.0
  0
POINT
  5
1444
330
659
100
AcDbEntity
  8
DEFPOINTS
 62
     0
100
AcDbPoint
 10
206.3309004230155
 20
307.0253478105473
 30
0.0
  0
ENDBLK
  5
663
330
659
100
AcDbEntity
  8
0
100
AcDbBlockEnd
  0
BLOCK
  5
66E
330
665
100
AcDbEntity
  8
0
100
AcDbBlockBegin
  2
*D2
 70
     1
 10
0.0
 20
0.0
 30
0.0
  3
*D2
  1

  0
LINE
  5
1433
330
665
100
AcDbEntity
  8
SUNPOU
100
AcDbLine
 10
206.3309004230155
 20
310.0253478105475
 30
0.0
 11
206.3309004230155
 21
309.0253478105474
 31
0.0
  0
LINE
  5
1434
330
665
100
AcDbEntity
  8
SUNPOU
100
AcDbLine
 10
238.3309004230155
 20
304.1830040293008
 30
0.0
 11
238.3309004230155
 21
305.0253478105473
 31
0.0
  0
LINE
  5
1435
330
665
100
AcDbEntity
  8
SUNPOU
100
AcDbLine
 10
211.3309004230155
 20
307.0253478105473
 30
0.0
 11
233.3309004230155
 21
307.0253478105473
 31
0.0
  0
MTEXT
  5
1436
330
665
100
AcDbEntity
  8
SUNPOU
100
AcDbMText
 10
226.8289625781283
 20
311.5253478105473
 30
0.0
 40
5.0
 41
0.0
 71
     5
 72
     1
  1
\A1;32
  7
SUNPOU
1001
ACAD
1000
MTEXTBEGIN
1070
    73
1070
     1
1070
    44
1040
1.0
1070
    74
1070
     0
1000
MTEXTEND
1000
MTEXTBEGIN
1070
    73
1070
     1
1070
    44
1040
1.0
1070
    74
1070
     0
1000
MTEXTEND
  0
INSERT
  5
1437
330
665
100
AcDbEntity
  8
SUNPOU
100
AcDbBlockReference
  2
_OPEN30
 10
206.3309004230155
 20
307.0253478105473
 30
0.0
 41
5.0
 42
5.0
 43
5.0
 50
180.0
  0
INSERT
  5
1438
330
665
100
AcDbEntity
  8
SUNPOU
100
AcDbBlockReference
  2
_OPEN30
 10
238.3309004230155
 20
307.0253478105473
 30
0.0
 41
5.0
 42
5.0
 43
5.0
  0
POINT
  5
1439
330
665
100
AcDbEntity
  8
DEFPOINTS
 62
     0
100
AcDbPoint
 10
206.3309004230155
 20
307.0253478105473
 30
0.0
  0
POINT
  5
143A
330
665
100
AcDbEntity
  8
DEFPOINTS
 62
     0
100
AcDbPoint
 10
238.3309004230155
 20
307.1830040293008
 30
0.0
  0
POINT
  5
143B
330
665
100
AcDbEntity
  8
DEFPOINTS
 62
     0
100
AcDbPoint
 10
238.3309004230155
 20
307.0253478105473
 30
0.0
  0
ENDBLK
  5
66F
330
665
100
AcDbEntity
  8
0
100
AcDbBlockEnd
  0
BLOCK
  5
67D
330
671
100
AcDbEntity
  8
0
100
AcDbBlockBegin
  2
*D3
 70
     1
 10
0.0
 20
0.0
 30
0.0
  3
*D3
  1

  0
LINE
  5
1428
330
671
100
AcDbEntity
  8
SUNPOU
100
AcDbLine
 10
238.3309004230155
 20
304.1830040293008
 30
0.0
 11
238.3309004230155
 21
305.0253478105473
 31
0.0
  0
LINE
  5
1429
330
671
100
AcDbEntity
  8
SUNPOU
100
AcDbLine
 10
243.3309004230177
 20
304.1830040293008
 30
0.0
 11
243.3309004230177
 21
305.0253478105473
 31
0.0
  0
LINE
  5
142A
330
671
100
AcDbEntity
  8
SUNPOU
100
AcDbLine
 10
233.3309004230155
 20
307.0253478105473
 30
0.0
 11
228.3309004230155
 21
307.0253478105473
 31
0.0
  0
LINE
  5
142B
330
671
100
AcDbEntity
  8
SUNPOU
100
AcDbLine
 10
248.3309004230178
 20
307.0253478105473
 30
0.0
 11
253.3309004230178
 21
307.0253478105473
 31
0.0
  0
MTEXT
  5
142C
330
671
100
AcDbEntity
  8
SUNPOU
100
AcDbMText
 10
240.8309004230165
 20
302.5532350696453
 30
0.0
 40
5.0
 41
0.0
 71
     5
 72
     1
  1
\A1;5
  7
SUNPOU
1001
ACAD
1000
MTEXTBEGIN
1070
    73
1070
     1
1070
    44
1040
1.0
1070
    74
1070
     0
1000
MTEXTEND
1000
MTEXTBEGIN
1070
    73
1070
     1
1070
    44
1040
1.0
1070
    74
1070
     0
1000
MTEXTEND
  0
LINE
  5
142D
330
671
100
AcDbEntity
  8
SUNPOU
100
AcDbLine
 10
238.3309004230155
 20
307.0253478105473
 30
0.0
 11
243.3309004230177
 21
307.0253478105473
 31
0.0
  0
INSERT
  5
142E
330
671
100
AcDbEntity
  8
SUNPOU
100
AcDbBlockReference
  2
_OPEN30
 10
238.3309004230155
 20
307.0253478105473
 30
0.0
 41
5.0
 42
5.0
 43
5.0
  0
INSERT
  5
142F
330
671
100
AcDbEntity
  8
SUNPOU
100
AcDbBlockReference
  2
_OPEN30
 10
243.3309004230177
 20
307.0253478105473
 30
0.0
 41
5.0
 42
5.0
 43
5.0
 50
180.0
  0
POINT
  5
1430
330
671
100
AcDbEntity
  8
DEFPOINTS
 62
     0
100
AcDbPoint
 10
238.3309004230155
 20
307.1830040293008
 30
0.0
  0
POINT
  5
1431
330
671
100
AcDbEntity
  8
DEFPOINTS
 62
     0
100
AcDbPoint
 10
243.3309004230177
 20
307.1830040293008
 30
0.0
  0
POINT
  5
1432
330
671
100
AcDbEntity
  8
DEFPOINTS
 62
     0
100
AcDbPoint
 10
243.3309004230177
 20
307.0253478105473
 30
0.0
  0
ENDBLK
  5
67E
330
671
100
AcDbEntity
  8
0
100
AcDbBlockEnd
  0
BLOCK
  5
689
330
680
100
AcDbEntity
  8
0
100
AcDbBlockBegin
  2
*D4
 70
     1
 10
0.0
 20
0.0
 30
0.0
  3
*D4
  1

  0
LINE
  5
141F
330
680
100
AcDbEntity
  8
SUNPOU
100
AcDbLine
 10
243.3309004230177
 20
304.1830040293008
 30
0.0
 11
243.3309004230177
 21
305.0253478105473
 31
0.0
  0
LINE
  5
1420
330
680
100
AcDbEntity
  8
SUNPOU
100
AcDbLine
 10
275.3309004230178
 20
310.0253478105475
 30
0.0
 11
275.3309004230178
 21
309.0253478105474
 31
0.0
  0
LINE
  5
1421
330
680
100
AcDbEntity
  8
SUNPOU
100
AcDbLine
 10
248.3309004230178
 20
307.0253478105473
 30
0.0
 11
270.3309004230177
 21
307.0253478105473
 31
0.0
  0
MTEXT
  5
1422
330
680
100
AcDbEntity
  8
SUNPOU
100
AcDbMText
 10
264.4558862444077
 20
311.5253478105473
 30
0.0
 40
5.0
 41
0.0
 71
     5
 72
     1
  1
\A1;32
  7
SUNPOU
1001
ACAD
1000
MTEXTBEGIN
1070
    73
1070
     1
1070
    44
1040
1.0
1070
    74
1070
     0
1000
MTEXTEND
1000
MTEXTBEGIN
1070
    73
1070
     1
1070
    44
1040
1.0
1070
    74
1070
     0
1000
MTEXTEND
  0
INSERT
  5
1423
330
680
100
AcDbEntity
  8
SUNPOU
100
AcDbBlockReference
  2
_OPEN30
 10
243.3309004230177
 20
307.0253478105473
 30
0.0
 41
5.0
 42
5.0
 43
5.0
 50
180.0
  0
INSERT
  5
1424
330
680
100
AcDbEntity
  8
SUNPOU
100
AcDbBlockReference
  2
_OPEN30
 10
275.3309004230178
 20
307.0253478105473
 30
0.0
 41
5.0
 42
5.0
 43
5.0
  0
POINT
  5
1425
330
680
100
AcDbEntity
  8
DEFPOINTS
 62
     0
100
AcDbPoint
 10
243.3309004230177
 20
307.1830040293008
 30
0.0
  0
POINT
  5
1426
330
680
100
AcDbEntity
  8
DEFPOINTS
 62
     0
100
AcDbPoint
 10
275.3309004230178
 20
307.0253478105473
 30
0.0
  0
POINT
  5
1427
330
680
100
AcDbEntity
  8
DEFPOINTS
 62
     0
100
AcDbPoint
 10
275.3309004230178
 20
307.0253478105473
 30
0.0
  0
ENDBLK
  5
68A
330
680
100
AcDbEntity
  8
0
100
AcDbBlockEnd
  0
BLOCK
  5
696
330
68C
100
AcDbEntity
  8
0
100
AcDbBlockBegin
  2
*D5
 70
     1
 10
0.0
 20
0.0
 30
0.0
  3
*D5
  1

  0
LINE
  5
1414
330
68C
100
AcDbEntity
  8
SUNPOU
100
AcDbLine
 10
275.3309004230178
 20
310.0253478105475
 30
0.0
 11
275.3309004230178
 21
309.0253478105474
 31
0.0
  0
LINE
  5
1415
330
68C
100
AcDbEntity
  8
SUNPOU
100
AcDbLine
 10
280.3309004230176
 20
321.8323899371068
 30
0.0
 11
280.3309004230176
 21
305.0253478105473
 31
0.0
  0
LINE
  5
1416
330
68C
100
AcDbEntity
  8
SUNPOU
100
AcDbLine
 10
270.3309004230177
 20
307.0253478105473
 30
0.0
 11
265.3309004230178
 21
307.0253478105473
 31
0.0
  0
LINE
  5
1417
330
68C
100
AcDbEntity
  8
SUNPOU
100
AcDbLine
 10
285.3309004230176
 20
307.0253478105473
 30
0.0
 11
290.3309004230178
 21
307.0253478105473
 31
0.0
  0
MTEXT
  5
1418
330
68C
100
AcDbEntity
  8
SUNPOU
100
AcDbMText
 10
277.8309004230178
 20
302.4506317097041
 30
0.0
 40
5.0
 41
0.0
 71
     5
 72
     1
  1
\A1;5
  7
SUNPOU
1001
ACAD
1000
MTEXTBEGIN
1070
    73
1070
     1
1070
    44
1040
1.0
1070
    74
1070
     0
1000
MTEXTEND
1000
MTEXTBEGIN
1070
    73
1070
     1
1070
    44
1040
1.0
1070
    74
1070
     0
1000
MTEXTEND
  0
LINE
  5
1419
330
68C
100
AcDbEntity
  8
SUNPOU
100
AcDbLine
 10
275.3309004230178
 20
307.0253478105473
 30
0.0
 11
280.3309004230176
 21
307.0253478105473
 31
0.0
  0
INSERT
  5
141A
330
68C
100
AcDbEntity
  8
SUNPOU
100
AcDbBlockReference
  2
_OPEN30
 10
275.3309004230178
 20
307.0253478105473
 30
0.0
 41
5.0
 42
5.0
 43
5.0
  0
INSERT
  5
141B
330
68C
100
AcDbEntity
  8
SUNPOU
100
AcDbBlockReference
  2
_OPEN30
 10
280.3309004230176
 20
307.0253478105473
 30
0.0
 41
5.0
 42
5.0
 43
5.0
 50
180.0
  0
POINT
  5
141C
330
68C
100
AcDbEntity
  8
DEFPOINTS
 62
     0
100
AcDbPoint
 10
275.3309004230178
 20
307.0253478105473
 30
0.0
  0
POINT
  5
141D
330
68C
100
AcDbEntity
  8
DEFPOINTS
 62
     0
100
AcDbPoint
 10
280.3309004230176
 20
324.8323899371068
 30
0.0
  0
POINT
  5
141E
330
68C
100
AcDbEntity
  8
DEFPOINTS
 62
     0
100
AcDbPoint
 10
280.3309004230176
 20
307.0253478105473
 30
0.0
  0
ENDBLK
  5
697
330
68C
100
AcDbEntity
  8
0
100
AcDbBlockEnd
  0
BLOCK
  5
6B7
330
6AD
100
AcDbEntity
  8
0
100
AcDbBlockBegin
  2
*D6
 70
     1
 10
0.0
 20
0.0
 30
0.0
  3
*D6
  1

  0
LINE
  5
140B
330
6AD
100
AcDbEntity
  8
SUNPOU
100
AcDbLine
 10
280.3309004230176
 20
321.8323899371068
 30
0.0
 11
280.3309004230176
 21
305.0253478105473
 31
0.0
  0
LINE
  5
140C
330
6AD
100
AcDbEntity
  8
SUNPOU
100
AcDbLine
 10
297.3309004230177
 20
321.8323899371068
 30
0.0
 11
297.3309004230177
 21
305.0253478105473
 31
0.0
  0
LINE
  5
140D
330
6AD
100
AcDbEntity
  8
SUNPOU
100
AcDbLine
 10
285.3309004230176
 20
307.0253478105473
 30
0.0
 11
292.3309004230176
 21
307.0253478105473
 31
0.0
  0
INSERT
  5
140E
330
6AD
100
AcDbEntity
  8
SUNPOU
100
AcDbBlockReference
  2
_OPEN30
 10
280.3309004230176
 20
307.0253478105473
 30
0.0
 41
5.0
 42
5.0
 43
5.0
 50
180.0
  0
INSERT
  5
140F
330
6AD
100
AcDbEntity
  8
SUNPOU
100
AcDbBlockReference
  2
_OPEN30
 10
297.3309004230177
 20
307.0253478105473
 30
0.0
 41
5.0
 42
5.0
 43
5.0
  0
MTEXT
  5
1410
330
6AD
100
AcDbEntity
  8
SUNPOU
100
AcDbMText
 10
288.8309004230176
 20
311.5253478105473
 30
0.0
 40
5.0
 41
0.0
 71
     5
 72
     1
  1
\A1;17
  7
SUNPOU
1001
ACAD
1000
MTEXTBEGIN
1070
    73
1070
     1
1070
    44
1040
1.0
1070
    74
1070
     0
1000
MTEXTEND
1000
MTEXTBEGIN
1070
    73
1070
     1
1070
    44
1040
1.0
1070
    74
1070
     0
1000
MTEXTEND
  0
POINT
  5
1411
330
6AD
100
AcDbEntity
  8
DEFPOINTS
 62
     0
100
AcDbPoint
 10
280.3309004230176
 20
324.8323899371068
 30
0.0
  0
POINT
  5
1412
330
6AD
100
AcDbEntity
  8
DEFPOINTS
 62
     0
100
AcDbPoint
 10
297.3309004230177
 20
324.8323899371068
 30
0.0
  0
POINT
  5
1413
330
6AD
100
AcDbEntity
  8
DEFPOINTS
 62
     0
100
AcDbPoint
 10
297.3309004230177
 20
307.0253478105473
 30
0.0
  0
ENDBLK
  5
6B8
330
6AD
100
AcDbEntity
  8
0
100
AcDbBlockEnd
  0
BLOCK
  5
6C5
330
6BA
100
AcDbEntity
  8
0
100
AcDbBlockBegin
  2
*D7
 70
     1
 10
0.0
 20
0.0
 30
0.0
  3
*D7
  1

  0
LINE
  5
1400
330
6BA
100
AcDbEntity
  8
SUNPOU
100
AcDbLine
 10
180.3309004230176
 20
298.579513645639
 30
0.0
 11
180.3309004230176
 21
297.5795136456389
 31
0.0
  0
LINE
  5
1401
330
6BA
100
AcDbEntity
  8
SUNPOU
100
AcDbLine
 10
183.3309004230176
 20
321.8323899371068
 30
0.0
 11
183.3309004230176
 21
293.5795136456389
 31
0.0
  0
LINE
  5
1402
330
6BA
100
AcDbEntity
  8
SUNPOU
100
AcDbLine
 10
175.3309004230176
 20
295.5795136456389
 30
0.0
 11
170.3309004230176
 21
295.5795136456389
 31
0.0
  0
LINE
  5
1403
330
6BA
100
AcDbEntity
  8
SUNPOU
100
AcDbLine
 10
188.3309004230176
 20
295.5795136456389
 30
0.0
 11
193.3309004230176
 21
295.5795136456389
 31
0.0
  0
MTEXT
  5
1404
330
6BA
100
AcDbEntity
  8
SUNPOU
100
AcDbMText
 10
172.7423031657513
 20
300.1244469302751
 30
0.0
 40
5.0
 41
0.0
 71
     5
 72
     1
  1
\A1;3
  7
SUNPOU
1001
ACAD
1000
MTEXTBEGIN
1070
    73
1070
     1
1070
    44
1040
1.0
1070
    74
1070
     0
1000
MTEXTEND
1000
MTEXTBEGIN
1070
    73
1070
     1
1070
    44
1040
1.0
1070
    74
1070
     0
1000
MTEXTEND
  0
LINE
  5
1405
330
6BA
100
AcDbEntity
  8
SUNPOU
100
AcDbLine
 10
180.3309004230176
 20
295.5795136456389
 30
0.0
 11
183.3309004230176
 21
295.5795136456389
 31
0.0
  0
INSERT
  5
1406
330
6BA
100
AcDbEntity
  8
SUNPOU
100
AcDbBlockReference
  2
_OPEN30
 10
180.3309004230176
 20
295.5795136456389
 30
0.0
 41
5.0
 42
5.0
 43
5.0
  0
INSERT
  5
1407
330
6BA
100
AcDbEntity
  8
SUNPOU
100
AcDbBlockReference
  2
_OPEN30
 10
183.3309004230176
 20
295.5795136456389
 30
0.0
 41
5.0
 42
5.0
 43
5.0
 50
180.0
  0
POINT
  5
1408
330
6BA
100
AcDbEntity
  8
DEFPOINTS
 62
     0
100
AcDbPoint
 10
180.3309004230176
 20
295.5795136456389
 30
0.0
  0
POINT
  5
1409
330
6BA
100
AcDbEntity
  8
DEFPOINTS
 62
     0
100
AcDbPoint
 10
183.3309004230176
 20
324.8323899371068
 30
0.0
  0
POINT
  5
140A
330
6BA
100
AcDbEntity
  8
DEFPOINTS
 62
     0
100
AcDbPoint
 10
183.3309004230176
 20
295.5795136456389
 30
0.0
  0
ENDBLK
  5
6C6
330
6BA
100
AcDbEntity
  8
0
100
AcDbBlockEnd
  0
BLOCK
  5
6D2
330
6C8
100
AcDbEntity
  8
0
100
AcDbBlockBegin
  2
*D8
 70
     1
 10
0.0
 20
0.0
 30
0.0
  3
*D8
  1

  0
LINE
  5
13F7
330
6C8
100
AcDbEntity
  8
SUNPOU
100
AcDbLine
 10
183.3309004230176
 20
321.8323899371068
 30
0.0
 11
183.3309004230176
 21
293.5795136456389
 31
0.0
  0
LINE
  5
13F8
330
6C8
100
AcDbEntity
  8
SUNPOU
100
AcDbLine
 10
297.3309004230177
 20
321.8323899371068
 30
0.0
 11
297.3309004230177
 21
293.5795136456389
 31
0.0
  0
LINE
  5
13F9
330
6C8
100
AcDbEntity
  8
SUNPOU
100
AcDbLine
 10
188.3309004230176
 20
295.5795136456389
 30
0.0
 11
292.3309004230176
 21
295.5795136456389
 31
0.0
  0
MTEXT
  5
13FA
330
6C8
100
AcDbEntity
  8
SUNPOU
100
AcDbMText
 10
253.0255149593621
 20
300.0795136456388
 30
0.0
 40
5.0
 41
0.0
 71
     5
 72
     1
  1
\A1;114
  7
SUNPOU
1001
ACAD
1000
MTEXTBEGIN
1070
    73
1070
     1
1070
    44
1040
1.0
1070
    74
1070
     0
1000
MTEXTEND
1000
MTEXTBEGIN
1070
    73
1070
     1
1070
    44
1040
1.0
1070
    74
1070
     0
1000
MTEXTEND
  0
INSERT
  5
13FB
330
6C8
100
AcDbEntity
  8
SUNPOU
100
AcDbBlockReference
  2
_OPEN30
 10
183.3309004230176
 20
295.5795136456389
 30
0.0
 41
5.0
 42
5.0
 43
5.0
 50
180.0
  0
INSERT
  5
13FC
330
6C8
100
AcDbEntity
  8
SUNPOU
100
AcDbBlockReference
  2
_OPEN30
 10
297.3309004230177
 20
295.5795136456389
 30
0.0
 41
5.0
 42
5.0
 43
5.0
  0
POINT
  5
13FD
330
6C8
100
AcDbEntity
  8
DEFPOINTS
 62
     0
100
AcDbPoint
 10
183.3309004230176
 20
324.8323899371068
 30
0.0
  0
POINT
  5
13FE
330
6C8
100
AcDbEntity
  8
DEFPOINTS
 62
     0
100
AcDbPoint
 10
297.3309004230177
 20
324.8323899371068
 30
0.0
  0
POINT
  5
13FF
330
6C8
100
AcDbEntity
  8
DEFPOINTS
 62
     0
100
AcDbPoint
 10
297.3309004230177
 20
295.5795136456389
 30
0.0
  0
ENDBLK
  5
6D3
330
6C8
100
AcDbEntity
  8
0
100
AcDbBlockEnd
  0
BLOCK
  5
6E0
330
6D5
100
AcDbEntity
  8
0
100
AcDbBlockBegin
  2
*D9
 70
     1
 10
0.0
 20
0.0
 30
0.0
  3
*D9
  1

  0
LINE
  5
13EC
330
6D5
100
AcDbEntity
  8
SUNPOU
100
AcDbLine
 10
297.3309004230177
 20
321.8323899371068
 30
0.0
 11
297.3309004230177
 21
293.5795136456389
 31
0.0
  0
LINE
  5
13ED
330
6D5
100
AcDbEntity
  8
SUNPOU
100
AcDbLine
 10
300.3309004230176
 20
298.579513645639
 30
0.0
 11
300.3309004230176
 21
297.5795136456389
 31
0.0
  0
LINE
  5
13EE
330
6D5
100
AcDbEntity
  8
SUNPOU
100
AcDbLine
 10
292.3309004230176
 20
295.5795136456389
 30
0.0
 11
287.3309004230176
 21
295.5795136456389
 31
0.0
  0
LINE
  5
13EF
330
6D5
100
AcDbEntity
  8
SUNPOU
100
AcDbLine
 10
305.3309004230176
 20
295.5795136456389
 30
0.0
 11
310.3309004230176
 21
295.5795136456389
 31
0.0
  0
MTEXT
  5
13F0
330
6D5
100
AcDbEntity
  8
SUNPOU
100
AcDbMText
 10
307.3051528619016
 20
300.1118273332429
 30
0.0
 40
5.0
 41
0.0
 71
     5
 72
     1
  1
\A1;3
  7
SUNPOU
1001
ACAD
1000
MTEXTBEGIN
1070
    73
1070
     1
1070
    44
1040
1.0
1070
    74
1070
     0
1000
MTEXTEND
1000
MTEXTBEGIN
1070
    73
1070
     1
1070
    44
1040
1.0
1070
    74
1070
     0
1000
MTEXTEND
  0
LINE
  5
13F1
330
6D5
100
AcDbEntity
  8
SUNPOU
100
AcDbLine
 10
297.3309004230177
 20
295.5795136456389
 30
0.0
 11
300.3309004230176
 21
295.5795136456389
 31
0.0
  0
INSERT
  5
13F2
330
6D5
100
AcDbEntity
  8
SUNPOU
100
AcDbBlockReference
  2
_OPEN30
 10
297.3309004230177
 20
295.5795136456389
 30
0.0
 41
5.0
 42
5.0
 43
5.0
  0
INSERT
  5
13F3
330
6D5
100
AcDbEntity
  8
SUNPOU
100
AcDbBlockReference
  2
_OPEN30
 10
300.3309004230176
 20
295.5795136456389
 30
0.0
 41
5.0
 42
5.0
 43
5.0
 50
180.0
  0
POINT
  5
13F4
330
6D5
100
AcDbEntity
  8
DEFPOINTS
 62
     0
100
AcDbPoint
 10
297.3309004230177
 20
324.8323899371068
 30
0.0
  0
POINT
  5
13F5
330
6D5
100
AcDbEntity
  8
DEFPOINTS
 62
     0
100
AcDbPoint
 10
300.3309004230176
 20
295.5795136456389
 30
0.0
  0
POINT
  5
13F6
330
6D5
100
AcDbEntity
  8
DEFPOINTS
 62
     0
100
AcDbPoint
 10
300.3309004230176
 20
295.5795136456389
 30
0.0
  0
ENDBLK
  5
6E1
330
6D5
100
AcDbEntity
  8
0
100
AcDbBlockEnd
  0
BLOCK
  5
6EB
330
6E3
100
AcDbEntity
  8
0
100
AcDbBlockBegin
  2
*D10
 70
     1
 10
0.0
 20
0.0
 30
0.0
  3
*D10
  1

  0
LINE
  5
13E3
330
6E3
100
AcDbEntity
  8
SUNPOU
100
AcDbLine
 10
180.3309004230176
 20
287.1336794807305
 30
0.0
 11
180.3309004230176
 21
286.1336794807303
 31
0.0
  0
LINE
  5
13E4
330
6E3
100
AcDbEntity
  8
SUNPOU
100
AcDbLine
 10
300.3309004230176
 20
287.1336794807305
 30
0.0
 11
300.3309004230176
 21
286.1336794807303
 31
0.0
  0
LINE
  5
13E5
330
6E3
100
AcDbEntity
  8
SUNPOU
100
AcDbLine
 10
185.3309004230176
 20
284.1336794807303
 30
0.0
 11
295.3309004230177
 21
284.1336794807303
 31
0.0
  0
MTEXT
  5
13E6
330
6E3
100
AcDbEntity
  8
SUNPOU
100
AcDbMText
 10
252.9296959898791
 20
288.6336794807305
 30
0.0
 40
5.0
 41
0.0
 71
     5
 72
     1
  1
\A1;120
  7
SUNPOU
1001
ACAD
1000
MTEXTBEGIN
1070
    73
1070
     1
1070
    44
1040
1.0
1070
    74
1070
     0
1000
MTEXTEND
1000
MTEXTBEGIN
1070
    73
1070
     1
1070
    44
1040
1.0
1070
    74
1070
     0
1000
MTEXTEND
  0
INSERT
  5
13E7
330
6E3
100
AcDbEntity
  8
SUNPOU
100
AcDbBlockReference
  2
_OPEN30
 10
180.3309004230176
 20
284.1336794807303
 30
0.0
 41
5.0
 42
5.0
 43
5.0
 50
180.0
  0
INSERT
  5
13E8
330
6E3
100
AcDbEntity
  8
SUNPOU
100
AcDbBlockReference
  2
_OPEN30
 10
300.3309004230176
 20
284.1336794807303
 30
0.0
 41
5.0
 42
5.0
 43
5.0
  0
POINT
  5
13E9
330
6E3
100
AcDbEntity
  8
DEFPOINTS
 62
     0
100
AcDbPoint
 10
180.3309004230176
 20
284.1336794807303
 30
0.0
  0
POINT
  5
13EA
330
6E3
100
AcDbEntity
  8
DEFPOINTS
 62
     0
100
AcDbPoint
 10
300.3309004230176
 20
284.1336794807303
 30
0.0
  0
POINT
  5
13EB
330
6E3
100
AcDbEntity
  8
DEFPOINTS
 62
     0
100
AcDbPoint
 10
300.3309004230176
 20
284.1336794807303
 30
0.0
  0
ENDBLK
  5
6EC
330
6E3
100
AcDbEntity
  8
0
100
AcDbBlockEnd
  0
BLOCK
  5
723
330
717
100
AcDbEntity
  8
0
100
AcDbBlockBegin
  2
*D11
 70
     1
 10
0.0
 20
0.0
 30
0.0
  3
*D11
  1

  0
LINE
  5
13BB
330
717
100
AcDbEntity
  8
SUNPOU
100
AcDbLine
 10
203.3309004230155
 20
321.0823899371068
 30
0.0
 11
138.3309004230177
 21
321.0823899371068
 31
0.0
  0
LINE
  5
13BC
330
717
100
AcDbEntity
  8
SUNPOU
100
AcDbLine
 10
181.0809004230176
 20
324.0823899371068
 30
0.0
 11
138.3309004230177
 21
324.0823899371068
 31
0.0
  0
LINE
  5
13BD
330
717
100
AcDbEntity
  8
SUNPOU
100
AcDbLine
 10
140.3309004230177
 20
316.0823899371068
 30
0.0
 11
140.3309004230177
 21
311.0823899371069
 31
0.0
  0
LINE
  5
13BE
330
717
100
AcDbEntity
  8
SUNPOU
100
AcDbLine
 10
140.3309004230177
 20
329.0823899371068
 30
0.0
 11
140.3309004230177
 21
334.0823899371069
 31
0.0
  0
MTEXT
  5
13BF
330
717
100
AcDbEntity
  8
SUNPOU
100
AcDbMText
 10
132.8309004230177
 20
322.5823899371068
 30
0.0
 40
5.0
 41
0.0
 71
     5
 72
     1
  1
\A1;3
  7
SUNPOU
 11
0.0000000000000001
 21
1.0
 31
0.0
1001
ACAD
1000
MTEXTBEGIN
1070
    73
1070
     1
1070
    44
1040
1.0
1070
    74
1070
     0
1000
MTEXTEND
1000
MTEXTBEGIN
1070
    73
1070
     1
1070
    44
1040
1.0
1070
    74
1070
     0
1000
MTEXTEND
  0
LINE
  5
13C0
330
717
100
AcDbEntity
  8
SUNPOU
100
AcDbLine
 10
140.3309004230177
 20
321.0823899371068
 30
0.0
 11
140.3309004230177
 21
324.0823899371068
 31
0.0
  0
INSERT
  5
13C1
330
717
100
AcDbEntity
  8
SUNPOU
100
AcDbBlockReference
  2
_OPEN30
 10
140.3309004230177
 20
321.0823899371068
 30
0.0
 41
5.0
 42
5.0
 43
5.0
 50
90.0
  0
INSERT
  5
13C2
330
717
100
AcDbEntity
  8
SUNPOU
100
AcDbBlockReference
  2
_OPEN30
 10
140.3309004230177
 20
324.0823899371068
 30
0.0
 41
5.0
 42
5.0
 43
5.0
 50
270.0
  0
POINT
  5
13C3
330
717
100
AcDbEntity
  8
DEFPOINTS
 62
     0
100
AcDbPoint
 10
206.3309004230155
 20
321.0823899371068
 30
0.0
  0
POINT
  5
13C4
330
717
100
AcDbEntity
  8
DEFPOINTS
 62
     0
100
AcDbPoint
 10
184.0809004230176
 20
324.0823899371068
 30
0.0
  0
POINT
  5
13C5
330
717
100
AcDbEntity
  8
DEFPOINTS
 62
     0
100
AcDbPoint
 10
140.3309004230177
 20
324.0823899371068
 30
0.0
  0
ENDBLK
  5
724
330
717
100
AcDbEntity
  8
0
100
AcDbBlockEnd
  0
BLOCK
  5
730
330
726
100
AcDbEntity
  8
0
100
AcDbBlockBegin
  2
*D12
 70
     1
 10
0.0
 20
0.0
 30
0.0
  3
*D12
  1

  0
LINE
  5
13B2
330
726
100
AcDbEntity
  8
SUNPOU
100
AcDbLine
 10
181.0809004230176
 20
324.0823899371068
 30
0.0
 11
138.3309004230177
 21
324.0823899371068
 31
0.0
  0
LINE
  5
13B3
330
726
100
AcDbEntity
  8
SUNPOU
100
AcDbLine
 10
181.0809004230176
 20
506.0823899371069
 30
0.0
 11
138.3309004230177
 21
506.0823899371069
 31
0.0
  0
LINE
  5
13B4
330
726
100
AcDbEntity
  8
SUNPOU
100
AcDbLine
 10
140.3309004230177
 20
329.0823899371068
 30
0.0
 11
140.3309004230177
 21
501.0823899371067
 31
0.0
  0
INSERT
  5
13B5
330
726
100
AcDbEntity
  8
SUNPOU
100
AcDbBlockReference
  2
_OPEN30
 10
140.3309004230177
 20
324.0823899371068
 30
0.0
 41
5.0
 42
5.0
 43
5.0
 50
270.0
  0
INSERT
  5
13B6
330
726
100
AcDbEntity
  8
SUNPOU
100
AcDbBlockReference
  2
_OPEN30
 10
140.3309004230177
 20
506.0823899371069
 30
0.0
 41
5.0
 42
5.0
 43
5.0
 50
90.0
  0
MTEXT
  5
13B7
330
726
100
AcDbEntity
  8
SUNPOU
100
AcDbMText
 10
135.8309004230177
 20
415.0823899371069
 30
0.0
 40
5.0
 41
0.0
 71
     5
 72
     1
  1
\A1;182
  7
SUNPOU
 11
0.0000000000000001
 21
1.0
 31
0.0
1001
ACAD
1000
MTEXTBEGIN
1070
    73
1070
     1
1070
    44
1040
1.0
1070
    74
1070
     0
1000
MTEXTEND
1000
MTEXTBEGIN
1070
    73
1070
     1
1070
    44
1040
1.0
1070
    74
1070
     0
1000
MTEXTEND
  0
POINT
  5
13B8
330
726
100
AcDbEntity
  8
DEFPOINTS
 62
     0
100
AcDbPoint
 10
184.0809004230176
 20
324.0823899371068
 30
0.0
  0
POINT
  5
13B9
330
726
100
AcDbEntity
  8
DEFPOINTS
 62
     0
100
AcDbPoint
 10
184.0809004230176
 20
506.0823899371069
 30
0.0
  0
POINT
  5
13BA
330
726
100
AcDbEntity
  8
DEFPOINTS
 62
     0
100
AcDbPoint
 10
140.3309004230177
 20
506.0823899371069
 30
0.0
  0
ENDBLK
  5
731
330
726
100
AcDbEntity
  8
0
100
AcDbBlockEnd
  0
BLOCK
  5
73D
330
733
100
AcDbEntity
  8
0
100
AcDbBlockBegin
  2
*D13
 70
     1
 10
0.0
 20
0.0
 30
0.0
  3
*D13
  1

  0
LINE
  5
13A9
330
733
100
AcDbEntity
  8
SUNPOU
100
AcDbLine
 10
181.0809004230176
 20
506.0823899371069
 30
0.0
 11
138.3309004230177
 21
506.0823899371069
 31
0.0
  0
LINE
  5
13AA
330
733
100
AcDbEntity
  8
SUNPOU
100
AcDbLine
 10
186.0809004230176
 20
524.0823899371068
 30
0.0
 11
138.3309004230177
 21
524.0823899371068
 31
0.0
  0
LINE
  5
13AB
330
733
100
AcDbEntity
  8
SUNPOU
100
AcDbLine
 10
140.3309004230177
 20
511.0823899371069
 30
0.0
 11
140.3309004230177
 21
519.0823899371069
 31
0.0
  0
INSERT
  5
13AC
330
733
100
AcDbEntity
  8
SUNPOU
100
AcDbBlockReference
  2
_OPEN30
 10
140.3309004230177
 20
506.0823899371069
 30
0.0
 41
5.0
 42
5.0
 43
5.0
 50
270.0
  0
INSERT
  5
13AD
330
733
100
AcDbEntity
  8
SUNPOU
100
AcDbBlockReference
  2
_OPEN30
 10
140.3309004230177
 20
524.0823899371068
 30
0.0
 41
5.0
 42
5.0
 43
5.0
 50
90.0
  0
MTEXT
  5
13AE
330
733
100
AcDbEntity
  8
SUNPOU
100
AcDbMText
 10
135.8309004230177
 20
515.0823899371069
 30
0.0
 40
5.0
 41
0.0
 71
     5
 72
     1
  1
\A1;18
  7
SUNPOU
 11
0.0000000000000001
 21
1.0
 31
0.0
1001
ACAD
1000
MTEXTBEGIN
1070
    73
1070
     1
1070
    44
1040
1.0
1070
    74
1070
     0
1000
MTEXTEND
1000
MTEXTBEGIN
1070
    73
1070
     1
1070
    44
1040
1.0
1070
    74
1070
     0
1000
MTEXTEND
  0
POINT
  5
13AF
330
733
100
AcDbEntity
  8
DEFPOINTS
 62
     0
100
AcDbPoint
 10
184.0809004230176
 20
506.0823899371069
 30
0.0
  0
POINT
  5
13B0
330
733
100
AcDbEntity
  8
DEFPOINTS
 62
     0
100
AcDbPoint
 10
189.0809004230176
 20
524.0823899371068
 30
0.0
  0
POINT
  5
13B1
330
733
100
AcDbEntity
  8
DEFPOINTS
 62
     0
100
AcDbPoint
 10
140.3309004230177
 20
524.0823899371068
 30
0.0
  0
ENDBLK
  5
73E
330
733
100
AcDbEntity
  8
0
100
AcDbBlockEnd
  0
BLOCK
  5
74A
330
740
100
AcDbEntity
  8
0
100
AcDbBlockBegin
  2
*D14
 70
     1
 10
0.0
 20
0.0
 30
0.0
  3
*D14
  1

  0
LINE
  5
13A0
330
740
100
AcDbEntity
  8
SUNPOU
100
AcDbLine
 10
181.0809004230176
 20
324.0823899371068
 30
0.0
 11
158.3309004230176
 21
324.0823899371068
 31
0.0
  0
LINE
  5
13A1
330
740
100
AcDbEntity
  8
SUNPOU
100
AcDbLine
 10
184.9355048182054
 20
396.0823208378775
 30
0.0
 11
158.3309004230176
 21
396.0823208378775
 31
0.0
  0
LINE
  5
13A2
330
740
100
AcDbEntity
  8
SUNPOU
100
AcDbLine
 10
160.3309004230176
 20
329.0823899371068
 30
0.0
 11
160.3309004230176
 21
391.0823208378774
 31
0.0
  0
INSERT
  5
13A3
330
740
100
AcDbEntity
  8
SUNPOU
100
AcDbBlockReference
  2
_OPEN30
 10
160.3309004230176
 20
324.0823899371068
 30
0.0
 41
5.0
 42
5.0
 43
5.0
 50
270.0
  0
INSERT
  5
13A4
330
740
100
AcDbEntity
  8
SUNPOU
100
AcDbBlockReference
  2
_OPEN30
 10
160.3309004230176
 20
396.0823208378775
 30
0.0
 41
5.0
 42
5.0
 43
5.0
 50
90.0
  0
MTEXT
  5
13A5
330
740
100
AcDbEntity
  8
SUNPOU
100
AcDbMText
 10
155.8309004230176
 20
360.0823553874922
 30
0.0
 40
5.0
 41
0.0
 71
     5
 72
     1
  1
\A1;72
  7
SUNPOU
 11
0.0000000000000001
 21
1.0
 31
0.0
1001
ACAD
1000
MTEXTBEGIN
1070
    73
1070
     1
1070
    44
1040
1.0
1070
    74
1070
     0
1000
MTEXTEND
1000
MTEXTBEGIN
1070
    73
1070
     1
1070
    44
1040
1.0
1070
    74
1070
     0
1000
MTEXTEND
  0
POINT
  5
13A6
330
740
100
AcDbEntity
  8
DEFPOINTS
 62
     0
100
AcDbPoint
 10
184.0809004230176
 20
324.0823899371068
 30
0.0
  0
POINT
  5
13A7
330
740
100
AcDbEntity
  8
DEFPOINTS
 62
     0
100
AcDbPoint
 10
187.9355048182054
 20
396.0823208378775
 30
0.0
  0
POINT
  5
13A8
330
740
100
AcDbEntity
  8
DEFPOINTS
 62
     0
100
AcDbPoint
 10
160.3309004230176
 20
396.0823208378775
 30
0.0
  0
ENDBLK
  5
74B
330
740
100
AcDbEntity
  8
0
100
AcDbBlockEnd
  0
BLOCK
  5
757
330
74D
100
AcDbEntity
  8
0
100
AcDbBlockBegin
  2
*D15
 70
     1
 10
0.0
 20
0.0
 30
0.0
  3
*D15
  1

  0
LINE
  5
1397
330
74D
100
AcDbEntity
  8
SUNPOU
100
AcDbLine
 10
184.9355048182054
 20
396.0823208378775
 30
0.0
 11
158.3309004230176
 21
396.0823208378775
 31
0.0
  0
LINE
  5
1398
330
74D
100
AcDbEntity
  8
SUNPOU
100
AcDbLine
 10
184.9355048182054
 20
471.0827098295514
 30
0.0
 11
158.3309004230178
 21
471.0827098295514
 31
0.0
  0
LINE
  5
1399
330
74D
100
AcDbEntity
  8
SUNPOU
100
AcDbLine
 10
160.3309004230176
 20
401.0823208378774
 30
0.0
 11
160.3309004230178
 21
466.0827098295514
 31
0.0
  0
INSERT
  5
139A
330
74D
100
AcDbEntity
  8
SUNPOU
100
AcDbBlockReference
  2
_OPEN30
 10
160.3309004230176
 20
396.0823208378775
 30
0.0
 41
5.0
 42
5.0
 43
5.0
 50
270.0
  0
INSERT
  5
139B
330
74D
100
AcDbEntity
  8
SUNPOU
100
AcDbBlockReference
  2
_OPEN30
 10
160.3309004230178
 20
471.0827098295514
 30
0.0
 41
5.0
 42
5.0
 43
5.0
 50
90.0
  0
MTEXT
  5
139C
330
74D
100
AcDbEntity
  8
SUNPOU
100
AcDbMText
 10
155.8309004230176
 20
433.5825153337145
 30
0.0
 40
5.0
 41
0.0
 71
     5
 72
     1
  1
\A1;75
  7
SUNPOU
 11
0.0000000000000001
 21
1.0
 31
0.0
1001
ACAD
1000
MTEXTBEGIN
1070
    73
1070
     1
1070
    44
1040
1.0
1070
    74
1070
     0
1000
MTEXTEND
1000
MTEXTBEGIN
1070
    73
1070
     1
1070
    44
1040
1.0
1070
    74
1070
     0
1000
MTEXTEND
  0
POINT
  5
139D
330
74D
100
AcDbEntity
  8
DEFPOINTS
 62
     0
100
AcDbPoint
 10
187.9355048182054
 20
396.0823208378775
 30
0.0
  0
POINT
  5
139E
330
74D
100
AcDbEntity
  8
DEFPOINTS
 62
     0
100
AcDbPoint
 10
187.9355048182054
 20
471.0827098295514
 30
0.0
  0
POINT
  5
139F
330
74D
100
AcDbEntity
  8
DEFPOINTS
 62
     0
100
AcDbPoint
 10
160.3309004230178
 20
471.0827098295514
 30
0.0
  0
ENDBLK
  5
758
330
74D
100
AcDbEntity
  8
0
100
AcDbBlockEnd
  0
BLOCK
  5
773
330
769
100
AcDbEntity
  8
0
100
AcDbBlockBegin
  2
*D16
 70
     1
 10
0.0
 20
0.0
 30
0.0
  3
*D16
  1

  0
LINE
  5
170C
330
769
100
AcDbEntity
  8
SUNPOU
100
AcDbLine
 10
204.3309004230155
 20
98.08238993710729
 30
0.0
 11
158.3309004230176
 21
98.08238993710729
 31
0.0
  0
LINE
  5
170D
330
769
100
AcDbEntity
  8
SUNPOU
100
AcDbLine
 10
174.3309004230176
 20
219.0823899371068
 30
0.0
 11
158.3309004230178
 21
219.0823899371068
 31
0.0
  0
LINE
  5
170E
330
769
100
AcDbEntity
  8
SUNPOU
100
AcDbLine
 10
160.3309004230176
 20
103.0823899371071
 30
0.0
 11
160.3309004230178
 21
214.0823899371068
 31
0.0
  0
INSERT
  5
170F
330
769
100
AcDbEntity
  8
SUNPOU
100
AcDbBlockReference
  2
_OPEN30
 10
160.3309004230176
 20
98.08238993710729
 30
0.0
 41
5.0
 42
5.0
 43
5.0
 50
270.0
  0
INSERT
  5
1710
330
769
100
AcDbEntity
  8
SUNPOU
100
AcDbBlockReference
  2
_OPEN30
 10
160.3309004230178
 20
219.0823899371068
 30
0.0
 41
5.0
 42
5.0
 43
5.0
 50
90.0
  0
MTEXT
  5
1711
330
769
100
AcDbEntity
  8
SUNPOU
100
AcDbMText
 10
155.8309004230176
 20
158.582389937107
 30
0.0
 40
5.0
 41
0.0
 71
     5
 72
     1
  1
\A1;600
  7
SUNPOU
 11
0.0000000000000001
 21
1.0
 31
0.0
1001
ACAD
1000
MTEXTBEGIN
1070
    73
1070
     1
1070
    44
1040
1.0
1070
    74
1070
     0
1000
MTEXTEND
1000
MTEXTBEGIN
1070
    73
1070
     1
1070
    44
1040
1.0
1070
    74
1070
     0
1000
MTEXTEND
  0
POINT
  5
1712
330
769
100
AcDbEntity
  8
DEFPOINTS
 62
     0
100
AcDbPoint
 10
207.3309004230155
 20
98.08238993710729
 30
0.0
  0
POINT
  5
1713
330
769
100
AcDbEntity
  8
DEFPOINTS
 62
     0
100
AcDbPoint
 10
177.3309004230176
 20
219.0823899371068
 30
0.0
  0
POINT
  5
1714
330
769
100
AcDbEntity
  8
DEFPOINTS
 62
     0
100
AcDbPoint
 10
160.3309004230178
 20
219.0823899371068
 30
0.0
  0
ENDBLK
  5
774
330
769
100
AcDbEntity
  8
0
100
AcDbBlockEnd
  0
BLOCK
  5
79D
330
793
100
AcDbEntity
  8
0
100
AcDbBlockBegin
  2
*D17
 70
     1
 10
0.0
 20
0.0
 30
0.0
  3
*D17
  1

  0
LINE
  5
148B
330
793
100
AcDbEntity
  8
SUNPOU
100
AcDbLine
 10
278.3309004230179
 20
108.082389937107
 30
0.0
 11
322.3309004230177
 21
108.082389937107
 31
0.0
  0
LINE
  5
148C
330
793
100
AcDbEntity
  8
SUNPOU
100
AcDbLine
 10
276.3309004230176
 20
203.0823899371072
 30
0.0
 11
322.3309004230177
 21
203.0823899371072
 31
0.0
  0
LINE
  5
148D
330
793
100
AcDbEntity
  8
SUNPOU
100
AcDbLine
 10
320.3309004230177
 20
113.082389937107
 30
0.0
 11
320.3309004230177
 21
198.0823899371072
 31
0.0
  0
INSERT
  5
148E
330
793
100
AcDbEntity
  8
SUNPOU
100
AcDbBlockReference
  2
_OPEN30
 10
320.3309004230177
 20
108.082389937107
 30
0.0
 41
5.0
 42
5.0
 43
5.0
 50
270.0
  0
INSERT
  5
148F
330
793
100
AcDbEntity
  8
SUNPOU
100
AcDbBlockReference
  2
_OPEN30
 10
320.3309004230177
 20
203.0823899371072
 30
0.0
 41
5.0
 42
5.0
 43
5.0
 50
90.0
  0
MTEXT
  5
1490
330
793
100
AcDbEntity
  8
SUNPOU
100
AcDbMText
 10
315.8309004230176
 20
155.5823899371072
 30
0.0
 40
5.0
 41
0.0
 71
     5
 72
     1
  1
\A1;95
  7
SUNPOU
 11
0.0000000000000001
 21
1.0
 31
0.0
1001
ACAD
1000
MTEXTBEGIN
1070
    73
1070
     1
1070
    44
1040
1.0
1070
    74
1070
     0
1000
MTEXTEND
1000
MTEXTBEGIN
1070
    73
1070
     1
1070
    44
1040
1.0
1070
    74
1070
     0
1000
MTEXTEND
  0
POINT
  5
1491
330
793
100
AcDbEntity
  8
DEFPOINTS
 62
     0
100
AcDbPoint
 10
275.3309004230179
 20
108.082389937107
 30
0.0
  0
POINT
  5
1492
330
793
100
AcDbEntity
  8
DEFPOINTS
 62
     0
100
AcDbPoint
 10
273.3309004230176
 20
203.0823899371072
 30
0.0
  0
POINT
  5
1493
330
793
100
AcDbEntity
  8
DEFPOINTS
 62
     0
100
AcDbPoint
 10
320.3309004230177
 20
203.0823899371072
 30
0.0
  0
ENDBLK
  5
79E
330
793
100
AcDbEntity
  8
0
100
AcDbBlockEnd
  0
BLOCK
  5
7AC
330
7A0
100
AcDbEntity
  8
0
100
AcDbBlockBegin
  2
*D18
 70
     1
 10
0.0
 20
0.0
 30
0.0
  3
*D18
  1

  0
LINE
  5
1366
330
7A0
100
AcDbEntity
  8
SUNPOU
100
AcDbLine
 10
299.5809004230176
 20
324.0823899371068
 30
0.0
 11
335.7121677433019
 21
324.0823899371068
 31
0.0
  0
LINE
  5
1367
330
7A0
100
AcDbEntity
  8
SUNPOU
100
AcDbLine
 10
278.3309004230178
 20
331.082389937107
 30
0.0
 11
335.7121677433019
 21
331.082389937107
 31
0.0
  0
LINE
  5
1368
330
7A0
100
AcDbEntity
  8
SUNPOU
100
AcDbLine
 10
333.7121677433019
 20
319.0823899371068
 30
0.0
 11
333.7121677433019
 21
314.0823899371068
 31
0.0
  0
LINE
  5
1369
330
7A0
100
AcDbEntity
  8
SUNPOU
100
AcDbLine
 10
333.7121677433019
 20
336.0823899371069
 30
0.0
 11
333.7121677433019
 21
341.082389937107
 31
0.0
  0
LINE
  5
136A
330
7A0
100
AcDbEntity
  8
SUNPOU
100
AcDbLine
 10
333.7121677433019
 20
324.0823899371068
 30
0.0
 11
333.7121677433019
 21
331.082389937107
 31
0.0
  0
INSERT
  5
136B
330
7A0
100
AcDbEntity
  8
SUNPOU
100
AcDbBlockReference
  2
_OPEN30
 10
333.7121677433019
 20
324.0823899371068
 30
0.0
 41
5.0
 42
5.0
 43
5.0
 50
90.0
  0
INSERT
  5
136C
330
7A0
100
AcDbEntity
  8
SUNPOU
100
AcDbBlockReference
  2
_OPEN30
 10
333.7121677433019
 20
331.082389937107
 30
0.0
 41
5.0
 42
5.0
 43
5.0
 50
270.0
  0
MTEXT
  5
136D
330
7A0
100
AcDbEntity
  8
SUNPOU
100
AcDbMText
 10
329.2121677433019
 20
327.5823899371069
 30
0.0
 40
5.0
 41
0.0
 71
     5
 72
     1
  1
\A1;7
  7
SUNPOU
 11
0.0000000000000001
 21
1.0
 31
0.0
1001
ACAD
1000
MTEXTBEGIN
1070
    73
1070
     1
1070
    44
1040
1.0
1070
    74
1070
     0
1000
MTEXTEND
1000
MTEXTBEGIN
1070
    73
1070
     1
1070
    44
1040
1.0
1070
    74
1070
     0
1000
MTEXTEND
  0
POINT
  5
136E
330
7A0
100
AcDbEntity
  8
DEFPOINTS
 62
     0
100
AcDbPoint
 10
296.5809004230176
 20
324.0823899371068
 30
0.0
  0
POINT
  5
136F
330
7A0
100
AcDbEntity
  8
DEFPOINTS
 62
     0
100
AcDbPoint
 10
275.3309004230178
 20
331.082389937107
 30
0.0
  0
POINT
  5
1370
330
7A0
100
AcDbEntity
  8
DEFPOINTS
 62
     0
100
AcDbPoint
 10
333.7121677433019
 20
331.082389937107
 30
0.0
  0
ENDBLK
  5
7AD
330
7A0
100
AcDbEntity
  8
0
100
AcDbBlockEnd
  0
BLOCK
  5
7B9
330
7AF
100
AcDbEntity
  8
0
100
AcDbBlockBegin
  2
*D19
 70
     1
 10
0.0
 20
0.0
 30
0.0
  3
*D19
  1

  0
LINE
  5
1703
330
7AF
100
AcDbEntity
  8
SUNPOU
100
AcDbLine
 10
292.330900423018
 20
101.0823899371072
 30
0.0
 11
362.3309004230176
 21
101.0823899371072
 31
0.0
  0
LINE
  5
1704
330
7AF
100
AcDbEntity
  8
SUNPOU
100
AcDbLine
 10
299.5809004230176
 20
324.0823899371068
 30
0.0
 11
362.3309004230176
 21
324.0823899371068
 31
0.0
  0
LINE
  5
1705
330
7AF
100
AcDbEntity
  8
SUNPOU
100
AcDbLine
 10
360.3309004230176
 20
106.0823899371073
 30
0.0
 11
360.3309004230176
 21
319.0823899371068
 31
0.0
  0
INSERT
  5
1706
330
7AF
100
AcDbEntity
  8
SUNPOU
100
AcDbBlockReference
  2
_OPEN30
 10
360.3309004230176
 20
101.0823899371072
 30
0.0
 41
5.0
 42
5.0
 43
5.0
 50
270.0
  0
INSERT
  5
1707
330
7AF
100
AcDbEntity
  8
SUNPOU
100
AcDbBlockReference
  2
_OPEN30
 10
360.3309004230176
 20
324.0823899371068
 30
0.0
 41
5.0
 42
5.0
 43
5.0
 50
90.0
  0
MTEXT
  5
1708
330
7AF
100
AcDbEntity
  8
SUNPOU
100
AcDbMText
 10
355.8309004230177
 20
212.582389937107
 30
0.0
 40
5.0
 41
0.0
 71
     5
 72
     1
  1
\A1;Ｈ
  7
SUNPOU
 11
0.0000000000000001
 21
1.0
 31
0.0
1001
ACAD
1000
MTEXTBEGIN
1070
    73
1070
     1
1070
    44
1040
1.0
1070
    74
1070
     0
1000
MTEXTEND
1000
MTEXTBEGIN
1070
    73
1070
     1
1070
    44
1040
1.0
1070
    74
1070
     0
1000
MTEXTEND
  0
POINT
  5
1709
330
7AF
100
AcDbEntity
  8
DEFPOINTS
 62
     0
100
AcDbPoint
 10
289.3309004230179
 20
101.0823899371072
 30
0.0
  0
POINT
  5
170A
330
7AF
100
AcDbEntity
  8
DEFPOINTS
 62
     0
100
AcDbPoint
 10
296.5809004230176
 20
324.0823899371068
 30
0.0
  0
POINT
  5
170B
330
7AF
100
AcDbEntity
  8
DEFPOINTS
 62
     0
100
AcDbPoint
 10
360.3309004230176
 20
324.0823899371068
 30
0.0
  0
ENDBLK
  5
7BA
330
7AF
100
AcDbEntity
  8
0
100
AcDbBlockEnd
  0
BLOCK
  5
7C6
330
7BC
100
AcDbEntity
  8
0
100
AcDbBlockBegin
  2
*D20
 70
     1
 10
0.0
 20
0.0
 30
0.0
  3
*D20
  1

  0
LINE
  5
1354
330
7BC
100
AcDbEntity
  8
SUNPOU
100
AcDbLine
 10
299.5809004230176
 20
324.0823899371068
 30
0.0
 11
362.3309004230176
 21
324.0823899371068
 31
0.0
  0
LINE
  5
1355
330
7BC
100
AcDbEntity
  8
SUNPOU
100
AcDbLine
 10
300.3309004230176
 20
524.0823899371068
 30
0.0
 11
362.3309004230176
 21
524.0823899371068
 31
0.0
  0
LINE
  5
1356
330
7BC
100
AcDbEntity
  8
SUNPOU
100
AcDbLine
 10
360.3309004230176
 20
329.0823899371068
 30
0.0
 11
360.3309004230176
 21
519.0823899371069
 31
0.0
  0
INSERT
  5
1357
330
7BC
100
AcDbEntity
  8
SUNPOU
100
AcDbBlockReference
  2
_OPEN30
 10
360.3309004230176
 20
324.0823899371068
 30
0.0
 41
5.0
 42
5.0
 43
5.0
 50
270.0
  0
INSERT
  5
1358
330
7BC
100
AcDbEntity
  8
SUNPOU
100
AcDbBlockReference
  2
_OPEN30
 10
360.3309004230176
 20
524.0823899371068
 30
0.0
 41
5.0
 42
5.0
 43
5.0
 50
90.0
  0
MTEXT
  5
1359
330
7BC
100
AcDbEntity
  8
SUNPOU
100
AcDbMText
 10
355.8309004230177
 20
424.0823899371068
 30
0.0
 40
5.0
 41
0.0
 71
     5
 72
     1
  1
\A1;200
  7
SUNPOU
 11
0.0000000000000001
 21
1.0
 31
0.0
1001
ACAD
1000
MTEXTBEGIN
1070
    73
1070
     1
1070
    44
1040
1.0
1070
    74
1070
     0
1000
MTEXTEND
1000
MTEXTBEGIN
1070
    73
1070
     1
1070
    44
1040
1.0
1070
    74
1070
     0
1000
MTEXTEND
  0
POINT
  5
135A
330
7BC
100
AcDbEntity
  8
DEFPOINTS
 62
     0
100
AcDbPoint
 10
296.5809004230176
 20
324.0823899371068
 30
0.0
  0
POINT
  5
135B
330
7BC
100
AcDbEntity
  8
DEFPOINTS
 62
     0
100
AcDbPoint
 10
297.3309004230177
 20
524.0823899371068
 30
0.0
  0
POINT
  5
135C
330
7BC
100
AcDbEntity
  8
DEFPOINTS
 62
     0
100
AcDbPoint
 10
360.3309004230176
 20
524.0823899371068
 30
0.0
  0
ENDBLK
  5
7C7
330
7BC
100
AcDbEntity
  8
0
100
AcDbBlockEnd
  0
BLOCK
  5
7D3
330
7C9
100
AcDbEntity
  8
0
100
AcDbBlockBegin
  2
*D21
 70
     1
 10
0.0
 20
0.0
 30
0.0
  3
*D21
  1

  0
LINE
  5
14BE
330
7C9
100
AcDbEntity
  8
SUNPOU
100
AcDbLine
 10
203.3309004230155
 20
108.0823899371069
 30
0.0
 11
138.3309004230177
 21
108.082389937107
 31
0.0
  0
LINE
  5
14BF
330
7C9
100
AcDbEntity
  8
SUNPOU
100
AcDbLine
 10
205.3309004230155
 20
203.0823899371068
 30
0.0
 11
138.3309004230177
 21
203.082389937107
 31
0.0
  0
LINE
  5
14C0
330
7C9
100
AcDbEntity
  8
SUNPOU
100
AcDbLine
 10
140.3309004230177
 20
113.082389937107
 30
0.0
 11
140.3309004230177
 21
198.082389937107
 31
0.0
  0
MTEXT
  5
14C1
330
7C9
100
AcDbEntity
  8
SUNPOU
100
AcDbMText
 10
135.8309004230177
 20
155.400590748694
 30
0.0
 40
5.0
 41
0.0
 71
     5
 72
     1
  1
\A1;95
  7
SUNPOU
 11
0.0000000000000001
 21
1.0
 31
0.0
1001
ACAD
1000
MTEXTBEGIN
1070
    73
1070
     1
1070
    44
1040
1.0
1070
    74
1070
     0
1000
MTEXTEND
1000
MTEXTBEGIN
1070
    73
1070
     1
1070
    44
1040
1.0
1070
    74
1070
     0
1000
MTEXTEND
  0
INSERT
  5
14C2
330
7C9
100
AcDbEntity
  8
SUNPOU
100
AcDbBlockReference
  2
_OPEN30
 10
140.3309004230177
 20
108.082389937107
 30
0.0
 41
5.0
 42
5.0
 43
5.0
 50
270.0
  0
INSERT
  5
14C3
330
7C9
100
AcDbEntity
  8
SUNPOU
100
AcDbBlockReference
  2
_OPEN30
 10
140.3309004230177
 20
203.082389937107
 30
0.0
 41
5.0
 42
5.0
 43
5.0
 50
90.0
  0
POINT
  5
14C4
330
7C9
100
AcDbEntity
  8
DEFPOINTS
 62
     0
100
AcDbPoint
 10
206.3309004230155
 20
108.0823899371069
 30
0.0
  0
POINT
  5
14C5
330
7C9
100
AcDbEntity
  8
DEFPOINTS
 62
     0
100
AcDbPoint
 10
208.3309004230155
 20
203.0823899371068
 30
0.0
  0
POINT
  5
14C6
330
7C9
100
AcDbEntity
  8
DEFPOINTS
 62
     0
100
AcDbPoint
 10
140.3309004230177
 20
203.082389937107
 30
0.0
  0
ENDBLK
  5
7D4
330
7C9
100
AcDbEntity
  8
0
100
AcDbBlockEnd
  0
BLOCK
  5
871
330
869
100
AcDbEntity
  8
0
100
AcDbBlockBegin
  2
*D22
 70
     1
 10
0.0
 20
0.0
 30
0.0
  3
*D22
  1

  0
LINE
  5
1F70
330
869
100
AcDbEntity
  8
SUNPOU
100
AcDbLine
 10
199.3175226458758
 20
413.181453018123
 30
0.0
 11
199.3175226458758
 21
412.1814530181231
 31
0.0
  0
LINE
  5
1F71
330
869
100
AcDbEntity
  8
SUNPOU
100
AcDbLine
 10
259.3310229337345
 20
408.0286124699121
 30
0.0
 11
259.3310229337345
 21
412.1814530181231
 31
0.0
  0
LINE
  5
1F72
330
869
100
AcDbEntity
  8
SUNPOU
100
AcDbLine
 10
204.3175226458758
 20
410.1814530181232
 30
0.0
 11
254.3310229337345
 21
410.1814530181232
 31
0.0
  0
INSERT
  5
1F73
330
869
100
AcDbEntity
  8
SUNPOU
100
AcDbBlockReference
  2
_OPEN30
 10
199.3175226458758
 20
410.1814530181232
 30
0.0
 41
5.0
 42
5.0
 43
5.0
 50
180.0
  0
INSERT
  5
1F74
330
869
100
AcDbEntity
  8
SUNPOU
100
AcDbBlockReference
  2
_OPEN30
 10
259.3310229337345
 20
410.1814530181232
 30
0.0
 41
5.0
 42
5.0
 43
5.0
  0
MTEXT
  5
1F75
330
869
100
AcDbEntity
  8
SUNPOU
100
AcDbMText
 10
229.3242727898051
 20
414.6814530181232
 30
0.0
 40
5.0
 41
0.0
 71
     5
 72
     1
  1
\A1;60
  7
SUNPOU
1001
ACAD
1000
MTEXTBEGIN
1070
    73
1070
     1
1070
    44
1040
1.0
1070
    74
1070
     0
1000
MTEXTEND
1000
MTEXTBEGIN
1070
    73
1070
     1
1070
    44
1040
1.0
1070
    74
1070
     0
1000
MTEXTEND
  0
POINT
  5
1F76
330
869
100
AcDbEntity
  8
DEFPOINTS
 62
     0
100
AcDbPoint
 10
199.3175226458758
 20
410.1814530181232
 30
0.0
  0
POINT
  5
1F77
330
869
100
AcDbEntity
  8
DEFPOINTS
 62
     0
100
AcDbPoint
 10
259.3310229337345
 20
405.0286124699121
 30
0.0
  0
POINT
  5
1F78
330
869
100
AcDbEntity
  8
DEFPOINTS
 62
     0
100
AcDbPoint
 10
259.3310229337345
 20
410.1814530181232
 30
0.0
  0
ENDBLK
  5
872
330
869
100
AcDbEntity
  8
0
100
AcDbBlockEnd
  0
BLOCK
  5
D62
330
D59
100
AcDbEntity
  8
0
100
AcDbBlockBegin
  2
*D23
 70
     1
 10
0.0
 20
0.0
 30
0.0
  3
*D23
  1

  0
LINE
  5
133A
330
D59
100
AcDbEntity
  8
SUNPOU
100
AcDbLine
 10
217.9212056148873
 20
452.4242525608579
 30
0.0
 11
214.2687531422389
 21
449.0096382436848
 31
0.0
  0
LINE
  5
133B
330
D59
100
AcDbEntity
  8
SUNPOU
100
AcDbLine
 10
247.1408253960744
 20
479.7411670982444
 30
0.0
 11
250.7932778687228
 21
483.1557814154177
 31
0.0
  0
MTEXT
  5
133C
330
D59
100
AcDbEntity
  8
SUNPOU
100
AcDbMText
 10
229.6864226899193
 20
469.1797446239818
 30
0.0
 40
5.0
 41
0.0
 71
     5
 72
     1
  1
\A1;配線孔\U+220530
  7
SUNPOU
 11
0.7304904945296761
 21
0.6829228634346558
 31
0.0
1001
ACAD
1000
MTEXTBEGIN
1070
    73
1070
     1
1070
    44
1040
1.0
1070
    74
1070
     0
1000
MTEXTEND
1000
MTEXTBEGIN
1070
    73
1070
     1
1070
    44
1040
1.0
1070
    74
1070
     0
1000
MTEXTEND
  0
LINE
  5
133D
330
D59
100
AcDbEntity
  8
SUNPOU
100
AcDbLine
 10
221.5736580875357
 20
455.8388668780312
 30
0.0
 11
243.4883729234261
 21
476.3265527810711
 31
0.0
  0
INSERT
  5
133E
330
D59
100
AcDbEntity
  8
SUNPOU
100
AcDbBlockReference
  2
_OPEN30
 10
221.5736580875357
 20
455.8388668780312
 30
0.0
 41
5.0
 42
5.0
 43
5.0
 50
43.07247028711787
  0
INSERT
  5
133F
330
D59
100
AcDbEntity
  8
SUNPOU
100
AcDbBlockReference
  2
_OPEN30
 10
243.4883729234261
 20
476.3265527810711
 30
0.0
 41
5.0
 42
5.0
 43
5.0
 50
223.0724702871178
  0
POINT
  5
1340
330
D59
100
AcDbEntity
  8
DEFPOINTS
 62
     0
100
AcDbPoint
 10
243.4883729234261
 20
476.3265527810711
 30
0.0
  0
POINT
  5
1341
330
D59
100
AcDbEntity
  8
DEFPOINTS
 62
     0
100
AcDbPoint
 10
221.5736580875357
 20
455.8388668780312
 30
0.0
  0
ENDBLK
  5
D63
330
D59
100
AcDbEntity
  8
0
100
AcDbBlockEnd
  0
BLOCK
  5
14A1
330
1497
100
AcDbEntity
  8
0
100
AcDbBlockBegin
  2
*D24
 70
     1
 10
0.0
 20
0.0
 30
0.0
  3
*D24
  1

  0
LINE
  5
1C71
330
1497
100
AcDbEntity
  8
SUNPOU
100
AcDbLine
 10
276.0809004230178
 20
236.0823899371069
 30
0.0
 11
322.3309004230177
 21
236.0823899371068
 31
0.0
  0
LINE
  5
1C72
330
1497
100
AcDbEntity
  8
SUNPOU
100
AcDbLine
 10
278.3309004230178
 20
331.082389937107
 30
0.0
 11
322.3309004230177
 21
331.082389937107
 31
0.0
  0
LINE
  5
1C73
330
1497
100
AcDbEntity
  8
SUNPOU
100
AcDbLine
 10
320.3309004230177
 20
241.0823899371068
 30
0.0
 11
320.3309004230177
 21
326.0823899371068
 31
0.0
  0
INSERT
  5
1C74
330
1497
100
AcDbEntity
  8
SUNPOU
100
AcDbBlockReference
  2
_OPEN30
 10
320.3309004230177
 20
236.0823899371068
 30
0.0
 41
5.0
 42
5.0
 43
5.0
 50
270.0
  0
INSERT
  5
1C75
330
1497
100
AcDbEntity
  8
SUNPOU
100
AcDbBlockReference
  2
_OPEN30
 10
320.3309004230177
 20
331.082389937107
 30
0.0
 41
5.0
 42
5.0
 43
5.0
 50
90.0
  0
MTEXT
  5
1C76
330
1497
100
AcDbEntity
  8
SUNPOU
100
AcDbMText
 10
315.8309004230176
 20
283.5823899371068
 30
0.0
 40
5.0
 41
0.0
 71
     5
 72
     1
  1
\A1;95
  7
SUNPOU
 11
0.0000000000000001
 21
1.0
 31
0.0
1001
ACAD
1000
MTEXTBEGIN
1070
    73
1070
     1
1070
    44
1040
1.0
1070
    74
1070
     0
1000
MTEXTEND
1000
MTEXTBEGIN
1070
    73
1070
     1
1070
    44
1040
1.0
1070
    74
1070
     0
1000
MTEXTEND
  0
POINT
  5
1C77
330
1497
100
AcDbEntity
  8
DEFPOINTS
 62
     0
100
AcDbPoint
 10
273.0809004230177
 20
236.0823899371069
 30
0.0
  0
POINT
  5
1C78
330
1497
100
AcDbEntity
  8
DEFPOINTS
 62
     0
100
AcDbPoint
 10
275.3309004230178
 20
331.082389937107
 30
0.0
  0
POINT
  5
1C79
330
1497
100
AcDbEntity
  8
DEFPOINTS
 62
     0
100
AcDbPoint
 10
320.3309004230177
 20
331.082389937107
 30
0.0
  0
ENDBLK
  5
14A2
330
1497
100
AcDbEntity
  8
0
100
AcDbBlockEnd
  0
BLOCK
  5
14D3
330
14C9
100
AcDbEntity
  8
0
100
AcDbBlockBegin
  2
*D25
 70
     1
 10
0.0
 20
0.0
 30
0.0
  3
*D25
  1

  0
LINE
  5
1C68
330
14C9
100
AcDbEntity
  8
SUNPOU
100
AcDbLine
 10
205.5809004230156
 20
236.0823899371067
 30
0.0
 11
138.3309004230177
 21
236.0823899371068
 31
0.0
  0
LINE
  5
1C69
330
14C9
100
AcDbEntity
  8
SUNPOU
100
AcDbLine
 10
203.3309004230155
 20
321.0823899371068
 30
0.0
 11
138.3309004230177
 21
321.0823899371068
 31
0.0
  0
LINE
  5
1C6A
330
14C9
100
AcDbEntity
  8
SUNPOU
100
AcDbLine
 10
140.3309004230177
 20
241.0823899371068
 30
0.0
 11
140.3309004230177
 21
316.0823899371068
 31
0.0
  0
MTEXT
  5
1C6B
330
14C9
100
AcDbEntity
  8
SUNPOU
100
AcDbMText
 10
135.8309004230177
 20
289.6377559347011
 30
0.0
 40
5.0
 41
0.0
 71
     5
 72
     1
  1
\A1;85
  7
SUNPOU
 11
0.0000000000000001
 21
1.0
 31
0.0
1001
ACAD
1000
MTEXTBEGIN
1070
    73
1070
     1
1070
    44
1040
1.0
1070
    74
1070
     0
1000
MTEXTEND
1000
MTEXTBEGIN
1070
    73
1070
     1
1070
    44
1040
1.0
1070
    74
1070
     0
1000
MTEXTEND
  0
INSERT
  5
1C6C
330
14C9
100
AcDbEntity
  8
SUNPOU
100
AcDbBlockReference
  2
_OPEN30
 10
140.3309004230177
 20
236.0823899371068
 30
0.0
 41
5.0
 42
5.0
 43
5.0
 50
270.0
  0
INSERT
  5
1C6D
330
14C9
100
AcDbEntity
  8
SUNPOU
100
AcDbBlockReference
  2
_OPEN30
 10
140.3309004230177
 20
321.0823899371068
 30
0.0
 41
5.0
 42
5.0
 43
5.0
 50
90.0
  0
POINT
  5
1C6E
330
14C9
100
AcDbEntity
  8
DEFPOINTS
 62
     0
100
AcDbPoint
 10
208.5809004230156
 20
236.0823899371067
 30
0.0
  0
POINT
  5
1C6F
330
14C9
100
AcDbEntity
  8
DEFPOINTS
 62
     0
100
AcDbPoint
 10
206.3309004230155
 20
321.0823899371068
 30
0.0
  0
POINT
  5
1C70
330
14C9
100
AcDbEntity
  8
DEFPOINTS
 62
     0
100
AcDbPoint
 10
140.3309004230177
 20
321.0823899371068
 30
0.0
  0
ENDBLK
  5
14D4
330
14C9
100
AcDbEntity
  8
0
100
AcDbBlockEnd
  0
BLOCK
  5
153E
330
153D
100
AcDbEntity
  8
0
100
AcDbBlockBegin
  2
_DOTSMALL
 70
     0
 10
0.0
 20
0.0
 30
0.0
  3
_DOTSMALL
  1

  0
POLYLINE
  5
153F
330
153D
100
AcDbEntity
  8
0
  6
BYBLOCK
 62
     0
100
AcDb2dPolyline
 66
     1
 10
0.0
 20
0.0
 30
0.0
 70
     1
 40
0.5
 41
0.5
  0
VERTEX
  5
20AC
330
153F
100
AcDbEntity
  8
0
  6
BYBLOCK
 62
     0
100
AcDbVertex
100
AcDb2dVertex
 10
-0.0625
 20
0.0
 30
0.0
 42
1.0
  0
VERTEX
  5
20AD
330
153F
100
AcDbEntity
  8
0
  6
BYBLOCK
 62
     0
100
AcDbVertex
100
AcDb2dVertex
 10
0.0625
 20
0.0
 30
0.0
 42
1.0
  0
SEQEND
  5
20AE
330
153F
100
AcDbEntity
  8
0
  6
BYBLOCK
 62
     0
  0
ENDBLK
  5
1540
330
153D
100
AcDbEntity
  8
0
100
AcDbBlockEnd
  0
BLOCK
  5
1683
330
1679
100
AcDbEntity
  8
0
100
AcDbBlockBegin
  2
*D27
 70
     1
 10
0.0
 20
0.0
 30
0.0
  3
*D27
  1

  0
LINE
  5
16C7
330
1679
100
AcDbEntity
  8
SUNPOU
100
AcDbLine
 10
267.8309004230178
 20
68.08238993710722
 30
0.0
 11
267.8309004230178
 21
50.28238993710719
 31
0.0
  0
LINE
  5
16C8
330
1679
100
AcDbEntity
  8
SUNPOU
100
AcDbLine
 10
288.3309004230179
 20
65.28238993710741
 30
0.0
 11
288.3309004230179
 21
50.28238993710719
 31
0.0
  0
LINE
  5
16C9
330
1679
100
AcDbEntity
  8
SUNPOU
100
AcDbLine
 10
272.8309004230179
 20
52.28238993710718
 30
0.0
 11
283.3309004230179
 21
52.28238993710718
 31
0.0
  0
INSERT
  5
16CA
330
1679
100
AcDbEntity
  8
SUNPOU
100
AcDbBlockReference
  2
_OPEN30
 10
267.8309004230178
 20
52.28238993710718
 30
0.0
 41
5.0
 42
5.0
 43
5.0
 50
180.0
  0
INSERT
  5
16CB
330
1679
100
AcDbEntity
  8
SUNPOU
100
AcDbBlockReference
  2
_OPEN30
 10
288.3309004230179
 20
52.28238993710718
 30
0.0
 41
5.0
 42
5.0
 43
5.0
  0
MTEXT
  5
16CC
330
1679
100
AcDbEntity
  8
SUNPOU
100
AcDbMText
 10
278.0809004230178
 20
56.78238993710718
 30
0.0
 40
5.0
 41
0.0
 71
     5
 72
     1
  1
\A1;20.5
  7
SUNPOU
1001
ACAD
1000
MTEXTBEGIN
1070
    73
1070
     1
1070
    44
1040
1.0
1070
    74
1070
     0
1000
MTEXTEND
1000
MTEXTBEGIN
1070
    73
1070
     1
1070
    44
1040
1.0
1070
    74
1070
     0
1000
MTEXTEND
  0
POINT
  5
16CD
330
1679
100
AcDbEntity
  8
DEFPOINTS
 62
     0
100
AcDbPoint
 10
267.8309004230178
 20
71.08238993710722
 30
0.0
  0
POINT
  5
16CE
330
1679
100
AcDbEntity
  8
DEFPOINTS
 62
     0
100
AcDbPoint
 10
288.3309004230179
 20
68.28238993710741
 30
0.0
  0
POINT
  5
16CF
330
1679
100
AcDbEntity
  8
DEFPOINTS
 62
     0
100
AcDbPoint
 10
288.3309004230179
 20
52.28238993710718
 30
0.0
  0
ENDBLK
  5
1684
330
1679
100
AcDbEntity
  8
0
100
AcDbBlockEnd
  0
BLOCK
  5
168F
330
1685
100
AcDbEntity
  8
0
100
AcDbBlockBegin
  2
*D28
 70
     1
 10
0.0
 20
0.0
 30
0.0
  3
*D28
  1

  0
LINE
  5
16D0
330
1685
100
AcDbEntity
  8
SUNPOU
100
AcDbLine
 10
250.8309004230178
 20
68.08238993710725
 30
0.0
 11
250.8309004230178
 21
50.28238993710719
 31
0.0
  0
LINE
  5
16D1
330
1685
100
AcDbEntity
  8
SUNPOU
100
AcDbLine
 10
267.8309004230178
 20
68.08238993710722
 30
0.0
 11
267.8309004230178
 21
50.28238993710719
 31
0.0
  0
LINE
  5
16D2
330
1685
100
AcDbEntity
  8
SUNPOU
100
AcDbLine
 10
255.8309004230179
 20
52.28238993710718
 30
0.0
 11
262.8309004230179
 21
52.28238993710718
 31
0.0
  0
INSERT
  5
16D3
330
1685
100
AcDbEntity
  8
SUNPOU
100
AcDbBlockReference
  2
_OPEN30
 10
250.8309004230178
 20
52.28238993710718
 30
0.0
 41
5.0
 42
5.0
 43
5.0
 50
180.0
  0
INSERT
  5
16D4
330
1685
100
AcDbEntity
  8
SUNPOU
100
AcDbBlockReference
  2
_OPEN30
 10
267.8309004230178
 20
52.28238993710718
 30
0.0
 41
5.0
 42
5.0
 43
5.0
  0
MTEXT
  5
16D5
330
1685
100
AcDbEntity
  8
SUNPOU
100
AcDbMText
 10
259.3309004230178
 20
56.78238993710718
 30
0.0
 40
5.0
 41
0.0
 71
     5
 72
     1
  1
\A1;17
  7
SUNPOU
1001
ACAD
1000
MTEXTBEGIN
1070
    73
1070
     1
1070
    44
1040
1.0
1070
    74
1070
     0
1000
MTEXTEND
1000
MTEXTBEGIN
1070
    73
1070
     1
1070
    44
1040
1.0
1070
    74
1070
     0
1000
MTEXTEND
  0
POINT
  5
16D6
330
1685
100
AcDbEntity
  8
DEFPOINTS
 62
     0
100
AcDbPoint
 10
250.8309004230178
 20
71.08238993710725
 30
0.0
  0
POINT
  5
16D7
330
1685
100
AcDbEntity
  8
DEFPOINTS
 62
     0
100
AcDbPoint
 10
267.8309004230178
 20
71.08238993710722
 30
0.0
  0
POINT
  5
16D8
330
1685
100
AcDbEntity
  8
DEFPOINTS
 62
     0
100
AcDbPoint
 10
267.8309004230178
 20
52.28238993710718
 30
0.0
  0
ENDBLK
  5
1690
330
1685
100
AcDbEntity
  8
0
100
AcDbBlockEnd
  0
BLOCK
  5
169D
330
1691
100
AcDbEntity
  8
0
100
AcDbBlockBegin
  2
*D29
 70
     1
 10
0.0
 20
0.0
 30
0.0
  3
*D29
  1

  0
LINE
  5
16D9
330
1691
100
AcDbEntity
  8
SUNPOU
100
AcDbLine
 10
238.3309004230178
 20
68.08238993710737
 30
0.0
 11
238.3309004230178
 21
50.28238993710719
 31
0.0
  0
LINE
  5
16DA
330
1691
100
AcDbEntity
  8
SUNPOU
100
AcDbLine
 10
250.8309004230178
 20
68.08238993710725
 30
0.0
 11
250.8309004230178
 21
50.28238993710719
 31
0.0
  0
LINE
  5
16DB
330
1691
100
AcDbEntity
  8
SUNPOU
100
AcDbLine
 10
233.3309004230179
 20
52.28238993710718
 30
0.0
 11
228.3309004230179
 21
52.28238993710718
 31
0.0
  0
LINE
  5
16DC
330
1691
100
AcDbEntity
  8
SUNPOU
100
AcDbLine
 10
255.8309004230179
 20
52.28238993710718
 30
0.0
 11
260.8309004230179
 21
52.28238993710718
 31
0.0
  0
MTEXT
  5
16DD
330
1691
100
AcDbEntity
  8
SUNPOU
100
AcDbMText
 10
226.5733349411612
 20
59.84702300507738
 30
0.0
 40
5.0
 41
0.0
 71
     5
 72
     1
  1
\A1;12.5
  7
SUNPOU
1001
ACAD
1000
MTEXTBEGIN
1070
    73
1070
     1
1070
    44
1040
1.0
1070
    74
1070
     0
1000
MTEXTEND
1000
MTEXTBEGIN
1070
    73
1070
     1
1070
    44
1040
1.0
1070
    74
1070
     0
1000
MTEXTEND
  0
LINE
  5
16DE
330
1691
100
AcDbEntity
  8
SUNPOU
100
AcDbLine
 10
238.3309004230178
 20
52.28238993710718
 30
0.0
 11
250.8309004230178
 21
52.28238993710718
 31
0.0
  0
INSERT
  5
16DF
330
1691
100
AcDbEntity
  8
SUNPOU
100
AcDbBlockReference
  2
_OPEN30
 10
238.3309004230178
 20
52.28238993710718
 30
0.0
 41
5.0
 42
5.0
 43
5.0
  0
INSERT
  5
16E0
330
1691
100
AcDbEntity
  8
SUNPOU
100
AcDbBlockReference
  2
_OPEN30
 10
250.8309004230178
 20
52.28238993710718
 30
0.0
 41
5.0
 42
5.0
 43
5.0
 50
180.0
  0
POINT
  5
16E1
330
1691
100
AcDbEntity
  8
DEFPOINTS
 62
     0
100
AcDbPoint
 10
238.3309004230178
 20
71.08238993710736
 30
0.0
  0
POINT
  5
16E2
330
1691
100
AcDbEntity
  8
DEFPOINTS
 62
     0
100
AcDbPoint
 10
250.8309004230178
 20
71.08238993710725
 30
0.0
  0
POINT
  5
16E3
330
1691
100
AcDbEntity
  8
DEFPOINTS
 62
     0
100
AcDbPoint
 10
250.8309004230178
 20
52.28238993710718
 30
0.0
  0
ENDBLK
  5
169E
330
1691
100
AcDbEntity
  8
0
100
AcDbBlockEnd
  0
BLOCK
  5
16AB
330
169F
100
AcDbEntity
  8
0
100
AcDbBlockBegin
  2
*D30
 70
     1
 10
0.0
 20
0.0
 30
0.0
  3
*D30
  1

  0
LINE
  5
1FF3
330
169F
100
AcDbEntity
  8
SUNPOU
100
AcDbLine
 10
292.330900423018
 20
101.0823899371072
 30
0.0
 11
342.3309004230178
 21
101.0823899371072
 31
0.0
  0
LINE
  5
1FF4
330
169F
100
AcDbEntity
  8
SUNPOU
100
AcDbLine
 10
278.3309004230178
 20
108.0823899371073
 30
0.0
 11
342.3309004230178
 21
108.0823899371073
 31
0.0
  0
LINE
  5
1FF5
330
169F
100
AcDbEntity
  8
SUNPOU
100
AcDbLine
 10
340.3309004230178
 20
101.0823899371072
 30
0.0
 11
340.3309004230178
 21
96.08238993710735
 31
0.0
  0
LINE
  5
1FF6
330
169F
100
AcDbEntity
  8
SUNPOU
100
AcDbLine
 10
340.3309004230178
 20
113.0823899371072
 30
0.0
 11
340.3309004230178
 21
118.0823899371072
 31
0.0
  0
MTEXT
  5
1FF7
330
169F
100
AcDbEntity
  8
SUNPOU
100
AcDbMText
 10
334.4631531101628
 20
105.2490325600335
 30
0.0
 40
5.0
 41
0.0
 71
     5
 72
     1
  1
\A1;7
  7
SUNPOU
 11
0.0000000000000001
 21
1.0
 31
0.0
1001
ACAD
1000
MTEXTBEGIN
1070
    73
1070
     1
1070
    44
1040
1.0
1070
    74
1070
     0
1000
MTEXTEND
1000
MTEXTBEGIN
1070
    73
1070
     1
1070
    44
1040
1.0
1070
    74
1070
     0
1000
MTEXTEND
  0
LINE
  5
1FF8
330
169F
100
AcDbEntity
  8
SUNPOU
100
AcDbLine
 10
340.3309004230178
 20
101.0823899371072
 30
0.0
 11
340.3309004230178
 21
108.0823899371073
 31
0.0
  0
INSERT
  5
1FF9
330
169F
100
AcDbEntity
  8
SUNPOU
100
AcDbBlockReference
  2
_DOTSMALL
 10
340.3309004230178
 20
101.0823899371072
 30
0.0
 41
5.0
 42
5.0
 43
5.0
 50
90.0
  0
INSERT
  5
1FFA
330
169F
100
AcDbEntity
  8
SUNPOU
100
AcDbBlockReference
  2
_OPEN30
 10
340.3309004230178
 20
108.0823899371073
 30
0.0
 41
5.0
 42
5.0
 43
5.0
 50
270.0
  0
POINT
  5
1FFB
330
169F
100
AcDbEntity
  8
DEFPOINTS
 62
     0
100
AcDbPoint
 10
289.3309004230179
 20
101.0823899371072
 30
0.0
  0
POINT
  5
1FFC
330
169F
100
AcDbEntity
  8
DEFPOINTS
 62
     0
100
AcDbPoint
 10
275.3309004230178
 20
108.0823899371073
 30
0.0
  0
POINT
  5
1FFD
330
169F
100
AcDbEntity
  8
DEFPOINTS
 62
     0
100
AcDbPoint
 10
340.3309004230178
 20
108.0823899371073
 30
0.0
  0
ENDBLK
  5
16AC
330
169F
100
AcDbEntity
  8
0
100
AcDbBlockEnd
  0
BLOCK
  5
16B7
330
16AD
100
AcDbEntity
  8
0
100
AcDbBlockBegin
  2
*D31
 70
     1
 10
0.0
 20
0.0
 30
0.0
  3
*D31
  1

  0
LINE
  5
16EF
330
16AD
100
AcDbEntity
  8
SUNPOU
100
AcDbLine
 10
303.3309004230178
 20
71.08238993710722
 30
0.0
 11
342.3309004230178
 21
71.08238993710722
 31
0.0
  0
LINE
  5
16F0
330
16AD
100
AcDbEntity
  8
SUNPOU
100
AcDbLine
 10
303.3309004230178
 20
101.082389937107
 30
0.0
 11
342.3309004230178
 21
101.082389937107
 31
0.0
  0
LINE
  5
16F1
330
16AD
100
AcDbEntity
  8
SUNPOU
100
AcDbLine
 10
340.3309004230178
 20
76.08238993710722
 30
0.0
 11
340.3309004230178
 21
96.0823899371072
 31
0.0
  0
INSERT
  5
16F2
330
16AD
100
AcDbEntity
  8
SUNPOU
100
AcDbBlockReference
  2
_OPEN30
 10
340.3309004230178
 20
71.08238993710722
 30
0.0
 41
5.0
 42
5.0
 43
5.0
 50
270.0
  0
INSERT
  5
16F3
330
16AD
100
AcDbEntity
  8
SUNPOU
100
AcDbBlockReference
  2
_OPEN30
 10
340.3309004230178
 20
101.082389937107
 30
0.0
 41
5.0
 42
5.0
 43
5.0
 50
90.0
  0
MTEXT
  5
16F4
330
16AD
100
AcDbEntity
  8
SUNPOU
100
AcDbMText
 10
335.8309004230178
 20
86.08238993710726
 30
0.0
 40
5.0
 41
0.0
 71
     5
 72
     1
  1
\A1;30
  7
SUNPOU
 11
0.0000000000000001
 21
1.0
 31
0.0
1001
ACAD
1000
MTEXTBEGIN
1070
    73
1070
     1
1070
    44
1040
1.0
1070
    74
1070
     0
1000
MTEXTEND
1000
MTEXTBEGIN
1070
    73
1070
     1
1070
    44
1040
1.0
1070
    74
1070
     0
1000
MTEXTEND
  0
POINT
  5
16F5
330
16AD
100
AcDbEntity
  8
DEFPOINTS
 62
     0
100
AcDbPoint
 10
300.3309004230178
 20
71.08238993710722
 30
0.0
  0
POINT
  5
16F6
330
16AD
100
AcDbEntity
  8
DEFPOINTS
 62
     0
100
AcDbPoint
 10
300.3309004230178
 20
101.082389937107
 30
0.0
  0
POINT
  5
16F7
330
16AD
100
AcDbEntity
  8
DEFPOINTS
 62
     0
100
AcDbPoint
 10
340.3309004230178
 20
101.082389937107
 30
0.0
  0
ENDBLK
  5
16B8
330
16AD
100
AcDbEntity
  8
0
100
AcDbBlockEnd
  0
BLOCK
  5
16C5
330
16B9
100
AcDbEntity
  8
0
100
AcDbBlockBegin
  2
*D32
 70
     1
 10
0.0
 20
0.0
 30
0.0
  3
*D32
  1

  0
LINE
  5
1FFE
330
16B9
100
AcDbEntity
  8
SUNPOU
100
AcDbLine
 10
357.3309004230178
 20
101.0823899371072
 30
0.0
 11
358.3309004230176
 21
101.0823899371072
 31
0.0
  0
LINE
  5
1FFF
330
16B9
100
AcDbEntity
  8
SUNPOU
100
AcDbLine
 10
292.330900423018
 20
98.08238993710736
 30
0.0
 11
362.3309004230176
 21
98.08238993710736
 31
0.0
  0
LINE
  5
2000
330
16B9
100
AcDbEntity
  8
SUNPOU
100
AcDbLine
 10
360.3309004230176
 20
106.0823899371073
 30
0.0
 11
360.3309004230176
 21
111.0823899371073
 31
0.0
  0
LINE
  5
2001
330
16B9
100
AcDbEntity
  8
SUNPOU
100
AcDbLine
 10
360.3309004230176
 20
93.08238993710736
 30
0.0
 11
360.3309004230176
 21
88.08238993710736
 31
0.0
  0
MTEXT
  5
2002
330
16B9
100
AcDbEntity
  8
SUNPOU
100
AcDbMText
 10
355.7013268818615
 20
93.56015275833248
 30
0.0
 40
5.0
 41
0.0
 71
     5
 72
     1
  1
\A1;3
  7
SUNPOU
 11
0.0000000000000001
 21
1.0
 31
0.0
1001
ACAD
1000
MTEXTBEGIN
1070
    73
1070
     1
1070
    44
1040
1.0
1070
    74
1070
     0
1000
MTEXTEND
1000
MTEXTBEGIN
1070
    73
1070
     1
1070
    44
1040
1.0
1070
    74
1070
     0
1000
MTEXTEND
  0
LINE
  5
2003
330
16B9
100
AcDbEntity
  8
SUNPOU
100
AcDbLine
 10
360.3309004230176
 20
101.0823899371072
 30
0.0
 11
360.3309004230176
 21
98.08238993710736
 31
0.0
  0
INSERT
  5
2004
330
16B9
100
AcDbEntity
  8
SUNPOU
100
AcDbBlockReference
  2
_OPEN30
 10
360.3309004230176
 20
101.0823899371072
 30
0.0
 41
5.0
 42
5.0
 43
5.0
 50
270.0
  0
INSERT
  5
2005
330
16B9
100
AcDbEntity
  8
SUNPOU
100
AcDbBlockReference
  2
_OPEN30
 10
360.3309004230176
 20
98.08238993710736
 30
0.0
 41
5.0
 42
5.0
 43
5.0
 50
90.0
  0
POINT
  5
2006
330
16B9
100
AcDbEntity
  8
DEFPOINTS
 62
     0
100
AcDbPoint
 10
360.3309004230176
 20
101.0823899371072
 30
0.0
  0
POINT
  5
2007
330
16B9
100
AcDbEntity
  8
DEFPOINTS
 62
     0
100
AcDbPoint
 10
289.3309004230179
 20
98.08238993710736
 30
0.0
  0
POINT
  5
2008
330
16B9
100
AcDbEntity
  8
DEFPOINTS
 62
     0
100
AcDbPoint
 10
360.3309004230176
 20
98.08238993710736
 30
0.0
  0
ENDBLK
  5
16C6
330
16B9
100
AcDbEntity
  8
0
100
AcDbBlockEnd
  0
BLOCK
  5
1F20
330
1F14
100
AcDbEntity
  8
0
100
AcDbBlockBegin
  2
*D33
 70
     1
 10
0.0
 20
0.0
 30
0.0
  3
*D33
  1

  0
LINE
  5
1F15
330
1F14
100
AcDbEntity
  8
SUNPOU
100
AcDbLine
 10
137.3309004230177
 20
98.08238993710716
 30
0.0
 11
138.3309004230177
 21
98.08238993710716
 31
0.0
  0
LINE
  5
1F16
330
1F14
100
AcDbEntity
  8
SUNPOU
100
AcDbLine
 10
203.3309004230155
 20
108.0823899371069
 30
0.0
 11
138.3309004230177
 21
108.082389937107
 31
0.0
  0
LINE
  5
1F17
330
1F14
100
AcDbEntity
  8
SUNPOU
100
AcDbLine
 10
140.3309004230177
 20
93.08238993710714
 30
0.0
 11
140.3309004230177
 21
88.08238993710714
 31
0.0
  0
LINE
  5
1F18
330
1F14
100
AcDbEntity
  8
SUNPOU
100
AcDbLine
 10
140.3309004230177
 20
113.082389937107
 30
0.0
 11
140.3309004230177
 21
118.082389937107
 31
0.0
  0
LINE
  5
1F19
330
1F14
100
AcDbEntity
  8
SUNPOU
100
AcDbLine
 10
140.3309004230177
 20
98.08238993710716
 30
0.0
 11
140.3309004230177
 21
108.082389937107
 31
0.0
  0
INSERT
  5
1F1A
330
1F14
100
AcDbEntity
  8
SUNPOU
100
AcDbBlockReference
  2
_OPEN30
 10
140.3309004230177
 20
98.08238993710716
 30
0.0
 41
5.0
 42
5.0
 43
5.0
 50
90.0
  0
INSERT
  5
1F1B
330
1F14
100
AcDbEntity
  8
SUNPOU
100
AcDbBlockReference
  2
_OPEN30
 10
140.3309004230177
 20
108.082389937107
 30
0.0
 41
5.0
 42
5.0
 43
5.0
 50
270.0
  0
MTEXT
  5
1F1C
330
1F14
100
AcDbEntity
  8
SUNPOU
100
AcDbMText
 10
135.8309004230177
 20
103.082389937107
 30
0.0
 40
5.0
 41
0.0
 71
     5
 72
     1
  1
\A1;10
  7
SUNPOU
 11
0.0000000000000001
 21
1.0
 31
0.0
1001
ACAD
1000
MTEXTBEGIN
1070
    73
1070
     1
1070
    44
1040
1.0
1070
    74
1070
     0
1000
MTEXTEND
1000
MTEXTBEGIN
1070
    73
1070
     1
1070
    44
1040
1.0
1070
    74
1070
     0
1000
MTEXTEND
  0
POINT
  5
1F1D
330
1F14
100
AcDbEntity
  8
DEFPOINTS
 62
     0
100
AcDbPoint
 10
140.3309004230177
 20
98.08238993710716
 30
0.0
  0
POINT
  5
1F1E
330
1F14
100
AcDbEntity
  8
DEFPOINTS
 62
     0
100
AcDbPoint
 10
206.3309004230155
 20
108.0823899371069
 30
0.0
  0
POINT
  5
1F1F
330
1F14
100
AcDbEntity
  8
DEFPOINTS
 62
     0
100
AcDbPoint
 10
140.3309004230177
 20
108.082389937107
 30
0.0
  0
ENDBLK
  5
1F21
330
1F14
100
AcDbEntity
  8
0
100
AcDbBlockEnd
  0
BLOCK
  5
1F65
330
1F5B
100
AcDbEntity
  8
0
100
AcDbBlockBegin
  2
*D34
 70
     1
 10
0.0
 20
0.0
 30
0.0
  3
*D34
  1

  0
LINE
  5
1F67
330
1F5B
100
AcDbEntity
  8
SUNPOU
100
AcDbLine
 10
183.3309004230176
 20
413.181453018123
 30
0.0
 11
183.3309004230176
 21
412.1814530181231
 31
0.0
  0
LINE
  5
1F68
330
1F5B
100
AcDbEntity
  8
SUNPOU
100
AcDbLine
 10
199.3175226458758
 20
413.181453018123
 30
0.0
 11
199.3175226458758
 21
412.1814530181231
 31
0.0
  0
LINE
  5
1F69
330
1F5B
100
AcDbEntity
  8
SUNPOU
100
AcDbLine
 10
188.3309004230176
 20
410.1814530181232
 30
0.0
 11
194.3175226458757
 21
410.1814530181232
 31
0.0
  0
MTEXT
  5
1F6A
330
1F5B
100
AcDbEntity
  8
SUNPOU
100
AcDbMText
 10
190.0594426842239
 20
414.6814530181232
 30
0.0
 40
5.0
 41
0.0
 71
     5
 72
     1
  1
\A1;16
  7
SUNPOU
1001
ACAD
1000
MTEXTBEGIN
1070
    73
1070
     1
1070
    44
1040
1.0
1070
    74
1070
     0
1000
MTEXTEND
1000
MTEXTBEGIN
1070
    73
1070
     1
1070
    44
1040
1.0
1070
    74
1070
     0
1000
MTEXTEND
  0
INSERT
  5
1F6B
330
1F5B
100
AcDbEntity
  8
SUNPOU
100
AcDbBlockReference
  2
_OPEN30
 10
183.3309004230176
 20
410.1814530181232
 30
0.0
 41
5.0
 42
5.0
 43
5.0
 50
180.0
  0
INSERT
  5
1F6C
330
1F5B
100
AcDbEntity
  8
SUNPOU
100
AcDbBlockReference
  2
_OPEN30
 10
199.3175226458758
 20
410.1814530181232
 30
0.0
 41
5.0
 42
5.0
 43
5.0
  0
POINT
  5
1F6D
330
1F5B
100
AcDbEntity
  8
DEFPOINTS
 62
     0
100
AcDbPoint
 10
183.3309004230176
 20
410.1814530181232
 30
0.0
  0
POINT
  5
1F6E
330
1F5B
100
AcDbEntity
  8
DEFPOINTS
 62
     0
100
AcDbPoint
 10
199.3175226458758
 20
410.1814530181232
 30
0.0
  0
POINT
  5
1F6F
330
1F5B
100
AcDbEntity
  8
DEFPOINTS
 62
     0
100
AcDbPoint
 10
199.3175226458758
 20
410.1814530181232
 30
0.0
  0
ENDBLK
  5
1F66
330
1F5B
100
AcDbEntity
  8
0
100
AcDbBlockEnd
  0
ENDSEC
  0
SECTION
  2
ENTITIES
  0
LINE
  5
1A3
330
A
100
AcDbEntity
  8
03
100
AcDbLine
 10
224.0809004230176
 20
524.0823899371068
 30
0.0
 11
273.5809004230176
 21
524.0823899371068
 31
0.0
  0
LINE
  5
1A4
330
A
100
AcDbEntity
  8
03
100
AcDbLine
 10
277.3309004230176
 20
524.0823899371068
 30
0.0
 11
297.3309004230177
 21
524.0823899371068
 31
0.0
  0
LINE
  5
1A5
330
A
100
AcDbEntity
  8
03
100
AcDbLine
 10
297.3309004230177
 20
524.0823899371068
 30
0.0
 11
297.3309004230177
 21
324.8323899371068
 31
0.0
  0
LINE
  5
1A6
330
A
100
AcDbEntity
  8
03
100
AcDbLine
 10
296.5809004230176
 20
324.0823899371068
 30
0.0
 11
281.0809004230176
 21
324.0823899371068
 31
0.0
  0
ARC
  5
1A7
330
A
100
AcDbEntity
  8
03
100
AcDbCircle
 10
296.5809004230176
 20
324.8323899371068
 30
0.0
 40
0.75
100
AcDbArc
 50
269.9999999999999
 51
0.0
  0
LINE
  5
1A8
330
A
100
AcDbEntity
  8
03
100
AcDbLine
 10
180.3309004230176
 20
579.0823899371067
 30
0.0
 11
180.3309004230176
 21
539.0823899371069
 31
0.0
  0
LINE
  5
1A9
330
A
100
AcDbEntity
  8
03
100
AcDbLine
 10
180.3309004230176
 20
534.0823899371067
 30
0.0
 11
180.3309004230176
 21
231.082389937107
 31
0.0
  0
LINE
  5
1AB
330
A
100
AcDbEntity
  8
03
100
AcDbLine
 10
300.3309004230176
 20
579.0823899371071
 30
0.0
 11
300.3309004230176
 21
539.0823899371069
 31
0.0
  0
LINE
  5
1AC
330
A
100
AcDbEntity
  8
03
100
AcDbLine
 10
300.3309004230176
 20
534.0823899371067
 30
0.0
 11
300.3309004230176
 21
231.082389937107
 31
0.0
  0
LINE
  5
1AD
330
A
100
AcDbEntity
  8
03
100
AcDbLine
 10
300.3309004230176
 20
209.0823899371069
 30
0.0
 11
300.3309004230176
 21
183.9767782346559
 31
0.0
  0
LINE
  5
1AE
330
A
100
AcDbEntity
  8
03
100
AcDbLine
 10
300.3309004230176
 20
120.9743186582808
 30
0.0
 11
300.3309004230176
 21
102.082389937107
 31
0.0
  0
LINE
  5
1AF
330
A
100
AcDbEntity
  8
03
100
AcDbLine
 10
184.8309004230176
 20
504.5823899371067
 30
0.0
 11
184.8309004230176
 21
341.5823899371068
 31
0.0
  0
LINE
  5
1B0
330
A
100
AcDbEntity
  8
03
100
AcDbLine
 10
224.8309004230176
 20
522.5823899371069
 30
0.0
 11
272.8309004230176
 21
522.5823899371069
 31
0.0
  0
LINE
  5
1B1
330
A
100
AcDbEntity
  8
03
100
AcDbLine
 10
278.8309004230177
 20
522.5823899371069
 30
0.0
 11
295.8309004230176
 21
522.5823899371069
 31
0.0
  0
LINE
  5
1B2
330
A
100
AcDbEntity
  8
03
100
AcDbLine
 10
295.8309004230176
 20
522.5823899371069
 30
0.0
 11
295.8309004230176
 21
325.5823899371069
 31
0.0
  0
LINE
  5
1B3
330
A
100
AcDbEntity
  8
03
100
AcDbLine
 10
295.8309004230176
 20
325.5823899371069
 30
0.0
 11
281.8309004230178
 21
325.5823899371069
 31
0.0
  0
LINE
  5
1B4
330
A
100
AcDbEntity
  8
03
100
AcDbLine
 10
280.3309004230176
 20
336.0823899371069
 30
0.0
 11
281.8309004230178
 21
336.0823899371069
 31
0.0
  0
LINE
  5
1B5
330
A
100
AcDbEntity
  8
03
100
AcDbLine
 10
277.3309004230176
 20
523.3323899371067
 30
0.0
 11
277.3309004230176
 21
509.0823899371067
 31
0.0
  0
ARC
  5
1B6
330
A
100
AcDbEntity
  8
03
100
AcDbCircle
 10
278.0809004230176
 20
523.3323899371067
 30
0.0
 40
0.75
100
AcDbArc
 50
90.00000000000005
 51
179.9999999999999
  0
LINE
  5
1B7
330
A
100
AcDbEntity
  8
03
100
AcDbLine
 10
278.8309004230177
 20
522.5823899371069
 30
0.0
 11
278.8309004230177
 21
509.0823899371067
 31
0.0
  0
LINE
  5
1B8
330
A
100
AcDbEntity
  8
03
100
AcDbLine
 10
274.3309004230176
 20
523.3323899371067
 30
0.0
 11
274.3309004230176
 21
508.0823899371067
 31
0.0
  0
ARC
  5
1B9
330
A
100
AcDbEntity
  8
03
100
AcDbCircle
 10
273.5809004230176
 20
523.3323899371067
 30
0.0
 40
0.75
100
AcDbArc
 50
0.0
 51
90.0
  0
LINE
  5
1BA
330
A
100
AcDbEntity
  8
03
100
AcDbLine
 10
277.3309004230176
 20
509.0823899371067
 30
0.0
 11
278.8309004230177
 21
509.0823899371067
 31
0.0
  0
LINE
  5
1BB
330
A
100
AcDbEntity
  8
03
100
AcDbLine
 10
274.3309004230176
 20
508.0823899371067
 30
0.0
 11
284.8309004230177
 21
508.0823899371067
 31
0.0
  0
LINE
  5
1BC
330
A
100
AcDbEntity
  8
03
100
AcDbLine
 10
273.5809004230176
 20
506.5823899371069
 30
0.0
 11
284.8309004230177
 21
506.5823899371069
 31
0.0
  0
ARC
  5
1BD
330
A
100
AcDbEntity
  8
03
100
AcDbCircle
 10
273.5809004230176
 20
507.3323899371067
 30
0.0
 40
0.75
100
AcDbArc
 50
179.9999999999999
 51
270.0
  0
LINE
  5
1BE
330
A
100
AcDbEntity
  8
03
100
AcDbLine
 10
284.8309004230177
 20
508.0823899371067
 30
0.0
 11
284.8309004230177
 21
506.5823899371069
 31
0.0
  0
LINE
  5
1BF
330
A
100
AcDbEntity
  8
03
100
AcDbLine
 10
205.3309004230176
 20
523.3323899371067
 30
0.0
 11
205.3309004230176
 21
506.0823899371069
 31
0.0
  0
LINE
  5
1C0
330
A
100
AcDbEntity
  8
03
100
AcDbLine
 10
203.8309004230177
 20
522.5823899371069
 30
0.0
 11
203.8309004230177
 21
506.0823899371069
 31
0.0
  0
LINE
  5
1C1
330
A
100
AcDbEntity
  8
03
100
AcDbLine
 10
223.3309004230176
 20
523.3323899371067
 30
0.0
 11
223.3309004230178
 21
506.0823899371069
 31
0.0
  0
ARC
  5
1C2
330
A
100
AcDbEntity
  8
03
100
AcDbCircle
 10
224.0809004230176
 20
523.3323899371067
 30
0.0
 40
0.75
100
AcDbArc
 50
89.99999999999998
 51
179.9999999999999
  0
LINE
  5
1C3
330
A
100
AcDbEntity
  8
03
100
AcDbLine
 10
224.8309004230176
 20
522.5823899371069
 30
0.0
 11
224.8309004230176
 21
505.3323899371068
 31
0.0
  0
LINE
  5
1C4
330
A
100
AcDbEntity
  8
03
100
AcDbLine
 10
184.0809004230176
 20
506.0823899371069
 30
0.0
 11
223.3309004230178
 21
506.0823899371069
 31
0.0
  0
ARC
  5
1C5
330
A
100
AcDbEntity
  8
03
100
AcDbCircle
 10
184.0809004230176
 20
505.3323899371068
 30
0.0
 40
0.75
100
AcDbArc
 50
89.99999999999998
 51
179.9999999999999
  0
ARC
  5
1C6
330
A
100
AcDbEntity
  8
03
100
AcDbCircle
 10
224.0809004230176
 20
505.3323899371068
 30
0.0
 40
0.75
100
AcDbArc
 50
269.9999999999999
 51
0.0
  0
LINE
  5
1C7
330
A
100
AcDbEntity
  8
03
100
AcDbLine
 10
188.3309004230176
 20
523.3323899371067
 30
0.0
 11
188.3309004230176
 21
506.0823899371069
 31
0.0
  0
LINE
  5
1C8
330
A
100
AcDbEntity
  8
03
100
AcDbLine
 10
189.8309004230176
 20
522.5823899371069
 30
0.0
 11
189.8309004230176
 21
506.0823899371069
 31
0.0
  0
LINE
  5
1C9
330
A
100
AcDbEntity
  8
03
100
AcDbLine
 10
189.8309004230178
 20
522.5823899371069
 30
0.0
 11
203.8309004230177
 21
522.5823899371069
 31
0.0
  0
LINE
  5
1CA
330
A
100
AcDbEntity
  8
03
100
AcDbLine
 10
189.0809004230176
 20
524.0823899371068
 30
0.0
 11
204.5809004230176
 21
524.0823899371068
 31
0.0
  0
ARC
  5
1CB
330
A
100
AcDbEntity
  8
03
100
AcDbCircle
 10
204.5809004230176
 20
523.3323899371067
 30
0.0
 40
0.75
100
AcDbArc
 50
0.0
 51
89.99999999999984
  0
ARC
  5
1CC
330
A
100
AcDbEntity
  8
03
100
AcDbCircle
 10
189.0809004230176
 20
523.3323899371067
 30
0.0
 40
0.75
100
AcDbArc
 50
89.99999999999991
 51
179.9999999999999
  0
LINE
  5
1CD
330
A
100
AcDbEntity
  8
03
100
AcDbLine
 10
186.4309004230177
 20
502.9823899371067
 30
0.0
 11
186.4309004230178
 21
342.1823899371068
 31
0.0
  0
LINE
  5
1CE
330
A
100
AcDbEntity
  8
03
100
AcDbLine
 10
193.3309004230176
 20
502.9823899371067
 30
0.0
 11
193.3309004230176
 21
342.1823899371068
 31
0.0
  0
LINE
  5
1D6
330
A
100
AcDbEntity
  8
06
100
AcDbLine
 10
243.3309004230177
 20
209.0823899371069
 30
0.0
 11
243.3309004230179
 21
108.0823899371069
 31
0.0
  0
LINE
  5
1D7
330
A
100
AcDbEntity
  8
06
100
AcDbLine
 10
275.3309004230178
 20
209.0823899371069
 30
0.0
 11
275.3309004230179
 21
108.082389937107
 31
0.0
  0
LINE
  5
1DB
330
A
100
AcDbEntity
  8
06
100
AcDbLine
 10
275.3309004230178
 20
231.082389937107
 30
0.0
 11
275.3309004230178
 21
331.082389937107
 31
0.0
  0
LINE
  5
1DC
330
A
100
AcDbEntity
  8
06
100
AcDbLine
 10
243.3309004230177
 20
231.082389937107
 30
0.0
 11
243.3309004230177
 21
331.082389937107
 31
0.0
  0
LINE
  5
1DE
330
A
100
AcDbEntity
  8
03
100
AcDbLine
 10
183.3309004230178
 20
578.3323899371067
 30
0.0
 11
183.3309004230178
 21
549.8323899371069
 31
0.0
  0
LINE
  5
1DF
330
A
100
AcDbEntity
  8
03
100
AcDbLine
 10
297.3309004230177
 20
578.332389937107
 30
0.0
 11
297.3309004230177
 21
549.8323899371069
 31
0.0
  0
LINE
  5
1E0
330
A
100
AcDbEntity
  8
03
100
AcDbLine
 10
184.0809004230176
 20
549.0823899371068
 30
0.0
 11
204.5809004230176
 21
549.0823899371068
 31
0.0
  0
ARC
  5
1E1
330
A
100
AcDbEntity
  8
03
100
AcDbCircle
 10
184.0809004230176
 20
549.8323899371069
 30
0.0
 40
0.75
100
AcDbArc
 50
179.9999999999999
 51
269.9999999999999
  0
LINE
  5
1E2
330
A
100
AcDbEntity
  8
03
100
AcDbLine
 10
224.0809004230178
 20
549.0823899371068
 30
0.0
 11
296.5809004230176
 21
549.0823899371068
 31
0.0
  0
ARC
  5
1E3
330
A
100
AcDbEntity
  8
03
100
AcDbCircle
 10
296.5809004230176
 20
549.8323899371069
 30
0.0
 40
0.75
100
AcDbArc
 50
269.9999999999999
 51
0.0
  0
LINE
  5
1E4
330
A
100
AcDbEntity
  8
03
100
AcDbLine
 10
180.3309004230176
 20
579.0823899371067
 30
0.0
 11
198.3309004230176
 21
579.0823899371067
 31
0.0
  0
ARC
  5
1E5
330
A
100
AcDbEntity
  8
03
100
AcDbCircle
 10
184.0809004230176
 20
578.3323899371067
 30
0.0
 40
0.75
100
AcDbArc
 50
89.99999999999998
 51
179.9999999999999
  0
LINE
  5
1E6
330
A
100
AcDbEntity
  8
03
100
AcDbLine
 10
282.3309004230176
 20
579.0823899371067
 30
0.0
 11
300.3309004230176
 21
579.0823899371068
 31
0.0
  0
ARC
  5
1E7
330
A
100
AcDbEntity
  8
03
100
AcDbCircle
 10
296.5809004230178
 20
578.332389937107
 30
0.0
 40
0.75
100
AcDbArc
 50
0.0
 51
90.00000000000023
  0
LINE
  5
1E8
330
A
100
AcDbEntity
  8
03
100
AcDbLine
 10
184.8309004230179
 20
550.5823899371067
 30
0.0
 11
203.8309004230177
 21
550.5823899371067
 31
0.0
  0
LINE
  5
1E9
330
A
100
AcDbEntity
  8
03
100
AcDbLine
 10
224.8309004230176
 20
550.5823899371067
 30
0.0
 11
295.8309004230176
 21
550.5823899371067
 31
0.0
  0
LINE
  5
1EA
330
A
100
AcDbEntity
  8
03
100
AcDbLine
 10
295.8309004230176
 20
577.5823899371069
 30
0.0
 11
295.8309004230176
 21
550.5823899371067
 31
0.0
  0
LINE
  5
1EB
330
A
100
AcDbEntity
  8
03
100
AcDbLine
 10
184.8309004230175
 20
577.5823899371069
 30
0.0
 11
198.3309004230176
 21
577.5823899371069
 31
0.0
  0
LINE
  5
1EC
330
A
100
AcDbEntity
  8
03
100
AcDbLine
 10
282.3309004230176
 20
577.5823899371069
 30
0.0
 11
295.8309004230176
 21
577.5823899371069
 31
0.0
  0
LINE
  5
1ED
330
A
100
AcDbEntity
  8
03
100
AcDbLine
 10
184.8309004230175
 20
577.5823899371069
 30
0.0
 11
184.8309004230179
 21
550.5823899371067
 31
0.0
  0
LINE
  5
1EE
330
A
100
AcDbEntity
  8
03
100
AcDbLine
 10
205.3309004230176
 20
564.0823899371069
 30
0.0
 11
205.3309004230176
 21
549.8323899371069
 31
0.0
  0
ARC
  5
1EF
330
A
100
AcDbEntity
  8
03
100
AcDbCircle
 10
204.5809004230176
 20
549.8323899371069
 30
0.0
 40
0.75
100
AcDbArc
 50
269.9999999999999
 51
0.0
  0
LINE
  5
1F0
330
A
100
AcDbEntity
  8
03
100
AcDbLine
 10
223.3309004230176
 20
564.0823899371069
 30
0.0
 11
223.3309004230178
 21
549.8323899371069
 31
0.0
  0
ARC
  5
1F1
330
A
100
AcDbEntity
  8
03
100
AcDbCircle
 10
224.0809004230178
 20
549.8323899371069
 30
0.0
 40
0.75
100
AcDbArc
 50
179.9999999999999
 51
269.9999999999999
  0
LINE
  5
1F2
330
A
100
AcDbEntity
  8
03
100
AcDbLine
 10
203.8309004230175
 20
564.8323899371067
 30
0.0
 11
203.8309004230177
 21
550.5823899371067
 31
0.0
  0
LINE
  5
1F3
330
A
100
AcDbEntity
  8
03
100
AcDbLine
 10
224.8309004230177
 20
564.8323899371067
 30
0.0
 11
224.8309004230176
 21
550.5823899371067
 31
0.0
  0
LINE
  5
1F4
330
A
100
AcDbEntity
  8
03
100
AcDbLine
 10
198.3309004230176
 20
579.0823899371067
 30
0.0
 11
198.3309004230176
 21
577.5823899371069
 31
0.0
  0
LINE
  5
1F5
330
A
100
AcDbEntity
  8
03
100
AcDbLine
 10
282.3309004230176
 20
579.0823899371067
 30
0.0
 11
282.3309004230176
 21
577.5823899371069
 31
0.0
  0
LINE
  5
1F6
330
A
100
AcDbEntity
  8
03
100
AcDbLine
 10
280.3309004230176
 20
336.0823899371069
 30
0.0
 11
280.3309004230176
 21
324.8323899371068
 31
0.0
  0
ARC
  5
1F7
330
A
100
AcDbEntity
  8
03
100
AcDbCircle
 10
281.0809004230176
 20
324.8323899371068
 30
0.0
 40
0.75
100
AcDbArc
 50
179.9999999999999
 51
269.9999999999999
  0
LINE
  5
1F8
330
A
100
AcDbEntity
  8
03
100
AcDbLine
 10
281.8309004230178
 20
336.0823899371069
 30
0.0
 11
281.8309004230178
 21
325.5823899371069
 31
0.0
  0
ARC
  5
1F9
330
A
100
AcDbEntity
  8
03
100
AcDbCircle
 10
237.5809004230176
 20
324.8323899371068
 30
0.0
 40
0.75
100
AcDbArc
 50
269.9999999999999
 51
0.0
  0
LINE
  5
1FA
330
A
100
AcDbEntity
  8
03
100
AcDbLine
 10
236.8309004230176
 20
341.1823899371067
 30
0.0
 11
236.8309004230176
 21
336.0823899371069
 31
0.0
  0
LINE
  5
1FB
330
A
100
AcDbEntity
  8
03
100
AcDbLine
 10
185.8309004230176
 20
340.5823899371068
 30
0.0
 11
235.2309004230177
 21
340.5823899371068
 31
0.0
  0
ARC
  5
1FC
330
A
100
AcDbEntity
  8
03
100
AcDbCircle
 10
185.8309004230176
 20
341.5823899371068
 30
0.0
 40
1.0
100
AcDbArc
 50
179.9999999999999
 51
270.0
  0
LINE
  5
1FD
330
A
100
AcDbEntity
  8
03
100
AcDbLine
 10
186.4309004230178
 20
342.1823899371068
 30
0.0
 11
235.8309004230178
 21
342.1823899371068
 31
0.0
  0
ARC
  5
1FE
330
A
100
AcDbEntity
  8
03
100
AcDbCircle
 10
235.8309004230178
 20
341.1823899371067
 30
0.0
 40
1.0
100
AcDbArc
 50
0.0
 51
90.0
  0
LINE
  5
1FF
330
A
100
AcDbEntity
  8
03
100
AcDbLine
 10
235.2309004230177
 20
340.5823899371068
 30
0.0
 11
235.2309004230177
 21
325.5823899371069
 31
0.0
  0
LINE
  5
200
330
A
100
AcDbEntity
  8
03
100
AcDbLine
 10
205.3309004230176
 20
564.0823899371069
 30
0.0
 11
223.3309004230176
 21
564.0823899371069
 31
0.0
  0
LINE
  5
201
330
A
100
AcDbEntity
  8
03
100
AcDbLine
 10
204.5809004230175
 20
565.5823899371068
 30
0.0
 11
224.0809004230178
 21
565.5823899371068
 31
0.0
  0
ARC
  5
202
330
A
100
AcDbEntity
  8
03
100
AcDbCircle
 10
224.0809004230178
 20
564.8323899371067
 30
0.0
 40
0.75
100
AcDbArc
 50
0.0
 51
89.99999999999992
  0
ARC
  5
203
330
A
100
AcDbEntity
  8
03
100
AcDbCircle
 10
204.5809004230175
 20
564.8323899371067
 30
0.0
 40
0.75
100
AcDbArc
 50
89.99999999999991
 51
179.9999999999999
  0
LINE
  5
204
330
A
100
AcDbEntity
  8
03
100
AcDbLine
 10
206.3309004230155
 20
231.082389937107
 30
0.0
 11
206.3309004230155
 21
321.0823899371068
 31
0.0
  0
LINE
  5
205
330
A
100
AcDbEntity
  8
03
100
AcDbLine
 10
238.3309004230155
 20
231.082389937107
 30
0.0
 11
238.3309004230155
 21
321.0823899371068
 31
0.0
  0
LINE
  5
207
330
A
100
AcDbEntity
  8
03
100
AcDbLine
 10
238.3309004230153
 20
209.0823899371069
 30
0.0
 11
238.3309004230155
 21
108.082389937107
 31
0.0
  0
LINE
  5
22B
330
A
100
AcDbEntity
  8
06
100
AcDbLine
 10
246.8309004230175
 20
339.0823864554128
 30
0.0
 11
246.8309004230175
 21
332.0823899371069
 31
0.0
  0
LINE
  5
22C
330
A
100
AcDbEntity
  8
06
100
AcDbLine
 10
271.8309004230175
 20
332.0823899371069
 30
0.0
 11
271.8309004230175
 21
339.0823864554128
 31
0.0
  0
LINE
  5
22E
330
A
100
AcDbEntity
  8
03
100
AcDbLine
 10
237.5809004230176
 20
324.0823899371068
 30
0.0
 11
184.0809004230176
 21
324.0823899371068
 31
0.0
  0
LINE
  5
22F
330
A
100
AcDbEntity
  8
03
100
AcDbLine
 10
183.3309004230176
 20
324.8323899371068
 30
0.0
 11
183.3309004230176
 21
505.3323899371068
 31
0.0
  0
ARC
  5
230
330
A
100
AcDbEntity
  8
03
100
AcDbCircle
 10
184.0809004230176
 20
324.8323899371068
 30
0.0
 40
0.75
100
AcDbArc
 50
179.9999999999999
 51
269.9999999999999
  0
LINE
  5
231
330
A
100
AcDbEntity
  8
03
100
AcDbLine
 10
184.8309004230176
 20
341.5823899371068
 30
0.0
 11
184.8309004230176
 21
325.5823899371069
 31
0.0
  0
LINE
  5
232
330
A
100
AcDbEntity
  8
03
100
AcDbLine
 10
236.8309004230176
 20
325.5823899371069
 30
0.0
 11
184.8309004230176
 21
325.5823899371069
 31
0.0
  0
LINE
  5
233
330
A
100
AcDbEntity
  8
03
100
AcDbLine
 10
238.3309004230178
 20
336.0823899371069
 30
0.0
 11
236.8309004230176
 21
336.0823899371069
 31
0.0
  0
LINE
  5
254
330
A
100
AcDbEntity
  8
06
100
AcDbLine
 10
246.0809004230179
 20
108.0823899371069
 30
0.0
 11
246.0809004230179
 21
201.582389937107
 31
0.0
  0
LINE
  5
255
330
A
100
AcDbEntity
  8
06
100
AcDbLine
 10
274.0809004230176
 20
202.3323899371071
 30
0.0
 11
274.0809004230178
 21
108.082389937107
 31
0.0
  0
LINE
  5
256
330
A
100
AcDbEntity
  8
06
100
AcDbLine
 10
244.5809004230178
 20
108.0823899371069
 30
0.0
 11
244.5809004230178
 21
202.3323899371066
 31
0.0
  0
LINE
  5
259
330
A
100
AcDbEntity
  8
06
100
AcDbLine
 10
272.5809004230177
 20
201.5823899371068
 30
0.0
 11
272.5809004230179
 21
108.082389937107
 31
0.0
  0
LINE
  5
25F
330
A
100
AcDbEntity
  8
06
100
AcDbLine
 10
272.3309004230177
 20
331.082389937107
 30
0.0
 11
272.3309004230177
 21
237.5823899371068
 31
0.0
  0
LINE
  5
260
330
A
100
AcDbEntity
  8
06
100
AcDbLine
 10
246.3309004230178
 20
237.5823899371068
 30
0.0
 11
246.3309004230178
 21
331.082389937107
 31
0.0
  0
LINE
  5
267
330
A
100
AcDbEntity
  8
06
100
AcDbLine
 10
273.8309004230178
 20
331.082389937107
 30
0.0
 11
273.8309004230178
 21
236.8323899371068
 31
0.0
  0
LINE
  5
269
330
A
100
AcDbEntity
  8
06
100
AcDbLine
 10
244.8309004230178
 20
236.8323899371067
 30
0.0
 11
244.8309004230178
 21
331.082389937107
 31
0.0
  0
LINE
  5
26B
330
A
100
AcDbEntity
  8
06
100
AcDbLine
 10
272.3309004230177
 20
331.082389937107
 30
0.0
 11
275.3309004230178
 21
331.082389937107
 31
0.0
  0
LINE
  5
26C
330
A
100
AcDbEntity
  8
06
100
AcDbLine
 10
246.3309004230178
 20
331.082389937107
 30
0.0
 11
243.3309004230177
 21
331.082389937107
 31
0.0
  0
LINE
  5
26D
330
A
100
AcDbEntity
  8
03
100
AcDbLine
 10
238.3309004230178
 20
336.0823899371069
 30
0.0
 11
238.3309004230178
 21
324.8323899371068
 31
0.0
  0
LINE
  5
26E
330
A
100
AcDbEntity
  8
03
100
AcDbLine
 10
236.8309004230176
 20
336.0823899371069
 30
0.0
 11
236.8309004230176
 21
325.5823899371069
 31
0.0
  0
LINE
  5
26F
330
A
100
AcDbEntity
  8
03
100
AcDbLine
 10
206.3309004230177
 20
321.0823899371068
 30
0.0
 11
238.3309004230178
 21
321.0823899371068
 31
0.0
  0
LINE
  5
275
330
A
100
AcDbEntity
  8
03
100
AcDbLine
 10
235.3309004230155
 20
237.5823899371068
 30
0.0
 11
235.3309004230155
 21
321.0823899371068
 31
0.0
  0
LINE
  5
277
330
A
100
AcDbEntity
  8
03
100
AcDbLine
 10
209.3309004230155
 20
237.5823899371068
 30
0.0
 11
209.3309004230155
 21
321.0823899371068
 31
0.0
  0
LINE
  5
278
330
A
100
AcDbEntity
  8
03
100
AcDbLine
 10
207.8309004230155
 20
236.8323899371068
 30
0.0
 11
207.8309004230155
 21
321.0823899371068
 31
0.0
  0
LINE
  5
27A
330
A
100
AcDbEntity
  8
03
100
AcDbLine
 10
236.8309004230155
 20
236.8323899371068
 30
0.0
 11
236.8309004230155
 21
321.0823899371068
 31
0.0
  0
LINE
  5
280
330
A
100
AcDbEntity
  8
03
100
AcDbLine
 10
237.0809004230153
 20
202.3323899371071
 30
0.0
 11
237.0809004230153
 21
108.0823899371069
 31
0.0
  0
LINE
  5
284
330
A
100
AcDbEntity
  8
03
100
AcDbLine
 10
235.5809004230153
 20
201.582389937107
 30
0.0
 11
235.5809004230156
 21
108.0823899371069
 31
0.0
  0
LINE
  5
28D
330
A
100
AcDbEntity
  8
03
100
AcDbLine
 10
272.8309004230176
 20
522.5823899371069
 30
0.0
 11
272.8309004230176
 21
503.9823899371068
 31
0.0
  0
LINE
  5
28E
330
A
100
AcDbEntity
  8
03
100
AcDbLine
 10
184.8309004230176
 20
504.5823899371067
 30
0.0
 11
271.2309004230177
 21
504.5823899371067
 31
0.0
  0
ARC
  5
28F
330
A
100
AcDbEntity
  8
03
100
AcDbCircle
 10
185.8309004230176
 20
503.5823899371068
 30
0.0
 40
1.0
100
AcDbArc
 50
89.99999999999998
 51
179.9999999999999
  0
LINE
  5
290
330
A
100
AcDbEntity
  8
03
100
AcDbLine
 10
186.4309004230177
 20
502.9823899371067
 30
0.0
 11
271.8309004230176
 21
502.9823899371067
 31
0.0
  0
ARC
  5
291
330
A
100
AcDbEntity
  8
03
100
AcDbCircle
 10
271.8309004230176
 20
503.9823899371068
 30
0.0
 40
1.0
100
AcDbArc
 50
269.9999999999999
 51
0.0
  0
LINE
  5
292
330
A
100
AcDbEntity
  8
03
100
AcDbLine
 10
271.2309004230177
 20
522.5823899371069
 30
0.0
 11
271.2309004230177
 21
504.5823899371067
 31
0.0
  0
LINE
  5
2F6
330
A
100
AcDbEntity
  8
06
100
AcDbLine
 10
263.5809004230178
 20
330.5823899371068
 30
0.0
 11
272.3309004230177
 21
330.5823899371068
 31
0.0
  0
LINE
  5
2F7
330
A
100
AcDbEntity
  8
06
100
AcDbLine
 10
246.3309004230178
 20
330.5823899371068
 30
0.0
 11
255.0809004230178
 21
330.5823899371068
 31
0.0
  0
LINE
  5
2F9
330
A
100
AcDbEntity
  8
06
100
AcDbLine
 10
271.8309004230178
 20
330.5823899371068
 30
0.0
 11
271.8309004230178
 21
332.0823899371069
 31
0.0
  0
LINE
  5
2FA
330
A
100
AcDbEntity
  8
06
100
AcDbLine
 10
271.8309004230178
 20
330.5823899371068
 30
0.0
 11
246.8309004230178
 21
330.5823899371068
 31
0.0
  0
LINE
  5
2FB
330
A
100
AcDbEntity
  8
06
100
AcDbLine
 10
246.8309004230178
 20
330.5823899371068
 30
0.0
 11
246.8309004230178
 21
331.5823899371068
 31
0.0
  0
LINE
  5
2FC
330
A
100
AcDbEntity
  8
06
100
AcDbLine
 10
238.6309004230176
 20
331.5823899371068
 30
0.0
 11
246.8309004230178
 21
331.5823899371068
 31
0.0
  0
LINE
  5
2FD
330
A
100
AcDbEntity
  8
06
100
AcDbLine
 10
271.8309004230178
 20
332.0823899371069
 30
0.0
 11
241.8309004230176
 21
332.0823899371069
 31
0.0
  0
LINE
  5
2FE
330
A
100
AcDbEntity
  8
06
100
AcDbLine
 10
241.8309004230176
 20
332.0823899371069
 30
0.0
 11
238.6309004230176
 21
331.5823899371068
 31
0.0
  0
LINE
  5
327
330
A
100
AcDbEntity
  8
SAISEN
100
AcDbLine
 10
174.1836768951857
 20
539.0823899371069
 30
0.0
 11
305.8394883502316
 21
539.0823899371069
 31
0.0
  0
LINE
  5
328
330
A
100
AcDbEntity
  8
SAISEN
100
AcDbLine
 10
174.1836768951857
 20
534.0823899371067
 30
0.0
 11
305.8394883502316
 21
534.0823899371067
 31
0.0
  0
LINE
  5
329
330
A
100
AcDbEntity
  8
03
100
AcDbLine
 10
211.3309004230176
 20
555.0823899371067
 30
0.0
 11
211.3309004230176
 21
539.0823899371069
 31
0.0
  0
LINE
  5
32A
330
A
100
AcDbEntity
  8
03
100
AcDbLine
 10
211.3309004230176
 20
534.0823899371067
 30
0.0
 11
211.3309004230176
 21
516.0823899371068
 31
0.0
  0
LINE
  5
32B
330
A
100
AcDbEntity
  8
03
100
AcDbLine
 10
217.3309004230176
 20
555.0823899371067
 30
0.0
 11
217.3309004230176
 21
539.0823899371069
 31
0.0
  0
LINE
  5
32C
330
A
100
AcDbEntity
  8
03
100
AcDbLine
 10
217.3309004230176
 20
534.0823899371067
 30
0.0
 11
217.3309004230176
 21
516.0823899371068
 31
0.0
  0
LINE
  5
32D
330
A
100
AcDbEntity
  8
03
100
AcDbLine
 10
211.3309004230176
 20
555.0823899371067
 30
0.0
 11
217.3309004230176
 21
555.0823899371067
 31
0.0
  0
LINE
  5
32E
330
A
100
AcDbEntity
  8
03
100
AcDbLine
 10
212.3309004230176
 20
555.0823899371067
 30
0.0
 11
212.3309004230176
 21
539.0823899371069
 31
0.0
  0
LINE
  5
32F
330
A
100
AcDbEntity
  8
03
100
AcDbLine
 10
212.3309004230176
 20
534.0823899371067
 30
0.0
 11
212.3309004230176
 21
516.0823899371068
 31
0.0
  0
LINE
  5
330
330
A
100
AcDbEntity
  8
03
100
AcDbLine
 10
216.3309004230177
 20
555.0823899371067
 30
0.0
 11
216.3309004230177
 21
539.0823899371069
 31
0.0
  0
LINE
  5
331
330
A
100
AcDbEntity
  8
03
100
AcDbLine
 10
216.3309004230177
 20
534.0823899371067
 30
0.0
 11
216.3309004230177
 21
516.0823899371068
 31
0.0
  0
LINE
  5
332
330
A
100
AcDbEntity
  8
SAISEN
100
AcDbLine
 10
174.1836768951857
 20
209.0823899371069
 30
0.0
 11
305.8394883502316
 21
209.0823899371069
 31
0.0
  0
LINE
  5
333
330
A
100
AcDbEntity
  8
SAISEN
100
AcDbLine
 10
305.8394883502316
 20
231.082389937107
 30
0.0
 11
174.1836768951857
 21
231.082389937107
 31
0.0
  0
LINE
  5
348
330
A
100
AcDbEntity
  8
03
100
AcDbLine
 10
206.8309004230176
 20
516.0823899371068
 30
0.0
 11
221.8309004230176
 21
516.0823899371068
 31
0.0
  0
LINE
  5
349
330
A
100
AcDbEntity
  8
03
100
AcDbLine
 10
221.8309004230176
 20
516.0823899371068
 30
0.0
 11
221.8309004230176
 21
506.0823899371069
 31
0.0
  0
LINE
  5
34A
330
A
100
AcDbEntity
  8
03
100
AcDbLine
 10
221.8309004230176
 20
506.0823899371069
 30
0.0
 11
206.8309004230176
 21
506.0823899371069
 31
0.0
  0
LINE
  5
34B
330
A
100
AcDbEntity
  8
03
100
AcDbLine
 10
206.8309004230176
 20
506.0823899371069
 30
0.0
 11
206.8309004230176
 21
516.0823899371068
 31
0.0
  0
LINE
  5
34C
330
A
100
AcDbEntity
  8
03
100
AcDbLine
 10
206.8309004230176
 20
506.0823899371069
 30
0.0
 11
221.8309004230176
 21
516.0823899371068
 31
0.0
  0
ARC
  5
34D
330
A
100
AcDbEntity
  8
03
100
AcDbCircle
 10
220.7059004230178
 20
535.5980043366948
 30
0.0
 40
12.0
100
AcDbArc
 50
253.6651772193138
 51
286.3348227806858
  0
ARC
  5
34E
330
A
100
AcDbEntity
  8
03
100
AcDbCircle
 10
207.9559004230176
 20
535.5980043366947
 30
0.0
 40
12.0
100
AcDbArc
 50
253.665177219314
 51
286.334822780686
  0
ARC
  5
34F
330
A
100
AcDbEntity
  8
03
100
AcDbCircle
 10
207.9559004230176
 20
537.5667755375189
 30
0.0
 40
12.0
100
AcDbArc
 50
73.66517721931393
 51
106.3348227806858
  0
ARC
  5
350
330
A
100
AcDbEntity
  8
03
100
AcDbCircle
 10
220.7059004230178
 20
537.5667755375189
 30
0.0
 40
12.0
100
AcDbArc
 50
73.66517721931401
 51
106.334822780686
  0
LINE
  5
364
330
A
100
AcDbEntity
  8
06
100
AcDbLine
 10
203.3309069207785
 20
465.0827098295514
 30
0.0
 11
203.3309069207785
 21
477.0827098295513
 31
0.0
  0
LINE
  5
378
330
A
100
AcDbEntity
  8
CHUSIN
100
AcDbLine
 10
191.6785362812663
 20
460.5826635239711
 30
0.0
 11
295.9942254572847
 21
460.5826635239711
 31
0.0
  0
LINE
  5
37D
330
A
100
AcDbEntity
  8
CHUSIN
100
AcDbLine
 10
277.531015505481
 20
496.9997598926338
 30
0.0
 11
277.531015505481
 21
422.9053115150024
 31
0.0
  0
LINE
  5
37E
330
A
100
AcDbEntity
  8
CHUSIN
100
AcDbLine
 10
259.3309004230175
 20
354.6902703597296
 30
0.0
 11
259.330900423018
 21
63.67224750563977
 31
0.0
  0
LINE
  5
37F
330
A
100
AcDbEntity
  8
CHUSIN
100
AcDbLine
 10
214.3309004230177
 20
570.3999999999997
 30
0.0
 11
214.3309004230177
 21
539.0823899371069
 31
0.0
  0
LINE
  5
380
330
A
100
AcDbEntity
  8
CHUSIN
100
AcDbLine
 10
214.3309004230177
 20
534.0823899371067
 30
0.0
 11
214.3309004230177
 21
497.7700209643605
 31
0.0
  0
LINE
  5
383
330
A
100
AcDbEntity
  8
CHUSIN
100
AcDbLine
 10
222.3309004230155
 20
329.698937709258
 30
0.0
 11
222.3309004230155
 21
163.2903560661028
 31
0.0
  0
LINE
  5
388
330
A
100
AcDbEntity
  8
KAKURE
100
AcDbLine
 10
188.3309004230176
 20
575.9823899371069
 30
0.0
 11
292.3309004230176
 21
575.9823899371069
 31
0.0
  0
LINE
  5
389
330
A
100
AcDbEntity
  8
KAKURE
100
AcDbLine
 10
188.3309004230176
 20
575.9823899371069
 30
0.0
 11
188.3309004230176
 21
577.5823899371069
 31
0.0
  0
LINE
  5
38A
330
A
100
AcDbEntity
  8
KAKURE
100
AcDbLine
 10
292.3309004230176
 20
575.9823899371069
 30
0.0
 11
292.3309004230176
 21
577.5823899371069
 31
0.0
  0
LINE
  5
38B
330
A
100
AcDbEntity
  8
KAKURE
100
AcDbLine
 10
198.3309004230176
 20
577.5823899371069
 30
0.0
 11
282.3309004230176
 21
577.5823899371069
 31
0.0
  0
LINE
  5
45C
330
A
100
AcDbEntity
  8
CHUSIN
100
AcDbLine
 10
275.6650036549081
 20
351.5818409018398
 30
0.0
 11
287.9225232205433
 21
351.5819295749806
 31
0.0
  0
LINE
  5
4D3
330
A
100
AcDbEntity
  8
CHUSIN
100
AcDbLine
 10
187.9355048182054
 20
396.0823208378775
 30
0.0
 11
216.542296148833
 21
396.0823208378775
 31
0.0
  0
LINE
  5
4D4
330
A
100
AcDbEntity
  8
CHUSIN
100
AcDbLine
 10
187.9355048182054
 20
471.0827098295514
 30
0.0
 11
217.026560539177
 21
471.0827098295514
 31
0.0
  0
LINE
  5
4E9
330
A
100
AcDbEntity
  8
03
100
AcDbLine
 10
199.3309004230176
 20
502.9823899371067
 30
0.0
 11
199.3309004230176
 21
342.1823899371068
 31
0.0
  0
LINE
  5
4EA
330
A
100
AcDbEntity
  8
CHUSIN
100
AcDbLine
 10
240.074371313933
 20
390.0823133880881
 30
0.0
 11
294.8610157958356
 21
390.0823565489541
 31
0.0
  0
LINE
  5
4EB
330
A
100
AcDbEntity
  8
CHUSIN
100
AcDbLine
 10
259.3310229337345
 20
413.8432859350354
 30
0.0
 11
259.3310229337345
 21
354.6902703597296
 31
0.0
  0
LINE
  5
4EC
330
A
100
AcDbEntity
  8
06
100
AcDbLine
 10
200.3309069207785
 20
474.0827098295514
 30
0.0
 11
200.3309069207785
 21
468.0827098295513
 31
0.0
  0
LINE
  5
4ED
330
A
100
AcDbEntity
  8
06
100
AcDbLine
 10
200.3309069207785
 20
468.0827098295513
 30
0.0
 11
203.3309069207785
 21
465.0827098295514
 31
0.0
  0
LINE
  5
4EE
330
A
100
AcDbEntity
  8
06
100
AcDbLine
 10
203.3309069207785
 20
477.0827098295513
 30
0.0
 11
200.3309069207785
 21
474.0827098295514
 31
0.0
  0
LINE
  5
4F0
330
A
100
AcDbEntity
  8
06
100
AcDbLine
 10
200.3309069207785
 20
468.0827098295513
 30
0.0
 11
193.3309004230175
 21
468.0827098295513
 31
0.0
  0
LINE
  5
4F1
330
A
100
AcDbEntity
  8
06
100
AcDbLine
 10
193.3309004230175
 20
474.0827098295514
 30
0.0
 11
200.3309069207785
 21
474.0827098295514
 31
0.0
  0
LINE
  5
4F2
330
A
100
AcDbEntity
  8
06
100
AcDbLine
 10
198.3309069207785
 20
468.0827098295513
 30
0.0
 11
198.3309069207785
 21
474.0827098295514
 31
0.0
  0
LINE
  5
4F3
330
A
100
AcDbEntity
  8
06
100
AcDbLine
 10
198.3309069207785
 20
468.5827098295513
 30
0.0
 11
193.3309004230175
 21
468.5827098295513
 31
0.0
  0
LINE
  5
4F4
330
A
100
AcDbEntity
  8
06
100
AcDbLine
 10
198.3309069207785
 20
473.5827098295514
 30
0.0
 11
193.3309004230175
 21
473.5827098295514
 31
0.0
  0
LINE
  5
4F5
330
A
100
AcDbEntity
  8
06
100
AcDbLine
 10
204.3312459168006
 20
399.0823208378774
 30
0.0
 11
193.3309004230175
 21
399.0823208378774
 31
0.0
  0
LINE
  5
4F6
330
A
100
AcDbEntity
  8
06
100
AcDbLine
 10
204.3312459168006
 20
393.0823208378774
 30
0.0
 11
193.3309004230175
 21
393.0823208378774
 31
0.0
  0
LINE
  5
4F7
330
A
100
AcDbEntity
  8
06
100
AcDbLine
 10
204.3312459168006
 20
398.4823208378775
 30
0.0
 11
193.3309004230175
 21
398.4823208378775
 31
0.0
  0
LINE
  5
4F8
330
A
100
AcDbEntity
  8
06
100
AcDbLine
 10
204.3312459168006
 20
393.6823208378775
 30
0.0
 11
193.3309004230175
 21
393.6823208378775
 31
0.0
  0
LINE
  5
4F9
330
A
100
AcDbEntity
  8
06
100
AcDbLine
 10
193.3309004230175
 20
468.0827098295513
 30
0.0
 11
191.3309069207785
 21
468.0827098295513
 31
0.0
  0
LINE
  5
4FA
330
A
100
AcDbEntity
  8
06
100
AcDbLine
 10
191.3309069207785
 20
468.0827098295513
 30
0.0
 11
191.3309069207785
 21
474.0827098295514
 31
0.0
  0
LINE
  5
4FB
330
A
100
AcDbEntity
  8
06
100
AcDbLine
 10
191.3309069207785
 20
474.0827098295514
 30
0.0
 11
193.3309004230175
 21
474.0827098295514
 31
0.0
  0
LINE
  5
4FC
330
A
100
AcDbEntity
  8
06
100
AcDbLine
 10
193.3309004230175
 20
468.5827098295513
 30
0.0
 11
191.3309069207785
 21
468.5827098295513
 31
0.0
  0
LINE
  5
4FD
330
A
100
AcDbEntity
  8
06
100
AcDbLine
 10
193.3309004230175
 20
473.5827098295514
 30
0.0
 11
191.3309069207785
 21
473.5827098295514
 31
0.0
  0
LINE
  5
50F
330
A
100
AcDbEntity
  8
06
100
AcDbLine
 10
193.3309004230175
 20
399.0823208378774
 30
0.0
 11
190.4312459168005
 21
399.0823208378774
 31
0.0
  0
LINE
  5
510
330
A
100
AcDbEntity
  8
06
100
AcDbLine
 10
193.3309004230175
 20
393.0823208378774
 30
0.0
 11
190.4312459168005
 21
393.0823208378774
 31
0.0
  0
LINE
  5
511
330
A
100
AcDbEntity
  8
06
100
AcDbLine
 10
190.4312459168005
 20
399.0823208378774
 30
0.0
 11
189.4312459168005
 21
398.0823208378775
 31
0.0
  0
LINE
  5
512
330
A
100
AcDbEntity
  8
06
100
AcDbLine
 10
190.4312459168005
 20
393.0823208378774
 30
0.0
 11
189.4312459168005
 21
394.0823208378775
 31
0.0
  0
LINE
  5
513
330
A
100
AcDbEntity
  8
06
100
AcDbLine
 10
189.4312459168005
 20
394.0823208378775
 30
0.0
 11
189.4312459168005
 21
398.0823208378775
 31
0.0
  0
LINE
  5
514
330
A
100
AcDbEntity
  8
06
100
AcDbLine
 10
190.4312459168005
 20
393.0823208378774
 30
0.0
 11
190.4312459168005
 21
399.0823208378774
 31
0.0
  0
LINE
  5
515
330
A
100
AcDbEntity
  8
06
100
AcDbLine
 10
193.3309004230175
 20
398.4823208378775
 30
0.0
 11
189.8312459168005
 21
398.4823208378775
 31
0.0
  0
LINE
  5
516
330
A
100
AcDbEntity
  8
06
100
AcDbLine
 10
193.3309004230175
 20
393.6823208378775
 30
0.0
 11
189.8312459168005
 21
393.6823208378775
 31
0.0
  0
LINE
  5
5A4
330
A
100
AcDbEntity
  8
03
100
AcDbLine
 10
207.3309004230155
 20
324.0823899371068
 30
0.0
 11
237.3309004230155
 21
324.0823899371068
 31
0.0
  0
LINE
  5
5A5
330
A
100
AcDbEntity
  8
03
100
AcDbLine
 10
237.3309004230155
 20
321.0823899371068
 30
0.0
 11
207.3309004230155
 21
321.0823899371068
 31
0.0
  0
LINE
  5
5A6
330
A
100
AcDbEntity
  8
03
100
AcDbLine
 10
207.3309004230155
 20
321.0823899371068
 30
0.0
 11
207.3309004230155
 21
324.0823899371068
 31
0.0
  0
LINE
  5
5A7
330
A
100
AcDbEntity
  8
03
100
AcDbLine
 10
237.3309004230155
 20
324.0823899371068
 30
0.0
 11
237.3309004230155
 21
321.0823899371068
 31
0.0
  0
LINE
  5
5A8
330
A
100
AcDbEntity
  8
03
100
AcDbLine
 10
207.3309004230155
 20
321.0823899371068
 30
0.0
 11
237.3309004230155
 21
324.0823899371068
 31
0.0
  0
POLYLINE
  5
5F0
330
A
100
AcDbEntity
  8
DEFPOINTS
100
AcDb2dPolyline
 66
     1
 10
0.0
 20
0.0
 30
0.0
 70
     1
  0
VERTEX
  5
209D
330
5F0
100
AcDbEntity
  8
DEFPOINTS
100
AcDbVertex
100
AcDb2dVertex
 10
420.0
 20
0.0
 30
0.0
  0
VERTEX
  5
209E
330
5F0
100
AcDbEntity
  8
DEFPOINTS
100
AcDbVertex
100
AcDb2dVertex
 10
420.0000000000001
 20
594.0
 30
0.0
  0
VERTEX
  5
209F
330
5F0
100
AcDbEntity
  8
DEFPOINTS
100
AcDbVertex
100
AcDb2dVertex
 10
0.0000000000000568
 20
594.0
 30
0.0
  0
VERTEX
  5
20A0
330
5F0
100
AcDbEntity
  8
DEFPOINTS
100
AcDbVertex
100
AcDb2dVertex
 10
0.0
 20
0.0000000000000257
 30
0.0
  0
SEQEND
  5
20A1
330
5F0
100
AcDbEntity
  8
DEFPOINTS
  0
MTEXT
  5
61A
330
A
100
AcDbEntity
  8
MOJI
100
AcDbMText
 10
70.12529405105166
 20
317.0823899371068
 30
0.0
 40
6.0
 41
10.0
 71
     5
 72
     1
  1
外\P\P部
  7
0_8
1001
ACAD
1000
MTEXTBEGIN
1070
    73
1070
     1
1070
    44
1040
1.0
1070
    74
1070
     0
1000
MTEXTEND
1000
MTEXTBEGIN
1070
    73
1070
     1
1070
    44
1040
1.0
1070
    74
1070
     0
1000
MTEXTEND
  0
POLYLINE
  5
61B
330
A
100
AcDbEntity
  8
SAISEN
100
AcDb2dPolyline
 66
     1
 10
0.0
 20
0.0
 30
0.0
 70
     1
  0
VERTEX
  5
20A2
330
61B
100
AcDbEntity
  8
SAISEN
100
AcDbVertex
100
AcDb2dVertex
 10
65.12529405105166
 20
302.0823899371068
 30
0.0
  0
VERTEX
  5
20A3
330
61B
100
AcDbEntity
  8
SAISEN
100
AcDbVertex
100
AcDb2dVertex
 10
75.12529405105166
 20
302.0823899371068
 30
0.0
  0
VERTEX
  5
20A4
330
61B
100
AcDbEntity
  8
SAISEN
100
AcDbVertex
100
AcDb2dVertex
 10
75.12529405105166
 20
332.0823899371069
 30
0.0
  0
VERTEX
  5
20A5
330
61B
100
AcDbEntity
  8
SAISEN
100
AcDbVertex
100
AcDb2dVertex
 10
65.12529405105166
 20
332.0823899371069
 30
0.0
  0
SEQEND
  5
20A6
330
61B
100
AcDbEntity
  8
SAISEN
  0
POLYLINE
  5
61C
330
A
100
AcDbEntity
  8
SAISEN
100
AcDb2dPolyline
 66
     1
 10
0.0
 20
0.0
 30
0.0
 70
     1
  0
VERTEX
  5
20A7
330
61C
100
AcDbEntity
  8
SAISEN
100
AcDbVertex
100
AcDb2dVertex
 10
381.1587908901683
 20
302.0823899371068
 30
0.0
  0
VERTEX
  5
20A8
330
61C
100
AcDbEntity
  8
SAISEN
100
AcDbVertex
100
AcDb2dVertex
 10
391.1587908901683
 20
302.0823899371068
 30
0.0
  0
VERTEX
  5
20A9
330
61C
100
AcDbEntity
  8
SAISEN
100
AcDbVertex
100
AcDb2dVertex
 10
391.1587908901683
 20
332.0823899371069
 30
0.0
  0
VERTEX
  5
20AA
330
61C
100
AcDbEntity
  8
SAISEN
100
AcDbVertex
100
AcDb2dVertex
 10
381.1587908901683
 20
332.0823899371069
 30
0.0
  0
SEQEND
  5
20AB
330
61C
100
AcDbEntity
  8
SAISEN
  0
MTEXT
  5
61D
330
A
100
AcDbEntity
  8
MOJI
100
AcDbMText
 10
386.1587908901682
 20
317.0823899371068
 30
0.0
 40
6.0
 41
10.0
 71
     5
 72
     1
  1
内\P\P部
  7
0_8
1001
ACAD
1000
MTEXTBEGIN
1070
    73
1070
     1
1070
    44
1040
1.0
1070
    74
1070
     0
1000
MTEXTEND
1000
MTEXTBEGIN
1070
    73
1070
     1
1070
    44
1040
1.0
1070
    74
1070
     0
1000
MTEXTEND
  0
DIMENSION
  5
658
330
A
100
AcDbEntity
  8
SUNPOU
100
AcDbDimension
  2
*D1
 10
206.3309004230155
 20
307.0253478105473
 30
0.0
 11
194.8309004230165
 21
311.5253478105473
 31
0.0
 70
    32
  3
SUNPOU_2
100
AcDbAlignedDimension
 13
183.3309004230176
 23
324.8323899371068
 33
0.0
 14
206.3309004230155
 24
307.0253478105473
 34
0.0
100
AcDbRotatedDimension
  0
DIMENSION
  5
664
330
A
100
AcDbEntity
  8
SUNPOU
100
AcDbDimension
  2
*D2
 10
238.3309004230155
 20
307.0253478105473
 30
0.0
 11
226.8289625781283
 21
311.5253478105473
 31
0.0
 70
   160
  3
SUNPOU_2
100
AcDbAlignedDimension
 13
206.3309004230155
 23
307.0253478105473
 33
0.0
 14
238.3309004230155
 24
307.1830040293008
 34
0.0
100
AcDbRotatedDimension
  0
DIMENSION
  5
670
330
A
100
AcDbEntity
  8
SUNPOU
100
AcDbDimension
  2
*D3
 10
243.3309004230177
 20
307.0253478105473
 30
0.0
 11
240.8309004230165
 21
302.5532350696453
 31
0.0
 70
   160
  3
SUNPOU_2
100
AcDbAlignedDimension
 13
238.3309004230155
 23
307.1830040293008
 33
0.0
 14
243.3309004230177
 24
307.1830040293008
 34
0.0
100
AcDbRotatedDimension
  0
DIMENSION
  5
67F
330
A
100
AcDbEntity
  8
SUNPOU
100
AcDbDimension
  2
*D4
 10
275.3309004230178
 20
307.0253478105473
 30
0.0
 11
264.4558862444077
 21
311.5253478105473
 31
0.0
 70
   160
  3
SUNPOU_2
100
AcDbAlignedDimension
 13
243.3309004230177
 23
307.1830040293008
 33
0.0
 14
275.3309004230178
 24
307.0253478105473
 34
0.0
100
AcDbRotatedDimension
  0
DIMENSION
  5
68B
330
A
100
AcDbEntity
  8
SUNPOU
100
AcDbDimension
  2
*D5
 10
280.3309004230176
 20
307.0253478105473
 30
0.0
 11
277.8309004230178
 21
302.4506317097041
 31
0.0
 70
   160
  3
SUNPOU_2
100
AcDbAlignedDimension
 13
275.3309004230178
 23
307.0253478105473
 33
0.0
 14
280.3309004230176
 24
324.8323899371068
 34
0.0
100
AcDbRotatedDimension
  0
DIMENSION
  5
6AC
330
A
100
AcDbEntity
  8
SUNPOU
100
AcDbDimension
  2
*D6
 10
297.3309004230177
 20
307.0253478105473
 30
0.0
 11
288.8309004230176
 21
311.5253478105473
 31
0.0
 70
    32
  3
SUNPOU_2
100
AcDbAlignedDimension
 13
280.3309004230176
 23
324.8323899371068
 33
0.0
 14
297.3309004230177
 24
324.8323899371068
 34
0.0
100
AcDbRotatedDimension
  0
DIMENSION
  5
6B9
330
A
100
AcDbEntity
  8
SUNPOU
100
AcDbDimension
  2
*D7
 10
183.3309004230176
 20
295.5795136456389
 30
0.0
 11
172.7423031657513
 21
300.1244469302751
 31
0.0
 70
   160
  3
SUNPOU_2
100
AcDbAlignedDimension
 13
180.3309004230176
 23
295.5795136456389
 33
0.0
 14
183.3309004230176
 24
324.8323899371068
 34
0.0
100
AcDbRotatedDimension
  0
DIMENSION
  5
6C7
330
A
100
AcDbEntity
  8
SUNPOU
100
AcDbDimension
  2
*D8
 10
297.3309004230177
 20
295.5795136456389
 30
0.0
 11
253.0255149593621
 21
300.0795136456388
 31
0.0
 70
   160
  3
SUNPOU_2
100
AcDbAlignedDimension
 13
183.3309004230176
 23
324.8323899371068
 33
0.0
 14
297.3309004230177
 24
324.8323899371068
 34
0.0
100
AcDbRotatedDimension
  0
DIMENSION
  5
6D4
330
A
100
AcDbEntity
  8
SUNPOU
100
AcDbDimension
  2
*D9
 10
300.3309004230176
 20
295.5795136456389
 30
0.0
 11
307.3051528619016
 21
300.1118273332429
 31
0.0
 70
   160
  3
SUNPOU_2
100
AcDbAlignedDimension
 13
297.3309004230177
 23
324.8323899371068
 33
0.0
 14
300.3309004230176
 24
295.5795136456389
 34
0.0
100
AcDbRotatedDimension
  0
DIMENSION
  5
6E2
330
A
100
AcDbEntity
  8
SUNPOU
100
AcDbDimension
  2
*D10
 10
300.3309004230176
 20
284.1336794807303
 30
0.0
 11
252.9296959898791
 21
288.6336794807305
 31
0.0
 70
   160
  3
SUNPOU_2
100
AcDbAlignedDimension
 13
180.3309004230176
 23
284.1336794807303
 33
0.0
 14
300.3309004230176
 24
284.1336794807303
 34
0.0
100
AcDbRotatedDimension
  0
DIMENSION
  5
716
330
A
100
AcDbEntity
  8
SUNPOU
100
AcDbDimension
  2
*D11
 10
140.3309004230177
 20
324.0823899371068
 30
0.0
 11
132.8309004230177
 21
322.5823899371068
 31
0.0
 70
    32
  3
SUNPOU_2
100
AcDbAlignedDimension
 13
206.3309004230155
 23
321.0823899371068
 33
0.0
 14
184.0809004230176
 24
324.0823899371068
 34
0.0
 50
90.0
100
AcDbRotatedDimension
  0
DIMENSION
  5
725
330
A
100
AcDbEntity
  8
SUNPOU
100
AcDbDimension
  2
*D12
 10
140.3309004230177
 20
506.0823899371069
 30
0.0
 11
135.8309004230177
 21
415.0823899371069
 31
0.0
 70
    32
  3
SUNPOU_2
100
AcDbAlignedDimension
 13
184.0809004230176
 23
324.0823899371068
 33
0.0
 14
184.0809004230176
 24
506.0823899371069
 34
0.0
 50
90.0
100
AcDbRotatedDimension
  0
DIMENSION
  5
732
330
A
100
AcDbEntity
  8
SUNPOU
100
AcDbDimension
  2
*D13
 10
140.3309004230177
 20
524.0823899371068
 30
0.0
 11
135.8309004230177
 21
515.0823899371069
 31
0.0
 70
    32
  3
SUNPOU_2
100
AcDbAlignedDimension
 13
184.0809004230176
 23
506.0823899371069
 33
0.0
 14
189.0809004230176
 24
524.0823899371068
 34
0.0
 50
90.0
100
AcDbRotatedDimension
  0
DIMENSION
  5
73F
330
A
100
AcDbEntity
  8
SUNPOU
100
AcDbDimension
  2
*D14
 10
160.3309004230176
 20
396.0823208378775
 30
0.0
 11
155.8309004230176
 21
360.0823553874922
 31
0.0
 70
    32
  3
SUNPOU_2
100
AcDbAlignedDimension
 13
184.0809004230176
 23
324.0823899371068
 33
0.0
 14
187.9355048182054
 24
396.0823208378775
 34
0.0
 50
90.0
100
AcDbRotatedDimension
  0
DIMENSION
  5
74C
330
A
100
AcDbEntity
  8
SUNPOU
100
AcDbDimension
  2
*D15
 10
160.3309004230178
 20
471.0827098295514
 30
0.0
 11
155.8309004230176
 21
433.5825153337145
 31
0.0
 70
    32
  3
SUNPOU_2
100
AcDbAlignedDimension
 13
187.9355048182054
 23
396.0823208378775
 33
0.0
 14
187.9355048182054
 24
471.0827098295514
 34
0.0
 50
90.0
100
AcDbRotatedDimension
  0
DIMENSION
  5
768
330
A
100
AcDbEntity
  8
SUNPOU
100
AcDbDimension
  2
*D16
 10
160.3309004230178
 20
219.0823899371068
 30
0.0
 11
155.8309004230176
 21
158.582389937107
 31
0.0
 70
    32
  1
600
  3
SUNPOU_2
100
AcDbAlignedDimension
 13
207.3309004230155
 23
98.08238993710729
 33
0.0
 14
177.3309004230176
 24
219.0823899371068
 34
0.0
 50
90.0
100
AcDbRotatedDimension
  0
DIMENSION
  5
792
330
A
100
AcDbEntity
  8
SUNPOU
100
AcDbDimension
  2
*D17
 10
320.3309004230177
 20
203.0823899371072
 30
0.0
 11
315.8309004230176
 21
155.5823899371072
 31
0.0
 70
    32
  1
<>
  3
SUNPOU_2
100
AcDbAlignedDimension
 13
275.3309004230179
 23
108.082389937107
 33
0.0
 14
273.3309004230176
 24
203.0823899371072
 34
0.0
 50
90.0
100
AcDbRotatedDimension
  0
DIMENSION
  5
79F
330
A
100
AcDbEntity
  8
SUNPOU
100
AcDbDimension
  2
*D18
 10
333.7121677433019
 20
331.082389937107
 30
0.0
 11
329.2121677433019
 21
327.5823899371069
 31
0.0
 70
    32
  3
SUNPOU_2
100
AcDbAlignedDimension
 13
296.5809004230176
 23
324.0823899371068
 33
0.0
 14
275.3309004230178
 24
331.082389937107
 34
0.0
 50
90.0
100
AcDbRotatedDimension
  0
DIMENSION
  5
7AE
330
A
100
AcDbEntity
  8
SUNPOU
100
AcDbDimension
  2
*D19
 10
360.3309004230176
 20
324.0823899371068
 30
0.0
 11
355.8309004230177
 21
212.582389937107
 31
0.0
 70
    32
  1
Ｈ
  3
SUNPOU_2
100
AcDbAlignedDimension
 13
289.3309004230179
 23
101.0823899371072
 33
0.0
 14
296.5809004230176
 24
324.0823899371068
 34
0.0
 50
90.0
100
AcDbRotatedDimension
  0
DIMENSION
  5
7BB
330
A
100
AcDbEntity
  8
SUNPOU
100
AcDbDimension
  2
*D20
 10
360.3309004230176
 20
524.0823899371068
 30
0.0
 11
355.8309004230177
 21
424.0823899371068
 31
0.0
 70
    32
  3
SUNPOU_2
100
AcDbAlignedDimension
 13
296.5809004230176
 23
324.0823899371068
 33
0.0
 14
297.3309004230177
 24
524.0823899371068
 34
0.0
 50
90.0
100
AcDbRotatedDimension
  0
DIMENSION
  5
7C8
330
A
100
AcDbEntity
  8
SUNPOU
100
AcDbDimension
  2
*D21
 10
140.3309004230177
 20
203.082389937107
 30
0.0
 11
135.8309004230177
 21
155.400590748694
 31
0.0
 70
   160
  1
<>
  3
SUNPOU_2
100
AcDbAlignedDimension
 13
206.3309004230155
 23
108.0823899371069
 33
0.0
 14
208.3309004230155
 24
203.0823899371068
 34
0.0
 50
90.0
100
AcDbRotatedDimension
  0
DIMENSION
  5
868
330
A
100
AcDbEntity
  8
SUNPOU
100
AcDbDimension
  2
*D22
 10
259.3310229337345
 20
410.1814530181232
 30
0.0
 11
229.3242727898051
 21
414.6814530181232
 31
0.0
 70
    32
  3
SUNPOU_2
100
AcDbAlignedDimension
 13
199.3175226458758
 23
410.1814530181232
 33
0.0
 14
259.3310229337345
 24
405.0286124699121
 34
0.0
100
AcDbRotatedDimension
  0
LEADER
  5
901
330
A
100
AcDbEntity
  8
HIKIDASI
100
AcDbLeader
  3
SUNPOU_2
 73
     0
 74
     0
 75
     1
 40
5.000000000000001
 41
45.86666666666665
 76
     3
 10
264.3662033860779
 20
97.0414129323516
 30
0.0
 10
290.4874704410662
 20
123.3743186582809
 30
0.0
 10
295.4874704410661
 20
123.3743186582809
 30
0.0
340
902
1001
ACAD
1000
DSTYLE
1002
{
1070
     5
1000
OPEN30
1070
    77
1070
     1
1070
   147
1040
1.0
1070
   342
1005
5D9
1002
}
1000
LEANOF
1010
0.0
1020
0.0
1030
0.0
1000
LEANOF
1010
0.0
1020
0.0
1030
0.0
  0
MTEXT
  5
902
330
A
100
AcDbEntity
  8
HIKIDASI
100
AcDbMText
 10
297.4874704410662
 20
125.3743186582809
 30
0.0
 40
5.0
 41
0.0
 71
     7
 72
     1
  1
レールタイトシステム
  7
SUNPOU
1001
ACAD
1000
MTEXTBEGIN
1070
    73
1070
     1
1070
    44
1040
1.0
1070
    74
1070
     0
1000
MTEXTEND
1000
MTEXTBEGIN
1070
    73
1070
     1
1070
    44
1040
1.0
1070
    74
1070
     0
1000
MTEXTEND
  0
LEADER
  5
904
330
A
100
AcDbEntity
  8
HIKIDASI
100
AcDbLeader
  3
SUNPOU_2
 73
     0
 74
     0
 75
     1
 40
13.33333333333333
 41
58.26666666666673
 76
     3
 10
274.0809004230178
 20
198.5334630015044
 30
0.0
 10
288.1724585069223
 20
174.0726840660669
 30
0.0
 10
293.1724585069222
 20
174.0726840660669
 30
0.0
340
905
213
1.560286198210178
223
8.628304022140952
233
0.0
1001
ACAD
1000
DSTYLE
1002
{
1070
     5
1000
OPEN30
1070
    77
1070
     1
1070
   147
1040
1.0
1070
   342
1005
5D9
1002
}
1000
LEANOF
1010
1.560286198210178
1020
8.628304022140952
1030
0.0
1000
LEANOF
1010
1.560286198210178
1020
8.628304022140952
1030
0.0
  0
MTEXT
  5
905
330
A
100
AcDbEntity
  8
HIKIDASI
100
AcDbMText
 10
293.6121723087121
 20
167.444380043926
 30
0.0
 40
5.0
 41
0.0
 71
     7
 72
     1
  1
スリムセナージ･ドアI,II型\P（強化ガラス）
  7
SUNPOU
1001
ACAD
1000
MTEXTBEGIN
1070
    73
1070
     1
1070
    44
1040
1.0
1070
    74
1070
     0
1000
MTEXTEND
1000
MTEXTBEGIN
1070
    73
1070
     1
1070
    44
1040
1.0
1070
    74
1070
     0
1000
MTEXTEND
  0
LINE
  5
A37
330
A
100
AcDbEntity
  8
03
100
AcDbLine
 10
207.5809004230156
 20
108.0823899371069
 30
0.0
 11
207.5809004230155
 21
202.3323899371066
 31
0.0
  0
LINE
  5
A38
330
A
100
AcDbEntity
  8
03
100
AcDbLine
 10
209.0809004230155
 20
108.0823899371069
 30
0.0
 11
209.0809004230155
 21
201.582389937107
 31
0.0
  0
LINE
  5
A39
330
A
100
AcDbEntity
  8
03
100
AcDbLine
 10
206.3309004230154
 20
209.0823899371069
 30
0.0
 11
206.3309004230155
 21
108.0823899371069
 31
0.0
  0
LINE
  5
A3A
330
A
100
AcDbEntity
  8
03
100
AcDbLine
 10
180.3309004230176
 20
209.0823899371069
 30
0.0
 11
180.3309004230176
 21
102.0823899371069
 31
0.0
  0
TEXT
  5
D56
330
A
100
AcDbEntity
  8
SUNPOU
100
AcDbText
 10
227.6979749746193
 20
455.058862635496
 30
0.0
 40
3.0
  1
（両端及び方立部）
 50
44.83352120439746
 41
0.7
  7
SUNPOU
 72
     1
 11
235.5412664924147
 21
462.856707091939
 31
0.0
100
AcDbText
 73
     1
  0
DIMENSION
  5
D57
330
A
100
AcDbEntity
  8
SUNPOU
100
AcDbDimension
  2
*D23
 10
221.5736580875357
 20
455.8388668780312
 30
0.0
 11
229.6864226899193
 21
469.1797446239818
 31
0.0
 70
   163
  1
配線孔<>
  3
SUNPOU_2
100
AcDbDiametricDimension
 15
243.4883729234261
 25
476.3265527810711
 35
0.0
 40
0.0
1001
ACAD
1000
DSTYLE
1002
{
1070
   288
1070
     1
1002
}
  0
CIRCLE
  5
D58
330
A
100
AcDbEntity
  8
KAKURE
100
AcDbCircle
 10
232.5310155054809
 20
466.0827098295514
 30
0.0
 40
15.0
  0
LEADER
  5
D83
330
A
100
AcDbEntity
  8
HIKIDASI
100
AcDbLeader
  3
SUNPOU_2
 73
     0
 74
     0
 75
     1
 40
5.0
 41
21.06666666666666
 76
     3
 10
193.3309014742385
 20
471.0827087773586
 30
0.0
 10
173.9152424481985
 20
490.5198517881573
 30
0.0
 10
168.9152424481985
 20
490.5198517881573
 30
0.0
211
-1.0
221
0.0
231
0.0
210
0.0
220
0.0
230
-1.0
1001
ACAD
1000
DSTYLE
1002
{
1070
     5
1000
OPEN30
1070
    77
1070
     1
1070
   147
1040
1.0
1070
   342
1005
5D9
1002
}
1000
LEANOF
1010
0.0
1020
0.0
1030
0.0
1000
LEANOF
1010
0.0
1020
0.0
1030
0.0
  0
MTEXT
  5
D84
102
{ACAD_REACTORS
330
D83
102
}
330
A
100
AcDbEntity
  8
HIKIDASI
100
AcDbMText
 10
149.3842576536209
 20
491.8635834006868
 30
0.0
 40
4.999999999999999
 41
0.0
 71
     7
 72
     1
  1
M6タップ
  7
SUNPOU
1001
ACAD
1000
MTEXTBEGIN
1070
    73
1070
     1
1070
    44
1040
1.0
1070
    74
1070
     0
1000
MTEXTEND
1000
MTEXTBEGIN
1070
    73
1070
     1
1070
    44
1040
1.0
1070
    74
1070
     0
1000
MTEXTEND
  0
LINE
  5
E47
330
A
100
AcDbEntity
  8
KAKURE
100
AcDbLine
 10
199.3309004230176
 20
474.0827098295511
 30
0.0
 11
193.3309004230176
 21
474.0827098295511
 31
0.0
  0
LINE
  5
E48
330
A
100
AcDbEntity
  8
03
100
AcDbLine
 10
199.3309004230176
 20
473.4327098295514
 30
0.0
 11
193.3309004230176
 21
473.4327098295514
 31
0.0
  0
LINE
  5
E49
330
A
100
AcDbEntity
  8
KAKURE
100
AcDbLine
 10
199.3309004230176
 20
468.0827098295512
 30
0.0
 11
193.3309004230176
 21
468.0827098295512
 31
0.0
  0
LINE
  5
E4A
330
A
100
AcDbEntity
  8
03
100
AcDbLine
 10
199.3309004230176
 20
468.7327098295512
 30
0.0
 11
193.3309004230176
 21
468.7327098295512
 31
0.0
  0
MTEXT
  5
E4B
102
{ACAD_REACTORS
330
E4C
102
}
330
A
100
AcDbEntity
  8
HIKIDASI
100
AcDbMText
 10
148.1577768412988
 20
416.8631944088215
 30
0.0
 40
4.999999999999999
 41
0.0
 71
     7
 72
     1
  1
M6タップ
  7
SUNPOU
1001
ACAD
1000
MTEXTBEGIN
1070
    73
1070
     1
1070
    44
1040
1.0
1070
    74
1070
     0
1000
MTEXTEND
1000
MTEXTBEGIN
1070
    73
1070
     1
1070
    44
1040
1.0
1070
    74
1070
     0
1000
MTEXTEND
  0
LEADER
  5
E4C
330
A
100
AcDbEntity
  8
HIKIDASI
100
AcDbLeader
  3
SUNPOU_2
 73
     0
 74
     0
 75
     1
 40
5.0
 41
21.06666666666666
 76
     3
 10
193.3309014742385
 20
396.0823197854933
 30
0.0
 10
173.9152424481985
 20
415.519462796292
 30
0.0
 10
168.9152424481985
 20
415.519462796292
 30
0.0
211
-1.0
221
0.0
231
0.0
210
0.0
220
0.0
230
-1.0
1001
ACAD
1000
DSTYLE
1002
{
1070
     5
1000
OPEN30
1070
    77
1070
     1
1070
   147
1040
1.0
1070
   342
1005
5D9
1002
}
1000
LEANOF
1010
0.0
1020
0.0
1030
0.0
1000
LEANOF
1010
0.0
1020
0.0
1030
0.0
  0
LINE
  5
E4D
330
A
100
AcDbEntity
  8
KAKURE
100
AcDbLine
 10
199.3309004230176
 20
399.0823208376858
 30
0.0
 11
193.3309004230176
 21
399.0823208376858
 31
0.0
  0
LINE
  5
E4E
330
A
100
AcDbEntity
  8
03
100
AcDbLine
 10
199.3309004230176
 20
398.432320837686
 30
0.0
 11
193.3309004230176
 21
398.432320837686
 31
0.0
  0
LINE
  5
E4F
330
A
100
AcDbEntity
  8
KAKURE
100
AcDbLine
 10
199.3309004230176
 20
393.0823208376858
 30
0.0
 11
193.3309004230176
 21
393.0823208376858
 31
0.0
  0
LINE
  5
E50
330
A
100
AcDbEntity
  8
03
100
AcDbLine
 10
199.3309004230176
 20
393.732320837686
 30
0.0
 11
193.3309004230176
 21
393.732320837686
 31
0.0
  0
ARC
  5
F1E
330
A
100
AcDbEntity
  8
03
100
AcDbCircle
 10
216.8309004230153
 20
210.1534577489724
 30
0.0
 40
7.5
100
AcDbArc
 50
250.5287793655085
 51
289.4712206344913
  0
ARC
  5
F1F
330
A
100
AcDbEntity
  8
03
100
AcDbCircle
 10
227.8309004230153
 20
210.1534577489724
 30
0.0
 40
7.5
100
AcDbArc
 50
250.5287793655085
 51
289.4712206344913
  0
LINE
  5
F2A
330
A
100
AcDbEntity
  8
03
100
AcDbLine
 10
219.3309004230154
 20
177.7823899371073
 30
0.0
 11
225.3309004230154
 21
177.7823899371073
 31
0.0
  0
ARC
  5
F37
330
A
100
AcDbEntity
  8
06
100
AcDbCircle
 10
253.8309004230177
 20
210.1534577489724
 30
0.0
 40
7.5
100
AcDbArc
 50
250.5287793655085
 51
289.4712206344913
  0
ARC
  5
F38
330
A
100
AcDbEntity
  8
06
100
AcDbCircle
 10
264.8309004230176
 20
210.1534577489724
 30
0.0
 40
7.5
100
AcDbArc
 50
250.5287793655085
 51
289.4712206344913
  0
LINE
  5
F43
330
A
100
AcDbEntity
  8
06
100
AcDbLine
 10
256.3309004230177
 20
177.7823899371073
 30
0.0
 11
262.3309004230177
 21
177.7823899371073
 31
0.0
  0
ARC
  5
F50
330
A
100
AcDbEntity
  8
03
100
AcDbCircle
 10
236.0809004230155
 20
236.832389937107
 30
0.0
 40
0.75
100
AcDbArc
 50
270.0
 51
0.0
  0
ARC
  5
F51
330
A
100
AcDbEntity
  8
03
100
AcDbCircle
 10
208.5809004230156
 20
236.8323899371068
 30
0.0
 40
0.75
100
AcDbArc
 50
180.0
 51
270.0000000000016
  0
ARC
  5
F52
330
A
100
AcDbEntity
  8
03
100
AcDbCircle
 10
216.8309004230156
 20
229.0113221252415
 30
0.0
 40
7.5
100
AcDbArc
 50
70.52877936550858
 51
109.4712206344914
  0
ARC
  5
F53
330
A
100
AcDbEntity
  8
03
100
AcDbCircle
 10
227.8309004230155
 20
229.0113221252415
 30
0.0
 40
7.5
100
AcDbArc
 50
70.52877936550858
 51
109.4712206344914
  0
LINE
  5
F56
330
A
100
AcDbEntity
  8
03
100
AcDbLine
 10
219.3309004230155
 20
261.382389937107
 30
0.0
 11
225.3309004230156
 21
261.3823899371071
 31
0.0
  0
LINE
  5
F6A
330
A
100
AcDbEntity
  8
03
100
AcDbLine
 10
230.3309004230155
 20
237.582389937107
 30
0.0
 11
235.3309004230155
 21
237.582389937107
 31
0.0
  0
LINE
  5
F6B
330
A
100
AcDbEntity
  8
03
100
AcDbLine
 10
214.3309004230155
 20
237.5823899371068
 30
0.0
 11
209.3309004230155
 21
237.5823899371068
 31
0.0
  0
LINE
  5
F6C
330
A
100
AcDbEntity
  8
03
100
AcDbLine
 10
230.3309004230155
 20
236.082389937107
 30
0.0
 11
236.0809004230155
 21
236.082389937107
 31
0.0
  0
LINE
  5
F6D
330
A
100
AcDbEntity
  8
03
100
AcDbLine
 10
214.3309004230155
 20
236.0823899371069
 30
0.0
 11
208.5809004230156
 21
236.0823899371067
 31
0.0
  0
ARC
  5
F6E
330
A
100
AcDbEntity
  8
06
100
AcDbCircle
 10
273.0809004230179
 20
236.8323899371068
 30
0.0
 40
0.75
100
AcDbArc
 50
270.0
 51
0.0
  0
ARC
  5
F6F
330
A
100
AcDbEntity
  8
06
100
AcDbCircle
 10
245.5809004230179
 20
236.8323899371067
 30
0.0
 40
0.75
100
AcDbArc
 50
180.0
 51
270.0000000000016
  0
ARC
  5
F70
330
A
100
AcDbEntity
  8
06
100
AcDbCircle
 10
253.8309004230179
 20
229.0113221252413
 30
0.0
 40
7.5
100
AcDbArc
 50
70.52877936550858
 51
109.4712206344914
  0
ARC
  5
F71
330
A
100
AcDbEntity
  8
06
100
AcDbCircle
 10
264.8309004230179
 20
229.0113221252414
 30
0.0
 40
7.5
100
AcDbArc
 50
70.52877936550858
 51
109.4712206344914
  0
LINE
  5
F74
330
A
100
AcDbEntity
  8
06
100
AcDbLine
 10
256.3309004230179
 20
261.3823899371069
 30
0.0
 11
262.3309004230179
 21
261.382389937107
 31
0.0
  0
LINE
  5
F88
330
A
100
AcDbEntity
  8
06
100
AcDbLine
 10
267.3309004230178
 20
237.5823899371068
 30
0.0
 11
272.3309004230177
 21
237.5823899371066
 31
0.0
  0
LINE
  5
F89
330
A
100
AcDbEntity
  8
06
100
AcDbLine
 10
251.3309004230178
 20
237.5823899371066
 30
0.0
 11
246.3309004230178
 21
237.5823899371066
 31
0.0
  0
LINE
  5
F8A
330
A
100
AcDbEntity
  8
06
100
AcDbLine
 10
267.3309004230178
 20
236.0823899371069
 30
0.0
 11
273.0809004230177
 21
236.0823899371069
 31
0.0
  0
LINE
  5
F8B
330
A
100
AcDbEntity
  8
06
100
AcDbLine
 10
251.3309004230178
 20
236.0823899371067
 30
0.0
 11
245.5809004230177
 21
236.0823899371065
 31
0.0
  0
LINE
  5
F8C
330
A
100
AcDbEntity
  8
03
100
AcDbLine
 10
219.8309004230154
 20
231.082389937107
 30
0.0
 11
219.8309004230154
 21
261.382389937107
 31
0.0
  0
LINE
  5
F8D
330
A
100
AcDbEntity
  8
03
100
AcDbLine
 10
224.8309004230153
 20
231.082389937107
 30
0.0
 11
224.8309004230154
 21
261.3823899371073
 31
0.0
  0
LINE
  5
F8E
330
A
100
AcDbEntity
  8
03
100
AcDbLine
 10
225.3309004230153
 20
231.082389937107
 30
0.0
 11
225.3309004230153
 21
261.3823899371073
 31
0.0
  0
LINE
  5
F8F
330
A
100
AcDbEntity
  8
03
100
AcDbLine
 10
219.3309004230154
 20
231.082389937107
 30
0.0
 11
219.3309004230154
 21
261.382389937107
 31
0.0
  0
LINE
  5
F90
330
A
100
AcDbEntity
  8
03
100
AcDbLine
 10
219.8309004230154
 20
209.0823899371069
 30
0.0
 11
219.8309004230154
 21
177.7823899371072
 31
0.0
  0
LINE
  5
F91
330
A
100
AcDbEntity
  8
03
100
AcDbLine
 10
224.8309004230153
 20
209.0823899371069
 30
0.0
 11
224.8309004230153
 21
177.7823899371072
 31
0.0
  0
LINE
  5
F92
330
A
100
AcDbEntity
  8
03
100
AcDbLine
 10
225.3309004230153
 20
209.0823899371069
 30
0.0
 11
225.3309004230153
 21
177.7823899371072
 31
0.0
  0
LINE
  5
F93
330
A
100
AcDbEntity
  8
03
100
AcDbLine
 10
219.3309004230154
 20
209.0823899371069
 30
0.0
 11
219.3309004230154
 21
177.7823899371072
 31
0.0
  0
LINE
  5
F94
330
A
100
AcDbEntity
  8
06
100
AcDbLine
 10
261.8309004230176
 20
231.082389937107
 30
0.0
 11
261.8309004230176
 21
261.382389937107
 31
0.0
  0
LINE
  5
F95
330
A
100
AcDbEntity
  8
06
100
AcDbLine
 10
256.8309004230178
 20
231.082389937107
 30
0.0
 11
256.8309004230178
 21
261.3823899371069
 31
0.0
  0
LINE
  5
F96
330
A
100
AcDbEntity
  8
06
100
AcDbLine
 10
256.3309004230176
 20
231.082389937107
 30
0.0
 11
256.3309004230176
 21
261.3823899371069
 31
0.0
  0
LINE
  5
F97
330
A
100
AcDbEntity
  8
06
100
AcDbLine
 10
262.3309004230176
 20
231.082389937107
 30
0.0
 11
262.3309004230176
 21
261.382389937107
 31
0.0
  0
LINE
  5
F98
330
A
100
AcDbEntity
  8
06
100
AcDbLine
 10
256.8309004230178
 20
209.0823899371069
 30
0.0
 11
256.8309004230178
 21
177.7823899371072
 31
0.0
  0
LINE
  5
F99
330
A
100
AcDbEntity
  8
06
100
AcDbLine
 10
261.8309004230176
 20
209.0823899371069
 30
0.0
 11
261.8309004230176
 21
177.7823899371072
 31
0.0
  0
LINE
  5
F9A
330
A
100
AcDbEntity
  8
06
100
AcDbLine
 10
262.3309004230176
 20
209.0823899371069
 30
0.0
 11
262.3309004230176
 21
177.7823899371072
 31
0.0
  0
LINE
  5
F9B
330
A
100
AcDbEntity
  8
06
100
AcDbLine
 10
256.3309004230177
 20
209.0823899371069
 30
0.0
 11
256.3309004230177
 21
177.7823899371072
 31
0.0
  0
ARC
  5
F9C
330
A
100
AcDbEntity
  8
03
100
AcDbCircle
 10
208.3309004230155
 20
202.3323899371066
 30
0.0
 40
0.75
100
AcDbArc
 50
90.0
 51
180.0
  0
ARC
  5
F9D
330
A
100
AcDbEntity
  8
03
100
AcDbCircle
 10
236.3309004230153
 20
202.3323899371071
 30
0.0
 40
0.75
100
AcDbArc
 50
0.0
 51
90.0
  0
LINE
  5
FA0
330
A
100
AcDbEntity
  8
03
100
AcDbLine
 10
230.3309004230154
 20
201.582389937107
 30
0.0
 11
235.5809004230153
 21
201.582389937107
 31
0.0
  0
LINE
  5
FA1
330
A
100
AcDbEntity
  8
03
100
AcDbLine
 10
208.3309004230155
 20
203.0823899371068
 30
0.0
 11
214.3309004230153
 21
203.082389937107
 31
0.0
  0
LINE
  5
FA2
330
A
100
AcDbEntity
  8
03
100
AcDbLine
 10
230.3309004230154
 20
203.082389937107
 30
0.0
 11
236.3309004230153
 21
203.082389937107
 31
0.0
  0
LINE
  5
FA3
330
A
100
AcDbEntity
  8
03
100
AcDbLine
 10
209.0809004230155
 20
201.582389937107
 30
0.0
 11
214.3309004230153
 21
201.582389937107
 31
0.0
  0
ARC
  5
FA4
330
A
100
AcDbEntity
  8
06
100
AcDbCircle
 10
245.3309004230179
 20
202.3323899371066
 30
0.0
 40
0.75
100
AcDbArc
 50
90.0
 51
180.0
  0
ARC
  5
FA5
330
A
100
AcDbEntity
  8
06
100
AcDbCircle
 10
273.3309004230176
 20
202.3323899371071
 30
0.0
 40
0.75
100
AcDbArc
 50
0.0
 51
90.0
  0
LINE
  5
FA6
330
A
100
AcDbEntity
  8
03
100
AcDbLine
 10
214.3309004230155
 20
237.5823899371068
 30
0.0
 11
209.3309004230155
 21
237.5823899371068
 31
0.0
  0
LINE
  5
FA7
330
A
100
AcDbEntity
  8
03
100
AcDbLine
 10
230.3309004230155
 20
237.5823899371068
 30
0.0
 11
235.3309004230155
 21
237.5823899371068
 31
0.0
  0
LINE
  5
FAA
330
A
100
AcDbEntity
  8
06
100
AcDbLine
 10
267.3309004230178
 20
237.5823899371068
 30
0.0
 11
272.3309004230177
 21
237.5823899371068
 31
0.0
  0
LINE
  5
FAB
330
A
100
AcDbEntity
  8
06
100
AcDbLine
 10
251.3309004230178
 20
237.5823899371068
 30
0.0
 11
246.3309004230178
 21
237.5823899371068
 31
0.0
  0
LINE
  5
FB0
330
A
100
AcDbEntity
  8
06
100
AcDbLine
 10
267.3309004230178
 20
201.582389937107
 30
0.0
 11
272.5809004230177
 21
201.5823899371068
 31
0.0
  0
LINE
  5
FB1
330
A
100
AcDbEntity
  8
06
100
AcDbLine
 10
245.3309004230179
 20
203.0823899371068
 30
0.0
 11
251.3309004230178
 21
203.082389937107
 31
0.0
  0
LINE
  5
FB2
330
A
100
AcDbEntity
  8
06
100
AcDbLine
 10
267.3309004230178
 20
203.082389937107
 30
0.0
 11
273.3309004230176
 21
203.082389937107
 31
0.0
  0
LINE
  5
FB3
330
A
100
AcDbEntity
  8
06
100
AcDbLine
 10
246.0809004230179
 20
201.582389937107
 30
0.0
 11
251.3309004230178
 21
201.582389937107
 31
0.0
  0
MTEXT
  5
11D0
102
{ACAD_REACTORS
330
11D1
102
}
330
A
100
AcDbEntity
  8
HIKIDASI
100
AcDbMText
 10
131.525241302338
 20
262.5870389131138
 30
0.0
 40
5.0
 41
0.0
 71
     9
 72
     1
  1
補助光電スイッチ\P取付穴φ12\P（サッシ工事）
  7
SUNPOU
1001
ACAD
1000
MTEXTBEGIN
1070
    73
1070
     1
1070
    44
1040
1.0
1070
    74
1070
     0
1000
MTEXTEND
1000
MTEXTBEGIN
1070
    73
1070
     1
1070
    44
1040
1.0
1070
    74
1070
     0
1000
MTEXTEND
  0
LEADER
  5
11D1
330
A
100
AcDbEntity
  8
HIKIDASI
100
AcDbLeader
  3
SUNPOU_2
 73
     0
 75
     1
 40
21.66666666666666
 41
37.06666666666665
 76
     3
 10
189.6826448215815
 20
223.8458163369359
 30
0.0
 10
136.1862113056494
 20
277.615371630656
 30
0.0
 10
131.1862113056494
 20
277.615371630656
 30
0.0
1001
ACAD
1000
DSTYLE
1002
{
1070
     5
1000
OPEN30
1070
    77
1070
     1
1070
   147
1040
1.0
1070
   342
1005
5D9
1002
}
1000
LEANOF
1010
0.0
1020
0.0
1030
0.0
1000
LEANOF
1010
0.0
1020
0.0
1030
0.0
  0
LINE
  5
12DD
330
A
100
AcDbEntity
  8
SAISEN
100
AcDbLine
 10
174.1836768951857
 20
228.0823899371068
 30
0.0
 11
305.8394883502316
 21
228.0823899371068
 31
0.0
  0
LINE
  5
12DE
330
A
100
AcDbEntity
  8
SAISEN
100
AcDbLine
 10
305.8394883502316
 20
212.082389937107
 30
0.0
 11
174.1836768951857
 21
212.082389937107
 31
0.0
  0
LINE
  5
12DF
330
A
100
AcDbEntity
  8
06
100
AcDbLine
 10
256.830900423018
 20
228.0823899371068
 30
0.0
 11
256.830900423018
 21
212.0823899371068
 31
0.0
  0
LINE
  5
12E0
330
A
100
AcDbEntity
  8
06
100
AcDbLine
 10
256.3309004230176
 20
212.0823899371068
 30
0.0
 11
256.3309004230176
 21
228.0823899371068
 31
0.0
  0
LINE
  5
12E1
330
A
100
AcDbEntity
  8
06
100
AcDbLine
 10
262.3309004230176
 20
228.0823899371068
 30
0.0
 11
262.3309004230176
 21
212.0823899371068
 31
0.0
  0
LINE
  5
12E2
330
A
100
AcDbEntity
  8
06
100
AcDbLine
 10
261.830900423018
 20
212.0823899371068
 30
0.0
 11
261.830900423018
 21
228.0823899371068
 31
0.0
  0
LINE
  5
12E3
330
A
100
AcDbEntity
  8
03
100
AcDbLine
 10
219.3308979022434
 20
212.082389937107
 30
0.0
 11
219.3308979022434
 21
228.0823899371068
 31
0.0
  0
LINE
  5
12E4
330
A
100
AcDbEntity
  8
03
100
AcDbLine
 10
219.8308979022435
 20
228.0823899371068
 30
0.0
 11
219.8308979022435
 21
212.082389937107
 31
0.0
  0
LINE
  5
12E5
330
A
100
AcDbEntity
  8
03
100
AcDbLine
 10
224.8308979022437
 20
212.082389937107
 30
0.0
 11
224.8308979022437
 21
228.0823899371068
 31
0.0
  0
LINE
  5
12E6
330
A
100
AcDbEntity
  8
03
100
AcDbLine
 10
225.3308979022434
 20
228.0823899371068
 30
0.0
 11
225.3308979022434
 21
212.082389937107
 31
0.0
  0
LINE
  5
12E7
330
A
100
AcDbEntity
  8
CHUSIN
100
AcDbLine
 10
177.3309004230176
 20
219.0823899371068
 30
0.0
 11
209.3309004230176
 21
219.0823899371068
 31
0.0
  0
CIRCLE
  5
12E8
330
A
100
AcDbEntity
  8
03
100
AcDbCircle
 10
193.3309004230176
 20
219.0823899371068
 30
0.0
 40
6.0
  0
LINE
  5
12E9
330
A
100
AcDbEntity
  8
CHUSIN
100
AcDbLine
 10
193.3309004230176
 20
234.3595348837208
 30
0.0
 11
193.3309004230176
 21
202.4493023255813
 31
0.0
  0
LINE
  5
12FE
330
A
100
AcDbEntity
  8
03
100
AcDbLine
 10
300.3309004230176
 20
228.0823899371068
 30
0.0
 11
300.3309004230176
 21
212.082389937107
 31
0.0
  0
LINE
  5
12FF
330
A
100
AcDbEntity
  8
06
100
AcDbLine
 10
275.3309004230178
 20
228.0823899371068
 30
0.0
 11
275.3309004230178
 21
212.082389937107
 31
0.0
  0
LINE
  5
1300
330
A
100
AcDbEntity
  8
06
100
AcDbLine
 10
243.3309004230153
 20
228.0823899371068
 30
0.0
 11
243.3309004230153
 21
212.082389937107
 31
0.0
  0
LINE
  5
1301
330
A
100
AcDbEntity
  8
03
100
AcDbLine
 10
238.3309004230155
 20
228.0823899371068
 30
0.0
 11
238.3309004230155
 21
212.082389937107
 31
0.0
  0
LINE
  5
1302
330
A
100
AcDbEntity
  8
03
100
AcDbLine
 10
206.3309004230155
 20
228.0823899371068
 30
0.0
 11
206.3309004230155
 21
212.082389937107
 31
0.0
  0
LINE
  5
1303
330
A
100
AcDbEntity
  8
03
100
AcDbLine
 10
180.3309004230176
 20
228.0823899371068
 30
0.0
 11
180.3309004230176
 21
212.082389937107
 31
0.0
  0
LINE
  5
1494
330
A
100
AcDbEntity
  8
03
100
AcDbLine
 10
300.3309004230176
 20
162.3813009995311
 30
0.0
 11
300.3309004230176
 21
133.3173282293481
 31
0.0
  0
DIMENSION
  5
1496
330
A
100
AcDbEntity
  8
SUNPOU
100
AcDbDimension
  2
*D24
 10
320.3309004230177
 20
331.082389937107
 30
0.0
 11
315.8309004230176
 21
283.5823899371068
 31
0.0
 70
    32
  3
SUNPOU_2
100
AcDbAlignedDimension
 13
273.0809004230177
 23
236.0823899371069
 33
0.0
 14
275.3309004230178
 24
331.082389937107
 34
0.0
 50
90.0
100
AcDbRotatedDimension
  0
DIMENSION
  5
14C8
330
A
100
AcDbEntity
  8
SUNPOU
100
AcDbDimension
  2
*D25
 10
140.3309004230177
 20
321.0823899371068
 30
0.0
 11
135.8309004230177
 21
289.6377559347011
 31
0.0
 70
   160
  3
SUNPOU_2
100
AcDbAlignedDimension
 13
208.5809004230156
 23
236.0823899371067
 33
0.0
 14
206.3309004230155
 24
321.0823899371068
 34
0.0
 50
90.0
100
AcDbRotatedDimension
  0
DIMENSION
  5
15E6
330
A
100
AcDbEntity
  8
SUNPOU
100
AcDbDimension
  2
*D27
 10
288.3309004230179
 20
52.28238993710718
 30
0.0
 11
278.0809004230178
 21
56.78238993710718
 31
0.0
 70
    32
  3
SUNPOU_2
100
AcDbAlignedDimension
 13
267.8309004230178
 23
71.08238993710722
 33
0.0
 14
288.3309004230179
 24
68.28238993710741
 34
0.0
100
AcDbRotatedDimension
  0
DIMENSION
  5
15E7
330
A
100
AcDbEntity
  8
SUNPOU
100
AcDbDimension
  2
*D28
 10
267.8309004230178
 20
52.28238993710718
 30
0.0
 11
259.3309004230178
 21
56.78238993710718
 31
0.0
 70
    32
  3
SUNPOU_2
100
AcDbAlignedDimension
 13
250.8309004230178
 23
71.08238993710725
 33
0.0
 14
267.8309004230178
 24
71.08238993710722
 34
0.0
100
AcDbRotatedDimension
  0
LINE
  5
15E8
330
A
100
AcDbEntity
  8
03
100
AcDbLine
 10
237.3309004230154
 20
108.0823899371073
 30
0.0
 11
237.3309004230154
 21
98.0823899371073
 31
0.0
  0
LINE
  5
15E9
330
A
100
AcDbEntity
  8
KAKURE
100
AcDbLine
 10
238.3309004230178
 20
86.08238993710726
 30
0.0
 11
238.3309004230178
 21
71.08238993710736
 31
0.0
  0
LINE
  5
15EA
330
A
100
AcDbEntity
  8
KAKURE
 48
0.7
100
AcDbLine
 10
257.330900423018
 20
131.082389937107
 30
0.0
 11
256.330900423018
 21
129.082389937107
 31
0.0
  0
LINE
  5
15EB
330
A
100
AcDbEntity
  8
KAKURE
 48
0.7
100
AcDbLine
 10
261.330900423018
 20
131.082389937107
 30
0.0
 11
262.330900423018
 21
129.082389937107
 31
0.0
  0
LINE
  5
15EC
330
A
100
AcDbEntity
  8
KAKURE
100
AcDbLine
 10
260.980900423018
 20
132.482389937107
 30
0.0
 11
260.980900423018
 21
149.0823899371072
 31
0.0
  0
LINE
  5
15ED
330
A
100
AcDbEntity
  8
KAKURE
100
AcDbLine
 10
257.680900423018
 20
132.482389937107
 30
0.0
 11
257.680900423018
 21
149.0823899371072
 31
0.0
  0
LINE
  5
15EE
330
A
100
AcDbEntity
  8
KAKURE
100
AcDbLine
 10
257.330900423018
 20
132.482389937107
 30
0.0
 11
261.330900423018
 21
132.482389937107
 31
0.0
  0
LINE
  5
15EF
330
A
100
AcDbEntity
  8
KAKURE
100
AcDbLine
 10
261.330900423018
 20
149.0823899371072
 30
0.0
 11
261.330900423018
 21
131.082389937107
 31
0.0
  0
LINE
  5
15F0
330
A
100
AcDbEntity
  8
KAKURE
100
AcDbLine
 10
257.330900423018
 20
149.0823899371072
 30
0.0
 11
261.330900423018
 21
149.0823899371072
 31
0.0
  0
LINE
  5
15F1
330
A
100
AcDbEntity
  8
KAKURE
100
AcDbLine
 10
257.330900423018
 20
131.082389937107
 30
0.0
 11
257.330900423018
 21
149.0823899371072
 31
0.0
  0
LINE
  5
15F2
330
A
100
AcDbEntity
  8
KAKURE
100
AcDbLine
 10
259.330900423018
 20
129.082389937107
 30
0.0
 11
259.330900423018
 21
129.982389937107
 31
0.0
  0
LINE
  5
15F3
330
A
100
AcDbEntity
  8
KAKURE
100
AcDbLine
 10
261.330900423018
 20
131.082389937107
 30
0.0
 11
257.330900423018
 21
131.082389937107
 31
0.0
  0
LINE
  5
15F4
330
A
100
AcDbEntity
  8
KAKURE
100
AcDbLine
 10
286.0309004230177
 20
99.58238993710736
 30
0.0
 11
286.0309004230178
 21
69.58238993710736
 31
0.0
  0
LINE
  5
15F5
330
A
100
AcDbEntity
  8
KAKURE
100
AcDbLine
 10
242.1309004230179
 20
69.58238993710725
 30
0.0
 11
242.1309004230179
 21
99.58238993710731
 31
0.0
  0
ARC
  5
15F6
330
A
100
AcDbEntity
  8
KAKURE
100
AcDbCircle
 10
287.3309004230179
 20
68.28238993710741
 30
0.0
 40
1.0
100
AcDbArc
 50
270.0
 51
0.0
  0
ARC
  5
15F7
330
A
100
AcDbEntity
  8
KAKURE
100
AcDbCircle
 10
240.8309004230179
 20
68.28238993710718
 30
0.0
 40
1.0
100
AcDbArc
 50
180.0
 51
270.0
  0
LINE
  5
15F8
330
A
100
AcDbEntity
  8
KAKURE
100
AcDbLine
 10
287.3309004230179
 20
67.28238993710745
 30
0.0
 11
240.8309004230179
 21
67.28238993710718
 31
0.0
  0
LINE
  5
15F9
330
A
100
AcDbEntity
  8
KAKURE
100
AcDbLine
 10
250.0809004230179
 20
69.58238993710731
 30
0.0
 11
242.1309004230179
 21
69.58238993710725
 31
0.0
  0
LINE
  5
15FA
330
A
100
AcDbEntity
  8
KAKURE
100
AcDbLine
 10
286.0309004230178
 20
69.58238993710742
 30
0.0
 11
268.5809004230179
 21
69.58238993710736
 31
0.0
  0
LINE
  5
15FB
330
A
100
AcDbEntity
  8
KAKURE
100
AcDbLine
 10
288.3309004230179
 20
86.08238993710735
 30
0.0
 11
288.3309004230179
 21
68.28238993710741
 31
0.0
  0
LINE
  5
15FC
330
A
100
AcDbEntity
  8
KAKURE
100
AcDbLine
 10
239.8309004230179
 20
68.28238993710718
 30
0.0
 11
239.8309004230179
 21
86.08238993710726
 31
0.0
  0
LINE
  5
15FD
330
A
100
AcDbEntity
  8
03
100
AcDbLine
 10
239.8309004230179
 20
86.08238993710726
 30
0.0
 11
239.8309004230179
 21
99.58238993710724
 31
0.0
  0
LINE
  5
15FE
330
A
100
AcDbEntity
  8
03
100
AcDbLine
 10
288.3309004230179
 20
86.08238993710735
 30
0.0
 11
288.3309004230179
 21
99.58238993710736
 31
0.0
  0
LINE
  5
15FF
330
A
100
AcDbEntity
  8
03
100
AcDbLine
 10
238.8309004230179
 20
101.0823899371071
 30
0.0
 11
250.0809004230179
 21
101.0823899371072
 31
0.0
  0
LINE
  5
1600
330
A
100
AcDbEntity
  8
06
100
AcDbLine
 10
264.9094016370269
 20
114.5823899371069
 30
0.0
 11
265.9094016370269
 21
115.5823899371069
 31
0.0
  0
LINE
  5
1601
330
A
100
AcDbEntity
  8
06
100
AcDbLine
 10
253.595693138042
 20
114.5823899371069
 30
0.0
 11
254.5956931380422
 21
115.5823899371069
 31
0.0
  0
LINE
  5
1602
330
A
100
AcDbEntity
  8
06
100
AcDbLine
 10
251.0809004230181
 20
112.0675972220831
 30
0.0
 11
252.080900423018
 21
113.0675972220829
 31
0.0
  0
LINE
  5
1603
330
A
100
AcDbEntity
  8
06
100
AcDbLine
 10
252.1809004230181
 20
114.482389937107
 30
0.0
 11
266.4809004230181
 21
114.4823899371069
 31
0.0
  0
ARC
  5
1604
330
A
100
AcDbEntity
  8
06
100
AcDbCircle
 10
252.6809004230179
 20
110.0823899371071
 30
0.0
 40
0.5
100
AcDbArc
 50
180.0
 51
270.0
  0
LINE
  5
1605
330
A
100
AcDbEntity
  8
06
100
AcDbLine
 10
252.1809004230181
 20
114.482389937107
 30
0.0
 11
252.1809004230179
 21
110.0823899371071
 31
0.0
  0
ARC
  5
1606
330
A
100
AcDbEntity
  8
06
100
AcDbCircle
 10
265.9809004230179
 20
110.0823899371071
 30
0.0
 40
0.5
100
AcDbArc
 50
270.0
 51
0.0
  0
LINE
  5
1607
330
A
100
AcDbEntity
  8
06
100
AcDbLine
 10
266.4809004230181
 20
114.4823899371069
 30
0.0
 11
266.4809004230179
 21
110.0823899371071
 31
0.0
  0
ARC
  5
1608
330
A
100
AcDbEntity
  8
06
100
AcDbCircle
 10
266.8309004230179
 20
106.0823899371071
 30
0.0
 40
0.5
100
AcDbArc
 50
0.0
 51
90.0
  0
LINE
  5
1609
330
A
100
AcDbEntity
  8
06
100
AcDbLine
 10
263.2309004230179
 20
106.5823899371072
 30
0.0
 11
266.8309004230179
 21
106.5823899371072
 31
0.0
  0
ARC
  5
160A
330
A
100
AcDbEntity
  8
06
100
AcDbCircle
 10
251.8309004230179
 20
106.0823899371071
 30
0.0
 40
0.5
100
AcDbArc
 50
90.0
 51
180.0
  0
LINE
  5
160B
330
A
100
AcDbEntity
  8
06
100
AcDbLine
 10
251.8309004230179
 20
106.5823899371072
 30
0.0
 11
255.4309004230179
 21
106.5823899371072
 31
0.0
  0
LINE
  5
160C
330
A
100
AcDbEntity
  8
06
100
AcDbLine
 10
263.2309004230179
 20
109.5823899371072
 30
0.0
 11
263.2309004230179
 21
106.5823899371072
 31
0.0
  0
LINE
  5
160D
330
A
100
AcDbEntity
  8
06
100
AcDbLine
 10
255.4309004230179
 20
109.5823899371072
 30
0.0
 11
255.4309004230179
 21
106.5823899371072
 31
0.0
  0
ARC
  5
160E
330
A
100
AcDbEntity
  8
06
100
AcDbCircle
 10
266.3309004230179
 20
86.58238993710725
 30
0.0
 40
1.0
100
AcDbArc
 50
270.0
 51
0.0
  0
LINE
  5
160F
330
A
100
AcDbEntity
  8
06
100
AcDbLine
 10
267.3309004230179
 20
106.0823899371071
 30
0.0
 11
267.3309004230179
 21
86.58238993710725
 31
0.0
  0
ARC
  5
1610
330
A
100
AcDbEntity
  8
06
100
AcDbCircle
 10
252.3309004230179
 20
86.58238993710725
 30
0.0
 40
1.0
100
AcDbArc
 50
180.0
 51
270.0
  0
LINE
  5
1611
330
A
100
AcDbEntity
  8
06
100
AcDbLine
 10
251.3309004230179
 20
106.0823899371071
 30
0.0
 11
251.3309004230179
 21
86.58238993710725
 31
0.0
  0
LINE
  5
1612
330
A
100
AcDbEntity
  8
06
100
AcDbLine
 10
252.3309004230179
 20
85.58238993710725
 30
0.0
 11
266.3309004230179
 21
85.58238993710725
 31
0.0
  0
LINE
  5
1613
330
A
100
AcDbEntity
  8
06
100
AcDbLine
 10
263.2309004230179
 20
109.5823899371072
 30
0.0
 11
265.9809004230179
 21
109.5823899371072
 31
0.0
  0
LINE
  5
1614
330
A
100
AcDbEntity
  8
06
100
AcDbLine
 10
252.6809004230179
 20
109.5823899371072
 30
0.0
 11
255.4309004230179
 21
109.5823899371072
 31
0.0
  0
LINE
  5
1615
330
A
100
AcDbEntity
  8
06
100
AcDbLine
 10
251.0809004230178
 20
110.9823899371072
 30
0.0
 11
252.0809004230179
 21
110.9823899371072
 31
0.0
  0
LINE
  5
1616
330
A
100
AcDbEntity
  8
06
100
AcDbLine
 10
266.5809004230179
 20
110.9823899371072
 30
0.0
 11
267.5809004230178
 21
110.9823899371072
 31
0.0
  0
LINE
  5
1617
330
A
100
AcDbEntity
  8
06
100
AcDbLine
 10
252.080900423018
 20
114.5823899371069
 30
0.0
 11
252.0809004230179
 21
110.9823899371072
 31
0.0
  0
LINE
  5
1618
330
A
100
AcDbEntity
  8
06
100
AcDbLine
 10
266.5809004230181
 20
114.5823899371069
 30
0.0
 11
266.5809004230179
 21
110.9823899371072
 31
0.0
  0
LINE
  5
1619
330
A
100
AcDbEntity
  8
06
100
AcDbLine
 10
252.080900423018
 20
114.5823899371069
 30
0.0
 11
266.5809004230181
 21
114.5823899371069
 31
0.0
  0
ARC
  5
161A
330
A
100
AcDbEntity
  8
06
100
AcDbCircle
 10
252.080900423018
 20
114.5823899371069
 30
0.0
 40
1.0
100
AcDbArc
 50
90.0
 51
180.0
  0
LINE
  5
161B
330
A
100
AcDbEntity
  8
06
100
AcDbLine
 10
251.0809004230181
 20
114.5823899371069
 30
0.0
 11
251.0809004230178
 21
110.9823899371072
 31
0.0
  0
ARC
  5
161C
330
A
100
AcDbEntity
  8
06
100
AcDbCircle
 10
266.5809004230181
 20
114.5823899371069
 30
0.0
 40
1.0
100
AcDbArc
 50
0.0
 51
90.0
  0
LINE
  5
161D
330
A
100
AcDbEntity
  8
06
100
AcDbLine
 10
267.5809004230181
 20
114.5823899371069
 30
0.0
 11
267.5809004230178
 21
110.9823899371072
 31
0.0
  0
LINE
  5
161E
330
A
100
AcDbEntity
  8
06
100
AcDbLine
 10
252.080900423018
 20
115.5823899371069
 30
0.0
 11
266.5809004230181
 21
115.5823899371069
 31
0.0
  0
LINE
  5
161F
330
A
100
AcDbEntity
  8
06
100
AcDbLine
 10
248.8309004230181
 20
142.5823899371069
 30
0.0
 11
269.830900423018
 21
142.582389937107
 31
0.0
  0
LINE
  5
1620
330
A
100
AcDbEntity
  8
06
100
AcDbLine
 10
269.830900423018
 20
130.5823899371072
 30
0.0
 11
248.8309004230181
 21
142.5823899371069
 31
0.0
  0
LINE
  5
1621
330
A
100
AcDbEntity
  8
06
100
AcDbLine
 10
269.830900423018
 20
142.582389937107
 30
0.0
 11
248.8309004230182
 21
130.5823899371072
 31
0.0
  0
LINE
  5
1622
330
A
100
AcDbEntity
  8
06
100
AcDbLine
 10
269.830900423018
 20
130.5823899371072
 30
0.0
 11
248.8309004230182
 21
130.5823899371072
 31
0.0
  0
LINE
  5
1623
330
A
100
AcDbEntity
  8
06
100
AcDbLine
 10
255.3309004230179
 20
129.082389937107
 30
0.0
 11
263.330900423018
 21
129.082389937107
 31
0.0
  0
LINE
  5
1624
330
A
100
AcDbEntity
  8
06
100
AcDbLine
 10
269.830900423018
 20
130.5823899371072
 30
0.0
 11
269.830900423018
 21
142.582389937107
 31
0.0
  0
LINE
  5
1625
330
A
100
AcDbEntity
  8
06
100
AcDbLine
 10
248.8309004230182
 20
130.5823899371072
 30
0.0
 11
248.8309004230181
 21
142.5823899371069
 31
0.0
  0
LINE
  5
1626
330
A
100
AcDbEntity
  8
06
100
AcDbLine
 10
254.8309004230179
 20
109.5823899371072
 30
0.0
 11
254.8309004230178
 21
108.0823899371071
 31
0.0
  0
LINE
  5
1627
330
A
100
AcDbEntity
  8
06
100
AcDbLine
 10
263.8309004230179
 20
109.5823899371076
 30
0.0
 11
263.8309004230178
 21
108.0823899371073
 31
0.0
  0
LINE
  5
1628
330
A
100
AcDbEntity
  8
06
100
AcDbLine
 10
254.8309004230179
 20
109.5823899371076
 30
0.0
 11
250.3309004230178
 21
109.582389937107
 31
0.0
  0
LINE
  5
1629
330
A
100
AcDbEntity
  8
06
100
AcDbLine
 10
268.3309004230179
 20
109.5823899371074
 30
0.0
 11
263.8309004230179
 21
109.5823899371079
 31
0.0
  0
LINE
  5
162A
330
A
100
AcDbEntity
  8
06
100
AcDbLine
 10
268.3309004230181
 20
129.082389937107
 30
0.0
 11
268.3309004230179
 21
109.5823899371072
 31
0.0
  0
LINE
  5
162B
330
A
100
AcDbEntity
  8
06
100
AcDbLine
 10
250.3309004230178
 20
109.5823899371072
 30
0.0
 11
250.3309004230179
 21
129.082389937107
 31
0.0
  0
LINE
  5
162C
330
A
100
AcDbEntity
  8
06
100
AcDbLine
 10
263.330900423018
 20
129.082389937107
 30
0.0
 11
268.3309004230181
 21
129.082389937107
 31
0.0
  0
LINE
  5
162D
330
A
100
AcDbEntity
  8
06
100
AcDbLine
 10
250.3309004230179
 20
129.082389937107
 30
0.0
 11
255.3309004230179
 21
129.082389937107
 31
0.0
  0
ARC
  5
162E
330
A
100
AcDbEntity
  8
06
100
AcDbCircle
 10
249.5809004230181
 20
129.832389937107
 30
0.0
 40
0.75
100
AcDbArc
 50
90.0
 51
180.0
  0
ARC
  5
162F
330
A
100
AcDbEntity
  8
06
100
AcDbCircle
 10
249.5809004230177
 20
108.8323899371072
 30
0.0
 40
0.75
100
AcDbArc
 50
180.0
 51
270.0
  0
LINE
  5
1630
330
A
100
AcDbEntity
  8
06
100
AcDbLine
 10
248.8309004230178
 20
108.8323899371072
 30
0.0
 11
248.8309004230182
 21
129.832389937107
 31
0.0
  0
LINE
  5
1631
330
A
100
AcDbEntity
  8
06
100
AcDbLine
 10
254.8309004230179
 20
108.0823899371073
 30
0.0
 11
249.5809004230177
 21
108.0823899371073
 31
0.0
  0
ARC
  5
1632
330
A
100
AcDbEntity
  8
06
100
AcDbCircle
 10
269.0809004230179
 20
108.8323899371077
 30
0.0
 40
0.75
100
AcDbArc
 50
270.0000000000031
 51
0.0
  0
LINE
  5
1633
330
A
100
AcDbEntity
  8
06
100
AcDbLine
 10
269.0809004230179
 20
108.0823899371077
 30
0.0
 11
263.8309004230179
 21
108.0823899371073
 31
0.0
  0
ARC
  5
1634
330
A
100
AcDbEntity
  8
06
100
AcDbCircle
 10
269.080900423018
 20
129.832389937107
 30
0.0
 40
0.75
100
AcDbArc
 50
0.0
 51
90.0
  0
LINE
  5
1635
330
A
100
AcDbEntity
  8
06
100
AcDbLine
 10
269.830900423018
 20
129.832389937107
 30
0.0
 11
269.8309004230178
 21
108.8323899371077
 31
0.0
  0
LINE
  5
1636
330
A
100
AcDbEntity
  8
03
100
AcDbLine
 10
274.0809004230178
 20
101.0823899371072
 30
0.0
 11
272.9178948092641
 21
99.58238993710736
 31
0.0
  0
LINE
  5
1637
330
A
100
AcDbEntity
  8
03
100
AcDbLine
 10
244.5672745080798
 20
101.0823899371072
 30
0.0
 11
243.404268894326
 21
99.58238993710731
 31
0.0
  0
LINE
  5
1638
330
A
100
AcDbEntity
  8
03
100
AcDbLine
 10
269.3309004230179
 20
80.33238993710737
 30
0.0
 11
267.8309004230178
 21
78.83372327044051
 31
0.0
  0
LINE
  5
1639
330
A
100
AcDbEntity
  8
03
100
AcDbLine
 10
289.8309004230179
 20
91.08238993710735
 30
0.0
 11
288.3309004230179
 21
89.58372327044072
 31
0.0
  0
LINE
  5
163A
330
A
100
AcDbEntity
  8
03
100
AcDbLine
 10
239.8309004230179
 20
91.08238993710726
 30
0.0
 11
238.3309004230178
 21
89.58372327044051
 31
0.0
  0
LINE
  5
163B
330
A
100
AcDbEntity
  8
03
100
AcDbLine
 10
250.8309004230178
 20
90.33238993710723
 30
0.0
 11
249.3309004230179
 21
88.83372327044051
 31
0.0
  0
LINE
  5
163C
330
A
100
AcDbEntity
  8
03
100
AcDbLine
 10
262.8021106385444
 20
69.58238993710725
 30
0.0
 11
261.2299814830893
 21
67.28238993710728
 31
0.0
  0
LINE
  5
163D
330
A
100
AcDbEntity
  8
03
100
AcDbLine
 10
261.8021106385445
 20
69.58238993710725
 30
0.0
 11
260.2299814830893
 21
67.28238993710728
 31
0.0
  0
LINE
  5
163E
330
A
100
AcDbEntity
  8
03
100
AcDbLine
 10
288.3309004230179
 20
78.28238993710741
 30
0.0
 11
286.0309004230178
 21
75.98443438155178
 31
0.0
  0
LINE
  5
163F
330
A
100
AcDbEntity
  8
03
100
AcDbLine
 10
288.3309004230179
 20
79.28238993710741
 30
0.0
 11
286.0309004230178
 21
76.98443438155178
 31
0.0
  0
LINE
  5
1640
330
A
100
AcDbEntity
  8
03
100
AcDbLine
 10
288.3309004230179
 20
94.58238993710734
 30
0.0
 11
286.0309004230178
 21
92.28443438155183
 31
0.0
  0
LINE
  5
1641
330
A
100
AcDbEntity
  8
03
100
AcDbLine
 10
288.3309004230179
 20
95.58238993710736
 30
0.0
 11
286.0309004230178
 21
93.28443438155183
 31
0.0
  0
LINE
  5
1642
330
A
100
AcDbEntity
  8
03
100
AcDbLine
 10
242.1309004230179
 20
79.58238993710725
 30
0.0
 11
239.8309004230179
 21
77.28443438155173
 31
0.0
  0
LINE
  5
1643
330
A
100
AcDbEntity
  8
03
100
AcDbLine
 10
242.1309004230179
 20
80.58238993710725
 30
0.0
 11
239.8309004230179
 21
78.28443438155173
 31
0.0
  0
LINE
  5
1644
330
A
100
AcDbEntity
  8
03
100
AcDbLine
 10
242.1309004230179
 20
95.95448385744267
 30
0.0
 11
239.8309004230179
 21
93.65652830188713
 31
0.0
  0
LINE
  5
1645
330
A
100
AcDbEntity
  8
03
100
AcDbLine
 10
242.1309004230179
 20
96.95448385744269
 30
0.0
 11
239.8309004230179
 21
94.65652830188714
 31
0.0
  0
LINE
  5
1646
330
A
100
AcDbEntity
  8
03
100
AcDbLine
 10
289.8309004230179
 20
86.08238993710735
 30
0.0
 11
288.3309004230179
 21
86.08238993710735
 31
0.0
  0
LINE
  5
1647
330
A
100
AcDbEntity
  8
03
100
AcDbLine
 10
238.3309004230178
 20
86.08238993710726
 30
0.0
 11
239.8309004230179
 21
86.08238993710726
 31
0.0
  0
LINE
  5
1648
330
A
100
AcDbEntity
  8
03
100
AcDbLine
 10
269.3309004230179
 20
99.58238993710736
 30
0.0
 11
288.3309004230179
 21
99.58238993710736
 31
0.0
  0
LINE
  5
1649
330
A
100
AcDbEntity
  8
03
100
AcDbLine
 10
239.8309004230179
 20
99.58238993710724
 30
0.0
 11
249.3309004230179
 21
99.58238993710731
 31
0.0
  0
ARC
  5
164A
330
A
100
AcDbEntity
  8
03
100
AcDbCircle
 10
250.0809004230179
 20
70.33238993710725
 30
0.0
 40
0.75
100
AcDbArc
 50
180.0
 51
270.0
  0
ARC
  5
164B
330
A
100
AcDbEntity
  8
03
100
AcDbCircle
 10
268.5809004230179
 20
70.33238993710725
 30
0.0
 40
0.75
100
AcDbArc
 50
270.0
 51
0.0
  0
LINE
  5
164C
330
A
100
AcDbEntity
  8
03
100
AcDbLine
 10
268.5809004230179
 20
69.58238993710736
 30
0.0
 11
250.0809004230179
 21
69.58238993710731
 31
0.0
  0
LINE
  5
164D
330
A
100
AcDbEntity
  8
03
100
AcDbLine
 10
249.3309004230179
 20
99.58238993710731
 30
0.0
 11
249.3309004230179
 21
70.33238993710725
 31
0.0
  0
LINE
  5
164E
330
A
100
AcDbEntity
  8
03
100
AcDbLine
 10
269.3309004230179
 20
99.58238993710736
 30
0.0
 11
269.3309004230179
 21
70.33238993710725
 31
0.0
  0
ARC
  5
164F
330
A
100
AcDbEntity
  8
03
100
AcDbCircle
 10
268.5809004230179
 20
100.3323899371072
 30
0.0
 40
0.75
100
AcDbArc
 50
90.0
 51
180.0
  0
LINE
  5
1650
330
A
100
AcDbEntity
  8
03
100
AcDbLine
 10
267.8309004230178
 20
100.3323899371072
 30
0.0
 11
267.8309004230178
 21
71.08238993710725
 31
0.0
  0
ARC
  5
1651
330
A
100
AcDbEntity
  8
03
100
AcDbCircle
 10
250.0809004230179
 20
100.3323899371072
 30
0.0
 40
0.75
100
AcDbArc
 50
0.0
 51
90.0
  0
LINE
  5
1652
330
A
100
AcDbEntity
  8
03
100
AcDbLine
 10
250.8309004230178
 20
100.3323899371072
 30
0.0
 11
250.8309004230178
 21
71.08238993710725
 31
0.0
  0
ARC
  5
1653
330
A
100
AcDbEntity
  8
03
100
AcDbCircle
 10
238.8309004230179
 20
100.5823899371071
 30
0.0
 40
0.5
100
AcDbArc
 50
90.0
 51
180.0
  0
LINE
  5
1654
330
A
100
AcDbEntity
  8
03
100
AcDbLine
 10
238.3309004230178
 20
86.08238993710726
 30
0.0
 11
238.3309004230178
 21
100.5823899371071
 31
0.0
  0
LINE
  5
1655
330
A
100
AcDbEntity
  8
03
100
AcDbLine
 10
267.8309004230178
 20
71.08238993710725
 30
0.0
 11
250.8309004230178
 21
71.08238993710725
 31
0.0
  0
ARC
  5
1656
330
A
100
AcDbEntity
  8
03
100
AcDbCircle
 10
289.3309004230179
 20
100.5823899371072
 30
0.0
 40
0.5
100
AcDbArc
 50
0.0
 51
90.0
  0
LINE
  5
1657
330
A
100
AcDbEntity
  8
03
100
AcDbLine
 10
289.8309004230179
 20
100.5823899371072
 30
0.0
 11
289.8309004230179
 21
86.08238993710735
 31
0.0
  0
LINE
  5
1658
330
A
100
AcDbEntity
  8
03
100
AcDbLine
 10
268.5809004230179
 20
101.0823899371072
 30
0.0
 11
289.3309004230179
 21
101.0823899371072
 31
0.0
  0
LINE
  5
1659
330
A
100
AcDbEntity
  8
06
100
AcDbLine
 10
259.330900423018
 20
142.882389937107
 30
0.0
 11
259.6309004230179
 21
142.582389937107
 31
0.0
  0
LINE
  5
165A
330
A
100
AcDbEntity
  8
03
100
AcDbLine
 10
235.5809004230156
 20
108.082389937107
 30
0.0
 11
237.0809004230153
 21
108.0823899371073
 31
0.0
  0
LINE
  5
165B
330
A
100
AcDbEntity
  8
06
100
AcDbLine
 10
244.5809004230178
 20
108.082389937107
 30
0.0
 11
246.0809004230176
 21
108.082389937107
 31
0.0
  0
LINE
  5
165C
330
A
100
AcDbEntity
  8
06
100
AcDbLine
 10
272.5809004230177
 20
108.0823899371073
 30
0.0
 11
274.0809004230178
 21
108.0823899371073
 31
0.0
  0
LINE
  5
165D
330
A
100
AcDbEntity
  8
03
100
AcDbLine
 10
237.0809004230153
 20
108.0823899371073
 30
0.0
 11
238.3309004230154
 21
108.0823899371073
 31
0.0
  0
LINE
  5
165E
330
A
100
AcDbEntity
  8
06
100
AcDbLine
 10
243.3309004230177
 20
108.082389937107
 30
0.0
 11
244.5809004230178
 21
108.082389937107
 31
0.0
  0
LINE
  5
165F
330
A
100
AcDbEntity
  8
06
100
AcDbLine
 10
274.0809004230178
 20
108.0823899371073
 30
0.0
 11
275.3309004230178
 21
108.0823899371073
 31
0.0
  0
LINE
  5
1660
330
A
100
AcDbEntity
  8
06
100
AcDbLine
 10
259.330900423018
 20
142.882389937107
 30
0.0
 11
259.0309004230181
 21
142.5823899371073
 31
0.0
  0
LINE
  5
1661
330
A
100
AcDbEntity
  8
06
100
AcDbLine
 10
270.0809004230178
 20
109.5823899371072
 30
0.0
 11
270.080900423018
 21
142.582389937107
 31
0.0
  0
LINE
  5
1662
330
A
100
AcDbEntity
  8
06
100
AcDbLine
 10
248.5809004230178
 20
109.5823899371072
 30
0.0
 11
248.5809004230179
 21
142.5823899371069
 31
0.0
  0
LINE
  5
1663
330
A
100
AcDbEntity
  8
06
100
AcDbLine
 10
259.6309004230179
 20
142.5823899371069
 30
0.0
 11
270.080900423018
 21
142.582389937107
 31
0.0
  0
LINE
  5
1664
330
A
100
AcDbEntity
  8
06
100
AcDbLine
 10
248.5809004230179
 20
142.5823899371069
 30
0.0
 11
259.0309004230181
 21
142.582389937107
 31
0.0
  0
LINE
  5
1665
330
A
100
AcDbEntity
  8
06
100
AcDbLine
 10
248.5809004230178
 20
109.5823899371072
 30
0.0
 11
246.0809004230177
 21
109.5823899371072
 31
0.0
  0
LINE
  5
1666
330
A
100
AcDbEntity
  8
06
100
AcDbLine
 10
272.5809004230177
 20
109.5823899371072
 30
0.0
 11
270.0809004230178
 21
109.5823899371072
 31
0.0
  0
DIMENSION
  5
1667
330
A
100
AcDbEntity
  8
SUNPOU
100
AcDbDimension
  2
*D29
 10
250.8309004230178
 20
52.28238993710718
 30
0.0
 11
226.5733349411612
 21
59.84702300507738
 31
0.0
 70
   160
  3
SUNPOU_2
100
AcDbAlignedDimension
 13
238.3309004230178
 23
71.08238993710736
 33
0.0
 14
250.8309004230178
 24
71.08238993710725
 34
0.0
100
AcDbRotatedDimension
  0
LINE
  5
1668
330
A
100
AcDbEntity
  8
KAKURE
100
AcDbLine
 10
186.3309004230178
 20
98.08238993710723
 30
0.0
 11
186.3309004230178
 21
71.08238993710722
 31
0.0
  0
LINE
  5
1669
330
A
100
AcDbEntity
  8
KAKURE
100
AcDbLine
 10
180.3309004230179
 20
98.08238993710723
 30
0.0
 11
180.3309004230177
 21
71.08238993710722
 31
0.0
  0
LINE
  5
166A
330
A
100
AcDbEntity
  8
KAKURE
100
AcDbLine
 10
180.3309004230177
 20
71.08238993710717
 30
0.0
 11
238.3309004230178
 21
71.08238993710734
 31
0.0
  0
LINE
  5
166B
330
A
100
AcDbEntity
  8
03
100
AcDbLine
 10
207.3309004230156
 20
108.082389937107
 30
0.0
 11
237.3309004230154
 21
98.08238993710736
 31
0.0
  0
LINE
  5
166C
330
A
100
AcDbEntity
  8
03
100
AcDbLine
 10
207.3309004230156
 20
98.0823899371072
 30
0.0
 11
237.3309004230154
 21
108.0823899371073
 31
0.0
  0
LINE
  5
166D
330
A
100
AcDbEntity
  8
03
100
AcDbLine
 10
207.3309004230156
 20
98.0823899371072
 30
0.0
 11
207.3309004230156
 21
108.082389937107
 31
0.0
  0
LINE
  5
166E
330
A
100
AcDbEntity
  8
03
100
AcDbLine
 10
237.3309004230154
 20
98.08238993710736
 30
0.0
 11
207.3309004230156
 21
98.0823899371072
 31
0.0
  0
LINE
  5
166F
330
A
100
AcDbEntity
  8
03
100
AcDbLine
 10
207.3309004230156
 20
108.082389937107
 30
0.0
 11
237.3309004230154
 21
108.0823899371073
 31
0.0
  0
LINE
  5
1670
330
A
100
AcDbEntity
  8
03
100
AcDbLine
 10
206.3309004230156
 20
108.0823899371069
 30
0.0
 11
207.5809004230156
 21
108.0823899371069
 31
0.0
  0
DIMENSION
  5
1671
330
A
100
AcDbEntity
  8
SUNPOU
100
AcDbDimension
  2
*D30
 10
340.3309004230178
 20
108.0823899371073
 30
0.0
 11
334.4631531101628
 21
105.2490325600335
 31
0.0
 70
   160
  3
SUNPOU_2
100
AcDbAlignedDimension
 13
289.3309004230179
 23
101.0823899371072
 33
0.0
 14
275.3309004230178
 24
108.0823899371073
 34
0.0
 50
90.0
100
AcDbRotatedDimension
1001
ACAD
1000
DSTYLE
1002
{
1070
     6
1000
DOTSMALL
1070
     5
1000

1070
   173
1070
     1
1070
     7
1000
OPEN30
1002
}
  0
DIMENSION
  5
1672
330
A
100
AcDbEntity
  8
SUNPOU
100
AcDbDimension
  2
*D31
 10
340.3309004230178
 20
101.082389937107
 30
0.0
 11
335.8309004230178
 21
86.08238993710726
 31
0.0
 70
    32
  3
SUNPOU_2
100
AcDbAlignedDimension
 13
300.3309004230178
 23
71.08238993710722
 33
0.0
 14
300.3309004230178
 24
101.082389937107
 34
0.0
 50
90.0
100
AcDbRotatedDimension
  0
DIMENSION
  5
1673
330
A
100
AcDbEntity
  8
SUNPOU
100
AcDbDimension
  2
*D32
 10
360.3309004230176
 20
98.08238993710736
 30
0.0
 11
355.7013268818615
 21
93.56015275833248
 31
0.0
 70
   160
  3
SUNPOU_2
100
AcDbAlignedDimension
 13
360.3309004230176
 23
101.0823899371072
 33
0.0
 14
289.3309004230179
 24
98.08238993710736
 34
0.0
 50
90.0
100
AcDbRotatedDimension
1001
ACAD
1000
DSTYLE
1002
{
1070
     7
1000
OPEN30
1070
     5
1000

1070
   173
1070
     1
1070
     6
1000
OPEN30
1002
}
  0
LINE
  5
1674
330
A
100
AcDbEntity
  8
03
100
AcDbLine
 10
289.8309004230179
 20
98.08238993710736
 30
0.0
 11
385.454481546573
 21
98.08238993710736
 31
0.0
  0
TEXT
  5
1675
330
A
100
AcDbEntity
  8
MOJI
100
AcDbText
 10
367.3182548402816
 20
100.2114476571844
 30
0.0
 40
5.0
  1
Ｆ.Ｌ
 41
0.8
  7
0_8
 11
367.3182548402816
 21
102.7114476571844
 31
0.0
100
AcDbText
 73
     2
  0
LINE
  5
1676
330
A
100
AcDbEntity
  8
03
100
AcDbLine
 10
130.5401410122112
 20
98.08238993710714
 30
0.0
 11
238.3309004230175
 21
98.0823899371073
 31
0.0
  0
LINE
  5
1677
330
A
100
AcDbEntity
  8
KAKURE
100
AcDbLine
 10
300.3425299924377
 20
98.0998973995408
 30
0.0
 11
300.3309004230178
 21
71.08238993710722
 31
0.0
  0
LINE
  5
1678
330
A
100
AcDbEntity
  8
KAKURE
100
AcDbLine
 10
288.3309004230179
 20
71.08238993710734
 30
0.0
 11
300.3309004230178
 21
71.08238993710722
 31
0.0
  0
LINE
  5
1CA8
330
A
100
AcDbEntity
  8
06
100
AcDbLine
 10
267.3309004230178
 20
264.5823899371068
 30
0.0
 11
251.3309004230178
 21
264.5823899371068
 31
0.0
  0
LINE
  5
1CA9
330
A
100
AcDbEntity
  8
06
100
AcDbLine
 10
251.3309004230178
 20
264.5823899371068
 30
0.0
 11
251.3309004230178
 21
236.0823899371068
 31
0.0
  0
LINE
  5
1CAA
330
A
100
AcDbEntity
  8
06
100
AcDbLine
 10
267.3309004230178
 20
236.0823899371069
 30
0.0
 11
267.3309004230178
 21
264.5823899371068
 31
0.0
  0
LINE
  5
1CAB
330
A
100
AcDbEntity
  8
06
100
AcDbLine
 10
267.330900423018
 20
174.5823899371073
 30
0.0
 11
267.3309004230178
 21
203.082389937107
 31
0.0
  0
LINE
  5
1CAC
330
A
100
AcDbEntity
  8
06
100
AcDbLine
 10
251.3309004230178
 20
203.082389937107
 30
0.0
 11
251.3309004230181
 21
174.5823899371073
 31
0.0
  0
LINE
  5
1CAD
330
A
100
AcDbEntity
  8
06
100
AcDbLine
 10
251.3309004230181
 20
174.5823899371073
 30
0.0
 11
267.330900423018
 21
174.5823899371073
 31
0.0
  0
LINE
  5
1CB0
330
A
100
AcDbEntity
  8
03
100
AcDbLine
 10
214.3309004230155
 20
237.5823899371068
 30
0.0
 11
214.3309004230149
 21
236.0823899371068
 31
0.0
  0
LINE
  5
1CB1
330
A
100
AcDbEntity
  8
03
100
AcDbLine
 10
230.3309004230155
 20
237.5823899371068
 30
0.0
 11
230.3309004230155
 21
236.082389937107
 31
0.0
  0
LINE
  5
1CB2
330
A
100
AcDbEntity
  8
03
100
AcDbLine
 10
214.3309004230153
 20
201.582389937107
 30
0.0
 11
214.3309004230151
 21
203.082389937107
 31
0.0
  0
LINE
  5
1CB3
330
A
100
AcDbEntity
  8
03
100
AcDbLine
 10
230.3309004230154
 20
201.582389937107
 30
0.0
 11
230.3309004230154
 21
203.082389937107
 31
0.0
  0
LINE
  5
1CB4
330
A
100
AcDbEntity
  8
06
100
AcDbLine
 10
251.3309004230178
 20
237.5823899371068
 30
0.0
 11
251.3309004230178
 21
236.0823899371068
 31
0.0
  0
LINE
  5
1CB6
330
A
100
AcDbEntity
  8
06
100
AcDbLine
 10
267.3309004230178
 20
237.5823899371068
 30
0.0
 11
267.3309004230178
 21
236.0823899371069
 31
0.0
  0
LINE
  5
1CB7
330
A
100
AcDbEntity
  8
06
100
AcDbLine
 10
251.3309004230178
 20
203.082389937107
 30
0.0
 11
251.3309004230179
 21
201.582389937107
 31
0.0
  0
LINE
  5
1CB8
330
A
100
AcDbEntity
  8
06
100
AcDbLine
 10
267.3309004230179
 20
203.082389937107
 30
0.0
 11
267.3309004230178
 21
201.582389937107
 31
0.0
  0
LINE
  5
1CC3
330
A
100
AcDbEntity
  8
03
100
AcDbLine
 10
230.3309004230156
 20
264.582389937107
 30
0.0
 11
214.3309004230156
 21
264.582389937107
 31
0.0
  0
LINE
  5
1CC4
330
A
100
AcDbEntity
  8
03
100
AcDbLine
 10
230.3309004230155
 20
236.0823899371069
 30
0.0
 11
230.3309004230156
 21
264.582389937107
 31
0.0
  0
LINE
  5
1CC5
330
A
100
AcDbEntity
  8
03
100
AcDbLine
 10
214.3309004230156
 20
264.582389937107
 30
0.0
 11
214.3309004230163
 21
236.0823899371069
 31
0.0
  0
LINE
  5
1CC6
330
A
100
AcDbEntity
  8
03
100
AcDbLine
 10
230.3309004230156
 20
174.5823899371073
 30
0.0
 11
230.3309004230154
 21
203.082389937107
 31
0.0
  0
LINE
  5
1CC7
330
A
100
AcDbEntity
  8
03
100
AcDbLine
 10
214.3309004230153
 20
203.082389937107
 30
0.0
 11
214.3309004230156
 21
174.5823899371073
 31
0.0
  0
LINE
  5
1CC8
330
A
100
AcDbEntity
  8
03
100
AcDbLine
 10
214.3309004230156
 20
174.5823899371073
 30
0.0
 11
230.3309004230156
 21
174.5823899371073
 31
0.0
  0
LINE
  5
1DA1
330
A
100
AcDbEntity
  8
02
100
AcDbLine
 10
234.3309004230176
 20
352.1823153015261
 30
0.0
 11
234.3309004230178
 21
355.082351806726
 31
0.0
  0
LINE
  5
1DA2
330
A
100
AcDbEntity
  8
02
100
AcDbLine
 10
208.3292139227966
 20
352.1823153015261
 30
0.0
 11
234.3309004230176
 21
352.1823153015261
 31
0.0
  0
LINE
  5
1DA3
330
A
100
AcDbEntity
  8
02
100
AcDbLine
 10
208.3292139227966
 20
355.082315480968
 30
0.0
 11
208.3292139227966
 21
352.1823153015261
 31
0.0
  0
LINE
  5
1DA4
330
A
100
AcDbEntity
  8
06
100
AcDbLine
 10
236.7964779434343
 20
420.8826635239705
 30
0.0
 11
209.7964779434343
 21
420.8826635239705
 31
0.0
  0
LINE
  5
1DA5
330
A
100
AcDbEntity
  8
06
100
AcDbLine
 10
236.7964779434343
 20
423.8826635239703
 30
0.0
 11
236.7964779434343
 21
420.8826635239705
 31
0.0
  0
LINE
  5
1DA6
330
A
100
AcDbEntity
  8
06
100
AcDbLine
 10
239.7964779434342
 20
423.8826635239703
 30
0.0
 11
236.7964779434343
 21
423.8826635239703
 31
0.0
  0
LINE
  5
1DA7
330
A
100
AcDbEntity
  8
06
100
AcDbLine
 10
239.7964779434342
 20
427.0826635239703
 30
0.0
 11
239.7964779434342
 21
423.8826635239703
 31
0.0
  0
LINE
  5
1DA8
330
A
100
AcDbEntity
  8
06
100
AcDbLine
 10
236.7964779434343
 20
427.0826635239703
 30
0.0
 11
239.7964779434342
 21
427.0826635239703
 31
0.0
  0
LINE
  5
1DA9
330
A
100
AcDbEntity
  8
06
100
AcDbLine
 10
236.7964779434343
 20
430.0826635239705
 30
0.0
 11
236.7964779434343
 21
427.0826635239703
 31
0.0
  0
LINE
  5
1DAA
330
A
100
AcDbEntity
  8
06
100
AcDbLine
 10
287.1310155054811
 20
430.0826635239705
 30
0.0
 11
236.7964779434343
 21
430.0826635239705
 31
0.0
  0
ARC
  5
1DAB
330
A
100
AcDbEntity
  8
06
100
AcDbCircle
 10
287.1310155054811
 20
432.0826635239703
 30
0.0
 40
2.0
100
AcDbArc
 50
269.9999999999982
 51
0.0
  0
LINE
  5
1DAC
330
A
100
AcDbEntity
  8
06
100
AcDbLine
 10
289.131015505481
 20
489.0826635239703
 30
0.0
 11
289.131015505481
 21
432.0826635239703
 31
0.0
  0
ARC
  5
1DAD
330
A
100
AcDbEntity
  8
06
100
AcDbCircle
 10
287.1310155054811
 20
489.0826635239703
 30
0.0
 40
2.000000000000055
100
AcDbArc
 50
0.0000000000032569
 51
90.0
  0
LINE
  5
1DAE
330
A
100
AcDbEntity
  8
06
100
AcDbLine
 10
216.4256927540197
 20
491.0826635239705
 30
0.0
 11
287.1310155054811
 21
491.0826635239705
 31
0.0
  0
LINE
  5
1DAF
330
A
100
AcDbEntity
  8
06
100
AcDbLine
 10
216.4256927540197
 20
486.0826635239702
 30
0.0
 11
216.4256927540197
 21
491.0826635239705
 31
0.0
  0
LINE
  5
1DB0
330
A
100
AcDbEntity
  8
06
100
AcDbLine
 10
211.5310155054809
 20
486.0826635239702
 30
0.0
 11
216.4256927540197
 21
486.0826635239702
 31
0.0
  0
LINE
  5
1DB1
330
A
100
AcDbEntity
  8
06
100
AcDbLine
 10
211.5310155054809
 20
483.0826635239709
 30
0.0
 11
211.5310155054809
 21
486.0826635239702
 31
0.0
  0
LINE
  5
1DB2
330
A
100
AcDbEntity
  8
06
100
AcDbLine
 10
207.531015505481
 20
483.0826635239709
 30
0.0
 11
211.5310155054809
 21
483.0826635239709
 31
0.0
  0
LINE
  5
1DB3
330
A
100
AcDbEntity
  8
02
100
AcDbLine
 10
207.531015505481
 20
486.0823365032198
 30
0.0
 11
207.531015505481
 21
483.0826635239709
 31
0.0
  0
ARC
  5
1DB4
330
A
100
AcDbEntity
  8
02
100
AcDbCircle
 10
206.3312993618925
 20
363.0823159402383
 30
0.0
 40
2.0
100
AcDbArc
 50
180.0
 51
270.0
  0
LINE
  5
1DB5
330
A
100
AcDbEntity
  8
02
100
AcDbLine
 10
238.0301438414651
 20
361.0823159402383
 30
0.0
 11
206.3312993618925
 21
361.0823159402383
 31
0.0
  0
ARC
  5
1DB6
330
A
100
AcDbEntity
  8
02
100
AcDbCircle
 10
238.0301438414651
 20
362.0823159402383
 30
0.0
 40
0.9999999999999907
100
AcDbArc
 50
270.0
 51
70.82124745729022
  0
LINE
  5
1DB7
330
A
100
AcDbEntity
  8
02
100
AcDbLine
 10
224.1435815763178
 20
367.9711183405803
 30
0.0
 11
238.3586602548716
 21
363.0268142018156
 31
0.0
  0
ARC
  5
1DB8
330
A
100
AcDbEntity
  8
02
100
AcDbCircle
 10
223.4865487495043
 20
366.0821218174261
 30
0.0
 40
1.999999999999771
100
AcDbArc
 50
70.82124745728869
 51
89.99999999999836
  0
LINE
  5
1DB9
330
A
100
AcDbEntity
  8
02
100
AcDbLine
 10
206.3312993618925
 20
368.0821218174258
 30
0.0
 11
223.4865487495043
 21
368.0821218174258
 31
0.0
  0
ARC
  5
1DBA
330
A
100
AcDbEntity
  8
02
100
AcDbCircle
 10
206.3312993618925
 20
366.0821218174258
 30
0.0
 40
2.000000000000014
100
AcDbArc
 50
90.0
 51
180.0
  0
LINE
  5
1DBB
330
A
100
AcDbEntity
  8
02
100
AcDbLine
 10
204.3312993618925
 20
363.0823159402383
 30
0.0
 11
204.3312993618925
 21
366.0821218174258
 31
0.0
  0
LINE
  5
1DBC
330
A
100
AcDbEntity
  8
02
100
AcDbLine
 10
234.3292135128932
 20
357.5823316541086
 30
0.0
 11
234.3292135128934
 21
355.0823597619403
 31
0.0
  0
LINE
  5
1DBD
330
A
100
AcDbEntity
  8
02
100
AcDbLine
 10
263.5873487600263
 20
357.5821599643938
 30
0.0
 11
234.3292135128932
 21
357.5823316541086
 31
0.0
  0
ARC
  5
1DBE
330
A
100
AcDbEntity
  8
02
100
AcDbCircle
 10
263.587354628128
 20
358.5821599643766
 30
0.0
 40
1.000000000000011
100
AcDbArc
 50
269.9996637825365
 51
354.999999999997
  0
LINE
  5
1DBF
330
A
100
AcDbEntity
  8
02
100
AcDbLine
 10
264.7186095904251
 20
360.0387501055191
 30
0.0
 11
264.5835493262199
 21
358.495004221629
 31
0.0
  0
ARC
  5
1DC0
330
A
100
AcDbEntity
  8
02
100
AcDbCircle
 10
264.2205122413792
 20
360.0823279768931
 30
0.0
 40
0.5000000000000285
100
AcDbArc
 50
355.0000000000001
 51
90.0
  0
LINE
  5
1DC1
330
A
100
AcDbEntity
  8
02
100
AcDbLine
 10
260.3310229337345
 20
360.5823279768931
 30
0.0
 11
264.2205122413792
 21
360.5823279768931
 31
0.0
  0
LINE
  5
1DC2
330
A
100
AcDbEntity
  8
02
100
AcDbLine
 10
260.3310229337345
 20
364.0823279768931
 30
0.0
 11
260.3310229337345
 21
360.5823279768931
 31
0.0
  0
LINE
  5
1DC3
330
A
100
AcDbEntity
  8
02
100
AcDbLine
 10
264.6142112272459
 20
364.0823279768931
 30
0.0
 11
260.3310229337345
 21
364.0823279768931
 31
0.0
  0
ARC
  5
1DC4
330
A
100
AcDbEntity
  8
02
100
AcDbCircle
 10
264.6142112272459
 20
364.5823279768931
 30
0.0
 40
0.4999999999999769
100
AcDbArc
 50
270.0
 51
355.0000000000001
  0
LINE
  5
1DC5
330
A
100
AcDbEntity
  8
02
100
AcDbLine
 10
265.3272176653806
 20
366.9951722341453
 30
0.0
 11
265.1123085762916
 21
364.5387501055191
 31
0.0
  0
ARC
  5
1DC6
330
A
100
AcDbEntity
  8
02
100
AcDbCircle
 10
264.331022967289
 20
367.0823279768931
 30
0.0
 40
1.0
100
AcDbArc
 50
355.0000000000001
 51
90.00000000000161
  0
LINE
  5
1DC7
330
A
100
AcDbEntity
  8
02
100
AcDbLine
 10
254.3310229337344
 20
368.0823279768931
 30
0.0
 11
264.331022967289
 21
368.0823279768931
 31
0.0
  0
ARC
  5
1DC8
330
A
100
AcDbEntity
  8
02
100
AcDbCircle
 10
254.3310229337345
 20
367.0823279768931
 30
0.0
 40
1.000000000000011
100
AcDbArc
 50
90.00000000000161
 51
185.0000000000028
  0
LINE
  5
1DC9
330
A
100
AcDbEntity
  8
02
100
AcDbLine
 10
253.5820428753385
 20
364.1694959724138
 30
0.0
 11
253.3348282356427
 21
366.9951722341453
 31
0.0
  0
ARC
  5
1DCA
330
A
100
AcDbEntity
  8
02
100
AcDbCircle
 10
252.5858481772468
 20
364.0823402296662
 30
0.0
 40
1.0
100
AcDbArc
 50
270.0
 51
5.000000000002986
  0
LINE
  5
1DCB
330
A
100
AcDbEntity
  8
02
100
AcDbLine
 10
247.3309844460954
 20
363.0823402296662
 30
0.0
 11
252.5858481772468
 21
363.0823402296662
 31
0.0
  0
LINE
  5
1DCC
330
A
100
AcDbEntity
  8
02
100
AcDbLine
 10
225.6742490343068
 20
370.6150095134588
 30
0.0
 11
247.3309844460954
 21
363.0823402296662
 31
0.0
  0
ARC
  5
1DCD
330
A
100
AcDbEntity
  8
02
100
AcDbCircle
 10
226.3312818611201
 20
372.5040060366133
 30
0.0
 40
1.999999999999971
100
AcDbArc
 50
180.0
 51
250.8212474572901
  0
LINE
  5
1DCE
330
A
100
AcDbEntity
  8
02
100
AcDbLine
 10
224.3312818611201
 20
385.0825041287908
 30
0.0
 11
224.3312818611201
 21
372.5040060366133
 31
0.0
  0
ARC
  5
1DCF
330
A
100
AcDbEntity
  8
02
100
AcDbCircle
 10
223.0815820762861
 20
384.8328043439565
 30
0.0
 40
1.274401637930735
100
AcDbArc
 50
11.29934427103062
 51
78.70065572900131
  0
ARC
  5
1DD0
330
A
100
AcDbEntity
  8
02
100
AcDbCircle
 10
223.0812818611204
 20
384.8313018243283
 30
0.0
 40
1.275933856707144
100
AcDbArc
 50
78.70065572900131
 51
168.4257693662815
  0
LINE
  5
1DD1
330
A
100
AcDbEntity
  8
02
100
AcDbLine
 10
221.8312818611201
 20
372.0821218174258
 30
0.0
 11
221.8312933699267
 21
385.0873017824826
 31
0.0
  0
ARC
  5
1DD2
330
A
100
AcDbEntity
  8
02
100
AcDbCircle
 10
220.8312818611201
 20
372.0821218174258
 30
0.0
 40
0.9999999999999715
100
AcDbArc
 50
270.0
 51
0.0000000000032569
  0
LINE
  5
1DD3
330
A
100
AcDbEntity
  8
02
100
AcDbLine
 10
205.3312993618925
 20
371.0821218174258
 30
0.0
 11
220.8312818611201
 21
371.0821218174258
 31
0.0
  0
ARC
  5
1DD4
330
A
100
AcDbEntity
  8
02
100
AcDbCircle
 10
205.3313018174563
 20
372.0821242729895
 30
0.0
 40
1.000002455566673
100
AcDbArc
 50
180.0001406930863
 51
269.9998593069086
  0
LINE
  5
1DD5
330
A
100
AcDbEntity
  8
02
100
AcDbLine
 10
204.3312158723295
 20
406.0823677250041
 30
0.0
 11
204.3312993618925
 21
372.0821218174258
 31
0.0
  0
LINE
  5
1DD6
330
A
100
AcDbEntity
  8
02
100
AcDbLine
 10
209.8308900543786
 20
406.082384248407
 30
0.0
 11
204.3312158723295
 21
406.0823677250041
 31
0.0
  0
LINE
  5
1DD7
330
A
100
AcDbEntity
  8
02
100
AcDbLine
 10
209.830871190089
 20
409.4822058941391
 30
0.0
 11
209.8308900543786
 21
406.082384248407
 31
0.0
  0
LINE
  5
1DD8
330
A
100
AcDbEntity
  8
02
100
AcDbLine
 10
207.5308036726435
 20
409.4823608064745
 30
0.0
 11
209.830871190089
 21
409.4822058941391
 31
0.0
  0
LINE
  5
1DD9
330
A
100
AcDbEntity
  8
02
100
AcDbLine
 10
207.5308724817455
 20
407.9822866721311
 30
0.0
 11
207.5308036726435
 21
409.4823608064745
 31
0.0
  0
LINE
  5
1DDA
330
A
100
AcDbEntity
  8
02
100
AcDbLine
 10
203.3308703043825
 20
407.9824053797063
 30
0.0
 11
207.5308724817455
 21
407.9822866721311
 31
0.0
  0
LINE
  5
1DDB
330
A
100
AcDbEntity
  8
02
100
AcDbLine
 10
203.3308556532307
 20
416.1823185343701
 30
0.0
 11
203.3308703043825
 21
407.9824053797063
 31
0.0
  0
LINE
  5
1DDC
330
A
100
AcDbEntity
  8
02
100
AcDbLine
 10
207.5308713708259
 20
416.1823260387262
 30
0.0
 11
203.3308556532307
 21
416.1823185343701
 31
0.0
  0
LINE
  5
1DDD
330
A
100
AcDbEntity
  8
02
100
AcDbLine
 10
207.530800098329
 20
414.6823352021458
 30
0.0
 11
207.5308713708259
 21
416.1823260387262
 31
0.0
  0
LINE
  5
1DDE
330
A
100
AcDbEntity
  8
02
100
AcDbLine
 10
209.8310382596255
 20
414.6823556005701
 30
0.0
 11
207.530800098329
 21
414.6823352021458
 31
0.0
  0
LINE
  5
1DDF
330
A
100
AcDbEntity
  8
02
100
AcDbLine
 10
209.8309992391118
 20
419.0825227063498
 30
0.0
 11
209.8310382596255
 21
414.6823556005701
 31
0.0
  0
LINE
  5
1DE0
330
A
100
AcDbEntity
  8
02
100
AcDbLine
 10
208.8310531232993
 20
421.0823294583811
 30
0.0
 11
209.8309992391118
 21
419.0825227063498
 31
0.0
  0
LINE
  5
1DE1
330
A
100
AcDbEntity
  8
02
100
AcDbLine
 10
207.5310155057468
 20
421.0823294585193
 30
0.0
 11
208.8310531232993
 21
421.0823294583811
 31
0.0
  0
LINE
  5
1DE2
330
A
100
AcDbEntity
  8
02
100
AcDbLine
 10
207.531015505481
 20
418.5826635239703
 30
0.0
 11
207.5310155057468
 21
421.0823294585193
 31
0.0
  0
LINE
  5
1DE3
330
A
100
AcDbEntity
  8
02
100
AcDbLine
 10
203.330974319682
 20
418.5823174587519
 30
0.0
 11
207.531015505481
 21
418.5826635239703
 31
0.0
  0
LINE
  5
1DE4
330
A
100
AcDbEntity
  8
02
100
AcDbLine
 10
203.3309069207787
 20
488.5826573629087
 30
0.0
 11
203.330974319682
 21
418.5823174587519
 31
0.0
  0
LINE
  5
1DE5
330
A
100
AcDbEntity
  8
02
100
AcDbLine
 10
207.5311148861038
 20
488.5826573629087
 30
0.0
 11
203.3309069207787
 21
488.5826573629087
 31
0.0
  0
LINE
  5
1DE6
330
A
100
AcDbEntity
  8
02
100
AcDbLine
 10
207.5310155459922
 20
486.082336503224
 30
0.0
 11
207.5311148861038
 21
488.5826573629087
 31
0.0
  0
LINE
  5
1DE7
330
A
100
AcDbEntity
  8
02
100
AcDbLine
 10
208.8310366314872
 20
486.0824727611412
 30
0.0
 11
207.5310155459922
 21
486.082336503224
 31
0.0
  0
LINE
  5
1DE8
330
A
100
AcDbEntity
  8
02
100
AcDbLine
 10
209.8309066151568
 20
488.0823246938629
 30
0.0
 11
208.8310366314872
 21
486.0824727611412
 31
0.0
  0
LINE
  5
1DE9
330
A
100
AcDbEntity
  8
02
100
AcDbLine
 10
209.8309066151565
 20
490.0822767983513
 30
0.0
 11
209.8309066151568
 21
488.0823246938629
 31
0.0
  0
ARC
  5
1DEA
330
A
100
AcDbEntity
  8
02
100
AcDbCircle
 10
208.8309066151563
 20
490.0822767983513
 30
0.0
 40
1.000000000000022
100
AcDbArc
 50
0.0
 51
90.00081789555153
  0
LINE
  5
1DEB
330
A
100
AcDbEntity
  8
02
100
AcDbLine
 10
201.330871873077
 20
491.0821697356797
 30
0.0
 11
208.830892340186
 21
491.0822767982494
 31
0.0
  0
ARC
  5
1DEC
330
A
100
AcDbEntity
  8
02
100
AcDbCircle
 10
201.3309004230178
 20
489.0821697358835
 30
0.0
 40
2.000000000000027
100
AcDbArc
 50
90.00081789555318
 51
180.0
  0
LINE
  5
1DED
330
A
100
AcDbEntity
  8
02
100
AcDbLine
 10
199.3309004230176
 20
356.0823347340899
 30
0.0
 11
199.3309004230176
 21
489.0821697358835
 31
0.0
  0
ARC
  5
1DEE
330
A
100
AcDbEntity
  8
02
100
AcDbCircle
 10
200.3309004230176
 20
356.0823347340899
 30
0.0
 40
1.000000000000025
100
AcDbArc
 50
180.0
 51
269.9998997007552
  0
LINE
  5
1DEF
330
A
100
AcDbEntity
  8
02
100
AcDbLine
 10
211.3292139227966
 20
355.082315480968
 30
0.0
 11
200.3308986724657
 21
355.0823347340913
 31
0.0
  0
LINE
  5
1DF0
330
A
100
AcDbEntity
  8
02
100
AcDbLine
 10
210.8292139227966
 20
357.5823159402383
 30
0.0
 11
211.3292139227966
 21
355.082315480968
 31
0.0
  0
LINE
  5
1DF1
330
A
100
AcDbEntity
  8
02
100
AcDbLine
 10
231.8292135128934
 20
357.5823159402383
 30
0.0
 11
210.8292139227966
 21
357.5823159402383
 31
0.0
  0
LINE
  5
1DF2
330
A
100
AcDbEntity
  8
02
100
AcDbLine
 10
231.3292135128933
 20
355.082351806726
 30
0.0
 11
231.8292135128934
 21
357.5823159402383
 31
0.0
  0
LINE
  5
1DF3
330
A
100
AcDbEntity
  8
02
100
AcDbLine
 10
234.3292135128934
 20
355.0823597619403
 30
0.0
 11
231.3292135128933
 21
355.082351806726
 31
0.0
  0
LINE
  5
1DF4
330
A
100
AcDbEntity
  8
02
100
AcDbLine
 10
205.3313340480483
 20
376.0829170972083
 30
0.0
 11
204.3313060037106
 21
376.0829170972083
 31
0.0
  0
LINE
  5
1DF5
330
A
100
AcDbEntity
  8
02
100
AcDbLine
 10
205.3313340480483
 20
384.5827595154216
 30
0.0
 11
205.3313340480483
 21
376.0829170972083
 31
0.0
  0
ARC
  5
1DF6
330
A
100
AcDbEntity
  8
02
100
AcDbCircle
 10
205.8313188286968
 20
384.5827747343101
 30
0.0
 40
0.4999847808800554
100
AcDbArc
 50
90.0
 51
180.0017440092253
  0
LINE
  5
1DF7
330
A
100
AcDbEntity
  8
02
100
AcDbLine
 10
220.3312307265094
 20
385.0827595151901
 30
0.0
 11
205.8313188286968
 21
385.0827595151901
 31
0.0
  0
ARC
  5
1DF8
330
A
100
AcDbEntity
  8
02
100
AcDbCircle
 10
220.3312155071578
 20
384.5827595154216
 30
0.0
 40
0.4999999999999858
100
AcDbArc
 50
0.0
 51
89.99825599077787
  0
LINE
  5
1DF9
330
A
100
AcDbEntity
  8
02
100
AcDbLine
 10
220.8312155071576
 20
376.0829170972083
 30
0.0
 11
220.8312155071578
 21
384.5827595154216
 31
0.0
  0
LINE
  5
1DFA
330
A
100
AcDbEntity
  8
02
100
AcDbLine
 10
221.8313029827056
 20
376.0829170972083
 30
0.0
 11
220.8312155071576
 21
376.0829170972083
 31
0.0
  0
LINE
  5
1DFB
330
A
100
AcDbEntity
  8
02
100
AcDbLine
 10
221.8312818611201
 20
385.0825041287902
 30
0.0
 11
221.8313029827056
 21
376.0829170972083
 31
0.0
  0
ARC
  5
1DFC
330
A
100
AcDbEntity
  8
02
100
AcDbCircle
 10
220.8313170670467
 20
385.0829522027461
 30
0.0
 40
0.9999648944620956
100
AcDbArc
 50
359.9743263512691
 51
89.99999999980133
  0
LINE
  5
1DFD
330
A
100
AcDbEntity
  8
02
100
AcDbLine
 10
205.3312370313603
 20
386.0829170972621
 30
0.0
 11
220.8313170670501
 21
386.0829170972083
 31
0.0
  0
ARC
  5
1DFE
330
A
100
AcDbEntity
  8
02
100
AcDbCircle
 10
205.3232623232939
 20
385.090965769038
 30
0.0
 40
0.9919833836986391
100
AcDbArc
 50
89.53938539262535
 51
180.0001721415935
  0
LINE
  5
1DFF
330
A
100
AcDbEntity
  8
02
100
AcDbLine
 10
204.3313060037106
 20
376.0829170972083
 30
0.0
 11
204.3312789395998
 21
385.0909627886858
 31
0.0
  0
LINE
  5
1E00
330
A
100
AcDbEntity
  8
06
100
AcDbLine
 10
269.5310155054809
 20
485.3626635233263
 30
0.0
 11
272.531015505419
 21
485.3626635233396
 31
0.0
  0
LINE
  5
1E01
330
A
100
AcDbEntity
  8
06
100
AcDbLine
 10
268.8021937020684
 20
488.0826635233261
 30
0.0
 11
269.5310155054809
 21
485.3626635233263
 31
0.0
  0
LINE
  5
1E02
330
A
100
AcDbEntity
  8
06
100
AcDbLine
 10
267.5598622855761
 20
488.0826635233261
 30
0.0
 11
268.8021937020684
 21
488.0826635233261
 31
0.0
  0
LINE
  5
1E03
330
A
100
AcDbEntity
  8
06
100
AcDbLine
 10
267.5598622855761
 20
433.0826635241448
 30
0.0
 11
267.5598622855761
 21
488.0826635233261
 31
0.0
  0
LINE
  5
1E04
330
A
100
AcDbEntity
  8
06
100
AcDbLine
 10
268.8021937020684
 20
433.0826635241448
 30
0.0
 11
267.5598622855761
 21
433.0826635241448
 31
0.0
  0
LINE
  5
1E05
330
A
100
AcDbEntity
  8
06
100
AcDbLine
 10
269.5310155054809
 20
435.8026635241449
 30
0.0
 11
268.8021937020684
 21
433.0826635241448
 31
0.0
  0
LINE
  5
1E06
330
A
100
AcDbEntity
  8
06
100
AcDbLine
 10
272.5310155054809
 20
435.8026635241449
 30
0.0
 11
269.5310155054809
 21
435.8026635241449
 31
0.0
  0
LINE
  5
1E07
330
A
100
AcDbEntity
  8
06
100
AcDbLine
 10
285.5310155054809
 20
435.8026635241449
 30
0.0
 11
282.5310155054809
 21
435.8026635241449
 31
0.0
  0
LINE
  5
1E08
330
A
100
AcDbEntity
  8
06
100
AcDbLine
 10
286.2598373088936
 20
433.0826635241448
 30
0.0
 11
285.5310155054809
 21
435.8026635241449
 31
0.0
  0
LINE
  5
1E09
330
A
100
AcDbEntity
  8
06
100
AcDbLine
 10
287.5021687253858
 20
433.0826635241448
 30
0.0
 11
286.2598373088936
 21
433.0826635241448
 31
0.0
  0
LINE
  5
1E0A
330
A
100
AcDbEntity
  8
06
100
AcDbLine
 10
287.5021687253858
 20
488.0826635233261
 30
0.0
 11
287.5021687253858
 21
433.0826635241448
 31
0.0
  0
LINE
  5
1E0B
330
A
100
AcDbEntity
  8
06
100
AcDbLine
 10
286.2598373088936
 20
488.0826635233261
 30
0.0
 11
287.5021687253858
 21
488.0826635233261
 31
0.0
  0
LINE
  5
1E0C
330
A
100
AcDbEntity
  8
06
100
AcDbLine
 10
285.5310155054809
 20
485.3626635233263
 30
0.0
 11
286.2598373088936
 21
488.0826635233261
 31
0.0
  0
LINE
  5
1E0D
330
A
100
AcDbEntity
  8
06
100
AcDbLine
 10
282.531015505419
 20
485.3626635237525
 30
0.0
 11
285.5310155054809
 21
485.3626635233263
 31
0.0
  0
LINE
  5
1E0E
330
A
100
AcDbEntity
  8
06
100
AcDbLine
 10
282.5310155054809
 20
435.8026635241449
 30
0.0
 11
272.5310155054809
 21
435.8026635241449
 31
0.0
  0
LINE
  5
1E0F
330
A
100
AcDbEntity
  8
06
100
AcDbLine
 10
282.5310155054809
 20
433.5824790406794
 30
0.0
 11
282.5310155054809
 21
435.8026635241449
 31
0.0
  0
LINE
  5
1E10
330
A
100
AcDbEntity
  8
06
100
AcDbLine
 10
272.5310155054809
 20
433.5824790406794
 30
0.0
 11
282.5310155054809
 21
433.5824790406794
 31
0.0
  0
LINE
  5
1E11
330
A
100
AcDbEntity
  8
06
100
AcDbLine
 10
272.5310155054809
 20
435.8026635241449
 30
0.0
 11
272.5310155054809
 21
433.5824790406794
 31
0.0
  0
LINE
  5
1E12
330
A
100
AcDbEntity
  8
06
100
AcDbLine
 10
282.5310155059469
 20
485.3626635237525
 30
0.0
 11
272.531015505947
 21
485.3626635235634
 31
0.0
  0
LINE
  5
1E13
330
A
100
AcDbEntity
  8
06
100
AcDbLine
 10
282.531015505377
 20
487.582848007007
 30
0.0
 11
282.5310155059469
 21
485.3626635237525
 31
0.0
  0
LINE
  5
1E14
330
A
100
AcDbEntity
  8
06
100
AcDbLine
 10
272.531015505377
 20
487.5828480068178
 30
0.0
 11
282.531015505377
 21
487.582848007007
 31
0.0
  0
LINE
  5
1E15
330
A
100
AcDbEntity
  8
06
100
AcDbLine
 10
272.531015505947
 20
485.3626635235634
 30
0.0
 11
272.531015505377
 21
487.5828480068178
 31
0.0
  0
LINE
  5
1E16
330
A
100
AcDbEntity
  8
04
100
AcDbLine
 10
285.8313565524584
 20
397.7821784459353
 30
0.0
 11
285.8313569436318
 21
397.5877271483706
 31
0.0
  0
LINE
  5
1E17
330
A
100
AcDbEntity
  8
04
100
AcDbLine
 10
281.3313432394823
 20
408.0823569459179
 30
0.0
 11
281.3313562175967
 21
404.0821561518292
 31
0.0
  0
LINE
  5
1E18
330
A
100
AcDbEntity
  8
04
100
AcDbLine
 10
281.3313562175967
 20
404.0821561518292
 30
0.0
 11
283.8313397021518
 21
404.0821561518292
 31
0.0
  0
LINE
  5
1E19
330
A
100
AcDbEntity
  8
04
100
AcDbLine
 10
283.8313397021518
 20
404.0821561518292
 30
0.0
 11
283.8313084214343
 21
397.7821744224815
 31
0.0
  0
LINE
  5
1E1A
330
A
100
AcDbEntity
  8
04
100
AcDbLine
 10
283.8313084214343
 20
397.7821744224815
 30
0.0
 11
285.8313565524584
 21
397.7821784459353
 31
0.0
  0
LINE
  5
1E1B
330
A
100
AcDbEntity
  8
04
100
AcDbLine
 10
285.8313569436318
 20
397.5877271483706
 30
0.0
 11
290.6352357316619
 21
397.5876838616409
 31
0.0
  0
LINE
  5
1E1C
330
A
100
AcDbEntity
  8
04
100
AcDbLine
 10
291.3313586834723
 20
383.782167676728
 30
0.0
 11
290.6400196358938
 21
382.5847451013476
 31
0.0
  0
LINE
  5
1E1D
330
A
100
AcDbEntity
  8
04
100
AcDbLine
 10
291.3313562428708
 20
396.3821535042723
 30
0.0
 11
291.3313586834723
 21
383.782167676728
 31
0.0
  0
LINE
  5
1E1E
330
A
100
AcDbEntity
  8
04
100
AcDbLine
 10
285.831387141197
 20
382.5765984895114
 30
0.0
 11
285.8313890442642
 21
382.3821700591858
 31
0.0
  0
LINE
  5
1E1F
330
A
100
AcDbEntity
  8
04
100
AcDbLine
 10
283.8313669319561
 20
382.3821504829511
 30
0.0
 11
283.8313806647943
 21
376.0821783650265
 31
0.0
  0
LINE
  5
1E20
330
A
100
AcDbEntity
  8
04
100
AcDbLine
 10
285.8313890442642
 20
382.3821700591858
 30
0.0
 11
283.8313669319561
 21
382.3821504829511
 31
0.0
  0
LINE
  5
1E21
330
A
100
AcDbEntity
  8
04
100
AcDbLine
 10
290.6400196358938
 20
382.5847451013476
 30
0.0
 11
285.831387141197
 21
382.5765984895114
 31
0.0
  0
LINE
  5
1E22
330
A
100
AcDbEntity
  8
04
100
AcDbLine
 10
290.6352357316619
 20
397.5876838616409
 30
0.0
 11
291.3313562428708
 21
396.3821535042723
 31
0.0
  0
LINE
  5
1E23
330
A
100
AcDbEntity
  8
04
100
AcDbLine
 10
276.8309047321878
 20
411.0823386822451
 30
0.0
 11
276.8309047379161
 21
408.0823423448493
 31
0.0
  0
ARC
  5
1E24
330
A
100
AcDbEntity
  8
04
100
AcDbCircle
 10
264.5636943712442
 20
413.0823328108808
 30
0.0
 40
1.000000000000027
100
AcDbArc
 50
269.9999999999982
 51
345.0001159816712
  0
LINE
  5
1E25
330
A
100
AcDbEntity
  8
04
100
AcDbLine
 10
265.529620721449
 20
412.8235157210657
 30
0.0
 11
266.4028108557133
 21
416.0823320535866
 31
0.0
  0
LINE
  5
1E26
330
A
100
AcDbEntity
  8
04
100
AcDbLine
 10
266.4028108557133
 20
416.0823320535866
 30
0.0
 11
270.3311127084105
 21
416.0823382467762
 31
0.0
  0
LINE
  5
1E27
330
A
100
AcDbEntity
  8
04
100
AcDbLine
 10
270.3311599716797
 20
400.0823368390847
 30
0.0
 11
271.8309095792637
 21
400.0823368390847
 31
0.0
  0
LINE
  5
1E28
330
A
100
AcDbEntity
  8
04
100
AcDbLine
 10
271.8309095792637
 20
400.0823368390847
 30
0.0
 11
271.8309095792637
 21
411.0823386808813
 31
0.0
  0
LINE
  5
1E29
330
A
100
AcDbEntity
  8
04
100
AcDbLine
 10
271.8309095792637
 20
411.0823386808813
 30
0.0
 11
276.8309047321878
 21
411.0823386822451
 31
0.0
  0
LINE
  5
1E2A
330
A
100
AcDbEntity
  8
04
100
AcDbLine
 10
271.8309049270561
 20
380.0823412692624
 30
0.0
 11
270.3309840748171
 21
380.0823368385649
 31
0.0
  0
LINE
  5
1E2B
330
A
100
AcDbEntity
  8
04
100
AcDbLine
 10
271.8309095792637
 20
400.0823368390847
 30
0.0
 11
271.8309686583316
 21
380.0823412694505
 31
0.0
  0
LINE
  5
1E2C
330
A
100
AcDbEntity
  8
04
100
AcDbLine
 10
276.8309047379161
 20
376.0823423448493
 30
0.0
 11
276.8309047379161
 21
408.0823423448493
 31
0.0
  0
LINE
  5
1E2D
330
A
100
AcDbEntity
  8
04
100
AcDbLine
 10
276.8309047379161
 20
408.0823423448493
 30
0.0
 11
281.3313432394823
 21
408.0823569459179
 31
0.0
  0
LINE
  5
1E2E
330
A
100
AcDbEntity
  8
04
100
AcDbLine
 10
283.8313806647943
 20
376.0821783650265
 30
0.0
 11
276.8309047379161
 21
376.0823423448493
 31
0.0
  0
ARC
  5
1E2F
330
A
100
AcDbEntity
  8
04
100
AcDbCircle
 10
254.0981481073508
 20
413.0823328108808
 30
0.0
 40
0.9999999999999047
100
AcDbArc
 50
194.9999999999976
 51
270.0000000000049
  0
LINE
  5
1E30
330
A
100
AcDbEntity
  8
04
100
AcDbLine
 10
252.2590307131213
 20
416.082309062074
 30
0.0
 11
253.1322222810619
 21
412.8235137657783
 31
0.0
  0
LINE
  5
1E31
330
A
100
AcDbEntity
  8
04
100
AcDbLine
 10
248.3309338674664
 20
416.0822462522888
 30
0.0
 11
252.2590307131213
 21
416.082309062074
 31
0.0
  0
LINE
  5
1E32
330
A
100
AcDbEntity
  8
04
100
AcDbLine
 10
243.3310157469375
 20
398.3323156689348
 30
0.0
 11
244.2345382661665
 21
399.8972664560186
 31
0.0
  0
LINE
  5
1E33
330
A
100
AcDbEntity
  8
04
100
AcDbLine
 10
241.8310229337383
 20
394.0823159536747
 30
0.0
 11
242.8310229337383
 21
395.0823159536746
 31
0.0
  0
LINE
  5
1E34
330
A
100
AcDbEntity
  8
04
100
AcDbLine
 10
242.8310229337383
 20
395.0823159536746
 30
0.0
 11
243.331018578101
 21
395.0823163892346
 31
0.0
  0
LINE
  5
1E35
330
A
100
AcDbEntity
  8
04
100
AcDbLine
 10
241.8310229337383
 20
386.0823159536748
 30
0.0
 11
241.8310229337383
 21
394.0823159536747
 31
0.0
  0
LINE
  5
1E36
330
A
100
AcDbEntity
  8
04
100
AcDbLine
 10
243.3310301205394
 20
381.8323156689412
 30
0.0
 11
243.3310301205405
 21
385.0823159536746
 31
0.0
  0
LINE
  5
1E37
330
A
100
AcDbEntity
  8
04
100
AcDbLine
 10
243.3310301205405
 20
385.0823159536746
 30
0.0
 11
242.8310229337383
 21
385.0823159536748
 31
0.0
  0
LINE
  5
1E38
330
A
100
AcDbEntity
  8
04
100
AcDbLine
 10
244.234762127613
 20
380.2670584965095
 30
0.0
 11
243.3310301205394
 21
381.8323156689412
 31
0.0
  0
LINE
  5
1E39
330
A
100
AcDbEntity
  8
04
100
AcDbLine
 10
242.8310229337383
 20
385.0823159536748
 30
0.0
 11
241.8310229337383
 21
386.0823159536748
 31
0.0
  0
LINE
  5
1E3A
330
A
100
AcDbEntity
  8
04
100
AcDbLine
 10
243.331018578101
 20
395.0823163892346
 30
0.0
 11
243.3310157469375
 21
398.3323156689348
 31
0.0
  0
LINE
  5
1E3B
330
A
100
AcDbEntity
  8
04
100
AcDbLine
 10
248.3309703468564
 20
380.2673700245253
 30
0.0
 11
244.234762127613
 21
380.2670584965095
 31
0.0
  0
LINE
  5
1E3C
330
A
100
AcDbEntity
  8
04
100
AcDbLine
 10
244.2345382661665
 20
399.8972664560186
 30
0.0
 11
248.3309496100698
 21
399.8972704404657
 31
0.0
  0
LINE
  5
1E3D
330
A
100
AcDbEntity
  8
04
100
AcDbLine
 10
254.0981481073509
 20
412.0823328108808
 30
0.0
 11
264.5636943712442
 21
412.0823328108808
 31
0.0
  0
LINE
  5
1E3E
330
A
100
AcDbEntity
  8
04
100
AcDbLine
 10
286.7214919145681
 20
356.1912543535421
 30
0.0
 11
287.1310461627056
 21
355.4819334760228
 31
0.0
  0
LINE
  5
1E3F
330
A
100
AcDbEntity
  8
04
100
AcDbLine
 10
281.3312681713924
 20
356.5818662669107
 30
0.0
 11
282.3310334023678
 21
356.5818760582711
 31
0.0
  0
LINE
  5
1E40
330
A
100
AcDbEntity
  8
04
100
AcDbLine
 10
282.3310334023678
 20
356.5818760582711
 30
0.0
 11
282.3310403907208
 21
356.1819117639506
 31
0.0
  0
LINE
  5
1E41
330
A
100
AcDbEntity
  8
04
100
AcDbLine
 10
281.3310850544556
 20
360.5821143534593
 30
0.0
 11
281.3312681713924
 21
356.5818662669107
 31
0.0
  0
LINE
  5
1E42
330
A
100
AcDbEntity
  8
04
100
AcDbLine
 10
282.3310403907208
 20
356.1819117639506
 30
0.0
 11
286.7214919145681
 21
356.1912543535421
 31
0.0
  0
LINE
  5
1E43
330
A
100
AcDbEntity
  8
04
100
AcDbLine
 10
287.1311191196633
 20
347.6819788991218
 30
0.0
 11
286.7161280574745
 21
346.9632032122291
 31
0.0
  0
LINE
  5
1E44
330
A
100
AcDbEntity
  8
04
100
AcDbLine
 10
282.3311274213441
 20
346.9818920082212
 30
0.0
 11
282.3311291497141
 21
346.5818918258761
 31
0.0
  0
LINE
  5
1E45
330
A
100
AcDbEntity
  8
04
100
AcDbLine
 10
282.3311291497141
 20
346.5818918258761
 30
0.0
 11
281.3311299313721
 21
346.5818875049567
 31
0.0
  0
LINE
  5
1E46
330
A
100
AcDbEntity
  8
04
100
AcDbLine
 10
281.3311299313721
 20
346.5818875049567
 30
0.0
 11
281.3310821890494
 21
342.5816588875093
 31
0.0
  0
LINE
  5
1E47
330
A
100
AcDbEntity
  8
04
100
AcDbLine
 10
286.7161280574745
 20
346.9632032122291
 30
0.0
 11
282.3311274213441
 21
346.9818920082212
 31
0.0
  0
LINE
  5
1E48
330
A
100
AcDbEntity
  8
04
100
AcDbLine
 10
287.1310461627056
 20
355.4819334760228
 30
0.0
 11
287.1311191196633
 21
347.6819788991218
 31
0.0
  0
ARC
  5
1E49
330
A
100
AcDbEntity
  8
04
100
AcDbCircle
 10
264.5637357309956
 20
367.0823279768931
 30
0.0
 40
1.000000000000007
100
AcDbArc
 50
14.99997633373467
 51
90.0
  0
LINE
  5
1E4A
330
A
100
AcDbEntity
  8
04
100
AcDbLine
 10
266.402854762851
 20
364.0823402297431
 30
0.0
 11
265.5296616641911
 21
367.3411466230156
 31
0.0
  0
LINE
  5
1E4B
330
A
100
AcDbEntity
  8
04
100
AcDbLine
 10
270.3312663140159
 20
364.0823402297431
 30
0.0
 11
266.402854762851
 21
364.0823402297431
 31
0.0
  0
LINE
  5
1E4C
330
A
100
AcDbEntity
  8
04
100
AcDbLine
 10
266.8310796902663
 20
357.0821681247061
 30
0.0
 11
266.8310822343004
 21
356.0821307920346
 31
0.0
  0
LINE
  5
1E4D
330
A
100
AcDbEntity
  8
04
100
AcDbLine
 10
266.8310822343004
 20
356.0821307920346
 30
0.0
 11
271.8309043344023
 21
356.0821138435473
 31
0.0
  0
LINE
  5
1E4E
330
A
100
AcDbEntity
  8
04
100
AcDbLine
 10
276.8309047568529
 20
342.5816588875093
 30
0.0
 11
276.8309047568529
 21
344.0823664493511
 31
0.0
  0
ARC
  5
1E4F
330
A
100
AcDbEntity
  8
04
100
AcDbCircle
 10
268.8308960708821
 20
347.082400697926
 30
0.0
 40
8.0
100
AcDbArc
 50
337.9755006373002
 51
0.0000000156298055
  0
LINE
  5
1E50
330
A
100
AcDbEntity
  8
04
100
AcDbLine
 10
276.8309047568529
 20
342.5816588875093
 30
0.0
 11
276.8309004230179
 21
339.0824016878231
 31
0.0
  0
ARC
  5
1E51
330
A
100
AcDbEntity
  8
04
100
AcDbCircle
 10
268.8309004230176
 20
347.0824006979298
 30
0.0
 40
3.0
100
AcDbArc
 50
326.4430048425272
 51
359.9999988181566
  0
ARC
  5
1E52
330
A
100
AcDbEntity
  8
04
100
AcDbCircle
 10
268.8309004230176
 20
347.0824006979298
 30
0.0
 40
3.0
100
AcDbArc
 50
269.9999518497282
 51
326.4430048425272
  0
LINE
  5
1E53
330
A
100
AcDbEntity
  8
04
100
AcDbLine
 10
266.8309004230177
 20
344.0823664493511
 30
0.0
 11
276.8309047568529
 21
344.0823664493511
 31
0.0
  0
LINE
  5
1E54
330
A
100
AcDbEntity
  8
04
100
AcDbLine
 10
276.8309047568529
 20
344.0823664493511
 30
0.0
 11
276.8306393217477
 21
360.5818712667391
 31
0.0
  0
LINE
  5
1E55
330
A
100
AcDbEntity
  8
04
100
AcDbLine
 10
271.8309043344023
 20
356.0821138435473
 30
0.0
 11
271.8309004230178
 21
347.0824006360486
 31
0.0
  0
LINE
  5
1E56
330
A
100
AcDbEntity
  8
04
100
AcDbLine
 10
276.8306393217477
 20
360.5818712667391
 30
0.0
 11
281.3310850544556
 21
360.5821143534593
 31
0.0
  0
LINE
  5
1E57
330
A
100
AcDbEntity
  8
04
100
AcDbLine
 10
281.3310821890494
 20
342.5816588875093
 30
0.0
 11
276.8309047568529
 21
342.5816588875093
 31
0.0
  0
LINE
  5
1E58
330
A
100
AcDbEntity
  8
04
100
AcDbLine
 10
256.331057431446
 20
356.0821243082068
 30
0.0
 11
256.3310605465651
 21
357.0821414132973
 31
0.0
  0
LINE
  5
1E59
330
A
100
AcDbEntity
  8
04
100
AcDbLine
 10
253.1322623604685
 20
367.3411454656881
 30
0.0
 11
252.2592350117558
 21
364.0825040936825
 31
0.0
  0
ARC
  5
1E5A
330
A
100
AcDbEntity
  8
04
100
AcDbCircle
 10
254.0981886037676
 20
367.0823279768931
 30
0.0
 40
0.9999999999999715
100
AcDbArc
 50
90.0
 51
165.0000923154116
  0
LINE
  5
1E5B
330
A
100
AcDbEntity
  8
04
100
AcDbLine
 10
252.2592350117558
 20
364.0825040936825
 30
0.0
 11
248.3309844459398
 21
364.0825002728001
 31
0.0
  0
LINE
  5
1E5C
330
A
100
AcDbEntity
  8
04
100
AcDbLine
 10
254.3310691217592
 20
352.7818970070576
 30
0.0
 11
254.3310744936013
 21
354.5822136539031
 31
0.0
  0
LINE
  5
1E5D
330
A
100
AcDbEntity
  8
04
100
AcDbLine
 10
254.3310744936013
 20
354.5822136539031
 30
0.0
 11
255.3310582426056
 21
354.5821337938111
 31
0.0
  0
LINE
  5
1E5E
330
A
100
AcDbEntity
  8
04
100
AcDbLine
 10
255.3310582426056
 20
354.5821337938111
 30
0.0
 11
255.3310584066907
 21
356.0820516967071
 31
0.0
  0
LINE
  5
1E5F
330
A
100
AcDbEntity
  8
04
100
AcDbLine
 10
253.0310035981393
 20
352.7818472180453
 30
0.0
 11
254.3310691217592
 21
352.7818970070576
 31
0.0
  0
LINE
  5
1E60
330
A
100
AcDbEntity
  8
04
100
AcDbLine
 10
251.8254153948505
 20
352.0860267304667
 30
0.0
 11
253.0310035981393
 21
352.7818472180453
 31
0.0
  0
LINE
  5
1E61
330
A
100
AcDbEntity
  8
04
100
AcDbLine
 10
255.3310584066907
 20
356.0820516967071
 30
0.0
 11
256.331057431446
 21
356.0821243082068
 31
0.0
  0
LINE
  5
1E62
330
A
100
AcDbEntity
  8
04
100
AcDbLine
 10
250.3310396857759
 20
345.6810570068096
 30
0.0
 11
251.6310191310781
 21
345.6810548372296
 31
0.0
  0
LINE
  5
1E63
330
A
100
AcDbEntity
  8
04
100
AcDbLine
 10
251.6310191310781
 20
345.6810548372296
 30
0.0
 11
251.6310223015988
 21
347.2809867477688
 31
0.0
  0
LINE
  5
1E64
330
A
100
AcDbEntity
  8
04
100
AcDbLine
 10
251.6310223015988
 20
347.2809867477688
 30
0.0
 11
251.8254746236204
 21
347.2809868846975
 31
0.0
  0
LINE
  5
1E65
330
A
100
AcDbEntity
  8
04
100
AcDbLine
 10
247.8309004230177
 20
344.0823974936951
 30
0.0
 11
250.3310256671937
 21
344.0824067017956
 31
0.0
  0
LINE
  5
1E66
330
A
100
AcDbEntity
  8
04
100
AcDbLine
 10
250.3310256671937
 20
344.0824067017956
 30
0.0
 11
250.3310396857759
 21
345.6810570068096
 31
0.0
  0
LINE
  5
1E67
330
A
100
AcDbEntity
  8
04
100
AcDbLine
 10
247.8309004230177
 20
339.0823764455423
 30
0.0
 11
247.8309004230177
 21
344.0823974936951
 31
0.0
  0
LINE
  5
1E68
330
A
100
AcDbEntity
  8
04
100
AcDbLine
 10
251.8254746236204
 20
347.2809868846975
 30
0.0
 11
251.8254153948505
 21
352.0860267304667
 31
0.0
  0
LINE
  5
1E69
330
A
100
AcDbEntity
  8
04
100
AcDbLine
 10
250.3310256673421
 20
344.0823664493511
 30
0.0
 11
266.8309004230177
 21
344.0823664493511
 31
0.0
  0
LINE
  5
1E6A
330
A
100
AcDbEntity
  8
04
100
AcDbLine
 10
256.3310605465651
 20
357.0821414132973
 30
0.0
 11
266.8310796902663
 21
357.0821681247061
 31
0.0
  0
LINE
  5
1E6B
330
A
100
AcDbEntity
  8
04
100
AcDbLine
 10
264.5637357309956
 20
368.0823279768931
 30
0.0
 11
254.0981886037676
 21
368.0823279768931
 31
0.0
  0
LINE
  5
1E6C
330
A
100
AcDbEntity
  8
04
100
AcDbLine
 10
276.8309004230179
 20
339.0824016878231
 30
0.0
 11
247.8309004230177
 21
339.0823764455423
 31
0.0
  0
LINE
  5
1E6D
330
A
100
AcDbEntity
  8
04
100
AcDbLine
 10
271.8309043344023
 20
356.0821138435473
 30
0.0
 11
271.8309049270561
 21
380.0823412692624
 31
0.0
  0
LINE
  5
1E6E
330
A
100
AcDbEntity
  8
04
100
AcDbLine
 10
248.3309844459398
 20
364.0825002728001
 30
0.0
 11
248.3309338674664
 21
416.0822462522888
 31
0.0
  0
LINE
  5
1E6F
330
A
100
AcDbEntity
  8
04
100
AcDbLine
 10
270.3311127084105
 20
416.0823382467762
 30
0.0
 11
270.3312663140159
 21
364.0823402297431
 31
0.0
  0
LINE
  5
1E70
330
A
100
AcDbEntity
  8
04
100
AcDbLine
 10
276.8309047379161
 20
376.0823423448493
 30
0.0
 11
276.8306393217477
 21
360.5818712667391
 31
0.0
  0
LINE
  5
1E71
330
A
100
AcDbEntity
  8
02
100
AcDbLine
 10
207.531015505481
 20
488.5826635239705
 30
0.0
 11
207.531015505481
 21
418.5826635239703
 31
0.0
  0
LINE
  5
1E72
330
A
100
AcDbEntity
  8
06
100
AcDbLine
 10
246.8309004230175
 20
339.0823864554128
 30
0.0
 11
271.8309004230175
 21
339.0823864554128
 31
0.0
  0
TEXT
  5
1ECB
330
A
100
AcDbEntity
  8
MOJI
100
AcDbText
 10
104.4062949118838
 20
244.9382508105589
 30
0.0
 40
6.0
  1
☆本図
 50
90.0
 41
0.8
  7
0_8
 11
98.40629491188387
 21
244.9382508105589
 31
0.0
100
AcDbText
 73
     3
  0
TEXT
  5
1ECC
330
A
100
AcDbEntity
  8
MOJI
100
AcDbText
 10
72.21629491188389
 20
47.82967938198742
 30
0.0
 40
6.0
  1
SOV-100KLDM
 50
90.0
 41
0.8
  7
0_8
 11
66.21629491188389
 21
47.82967938198742
 31
0.0
100
AcDbText
 73
     3
  0
TEXT
  5
1ECD
330
A
100
AcDbEntity
  8
MOJI
100
AcDbText
 10
72.21629491188389
 20
112.6458673787787
 30
0.0
 40
6.0
  1
７５×１
 50
90.0
 41
0.8
  7
0_8
 11
66.21629491188389
 21
112.6458673787787
 31
0.0
100
AcDbText
 73
     3
  0
TEXT
  5
1ECE
330
A
100
AcDbEntity
  8
MOJI
100
AcDbText
 10
72.21629491188389
 20
146.8538936677016
 30
0.0
 40
6.0
  1
５０×２
 50
90.0
 41
0.8
  7
0_8
 11
66.21629491188389
 21
146.8538936677016
 31
0.0
100
AcDbText
 73
     3
  0
CIRCLE
  5
1ECF
330
A
100
AcDbEntity
  8
SAISEN
100
AcDbCircle
 10
61.43352722402584
 20
189.3271066233715
 30
0.0
 40
2.43
  0
CIRCLE
  5
1ED0
330
A
100
AcDbEntity
  8
SAISEN
100
AcDbCircle
 10
61.43352722402584
 20
189.3271066233715
 30
0.0
 40
1.619999999999999
  0
CIRCLE
  5
1ED1
330
A
100
AcDbEntity
  8
SAISEN
100
AcDbCircle
 10
61.43352722402584
 20
223.6128209090859
 30
0.0
 40
2.43
  0
LINE
  5
1ED2
330
A
100
AcDbEntity
  8
SAISEN
100
AcDbLine
 10
65.40629491188375
 20
46.20967938198743
 30
0.0
 11
65.40629491188375
 21
243.3525365248446
 31
0.0
  0
POLYLINE
  5
1ED3
330
A
100
AcDbEntity
  8
SAISEN
100
AcDb2dPolyline
 66
     1
 10
0.0
 20
0.0
 30
0.0
 70
     1
  0
VERTEX
  5
20AF
330
1ED3
100
AcDbEntity
  8
SAISEN
100
AcDbVertex
100
AcDb2dVertex
 10
106.1205806261694
 20
46.20967938198743
 30
0.0
  0
VERTEX
  5
20B0
330
1ED3
100
AcDbEntity
  8
SAISEN
100
AcDbVertex
100
AcDb2dVertex
 10
106.1205806261694
 20
243.3525365248446
 30
0.0
  0
VERTEX
  5
20B1
330
1ED3
100
AcDbEntity
  8
SAISEN
100
AcDbVertex
100
AcDb2dVertex
 10
32.83486634045519
 20
243.3525365248446
 30
0.0
  0
VERTEX
  5
20B2
330
1ED3
100
AcDbEntity
  8
SAISEN
100
AcDbVertex
100
AcDb2dVertex
 10
32.83486634045517
 20
46.20967938198745
 30
0.0
  0
SEQEND
  5
20B3
330
1ED3
100
AcDbEntity
  8
SAISEN
  0
TEXT
  5
1ED4
330
A
100
AcDbEntity
  8
MOJI
100
AcDbText
 10
47.78772348331232
 20
211.126389145427
 30
0.0
 40
6.0
  1
歯付きベルト
 50
90.0
 41
0.7
  7
0_7
 11
41.78772348331231
 21
211.126389145427
 31
0.0
100
AcDbText
 73
     3
  0
TEXT
  5
1ED5
330
A
100
AcDbEntity
  8
MOJI
100
AcDbText
 10
47.78772348331232
 20
180.4511079534159
 30
0.0
 40
6.0
  1
Ｖベルト
 50
90.0
 41
0.8
  7
0_8
 11
41.78772348331231
 21
180.4511079534159
 31
0.0
100
AcDbText
 73
     3
  0
TEXT
  5
1ED6
330
A
100
AcDbEntity
  8
MOJI
100
AcDbText
 10
39.64486634045513
 20
200.2982258386634
 30
0.0
 40
6.0
  1
伝達機構
 50
90.0
 41
0.8
  7
0_8
 11
33.64486634045514
 21
200.2982258386634
 31
0.0
100
AcDbText
 73
     3
  0
TEXT
  5
1ED7
330
A
100
AcDbEntity
  8
MOJI
100
AcDbText
 10
104.7877234833124
 20
112.6458673787787
 30
0.0
 40
6.0
  1
７５×１
 50
90.0
 41
0.8
  7
0_8
 11
98.78772348331249
 21
112.6458673787787
 31
0.0
100
AcDbText
 73
     3
  0
TEXT
  5
1ED8
330
A
100
AcDbEntity
  8
MOJI
100
AcDbText
 10
96.64486634045529
 20
112.6458673787787
 30
0.0
 40
6.0
  1
７５×１
 50
90.0
 41
0.8
  7
0_8
 11
90.64486634045527
 21
112.6458673787787
 31
0.0
100
AcDbText
 73
     3
  0
TEXT
  5
1ED9
330
A
100
AcDbEntity
  8
MOJI
100
AcDbText
 10
88.5020091975981
 20
112.6458673787787
 30
0.0
 40
6.0
  1
７５×１
 50
90.0
 41
0.8
  7
0_8
 11
82.5020091975981
 21
112.6458673787787
 31
0.0
100
AcDbText
 73
     3
  0
TEXT
  5
1EDA
330
A
100
AcDbEntity
  8
MOJI
100
AcDbText
 10
80.359152054741
 20
112.6458673787787
 30
0.0
 40
6.0
  1
７５×１
 50
90.0
 41
0.8
  7
0_8
 11
74.359152054741
 21
112.6458673787787
 31
0.0
100
AcDbText
 73
     3
  0
TEXT
  5
1EDB
330
A
100
AcDbEntity
  8
MOJI
100
AcDbText
 10
104.7877234833124
 20
146.8538936677016
 30
0.0
 40
6.0
  1
７５×２
 50
90.0
 41
0.8
  7
0_8
 11
98.78772348331249
 21
146.8538936677016
 31
0.0
100
AcDbText
 73
     3
  0
TEXT
  5
1EDC
330
A
100
AcDbEntity
  8
MOJI
100
AcDbText
 10
96.64486634045529
 20
146.8538936677016
 30
0.0
 40
6.0
  1
７５×２
 50
90.0
 41
0.8
  7
0_8
 11
90.64486634045527
 21
146.8538936677016
 31
0.0
100
AcDbText
 73
     3
  0
TEXT
  5
1EDD
330
A
100
AcDbEntity
  8
MOJI
100
AcDbText
 10
88.5020091975981
 20
146.8538936677016
 30
0.0
 40
6.0
  1
７５×２
 50
90.0
 41
0.8
  7
0_8
 11
82.5020091975981
 21
146.8538936677016
 31
0.0
100
AcDbText
 73
     3
  0
TEXT
  5
1EDE
330
A
100
AcDbEntity
  8
MOJI
100
AcDbText
 10
80.359152054741
 20
146.8538936677016
 30
0.0
 40
6.0
  1
７５×２
 50
90.0
 41
0.8
  7
0_8
 11
74.359152054741
 21
146.8538936677016
 31
0.0
100
AcDbText
 73
     3
  0
TEXT
  5
1EDF
330
A
100
AcDbEntity
  8
MOJI
100
AcDbText
 10
64.07343776902671
 20
146.8538936677016
 30
0.0
 40
6.0
  1
３５×２
 50
90.0
 41
0.8
  7
0_8
 11
58.07343776902671
 21
146.8538936677016
 31
0.0
100
AcDbText
 73
     3
  0
TEXT
  5
1EE0
330
A
100
AcDbEntity
  8
MOJI
100
AcDbText
 10
64.07343776902671
 20
112.6458673787787
 30
0.0
 40
6.0
  1
７０×１
 50
90.0
 41
0.8
  7
0_8
 11
58.07343776902671
 21
112.6458673787787
 31
0.0
100
AcDbText
 73
     3
  0
TEXT
  5
1EE1
330
A
100
AcDbEntity
  8
MOJI
100
AcDbText
 10
55.93058062616952
 20
146.8538936677016
 30
0.0
 40
6.0
  1
３０×２
 50
90.0
 41
0.8
  7
0_8
 11
49.93058062616952
 21
146.8538936677016
 31
0.0
100
AcDbText
 73
     3
  0
TEXT
  5
1EE2
330
A
100
AcDbEntity
  8
MOJI
100
AcDbText
 10
55.93058062616952
 20
112.6458673787787
 30
0.0
 40
6.0
  1
６５×１
 50
90.0
 41
0.8
  7
0_8
 11
49.93058062616952
 21
112.6458673787787
 31
0.0
100
AcDbText
 73
     3
  0
TEXT
  5
1EE3
330
A
100
AcDbEntity
  8
MOJI
100
AcDbText
 10
47.78772348331232
 20
148.6716217913023
 30
0.0
 40
6.0
  1
引分け
 50
90.0
 41
0.8
  7
0_8
 11
41.78772348331231
 21
148.6716217913023
 31
0.0
100
AcDbText
 73
     3
  0
TEXT
  5
1EE4
330
A
100
AcDbEntity
  8
MOJI
100
AcDbText
 10
47.78772348331232
 20
114.6155809307544
 30
0.0
 40
6.0
  1
片引き
 50
90.0
 41
0.8
  7
0_8
 11
41.78772348331231
 21
114.6155809307544
 31
0.0
100
AcDbText
 73
     3
  0
TEXT
  5
1EE5
330
A
100
AcDbEntity
  8
MOJI
100
AcDbText
 10
39.64486634045513
 20
114.6155809307544
 30
0.0
 40
6.0
  1
最大ドア質量（kg）
 50
90.0
 41
0.8
  7
0_8
 11
33.64486634045514
 21
114.6155809307544
 31
0.0
100
AcDbText
 73
     3
  0
TEXT
  5
1EE6
330
A
100
AcDbEntity
  8
MOJI
100
AcDbText
 10
44.35729011386493
 20
65.01966079455272
 30
0.0
 40
6.0
  1
使用機種
 50
90.0
 41
0.8
  7
0_8
 11
38.35729011386493
 21
65.01966079455272
 31
0.0
100
AcDbText
 73
     3
  0
TEXT
  5
1EE7
330
A
100
AcDbEntity
  8
MOJI
100
AcDbText
 10
55.93058062616952
 20
47.82967938198742
 30
0.0
 40
6.0
  1
SOV-60KLTM
 50
90.0
 41
0.8
  7
0_8
 11
49.93058062616952
 21
47.82967938198742
 31
0.0
100
AcDbText
 73
     3
  0
TEXT
  5
1EE8
330
A
100
AcDbEntity
  8
MOJI
100
AcDbText
 10
80.359152054741
 20
47.82967938198741
 30
0.0
 40
6.0
  1
SOV-150KLTM
 50
90.0
 41
0.8
  7
0_8
 11
74.359152054741
 21
47.82967938198741
 31
0.0
100
AcDbText
 73
     3
  0
TEXT
  5
1EE9
330
A
100
AcDbEntity
  8
MOJI
100
AcDbText
 10
64.07343776902671
 20
47.82967938198742
 30
0.0
 40
6.0
  1
SOV-70KLDM
 50
90.0
 41
0.8
  7
0_8
 11
58.07343776902671
 21
47.82967938198742
 31
0.0
100
AcDbText
 73
     3
  0
TEXT
  5
1EEA
330
A
100
AcDbEntity
  8
MOJI
100
AcDbText
 10
104.7877234833124
 20
47.82967938198741
 30
0.0
 40
6.0
  1
SOV-200KNB
 50
90.0
 41
0.8
  7
0_8
 11
98.78772348331246
 21
47.82967938198741
 31
0.0
100
AcDbText
 73
     3
  0
TEXT
  5
1EEB
330
A
100
AcDbEntity
  8
MOJI
100
AcDbText
 10
96.64486634045529
 20
47.82967938198741
 30
0.0
 40
6.0
  1
SOV-200KLDM
 50
90.0
 41
0.8
  7
0_8
 11
90.64486634045527
 21
47.82967938198741
 31
0.0
100
AcDbText
 73
     3
  0
TEXT
  5
1EEC
330
A
100
AcDbEntity
  8
MOJI
100
AcDbText
 10
88.50200919759807
 20
47.82967938198741
 30
0.0
 40
6.0
  1
SOV-160KLDM
 50
90.0
 41
0.8
  7
0_8
 11
82.50200919759807
 21
47.82967938198741
 31
0.0
100
AcDbText
 73
     3
  0
CIRCLE
  5
1EED
330
A
100
AcDbEntity
  8
SAISEN
100
AcDbCircle
 10
102.1478129383116
 20
223.6128209090859
 30
0.0
 40
1.619999999999999
  0
LINE
  5
1EEE
330
A
100
AcDbEntity
  8
SAISEN
100
AcDbLine
 10
106.1205806261695
 20
174.7811079534159
 30
0.0
 11
97.97772348331243
 21
209.0668222391303
 31
0.0
  0
CIRCLE
  5
1EEF
330
A
100
AcDbEntity
  8
SAISEN
100
AcDbCircle
 10
93.96209865259734
 20
189.3271066233715
 30
0.0
 40
1.619999999999999
  0
CIRCLE
  5
1EF0
330
A
100
AcDbEntity
  8
SAISEN
100
AcDbCircle
 10
85.86209865259741
 20
189.3271066233715
 30
0.0
 40
1.619999999999999
  0
CIRCLE
  5
1EF1
330
A
100
AcDbEntity
  8
SAISEN
100
AcDbCircle
 10
77.71924150974022
 20
189.3271066233715
 30
0.0
 40
1.619999999999999
  0
CIRCLE
  5
1EF2
330
A
100
AcDbEntity
  8
SAISEN
100
AcDbCircle
 10
69.57638436688302
 20
189.3271066233715
 30
0.0
 40
1.619999999999999
  0
CIRCLE
  5
1EF3
330
A
100
AcDbEntity
  8
SAISEN
100
AcDbCircle
 10
53.24781293831158
 20
189.3271066233715
 30
0.0
 40
1.619999999999999
  0
CIRCLE
  5
1EF4
330
A
100
AcDbEntity
  8
SAISEN
100
AcDbCircle
 10
53.24781293831158
 20
223.6128209090859
 30
0.0
 40
2.43
  0
CIRCLE
  5
1EF5
330
A
100
AcDbEntity
  8
SAISEN
100
AcDbCircle
 10
69.57638436688302
 20
223.6128209090859
 30
0.0
 40
2.43
  0
CIRCLE
  5
1EF6
330
A
100
AcDbEntity
  8
SAISEN
100
AcDbCircle
 10
77.71924150974022
 20
223.6128209090859
 30
0.0
 40
2.43
  0
CIRCLE
  5
1EF7
330
A
100
AcDbEntity
  8
SAISEN
100
AcDbCircle
 10
85.86209865259744
 20
223.6128209090859
 30
0.0
 40
2.43
  0
CIRCLE
  5
1EF8
330
A
100
AcDbEntity
  8
SAISEN
100
AcDbCircle
 10
93.96209865259734
 20
223.6128209090859
 30
0.0
 40
2.43
  0
CIRCLE
  5
1EF9
330
A
100
AcDbEntity
  8
SAISEN
100
AcDbCircle
 10
102.1478129383116
 20
223.6128209090859
 30
0.0
 40
2.43
  0
CIRCLE
  5
1EFA
330
A
100
AcDbEntity
  8
SAISEN
100
AcDbCircle
 10
93.96209865259734
 20
189.3271066233715
 30
0.0
 40
2.43
  0
CIRCLE
  5
1EFB
330
A
100
AcDbEntity
  8
SAISEN
100
AcDbCircle
 10
85.86209865259741
 20
189.3271066233715
 30
0.0
 40
2.43
  0
CIRCLE
  5
1EFC
330
A
100
AcDbEntity
  8
SAISEN
100
AcDbCircle
 10
77.71924150974022
 20
189.3271066233715
 30
0.0
 40
2.43
  0
CIRCLE
  5
1EFD
330
A
100
AcDbEntity
  8
SAISEN
100
AcDbCircle
 10
69.57638436688302
 20
189.3271066233715
 30
0.0
 40
2.43
  0
CIRCLE
  5
1EFE
330
A
100
AcDbEntity
  8
SAISEN
100
AcDbCircle
 10
53.24781293831158
 20
189.3271066233715
 30
0.0
 40
2.43
  0
LINE
  5
1EFF
330
A
100
AcDbEntity
  8
SAISEN
100
AcDbLine
 10
106.1205806261695
 20
209.0668222391303
 30
0.0
 11
40.97772348331239
 21
209.0668222391303
 31
0.0
  0
LINE
  5
1F00
330
A
100
AcDbEntity
  8
SAISEN
100
AcDbLine
 10
40.97772348331235
 20
140.4953936677017
 30
0.0
 11
106.1205806261695
 21
140.4953936677017
 31
0.0
  0
LINE
  5
1F01
330
A
100
AcDbEntity
  8
SAISEN
100
AcDbLine
 10
32.83486634045517
 20
106.2096793819875
 30
0.0
 11
106.1205806261694
 21
106.2096793819875
 31
0.0
  0
LINE
  5
1F02
330
A
100
AcDbEntity
  8
SAISEN
100
AcDbLine
 10
40.97772348331235
 20
106.2096793819875
 30
0.0
 11
40.97772348331239
 21
243.3525365248446
 31
0.0
  0
LINE
  5
1F03
330
A
100
AcDbEntity
  8
SAISEN
100
AcDbLine
 10
49.12058062616946
 20
46.20967938198745
 30
0.0
 11
49.12058062616948
 21
243.3525365248446
 31
0.0
  0
LINE
  5
1F04
330
A
100
AcDbEntity
  8
SAISEN
100
AcDbLine
 10
57.26343776902665
 20
46.20967938198743
 30
0.0
 11
57.26343776902667
 21
243.3525365248446
 31
0.0
  0
LINE
  5
1F05
330
A
100
AcDbEntity
  8
SAISEN
100
AcDbLine
 10
73.54915205474092
 20
46.20967938198743
 30
0.0
 11
73.54915205474096
 21
243.3525365248446
 31
0.0
  0
LINE
  5
1F06
330
A
100
AcDbEntity
  8
SAISEN
100
AcDbLine
 10
81.69200919759813
 20
46.20967938198743
 30
0.0
 11
81.69200919759814
 21
243.3525365248446
 31
0.0
  0
LINE
  5
1F07
330
A
100
AcDbEntity
  8
SAISEN
100
AcDbLine
 10
89.83486634045531
 20
46.20967938198743
 30
0.0
 11
89.83486634045533
 21
243.3525365248446
 31
0.0
  0
LINE
  5
1F08
330
A
100
AcDbEntity
  8
SAISEN
100
AcDbLine
 10
97.97772348331243
 20
46.20967938198743
 30
0.0
 11
97.97772348331243
 21
243.3525365248446
 31
0.0
  0
LINE
  5
1F09
330
A
100
AcDbEntity
  8
SAISEN
100
AcDbLine
 10
106.1205806261695
 20
174.7811079534159
 30
0.0
 11
32.83486634045517
 21
174.7811079534159
 31
0.0
  0
TEXT
  5
1F0A
330
A
100
AcDbEntity
  8
MOJI
100
AcDbText
 10
120.9223348327276
 20
46.20967938198743
 30
0.0
 40
6.0
  1
※　伝達機構は◎印が標準、○印はオーダーです。
 50
90.0
 41
0.8
  7
0_8
 11
114.9223348327277
 21
46.20967938198743
 31
0.0
100
AcDbText
 73
     3
  0
TEXT
  5
1F0B
330
A
100
AcDbEntity
  8
MOJI
100
AcDbText
 10
129.4937634041563
 20
46.20967938198743
 30
0.0
 40
6.0
  1
※　台板専用の戸車を使用する為、質量制限をしています。
 50
90.0
 41
0.8
  7
0_8
 11
123.4937634041562
 21
46.20967938198743
 31
0.0
100
AcDbText
 73
     3
  0
DIMENSION
  5
1F13
330
A
100
AcDbEntity
  8
SUNPOU
100
AcDbDimension
  2
*D33
 10
140.3309004230177
 20
108.082389937107
 30
0.0
 11
135.8309004230177
 21
103.082389937107
 31
0.0
 70
    32
  3
SUNPOU_2
100
AcDbAlignedDimension
 13
140.3309004230177
 23
98.08238993710716
 33
0.0
 14
206.3309004230155
 24
108.0823899371069
 34
0.0
 50
90.0
100
AcDbRotatedDimension
  0
DIMENSION
  5
1F5A
330
A
100
AcDbEntity
  8
SUNPOU
100
AcDbDimension
  2
*D34
 10
199.3175226458758
 20
410.1814530181232
 30
0.0
 11
190.0594426842239
 21
414.6814530181232
 31
0.0
 70
   160
  3
SUNPOU_2
100
AcDbAlignedDimension
 13
183.3309004230176
 23
410.1814530181232
 33
0.0
 14
199.3175226458758
 24
410.1814530181232
 34
0.0
100
AcDbRotatedDimension
  0
TEXT
  5
1F90
330
A
100
AcDbEntity
  8
MOJI
100
AcDbText
 10
389.048819039213
 20
45.27151320611588
 30
0.0
 40
8.0
  1
Ｓ
 41
0.8
  7
0_8
 11
389.048819039213
 21
53.27151320611588
 31
0.0
100
AcDbText
 73
     3
  0
CIRCLE
  5
1F91
330
A
100
AcDbEntity
  8
SAISEN
100
AcDbCircle
 10
392.0976380784291
 20
49.5430264122316
 30
0.0
 40
5.0
  0
MTEXT
  5
2032
330
A
100
AcDbEntity
  8
MOJI
100
AcDbMText
 10
360.9999999999968
 20
28.50000000000011
 30
0.0
 40
7.0
 41
49.99999999999994
 71
     5
 72
     1
  1
たて断面図　
  7
0_80
1001
ACAD
1000
MTEXTBEGIN
1070
    73
1070
     1
1070
    44
1040
1.0
1070
    74
1070
     0
1000
MTEXTEND
1000
MTEXTBEGIN
1070
    73
1070
     1
1070
    44
1040
1.0
1070
    74
1070
     0
1000
MTEXTEND
  0
MTEXT
  5
2033
330
A
100
AcDbEntity
  8
MOJI
100
AcDbMText
 10
310.9999999999968
 20
29.0
 30
0.0
 40
7.0
 41
50.0
 71
     5
 72
     1
  1
図番３－５
  7
0_80
1001
ACAD
1000
MTEXTBEGIN
1070
    73
1070
     1
1070
    44
1040
1.0
1070
    74
1070
     0
1000
MTEXTEND
1000
MTEXTBEGIN
1070
    73
1070
     1
1070
    44
1040
1.0
1070
    74
1070
     0
1000
MTEXTEND
  0
LINE
  5
2034
330
A
100
AcDbEntity
  8
SAISEN
100
AcDbLine
 10
285.9999999999968
 20
41.00000000000022
 30
0.0
 11
285.9999999999968
 21
17.0
 31
0.0
  0
LINE
  5
2035
330
A
100
AcDbEntity
  8
SAISEN
100
AcDbLine
 10
225.9999999999969
 20
41.00000000000022
 30
0.0
 11
225.9999999999969
 21
17.0
 31
0.0
  0
MTEXT
  5
2037
330
A
100
AcDbEntity
  8
MOJI
100
AcDbMText
 10
185.9999999999969
 20
29.00000000000011
 30
0.0
 40
7.0
 41
80.0
 71
     5
 72
     1
  1
Ｈ１台板 
  7
0_8
1001
ACAD
1000
MTEXTBEGIN
1070
    73
1070
     1
1070
    44
1040
1.0
1070
    74
1070
     0
1000
MTEXTEND
1000
MTEXTBEGIN
1070
    73
1070
     1
1070
    44
1040
1.0
1070
    74
1070
     0
1000
MTEXTEND
  0
LINE
  5
2038
330
A
100
AcDbEntity
  8
SAISEN
100
AcDbLine
 10
145.9999999999969
 20
41.00000000000022
 30
0.0
 11
145.9999999999969
 21
17.0
 31
0.0
  0
POLYLINE
  5
2039
330
A
100
AcDbEntity
  8
SAISEN
100
AcDb2dPolyline
 66
     1
 10
0.0
 20
0.0
 30
0.0
 70
     1
  0
VERTEX
  5
20B4
330
2039
100
AcDbEntity
  8
SAISEN
100
AcDbVertex
100
AcDb2dVertex
 10
35.99999999999695
 20
17.0
 30
0.0
  0
VERTEX
  5
20B5
330
2039
100
AcDbEntity
  8
SAISEN
100
AcDbVertex
100
AcDb2dVertex
 10
385.9999999999968
 20
17.0
 30
0.0
  0
VERTEX
  5
20B6
330
2039
100
AcDbEntity
  8
SAISEN
100
AcDbVertex
100
AcDb2dVertex
 10
385.9999999999968
 20
41.00000000000022
 30
0.0
  0
VERTEX
  5
20B7
330
2039
100
AcDbEntity
  8
SAISEN
100
AcDbVertex
100
AcDb2dVertex
 10
35.99999999999695
 20
41.00000000000022
 30
0.0
  0
SEQEND
  5
20B8
330
2039
100
AcDbEntity
  8
SAISEN
  0
MTEXT
  5
203A
330
A
100
AcDbEntity
  8
MOJI
100
AcDbMText
 10
90.89194499017372
 20
28.52455795677803
 30
0.0
 40
6.5
 41
110.0
 71
     5
 72
     1
  1
ステンレスサッシ　枠見込１２０mm\Pレールタイトシステム納り
  7
0_8
1001
ACAD
1000
MTEXTBEGIN
1070
    73
1070
     1
1070
    44
1040
1.0
1070
    74
1070
     0
1000
MTEXTEND
1000
MTEXTBEGIN
1070
    73
1070
     1
1070
    44
1040
1.0
1070
    74
1070
     0
1000
MTEXTEND
  0
MTEXT
  5
2055
330
A
100
AcDbEntity
  8
MOJI
100
AcDbMText
 10
255.9999999999968
 20
29.00000000000011
 30
0.0
 40
7.0
 41
60.0
 71
     5
 72
     1
  1
片引き又は両引き
  7
0_80
1001
ACAD
1000
MTEXTBEGIN
1070
    73
1070
     1
1070
    44
1040
1.0
1070
    74
1070
     0
1000
MTEXTEND
1000
MTEXTBEGIN
1070
    73
1070
     1
1070
    44
1040
1.0
1070
    74
1070
     0
1000
MTEXTEND
  0
VIEWPORT
  5
643
102
{ACAD_XDICTIONARY
360
208C
102
}
330
B
100
AcDbEntity
 67
     1
  8
0
100
AcDbViewport
 10
198.0508299538852
 20
285.1874487354477
 30
0.0
 40
1078.343208727591
 41
628.3535021666721
 68
     1
 69
     1
1001
ACAD
1000
MVIEW
1002
{
1070
    16
1010
0.0
1020
0.0
1030
0.0
1010
0.0
1020
0.0
1030
1.0
1040
0.0
1040
628.3535021666721
1040
198.0508299538852
1040
285.1874487354477
1040
50.0
1040
0.0
1040
0.0
1070
     0
1070
   100
1070
     1
1070
     1
1070
     0
1070
     0
1070
     0
1070
     0
1040
0.0
1040
0.0
1040
0.0
1040
10.0
1040
10.0
1040
10.0
1040
10.0
1070
     0
1002
{
1002
}
1002
}
  0
VIEWPORT
  5
2069
102
{ACAD_XDICTIONARY
360
2092
102
}
330
B
100
AcDbEntity
 67
     1
  8
DEFPOINTS
100
AcDbViewport
 10
198.0508309076477
 20
285.1874477816852
 30
0.0
 40
396.4883172119752
 41
570.409736121624
 68
     2
 69
     2
1001
ACAD
1000
MVIEW
1002
{
1070
    16
1010
0.0
1020
0.0
1030
0.0
1010
0.0
1020
0.0
1030
1.0
1040
0.0
1040
570.409736121624
1040
210.0
1040
297.0
1040
50.0
1040
0.0
1040
0.0
1070
     0
1070
   100
1070
     1
1070
     1
1070
     0
1070
     0
1070
     0
1070
     0
1040
0.0
1040
0.0
1040
0.0
1040
1.0
1040
1.0
1040
0.0
1040
0.0
1070
     0
1002
{
1002
}
1002
}
  0
ENDSEC
  0
SECTION
  2
OBJECTS
  0
DICTIONARY
  5
19
330
0
100
AcDbDictionary
  3
ACAD_COLOR
350
5F7
  3
ACAD_GROUP
350
1A
  3
ACAD_LAYOUT
350
566
  3
ACAD_MATERIAL
350
5F6
  3
ACAD_MLINESTYLE
350
1B
  3
ACAD_PLOTSETTINGS
350
567
  3
ACADDIM
350
900
  3
ASE_INDEX_DICTIONARY
350
201D
1001
ACAD
1000
TREAT_AS_HARD
1070
     0
1000
TREAT_AS_HARD
1070
     0
  0
DICTIONARY
  5
2022
330
2
100
AcDbDictionary
  3
ACAD_LAYERFILTERS
350
2076
  3
ACAD_LAYERSTATES
350
2023
1001
ACAD
1000
TREAT_AS_HARD
1070
     1
  0
DICTIONARY
  5
1FD7
330
A
100
AcDbDictionary
  3
ACAD_LAYOUTSELFREF
350
209A
1001
ACAD
1000
TREAT_AS_HARD
1070
     1
  0
DICTIONARY
  5
1FD9
330
B
100
AcDbDictionary
  3
ACAD_LAYOUTSELFREF
350
209B
1001
ACAD
1000
TREAT_AS_HARD
1070
     1
  0
DICTIONARY
  5
208C
330
643
100
AcDbDictionary
  3
ACAD_XREC_ROUNDTRIP
350
208D
1001
ACAD
1000
TREAT_AS_HARD
1070
     1
  0
DICTIONARY
  5
2092
330
2069
100
AcDbDictionary
  3
ACAD_XREC_ROUNDTRIP
350
2093
1001
ACAD
1000
TREAT_AS_HARD
1070
     1
  0
DICTIONARY
  5
5F7
102
{ACAD_REACTORS
330
19
102
}
330
19
100
AcDbDictionary
1001
ACAD
1000
TREAT_AS_HARD
1070
     0
1000
TREAT_AS_HARD
1070
     0
  0
DICTIONARY
  5
1A
102
{ACAD_REACTORS
330
19
102
}
330
19
100
AcDbDictionary
  3
DAGROUP391
350
391
  3
DAGROUP395
350
395
  3
DAGROUP398
350
398
  3
DAGROUP39B
350
39B
  3
DAGROUP3A1
350
3A1
  3
DAGROUP3A7
350
3A7
  3
DAGROUP3AD
350
3AD
  3
DAGROUP3B3
350
3B3
  3
DAGROUP3B9
350
3B9
  3
DAGROUP3BF
350
3BF
  3
DAGROUP3C5
350
3C5
  3
DAGROUP3CB
350
3CB
  3
DAGROUP3D1
350
3D1
  3
DAGROUP3D7
350
3D7
  3
DAGROUP3DD
350
3DD
  3
DAGROUP3E1
350
3E1
  3
DAGROUP3E5
350
3E5
  3
DAGROUP3E9
350
3E9
  3
DAGROUP3ED
350
3ED
  3
DAGROUP3F1
350
3F1
  3
DAGROUP3F5
350
3F5
  3
DAGROUP3F9
350
3F9
1001
ACAD
1000
TREAT_AS_HARD
1070
     0
1000
TREAT_AS_HARD
1070
     0
  0
DICTIONARY
  5
566
102
{ACAD_REACTORS
330
19
102
}
330
19
100
AcDbDictionary
1001
ACAD
1000
TREAT_AS_HARD
1070
     0
1000
TREAT_AS_HARD
1070
     0
  0
DICTIONARY
  5
5F6
102
{ACAD_REACTORS
330
19
102
}
330
19
100
AcDbDictionary
1001
ACAD
1000
TREAT_AS_HARD
1070
     0
1000
TREAT_AS_HARD
1070
     0
  0
DICTIONARY
  5
1B
102
{ACAD_REACTORS
330
19
102
}
330
19
100
AcDbDictionary
  3
STANDARD
350
1C
1001
ACAD
1000
TREAT_AS_HARD
1070
     0
1000
TREAT_AS_HARD
1070
     0
  0
DICTIONARY
  5
567
102
{ACAD_REACTORS
330
19
102
}
330
19
100
AcDbDictionary
1001
ACAD
1000
TREAT_AS_HARD
1070
     0
1000
TREAT_AS_HARD
1070
     0
  0
XRECORD
  5
900
102
{ACAD_REACTORS
330
19
102
}
330
19
100
AcDbXrecord
 90
   990106
  3

 60
     0
 61
     0
 62
     1
 63
     3
 64
     1
 65
     0
 66
     0
 67
     3
 68
     1
 69
     0
 70
     0
 71
     0
 72
     0
 40
0.0
170
     2
340
905
  0
DICTIONARY
  5
201D
102
{ACAD_REACTORS
330
19
102
}
330
19
100
AcDbDictionary
  3
ASEBLOCKHIERARCHYINDEXRECORD
350
201E
1001
DCO15
1040
1508669056.718
1001
ACAD
1000
TREAT_AS_HARD
1070
     0
  0
DICTIONARY
  5
2076
102
{ACAD_REACTORS
330
2022
102
}
330
2022
100
AcDbDictionary
1001
ACAD
1000
TREAT_AS_HARD
1070
     0
  0
DICTIONARY
  5
2023
102
{ACAD_REACTORS
330
2022
102
}
330
2022
100
AcDbDictionary
1001
ACAD
1000
TREAT_AS_HARD
1070
     0
  0
XRECORD
  5
209A
102
{ACAD_REACTORS
330
1FD7
102
}
330
1FD7
100
AcDbXrecord
340
A
  0
XRECORD
  5
209B
102
{ACAD_REACTORS
330
1FD9
102
}
330
1FD9
100
AcDbXrecord
340
B
  0
XRECORD
  5
208D
102
{ACAD_REACTORS
330
208C
102
}
330
208C
100
AcDbXrecord
102
SHADEPLOT
 70
     0
  0
XRECORD
  5
2093
102
{ACAD_REACTORS
330
2092
102
}
330
2092
100
AcDbXrecord
102
SHADEPLOT
 70
     0
  0
GROUP
  5
391
102
{ACAD_REACTORS
330
1A
102
}
330
1A
100
AcDbGroup
300

 70
     0
 71
     1
  0
GROUP
  5
395
102
{ACAD_REACTORS
330
1A
102
}
330
1A
100
AcDbGroup
300

 70
     0
 71
     1
  0
GROUP
  5
398
102
{ACAD_REACTORS
330
1A
102
}
330
1A
100
AcDbGroup
300

 70
     0
 71
     1
  0
GROUP
  5
39B
102
{ACAD_REACTORS
330
1A
102
}
330
1A
100
AcDbGroup
300

 70
     0
 71
     1
  0
GROUP
  5
3A1
102
{ACAD_REACTORS
330
1A
102
}
330
1A
100
AcDbGroup
300

 70
     0
 71
     1
  0
GROUP
  5
3A7
102
{ACAD_REACTORS
330
1A
102
}
330
1A
100
AcDbGroup
300

 70
     0
 71
     1
  0
GROUP
  5
3AD
102
{ACAD_REACTORS
330
1A
102
}
330
1A
100
AcDbGroup
300

 70
     0
 71
     1
  0
GROUP
  5
3B3
102
{ACAD_REACTORS
330
1A
102
}
330
1A
100
AcDbGroup
300

 70
     0
 71
     1
  0
GROUP
  5
3B9
102
{ACAD_REACTORS
330
1A
102
}
330
1A
100
AcDbGroup
300

 70
     0
 71
     1
  0
GROUP
  5
3BF
102
{ACAD_REACTORS
330
1A
102
}
330
1A
100
AcDbGroup
300

 70
     0
 71
     1
  0
GROUP
  5
3C5
102
{ACAD_REACTORS
330
1A
102
}
330
1A
100
AcDbGroup
300

 70
     0
 71
     1
  0
GROUP
  5
3CB
102
{ACAD_REACTORS
330
1A
102
}
330
1A
100
AcDbGroup
300

 70
     0
 71
     1
  0
GROUP
  5
3D1
102
{ACAD_REACTORS
330
1A
102
}
330
1A
100
AcDbGroup
300

 70
     0
 71
     1
  0
GROUP
  5
3D7
102
{ACAD_REACTORS
330
1A
102
}
330
1A
100
AcDbGroup
300

 70
     0
 71
     1
  0
GROUP
  5
3DD
102
{ACAD_REACTORS
330
1A
102
}
330
1A
100
AcDbGroup
300

 70
     0
 71
     1
  0
GROUP
  5
3E1
102
{ACAD_REACTORS
330
1A
102
}
330
1A
100
AcDbGroup
300

 70
     0
 71
     1
  0
GROUP
  5
3E5
102
{ACAD_REACTORS
330
1A
102
}
330
1A
100
AcDbGroup
300

 70
     0
 71
     1
  0
GROUP
  5
3E9
102
{ACAD_REACTORS
330
1A
102
}
330
1A
100
AcDbGroup
300

 70
     0
 71
     1
  0
GROUP
  5
3ED
102
{ACAD_REACTORS
330
1A
102
}
330
1A
100
AcDbGroup
300

 70
     0
 71
     1
  0
GROUP
  5
3F1
102
{ACAD_REACTORS
330
1A
102
}
330
1A
100
AcDbGroup
300

 70
     0
 71
     1
  0
GROUP
  5
3F5
102
{ACAD_REACTORS
330
1A
102
}
330
1A
100
AcDbGroup
300

 70
     0
 71
     1
  0
GROUP
  5
3F9
102
{ACAD_REACTORS
330
1A
102
}
330
1A
100
AcDbGroup
300

 70
     0
 71
     1
  0
MLINESTYLE
  5
1C
102
{ACAD_REACTORS
330
1B
102
}
330
1B
100
AcDbMlineStyle
  2
STANDARD
 70
     0
  3

 62
     0
 51
90.00000000000019
 52
90.00000000000019
 71
     2
 49
0.5
 62
   256
  6
BYLAYER
 49
-0.5
 62
   256
  6
BYLAYER
  0
XRECORD
  5
201E
102
{ACAD_REACTORS
330
201D
102
}
330
201D
100
AcDbXrecord
330
143F
330
1440
330
1437
330
1438
330
142E
330
142F
330
1423
330
1424
330
141A
330
141B
330
140E
330
140F
330
1406
330
1407
330
13FB
330
13FC
330
13F2
330
13F3
330
13E7
330
13E8
330
13C1
330
13C2
330
13B5
330
13B6
330
13AC
330
13AD
330
13A3
330
13A4
330
139A
330
139B
330
170F
330
1710
330
148E
330
148F
330
136B
330
136C
330
1706
330
1707
330
1357
330
1358
330
14C2
330
14C3
330
1F73
330
1F74
330
133E
330
133F
330
1C74
330
1C75
330
1C6C
330
1C6D
330
16CA
330
16CB
330
16D3
330
16D4
330
16DF
330
16E0
330
1FF9
330
1FFA
330
16F2
330
16F3
330
2004
330
2005
330
1F1A
330
1F1B
330
1F6B
330
1F6C
  0
ENDSEC
  0
EOF
