  0
SECTION
  2
HEADER
  9
$ACADVER
  1
AC1012
  9
$DWGCODEPAGE
  3
dos932
  9
$INSBASE
 10
0.0
 20
0.0
 30
0.0
  9
$EXTMIN
 10
0.0
 20
0.0
 30
0.0
  9
$EXTMAX
 10
420.0000000000001
 20
594.0
 30
0.0
  9
$LIMMIN
 10
0.0
 20
0.0
  9
$LIMMAX
 10
420.0000000000001
 20
594.0
  9
$ORTHOMODE
 70
     0
  9
$REGENMODE
 70
     1
  9
$FILLMODE
 70
     1
  9
$QTEXTMODE
 70
     0
  9
$MIRRTEXT
 70
     1
  9
$DRAGMODE
 70
     2
  9
$LTSCALE
 40
0.3
  9
$OSMODE
 70
    37
  9
$ATTMODE
 70
     1
  9
$TEXTSIZE
 40
7.0
  9
$TRACEWID
 40
0.05
  9
$TEXTSTYLE
  7
STANDARD
  9
$CLAYER
  8
DEFPOINTS
  9
$CELTYPE
  6
BYLAYER
  9
$CECOLOR
 62
   256
  9
$CELTSCALE
 40
1.0
  9
$DELOBJ
 70
     1
  9
$DISPSILH
 70
     0
  9
$DIMSCALE
 40
2.0
  9
$DIMASZ
 40
2.5
  9
$DIMEXO
 40
1.5
  9
$DIMDLI
 40
0.0
  9
$DIMRND
 40
0.0
  9
$DIMDLE
 40
0.0
  9
$DIMEXE
 40
1.0
  9
$DIMTP
 40
0.0
  9
$DIMTM
 40
0.0
  9
$DIMTXT
 40
2.5
  9
$DIMCEN
 40
0.0
  9
$DIMTSZ
 40
0.0
  9
$DIMTOL
 70
     0
  9
$DIMLIM
 70
     0
  9
$DIMTIH
 70
     0
  9
$DIMTOH
 70
     0
  9
$DIMSE1
 70
     0
  9
$DIMSE2
 70
     0
  9
$DIMTAD
 70
     1
  9
$DIMZIN
 70
     8
  9
$DIMBLK
  1
OPEN30
  9
$DIMASO
 70
     1
  9
$DIMSHO
 70
     1
  9
$DIMPOST
  1

  9
$DIMAPOST
  1

  9
$DIMALT
 70
     0
  9
$DIMALTD
 70
     2
  9
$DIMALTF
 40
25.4
  9
$DIMLFAC
 40
1.0
  9
$DIMTOFL
 70
     1
  9
$DIMTVP
 40
0.0
  9
$DIMTIX
 70
     0
  9
$DIMSOXD
 70
     0
  9
$DIMSAH
 70
     0
  9
$DIMBLK1
  1

  9
$DIMBLK2
  1

  9
$DIMSTYLE
  2
SUNPOU_2
  9
$DIMCLRD
 70
   256
  9
$DIMCLRE
 70
   256
  9
$DIMCLRT
 70
   256
  9
$DIMTFAC
 40
1.0
  9
$DIMGAP
 40
1.0
  9
$DIMJUST
 70
     0
  9
$DIMSD1
 70
     0
  9
$DIMSD2
 70
     0
  9
$DIMTOLJ
 70
     1
  9
$DIMTZIN
 70
     0
  9
$DIMALTZ
 70
     0
  9
$DIMALTTZ
 70
     0
  9
$DIMFIT
 70
     3
  9
$DIMUPT
 70
     0
  9
$DIMUNIT
 70
     2
  9
$DIMDEC
 70
     1
  9
$DIMTDEC
 70
     1
  9
$DIMALTU
 70
     2
  9
$DIMALTTD
 70
     2
  9
$DIMTXSTY
  7
SUNPOU
  9
$DIMAUNIT
 70
     0
  9
$LUNITS
 70
     2
  9
$LUPREC
 70
     4
  9
$SKETCHINC
 40
0.1
  9
$FILLETRAD
 40
0.0
  9
$AUNITS
 70
     0
  9
$AUPREC
 70
     0
  9
$MENU
  1
acad
  9
$ELEVATION
 40
0.0
  9
$PELEVATION
 40
0.0
  9
$THICKNESS
 40
0.0
  9
$LIMCHECK
 70
     0
  9
$BLIPMODE
 70
     0
  9
$CHAMFERA
 40
0.0
  9
$CHAMFERB
 40
0.0
  9
$CHAMFERC
 40
0.0
  9
$CHAMFERD
 40
0.0
  9
$SKPOLY
 70
     0
  9
$TDCREATE
 40
2444972.375000000
  9
$TDUPDATE
 40
2453266.401704456
  9
$TDINDWG
 40
0.8602969444
  9
$TDUSRTIMER
 40
0.8602969444
  9
$USRTIMER
 70
     1
  9
$ANGBASE
 50
0.0
  9
$ANGDIR
 70
     0
  9
$PDMODE
 70
     0
  9
$PDSIZE
 40
1.0
  9
$PLINEWID
 40
0.0
  9
$COORDS
 70
     1
  9
$SPLFRAME
 70
     0
  9
$SPLINETYPE
 70
     6
  9
$SPLINESEGS
 70
     8
  9
$ATTDIA
 70
     0
  9
$ATTREQ
 70
     1
  9
$HANDLING
 70
-16383
  9
$HANDSEED
  5
30E8
  9
$SURFTAB1
 70
     6
  9
$SURFTAB2
 70
     6
  9
$SURFTYPE
 70
     6
  9
$SURFU
 70
     6
  9
$SURFV
 70
     6
  9
$UCSNAME
  2

  9
$UCSORG
 10
0.0
 20
0.0
 30
0.0
  9
$UCSXDIR
 10
1.0
 20
0.0
 30
0.0
  9
$UCSYDIR
 10
0.0
 20
1.0
 30
0.0
  9
$PUCSNAME
  2

  9
$PUCSORG
 10
0.0
 20
0.0
 30
0.0
  9
$PUCSXDIR
 10
1.0
 20
0.0
 30
0.0
  9
$PUCSYDIR
 10
0.0
 20
1.0
 30
0.0
  9
$USERI1
 70
     0
  9
$USERI2
 70
     0
  9
$USERI3
 70
     0
  9
$USERI4
 70
     0
  9
$USERI5
 70
     0
  9
$USERR1
 40
0.0
  9
$USERR2
 40
0.0
  9
$USERR3
 40
0.0
  9
$USERR4
 40
0.0
  9
$USERR5
 40
0.0
  9
$WORLDVIEW
 70
     1
  9
$SHADEDGE
 70
     3
  9
$SHADEDIF
 70
    70
  9
$TILEMODE
 70
     1
  9
$MAXACTVP
 70
    16
  9
$PINSBASE
 10
0.0
 20
0.0
 30
0.0
  9
$PLIMCHECK
 70
     0
  9
$PEXTMIN
 10
-0.1631446651821307
 20
-0.0031352180712929
 30
-0.0000000349181948
  9
$PEXTMAX
 10
396.2968488784589
 20
570.3780354545615
 30
0.0000000814935747
  9
$PLIMMIN
 10
-11.91043238214175
 20
-11.73063086931641
  9
$PLIMMAX
 10
408.0362228912957
 20
582.1213588767773
  9
$UNITMODE
 70
     0
  9
$VISRETAIN
 70
     0
  9
$PLINEGEN
 70
     1
  9
$PSLTSCALE
 70
     0
  9
$TREEDEPTH
 70
  3020
  9
$PICKSTYLE
 70
     1
  9
$CMLSTYLE
  2
STANDARD
  9
$CMLJUST
 70
     0
  9
$CMLSCALE
 40
1.0
  9
$SAVEIMAGES
 70
     1
  0
ENDSEC
  0
SECTION
  2
CLASSES
  0
CLASS
  1
LWPOLYLINE
  2
AcDbPolyline
  3
AutoCAD 2000
 90
    32768
280
     0
281
     1
  0
CLASS
  1
IMAGE
  2
AcDbRasterImage
  3
ISM
 90
    32895
280
     0
281
     1
  0
CLASS
  1
OLE2FRAME
  2
AcDbOle2Frame
  3
AutoCAD 2000
 90
    32768
280
     0
281
     1
  0
CLASS
  1
HATCH
  2
AcDbHatch
  3
AutoCAD 2000
 90
    32768
280
     0
281
     1
  0
CLASS
  1
DICTIONARYVAR
  2
AcDbDictionaryVar
  3
AutoCAD 2000
 90
    32768
280
     0
281
     0
  0
CLASS
  1
RASTERVARIABLES
  2
AcDbRasterVariables
  3
ISM
 90
    32768
280
     0
281
     0
  0
CLASS
  1
IMAGEDEF
  2
AcDbRasterImageDef
  3
ISM
 90
    32768
280
     0
281
     0
  0
CLASS
  1
IMAGEDEF_REACTOR
  2
AcDbRasterImageDefReactor
  3
ISM
 90
    32769
280
     0
281
     0
  0
CLASS
  1
IDBUFFER
  2
AcDbIdBuffer
  3
AutoCAD 2000
 90
    32768
280
     0
281
     0
  0
CLASS
  1
SPATIAL_FILTER
  2
AcDbSpatialFilter
  3
AutoCAD 2000
 90
    32768
280
     0
281
     0
  0
CLASS
  1
XRECORD
  2
AcDbXrecord
  3
AutoCAD 2000
 90
    32768
280
     0
281
     0
  0
CLASS
  1
SORTENTSTABLE
  2
AcDbSortentsTable
  3
AutoCAD 2000
 90
    32768
280
     0
281
     0
  0
CLASS
  1
LAYER_INDEX
  2
AcDbLayerIndex
  3
AutoCAD 2000
 90
    32768
280
     0
281
     0
  0
CLASS
  1
SPATIAL_INDEX
  2
AcDbSpatialIndex
  3
AutoCAD 2000
 90
    32768
280
     0
281
     0
  0
CLASS
  1
OBJECT_PTR
  2
CAseDLPNTableRecord
  3
ASE-LPNTableRecord
 90
    32769
280
     0
281
     0
  0
CLASS
  1
ACDBDICTIONARYWDFLT
  2
AcDbDictionaryWithDefault
  3
AutoCAD 2000
 90
    32768
280
     0
281
     0
  0
CLASS
  1
ACDBPLACEHOLDER
  2
AcDbPlaceHolder
  3
AutoCAD 2000
 90
    32768
280
     0
281
     0
  0
CLASS
  1
LAYOUT
  2
AcDbLayout
  3
AutoCAD 2000
 90
    32768
280
     0
281
     0
  0
CLASS
  1
LONG_TRANSACTION
  2
AcDbLongTransaction
  3
AutoCAD 2000
 90
    32768
280
     0
281
     0
  0
CLASS
  1
LWPOLYLINE
  2
AcDbPolyline
  3
AutoCAD 2000
 90
    32768
280
     0
281
     1
  0
CLASS
  1
HATCH
  2
AcDbHatch
  3
AutoCAD 2000
 90
    32768
280
     0
281
     1
  0
CLASS
  1
XRECORD
  2
AcDbXrecord
  3
AutoCAD 2000
 90
    32768
280
     0
281
     0
  0
CLASS
  1
LONG_TRANSACTION
  2
AcDbLongTransaction
  3
AutoCAD 2000
 90
    32768
280
     0
281
     0
  0
CLASS
  1
LWPOLYLINE
  2
AcDbPolyline
  3
AutoCAD 2000
 90
    32768
280
     0
281
     1
  0
CLASS
  1
HATCH
  2
AcDbHatch
  3
AutoCAD 2000
 90
    32768
280
     0
281
     1
  0
CLASS
  1
XRECORD
  2
AcDbXrecord
  3
AutoCAD 2000
 90
    32768
280
     0
281
     0
  0
CLASS
  1
LONG_TRANSACTION
  2
AcDbLongTransaction
  3
AutoCAD 2000
 90
    32768
280
     0
281
     0
  0
CLASS
  1
LWPOLYLINE
  2
AcDbPolyline
  3
AutoCAD 2000
 90
    32768
280
     0
281
     1
  0
CLASS
  1
HATCH
  2
AcDbHatch
  3
AutoCAD 2000
 90
    32768
280
     0
281
     1
  0
CLASS
  1
XRECORD
  2
AcDbXrecord
  3
AutoCAD 2000
 90
    32768
280
     0
281
     0
  0
ENDSEC
  0
SECTION
  2
TABLES
  0
TABLE
  2
VPORT
  5
7
330
0
100
AcDbSymbolTable
 70
     2
  0
VPORT
  5
30C8
330
7
100
AcDbSymbolTableRecord
100
AcDbViewportTableRecord
  2
*ACTIVE
 70
     0
 10
0.0
 20
0.0
 11
1.0
 21
1.0
 12
229.3320061298389
 22
297.0000027661125
 13
0.0
 23
0.0
 14
1.0
 24
1.0
 15
0.0
 25
0.0
 16
0.0
 26
0.0
 36
1.0
 17
0.0
 27
0.0
 37
0.0
 40
601.5566367893079
 41
1.780442804428044
 42
50.0
 43
0.0
 44
0.0
 50
0.0
 51
0.0
 71
     0
 72
   100
 73
     1
 74
     1
 75
     0
 76
     0
 77
     0
 78
     0
  0
ENDTAB
  0
TABLE
  2
LTYPE
  5
4
330
0
100
AcDbSymbolTable
 70
     4
  0
LTYPE
  5
11
330
4
100
AcDbSymbolTableRecord
100
AcDbLinetypeTableRecord
  2
BYBLOCK
 70
     0
  3

 72
    65
 73
     0
 40
0.0
  0
LTYPE
  5
12
330
4
100
AcDbSymbolTableRecord
100
AcDbLinetypeTableRecord
  2
BYLAYER
 70
     0
  3

 72
    65
 73
     0
 40
0.0
  0
LTYPE
  5
13
330
4
100
AcDbSymbolTableRecord
100
AcDbLinetypeTableRecord
  2
CONTINUOUS
 70
     0
  3
Solid line
 72
    65
 73
     0
 40
0.0
  0
LTYPE
  5
5C8
330
4
100
AcDbSymbolTableRecord
100
AcDbLinetypeTableRecord
  2
CENTER2
 70
     0
  3
Center (.5x) ___ _ ___ _ ___ _ ___ _ ___ _ ___
 72
    65
 73
     4
 40
28.57499999999999
 49
19.05
 74
     0
 49
-3.174999999999998
 74
     0
 49
3.174999999999998
 74
     0
 49
-3.174999999999998
 74
     0
  0
LTYPE
  5
5C9
330
4
100
AcDbSymbolTableRecord
100
AcDbLinetypeTableRecord
  2
DASHED2
 70
     0
  3
Dashed (.5x) _ _ _ _ _ _ _ _ _ _ _ _ _ _ _ _ _
 72
    65
 73
     2
 40
9.524999999999996
 49
6.349999999999997
 74
     0
 49
-3.174999999999998
 74
     0
  0
LTYPE
  5
FDB
330
4
100
AcDbSymbolTableRecord
100
AcDbLinetypeTableRecord
  2
PHANTOM2
 70
     0
  3
Phantom (.5x) ___ _ _ ___ _ _ ___ _ _ ___ _ _
 72
    65
 73
     6
 40
31.75
 49
15.875
 74
     0
 49
-3.174999999999998
 74
     0
 49
3.174999999999998
 74
     0
 49
-3.174999999999998
 74
     0
 49
3.174999999999998
 74
     0
 49
-3.174999999999998
 74
     0
  0
ENDTAB
  0
TABLE
  2
LAYER
  5
2
102
{ACAD_XDICTIONARY
360
305E
102
}
330
0
100
AcDbSymbolTable
 70
    13
  0
LAYER
  5
14
330
2
100
AcDbSymbolTableRecord
100
AcDbLayerTableRecord
  2
0
 70
     0
 62
     7
  6
CONTINUOUS
  0
LAYER
  5
5CB
330
2
100
AcDbSymbolTableRecord
100
AcDbLayerTableRecord
  2
DEFPOINTS
 70
     0
 62
     7
  6
CONTINUOUS
  0
LAYER
  5
5CC
330
2
100
AcDbSymbolTableRecord
100
AcDbLayerTableRecord
  2
03
 70
     0
 62
     3
  6
CONTINUOUS
  0
LAYER
  5
5CF
330
2
100
AcDbSymbolTableRecord
100
AcDbLayerTableRecord
  2
CHUSIN
 70
     0
 62
     6
  6
CENTER2
  0
LAYER
  5
5D0
330
2
100
AcDbSymbolTableRecord
100
AcDbLayerTableRecord
  2
HIKIDASI
 70
     0
 62
     6
  6
CONTINUOUS
  0
LAYER
  5
5D1
330
2
100
AcDbSymbolTableRecord
100
AcDbLayerTableRecord
  2
KAKURE
 70
     0
 62
     6
  6
DASHED2
  0
LAYER
  5
5D2
330
2
100
AcDbSymbolTableRecord
100
AcDbLayerTableRecord
  2
MOJI
 70
     0
 62
     3
  6
CONTINUOUS
  0
LAYER
  5
5D4
330
2
100
AcDbSymbolTableRecord
100
AcDbLayerTableRecord
  2
SUNPOU
 70
     0
 62
     6
  6
CONTINUOUS
  0
LAYER
  5
D08
330
2
100
AcDbSymbolTableRecord
100
AcDbLayerTableRecord
  2
SAISEN
 70
     0
 62
     3
  6
CONTINUOUS
  0
LAYER
  5
283D
330
2
100
AcDbSymbolTableRecord
100
AcDbLayerTableRecord
  2
02
 70
     0
 62
     2
  6
CONTINUOUS
  0
LAYER
  5
2A10
330
2
100
AcDbSymbolTableRecord
100
AcDbLayerTableRecord
  2
SOUZOU
 70
     0
 62
     6
  6
PHANTOM2
  0
LAYER
  5
2CD5
330
2
100
AcDbSymbolTableRecord
100
AcDbLayerTableRecord
  2
04
 70
     0
 62
     4
  6
CONTINUOUS
  0
LAYER
  5
2CF0
330
2
100
AcDbSymbolTableRecord
100
AcDbLayerTableRecord
  2
06
 70
     0
 62
     6
  6
CONTINUOUS
  0
ENDTAB
  0
TABLE
  2
STYLE
  5
3
330
0
100
AcDbSymbolTable
 70
     5
  0
STYLE
  5
17
330
3
100
AcDbSymbolTableRecord
100
AcDbTextStyleTableRecord
  2
STANDARD
 70
     0
 40
0.0
 41
0.9
 50
0.0
 71
     0
 42
7.0
  3
txt.shx
  4
bigfont.shx
  0
STYLE
  5
5DF
330
3
100
AcDbSymbolTableRecord
100
AcDbTextStyleTableRecord
  2
SUNPOU
 70
     0
 40
0.0
 41
0.8
 50
0.0
 71
     0
 42
3.5
  3
txt.shx
  4
extfont.shx
  0
STYLE
  5
5E6
330
3
100
AcDbSymbolTableRecord
100
AcDbTextStyleTableRecord
  2
0_8
 70
     0
 40
0.0
 41
0.8
 50
0.0
 71
     0
 42
6.0
  3
txt.shx
  4
extfont.shx
  0
STYLE
  5
B76
330
3
100
AcDbSymbolTableRecord
100
AcDbTextStyleTableRecord
  2
0_7
 70
     0
 40
0.0
 41
0.7
 50
0.0
 71
     0
 42
0.2
  3
txt.shx
  4
extfont.shx
  0
STYLE
  5
305C
330
3
100
AcDbSymbolTableRecord
100
AcDbTextStyleTableRecord
  2
0_80
 70
     0
 40
0.0
 41
0.8
 50
0.0
 71
     0
 42
7.0
  3
txt.shx
  4
extfont.shx
  0
ENDTAB
  0
TABLE
  2
VIEW
  5
5
330
0
100
AcDbSymbolTable
 70
     1
  0
VIEW
  5
136
330
5
100
AcDbSymbolTableRecord
100
AcDbViewTableRecord
  2
QQQQ
 70
     0
 40
618.7999999999997
 10
-6.0
 20
-1.0
 41
419.8999999999998
 11
0.0
 21
0.0
 31
1.0
 12
100.0
 22
100.0
 32
0.0
 42
50.0
 43
0.0
 44
0.0
 50
0.0
 71
     0
  0
ENDTAB
  0
TABLE
  2
UCS
  5
6
330
0
100
AcDbSymbolTable
 70
     0
  0
ENDTAB
  0
TABLE
  2
APPID
  5
8
330
0
100
AcDbSymbolTable
 70
     3
  0
APPID
  5
16
330
8
100
AcDbSymbolTableRecord
100
AcDbRegAppTableRecord
  2
ACAD
 70
     0
  0
APPID
  5
82A
330
8
100
AcDbSymbolTableRecord
100
AcDbRegAppTableRecord
  2
DCO15
 70
     0
  0
APPID
  5
2FE0
330
8
100
AcDbSymbolTableRecord
100
AcDbRegAppTableRecord
  2
CONTENTBLOCKICON
 70
     0
  0
ENDTAB
  0
TABLE
  2
DIMSTYLE
  5
9
330
0
100
AcDbSymbolTable
 70
     2
  0
DIMSTYLE
105
18
330
9
100
AcDbSymbolTableRecord
100
AcDbDimStyleTableRecord
  2
STANDARD
 70
     0
  3

  4

  5

  6

  7

 40
1.0
 41
0.18
 42
0.0625
 43
0.38
 44
0.18
 45
0.0
 46
0.0
 47
0.0
 48
0.0
140
0.18
141
0.09
142
0.0
143
25.4
144
1.0
145
0.0
146
1.0
147
0.09
 71
     0
 72
     0
 73
     1
 74
     1
 75
     0
 76
     0
 77
     0
 78
     0
170
     0
171
     2
172
     0
173
     0
174
     0
175
     0
176
     0
177
     0
178
     0
270
     2
271
     4
272
     4
273
     2
274
     2
340
17
275
     0
280
     0
281
     0
282
     0
283
     1
284
     0
285
     0
286
     0
287
     3
288
     0
  0
DIMSTYLE
105
5E0
102
{ACAD_REACTORS
330
658
330
664
330
670
330
67F
330
68B
330
6AC
330
6B9
330
6C7
330
6D4
330
6E2
330
6ED
330
6FC
330
709
330
716
330
725
330
732
330
73F
330
74C
330
776
330
783
330
79F
330
7AE
330
7BB
330
768
330
901
330
904
330
1029
330
22F9
330
2325
330
2332
330
241B
330
2594
102
}
330
9
100
AcDbSymbolTableRecord
100
AcDbDimStyleTableRecord
  2
SUNPOU_2
 70
     0
  3

  4

  5
OPEN30
  6

  7

 40
2.0
 41
2.5
 42
1.5
 43
0.0
 44
1.0
 45
0.0
 46
0.0
 47
0.0
 48
0.0
140
2.5
141
0.0
142
0.0
143
25.4
144
1.0
145
0.0
146
1.0
147
1.0
 71
     0
 72
     0
 73
     0
 74
     0
 75
     0
 76
     0
 77
     1
 78
     8
170
     0
171
     2
172
     1
173
     0
174
     0
175
     0
176
   256
177
   256
178
   256
270
     2
271
     1
272
     1
273
     2
274
     2
340
5DF
275
     0
280
     0
281
     0
282
     0
283
     1
284
     0
285
     0
286
     0
287
     3
288
     0
  0
ENDTAB
  0
TABLE
  2
BLOCK_RECORD
  5
1
330
0
100
AcDbSymbolTable
 70
    32
  0
BLOCK_RECORD
  5
A
102
{ACAD_XDICTIONARY
360
2FDC
102
}
330
1
100
AcDbSymbolTableRecord
100
AcDbBlockTableRecord
  2
*MODEL_SPACE
  0
BLOCK_RECORD
  5
B
102
{ACAD_XDICTIONARY
360
2FDE
102
}
330
1
100
AcDbSymbolTableRecord
100
AcDbBlockTableRecord
  2
*PAPER_SPACE
  0
BLOCK_RECORD
  5
5D9
330
1
100
AcDbSymbolTableRecord
100
AcDbBlockTableRecord
  2
_OPEN30
1001
CONTENTBLOCKICON
1071
        0
1004
2800000020000000200000000100080000000000000400000000000000000000000000000000000000000000000080000080000000808000800000008000800080800000C0C0C000C0DCC000F0CAA6000020400000206000002080000020A0000020C0000020E00000400000004020000040400000406000004080000040A0
1004
000040C0000040E00000600000006020000060400000606000006080000060A0000060C0000060E00000800000008020000080400000806000008080000080A0000080C0000080E00000A0000000A0200000A0400000A0600000A0800000A0A00000A0C00000A0E00000C0000000C0200000C0400000C0600000C0800000C0
1004
A00000C0C00000C0E00000E0000000E0200000E0400000E0600000E0800000E0A00000E0C00000E0E00040000000400020004000400040006000400080004000A0004000C0004000E00040200000402020004020400040206000402080004020A0004020C0004020E000404000004040200040404000404060004040800040
1004
40A0004040C0004040E00040600000406020004060400040606000406080004060A0004060C0004060E00040800000408020004080400040806000408080004080A0004080C0004080E00040A0000040A0200040A0400040A0600040A0800040A0A00040A0C00040A0E00040C0000040C0200040C0400040C0600040C08000
1004
40C0A00040C0C00040C0E00040E0000040E0200040E0400040E0600040E0800040E0A00040E0C00040E0E00080000000800020008000400080006000800080008000A0008000C0008000E00080200000802020008020400080206000802080008020A0008020C0008020E00080400000804020008040400080406000804080
1004
008040A0008040C0008040E00080600000806020008060400080606000806080008060A0008060C0008060E00080800000808020008080400080806000808080008080A0008080C0008080E00080A0000080A0200080A0400080A0600080A0800080A0A00080A0C00080A0E00080C0000080C0200080C0400080C0600080C0
1004
800080C0A00080C0C00080C0E00080E0000080E0200080E0400080E0600080E0800080E0A00080E0C00080E0E000C0000000C0002000C0004000C0006000C0008000C000A000C000C000C000E000C0200000C0202000C0204000C0206000C0208000C020A000C020C000C020E000C0400000C0402000C0404000C0406000C0
1004
408000C040A000C040C000C040E000C0600000C0602000C0604000C0606000C0608000C060A000C060C000C060E000C0800000C0802000C0804000C0806000C0808000C080A000C080C000C080E000C0A00000C0A02000C0A04000C0A06000C0A08000C0A0A000C0A0C000C0A0E000C0C00000C0C02000C0C04000C0C06000
1004
C0C08000C0C0A000F0FBFF00A4A0A000808080000000FF0000FF000000FFFF00FF000000FF00FF00FFFF0000FFFFFF0000000000000000000000000000000000000000000000000000000000000000000000000000000000000000000000000000000000000000000000000000000000000000000000000000000000000000
1004
00000000000000000000000000000000000000000000000000000000000000000000000000000000000000000000000000000000000000000000000000000000000000000000000000000000000000000000000000000000000000000000000000000000000000000000000000000000000000000000000000000000000000
1004
000000000000000000000000000000000000000000000000000000000000000000000000000000000000000000000000000000FFFF0000000000000000000000000000000000000000000000000000000000000000FFFFFFFF0000000000000000000000000000000000000000000000000000000000000000FFFFFFFF0000
1004
000000000000000000000000000000000000000000000000000000000000FFFFFF0000000000000000000000000000000000000000000000000000000000000000FFFFFFFF0000000000000000000000000000000000000000000000000000000000000000FFFFFF0000000000000000000000000000000000000000000000
1004
000000000000000000FFFFFFFF0000000000000000000000000000000000000000000000000000000000000000FFFFFFFF00000000FFFFFFFFFFFFFFFFFFFFFFFFFFFFFFFFFFFFFFFFFFFFFFFFFFFFFFFFFFFF00000000000000000000000000000000000000000000000000FFFFFFFF000000000000000000000000000000
1004
000000000000000000FFFFFFFF000000000000000000000000000000000000000000000000FFFFFFFF000000000000000000000000000000000000000000000000FFFFFFFF000000000000000000000000000000000000000000000000FFFFFFFF000000000000000000000000000000000000000000000000FFFFFFFF0000
1004
0000000000000000000000000000000000000000000000FFFFFF0000000000000000000000000000000000000000000000000000000000000000000000000000000000000000000000000000000000000000000000000000000000000000000000000000000000000000000000000000000000000000000000000000000000
1004
00000000000000000000000000000000000000000000000000000000000000000000000000000000000000000000000000000000000000000000000000000000000000000000000000000000000000000000000000000000000000000000000000000000000000000000000000000000000000000000000000000000000000
1004
0000000000000000000000000000000000000000000000000000000000000000000000000000000000000000000000000000000000000000
  0
BLOCK_RECORD
  5
659
330
1
100
AcDbSymbolTableRecord
100
AcDbBlockTableRecord
  2
*D1
  0
BLOCK_RECORD
  5
665
330
1
100
AcDbSymbolTableRecord
100
AcDbBlockTableRecord
  2
*D2
  0
BLOCK_RECORD
  5
671
330
1
100
AcDbSymbolTableRecord
100
AcDbBlockTableRecord
  2
*D3
  0
BLOCK_RECORD
  5
680
330
1
100
AcDbSymbolTableRecord
100
AcDbBlockTableRecord
  2
*D4
  0
BLOCK_RECORD
  5
68C
330
1
100
AcDbSymbolTableRecord
100
AcDbBlockTableRecord
  2
*D5
  0
BLOCK_RECORD
  5
6AD
330
1
100
AcDbSymbolTableRecord
100
AcDbBlockTableRecord
  2
*D6
  0
BLOCK_RECORD
  5
6BA
330
1
100
AcDbSymbolTableRecord
100
AcDbBlockTableRecord
  2
*D7
  0
BLOCK_RECORD
  5
6C8
330
1
100
AcDbSymbolTableRecord
100
AcDbBlockTableRecord
  2
*D8
  0
BLOCK_RECORD
  5
6D5
330
1
100
AcDbSymbolTableRecord
100
AcDbBlockTableRecord
  2
*D9
  0
BLOCK_RECORD
  5
6E3
330
1
100
AcDbSymbolTableRecord
100
AcDbBlockTableRecord
  2
*D10
  0
BLOCK_RECORD
  5
6EE
330
1
100
AcDbSymbolTableRecord
100
AcDbBlockTableRecord
  2
*D11
  0
BLOCK_RECORD
  5
6FD
330
1
100
AcDbSymbolTableRecord
100
AcDbBlockTableRecord
  2
*D12
  0
BLOCK_RECORD
  5
70A
330
1
100
AcDbSymbolTableRecord
100
AcDbBlockTableRecord
  2
*D13
  0
BLOCK_RECORD
  5
717
330
1
100
AcDbSymbolTableRecord
100
AcDbBlockTableRecord
  2
*D14
  0
BLOCK_RECORD
  5
726
330
1
100
AcDbSymbolTableRecord
100
AcDbBlockTableRecord
  2
*D15
  0
BLOCK_RECORD
  5
733
330
1
100
AcDbSymbolTableRecord
100
AcDbBlockTableRecord
  2
*D16
  0
BLOCK_RECORD
  5
740
330
1
100
AcDbSymbolTableRecord
100
AcDbBlockTableRecord
  2
*D17
  0
BLOCK_RECORD
  5
74D
330
1
100
AcDbSymbolTableRecord
100
AcDbBlockTableRecord
  2
*D18
  0
BLOCK_RECORD
  5
769
330
1
100
AcDbSymbolTableRecord
100
AcDbBlockTableRecord
  2
*D19
  0
BLOCK_RECORD
  5
777
330
1
100
AcDbSymbolTableRecord
100
AcDbBlockTableRecord
  2
*D20
  0
BLOCK_RECORD
  5
784
330
1
100
AcDbSymbolTableRecord
100
AcDbBlockTableRecord
  2
*D21
  0
BLOCK_RECORD
  5
7A0
330
1
100
AcDbSymbolTableRecord
100
AcDbBlockTableRecord
  2
*D22
  0
BLOCK_RECORD
  5
7AF
330
1
100
AcDbSymbolTableRecord
100
AcDbBlockTableRecord
  2
*D23
  0
BLOCK_RECORD
  5
7BC
330
1
100
AcDbSymbolTableRecord
100
AcDbBlockTableRecord
  2
*D24
  0
BLOCK_RECORD
  5
102B
330
1
100
AcDbSymbolTableRecord
100
AcDbBlockTableRecord
  2
*D25
  0
BLOCK_RECORD
  5
22FA
330
1
100
AcDbSymbolTableRecord
100
AcDbBlockTableRecord
  2
*D26
  0
BLOCK_RECORD
  5
2326
330
1
100
AcDbSymbolTableRecord
100
AcDbBlockTableRecord
  2
*D27
  0
BLOCK_RECORD
  5
2333
330
1
100
AcDbSymbolTableRecord
100
AcDbBlockTableRecord
  2
*D28
  0
BLOCK_RECORD
  5
23D5
330
1
100
AcDbSymbolTableRecord
100
AcDbBlockTableRecord
  2
_DOTSMALL
  0
BLOCK_RECORD
  5
241C
330
1
100
AcDbSymbolTableRecord
100
AcDbBlockTableRecord
  2
*D30
  0
BLOCK_RECORD
  5
2595
330
1
100
AcDbSymbolTableRecord
100
AcDbBlockTableRecord
  2
*D31
  0
ENDTAB
  0
ENDSEC
  0
SECTION
  2
BLOCKS
  0
BLOCK
  5
D
330
A
100
AcDbEntity
  8
0
100
AcDbBlockBegin
  2
*MODEL_SPACE
 70
     0
 10
0.0
 20
0.0
 30
0.0
  3
*MODEL_SPACE
  1

  0
ENDBLK
  5
E
330
A
100
AcDbEntity
  8
0
100
AcDbBlockEnd
  0
BLOCK
  5
F
330
B
100
AcDbEntity
 67
     1
  8
0
100
AcDbBlockBegin
  2
*PAPER_SPACE
 70
     0
 10
0.0
 20
0.0
 30
0.0
  3
*PAPER_SPACE
  1

  0
ENDBLK
  5
10
330
B
100
AcDbEntity
 67
     1
  8
0
100
AcDbBlockEnd
  0
BLOCK
  5
5DD
330
5D9
100
AcDbEntity
  8
0
100
AcDbBlockBegin
  2
_OPEN30
 70
     0
 10
0.0
 20
0.0
 30
0.0
  3
_OPEN30
  1

  0
LINE
  5
5DA
330
5D9
100
AcDbEntity
  8
0
  6
BYBLOCK
 62
     0
100
AcDbLine
 10
-1.0
 20
0.26794919
 30
0.0
 11
0.0
 21
0.0
 31
0.0
  0
LINE
  5
5DB
330
5D9
100
AcDbEntity
  8
0
  6
BYBLOCK
 62
     0
100
AcDbLine
 10
0.0
 20
0.0
 30
0.0
 11
-1.0
 21
-0.26794919
 31
0.0
  0
LINE
  5
5DC
330
5D9
100
AcDbEntity
  8
0
  6
BYBLOCK
 62
     0
100
AcDbLine
 10
0.0
 20
0.0
 30
0.0
 11
-1.0
 21
0.0
 31
0.0
  0
ENDBLK
  5
5DE
330
5D9
100
AcDbEntity
  8
0
100
AcDbBlockEnd
  0
BLOCK
  5
662
330
659
100
AcDbEntity
  8
0
100
AcDbBlockBegin
  2
*D1
 70
     1
 10
0.0
 20
0.0
 30
0.0
  3
*D1
  1

  0
LINE
  5
257D
330
659
100
AcDbEntity
  8
SUNPOU
100
AcDbLine
 10
203.3309004230175
 20
321.8323899371068
 30
0.0
 11
203.3309004230175
 21
305.0253478105473
 31
0.0
  0
LINE
  5
257E
330
659
100
AcDbEntity
  8
SUNPOU
100
AcDbLine
 10
226.3309004230155
 20
310.0253478105475
 30
0.0
 11
226.3309004230155
 21
309.0253478105474
 31
0.0
  0
LINE
  5
257F
330
659
100
AcDbEntity
  8
SUNPOU
100
AcDbLine
 10
208.3309004230175
 20
307.0253478105473
 30
0.0
 11
221.3309004230155
 21
307.0253478105473
 31
0.0
  0
INSERT
  5
2580
330
659
100
AcDbEntity
  8
SUNPOU
100
AcDbBlockReference
  2
_OPEN30
 10
203.3309004230175
 20
307.0253478105473
 30
0.0
 41
5.0
 42
5.0
 43
5.0
 50
180.0
  0
INSERT
  5
2581
330
659
100
AcDbEntity
  8
SUNPOU
100
AcDbBlockReference
  2
_OPEN30
 10
226.3309004230155
 20
307.0253478105473
 30
0.0
 41
5.0
 42
5.0
 43
5.0
  0
MTEXT
  5
2582
330
659
100
AcDbEntity
  8
SUNPOU
100
AcDbMText
 10
214.8309004230165
 20
311.5253478105473
 30
0.0
 40
5.0
 41
0.0
 71
     5
 72
     1
  1
\A1;23
  7
SUNPOU
1001
ACAD
1000
MTEXTBEGIN
1070
    73
1070
     1
1070
    44
1040
1.0
1070
    74
1070
     0
1000
MTEXTEND
1000
MTEXTBEGIN
1070
    73
1070
     1
1070
    44
1040
1.0
1070
    74
1070
     0
1000
MTEXTEND
  0
POINT
  5
2583
330
659
100
AcDbEntity
  8
DEFPOINTS
 62
     0
100
AcDbPoint
 10
203.3309004230175
 20
324.8323899371068
 30
0.0
  0
POINT
  5
2584
330
659
100
AcDbEntity
  8
DEFPOINTS
 62
     0
100
AcDbPoint
 10
226.3309004230155
 20
307.0253478105473
 30
0.0
  0
POINT
  5
2585
330
659
100
AcDbEntity
  8
DEFPOINTS
 62
     0
100
AcDbPoint
 10
226.3309004230155
 20
307.0253478105473
 30
0.0
  0
ENDBLK
  5
663
330
659
100
AcDbEntity
  8
0
100
AcDbBlockEnd
  0
BLOCK
  5
66E
330
665
100
AcDbEntity
  8
0
100
AcDbBlockBegin
  2
*D2
 70
     1
 10
0.0
 20
0.0
 30
0.0
  3
*D2
  1

  0
LINE
  5
2574
330
665
100
AcDbEntity
  8
SUNPOU
100
AcDbLine
 10
226.3309004230155
 20
310.0253478105475
 30
0.0
 11
226.3309004230155
 21
309.0253478105474
 31
0.0
  0
LINE
  5
2575
330
665
100
AcDbEntity
  8
SUNPOU
100
AcDbLine
 10
258.3309004230155
 20
304.1830040293008
 30
0.0
 11
258.3309004230155
 21
305.0253478105473
 31
0.0
  0
LINE
  5
2576
330
665
100
AcDbEntity
  8
SUNPOU
100
AcDbLine
 10
231.3309004230155
 20
307.0253478105473
 30
0.0
 11
253.3309004230155
 21
307.0253478105473
 31
0.0
  0
MTEXT
  5
2577
330
665
100
AcDbEntity
  8
SUNPOU
100
AcDbMText
 10
246.8289625781283
 20
311.5253478105473
 30
0.0
 40
5.0
 41
0.0
 71
     5
 72
     1
  1
\A1;32
  7
SUNPOU
1001
ACAD
1000
MTEXTBEGIN
1070
    73
1070
     1
1070
    44
1040
1.0
1070
    74
1070
     0
1000
MTEXTEND
1000
MTEXTBEGIN
1070
    73
1070
     1
1070
    44
1040
1.0
1070
    74
1070
     0
1000
MTEXTEND
  0
INSERT
  5
2578
330
665
100
AcDbEntity
  8
SUNPOU
100
AcDbBlockReference
  2
_OPEN30
 10
226.3309004230155
 20
307.0253478105473
 30
0.0
 41
5.0
 42
5.0
 43
5.0
 50
180.0
  0
INSERT
  5
2579
330
665
100
AcDbEntity
  8
SUNPOU
100
AcDbBlockReference
  2
_OPEN30
 10
258.3309004230155
 20
307.0253478105473
 30
0.0
 41
5.0
 42
5.0
 43
5.0
  0
POINT
  5
257A
330
665
100
AcDbEntity
  8
DEFPOINTS
 62
     0
100
AcDbPoint
 10
226.3309004230155
 20
307.0253478105473
 30
0.0
  0
POINT
  5
257B
330
665
100
AcDbEntity
  8
DEFPOINTS
 62
     0
100
AcDbPoint
 10
258.3309004230155
 20
307.1830040293008
 30
0.0
  0
POINT
  5
257C
330
665
100
AcDbEntity
  8
DEFPOINTS
 62
     0
100
AcDbPoint
 10
258.3309004230155
 20
307.0253478105473
 30
0.0
  0
ENDBLK
  5
66F
330
665
100
AcDbEntity
  8
0
100
AcDbBlockEnd
  0
BLOCK
  5
67D
330
671
100
AcDbEntity
  8
0
100
AcDbBlockBegin
  2
*D3
 70
     1
 10
0.0
 20
0.0
 30
0.0
  3
*D3
  1

  0
LINE
  5
2569
330
671
100
AcDbEntity
  8
SUNPOU
100
AcDbLine
 10
258.3309004230155
 20
304.1830040293008
 30
0.0
 11
258.3309004230155
 21
305.0253478105473
 31
0.0
  0
LINE
  5
256A
330
671
100
AcDbEntity
  8
SUNPOU
100
AcDbLine
 10
263.3309004230178
 20
304.1830040293008
 30
0.0
 11
263.3309004230178
 21
305.0253478105473
 31
0.0
  0
LINE
  5
256B
330
671
100
AcDbEntity
  8
SUNPOU
100
AcDbLine
 10
253.3309004230155
 20
307.0253478105473
 30
0.0
 11
248.3309004230155
 21
307.0253478105473
 31
0.0
  0
LINE
  5
256C
330
671
100
AcDbEntity
  8
SUNPOU
100
AcDbLine
 10
268.3309004230177
 20
307.0253478105473
 30
0.0
 11
273.3309004230178
 21
307.0253478105473
 31
0.0
  0
MTEXT
  5
256D
330
671
100
AcDbEntity
  8
SUNPOU
100
AcDbMText
 10
260.8309004230166
 20
302.5532350696453
 30
0.0
 40
5.0
 41
0.0
 71
     5
 72
     1
  1
\A1;5
  7
SUNPOU
1001
ACAD
1000
MTEXTBEGIN
1070
    73
1070
     1
1070
    44
1040
1.0
1070
    74
1070
     0
1000
MTEXTEND
1000
MTEXTBEGIN
1070
    73
1070
     1
1070
    44
1040
1.0
1070
    74
1070
     0
1000
MTEXTEND
  0
LINE
  5
256E
330
671
100
AcDbEntity
  8
SUNPOU
100
AcDbLine
 10
258.3309004230155
 20
307.0253478105473
 30
0.0
 11
263.3309004230178
 21
307.0253478105473
 31
0.0
  0
INSERT
  5
256F
330
671
100
AcDbEntity
  8
SUNPOU
100
AcDbBlockReference
  2
_OPEN30
 10
258.3309004230155
 20
307.0253478105473
 30
0.0
 41
5.0
 42
5.0
 43
5.0
  0
INSERT
  5
2570
330
671
100
AcDbEntity
  8
SUNPOU
100
AcDbBlockReference
  2
_OPEN30
 10
263.3309004230178
 20
307.0253478105473
 30
0.0
 41
5.0
 42
5.0
 43
5.0
 50
180.0
  0
POINT
  5
2571
330
671
100
AcDbEntity
  8
DEFPOINTS
 62
     0
100
AcDbPoint
 10
258.3309004230155
 20
307.1830040293008
 30
0.0
  0
POINT
  5
2572
330
671
100
AcDbEntity
  8
DEFPOINTS
 62
     0
100
AcDbPoint
 10
263.3309004230178
 20
307.1830040293008
 30
0.0
  0
POINT
  5
2573
330
671
100
AcDbEntity
  8
DEFPOINTS
 62
     0
100
AcDbPoint
 10
263.3309004230178
 20
307.0253478105473
 30
0.0
  0
ENDBLK
  5
67E
330
671
100
AcDbEntity
  8
0
100
AcDbBlockEnd
  0
BLOCK
  5
689
330
680
100
AcDbEntity
  8
0
100
AcDbBlockBegin
  2
*D4
 70
     1
 10
0.0
 20
0.0
 30
0.0
  3
*D4
  1

  0
LINE
  5
2560
330
680
100
AcDbEntity
  8
SUNPOU
100
AcDbLine
 10
263.3309004230178
 20
304.1830040293008
 30
0.0
 11
263.3309004230178
 21
305.0253478105473
 31
0.0
  0
LINE
  5
2561
330
680
100
AcDbEntity
  8
SUNPOU
100
AcDbLine
 10
295.3309004230177
 20
310.0253478105475
 30
0.0
 11
295.3309004230177
 21
309.0253478105474
 31
0.0
  0
LINE
  5
2562
330
680
100
AcDbEntity
  8
SUNPOU
100
AcDbLine
 10
268.3309004230177
 20
307.0253478105473
 30
0.0
 11
290.3309004230178
 21
307.0253478105473
 31
0.0
  0
MTEXT
  5
2563
330
680
100
AcDbEntity
  8
SUNPOU
100
AcDbMText
 10
284.4558862444078
 20
311.5253478105473
 30
0.0
 40
5.0
 41
0.0
 71
     5
 72
     1
  1
\A1;32
  7
SUNPOU
1001
ACAD
1000
MTEXTBEGIN
1070
    73
1070
     1
1070
    44
1040
1.0
1070
    74
1070
     0
1000
MTEXTEND
1000
MTEXTBEGIN
1070
    73
1070
     1
1070
    44
1040
1.0
1070
    74
1070
     0
1000
MTEXTEND
  0
INSERT
  5
2564
330
680
100
AcDbEntity
  8
SUNPOU
100
AcDbBlockReference
  2
_OPEN30
 10
263.3309004230178
 20
307.0253478105473
 30
0.0
 41
5.0
 42
5.0
 43
5.0
 50
180.0
  0
INSERT
  5
2565
330
680
100
AcDbEntity
  8
SUNPOU
100
AcDbBlockReference
  2
_OPEN30
 10
295.3309004230177
 20
307.0253478105473
 30
0.0
 41
5.0
 42
5.0
 43
5.0
  0
POINT
  5
2566
330
680
100
AcDbEntity
  8
DEFPOINTS
 62
     0
100
AcDbPoint
 10
263.3309004230178
 20
307.1830040293008
 30
0.0
  0
POINT
  5
2567
330
680
100
AcDbEntity
  8
DEFPOINTS
 62
     0
100
AcDbPoint
 10
295.3309004230177
 20
307.0253478105473
 30
0.0
  0
POINT
  5
2568
330
680
100
AcDbEntity
  8
DEFPOINTS
 62
     0
100
AcDbPoint
 10
295.3309004230177
 20
307.0253478105473
 30
0.0
  0
ENDBLK
  5
68A
330
680
100
AcDbEntity
  8
0
100
AcDbBlockEnd
  0
BLOCK
  5
696
330
68C
100
AcDbEntity
  8
0
100
AcDbBlockBegin
  2
*D5
 70
     1
 10
0.0
 20
0.0
 30
0.0
  3
*D5
  1

  0
LINE
  5
2555
330
68C
100
AcDbEntity
  8
SUNPOU
100
AcDbLine
 10
295.3309004230177
 20
310.0253478105475
 30
0.0
 11
295.3309004230177
 21
309.0253478105474
 31
0.0
  0
LINE
  5
2556
330
68C
100
AcDbEntity
  8
SUNPOU
100
AcDbLine
 10
300.3309004230178
 20
321.8323899371068
 30
0.0
 11
300.3309004230178
 21
305.0253478105473
 31
0.0
  0
LINE
  5
2557
330
68C
100
AcDbEntity
  8
SUNPOU
100
AcDbLine
 10
290.3309004230178
 20
307.0253478105473
 30
0.0
 11
285.3309004230176
 21
307.0253478105473
 31
0.0
  0
LINE
  5
2558
330
68C
100
AcDbEntity
  8
SUNPOU
100
AcDbLine
 10
305.3309004230178
 20
307.0253478105473
 30
0.0
 11
310.3309004230176
 21
307.0253478105473
 31
0.0
  0
MTEXT
  5
2559
330
68C
100
AcDbEntity
  8
SUNPOU
100
AcDbMText
 10
297.8309004230176
 20
302.4506317097041
 30
0.0
 40
5.0
 41
0.0
 71
     5
 72
     1
  1
\A1;5
  7
SUNPOU
1001
ACAD
1000
MTEXTBEGIN
1070
    73
1070
     1
1070
    44
1040
1.0
1070
    74
1070
     0
1000
MTEXTEND
1000
MTEXTBEGIN
1070
    73
1070
     1
1070
    44
1040
1.0
1070
    74
1070
     0
1000
MTEXTEND
  0
LINE
  5
255A
330
68C
100
AcDbEntity
  8
SUNPOU
100
AcDbLine
 10
295.3309004230177
 20
307.0253478105473
 30
0.0
 11
300.3309004230178
 21
307.0253478105473
 31
0.0
  0
INSERT
  5
255B
330
68C
100
AcDbEntity
  8
SUNPOU
100
AcDbBlockReference
  2
_OPEN30
 10
295.3309004230177
 20
307.0253478105473
 30
0.0
 41
5.0
 42
5.0
 43
5.0
  0
INSERT
  5
255C
330
68C
100
AcDbEntity
  8
SUNPOU
100
AcDbBlockReference
  2
_OPEN30
 10
300.3309004230178
 20
307.0253478105473
 30
0.0
 41
5.0
 42
5.0
 43
5.0
 50
180.0
  0
POINT
  5
255D
330
68C
100
AcDbEntity
  8
DEFPOINTS
 62
     0
100
AcDbPoint
 10
295.3309004230177
 20
307.0253478105473
 30
0.0
  0
POINT
  5
255E
330
68C
100
AcDbEntity
  8
DEFPOINTS
 62
     0
100
AcDbPoint
 10
300.3309004230178
 20
324.8323899371068
 30
0.0
  0
POINT
  5
255F
330
68C
100
AcDbEntity
  8
DEFPOINTS
 62
     0
100
AcDbPoint
 10
300.3309004230178
 20
307.0253478105473
 30
0.0
  0
ENDBLK
  5
697
330
68C
100
AcDbEntity
  8
0
100
AcDbBlockEnd
  0
BLOCK
  5
6B7
330
6AD
100
AcDbEntity
  8
0
100
AcDbBlockBegin
  2
*D6
 70
     1
 10
0.0
 20
0.0
 30
0.0
  3
*D6
  1

  0
LINE
  5
254C
330
6AD
100
AcDbEntity
  8
SUNPOU
100
AcDbLine
 10
300.3309004230178
 20
321.8323899371068
 30
0.0
 11
300.3309004230178
 21
305.0253478105473
 31
0.0
  0
LINE
  5
254D
330
6AD
100
AcDbEntity
  8
SUNPOU
100
AcDbLine
 10
317.3309004230176
 20
321.8323899371068
 30
0.0
 11
317.3309004230176
 21
305.0253478105473
 31
0.0
  0
LINE
  5
254E
330
6AD
100
AcDbEntity
  8
SUNPOU
100
AcDbLine
 10
305.3309004230178
 20
307.0253478105473
 30
0.0
 11
312.3309004230176
 21
307.0253478105473
 31
0.0
  0
INSERT
  5
254F
330
6AD
100
AcDbEntity
  8
SUNPOU
100
AcDbBlockReference
  2
_OPEN30
 10
300.3309004230178
 20
307.0253478105473
 30
0.0
 41
5.0
 42
5.0
 43
5.0
 50
180.0
  0
INSERT
  5
2550
330
6AD
100
AcDbEntity
  8
SUNPOU
100
AcDbBlockReference
  2
_OPEN30
 10
317.3309004230176
 20
307.0253478105473
 30
0.0
 41
5.0
 42
5.0
 43
5.0
  0
MTEXT
  5
2551
330
6AD
100
AcDbEntity
  8
SUNPOU
100
AcDbMText
 10
308.8309004230176
 20
311.5253478105473
 30
0.0
 40
5.0
 41
0.0
 71
     5
 72
     1
  1
\A1;17
  7
SUNPOU
1001
ACAD
1000
MTEXTBEGIN
1070
    73
1070
     1
1070
    44
1040
1.0
1070
    74
1070
     0
1000
MTEXTEND
1000
MTEXTBEGIN
1070
    73
1070
     1
1070
    44
1040
1.0
1070
    74
1070
     0
1000
MTEXTEND
  0
POINT
  5
2552
330
6AD
100
AcDbEntity
  8
DEFPOINTS
 62
     0
100
AcDbPoint
 10
300.3309004230178
 20
324.8323899371068
 30
0.0
  0
POINT
  5
2553
330
6AD
100
AcDbEntity
  8
DEFPOINTS
 62
     0
100
AcDbPoint
 10
317.3309004230176
 20
324.8323899371068
 30
0.0
  0
POINT
  5
2554
330
6AD
100
AcDbEntity
  8
DEFPOINTS
 62
     0
100
AcDbPoint
 10
317.3309004230176
 20
307.0253478105473
 30
0.0
  0
ENDBLK
  5
6B8
330
6AD
100
AcDbEntity
  8
0
100
AcDbBlockEnd
  0
BLOCK
  5
6C5
330
6BA
100
AcDbEntity
  8
0
100
AcDbBlockBegin
  2
*D7
 70
     1
 10
0.0
 20
0.0
 30
0.0
  3
*D7
  1

  0
LINE
  5
2541
330
6BA
100
AcDbEntity
  8
SUNPOU
100
AcDbLine
 10
200.3309004230175
 20
298.579513645639
 30
0.0
 11
200.3309004230175
 21
297.5795136456389
 31
0.0
  0
LINE
  5
2542
330
6BA
100
AcDbEntity
  8
SUNPOU
100
AcDbLine
 10
203.3309004230175
 20
321.8323899371068
 30
0.0
 11
203.3309004230175
 21
293.5795136456389
 31
0.0
  0
LINE
  5
2543
330
6BA
100
AcDbEntity
  8
SUNPOU
100
AcDbLine
 10
195.3309004230175
 20
295.5795136456389
 30
0.0
 11
190.3309004230175
 21
295.5795136456389
 31
0.0
  0
LINE
  5
2544
330
6BA
100
AcDbEntity
  8
SUNPOU
100
AcDbLine
 10
208.3309004230175
 20
295.5795136456389
 30
0.0
 11
213.3309004230175
 21
295.5795136456389
 31
0.0
  0
MTEXT
  5
2545
330
6BA
100
AcDbEntity
  8
SUNPOU
100
AcDbMText
 10
192.7423031657513
 20
300.1244469302751
 30
0.0
 40
5.0
 41
0.0
 71
     5
 72
     1
  1
\A1;3
  7
SUNPOU
1001
ACAD
1000
MTEXTBEGIN
1070
    73
1070
     1
1070
    44
1040
1.0
1070
    74
1070
     0
1000
MTEXTEND
1000
MTEXTBEGIN
1070
    73
1070
     1
1070
    44
1040
1.0
1070
    74
1070
     0
1000
MTEXTEND
  0
LINE
  5
2546
330
6BA
100
AcDbEntity
  8
SUNPOU
100
AcDbLine
 10
200.3309004230175
 20
295.5795136456389
 30
0.0
 11
203.3309004230175
 21
295.5795136456389
 31
0.0
  0
INSERT
  5
2547
330
6BA
100
AcDbEntity
  8
SUNPOU
100
AcDbBlockReference
  2
_OPEN30
 10
200.3309004230175
 20
295.5795136456389
 30
0.0
 41
5.0
 42
5.0
 43
5.0
  0
INSERT
  5
2548
330
6BA
100
AcDbEntity
  8
SUNPOU
100
AcDbBlockReference
  2
_OPEN30
 10
203.3309004230175
 20
295.5795136456389
 30
0.0
 41
5.0
 42
5.0
 43
5.0
 50
180.0
  0
POINT
  5
2549
330
6BA
100
AcDbEntity
  8
DEFPOINTS
 62
     0
100
AcDbPoint
 10
200.3309004230175
 20
295.5795136456389
 30
0.0
  0
POINT
  5
254A
330
6BA
100
AcDbEntity
  8
DEFPOINTS
 62
     0
100
AcDbPoint
 10
203.3309004230175
 20
324.8323899371068
 30
0.0
  0
POINT
  5
254B
330
6BA
100
AcDbEntity
  8
DEFPOINTS
 62
     0
100
AcDbPoint
 10
203.3309004230175
 20
295.5795136456389
 30
0.0
  0
ENDBLK
  5
6C6
330
6BA
100
AcDbEntity
  8
0
100
AcDbBlockEnd
  0
BLOCK
  5
6D2
330
6C8
100
AcDbEntity
  8
0
100
AcDbBlockBegin
  2
*D8
 70
     1
 10
0.0
 20
0.0
 30
0.0
  3
*D8
  1

  0
LINE
  5
2538
330
6C8
100
AcDbEntity
  8
SUNPOU
100
AcDbLine
 10
203.3309004230175
 20
321.8323899371068
 30
0.0
 11
203.3309004230175
 21
293.5795136456389
 31
0.0
  0
LINE
  5
2539
330
6C8
100
AcDbEntity
  8
SUNPOU
100
AcDbLine
 10
317.3309004230176
 20
321.8323899371068
 30
0.0
 11
317.3309004230176
 21
293.5795136456389
 31
0.0
  0
LINE
  5
253A
330
6C8
100
AcDbEntity
  8
SUNPOU
100
AcDbLine
 10
208.3309004230175
 20
295.5795136456389
 30
0.0
 11
312.3309004230176
 21
295.5795136456389
 31
0.0
  0
MTEXT
  5
253B
330
6C8
100
AcDbEntity
  8
SUNPOU
100
AcDbMText
 10
273.0255149593621
 20
300.0795136456388
 30
0.0
 40
5.0
 41
0.0
 71
     5
 72
     1
  1
\A1;114
  7
SUNPOU
1001
ACAD
1000
MTEXTBEGIN
1070
    73
1070
     1
1070
    44
1040
1.0
1070
    74
1070
     0
1000
MTEXTEND
1000
MTEXTBEGIN
1070
    73
1070
     1
1070
    44
1040
1.0
1070
    74
1070
     0
1000
MTEXTEND
  0
INSERT
  5
253C
330
6C8
100
AcDbEntity
  8
SUNPOU
100
AcDbBlockReference
  2
_OPEN30
 10
203.3309004230175
 20
295.5795136456389
 30
0.0
 41
5.0
 42
5.0
 43
5.0
 50
180.0
  0
INSERT
  5
253D
330
6C8
100
AcDbEntity
  8
SUNPOU
100
AcDbBlockReference
  2
_OPEN30
 10
317.3309004230176
 20
295.5795136456389
 30
0.0
 41
5.0
 42
5.0
 43
5.0
  0
POINT
  5
253E
330
6C8
100
AcDbEntity
  8
DEFPOINTS
 62
     0
100
AcDbPoint
 10
203.3309004230175
 20
324.8323899371068
 30
0.0
  0
POINT
  5
253F
330
6C8
100
AcDbEntity
  8
DEFPOINTS
 62
     0
100
AcDbPoint
 10
317.3309004230176
 20
324.8323899371068
 30
0.0
  0
POINT
  5
2540
330
6C8
100
AcDbEntity
  8
DEFPOINTS
 62
     0
100
AcDbPoint
 10
317.3309004230176
 20
295.5795136456389
 30
0.0
  0
ENDBLK
  5
6D3
330
6C8
100
AcDbEntity
  8
0
100
AcDbBlockEnd
  0
BLOCK
  5
6E0
330
6D5
100
AcDbEntity
  8
0
100
AcDbBlockBegin
  2
*D9
 70
     1
 10
0.0
 20
0.0
 30
0.0
  3
*D9
  1

  0
LINE
  5
252D
330
6D5
100
AcDbEntity
  8
SUNPOU
100
AcDbLine
 10
317.3309004230176
 20
321.8323899371068
 30
0.0
 11
317.3309004230176
 21
293.5795136456389
 31
0.0
  0
LINE
  5
252E
330
6D5
100
AcDbEntity
  8
SUNPOU
100
AcDbLine
 10
320.3309004230177
 20
298.579513645639
 30
0.0
 11
320.3309004230177
 21
297.5795136456389
 31
0.0
  0
LINE
  5
252F
330
6D5
100
AcDbEntity
  8
SUNPOU
100
AcDbLine
 10
312.3309004230176
 20
295.5795136456389
 30
0.0
 11
307.3309004230176
 21
295.5795136456389
 31
0.0
  0
LINE
  5
2530
330
6D5
100
AcDbEntity
  8
SUNPOU
100
AcDbLine
 10
325.3309004230176
 20
295.5795136456389
 30
0.0
 11
330.3309004230176
 21
295.5795136456389
 31
0.0
  0
MTEXT
  5
2531
330
6D5
100
AcDbEntity
  8
SUNPOU
100
AcDbMText
 10
327.3051528619016
 20
300.1118273332429
 30
0.0
 40
5.0
 41
0.0
 71
     5
 72
     1
  1
\A1;3
  7
SUNPOU
1001
ACAD
1000
MTEXTBEGIN
1070
    73
1070
     1
1070
    44
1040
1.0
1070
    74
1070
     0
1000
MTEXTEND
1000
MTEXTBEGIN
1070
    73
1070
     1
1070
    44
1040
1.0
1070
    74
1070
     0
1000
MTEXTEND
  0
LINE
  5
2532
330
6D5
100
AcDbEntity
  8
SUNPOU
100
AcDbLine
 10
317.3309004230176
 20
295.5795136456389
 30
0.0
 11
320.3309004230177
 21
295.5795136456389
 31
0.0
  0
INSERT
  5
2533
330
6D5
100
AcDbEntity
  8
SUNPOU
100
AcDbBlockReference
  2
_OPEN30
 10
317.3309004230176
 20
295.5795136456389
 30
0.0
 41
5.0
 42
5.0
 43
5.0
  0
INSERT
  5
2534
330
6D5
100
AcDbEntity
  8
SUNPOU
100
AcDbBlockReference
  2
_OPEN30
 10
320.3309004230177
 20
295.5795136456389
 30
0.0
 41
5.0
 42
5.0
 43
5.0
 50
180.0
  0
POINT
  5
2535
330
6D5
100
AcDbEntity
  8
DEFPOINTS
 62
     0
100
AcDbPoint
 10
317.3309004230176
 20
324.8323899371068
 30
0.0
  0
POINT
  5
2536
330
6D5
100
AcDbEntity
  8
DEFPOINTS
 62
     0
100
AcDbPoint
 10
320.3309004230177
 20
295.5795136456389
 30
0.0
  0
POINT
  5
2537
330
6D5
100
AcDbEntity
  8
DEFPOINTS
 62
     0
100
AcDbPoint
 10
320.3309004230177
 20
295.5795136456389
 30
0.0
  0
ENDBLK
  5
6E1
330
6D5
100
AcDbEntity
  8
0
100
AcDbBlockEnd
  0
BLOCK
  5
6EB
330
6E3
100
AcDbEntity
  8
0
100
AcDbBlockBegin
  2
*D10
 70
     1
 10
0.0
 20
0.0
 30
0.0
  3
*D10
  1

  0
LINE
  5
2524
330
6E3
100
AcDbEntity
  8
SUNPOU
100
AcDbLine
 10
200.3309004230175
 20
287.1336794807305
 30
0.0
 11
200.3309004230175
 21
286.1336794807303
 31
0.0
  0
LINE
  5
2525
330
6E3
100
AcDbEntity
  8
SUNPOU
100
AcDbLine
 10
320.3309004230177
 20
287.1336794807305
 30
0.0
 11
320.3309004230177
 21
286.1336794807303
 31
0.0
  0
LINE
  5
2526
330
6E3
100
AcDbEntity
  8
SUNPOU
100
AcDbLine
 10
205.3309004230175
 20
284.1336794807303
 30
0.0
 11
315.3309004230176
 21
284.1336794807303
 31
0.0
  0
MTEXT
  5
2527
330
6E3
100
AcDbEntity
  8
SUNPOU
100
AcDbMText
 10
272.9296959898793
 20
288.6336794807305
 30
0.0
 40
5.0
 41
0.0
 71
     5
 72
     1
  1
\A1;120
  7
SUNPOU
1001
ACAD
1000
MTEXTBEGIN
1070
    73
1070
     1
1070
    44
1040
1.0
1070
    74
1070
     0
1000
MTEXTEND
1000
MTEXTBEGIN
1070
    73
1070
     1
1070
    44
1040
1.0
1070
    74
1070
     0
1000
MTEXTEND
  0
INSERT
  5
2528
330
6E3
100
AcDbEntity
  8
SUNPOU
100
AcDbBlockReference
  2
_OPEN30
 10
200.3309004230175
 20
284.1336794807303
 30
0.0
 41
5.0
 42
5.0
 43
5.0
 50
180.0
  0
INSERT
  5
2529
330
6E3
100
AcDbEntity
  8
SUNPOU
100
AcDbBlockReference
  2
_OPEN30
 10
320.3309004230177
 20
284.1336794807303
 30
0.0
 41
5.0
 42
5.0
 43
5.0
  0
POINT
  5
252A
330
6E3
100
AcDbEntity
  8
DEFPOINTS
 62
     0
100
AcDbPoint
 10
200.3309004230175
 20
284.1336794807303
 30
0.0
  0
POINT
  5
252B
330
6E3
100
AcDbEntity
  8
DEFPOINTS
 62
     0
100
AcDbPoint
 10
320.3309004230177
 20
284.1336794807303
 30
0.0
  0
POINT
  5
252C
330
6E3
100
AcDbEntity
  8
DEFPOINTS
 62
     0
100
AcDbPoint
 10
320.3309004230177
 20
284.1336794807303
 30
0.0
  0
ENDBLK
  5
6EC
330
6E3
100
AcDbEntity
  8
0
100
AcDbBlockEnd
  0
BLOCK
  5
6FA
330
6EE
100
AcDbEntity
  8
0
100
AcDbBlockBegin
  2
*D11
 70
     1
 10
0.0
 20
0.0
 30
0.0
  3
*D11
  1

  0
LINE
  5
265A
330
6EE
100
AcDbEntity
  8
SUNPOU
100
AcDbLine
 10
258.3309004230176
 20
65.08238993710728
 30
0.0
 11
258.3309004230176
 21
47.2823899371071
 31
0.0
  0
LINE
  5
265B
330
6EE
100
AcDbEntity
  8
SUNPOU
100
AcDbLine
 10
270.8309004230176
 20
65.08238993710715
 30
0.0
 11
270.8309004230176
 21
47.2823899371071
 31
0.0
  0
LINE
  5
265C
330
6EE
100
AcDbEntity
  8
SUNPOU
100
AcDbLine
 10
253.3309004230178
 20
49.2823899371071
 30
0.0
 11
248.3309004230178
 21
49.2823899371071
 31
0.0
  0
LINE
  5
265D
330
6EE
100
AcDbEntity
  8
SUNPOU
100
AcDbLine
 10
275.8309004230178
 20
49.2823899371071
 30
0.0
 11
280.8309004230178
 21
49.2823899371071
 31
0.0
  0
MTEXT
  5
265E
330
6EE
100
AcDbEntity
  8
SUNPOU
100
AcDbMText
 10
246.573334941161
 20
56.84702300507728
 30
0.0
 40
5.0
 41
0.0
 71
     5
 72
     1
  1
\A1;12.5
  7
SUNPOU
1001
ACAD
1000
MTEXTBEGIN
1070
    73
1070
     1
1070
    44
1040
1.0
1070
    74
1070
     0
1000
MTEXTEND
1000
MTEXTBEGIN
1070
    73
1070
     1
1070
    44
1040
1.0
1070
    74
1070
     0
1000
MTEXTEND
  0
LINE
  5
265F
330
6EE
100
AcDbEntity
  8
SUNPOU
100
AcDbLine
 10
258.3309004230176
 20
49.2823899371071
 30
0.0
 11
270.8309004230176
 21
49.2823899371071
 31
0.0
  0
INSERT
  5
2660
330
6EE
100
AcDbEntity
  8
SUNPOU
100
AcDbBlockReference
  2
_OPEN30
 10
258.3309004230176
 20
49.2823899371071
 30
0.0
 41
5.0
 42
5.0
 43
5.0
  0
INSERT
  5
2661
330
6EE
100
AcDbEntity
  8
SUNPOU
100
AcDbBlockReference
  2
_OPEN30
 10
270.8309004230176
 20
49.2823899371071
 30
0.0
 41
5.0
 42
5.0
 43
5.0
 50
180.0
  0
POINT
  5
2662
330
6EE
100
AcDbEntity
  8
DEFPOINTS
 62
     0
100
AcDbPoint
 10
258.3309004230176
 20
68.08238993710728
 30
0.0
  0
POINT
  5
2663
330
6EE
100
AcDbEntity
  8
DEFPOINTS
 62
     0
100
AcDbPoint
 10
270.8309004230176
 20
68.08238993710715
 30
0.0
  0
POINT
  5
2664
330
6EE
100
AcDbEntity
  8
DEFPOINTS
 62
     0
100
AcDbPoint
 10
270.8309004230176
 20
49.2823899371071
 30
0.0
  0
ENDBLK
  5
6FB
330
6EE
100
AcDbEntity
  8
0
100
AcDbBlockEnd
  0
BLOCK
  5
707
330
6FD
100
AcDbEntity
  8
0
100
AcDbBlockBegin
  2
*D12
 70
     1
 10
0.0
 20
0.0
 30
0.0
  3
*D12
  1

  0
LINE
  5
2651
330
6FD
100
AcDbEntity
  8
SUNPOU
100
AcDbLine
 10
270.8309004230176
 20
65.08238993710715
 30
0.0
 11
270.8309004230176
 21
47.2823899371071
 31
0.0
  0
LINE
  5
2652
330
6FD
100
AcDbEntity
  8
SUNPOU
100
AcDbLine
 10
287.8309004230178
 20
65.08238993710714
 30
0.0
 11
287.8309004230178
 21
47.2823899371071
 31
0.0
  0
LINE
  5
2653
330
6FD
100
AcDbEntity
  8
SUNPOU
100
AcDbLine
 10
275.8309004230178
 20
49.2823899371071
 30
0.0
 11
282.8309004230177
 21
49.2823899371071
 31
0.0
  0
INSERT
  5
2654
330
6FD
100
AcDbEntity
  8
SUNPOU
100
AcDbBlockReference
  2
_OPEN30
 10
270.8309004230176
 20
49.2823899371071
 30
0.0
 41
5.0
 42
5.0
 43
5.0
 50
180.0
  0
INSERT
  5
2655
330
6FD
100
AcDbEntity
  8
SUNPOU
100
AcDbBlockReference
  2
_OPEN30
 10
287.8309004230178
 20
49.2823899371071
 30
0.0
 41
5.0
 42
5.0
 43
5.0
  0
MTEXT
  5
2656
330
6FD
100
AcDbEntity
  8
SUNPOU
100
AcDbMText
 10
279.3309004230176
 20
53.78238993710709
 30
0.0
 40
5.0
 41
0.0
 71
     5
 72
     1
  1
\A1;17
  7
SUNPOU
1001
ACAD
1000
MTEXTBEGIN
1070
    73
1070
     1
1070
    44
1040
1.0
1070
    74
1070
     0
1000
MTEXTEND
1000
MTEXTBEGIN
1070
    73
1070
     1
1070
    44
1040
1.0
1070
    74
1070
     0
1000
MTEXTEND
  0
POINT
  5
2657
330
6FD
100
AcDbEntity
  8
DEFPOINTS
 62
     0
100
AcDbPoint
 10
270.8309004230176
 20
68.08238993710715
 30
0.0
  0
POINT
  5
2658
330
6FD
100
AcDbEntity
  8
DEFPOINTS
 62
     0
100
AcDbPoint
 10
287.8309004230178
 20
68.08238993710713
 30
0.0
  0
POINT
  5
2659
330
6FD
100
AcDbEntity
  8
DEFPOINTS
 62
     0
100
AcDbPoint
 10
287.8309004230178
 20
49.2823899371071
 30
0.0
  0
ENDBLK
  5
708
330
6FD
100
AcDbEntity
  8
0
100
AcDbBlockEnd
  0
BLOCK
  5
714
330
70A
100
AcDbEntity
  8
0
100
AcDbBlockBegin
  2
*D13
 70
     1
 10
0.0
 20
0.0
 30
0.0
  3
*D13
  1

  0
LINE
  5
2648
330
70A
100
AcDbEntity
  8
SUNPOU
100
AcDbLine
 10
287.8309004230178
 20
65.08238993710714
 30
0.0
 11
287.8309004230178
 21
47.2823899371071
 31
0.0
  0
LINE
  5
2649
330
70A
100
AcDbEntity
  8
SUNPOU
100
AcDbLine
 10
308.3309004230176
 20
62.28238993710732
 30
0.0
 11
308.3309004230176
 21
47.2823899371071
 31
0.0
  0
LINE
  5
264A
330
70A
100
AcDbEntity
  8
SUNPOU
100
AcDbLine
 10
292.8309004230176
 20
49.2823899371071
 30
0.0
 11
303.3309004230178
 21
49.2823899371071
 31
0.0
  0
INSERT
  5
264B
330
70A
100
AcDbEntity
  8
SUNPOU
100
AcDbBlockReference
  2
_OPEN30
 10
287.8309004230178
 20
49.2823899371071
 30
0.0
 41
5.0
 42
5.0
 43
5.0
 50
180.0
  0
INSERT
  5
264C
330
70A
100
AcDbEntity
  8
SUNPOU
100
AcDbBlockReference
  2
_OPEN30
 10
308.3309004230176
 20
49.2823899371071
 30
0.0
 41
5.0
 42
5.0
 43
5.0
  0
MTEXT
  5
264D
330
70A
100
AcDbEntity
  8
SUNPOU
100
AcDbMText
 10
298.0809004230176
 20
53.78238993710709
 30
0.0
 40
5.0
 41
0.0
 71
     5
 72
     1
  1
\A1;20.5
  7
SUNPOU
1001
ACAD
1000
MTEXTBEGIN
1070
    73
1070
     1
1070
    44
1040
1.0
1070
    74
1070
     0
1000
MTEXTEND
1000
MTEXTBEGIN
1070
    73
1070
     1
1070
    44
1040
1.0
1070
    74
1070
     0
1000
MTEXTEND
  0
POINT
  5
264E
330
70A
100
AcDbEntity
  8
DEFPOINTS
 62
     0
100
AcDbPoint
 10
287.8309004230178
 20
68.08238993710713
 30
0.0
  0
POINT
  5
264F
330
70A
100
AcDbEntity
  8
DEFPOINTS
 62
     0
100
AcDbPoint
 10
308.3309004230176
 20
65.28238993710733
 30
0.0
  0
POINT
  5
2650
330
70A
100
AcDbEntity
  8
DEFPOINTS
 62
     0
100
AcDbPoint
 10
308.3309004230176
 20
49.2823899371071
 30
0.0
  0
ENDBLK
  5
715
330
70A
100
AcDbEntity
  8
0
100
AcDbBlockEnd
  0
BLOCK
  5
723
330
717
100
AcDbEntity
  8
0
100
AcDbBlockBegin
  2
*D14
 70
     1
 10
0.0
 20
0.0
 30
0.0
  3
*D14
  1

  0
LINE
  5
24FC
330
717
100
AcDbEntity
  8
SUNPOU
100
AcDbLine
 10
223.3309004230155
 20
321.0823899371068
 30
0.0
 11
138.3309004230177
 21
321.0823899371068
 31
0.0
  0
LINE
  5
24FD
330
717
100
AcDbEntity
  8
SUNPOU
100
AcDbLine
 10
201.0809004230175
 20
324.0823899371068
 30
0.0
 11
138.3309004230177
 21
324.0823899371068
 31
0.0
  0
LINE
  5
24FE
330
717
100
AcDbEntity
  8
SUNPOU
100
AcDbLine
 10
140.3309004230177
 20
316.0823899371068
 30
0.0
 11
140.3309004230177
 21
311.0823899371069
 31
0.0
  0
LINE
  5
24FF
330
717
100
AcDbEntity
  8
SUNPOU
100
AcDbLine
 10
140.3309004230177
 20
329.0823899371068
 30
0.0
 11
140.3309004230177
 21
334.0823899371069
 31
0.0
  0
MTEXT
  5
2500
330
717
100
AcDbEntity
  8
SUNPOU
100
AcDbMText
 10
132.8309004230177
 20
322.5823899371068
 30
0.0
 40
5.0
 41
0.0
 71
     5
 72
     1
  1
\A1;3
  7
SUNPOU
 11
0.0000000000000001
 21
1.0
 31
0.0
1001
ACAD
1000
MTEXTBEGIN
1070
    73
1070
     1
1070
    44
1040
1.0
1070
    74
1070
     0
1000
MTEXTEND
1000
MTEXTBEGIN
1070
    73
1070
     1
1070
    44
1040
1.0
1070
    74
1070
     0
1000
MTEXTEND
  0
LINE
  5
2501
330
717
100
AcDbEntity
  8
SUNPOU
100
AcDbLine
 10
140.3309004230177
 20
321.0823899371068
 30
0.0
 11
140.3309004230177
 21
324.0823899371068
 31
0.0
  0
INSERT
  5
2502
330
717
100
AcDbEntity
  8
SUNPOU
100
AcDbBlockReference
  2
_OPEN30
 10
140.3309004230177
 20
321.0823899371068
 30
0.0
 41
5.0
 42
5.0
 43
5.0
 50
90.0
  0
INSERT
  5
2503
330
717
100
AcDbEntity
  8
SUNPOU
100
AcDbBlockReference
  2
_OPEN30
 10
140.3309004230177
 20
324.0823899371068
 30
0.0
 41
5.0
 42
5.0
 43
5.0
 50
270.0
  0
POINT
  5
2504
330
717
100
AcDbEntity
  8
DEFPOINTS
 62
     0
100
AcDbPoint
 10
226.3309004230155
 20
321.0823899371068
 30
0.0
  0
POINT
  5
2505
330
717
100
AcDbEntity
  8
DEFPOINTS
 62
     0
100
AcDbPoint
 10
204.0809004230175
 20
324.0823899371068
 30
0.0
  0
POINT
  5
2506
330
717
100
AcDbEntity
  8
DEFPOINTS
 62
     0
100
AcDbPoint
 10
140.3309004230177
 20
324.0823899371068
 30
0.0
  0
ENDBLK
  5
724
330
717
100
AcDbEntity
  8
0
100
AcDbBlockEnd
  0
BLOCK
  5
730
330
726
100
AcDbEntity
  8
0
100
AcDbBlockBegin
  2
*D15
 70
     1
 10
0.0
 20
0.0
 30
0.0
  3
*D15
  1

  0
LINE
  5
24F3
330
726
100
AcDbEntity
  8
SUNPOU
100
AcDbLine
 10
201.0809004230175
 20
324.0823899371068
 30
0.0
 11
138.3309004230177
 21
324.0823899371068
 31
0.0
  0
LINE
  5
24F4
330
726
100
AcDbEntity
  8
SUNPOU
100
AcDbLine
 10
201.0809004230175
 20
506.0823899371069
 30
0.0
 11
138.3309004230177
 21
506.0823899371069
 31
0.0
  0
LINE
  5
24F5
330
726
100
AcDbEntity
  8
SUNPOU
100
AcDbLine
 10
140.3309004230177
 20
329.0823899371068
 30
0.0
 11
140.3309004230177
 21
501.0823899371067
 31
0.0
  0
INSERT
  5
24F6
330
726
100
AcDbEntity
  8
SUNPOU
100
AcDbBlockReference
  2
_OPEN30
 10
140.3309004230177
 20
324.0823899371068
 30
0.0
 41
5.0
 42
5.0
 43
5.0
 50
270.0
  0
INSERT
  5
24F7
330
726
100
AcDbEntity
  8
SUNPOU
100
AcDbBlockReference
  2
_OPEN30
 10
140.3309004230177
 20
506.0823899371069
 30
0.0
 41
5.0
 42
5.0
 43
5.0
 50
90.0
  0
MTEXT
  5
24F8
330
726
100
AcDbEntity
  8
SUNPOU
100
AcDbMText
 10
135.8309004230177
 20
415.0823899371069
 30
0.0
 40
5.0
 41
0.0
 71
     5
 72
     1
  1
\A1;182
  7
SUNPOU
 11
0.0000000000000001
 21
1.0
 31
0.0
1001
ACAD
1000
MTEXTBEGIN
1070
    73
1070
     1
1070
    44
1040
1.0
1070
    74
1070
     0
1000
MTEXTEND
1000
MTEXTBEGIN
1070
    73
1070
     1
1070
    44
1040
1.0
1070
    74
1070
     0
1000
MTEXTEND
  0
POINT
  5
24F9
330
726
100
AcDbEntity
  8
DEFPOINTS
 62
     0
100
AcDbPoint
 10
204.0809004230175
 20
324.0823899371068
 30
0.0
  0
POINT
  5
24FA
330
726
100
AcDbEntity
  8
DEFPOINTS
 62
     0
100
AcDbPoint
 10
204.0809004230175
 20
506.0823899371069
 30
0.0
  0
POINT
  5
24FB
330
726
100
AcDbEntity
  8
DEFPOINTS
 62
     0
100
AcDbPoint
 10
140.3309004230177
 20
506.0823899371069
 30
0.0
  0
ENDBLK
  5
731
330
726
100
AcDbEntity
  8
0
100
AcDbBlockEnd
  0
BLOCK
  5
73D
330
733
100
AcDbEntity
  8
0
100
AcDbBlockBegin
  2
*D16
 70
     1
 10
0.0
 20
0.0
 30
0.0
  3
*D16
  1

  0
LINE
  5
24EA
330
733
100
AcDbEntity
  8
SUNPOU
100
AcDbLine
 10
201.0809004230175
 20
506.0823899371069
 30
0.0
 11
138.3309004230177
 21
506.0823899371069
 31
0.0
  0
LINE
  5
24EB
330
733
100
AcDbEntity
  8
SUNPOU
100
AcDbLine
 10
206.0809004230175
 20
524.0823899371068
 30
0.0
 11
138.3309004230177
 21
524.0823899371068
 31
0.0
  0
LINE
  5
24EC
330
733
100
AcDbEntity
  8
SUNPOU
100
AcDbLine
 10
140.3309004230177
 20
511.0823899371069
 30
0.0
 11
140.3309004230177
 21
519.0823899371069
 31
0.0
  0
INSERT
  5
24ED
330
733
100
AcDbEntity
  8
SUNPOU
100
AcDbBlockReference
  2
_OPEN30
 10
140.3309004230177
 20
506.0823899371069
 30
0.0
 41
5.0
 42
5.0
 43
5.0
 50
270.0
  0
INSERT
  5
24EE
330
733
100
AcDbEntity
  8
SUNPOU
100
AcDbBlockReference
  2
_OPEN30
 10
140.3309004230177
 20
524.0823899371068
 30
0.0
 41
5.0
 42
5.0
 43
5.0
 50
90.0
  0
MTEXT
  5
24EF
330
733
100
AcDbEntity
  8
SUNPOU
100
AcDbMText
 10
135.8309004230177
 20
515.0823899371069
 30
0.0
 40
5.0
 41
0.0
 71
     5
 72
     1
  1
\A1;18
  7
SUNPOU
 11
0.0000000000000001
 21
1.0
 31
0.0
1001
ACAD
1000
MTEXTBEGIN
1070
    73
1070
     1
1070
    44
1040
1.0
1070
    74
1070
     0
1000
MTEXTEND
1000
MTEXTBEGIN
1070
    73
1070
     1
1070
    44
1040
1.0
1070
    74
1070
     0
1000
MTEXTEND
  0
POINT
  5
24F0
330
733
100
AcDbEntity
  8
DEFPOINTS
 62
     0
100
AcDbPoint
 10
204.0809004230175
 20
506.0823899371069
 30
0.0
  0
POINT
  5
24F1
330
733
100
AcDbEntity
  8
DEFPOINTS
 62
     0
100
AcDbPoint
 10
209.0809004230178
 20
524.0823899371068
 30
0.0
  0
POINT
  5
24F2
330
733
100
AcDbEntity
  8
DEFPOINTS
 62
     0
100
AcDbPoint
 10
140.3309004230177
 20
524.0823899371068
 30
0.0
  0
ENDBLK
  5
73E
330
733
100
AcDbEntity
  8
0
100
AcDbBlockEnd
  0
BLOCK
  5
74A
330
740
100
AcDbEntity
  8
0
100
AcDbBlockBegin
  2
*D17
 70
     1
 10
0.0
 20
0.0
 30
0.0
  3
*D17
  1

  0
LINE
  5
24E1
330
740
100
AcDbEntity
  8
SUNPOU
100
AcDbLine
 10
201.0809004230175
 20
324.0823899371068
 30
0.0
 11
178.3309004230175
 21
324.0823899371068
 31
0.0
  0
LINE
  5
24E2
330
740
100
AcDbEntity
  8
SUNPOU
100
AcDbLine
 10
212.5840061229721
 20
409.0822752926363
 30
0.0
 11
178.3309004230175
 21
409.0822752926363
 31
0.0
  0
LINE
  5
24E3
330
740
100
AcDbEntity
  8
SUNPOU
100
AcDbLine
 10
180.3309004230175
 20
329.0823899371068
 30
0.0
 11
180.3309004230175
 21
404.0822752926366
 31
0.0
  0
INSERT
  5
24E4
330
740
100
AcDbEntity
  8
SUNPOU
100
AcDbBlockReference
  2
_OPEN30
 10
180.3309004230175
 20
324.0823899371068
 30
0.0
 41
5.0
 42
5.0
 43
5.0
 50
270.0
  0
INSERT
  5
24E5
330
740
100
AcDbEntity
  8
SUNPOU
100
AcDbBlockReference
  2
_OPEN30
 10
180.3309004230175
 20
409.0822752926363
 30
0.0
 41
5.0
 42
5.0
 43
5.0
 50
90.0
  0
MTEXT
  5
24E6
330
740
100
AcDbEntity
  8
SUNPOU
100
AcDbMText
 10
175.8309004230175
 20
366.5823326148718
 30
0.0
 40
5.0
 41
0.0
 71
     5
 72
     1
  1
\A1;85
  7
SUNPOU
 11
0.0000000000000001
 21
1.0
 31
0.0
1001
ACAD
1000
MTEXTBEGIN
1070
    73
1070
     1
1070
    44
1040
1.0
1070
    74
1070
     0
1000
MTEXTEND
1000
MTEXTBEGIN
1070
    73
1070
     1
1070
    44
1040
1.0
1070
    74
1070
     0
1000
MTEXTEND
  0
POINT
  5
24E7
330
740
100
AcDbEntity
  8
DEFPOINTS
 62
     0
100
AcDbPoint
 10
204.0809004230175
 20
324.0823899371068
 30
0.0
  0
POINT
  5
24E8
330
740
100
AcDbEntity
  8
DEFPOINTS
 62
     0
100
AcDbPoint
 10
215.5840061229723
 20
409.0822752926363
 30
0.0
  0
POINT
  5
24E9
330
740
100
AcDbEntity
  8
DEFPOINTS
 62
     0
100
AcDbPoint
 10
180.3309004230175
 20
409.0822752926363
 30
0.0
  0
ENDBLK
  5
74B
330
740
100
AcDbEntity
  8
0
100
AcDbBlockEnd
  0
BLOCK
  5
757
330
74D
100
AcDbEntity
  8
0
100
AcDbBlockBegin
  2
*D18
 70
     1
 10
0.0
 20
0.0
 30
0.0
  3
*D18
  1

  0
LINE
  5
24D8
330
74D
100
AcDbEntity
  8
SUNPOU
100
AcDbLine
 10
212.5840061229721
 20
409.0822752926363
 30
0.0
 11
178.3309004230175
 21
409.0822752926363
 31
0.0
  0
LINE
  5
24D9
330
74D
100
AcDbEntity
  8
SUNPOU
100
AcDbLine
 10
212.5840061229721
 20
454.0822752926366
 30
0.0
 11
178.3309004230175
 21
454.0822752926366
 31
0.0
  0
LINE
  5
24DA
330
74D
100
AcDbEntity
  8
SUNPOU
100
AcDbLine
 10
180.3309004230175
 20
414.0822752926366
 30
0.0
 11
180.3309004230175
 21
449.0822752926365
 31
0.0
  0
MTEXT
  5
24DB
330
74D
100
AcDbEntity
  8
SUNPOU
100
AcDbMText
 10
175.8309004230175
 20
440.6603864610048
 30
0.0
 40
5.0
 41
0.0
 71
     5
 72
     1
  1
\A1;45
  7
SUNPOU
 11
0.0000000000000001
 21
1.0
 31
0.0
1001
ACAD
1000
MTEXTBEGIN
1070
    73
1070
     1
1070
    44
1040
1.0
1070
    74
1070
     0
1000
MTEXTEND
1000
MTEXTBEGIN
1070
    73
1070
     1
1070
    44
1040
1.0
1070
    74
1070
     0
1000
MTEXTEND
  0
INSERT
  5
24DC
330
74D
100
AcDbEntity
  8
SUNPOU
100
AcDbBlockReference
  2
_OPEN30
 10
180.3309004230175
 20
409.0822752926363
 30
0.0
 41
5.0
 42
5.0
 43
5.0
 50
270.0
  0
INSERT
  5
24DD
330
74D
100
AcDbEntity
  8
SUNPOU
100
AcDbBlockReference
  2
_OPEN30
 10
180.3309004230175
 20
454.0822752926366
 30
0.0
 41
5.0
 42
5.0
 43
5.0
 50
90.0
  0
POINT
  5
24DE
330
74D
100
AcDbEntity
  8
DEFPOINTS
 62
     0
100
AcDbPoint
 10
215.5840061229723
 20
409.0822752926363
 30
0.0
  0
POINT
  5
24DF
330
74D
100
AcDbEntity
  8
DEFPOINTS
 62
     0
100
AcDbPoint
 10
215.5840061229723
 20
454.0822752926366
 30
0.0
  0
POINT
  5
24E0
330
74D
100
AcDbEntity
  8
DEFPOINTS
 62
     0
100
AcDbPoint
 10
180.3309004230175
 20
454.0822752926366
 30
0.0
  0
ENDBLK
  5
758
330
74D
100
AcDbEntity
  8
0
100
AcDbBlockEnd
  0
BLOCK
  5
773
330
769
100
AcDbEntity
  8
0
100
AcDbBlockBegin
  2
*D19
 70
     1
 10
0.0
 20
0.0
 30
0.0
  3
*D19
  1

  0
LINE
  5
2801
330
769
100
AcDbEntity
  8
SUNPOU
100
AcDbLine
 10
224.3309004230155
 20
95.08238993710712
 30
0.0
 11
138.3309004230177
 21
95.08238993710717
 31
0.0
  0
LINE
  5
2802
330
769
100
AcDbEntity
  8
SUNPOU
100
AcDbLine
 10
194.3309004230175
 20
219.0823899371068
 30
0.0
 11
138.3309004230177
 21
219.0823899371068
 31
0.0
  0
LINE
  5
2803
330
769
100
AcDbEntity
  8
SUNPOU
100
AcDbLine
 10
140.3309004230177
 20
100.082389937107
 30
0.0
 11
140.3309004230177
 21
214.0823899371068
 31
0.0
  0
INSERT
  5
2804
330
769
100
AcDbEntity
  8
SUNPOU
100
AcDbBlockReference
  2
_OPEN30
 10
140.3309004230177
 20
95.08238993710717
 30
0.0
 41
5.0
 42
5.0
 43
5.0
 50
270.0
  0
INSERT
  5
2805
330
769
100
AcDbEntity
  8
SUNPOU
100
AcDbBlockReference
  2
_OPEN30
 10
140.3309004230177
 20
219.0823899371068
 30
0.0
 41
5.0
 42
5.0
 43
5.0
 50
90.0
  0
MTEXT
  5
2806
330
769
100
AcDbEntity
  8
SUNPOU
100
AcDbMText
 10
135.8309004230177
 20
157.0823899371069
 30
0.0
 40
5.0
 41
0.0
 71
     5
 72
     1
  1
\A1;600
  7
SUNPOU
 11
0.0000000000000001
 21
1.0
 31
0.0
1001
ACAD
1000
MTEXTBEGIN
1070
    73
1070
     1
1070
    44
1040
1.0
1070
    74
1070
     0
1000
MTEXTEND
1000
MTEXTBEGIN
1070
    73
1070
     1
1070
    44
1040
1.0
1070
    74
1070
     0
1000
MTEXTEND
  0
POINT
  5
2807
330
769
100
AcDbEntity
  8
DEFPOINTS
 62
     0
100
AcDbPoint
 10
227.3309004230156
 20
95.08238993710712
 30
0.0
  0
POINT
  5
2808
330
769
100
AcDbEntity
  8
DEFPOINTS
 62
     0
100
AcDbPoint
 10
197.3309004230175
 20
219.0823899371068
 30
0.0
  0
POINT
  5
2809
330
769
100
AcDbEntity
  8
DEFPOINTS
 62
     0
100
AcDbPoint
 10
140.3309004230177
 20
219.0823899371068
 30
0.0
  0
ENDBLK
  5
774
330
769
100
AcDbEntity
  8
0
100
AcDbBlockEnd
  0
BLOCK
  5
781
330
777
100
AcDbEntity
  8
0
100
AcDbBlockBegin
  2
*D20
 70
     1
 10
0.0
 20
0.0
 30
0.0
  3
*D20
  1

  0
LINE
  5
268E
330
777
100
AcDbEntity
  8
SUNPOU
100
AcDbLine
 10
323.3309004230176
 20
68.08238993710713
 30
0.0
 11
362.3309004230176
 21
68.08238993710713
 31
0.0
  0
LINE
  5
268F
330
777
100
AcDbEntity
  8
SUNPOU
100
AcDbLine
 10
323.3309004230176
 20
98.08238993710713
 30
0.0
 11
362.3309004230176
 21
98.08238993710709
 31
0.0
  0
LINE
  5
2690
330
777
100
AcDbEntity
  8
SUNPOU
100
AcDbLine
 10
360.3309004230176
 20
73.08238993710713
 30
0.0
 11
360.3309004230176
 21
93.08238993710707
 31
0.0
  0
INSERT
  5
2691
330
777
100
AcDbEntity
  8
SUNPOU
100
AcDbBlockReference
  2
_OPEN30
 10
360.3309004230176
 20
68.08238993710713
 30
0.0
 41
5.0
 42
5.0
 43
5.0
 50
270.0
  0
INSERT
  5
2692
330
777
100
AcDbEntity
  8
SUNPOU
100
AcDbBlockReference
  2
_OPEN30
 10
360.3309004230176
 20
98.08238993710709
 30
0.0
 41
5.0
 42
5.0
 43
5.0
 50
90.0
  0
MTEXT
  5
2693
330
777
100
AcDbEntity
  8
SUNPOU
100
AcDbMText
 10
355.8309004230177
 20
83.08238993710714
 30
0.0
 40
5.0
 41
0.0
 71
     5
 72
     1
  1
\A1;30
  7
SUNPOU
 11
0.0000000000000001
 21
1.0
 31
0.0
1001
ACAD
1000
MTEXTBEGIN
1070
    73
1070
     1
1070
    44
1040
1.0
1070
    74
1070
     0
1000
MTEXTEND
1000
MTEXTBEGIN
1070
    73
1070
     1
1070
    44
1040
1.0
1070
    74
1070
     0
1000
MTEXTEND
  0
POINT
  5
2694
330
777
100
AcDbEntity
  8
DEFPOINTS
 62
     0
100
AcDbPoint
 10
320.3309004230177
 20
68.08238993710713
 30
0.0
  0
POINT
  5
2695
330
777
100
AcDbEntity
  8
DEFPOINTS
 62
     0
100
AcDbPoint
 10
320.3309004230177
 20
98.08238993710713
 30
0.0
  0
POINT
  5
2696
330
777
100
AcDbEntity
  8
DEFPOINTS
 62
     0
100
AcDbPoint
 10
360.3309004230176
 20
98.08238993710709
 30
0.0
  0
ENDBLK
  5
782
330
777
100
AcDbEntity
  8
0
100
AcDbBlockEnd
  0
BLOCK
  5
790
330
784
100
AcDbEntity
  8
0
100
AcDbBlockBegin
  2
*D21
 70
     1
 10
0.0
 20
0.0
 30
0.0
  3
*D21
  1

  0
LINE
  5
2FF5
330
784
100
AcDbEntity
  8
SUNPOU
100
AcDbLine
 10
312.3309004230176
 20
98.08238993710729
 30
0.0
 11
362.3309004230176
 21
98.08238993710729
 31
0.0
  0
LINE
  5
2FF6
330
784
100
AcDbEntity
  8
SUNPOU
100
AcDbLine
 10
298.3309004230176
 20
105.082389937107
 30
0.0
 11
362.3309004230176
 21
105.082389937107
 31
0.0
  0
LINE
  5
2FF7
330
784
100
AcDbEntity
  8
SUNPOU
100
AcDbLine
 10
360.3309004230176
 20
98.08238993710729
 30
0.0
 11
360.3309004230176
 21
93.08238993710729
 31
0.0
  0
LINE
  5
2FF8
330
784
100
AcDbEntity
  8
SUNPOU
100
AcDbLine
 10
360.3309004230176
 20
110.082389937107
 30
0.0
 11
360.3309004230176
 21
115.082389937107
 31
0.0
  0
MTEXT
  5
2FF9
330
784
100
AcDbEntity
  8
SUNPOU
100
AcDbMText
 10
354.4631531101626
 20
102.2490325600335
 30
0.0
 40
5.0
 41
0.0
 71
     5
 72
     1
  1
\A1;7
  7
SUNPOU
 11
0.0000000000000001
 21
1.0
 31
0.0
1001
ACAD
1000
MTEXTBEGIN
1070
    73
1070
     1
1070
    44
1040
1.0
1070
    74
1070
     0
1000
MTEXTEND
1000
MTEXTBEGIN
1070
    73
1070
     1
1070
    44
1040
1.0
1070
    74
1070
     0
1000
MTEXTEND
  0
LINE
  5
2FFA
330
784
100
AcDbEntity
  8
SUNPOU
100
AcDbLine
 10
360.3309004230176
 20
98.08238993710729
 30
0.0
 11
360.3309004230176
 21
105.082389937107
 31
0.0
  0
INSERT
  5
2FFB
330
784
100
AcDbEntity
  8
SUNPOU
100
AcDbBlockReference
  2
_DOTSMALL
 10
360.3309004230176
 20
98.08238993710729
 30
0.0
 41
5.0
 42
5.0
 43
5.0
 50
90.0
  0
INSERT
  5
2FFC
330
784
100
AcDbEntity
  8
SUNPOU
100
AcDbBlockReference
  2
_OPEN30
 10
360.3309004230176
 20
105.082389937107
 30
0.0
 41
5.0
 42
5.0
 43
5.0
 50
270.0
  0
POINT
  5
2FFD
330
784
100
AcDbEntity
  8
DEFPOINTS
 62
     0
100
AcDbPoint
 10
309.3309004230178
 20
98.08238993710729
 30
0.0
  0
POINT
  5
2FFE
330
784
100
AcDbEntity
  8
DEFPOINTS
 62
     0
100
AcDbPoint
 10
295.3309004230177
 20
105.082389937107
 30
0.0
  0
POINT
  5
2FFF
330
784
100
AcDbEntity
  8
DEFPOINTS
 62
     0
100
AcDbPoint
 10
360.3309004230176
 20
105.082389937107
 30
0.0
  0
ENDBLK
  5
791
330
784
100
AcDbEntity
  8
0
100
AcDbBlockEnd
  0
BLOCK
  5
7AC
330
7A0
100
AcDbEntity
  8
0
100
AcDbBlockBegin
  2
*D22
 70
     1
 10
0.0
 20
0.0
 30
0.0
  3
*D22
  1

  0
LINE
  5
24A7
330
7A0
100
AcDbEntity
  8
SUNPOU
100
AcDbLine
 10
319.5809004230176
 20
324.0823899371068
 30
0.0
 11
352.3309004230176
 21
324.0823899371068
 31
0.0
  0
LINE
  5
24A8
330
7A0
100
AcDbEntity
  8
SUNPOU
100
AcDbLine
 10
298.3309004230178
 20
331.082389937107
 30
0.0
 11
352.3309004230176
 21
331.082389937107
 31
0.0
  0
LINE
  5
24A9
330
7A0
100
AcDbEntity
  8
SUNPOU
100
AcDbLine
 10
350.3309004230176
 20
319.0823899371068
 30
0.0
 11
350.3309004230176
 21
314.0823899371068
 31
0.0
  0
LINE
  5
24AA
330
7A0
100
AcDbEntity
  8
SUNPOU
100
AcDbLine
 10
350.3309004230176
 20
336.0823899371069
 30
0.0
 11
350.3309004230176
 21
341.082389937107
 31
0.0
  0
LINE
  5
24AB
330
7A0
100
AcDbEntity
  8
SUNPOU
100
AcDbLine
 10
350.3309004230176
 20
324.0823899371068
 30
0.0
 11
350.3309004230176
 21
331.082389937107
 31
0.0
  0
INSERT
  5
24AC
330
7A0
100
AcDbEntity
  8
SUNPOU
100
AcDbBlockReference
  2
_OPEN30
 10
350.3309004230176
 20
324.0823899371068
 30
0.0
 41
5.0
 42
5.0
 43
5.0
 50
90.0
  0
INSERT
  5
24AD
330
7A0
100
AcDbEntity
  8
SUNPOU
100
AcDbBlockReference
  2
_OPEN30
 10
350.3309004230176
 20
331.082389937107
 30
0.0
 41
5.0
 42
5.0
 43
5.0
 50
270.0
  0
MTEXT
  5
24AE
330
7A0
100
AcDbEntity
  8
SUNPOU
100
AcDbMText
 10
345.8309004230176
 20
327.5823899371069
 30
0.0
 40
5.0
 41
0.0
 71
     5
 72
     1
  1
\A1;7
  7
SUNPOU
 11
0.0000000000000001
 21
1.0
 31
0.0
1001
ACAD
1000
MTEXTBEGIN
1070
    73
1070
     1
1070
    44
1040
1.0
1070
    74
1070
     0
1000
MTEXTEND
1000
MTEXTBEGIN
1070
    73
1070
     1
1070
    44
1040
1.0
1070
    74
1070
     0
1000
MTEXTEND
  0
POINT
  5
24AF
330
7A0
100
AcDbEntity
  8
DEFPOINTS
 62
     0
100
AcDbPoint
 10
316.5809004230176
 20
324.0823899371068
 30
0.0
  0
POINT
  5
24B0
330
7A0
100
AcDbEntity
  8
DEFPOINTS
 62
     0
100
AcDbPoint
 10
295.3309004230177
 20
331.082389937107
 30
0.0
  0
POINT
  5
24B1
330
7A0
100
AcDbEntity
  8
DEFPOINTS
 62
     0
100
AcDbPoint
 10
350.3309004230176
 20
331.082389937107
 30
0.0
  0
ENDBLK
  5
7AD
330
7A0
100
AcDbEntity
  8
0
100
AcDbBlockEnd
  0
BLOCK
  5
7B9
330
7AF
100
AcDbEntity
  8
0
100
AcDbBlockBegin
  2
*D23
 70
     1
 10
0.0
 20
0.0
 30
0.0
  3
*D23
  1

  0
LINE
  5
3000
330
7AF
100
AcDbEntity
  8
SUNPOU
100
AcDbLine
 10
312.3309004230176
 20
98.08238993710729
 30
0.0
 11
382.3309004230176
 21
98.08238993710729
 31
0.0
  0
LINE
  5
3001
330
7AF
100
AcDbEntity
  8
SUNPOU
100
AcDbLine
 10
319.5809004230176
 20
324.0823899371068
 30
0.0
 11
382.3309004230176
 21
324.0823899371068
 31
0.0
  0
LINE
  5
3002
330
7AF
100
AcDbEntity
  8
SUNPOU
100
AcDbLine
 10
380.3309004230176
 20
103.082389937107
 30
0.0
 11
380.3309004230176
 21
319.0823899371068
 31
0.0
  0
INSERT
  5
3003
330
7AF
100
AcDbEntity
  8
SUNPOU
100
AcDbBlockReference
  2
_OPEN30
 10
380.3309004230176
 20
98.08238993710729
 30
0.0
 41
5.0
 42
5.0
 43
5.0
 50
270.0
  0
INSERT
  5
3004
330
7AF
100
AcDbEntity
  8
SUNPOU
100
AcDbBlockReference
  2
_OPEN30
 10
380.3309004230176
 20
324.0823899371068
 30
0.0
 41
5.0
 42
5.0
 43
5.0
 50
90.0
  0
MTEXT
  5
3005
330
7AF
100
AcDbEntity
  8
SUNPOU
100
AcDbMText
 10
375.8309004230176
 20
211.082389937107
 30
0.0
 40
5.0
 41
0.0
 71
     5
 72
     1
  1
\A1;Ｈ
  7
SUNPOU
 11
0.0000000000000001
 21
1.0
 31
0.0
1001
ACAD
1000
MTEXTBEGIN
1070
    73
1070
     1
1070
    44
1040
1.0
1070
    74
1070
     0
1000
MTEXTEND
1000
MTEXTBEGIN
1070
    73
1070
     1
1070
    44
1040
1.0
1070
    74
1070
     0
1000
MTEXTEND
  0
POINT
  5
3006
330
7AF
100
AcDbEntity
  8
DEFPOINTS
 62
     0
100
AcDbPoint
 10
309.3309004230178
 20
98.08238993710729
 30
0.0
  0
POINT
  5
3007
330
7AF
100
AcDbEntity
  8
DEFPOINTS
 62
     0
100
AcDbPoint
 10
316.5809004230176
 20
324.0823899371068
 30
0.0
  0
POINT
  5
3008
330
7AF
100
AcDbEntity
  8
DEFPOINTS
 62
     0
100
AcDbPoint
 10
380.3309004230176
 20
324.0823899371068
 30
0.0
  0
ENDBLK
  5
7BA
330
7AF
100
AcDbEntity
  8
0
100
AcDbBlockEnd
  0
BLOCK
  5
7C6
330
7BC
100
AcDbEntity
  8
0
100
AcDbBlockBegin
  2
*D24
 70
     1
 10
0.0
 20
0.0
 30
0.0
  3
*D24
  1

  0
LINE
  5
2495
330
7BC
100
AcDbEntity
  8
SUNPOU
100
AcDbLine
 10
319.5809004230176
 20
324.0823899371068
 30
0.0
 11
382.3309004230176
 21
324.0823899371068
 31
0.0
  0
LINE
  5
2496
330
7BC
100
AcDbEntity
  8
SUNPOU
100
AcDbLine
 10
320.3309004230177
 20
524.0823899371068
 30
0.0
 11
382.3309004230178
 21
524.0823899371068
 31
0.0
  0
LINE
  5
2497
330
7BC
100
AcDbEntity
  8
SUNPOU
100
AcDbLine
 10
380.3309004230176
 20
329.0823899371068
 30
0.0
 11
380.3309004230176
 21
519.0823899371069
 31
0.0
  0
INSERT
  5
2498
330
7BC
100
AcDbEntity
  8
SUNPOU
100
AcDbBlockReference
  2
_OPEN30
 10
380.3309004230176
 20
324.0823899371068
 30
0.0
 41
5.0
 42
5.0
 43
5.0
 50
270.0
  0
INSERT
  5
2499
330
7BC
100
AcDbEntity
  8
SUNPOU
100
AcDbBlockReference
  2
_OPEN30
 10
380.3309004230176
 20
524.0823899371068
 30
0.0
 41
5.0
 42
5.0
 43
5.0
 50
90.0
  0
MTEXT
  5
249A
330
7BC
100
AcDbEntity
  8
SUNPOU
100
AcDbMText
 10
375.8309004230176
 20
424.0823899371068
 30
0.0
 40
5.0
 41
0.0
 71
     5
 72
     1
  1
\A1;200
  7
SUNPOU
 11
0.0000000000000001
 21
1.0
 31
0.0
1001
ACAD
1000
MTEXTBEGIN
1070
    73
1070
     1
1070
    44
1040
1.0
1070
    74
1070
     0
1000
MTEXTEND
1000
MTEXTBEGIN
1070
    73
1070
     1
1070
    44
1040
1.0
1070
    74
1070
     0
1000
MTEXTEND
  0
POINT
  5
249B
330
7BC
100
AcDbEntity
  8
DEFPOINTS
 62
     0
100
AcDbPoint
 10
316.5809004230176
 20
324.0823899371068
 30
0.0
  0
POINT
  5
249C
330
7BC
100
AcDbEntity
  8
DEFPOINTS
 62
     0
100
AcDbPoint
 10
317.3309004230176
 20
524.0823899371068
 30
0.0
  0
POINT
  5
249D
330
7BC
100
AcDbEntity
  8
DEFPOINTS
 62
     0
100
AcDbPoint
 10
380.3309004230176
 20
524.0823899371068
 30
0.0
  0
ENDBLK
  5
7C7
330
7BC
100
AcDbEntity
  8
0
100
AcDbBlockEnd
  0
BLOCK
  5
1034
330
102B
100
AcDbEntity
  8
0
100
AcDbBlockBegin
  2
*D25
 70
     1
 10
0.0
 20
0.0
 30
0.0
  3
*D25
  1

  0
LINE
  5
2484
330
102B
100
AcDbEntity
  8
SUNPOU
100
AcDbLine
 10
237.921103610065
 20
425.924353118695
 30
0.0
 11
234.2686511374169
 21
422.5097388015217
 31
0.0
  0
LINE
  5
2485
330
102B
100
AcDbEntity
  8
SUNPOU
100
AcDbLine
 10
267.1407233912523
 20
453.2412676560811
 30
0.0
 11
270.7931758639006
 21
456.6558819732543
 31
0.0
  0
MTEXT
  5
2486
330
102B
100
AcDbEntity
  8
SUNPOU
100
AcDbMText
 10
249.6863206850973
 20
442.6798451818188
 30
0.0
 40
5.0
 41
0.0
 71
     5
 72
     1
  1
\A1;配線孔\U+220530
  7
SUNPOU
 11
0.730490494529677
 21
0.6829228634346548
 31
0.0
1001
ACAD
1000
MTEXTBEGIN
1070
    73
1070
     1
1070
    44
1040
1.0
1070
    74
1070
     0
1000
MTEXTEND
1000
MTEXTBEGIN
1070
    73
1070
     1
1070
    44
1040
1.0
1070
    74
1070
     0
1000
MTEXTEND
  0
LINE
  5
2487
330
102B
100
AcDbEntity
  8
SUNPOU
100
AcDbLine
 10
241.5735560827136
 20
429.3389674358683
 30
0.0
 11
263.488270918604
 21
449.8266533389078
 31
0.0
  0
INSERT
  5
2488
330
102B
100
AcDbEntity
  8
SUNPOU
100
AcDbBlockReference
  2
_OPEN30
 10
241.5735560827136
 20
429.3389674358683
 30
0.0
 41
5.0
 42
5.0
 43
5.0
 50
43.07247028711779
  0
INSERT
  5
2489
330
102B
100
AcDbEntity
  8
SUNPOU
100
AcDbBlockReference
  2
_OPEN30
 10
263.488270918604
 20
449.8266533389078
 30
0.0
 41
5.0
 42
5.0
 43
5.0
 50
223.0724702871178
  0
POINT
  5
248A
330
102B
100
AcDbEntity
  8
DEFPOINTS
 62
     0
100
AcDbPoint
 10
263.488270918604
 20
449.8266533389078
 30
0.0
  0
POINT
  5
248B
330
102B
100
AcDbEntity
  8
DEFPOINTS
 62
     0
100
AcDbPoint
 10
241.5735560827136
 20
429.3389674358683
 30
0.0
  0
ENDBLK
  5
1035
330
102B
100
AcDbEntity
  8
0
100
AcDbBlockEnd
  0
BLOCK
  5
2304
330
22FA
100
AcDbEntity
  8
0
100
AcDbBlockBegin
  2
*D26
 70
     1
 10
0.0
 20
0.0
 30
0.0
  3
*D26
  1

  0
LINE
  5
2FC1
330
22FA
100
AcDbEntity
  8
SUNPOU
100
AcDbLine
 10
225.5809004230155
 20
236.0823899371067
 30
0.0
 11
178.3309004230175
 21
236.0823899371067
 31
0.0
  0
LINE
  5
2FC2
330
22FA
100
AcDbEntity
  8
SUNPOU
100
AcDbLine
 10
223.3309004230155
 20
321.0823899371068
 30
0.0
 11
178.3309004230175
 21
321.0823899371068
 31
0.0
  0
LINE
  5
2FC3
330
22FA
100
AcDbEntity
  8
SUNPOU
100
AcDbLine
 10
180.3309004230175
 20
241.0823899371067
 30
0.0
 11
180.3309004230175
 21
316.0823899371068
 31
0.0
  0
INSERT
  5
2FC4
330
22FA
100
AcDbEntity
  8
SUNPOU
100
AcDbBlockReference
  2
_OPEN30
 10
180.3309004230175
 20
236.0823899371067
 30
0.0
 41
5.0
 42
5.0
 43
5.0
 50
270.0
  0
INSERT
  5
2FC5
330
22FA
100
AcDbEntity
  8
SUNPOU
100
AcDbBlockReference
  2
_OPEN30
 10
180.3309004230175
 20
321.0823899371068
 30
0.0
 41
5.0
 42
5.0
 43
5.0
 50
90.0
  0
MTEXT
  5
2FC6
330
22FA
100
AcDbEntity
  8
SUNPOU
100
AcDbMText
 10
175.8309004230175
 20
278.5823899371068
 30
0.0
 40
5.0
 41
0.0
 71
     5
 72
     1
  1
\A1;85
  7
SUNPOU
 11
0.0000000000000001
 21
1.0
 31
0.0
1001
ACAD
1000
MTEXTBEGIN
1070
    73
1070
     1
1070
    44
1040
1.0
1070
    74
1070
     0
1000
MTEXTEND
1000
MTEXTBEGIN
1070
    73
1070
     1
1070
    44
1040
1.0
1070
    74
1070
     0
1000
MTEXTEND
  0
POINT
  5
2FC7
330
22FA
100
AcDbEntity
  8
DEFPOINTS
 62
     0
100
AcDbPoint
 10
228.5809004230156
 20
236.0823899371067
 30
0.0
  0
POINT
  5
2FC8
330
22FA
100
AcDbEntity
  8
DEFPOINTS
 62
     0
100
AcDbPoint
 10
226.3309004230155
 20
321.0823899371068
 30
0.0
  0
POINT
  5
2FC9
330
22FA
100
AcDbEntity
  8
DEFPOINTS
 62
     0
100
AcDbPoint
 10
180.3309004230175
 20
321.0823899371068
 30
0.0
  0
ENDBLK
  5
2305
330
22FA
100
AcDbEntity
  8
0
100
AcDbBlockEnd
  0
BLOCK
  5
2330
330
2326
100
AcDbEntity
  8
0
100
AcDbBlockBegin
  2
*D27
 70
     1
 10
0.0
 20
0.0
 30
0.0
  3
*D27
  1

  0
LINE
  5
27B5
330
2326
100
AcDbEntity
  8
SUNPOU
100
AcDbLine
 10
298.3309004230176
 20
105.082389937107
 30
0.0
 11
362.3309004230176
 21
105.082389937107
 31
0.0
  0
LINE
  5
27B6
330
2326
100
AcDbEntity
  8
SUNPOU
100
AcDbLine
 10
296.3309004230176
 20
200.082389937107
 30
0.0
 11
362.3309004230176
 21
200.082389937107
 31
0.0
  0
LINE
  5
27B7
330
2326
100
AcDbEntity
  8
SUNPOU
100
AcDbLine
 10
360.3309004230176
 20
110.082389937107
 30
0.0
 11
360.3309004230176
 21
195.082389937107
 31
0.0
  0
MTEXT
  5
27B8
330
2326
100
AcDbEntity
  8
SUNPOU
100
AcDbMText
 10
355.6771205923473
 20
142.2718607598589
 30
0.0
 40
5.0
 41
0.0
 71
     5
 72
     1
  1
\A1;95
  7
SUNPOU
 11
0.0000000000000001
 21
1.0
 31
0.0
1001
ACAD
1000
MTEXTBEGIN
1070
    73
1070
     1
1070
    44
1040
1.0
1070
    74
1070
     0
1000
MTEXTEND
1000
MTEXTBEGIN
1070
    73
1070
     1
1070
    44
1040
1.0
1070
    74
1070
     0
1000
MTEXTEND
  0
INSERT
  5
27B9
330
2326
100
AcDbEntity
  8
SUNPOU
100
AcDbBlockReference
  2
_OPEN30
 10
360.3309004230176
 20
105.082389937107
 30
0.0
 41
5.0
 42
5.0
 43
5.0
 50
270.0
  0
INSERT
  5
27BA
330
2326
100
AcDbEntity
  8
SUNPOU
100
AcDbBlockReference
  2
_OPEN30
 10
360.3309004230176
 20
200.082389937107
 30
0.0
 41
5.0
 42
5.0
 43
5.0
 50
90.0
  0
POINT
  5
27BB
330
2326
100
AcDbEntity
  8
DEFPOINTS
 62
     0
100
AcDbPoint
 10
295.3309004230177
 20
105.082389937107
 30
0.0
  0
POINT
  5
27BC
330
2326
100
AcDbEntity
  8
DEFPOINTS
 62
     0
100
AcDbPoint
 10
293.3309004230176
 20
200.082389937107
 30
0.0
  0
POINT
  5
27BD
330
2326
100
AcDbEntity
  8
DEFPOINTS
 62
     0
100
AcDbPoint
 10
360.3309004230176
 20
200.082389937107
 30
0.0
  0
ENDBLK
  5
2331
330
2326
100
AcDbEntity
  8
0
100
AcDbBlockEnd
  0
BLOCK
  5
233D
330
2333
100
AcDbEntity
  8
0
100
AcDbBlockBegin
  2
*D28
 70
     1
 10
0.0
 20
0.0
 30
0.0
  3
*D28
  1

  0
LINE
  5
2799
330
2333
100
AcDbEntity
  8
SUNPOU
100
AcDbLine
 10
296.0809004230176
 20
236.0823899371069
 30
0.0
 11
362.3309004230176
 21
236.0823899371068
 31
0.0
  0
LINE
  5
279A
330
2333
100
AcDbEntity
  8
SUNPOU
100
AcDbLine
 10
298.3309004230178
 20
331.082389937107
 30
0.0
 11
362.3309004230176
 21
331.082389937107
 31
0.0
  0
LINE
  5
279B
330
2333
100
AcDbEntity
  8
SUNPOU
100
AcDbLine
 10
360.3309004230176
 20
241.0823899371068
 30
0.0
 11
360.3309004230176
 21
326.0823899371068
 31
0.0
  0
INSERT
  5
279C
330
2333
100
AcDbEntity
  8
SUNPOU
100
AcDbBlockReference
  2
_OPEN30
 10
360.3309004230176
 20
236.0823899371068
 30
0.0
 41
5.0
 42
5.0
 43
5.0
 50
270.0
  0
INSERT
  5
279D
330
2333
100
AcDbEntity
  8
SUNPOU
100
AcDbBlockReference
  2
_OPEN30
 10
360.3309004230176
 20
331.082389937107
 30
0.0
 41
5.0
 42
5.0
 43
5.0
 50
90.0
  0
MTEXT
  5
279E
330
2333
100
AcDbEntity
  8
SUNPOU
100
AcDbMText
 10
355.8309004230177
 20
283.5823899371068
 30
0.0
 40
5.0
 41
0.0
 71
     5
 72
     1
  1
\A1;95
  7
SUNPOU
 11
0.0000000000000001
 21
1.0
 31
0.0
1001
ACAD
1000
MTEXTBEGIN
1070
    73
1070
     1
1070
    44
1040
1.0
1070
    74
1070
     0
1000
MTEXTEND
1000
MTEXTBEGIN
1070
    73
1070
     1
1070
    44
1040
1.0
1070
    74
1070
     0
1000
MTEXTEND
  0
POINT
  5
279F
330
2333
100
AcDbEntity
  8
DEFPOINTS
 62
     0
100
AcDbPoint
 10
293.0809004230176
 20
236.0823899371069
 30
0.0
  0
POINT
  5
27A0
330
2333
100
AcDbEntity
  8
DEFPOINTS
 62
     0
100
AcDbPoint
 10
295.3309004230177
 20
331.082389937107
 30
0.0
  0
POINT
  5
27A1
330
2333
100
AcDbEntity
  8
DEFPOINTS
 62
     0
100
AcDbPoint
 10
360.3309004230176
 20
331.082389937107
 30
0.0
  0
ENDBLK
  5
233E
330
2333
100
AcDbEntity
  8
0
100
AcDbBlockEnd
  0
BLOCK
  5
23D7
330
23D5
100
AcDbEntity
  8
0
100
AcDbBlockBegin
  2
_DOTSMALL
 70
     0
 10
0.0
 20
0.0
 30
0.0
  3
_DOTSMALL
  1

  0
POLYLINE
  5
23D6
330
23D5
100
AcDbEntity
  8
0
  6
BYBLOCK
 62
     0
100
AcDb2dPolyline
 66
     1
 10
0.0
 20
0.0
 30
0.0
 70
     1
 40
0.5
 41
0.5
  0
VERTEX
  5
30DB
330
23D6
100
AcDbEntity
  8
0
  6
BYBLOCK
 62
     0
100
AcDbVertex
100
AcDb2dVertex
 10
-0.0625
 20
0.0
 30
0.0
 42
1.0
  0
VERTEX
  5
30DC
330
23D6
100
AcDbEntity
  8
0
  6
BYBLOCK
 62
     0
100
AcDbVertex
100
AcDb2dVertex
 10
0.0625
 20
0.0
 30
0.0
 42
1.0
  0
SEQEND
  5
30DD
330
23D6
100
AcDbEntity
  8
0
  6
BYBLOCK
 62
     0
  0
ENDBLK
  5
23D8
330
23D5
100
AcDbEntity
  8
0
100
AcDbBlockEnd
  0
BLOCK
  5
2428
330
241C
100
AcDbEntity
  8
0
100
AcDbBlockBegin
  2
*D30
 70
     1
 10
0.0
 20
0.0
 30
0.0
  3
*D30
  1

  0
LINE
  5
300C
330
241C
100
AcDbEntity
  8
SUNPOU
100
AcDbLine
 10
377.3309004230176
 20
98.08238993710729
 30
0.0
 11
378.3309004230176
 21
98.08238993710729
 31
0.0
  0
LINE
  5
300D
330
241C
100
AcDbEntity
  8
SUNPOU
100
AcDbLine
 10
312.3309004230176
 20
95.08238993710728
 30
0.0
 11
382.3309004230176
 21
95.08238993710724
 31
0.0
  0
LINE
  5
300E
330
241C
100
AcDbEntity
  8
SUNPOU
100
AcDbLine
 10
380.3309004230176
 20
103.082389937107
 30
0.0
 11
380.3309004230176
 21
108.082389937107
 31
0.0
  0
LINE
  5
300F
330
241C
100
AcDbEntity
  8
SUNPOU
100
AcDbLine
 10
380.3309004230176
 20
90.08238993710724
 30
0.0
 11
380.3309004230176
 21
85.08238993710726
 31
0.0
  0
MTEXT
  5
3010
330
241C
100
AcDbEntity
  8
SUNPOU
100
AcDbMText
 10
375.7013268818613
 20
90.56015275833237
 30
0.0
 40
5.0
 41
0.0
 71
     5
 72
     1
  1
\A1;3
  7
SUNPOU
 11
0.0000000000000001
 21
1.0
 31
0.0
1001
ACAD
1000
MTEXTBEGIN
1070
    73
1070
     1
1070
    44
1040
1.0
1070
    74
1070
     0
1000
MTEXTEND
1000
MTEXTBEGIN
1070
    73
1070
     1
1070
    44
1040
1.0
1070
    74
1070
     0
1000
MTEXTEND
  0
LINE
  5
3011
330
241C
100
AcDbEntity
  8
SUNPOU
100
AcDbLine
 10
380.3309004230176
 20
98.08238993710729
 30
0.0
 11
380.3309004230176
 21
95.08238993710724
 31
0.0
  0
INSERT
  5
3012
330
241C
100
AcDbEntity
  8
SUNPOU
100
AcDbBlockReference
  2
_OPEN30
 10
380.3309004230176
 20
98.08238993710729
 30
0.0
 41
5.0
 42
5.0
 43
5.0
 50
270.0
  0
INSERT
  5
3013
330
241C
100
AcDbEntity
  8
SUNPOU
100
AcDbBlockReference
  2
_OPEN30
 10
380.3309004230176
 20
95.08238993710724
 30
0.0
 41
5.0
 42
5.0
 43
5.0
 50
90.0
  0
POINT
  5
3014
330
241C
100
AcDbEntity
  8
DEFPOINTS
 62
     0
100
AcDbPoint
 10
380.3309004230176
 20
98.08238993710729
 30
0.0
  0
POINT
  5
3015
330
241C
100
AcDbEntity
  8
DEFPOINTS
 62
     0
100
AcDbPoint
 10
309.3309004230178
 20
95.08238993710728
 30
0.0
  0
POINT
  5
3016
330
241C
100
AcDbEntity
  8
DEFPOINTS
 62
     0
100
AcDbPoint
 10
380.3309004230176
 20
95.08238993710724
 30
0.0
  0
ENDBLK
  5
2429
330
241C
100
AcDbEntity
  8
0
100
AcDbBlockEnd
  0
BLOCK
  5
259F
330
2595
100
AcDbEntity
  8
0
100
AcDbBlockBegin
  2
*D31
 70
     1
 10
0.0
 20
0.0
 30
0.0
  3
*D31
  1

  0
LINE
  5
2596
330
2595
100
AcDbEntity
  8
SUNPOU
100
AcDbLine
 10
223.3309004230155
 20
105.0823899371069
 30
0.0
 11
178.3309004230175
 21
105.0823899371069
 31
0.0
  0
LINE
  5
2597
330
2595
100
AcDbEntity
  8
SUNPOU
100
AcDbLine
 10
225.3309004230156
 20
200.0823899371068
 30
0.0
 11
178.3309004230175
 21
200.0823899371068
 31
0.0
  0
LINE
  5
2598
330
2595
100
AcDbEntity
  8
SUNPOU
100
AcDbLine
 10
180.3309004230175
 20
110.0823899371069
 30
0.0
 11
180.3309004230175
 21
195.0823899371068
 31
0.0
  0
INSERT
  5
2599
330
2595
100
AcDbEntity
  8
SUNPOU
100
AcDbBlockReference
  2
_OPEN30
 10
180.3309004230175
 20
105.0823899371069
 30
0.0
 41
5.0
 42
5.0
 43
5.0
 50
270.0
  0
INSERT
  5
259A
330
2595
100
AcDbEntity
  8
SUNPOU
100
AcDbBlockReference
  2
_OPEN30
 10
180.3309004230175
 20
200.0823899371068
 30
0.0
 41
5.0
 42
5.0
 43
5.0
 50
90.0
  0
MTEXT
  5
259B
330
2595
100
AcDbEntity
  8
SUNPOU
100
AcDbMText
 10
175.8309004230175
 20
152.5823899371069
 30
0.0
 40
5.0
 41
0.0
 71
     5
 72
     1
  1
\A1;95
  7
SUNPOU
 11
0.0000000000000001
 21
1.0
 31
0.0
1001
ACAD
1000
MTEXTBEGIN
1070
    73
1070
     1
1070
    44
1040
1.0
1070
    74
1070
     0
1000
MTEXTEND
1000
MTEXTBEGIN
1070
    73
1070
     1
1070
    44
1040
1.0
1070
    74
1070
     0
1000
MTEXTEND
  0
POINT
  5
259C
330
2595
100
AcDbEntity
  8
DEFPOINTS
 62
     0
100
AcDbPoint
 10
226.3309004230155
 20
105.0823899371069
 30
0.0
  0
POINT
  5
259D
330
2595
100
AcDbEntity
  8
DEFPOINTS
 62
     0
100
AcDbPoint
 10
228.3309004230155
 20
200.0823899371068
 30
0.0
  0
POINT
  5
259E
330
2595
100
AcDbEntity
  8
DEFPOINTS
 62
     0
100
AcDbPoint
 10
180.3309004230175
 20
200.0823899371068
 30
0.0
  0
ENDBLK
  5
25A0
330
2595
100
AcDbEntity
  8
0
100
AcDbBlockEnd
  0
ENDSEC
  0
SECTION
  2
ENTITIES
  0
LINE
  5
1A3
330
A
100
AcDbEntity
  8
03
100
AcDbLine
 10
244.0809004230175
 20
524.0823899371068
 30
0.0
 11
293.5809004230176
 21
524.0823899371068
 31
0.0
  0
LINE
  5
1A4
330
A
100
AcDbEntity
  8
03
100
AcDbLine
 10
298.0809004230176
 20
524.0823899371068
 30
0.0
 11
317.3309004230176
 21
524.0823899371068
 31
0.0
  0
LINE
  5
1A5
330
A
100
AcDbEntity
  8
03
100
AcDbLine
 10
317.3309004230176
 20
524.0823899371068
 30
0.0
 11
317.3309004230176
 21
324.8323899371068
 31
0.0
  0
LINE
  5
1A6
330
A
100
AcDbEntity
  8
03
100
AcDbLine
 10
316.5809004230176
 20
324.0823899371068
 30
0.0
 11
301.0809004230178
 21
324.0823899371068
 31
0.0
  0
ARC
  5
1A7
330
A
100
AcDbEntity
  8
03
100
AcDbCircle
 10
316.5809004230176
 20
324.8323899371068
 30
0.0
 40
0.75
100
AcDbArc
 50
269.9999999999999
 51
0.0
  0
LINE
  5
1A9
330
A
100
AcDbEntity
  8
03
100
AcDbLine
 10
200.3309004230175
 20
534.0823899371066
 30
0.0
 11
200.3309004230175
 21
231.082389937107
 31
0.0
  0
LINE
  5
1AC
330
A
100
AcDbEntity
  8
03
100
AcDbLine
 10
320.3309004230177
 20
534.0823899371066
 30
0.0
 11
320.3309004230177
 21
231.082389937107
 31
0.0
  0
LINE
  5
1AD
330
A
100
AcDbEntity
  8
03
100
AcDbLine
 10
320.3309004230177
 20
209.0823899371069
 30
0.0
 11
320.3309004230177
 21
169.641726003444
 31
0.0
  0
LINE
  5
1AE
330
A
100
AcDbEntity
  8
03
100
AcDbLine
 10
320.3309004230177
 20
120.9743186582807
 30
0.0
 11
320.3425274569257
 21
95.09400696570905
 31
0.0
  0
LINE
  5
1AF
330
A
100
AcDbEntity
  8
03
100
AcDbLine
 10
204.8309004230175
 20
503.5823899371068
 30
0.0
 11
204.8309004230175
 21
341.5823899371068
 31
0.0
  0
LINE
  5
1B0
330
A
100
AcDbEntity
  8
03
100
AcDbLine
 10
244.8309004230175
 20
522.5823899371069
 30
0.0
 11
292.8309004230176
 21
522.5823899371069
 31
0.0
  0
LINE
  5
1B1
330
A
100
AcDbEntity
  8
03
100
AcDbLine
 10
298.8309004230176
 20
522.5823899371069
 30
0.0
 11
315.8309004230176
 21
522.5823899371069
 31
0.0
  0
LINE
  5
1B2
330
A
100
AcDbEntity
  8
03
100
AcDbLine
 10
315.8309004230176
 20
522.5823899371069
 30
0.0
 11
315.8309004230176
 21
325.5823899371069
 31
0.0
  0
LINE
  5
1B3
330
A
100
AcDbEntity
  8
03
100
AcDbLine
 10
315.8309004230176
 20
325.5823899371069
 30
0.0
 11
301.8309004230177
 21
325.5823899371069
 31
0.0
  0
LINE
  5
1B4
330
A
100
AcDbEntity
  8
03
100
AcDbLine
 10
300.3309004230178
 20
336.0823899371069
 30
0.0
 11
301.8309004230177
 21
336.0823899371069
 31
0.0
  0
LINE
  5
1B5
330
A
100
AcDbEntity
  8
03
100
AcDbLine
 10
297.3309004230177
 20
523.3323899371066
 30
0.0
 11
297.3309004230177
 21
509.0823899371066
 31
0.0
  0
ARC
  5
1B6
330
A
100
AcDbEntity
  8
03
100
AcDbCircle
 10
298.0809004230176
 20
523.3323899371066
 30
0.0
 40
0.75
100
AcDbArc
 50
90.00000000000005
 51
179.9999999999999
  0
LINE
  5
1B7
330
A
100
AcDbEntity
  8
03
100
AcDbLine
 10
298.8309004230176
 20
522.5823899371069
 30
0.0
 11
298.8309004230176
 21
509.0823899371066
 31
0.0
  0
LINE
  5
1B8
330
A
100
AcDbEntity
  8
03
100
AcDbLine
 10
294.3309004230176
 20
523.3323899371066
 30
0.0
 11
294.3309004230176
 21
508.0823899371067
 31
0.0
  0
ARC
  5
1B9
330
A
100
AcDbEntity
  8
03
100
AcDbCircle
 10
293.5809004230176
 20
523.3323899371066
 30
0.0
 40
0.75
100
AcDbArc
 50
0.0
 51
90.0
  0
LINE
  5
1BA
330
A
100
AcDbEntity
  8
03
100
AcDbLine
 10
297.3309004230177
 20
509.0823899371066
 30
0.0
 11
298.8309004230176
 21
509.0823899371066
 31
0.0
  0
LINE
  5
1BB
330
A
100
AcDbEntity
  8
03
100
AcDbLine
 10
294.3309004230176
 20
508.0823899371067
 30
0.0
 11
304.8309004230176
 21
508.0823899371067
 31
0.0
  0
LINE
  5
1BC
330
A
100
AcDbEntity
  8
03
100
AcDbLine
 10
293.5809004230176
 20
506.5823899371069
 30
0.0
 11
304.8309004230176
 21
506.5823899371069
 31
0.0
  0
ARC
  5
1BD
330
A
100
AcDbEntity
  8
03
100
AcDbCircle
 10
293.5809004230176
 20
507.3323899371067
 30
0.0
 40
0.75
100
AcDbArc
 50
179.9999999999999
 51
270.0
  0
LINE
  5
1BE
330
A
100
AcDbEntity
  8
03
100
AcDbLine
 10
304.8309004230176
 20
508.0823899371067
 30
0.0
 11
304.8309004230176
 21
506.5823899371069
 31
0.0
  0
LINE
  5
1BF
330
A
100
AcDbEntity
  8
03
100
AcDbLine
 10
225.3309004230175
 20
523.3323899371066
 30
0.0
 11
225.3309004230175
 21
506.0823899371069
 31
0.0
  0
LINE
  5
1C0
330
A
100
AcDbEntity
  8
03
100
AcDbLine
 10
223.8309004230175
 20
522.5823899371069
 30
0.0
 11
223.8309004230175
 21
506.0823899371069
 31
0.0
  0
LINE
  5
1C1
330
A
100
AcDbEntity
  8
03
100
AcDbLine
 10
243.3309004230177
 20
523.3323899371066
 30
0.0
 11
243.3309004230177
 21
506.0823899371069
 31
0.0
  0
ARC
  5
1C2
330
A
100
AcDbEntity
  8
03
100
AcDbCircle
 10
244.0809004230175
 20
523.3323899371066
 30
0.0
 40
0.75
100
AcDbArc
 50
89.99999999999998
 51
179.9999999999999
  0
LINE
  5
1C3
330
A
100
AcDbEntity
  8
03
100
AcDbLine
 10
244.8309004230175
 20
522.5823899371069
 30
0.0
 11
244.8309004230175
 21
505.3323899371068
 31
0.0
  0
LINE
  5
1C4
330
A
100
AcDbEntity
  8
03
100
AcDbLine
 10
204.0809004230175
 20
506.0823899371069
 30
0.0
 11
243.3309004230177
 21
506.0823899371069
 31
0.0
  0
ARC
  5
1C5
330
A
100
AcDbEntity
  8
03
100
AcDbCircle
 10
204.0809004230175
 20
505.3323899371068
 30
0.0
 40
0.75
100
AcDbArc
 50
89.99999999999998
 51
179.9999999999999
  0
ARC
  5
1C6
330
A
100
AcDbEntity
  8
03
100
AcDbCircle
 10
244.0809004230175
 20
505.3323899371068
 30
0.0
 40
0.75
100
AcDbArc
 50
269.9999999999999
 51
0.0
  0
LINE
  5
1C7
330
A
100
AcDbEntity
  8
03
100
AcDbLine
 10
208.3309004230175
 20
523.3323899371066
 30
0.0
 11
208.3309004230175
 21
506.0823899371069
 31
0.0
  0
LINE
  5
1C8
330
A
100
AcDbEntity
  8
03
100
AcDbLine
 10
209.8309004230175
 20
522.5823899371069
 30
0.0
 11
209.8309004230175
 21
506.0823899371069
 31
0.0
  0
LINE
  5
1C9
330
A
100
AcDbEntity
  8
03
100
AcDbLine
 10
209.8309004230175
 20
522.5823899371069
 30
0.0
 11
223.8309004230175
 21
522.5823899371069
 31
0.0
  0
LINE
  5
1CA
330
A
100
AcDbEntity
  8
03
100
AcDbLine
 10
209.0809004230178
 20
524.0823899371068
 30
0.0
 11
224.5809004230177
 21
524.0823899371068
 31
0.0
  0
ARC
  5
1CB
330
A
100
AcDbEntity
  8
03
100
AcDbCircle
 10
224.5809004230177
 20
523.3323899371066
 30
0.0
 40
0.75
100
AcDbArc
 50
0.0
 51
89.99999999999984
  0
ARC
  5
1CC
330
A
100
AcDbEntity
  8
03
100
AcDbCircle
 10
209.0809004230178
 20
523.3323899371066
 30
0.0
 40
0.75
100
AcDbArc
 50
89.99999999999991
 51
179.9999999999999
  0
LINE
  5
1CD
330
A
100
AcDbEntity
  8
03
100
AcDbLine
 10
206.4309004230177
 20
502.9823899371066
 30
0.0
 11
206.4309004230178
 21
342.1823899371068
 31
0.0
  0
LINE
  5
1CE
330
A
100
AcDbEntity
  8
02
100
AcDbLine
 10
213.3309004230175
 20
502.9823899371066
 30
0.0
 11
213.3309004230175
 21
342.1823899371068
 31
0.0
  0
LINE
  5
1CF
330
A
100
AcDbEntity
  8
06
100
AcDbLine
 10
292.5809004230176
 20
106.5823899371072
 30
0.0
 11
290.0809004230176
 21
106.5823899371072
 31
0.0
  0
LINE
  5
1D0
330
A
100
AcDbEntity
  8
06
100
AcDbLine
 10
268.5809004230175
 20
106.5823899371072
 30
0.0
 11
266.0809004230177
 21
106.5823899371072
 31
0.0
  0
LINE
  5
1D1
330
A
100
AcDbEntity
  8
06
100
AcDbLine
 10
268.5809004230179
 20
139.5823899371069
 30
0.0
 11
279.030900423018
 21
139.5823899371069
 31
0.0
  0
LINE
  5
1D2
330
A
100
AcDbEntity
  8
06
100
AcDbLine
 10
279.6309004230177
 20
139.5823899371069
 30
0.0
 11
290.0809004230179
 21
139.5823899371069
 31
0.0
  0
LINE
  5
1D3
330
A
100
AcDbEntity
  8
06
100
AcDbLine
 10
268.5809004230175
 20
106.5823899371072
 30
0.0
 11
268.5809004230179
 21
139.5823899371069
 31
0.0
  0
LINE
  5
1D4
330
A
100
AcDbEntity
  8
06
100
AcDbLine
 10
290.0809004230176
 20
106.5823899371072
 30
0.0
 11
290.0809004230179
 21
139.5823899371069
 31
0.0
  0
LINE
  5
1D5
330
A
100
AcDbEntity
  8
06
100
AcDbLine
 10
279.3309004230179
 20
139.8823899371069
 30
0.0
 11
279.030900423018
 21
139.582389937107
 31
0.0
  0
LINE
  5
1D6
330
A
100
AcDbEntity
  8
06
100
AcDbLine
 10
263.3309004230178
 20
209.0823899371069
 30
0.0
 11
263.3309004230175
 21
105.082389937107
 31
0.0
  0
LINE
  5
1D7
330
A
100
AcDbEntity
  8
06
100
AcDbLine
 10
295.3309004230177
 20
209.0823899371069
 30
0.0
 11
295.3309004230177
 21
105.0823899371073
 31
0.0
  0
LINE
  5
1D8
330
A
100
AcDbEntity
  8
06
100
AcDbLine
 10
294.0809004230176
 20
105.082389937107
 30
0.0
 11
295.3309004230177
 21
105.082389937107
 31
0.0
  0
LINE
  5
1D9
330
A
100
AcDbEntity
  8
06
100
AcDbLine
 10
263.3309004230175
 20
105.0823899371069
 30
0.0
 11
264.5809004230175
 21
105.0823899371069
 31
0.0
  0
LINE
  5
1DA
330
A
100
AcDbEntity
  8
03
100
AcDbLine
 10
140.3309004230177
 20
95.08238993710705
 30
0.0
 11
258.3309004230175
 21
95.08238993710724
 31
0.0
  0
LINE
  5
1DB
330
A
100
AcDbEntity
  8
06
100
AcDbLine
 10
295.3309004230177
 20
231.082389937107
 30
0.0
 11
295.3309004230177
 21
331.082389937107
 31
0.0
  0
LINE
  5
1DC
330
A
100
AcDbEntity
  8
06
100
AcDbLine
 10
263.3309004230178
 20
231.082389937107
 30
0.0
 11
263.3309004230178
 21
331.082389937107
 31
0.0
  0
LINE
  5
1DD
330
A
100
AcDbEntity
  8
03
100
AcDbLine
 10
309.8309004230177
 20
95.08238993710728
 30
0.0
 11
405.4544815465728
 21
95.08238993710724
 31
0.0
  0
LINE
  5
1F6
330
A
100
AcDbEntity
  8
03
100
AcDbLine
 10
300.3309004230178
 20
336.0823899371069
 30
0.0
 11
300.3309004230178
 21
324.8323899371068
 31
0.0
  0
ARC
  5
1F7
330
A
100
AcDbEntity
  8
03
100
AcDbCircle
 10
301.0809004230178
 20
324.8323899371068
 30
0.0
 40
0.75
100
AcDbArc
 50
179.9999999999999
 51
269.9999999999999
  0
LINE
  5
1F8
330
A
100
AcDbEntity
  8
03
100
AcDbLine
 10
301.8309004230177
 20
336.0823899371069
 30
0.0
 11
301.8309004230177
 21
325.5823899371069
 31
0.0
  0
ARC
  5
1F9
330
A
100
AcDbEntity
  8
03
100
AcDbCircle
 10
257.5809004230178
 20
324.8323899371068
 30
0.0
 40
0.75
100
AcDbArc
 50
269.9999999999999
 51
0.0
  0
LINE
  5
1FA
330
A
100
AcDbEntity
  8
03
100
AcDbLine
 10
256.8309004230178
 20
341.1823899371067
 30
0.0
 11
256.8309004230178
 21
325.5823899371069
 31
0.0
  0
LINE
  5
1FB
330
A
100
AcDbEntity
  8
03
100
AcDbLine
 10
205.8309004230177
 20
340.5823899371068
 30
0.0
 11
255.2309004230178
 21
340.5823899371068
 31
0.0
  0
ARC
  5
1FC
330
A
100
AcDbEntity
  8
03
100
AcDbCircle
 10
205.8309004230177
 20
341.5823899371068
 30
0.0
 40
1.0
100
AcDbArc
 50
179.9999999999999
 51
270.0
  0
LINE
  5
1FD
330
A
100
AcDbEntity
  8
03
100
AcDbLine
 10
206.4309004230178
 20
342.1823899371068
 30
0.0
 11
255.8309004230177
 21
342.1823899371068
 31
0.0
  0
ARC
  5
1FE
330
A
100
AcDbEntity
  8
03
100
AcDbCircle
 10
255.8309004230177
 20
341.1823899371067
 30
0.0
 40
1.0
100
AcDbArc
 50
0.0
 51
90.0
  0
LINE
  5
1FF
330
A
100
AcDbEntity
  8
03
100
AcDbLine
 10
255.2309004230178
 20
340.5823899371068
 30
0.0
 11
255.2309004230178
 21
325.5823899371069
 31
0.0
  0
LINE
  5
204
330
A
100
AcDbEntity
  8
03
100
AcDbLine
 10
226.3309004230155
 20
231.082389937107
 30
0.0
 11
226.3309004230155
 21
321.0823899371068
 31
0.0
  0
LINE
  5
205
330
A
100
AcDbEntity
  8
03
100
AcDbLine
 10
258.3309004230155
 20
231.082389937107
 30
0.0
 11
258.3309004230155
 21
321.0823899371068
 31
0.0
  0
LINE
  5
207
330
A
100
AcDbEntity
  8
03
100
AcDbLine
 10
258.3309004230153
 20
209.082389937107
 30
0.0
 11
258.3309004230153
 21
105.0823899371073
 31
0.0
  0
LINE
  5
208
330
A
100
AcDbEntity
  8
03
100
AcDbLine
 10
257.0809004230151
 20
105.082389937107
 30
0.0
 11
258.3309004230153
 21
105.082389937107
 31
0.0
  0
LINE
  5
209
330
A
100
AcDbEntity
  8
03
100
AcDbLine
 10
226.3309004230155
 20
105.0823899371069
 30
0.0
 11
227.5809004230155
 21
105.0823899371069
 31
0.0
  0
LINE
  5
22B
330
A
100
AcDbEntity
  8
06
100
AcDbLine
 10
266.8309004230175
 20
339.0823864554127
 30
0.0
 11
266.8309004230175
 21
332.0823899371069
 31
0.0
  0
LINE
  5
22C
330
A
100
AcDbEntity
  8
06
100
AcDbLine
 10
291.8309004230176
 20
332.0823899371069
 30
0.0
 11
291.8309004230176
 21
339.0823864554127
 31
0.0
  0
LINE
  5
22E
330
A
100
AcDbEntity
  8
03
100
AcDbLine
 10
257.5809004230178
 20
324.0823899371068
 30
0.0
 11
204.0809004230175
 21
324.0823899371068
 31
0.0
  0
LINE
  5
22F
330
A
100
AcDbEntity
  8
03
100
AcDbLine
 10
203.3309004230175
 20
324.8323899371068
 30
0.0
 11
203.3309004230175
 21
505.3323899371068
 31
0.0
  0
ARC
  5
230
330
A
100
AcDbEntity
  8
03
100
AcDbCircle
 10
204.0809004230175
 20
324.8323899371068
 30
0.0
 40
0.75
100
AcDbArc
 50
179.9999999999999
 51
269.9999999999999
  0
LINE
  5
231
330
A
100
AcDbEntity
  8
03
100
AcDbLine
 10
204.8309004230175
 20
504.5823899371066
 30
0.0
 11
204.8309004230175
 21
325.5823899371069
 31
0.0
  0
LINE
  5
232
330
A
100
AcDbEntity
  8
03
100
AcDbLine
 10
256.8309004230178
 20
325.5823899371069
 30
0.0
 11
204.8309004230175
 21
325.5823899371069
 31
0.0
  0
LINE
  5
233
330
A
100
AcDbEntity
  8
03
100
AcDbLine
 10
258.3309004230175
 20
336.0823899371069
 30
0.0
 11
256.8309004230178
 21
336.0823899371069
 31
0.0
  0
LINE
  5
253
330
A
100
AcDbEntity
  8
06
100
AcDbLine
 10
266.0809004230179
 20
198.5823899371068
 30
0.0
 11
271.3309004230178
 21
198.5823899371068
 31
0.0
  0
LINE
  5
254
330
A
100
AcDbEntity
  8
06
100
AcDbLine
 10
266.0809004230177
 20
105.0823899371069
 30
0.0
 11
266.0809004230179
 21
198.5823899371068
 31
0.0
  0
LINE
  5
255
330
A
100
AcDbEntity
  8
06
100
AcDbLine
 10
294.0809004230176
 20
199.332389937107
 30
0.0
 11
294.0809004230176
 21
105.0823899371073
 31
0.0
  0
LINE
  5
256
330
A
100
AcDbEntity
  8
06
100
AcDbLine
 10
264.5809004230175
 20
105.082389937107
 30
0.0
 11
264.5809004230179
 21
199.3323899371065
 31
0.0
  0
LINE
  5
257
330
A
100
AcDbEntity
  8
06
100
AcDbLine
 10
287.3309004230176
 20
200.082389937107
 30
0.0
 11
293.3309004230176
 21
200.082389937107
 31
0.0
  0
LINE
  5
258
330
A
100
AcDbEntity
  8
06
100
AcDbLine
 10
265.3309004230179
 20
200.0823899371068
 30
0.0
 11
271.3309004230178
 21
200.082389937107
 31
0.0
  0
LINE
  5
259
330
A
100
AcDbEntity
  8
06
100
AcDbLine
 10
292.5809004230176
 20
198.5823899371068
 30
0.0
 11
292.5809004230176
 21
105.082389937107
 31
0.0
  0
LINE
  5
25A
330
A
100
AcDbEntity
  8
06
100
AcDbLine
 10
287.3309004230176
 20
198.5823899371068
 30
0.0
 11
292.5809004230176
 21
198.5823899371068
 31
0.0
  0
LINE
  5
25D
330
A
100
AcDbEntity
  8
06
100
AcDbLine
 10
292.5809004230176
 20
105.082389937107
 30
0.0
 11
294.0809004230176
 21
105.082389937107
 31
0.0
  0
LINE
  5
25E
330
A
100
AcDbEntity
  8
06
100
AcDbLine
 10
264.5809004230175
 20
105.0823899371069
 30
0.0
 11
266.0809004230177
 21
105.0823899371069
 31
0.0
  0
LINE
  5
267
330
A
100
AcDbEntity
  8
06
100
AcDbLine
 10
293.8309004230177
 20
331.082389937107
 30
0.0
 11
293.8309004230177
 21
236.8323899371068
 31
0.0
  0
LINE
  5
269
330
A
100
AcDbEntity
  8
06
100
AcDbLine
 10
264.8309004230175
 20
236.8323899371067
 30
0.0
 11
264.8309004230175
 21
331.082389937107
 31
0.0
  0
LINE
  5
26B
330
A
100
AcDbEntity
  8
06
100
AcDbLine
 10
292.3309004230178
 20
331.082389937107
 30
0.0
 11
295.3309004230177
 21
331.082389937107
 31
0.0
  0
LINE
  5
26C
330
A
100
AcDbEntity
  8
06
100
AcDbLine
 10
266.3309004230177
 20
331.082389937107
 30
0.0
 11
263.3309004230178
 21
331.082389937107
 31
0.0
  0
LINE
  5
26D
330
A
100
AcDbEntity
  8
03
100
AcDbLine
 10
258.3309004230175
 20
336.0823899371069
 30
0.0
 11
258.3309004230175
 21
324.8323899371068
 31
0.0
  0
LINE
  5
26E
330
A
100
AcDbEntity
  8
03
100
AcDbLine
 10
256.8309004230178
 20
336.0823899371069
 30
0.0
 11
256.8309004230178
 21
325.5823899371069
 31
0.0
  0
LINE
  5
26F
330
A
100
AcDbEntity
  8
03
100
AcDbLine
 10
226.3309004230178
 20
321.0823899371068
 30
0.0
 11
258.3309004230176
 21
321.0823899371068
 31
0.0
  0
LINE
  5
278
330
A
100
AcDbEntity
  8
03
100
AcDbLine
 10
227.8309004230155
 20
236.8323899371068
 30
0.0
 11
227.8309004230155
 21
321.0823899371068
 31
0.0
  0
LINE
  5
27A
330
A
100
AcDbEntity
  8
03
100
AcDbLine
 10
256.8309004230155
 20
236.8323899371068
 30
0.0
 11
256.8309004230155
 21
321.0823899371068
 31
0.0
  0
ARC
  5
27C
330
A
100
AcDbEntity
  8
06
100
AcDbCircle
 10
293.3309004230176
 20
199.332389937107
 30
0.0
 40
0.75
100
AcDbArc
 50
0.0
 51
90.0
  0
ARC
  5
27D
330
A
100
AcDbEntity
  8
06
100
AcDbCircle
 10
265.3309004230179
 20
199.3323899371065
 30
0.0
 40
0.75
100
AcDbArc
 50
90.0
 51
180.0
  0
LINE
  5
27E
330
A
100
AcDbEntity
  8
03
100
AcDbLine
 10
229.0809004230155
 20
198.5823899371068
 30
0.0
 11
234.3309004230154
 21
198.5823899371068
 31
0.0
  0
LINE
  5
280
330
A
100
AcDbEntity
  8
03
100
AcDbLine
 10
257.0809004230153
 20
199.332389937107
 30
0.0
 11
257.0809004230151
 21
105.082389937107
 31
0.0
  0
LINE
  5
282
330
A
100
AcDbEntity
  8
03
100
AcDbLine
 10
250.3309004230154
 20
200.082389937107
 30
0.0
 11
256.3309004230153
 21
200.082389937107
 31
0.0
  0
LINE
  5
283
330
A
100
AcDbEntity
  8
03
100
AcDbLine
 10
228.3309004230155
 20
200.0823899371068
 30
0.0
 11
234.3309004230154
 21
200.082389937107
 31
0.0
  0
LINE
  5
284
330
A
100
AcDbEntity
  8
03
100
AcDbLine
 10
255.5809004230153
 20
198.5823899371068
 30
0.0
 11
255.5809004230155
 21
105.0823899371069
 31
0.0
  0
LINE
  5
285
330
A
100
AcDbEntity
  8
03
100
AcDbLine
 10
250.3309004230154
 20
198.5823899371068
 30
0.0
 11
255.5809004230153
 21
198.5823899371068
 31
0.0
  0
LINE
  5
288
330
A
100
AcDbEntity
  8
03
100
AcDbLine
 10
255.5809004230155
 20
105.0823899371069
 30
0.0
 11
257.0809004230151
 21
105.082389937107
 31
0.0
  0
ARC
  5
28A
330
A
100
AcDbEntity
  8
03
100
AcDbCircle
 10
256.3309004230153
 20
199.332389937107
 30
0.0
 40
0.75
100
AcDbArc
 50
0.0
 51
90.0
  0
ARC
  5
28B
330
A
100
AcDbEntity
  8
03
100
AcDbCircle
 10
228.3309004230155
 20
199.3323899371065
 30
0.0
 40
0.75
100
AcDbArc
 50
90.0
 51
180.0
  0
LINE
  5
28D
330
A
100
AcDbEntity
  8
03
100
AcDbLine
 10
292.8309004230176
 20
522.5823899371069
 30
0.0
 11
292.8309004230176
 21
503.9823899371068
 31
0.0
  0
LINE
  5
28E
330
A
100
AcDbEntity
  8
03
100
AcDbLine
 10
205.8309004230177
 20
504.5823899371066
 30
0.0
 11
291.2309004230177
 21
504.5823899371066
 31
0.0
  0
ARC
  5
28F
330
A
100
AcDbEntity
  8
03
100
AcDbCircle
 10
205.8309004230177
 20
503.5823899371068
 30
0.0
 40
1.0
100
AcDbArc
 50
89.99999999999998
 51
179.9999999999999
  0
LINE
  5
290
330
A
100
AcDbEntity
  8
03
100
AcDbLine
 10
206.4309004230177
 20
502.9823899371066
 30
0.0
 11
291.8309004230176
 21
502.9823899371066
 31
0.0
  0
ARC
  5
291
330
A
100
AcDbEntity
  8
03
100
AcDbCircle
 10
291.8309004230176
 20
503.9823899371068
 30
0.0
 40
1.0
100
AcDbArc
 50
269.9999999999999
 51
0.0
  0
LINE
  5
292
330
A
100
AcDbEntity
  8
03
100
AcDbLine
 10
291.2309004230177
 20
522.5823899371069
 30
0.0
 11
291.2309004230177
 21
504.5823899371066
 31
0.0
  0
LINE
  5
295
330
A
100
AcDbEntity
  8
06
100
AcDbLine
 10
279.3309004230179
 20
139.8823899371069
 30
0.0
 11
279.6309004230177
 21
139.5823899371069
 31
0.0
  0
LINE
  5
296
330
A
100
AcDbEntity
  8
03
100
AcDbLine
 10
288.5809004230178
 20
98.08238993710729
 30
0.0
 11
309.3309004230178
 21
98.08238993710729
 31
0.0
  0
LINE
  5
297
330
A
100
AcDbEntity
  8
03
100
AcDbLine
 10
309.8309004230177
 20
97.58238993710724
 30
0.0
 11
309.8309004230177
 21
83.08238993710729
 31
0.0
  0
ARC
  5
298
330
A
100
AcDbEntity
  8
03
100
AcDbCircle
 10
309.3309004230178
 20
97.58238993710728
 30
0.0
 40
0.5
100
AcDbArc
 50
0.0
 51
90.0
  0
LINE
  5
299
330
A
100
AcDbEntity
  8
03
100
AcDbLine
 10
287.8309004230178
 20
68.08238993710715
 30
0.0
 11
270.8309004230176
 21
68.08238993710715
 31
0.0
  0
LINE
  5
29A
330
A
100
AcDbEntity
  8
03
100
AcDbLine
 10
258.3309004230176
 20
83.08238993710714
 30
0.0
 11
258.3309004230176
 21
97.58238993710717
 31
0.0
  0
ARC
  5
29B
330
A
100
AcDbEntity
  8
03
100
AcDbCircle
 10
258.8309004230178
 20
97.58238993710717
 30
0.0
 40
0.5
100
AcDbArc
 50
89.99999999999998
 51
179.9999999999999
  0
LINE
  5
29C
330
A
100
AcDbEntity
  8
03
100
AcDbLine
 10
270.8309004230176
 20
97.33238993710722
 30
0.0
 11
270.8309004230176
 21
68.08238993710715
 31
0.0
  0
ARC
  5
29D
330
A
100
AcDbEntity
  8
03
100
AcDbCircle
 10
270.0809004230178
 20
97.33238993710722
 30
0.0
 40
0.75
100
AcDbArc
 50
0.000000000000014
 51
90.0000000000001
  0
LINE
  5
29E
330
A
100
AcDbEntity
  8
03
100
AcDbLine
 10
287.8309004230178
 20
97.33238993710727
 30
0.0
 11
287.8309004230178
 21
68.08238993710715
 31
0.0
  0
ARC
  5
29F
330
A
100
AcDbEntity
  8
03
100
AcDbCircle
 10
288.5809004230178
 20
97.33238993710727
 30
0.0
 40
0.75
100
AcDbArc
 50
90.0000000000001
 51
180.0
  0
LINE
  5
2A0
330
A
100
AcDbEntity
  8
03
100
AcDbLine
 10
289.3309004230177
 20
96.58238993710728
 30
0.0
 11
289.3309004230177
 21
67.33238993710717
 31
0.0
  0
LINE
  5
2A1
330
A
100
AcDbEntity
  8
03
100
AcDbLine
 10
269.3309004230178
 20
96.58238993710725
 30
0.0
 11
269.3309004230178
 21
67.33238993710717
 31
0.0
  0
LINE
  5
2A2
330
A
100
AcDbEntity
  8
03
100
AcDbLine
 10
288.5809004230178
 20
66.58238993710728
 30
0.0
 11
270.0809004230178
 21
66.58238993710722
 31
0.0
  0
ARC
  5
2A3
330
A
100
AcDbEntity
  8
03
100
AcDbCircle
 10
288.5809004230178
 20
67.33238993710717
 30
0.0
 40
0.75
100
AcDbArc
 50
269.9999999999999
 51
0.0
  0
ARC
  5
2A4
330
A
100
AcDbEntity
  8
03
100
AcDbCircle
 10
270.0809004230178
 20
67.33238993710717
 30
0.0
 40
0.75
100
AcDbArc
 50
180.0
 51
269.9999999999999
  0
LINE
  5
2A5
330
A
100
AcDbEntity
  8
03
100
AcDbLine
 10
259.8309004230177
 20
96.58238993710718
 30
0.0
 11
269.3309004230178
 21
96.58238993710725
 31
0.0
  0
LINE
  5
2A6
330
A
100
AcDbEntity
  8
03
100
AcDbLine
 10
289.3309004230177
 20
96.58238993710728
 30
0.0
 11
308.3309004230176
 21
96.58238993710728
 31
0.0
  0
LINE
  5
2A7
330
A
100
AcDbEntity
  8
03
100
AcDbLine
 10
258.3309004230176
 20
83.08238993710714
 30
0.0
 11
259.8309004230177
 21
83.08238993710714
 31
0.0
  0
LINE
  5
2A8
330
A
100
AcDbEntity
  8
03
100
AcDbLine
 10
309.8309004230177
 20
83.08238993710729
 30
0.0
 11
308.3309004230176
 21
83.08238993710729
 31
0.0
  0
LINE
  5
2A9
330
A
100
AcDbEntity
  8
03
100
AcDbLine
 10
262.1309004230178
 20
93.95448385744257
 30
0.0
 11
259.8309004230177
 21
91.65652830188705
 31
0.0
  0
LINE
  5
2AA
330
A
100
AcDbEntity
  8
03
100
AcDbLine
 10
262.1309004230178
 20
92.95448385744256
 30
0.0
 11
259.8309004230177
 21
90.656528301887
 31
0.0
  0
LINE
  5
2AB
330
A
100
AcDbEntity
  8
03
100
AcDbLine
 10
262.1309004230178
 20
77.58238993710715
 30
0.0
 11
259.8309004230177
 21
75.28443438155163
 31
0.0
  0
LINE
  5
2AC
330
A
100
AcDbEntity
  8
03
100
AcDbLine
 10
262.1309004230178
 20
76.58238993710717
 30
0.0
 11
259.8309004230177
 21
74.28443438155166
 31
0.0
  0
LINE
  5
2AD
330
A
100
AcDbEntity
  8
03
100
AcDbLine
 10
308.3309004230176
 20
92.58238993710728
 30
0.0
 11
306.0309004230176
 21
90.28443438155177
 31
0.0
  0
LINE
  5
2AE
330
A
100
AcDbEntity
  8
03
100
AcDbLine
 10
308.3309004230176
 20
91.58238993710728
 30
0.0
 11
306.0309004230176
 21
89.28443438155175
 31
0.0
  0
LINE
  5
2AF
330
A
100
AcDbEntity
  8
03
100
AcDbLine
 10
308.3309004230176
 20
76.28238993710731
 30
0.0
 11
306.0309004230176
 21
73.98443438155168
 31
0.0
  0
LINE
  5
2B0
330
A
100
AcDbEntity
  8
03
100
AcDbLine
 10
308.3309004230176
 20
75.28238993710733
 30
0.0
 11
306.0309004230176
 21
72.98443438155167
 31
0.0
  0
LINE
  5
2B1
330
A
100
AcDbEntity
  8
03
100
AcDbLine
 10
281.8021106385443
 20
66.58238993710717
 30
0.0
 11
280.2299814830892
 21
64.28238993710721
 31
0.0
  0
LINE
  5
2B2
330
A
100
AcDbEntity
  8
03
100
AcDbLine
 10
282.8021106385443
 20
66.58238993710717
 30
0.0
 11
281.2299814830891
 21
64.28238993710721
 31
0.0
  0
LINE
  5
2B3
330
A
100
AcDbEntity
  8
03
100
AcDbLine
 10
270.8309004230176
 20
87.33238993710717
 30
0.0
 11
269.3309004230178
 21
85.83372327044044
 31
0.0
  0
LINE
  5
2B4
330
A
100
AcDbEntity
  8
03
100
AcDbLine
 10
259.8309004230177
 20
88.08238993710716
 30
0.0
 11
258.3309004230176
 21
86.58372327044045
 31
0.0
  0
LINE
  5
2B5
330
A
100
AcDbEntity
  8
03
100
AcDbLine
 10
309.8309004230177
 20
88.08238993710729
 30
0.0
 11
308.3309004230176
 21
86.58372327044066
 31
0.0
  0
LINE
  5
2B6
330
A
100
AcDbEntity
  8
03
100
AcDbLine
 10
289.3309004230177
 20
77.33238993710727
 30
0.0
 11
287.8309004230178
 21
75.83372327044043
 31
0.0
  0
LINE
  5
2B7
330
A
100
AcDbEntity
  8
03
100
AcDbLine
 10
264.5672745080795
 20
98.08238993710723
 30
0.0
 11
263.4042688943259
 21
96.58238993710725
 31
0.0
  0
LINE
  5
2B8
330
A
100
AcDbEntity
  8
03
100
AcDbLine
 10
294.0809004230178
 20
98.08238993710729
 30
0.0
 11
292.9178948092641
 21
96.58238993710728
 31
0.0
  0
LINE
  5
2B9
330
A
100
AcDbEntity
  8
06
100
AcDbLine
 10
289.8309004230179
 20
126.8323899371069
 30
0.0
 11
289.8309004230176
 21
105.8323899371076
 31
0.0
  0
ARC
  5
2BA
330
A
100
AcDbEntity
  8
06
100
AcDbCircle
 10
289.0809004230179
 20
126.8323899371069
 30
0.0
 40
0.75
100
AcDbArc
 50
0.000000000000014
 51
89.99999999999976
  0
LINE
  5
2BB
330
A
100
AcDbEntity
  8
06
100
AcDbLine
 10
289.0809004230177
 20
105.0823899371077
 30
0.0
 11
283.8309004230178
 21
105.082389937107
 31
0.0
  0
ARC
  5
2BC
330
A
100
AcDbEntity
  8
06
100
AcDbCircle
 10
289.0809004230177
 20
105.8323899371076
 30
0.0
 40
0.75
100
AcDbArc
 50
270.0000000000035
 51
0.0
  0
LINE
  5
2BD
330
A
100
AcDbEntity
  8
06
100
AcDbLine
 10
274.8309004230176
 20
105.082389937107
 30
0.0
 11
269.5809004230175
 21
105.082389937107
 31
0.0
  0
LINE
  5
2BE
330
A
100
AcDbEntity
  8
06
100
AcDbLine
 10
268.8309004230175
 20
105.832389937107
 30
0.0
 11
268.830900423018
 21
126.8323899371069
 31
0.0
  0
ARC
  5
2BF
330
A
100
AcDbEntity
  8
06
100
AcDbCircle
 10
269.5809004230175
 20
105.832389937107
 30
0.0
 40
0.75
100
AcDbArc
 50
180.0
 51
269.999999999999
  0
ARC
  5
2C0
330
A
100
AcDbEntity
  8
06
100
AcDbCircle
 10
269.580900423018
 20
126.8323899371069
 30
0.0
 40
0.75
100
AcDbArc
 50
89.99999999999976
 51
180.0
  0
LINE
  5
2C1
330
A
100
AcDbEntity
  8
06
100
AcDbLine
 10
270.3309004230179
 20
126.082389937107
 30
0.0
 11
275.3309004230179
 21
126.082389937107
 31
0.0
  0
LINE
  5
2C2
330
A
100
AcDbEntity
  8
06
100
AcDbLine
 10
283.3309004230179
 20
126.082389937107
 30
0.0
 11
288.3309004230179
 21
126.082389937107
 31
0.0
  0
LINE
  5
2C3
330
A
100
AcDbEntity
  8
06
100
AcDbLine
 10
270.3309004230177
 20
106.5823899371072
 30
0.0
 11
270.3309004230179
 21
126.082389937107
 31
0.0
  0
LINE
  5
2C4
330
A
100
AcDbEntity
  8
06
100
AcDbLine
 10
288.3309004230179
 20
126.082389937107
 30
0.0
 11
288.3309004230178
 21
106.5823899371072
 31
0.0
  0
LINE
  5
2C5
330
A
100
AcDbEntity
  8
06
100
AcDbLine
 10
288.3309004230178
 20
106.5823899371074
 30
0.0
 11
283.8309004230178
 21
106.5823899371078
 31
0.0
  0
LINE
  5
2C6
330
A
100
AcDbEntity
  8
06
100
AcDbLine
 10
274.8309004230179
 20
106.5823899371075
 30
0.0
 11
270.3309004230177
 21
106.582389937107
 31
0.0
  0
LINE
  5
2C7
330
A
100
AcDbEntity
  8
06
100
AcDbLine
 10
283.8309004230178
 20
106.5823899371075
 30
0.0
 11
283.8309004230176
 21
105.082389937107
 31
0.0
  0
LINE
  5
2C8
330
A
100
AcDbEntity
  8
06
100
AcDbLine
 10
274.8309004230179
 20
106.5823899371072
 30
0.0
 11
274.8309004230175
 21
105.0823899371069
 31
0.0
  0
LINE
  5
2C9
330
A
100
AcDbEntity
  8
06
100
AcDbLine
 10
268.830900423018
 20
127.5823899371069
 30
0.0
 11
268.830900423018
 21
139.5823899371069
 31
0.0
  0
LINE
  5
2CA
330
A
100
AcDbEntity
  8
06
100
AcDbLine
 10
289.8309004230179
 20
127.5823899371069
 30
0.0
 11
289.8309004230179
 21
139.5823899371069
 31
0.0
  0
LINE
  5
2CB
330
A
100
AcDbEntity
  8
06
100
AcDbLine
 10
275.3309004230179
 20
126.082389937107
 30
0.0
 11
283.3309004230179
 21
126.082389937107
 31
0.0
  0
LINE
  5
2CC
330
A
100
AcDbEntity
  8
06
100
AcDbLine
 10
276.3309004230178
 20
209.0823899371069
 30
0.0
 11
276.3309004230178
 21
174.7823899371072
 31
0.0
  0
LINE
  5
2CD
330
A
100
AcDbEntity
  8
06
100
AcDbLine
 10
282.3309004230178
 20
209.0823899371069
 30
0.0
 11
282.3309004230176
 21
174.7823899371072
 31
0.0
  0
LINE
  5
2CE
330
A
100
AcDbEntity
  8
06
100
AcDbLine
 10
281.8309004230178
 20
209.0823899371069
 30
0.0
 11
281.8309004230178
 21
174.7823899371072
 31
0.0
  0
LINE
  5
2CF
330
A
100
AcDbEntity
  8
06
100
AcDbLine
 10
276.8309004230177
 20
209.0823899371069
 30
0.0
 11
276.8309004230177
 21
174.7823899371072
 31
0.0
  0
LINE
  5
2D3
330
A
100
AcDbEntity
  8
06
100
AcDbLine
 10
289.8309004230179
 20
127.5823899371069
 30
0.0
 11
268.830900423018
 21
127.5823899371069
 31
0.0
  0
LINE
  5
2D4
330
A
100
AcDbEntity
  8
06
100
AcDbLine
 10
289.8309004230179
 20
139.5823899371069
 30
0.0
 11
268.830900423018
 21
127.5823899371069
 31
0.0
  0
LINE
  5
2D5
330
A
100
AcDbEntity
  8
06
100
AcDbLine
 10
289.8309004230179
 20
127.5823899371069
 30
0.0
 11
268.830900423018
 21
139.5823899371069
 31
0.0
  0
LINE
  5
2D6
330
A
100
AcDbEntity
  8
06
100
AcDbLine
 10
268.830900423018
 20
139.5823899371069
 30
0.0
 11
289.8309004230179
 21
139.5823899371069
 31
0.0
  0
LINE
  5
2D7
330
A
100
AcDbEntity
  8
06
100
AcDbLine
 10
272.080900423018
 20
112.582389937107
 30
0.0
 11
286.580900423018
 21
112.582389937107
 31
0.0
  0
LINE
  5
2D8
330
A
100
AcDbEntity
  8
06
100
AcDbLine
 10
287.580900423018
 20
111.582389937107
 30
0.0
 11
287.5809004230177
 21
107.9823899371069
 31
0.0
  0
ARC
  5
2D9
330
A
100
AcDbEntity
  8
06
100
AcDbCircle
 10
286.580900423018
 20
111.582389937107
 30
0.0
 40
1.0
100
AcDbArc
 50
0.0
 51
90.0
  0
LINE
  5
2DA
330
A
100
AcDbEntity
  8
06
100
AcDbLine
 10
271.080900423018
 20
111.582389937107
 30
0.0
 11
271.0809004230175
 21
107.9823899371072
 31
0.0
  0
ARC
  5
2DB
330
A
100
AcDbEntity
  8
06
100
AcDbCircle
 10
272.080900423018
 20
111.582389937107
 30
0.0
 40
1.0
100
AcDbArc
 50
89.99999999999998
 51
179.9999999999999
  0
LINE
  5
2DC
330
A
100
AcDbEntity
  8
06
100
AcDbLine
 10
272.080900423018
 20
111.582389937107
 30
0.0
 11
286.580900423018
 21
111.582389937107
 31
0.0
  0
LINE
  5
2DD
330
A
100
AcDbEntity
  8
06
100
AcDbLine
 10
286.580900423018
 20
111.582389937107
 30
0.0
 11
286.5809004230176
 21
107.9823899371069
 31
0.0
  0
LINE
  5
2DE
330
A
100
AcDbEntity
  8
06
100
AcDbLine
 10
272.080900423018
 20
111.582389937107
 30
0.0
 11
272.0809004230178
 21
107.9823899371072
 31
0.0
  0
LINE
  5
2DF
330
A
100
AcDbEntity
  8
06
100
AcDbLine
 10
286.5809004230176
 20
107.9823899371069
 30
0.0
 11
287.5809004230177
 21
107.9823899371069
 31
0.0
  0
LINE
  5
2E0
330
A
100
AcDbEntity
  8
06
100
AcDbLine
 10
271.0809004230175
 20
107.9823899371072
 30
0.0
 11
272.0809004230178
 21
107.9823899371072
 31
0.0
  0
LINE
  5
2E1
330
A
100
AcDbEntity
  8
06
100
AcDbLine
 10
272.6809004230178
 20
106.582389937107
 30
0.0
 11
275.4309004230178
 21
106.582389937107
 31
0.0
  0
LINE
  5
2E2
330
A
100
AcDbEntity
  8
06
100
AcDbLine
 10
283.2309004230178
 20
106.582389937107
 30
0.0
 11
285.9809004230178
 21
106.582389937107
 31
0.0
  0
LINE
  5
2E3
330
A
100
AcDbEntity
  8
06
100
AcDbLine
 10
272.3309004230177
 20
82.58238993710717
 30
0.0
 11
286.3309004230178
 21
82.58238993710717
 31
0.0
  0
LINE
  5
2E4
330
A
100
AcDbEntity
  8
06
100
AcDbLine
 10
271.3309004230178
 20
103.0823899371069
 30
0.0
 11
271.3309004230178
 21
83.58238993710717
 31
0.0
  0
ARC
  5
2E5
330
A
100
AcDbEntity
  8
06
100
AcDbCircle
 10
272.3309004230177
 20
83.58238993710717
 30
0.0
 40
1.0
100
AcDbArc
 50
179.9999999999999
 51
269.9999999999999
  0
LINE
  5
2E6
330
A
100
AcDbEntity
  8
06
100
AcDbLine
 10
287.3309004230176
 20
103.0823899371069
 30
0.0
 11
287.3309004230176
 21
83.58238993710717
 31
0.0
  0
ARC
  5
2E7
330
A
100
AcDbEntity
  8
06
100
AcDbCircle
 10
286.3309004230178
 20
83.58238993710717
 30
0.0
 40
1.0
100
AcDbArc
 50
269.9999999999999
 51
0.0
  0
LINE
  5
2E8
330
A
100
AcDbEntity
  8
06
100
AcDbLine
 10
275.4309004230178
 20
106.582389937107
 30
0.0
 11
275.4309004230178
 21
103.582389937107
 31
0.0
  0
LINE
  5
2E9
330
A
100
AcDbEntity
  8
06
100
AcDbLine
 10
283.2309004230178
 20
106.582389937107
 30
0.0
 11
283.2309004230178
 21
103.582389937107
 31
0.0
  0
LINE
  5
2EA
330
A
100
AcDbEntity
  8
06
100
AcDbLine
 10
271.8309004230178
 20
103.582389937107
 30
0.0
 11
275.4309004230178
 21
103.582389937107
 31
0.0
  0
ARC
  5
2EB
330
A
100
AcDbEntity
  8
06
100
AcDbCircle
 10
271.8309004230178
 20
103.0823899371069
 30
0.0
 40
0.5
100
AcDbArc
 50
89.99999999999998
 51
179.9999999999999
  0
LINE
  5
2EC
330
A
100
AcDbEntity
  8
06
100
AcDbLine
 10
283.2309004230178
 20
103.582389937107
 30
0.0
 11
286.8309004230176
 21
103.582389937107
 31
0.0
  0
ARC
  5
2ED
330
A
100
AcDbEntity
  8
06
100
AcDbCircle
 10
286.8309004230176
 20
103.0823899371069
 30
0.0
 40
0.5
100
AcDbArc
 50
0.0
 51
90.0
  0
LINE
  5
2EE
330
A
100
AcDbEntity
  8
06
100
AcDbLine
 10
286.4809004230179
 20
111.4823899371069
 30
0.0
 11
286.4809004230178
 21
107.0823899371069
 31
0.0
  0
ARC
  5
2EF
330
A
100
AcDbEntity
  8
06
100
AcDbCircle
 10
285.9809004230178
 20
107.0823899371069
 30
0.0
 40
0.5
100
AcDbArc
 50
269.9999999999999
 51
0.0
  0
LINE
  5
2F0
330
A
100
AcDbEntity
  8
06
100
AcDbLine
 10
272.180900423018
 20
111.4823899371069
 30
0.0
 11
272.1809004230178
 21
107.0823899371069
 31
0.0
  0
ARC
  5
2F1
330
A
100
AcDbEntity
  8
06
100
AcDbCircle
 10
272.6809004230178
 20
107.0823899371069
 30
0.0
 40
0.5
100
AcDbArc
 50
179.9999999999999
 51
269.9999999999999
  0
LINE
  5
2F2
330
A
100
AcDbEntity
  8
06
100
AcDbLine
 10
272.180900423018
 20
111.4823899371069
 30
0.0
 11
286.4809004230179
 21
111.4823899371069
 31
0.0
  0
LINE
  5
2F3
330
A
100
AcDbEntity
  8
06
100
AcDbLine
 10
271.080900423018
 20
109.0675972220829
 30
0.0
 11
272.080900423018
 21
110.0675972220829
 31
0.0
  0
LINE
  5
2F4
330
A
100
AcDbEntity
  8
06
100
AcDbLine
 10
273.595693138042
 20
111.582389937107
 30
0.0
 11
274.5956931380419
 21
112.582389937107
 31
0.0
  0
LINE
  5
2F5
330
A
100
AcDbEntity
  8
06
100
AcDbLine
 10
284.9094016370268
 20
111.582389937107
 30
0.0
 11
285.9094016370267
 21
112.582389937107
 31
0.0
  0
LINE
  5
2F6
330
A
100
AcDbEntity
  8
06
100
AcDbLine
 10
283.5809004230176
 20
330.5823899371068
 30
0.0
 11
292.3309004230178
 21
330.5823899371068
 31
0.0
  0
LINE
  5
2F7
330
A
100
AcDbEntity
  8
06
100
AcDbLine
 10
266.3309004230177
 20
330.5823899371068
 30
0.0
 11
275.0809004230175
 21
330.5823899371068
 31
0.0
  0
LINE
  5
2F9
330
A
100
AcDbEntity
  8
06
100
AcDbLine
 10
291.8309004230176
 20
330.5823899371068
 30
0.0
 11
291.8309004230176
 21
332.0823899371069
 31
0.0
  0
LINE
  5
2FA
330
A
100
AcDbEntity
  8
06
100
AcDbLine
 10
291.8309004230176
 20
330.5823899371068
 30
0.0
 11
266.8309004230175
 21
330.5823899371068
 31
0.0
  0
LINE
  5
2FB
330
A
100
AcDbEntity
  8
06
100
AcDbLine
 10
266.8309004230175
 20
330.5823899371068
 30
0.0
 11
266.8309004230175
 21
331.5823899371068
 31
0.0
  0
LINE
  5
2FC
330
A
100
AcDbEntity
  8
06
100
AcDbLine
 10
258.6309004230177
 20
331.5823899371068
 30
0.0
 11
266.8309004230175
 21
331.5823899371068
 31
0.0
  0
LINE
  5
2FD
330
A
100
AcDbEntity
  8
06
100
AcDbLine
 10
291.8309004230176
 20
332.0823899371069
 30
0.0
 11
261.8309004230175
 21
332.0823899371069
 31
0.0
  0
LINE
  5
2FE
330
A
100
AcDbEntity
  8
06
100
AcDbLine
 10
261.8309004230175
 20
332.0823899371069
 30
0.0
 11
258.6309004230177
 21
331.5823899371068
 31
0.0
  0
LINE
  5
319
330
A
100
AcDbEntity
  8
06
100
AcDbLine
 10
282.3309004230178
 20
231.082389937107
 30
0.0
 11
282.3309004230178
 21
261.382389937107
 31
0.0
  0
LINE
  5
31A
330
A
100
AcDbEntity
  8
06
100
AcDbLine
 10
276.3309004230178
 20
231.082389937107
 30
0.0
 11
276.3309004230178
 21
261.3823899371069
 31
0.0
  0
LINE
  5
31B
330
A
100
AcDbEntity
  8
06
100
AcDbLine
 10
276.8309004230177
 20
231.082389937107
 30
0.0
 11
276.8309004230177
 21
261.3823899371069
 31
0.0
  0
LINE
  5
31C
330
A
100
AcDbEntity
  8
06
100
AcDbLine
 10
281.8309004230178
 20
231.082389937107
 30
0.0
 11
281.8309004230178
 21
261.382389937107
 31
0.0
  0
LINE
  5
32A
330
A
100
AcDbEntity
  8
03
100
AcDbLine
 10
231.3309004230175
 20
534.0823899371066
 30
0.0
 11
231.3309004230175
 21
516.0823899371068
 31
0.0
  0
LINE
  5
32C
330
A
100
AcDbEntity
  8
03
100
AcDbLine
 10
237.3309004230175
 20
534.0823899371066
 30
0.0
 11
237.3309004230175
 21
516.0823899371068
 31
0.0
  0
LINE
  5
32F
330
A
100
AcDbEntity
  8
03
100
AcDbLine
 10
232.3309004230175
 20
534.0823899371066
 30
0.0
 11
232.3309004230175
 21
516.0823899371068
 31
0.0
  0
LINE
  5
331
330
A
100
AcDbEntity
  8
03
100
AcDbLine
 10
236.3309004230175
 20
534.0823899371066
 30
0.0
 11
236.3309004230175
 21
516.0823899371068
 31
0.0
  0
LINE
  5
332
330
A
100
AcDbEntity
  8
SAISEN
100
AcDbLine
 10
194.1836768951857
 20
209.0823899371069
 30
0.0
 11
325.8394883502317
 21
209.082389937107
 31
0.0
  0
LINE
  5
333
330
A
100
AcDbEntity
  8
SAISEN
100
AcDbLine
 10
325.8394883502317
 20
231.082389937107
 30
0.0
 11
194.1836768951857
 21
231.082389937107
 31
0.0
  0
LINE
  5
345
330
A
100
AcDbEntity
  8
03
100
AcDbLine
 10
258.8309004230178
 20
98.08238993710716
 30
0.0
 11
270.0809004230178
 21
98.08238993710723
 31
0.0
  0
LINE
  5
346
330
A
100
AcDbEntity
  8
03
100
AcDbLine
 10
308.3309004230176
 20
83.08238993710729
 30
0.0
 11
308.3309004230176
 21
96.58238993710728
 31
0.0
  0
LINE
  5
347
330
A
100
AcDbEntity
  8
03
100
AcDbLine
 10
259.8309004230177
 20
83.08238993710714
 30
0.0
 11
259.8309004230177
 21
96.58238993710718
 31
0.0
  0
LINE
  5
348
330
A
100
AcDbEntity
  8
03
100
AcDbLine
 10
226.8309004230177
 20
516.0823899371068
 30
0.0
 11
241.8309004230175
 21
516.0823899371068
 31
0.0
  0
LINE
  5
349
330
A
100
AcDbEntity
  8
03
100
AcDbLine
 10
241.8309004230175
 20
516.0823899371068
 30
0.0
 11
241.8309004230175
 21
506.0823899371069
 31
0.0
  0
LINE
  5
34A
330
A
100
AcDbEntity
  8
03
100
AcDbLine
 10
241.8309004230175
 20
506.0823899371069
 30
0.0
 11
226.8309004230177
 21
506.0823899371069
 31
0.0
  0
LINE
  5
34B
330
A
100
AcDbEntity
  8
03
100
AcDbLine
 10
226.8309004230177
 20
506.0823899371069
 30
0.0
 11
226.8309004230177
 21
516.0823899371068
 31
0.0
  0
LINE
  5
34C
330
A
100
AcDbEntity
  8
03
100
AcDbLine
 10
226.8309004230177
 20
506.0823899371069
 30
0.0
 11
241.8309004230175
 21
516.0823899371068
 31
0.0
  0
ARC
  5
34D
330
A
100
AcDbEntity
  8
03
100
AcDbCircle
 10
240.7059004230175
 20
535.5980043366947
 30
0.0
 40
12.0
100
AcDbArc
 50
253.6651772193138
 51
286.3348227806858
  0
ARC
  5
34E
330
A
100
AcDbEntity
  8
03
100
AcDbCircle
 10
227.9559004230175
 20
535.5980043366947
 30
0.0
 40
12.0
100
AcDbArc
 50
253.665177219314
 51
286.334822780686
  0
LINE
  5
351
330
A
100
AcDbEntity
  8
03
100
AcDbLine
 10
239.3309004230153
 20
209.0823899371069
 30
0.0
 11
239.3309004230153
 21
174.7823899371072
 31
0.0
  0
LINE
  5
352
330
A
100
AcDbEntity
  8
03
100
AcDbLine
 10
245.3309004230153
 20
209.082389937107
 30
0.0
 11
245.3309004230153
 21
174.7823899371072
 31
0.0
  0
LINE
  5
353
330
A
100
AcDbEntity
  8
03
100
AcDbLine
 10
244.8309004230153
 20
209.082389937107
 30
0.0
 11
244.8309004230153
 21
174.7823899371072
 31
0.0
  0
LINE
  5
354
330
A
100
AcDbEntity
  8
03
100
AcDbLine
 10
239.8309004230154
 20
209.0823899371069
 30
0.0
 11
239.8309004230154
 21
174.7823899371072
 31
0.0
  0
LINE
  5
358
330
A
100
AcDbEntity
  8
03
100
AcDbLine
 10
239.3309004230153
 20
231.082389937107
 30
0.0
 11
239.3309004230153
 21
261.382389937107
 31
0.0
  0
LINE
  5
359
330
A
100
AcDbEntity
  8
03
100
AcDbLine
 10
245.3309004230153
 20
231.082389937107
 30
0.0
 11
245.3309004230153
 21
261.3823899371073
 31
0.0
  0
LINE
  5
35A
330
A
100
AcDbEntity
  8
03
100
AcDbLine
 10
244.8309004230153
 20
231.082389937107
 30
0.0
 11
244.8309004230154
 21
261.3823899371073
 31
0.0
  0
LINE
  5
35B
330
A
100
AcDbEntity
  8
03
100
AcDbLine
 10
239.8309004230154
 20
231.082389937107
 30
0.0
 11
239.8309004230154
 21
261.382389937107
 31
0.0
  0
LINE
  5
365
330
A
100
AcDbEntity
  8
KAKURE
100
AcDbLine
 10
259.8309004230177
 20
65.28238993710711
 30
0.0
 11
259.8309004230177
 21
83.08238993710714
 31
0.0
  0
LINE
  5
366
330
A
100
AcDbEntity
  8
KAKURE
100
AcDbLine
 10
308.3309004230176
 20
83.08238993710729
 30
0.0
 11
308.3309004230176
 21
65.28238993710733
 31
0.0
  0
LINE
  5
367
330
A
100
AcDbEntity
  8
KAKURE
100
AcDbLine
 10
306.0309004230176
 20
66.58238993710734
 30
0.0
 11
288.5809004230178
 21
66.58238993710728
 31
0.0
  0
LINE
  5
368
330
A
100
AcDbEntity
  8
KAKURE
100
AcDbLine
 10
270.0809004230178
 20
66.58238993710722
 30
0.0
 11
262.1309004230178
 21
66.58238993710717
 31
0.0
  0
LINE
  5
369
330
A
100
AcDbEntity
  8
KAKURE
100
AcDbLine
 10
307.3309004230178
 20
64.28238993710738
 30
0.0
 11
260.8309004230178
 21
64.28238993710711
 31
0.0
  0
ARC
  5
36A
330
A
100
AcDbEntity
  8
KAKURE
100
AcDbCircle
 10
260.8309004230178
 20
65.28238993710711
 30
0.0
 40
1.0
100
AcDbArc
 50
180.0
 51
269.9999999999999
  0
ARC
  5
36B
330
A
100
AcDbEntity
  8
KAKURE
100
AcDbCircle
 10
307.3309004230178
 20
65.28238993710733
 30
0.0
 40
1.0
100
AcDbArc
 50
269.9999999999999
 51
0.0
  0
LINE
  5
36C
330
A
100
AcDbEntity
  8
KAKURE
100
AcDbLine
 10
262.1309004230178
 20
66.58238993710717
 30
0.0
 11
262.1309004230178
 21
96.58238993710725
 31
0.0
  0
LINE
  5
36D
330
A
100
AcDbEntity
  8
KAKURE
100
AcDbLine
 10
306.0309004230176
 20
96.58238993710728
 30
0.0
 11
306.0309004230176
 21
66.58238993710728
 31
0.0
  0
LINE
  5
36E
330
A
100
AcDbEntity
  8
KAKURE
100
AcDbLine
 10
281.3309004230179
 20
128.0823899371069
 30
0.0
 11
277.3309004230179
 21
128.0823899371069
 31
0.0
  0
LINE
  5
36F
330
A
100
AcDbEntity
  8
KAKURE
100
AcDbLine
 10
279.3309004230179
 20
126.082389937107
 30
0.0
 11
279.3309004230179
 21
126.9823899371069
 31
0.0
  0
LINE
  5
370
330
A
100
AcDbEntity
  8
KAKURE
100
AcDbLine
 10
277.3309004230179
 20
128.0823899371069
 30
0.0
 11
277.3309004230179
 21
146.082389937107
 31
0.0
  0
LINE
  5
371
330
A
100
AcDbEntity
  8
KAKURE
100
AcDbLine
 10
277.3309004230179
 20
146.082389937107
 30
0.0
 11
281.3309004230179
 21
146.082389937107
 31
0.0
  0
LINE
  5
372
330
A
100
AcDbEntity
  8
KAKURE
100
AcDbLine
 10
281.3309004230179
 20
146.082389937107
 30
0.0
 11
281.3309004230179
 21
128.0823899371069
 31
0.0
  0
LINE
  5
373
330
A
100
AcDbEntity
  8
KAKURE
100
AcDbLine
 10
277.3309004230179
 20
129.482389937107
 30
0.0
 11
281.3309004230179
 21
129.482389937107
 31
0.0
  0
LINE
  5
374
330
A
100
AcDbEntity
  8
KAKURE
100
AcDbLine
 10
277.6809004230179
 20
129.482389937107
 30
0.0
 11
277.6809004230178
 21
146.082389937107
 31
0.0
  0
LINE
  5
375
330
A
100
AcDbEntity
  8
KAKURE
100
AcDbLine
 10
280.9809004230179
 20
129.482389937107
 30
0.0
 11
280.9809004230179
 21
146.082389937107
 31
0.0
  0
LINE
  5
376
330
A
100
AcDbEntity
  8
KAKURE
 48
0.7
100
AcDbLine
 10
281.3309004230179
 20
128.0823899371069
 30
0.0
 11
282.3309004230178
 21
126.082389937107
 31
0.0
  0
LINE
  5
377
330
A
100
AcDbEntity
  8
KAKURE
 48
0.7
100
AcDbLine
 10
277.3309004230179
 20
128.0823899371069
 30
0.0
 11
276.3309004230179
 21
126.082389937107
 31
0.0
  0
LINE
  5
37E
330
A
100
AcDbEntity
  8
CHUSIN
100
AcDbLine
 10
279.3309048759553
 20
354.1023715745476
 30
0.0
 11
279.3309004230176
 21
60.67224750563998
 31
0.0
  0
LINE
  5
380
330
A
100
AcDbEntity
  8
CHUSIN
100
AcDbLine
 10
234.3309004230175
 20
534.0823899371066
 30
0.0
 11
234.3309004230175
 21
497.7700209643605
 31
0.0
  0
LINE
  5
381
330
A
100
AcDbEntity
  8
CHUSIN
100
AcDbLine
 10
213.3309004230175
 20
234.3595348837208
 30
0.0
 11
213.3309004230175
 21
202.4493023255813
 31
0.0
  0
LINE
  5
383
330
A
100
AcDbEntity
  8
CHUSIN
100
AcDbLine
 10
242.3309004230155
 20
329.698937709258
 30
0.0
 11
242.3309004230155
 21
163.2903560661028
 31
0.0
  0
LINE
  5
384
330
A
100
AcDbEntity
  8
KAKURE
100
AcDbLine
 10
200.3309004230175
 20
68.08238993710706
 30
0.0
 11
258.3309004230176
 21
68.08238993710722
 31
0.0
  0
LINE
  5
385
330
A
100
AcDbEntity
  8
KAKURE
100
AcDbLine
 10
308.3309004230176
 20
68.08238993710725
 30
0.0
 11
320.3309004230177
 21
68.08238993710713
 31
0.0
  0
LINE
  5
386
330
A
100
AcDbEntity
  8
KAKURE
100
AcDbLine
 10
200.3309004230175
 20
95.08238993710714
 30
0.0
 11
200.3309004230175
 21
68.08238993710715
 31
0.0
  0
LINE
  5
387
330
A
100
AcDbEntity
  8
KAKURE
100
AcDbLine
 10
320.3425299924376
 20
95.0998973995407
 30
0.0
 11
320.3309004230177
 21
68.08238993710713
 31
0.0
  0
LINE
  5
38C
330
A
100
AcDbEntity
  8
KAKURE
100
AcDbLine
 10
206.3309004230175
 20
95.08238993710717
 30
0.0
 11
206.3309004230175
 21
68.08238993710715
 31
0.0
  0
LINE
  5
38D
330
A
100
AcDbEntity
  8
KAKURE
100
AcDbLine
 10
258.3309004230176
 20
83.08238993710714
 30
0.0
 11
258.3309004230176
 21
68.08238993710728
 31
0.0
  0
LINE
  5
4E9
330
A
100
AcDbEntity
  8
02
100
AcDbLine
 10
219.3309004230175
 20
502.9823899371066
 30
0.0
 11
219.3309004230175
 21
342.1823899371068
 31
0.0
  0
LINE
  5
5A4
330
A
100
AcDbEntity
  8
03
100
AcDbLine
 10
227.3309004230156
 20
324.0823899371068
 30
0.0
 11
257.3309004230155
 21
324.0823899371068
 31
0.0
  0
LINE
  5
5A5
330
A
100
AcDbEntity
  8
03
100
AcDbLine
 10
257.3309004230155
 20
321.0823899371068
 30
0.0
 11
227.3309004230156
 21
321.0823899371068
 31
0.0
  0
LINE
  5
5A6
330
A
100
AcDbEntity
  8
03
100
AcDbLine
 10
227.3309004230156
 20
321.0823899371068
 30
0.0
 11
227.3309004230156
 21
324.0823899371068
 31
0.0
  0
LINE
  5
5A7
330
A
100
AcDbEntity
  8
03
100
AcDbLine
 10
257.3309004230155
 20
324.0823899371068
 30
0.0
 11
257.3309004230155
 21
321.0823899371068
 31
0.0
  0
LINE
  5
5A8
330
A
100
AcDbEntity
  8
03
100
AcDbLine
 10
227.3309004230156
 20
321.0823899371068
 30
0.0
 11
257.3309004230155
 21
324.0823899371068
 31
0.0
  0
LINE
  5
5AC
330
A
100
AcDbEntity
  8
03
100
AcDbLine
 10
227.3309004230156
 20
105.0823899371069
 30
0.0
 11
257.3309004230153
 21
105.082389937107
 31
0.0
  0
LINE
  5
5AD
330
A
100
AcDbEntity
  8
03
100
AcDbLine
 10
257.3309004230153
 20
95.0823899371073
 30
0.0
 11
227.3309004230156
 21
95.08238993710712
 31
0.0
  0
LINE
  5
5AE
330
A
100
AcDbEntity
  8
03
100
AcDbLine
 10
227.3309004230156
 20
95.08238993710712
 30
0.0
 11
227.3309004230156
 21
105.0823899371069
 31
0.0
  0
LINE
  5
5AF
330
A
100
AcDbEntity
  8
03
100
AcDbLine
 10
257.3309004230153
 20
105.082389937107
 30
0.0
 11
257.3309004230153
 21
95.08238993710724
 31
0.0
  0
LINE
  5
5B0
330
A
100
AcDbEntity
  8
03
100
AcDbLine
 10
227.3309004230156
 20
95.08238993710712
 30
0.0
 11
257.3309004230153
 21
105.082389937107
 31
0.0
  0
LINE
  5
5B1
330
A
100
AcDbEntity
  8
03
100
AcDbLine
 10
227.3309004230156
 20
105.0823899371069
 30
0.0
 11
257.3309004230153
 21
95.0823899371073
 31
0.0
  0
POLYLINE
  5
5F0
330
A
100
AcDbEntity
  8
DEFPOINTS
100
AcDb2dPolyline
 66
     1
 10
0.0
 20
0.0
 30
0.0
 70
     1
  0
VERTEX
  5
30CC
330
5F0
100
AcDbEntity
  8
DEFPOINTS
100
AcDbVertex
100
AcDb2dVertex
 10
420.0
 20
0.0
 30
0.0
  0
VERTEX
  5
30CD
330
5F0
100
AcDbEntity
  8
DEFPOINTS
100
AcDbVertex
100
AcDb2dVertex
 10
420.0000000000001
 20
594.0
 30
0.0
  0
VERTEX
  5
30CE
330
5F0
100
AcDbEntity
  8
DEFPOINTS
100
AcDbVertex
100
AcDb2dVertex
 10
0.0000000000000568
 20
594.0
 30
0.0
  0
VERTEX
  5
30CF
330
5F0
100
AcDbEntity
  8
DEFPOINTS
100
AcDbVertex
100
AcDb2dVertex
 10
0.0
 20
0.0000000000000257
 30
0.0
  0
SEQEND
  5
30D0
330
5F0
100
AcDbEntity
  8
DEFPOINTS
  0
MTEXT
  5
61A
330
A
100
AcDbEntity
  8
MOJI
100
AcDbMText
 10
70.12529405105166
 20
317.0823899371068
 30
0.0
 40
6.0
 41
10.0
 71
     5
 72
     1
  1
外\P\P部
  7
0_8
1001
ACAD
1000
MTEXTBEGIN
1070
    73
1070
     1
1070
    44
1040
1.0
1070
    74
1070
     0
1000
MTEXTEND
1000
MTEXTBEGIN
1070
    73
1070
     1
1070
    44
1040
1.0
1070
    74
1070
     0
1000
MTEXTEND
  0
POLYLINE
  5
61B
330
A
100
AcDbEntity
  8
SAISEN
100
AcDb2dPolyline
 66
     1
 10
0.0
 20
0.0
 30
0.0
 70
     1
  0
VERTEX
  5
30D1
330
61B
100
AcDbEntity
  8
SAISEN
100
AcDbVertex
100
AcDb2dVertex
 10
65.12529405105166
 20
302.0823899371068
 30
0.0
  0
VERTEX
  5
30D2
330
61B
100
AcDbEntity
  8
SAISEN
100
AcDbVertex
100
AcDb2dVertex
 10
75.12529405105166
 20
302.0823899371068
 30
0.0
  0
VERTEX
  5
30D3
330
61B
100
AcDbEntity
  8
SAISEN
100
AcDbVertex
100
AcDb2dVertex
 10
75.12529405105166
 20
332.0823899371069
 30
0.0
  0
VERTEX
  5
30D4
330
61B
100
AcDbEntity
  8
SAISEN
100
AcDbVertex
100
AcDb2dVertex
 10
65.12529405105166
 20
332.0823899371069
 30
0.0
  0
SEQEND
  5
30D5
330
61B
100
AcDbEntity
  8
SAISEN
  0
POLYLINE
  5
61C
330
A
100
AcDbEntity
  8
SAISEN
100
AcDb2dPolyline
 66
     1
 10
0.0
 20
0.0
 30
0.0
 70
     1
  0
VERTEX
  5
30D6
330
61C
100
AcDbEntity
  8
SAISEN
100
AcDbVertex
100
AcDb2dVertex
 10
395.4544815465729
 20
302.0823899371068
 30
0.0
  0
VERTEX
  5
30D7
330
61C
100
AcDbEntity
  8
SAISEN
100
AcDbVertex
100
AcDb2dVertex
 10
405.454481546573
 20
302.0823899371068
 30
0.0
  0
VERTEX
  5
30D8
330
61C
100
AcDbEntity
  8
SAISEN
100
AcDbVertex
100
AcDb2dVertex
 10
405.454481546573
 20
332.0823899371069
 30
0.0
  0
VERTEX
  5
30D9
330
61C
100
AcDbEntity
  8
SAISEN
100
AcDbVertex
100
AcDb2dVertex
 10
395.4544815465729
 20
332.0823899371069
 30
0.0
  0
SEQEND
  5
30DA
330
61C
100
AcDbEntity
  8
SAISEN
  0
MTEXT
  5
61D
330
A
100
AcDbEntity
  8
MOJI
100
AcDbMText
 10
400.4544815465727
 20
317.0823899371068
 30
0.0
 40
6.0
 41
10.0
 71
     5
 72
     1
  1
内\P\P部
  7
0_8
1001
ACAD
1000
MTEXTBEGIN
1070
    73
1070
     1
1070
    44
1040
1.0
1070
    74
1070
     0
1000
MTEXTEND
1000
MTEXTBEGIN
1070
    73
1070
     1
1070
    44
1040
1.0
1070
    74
1070
     0
1000
MTEXTEND
  0
TEXT
  5
632
330
A
100
AcDbEntity
  8
MOJI
100
AcDbText
 10
387.3182548402813
 20
97.21144765718435
 30
0.0
 40
5.0
  1
Ｆ.Ｌ
 41
0.8
  7
0_8
 11
387.3182548402813
 21
99.71144765718435
 31
0.0
100
AcDbText
 73
     2
  0
DIMENSION
  5
658
330
A
100
AcDbEntity
  8
SUNPOU
100
AcDbDimension
  2
*D1
 10
226.3309004230155
 20
307.0253478105473
 30
0.0
 11
214.8309004230165
 21
311.5253478105473
 31
0.0
 70
    32
  3
SUNPOU_2
100
AcDbAlignedDimension
 13
203.3309004230175
 23
324.8323899371068
 33
0.0
 14
226.3309004230155
 24
307.0253478105473
 34
0.0
100
AcDbRotatedDimension
  0
DIMENSION
  5
664
330
A
100
AcDbEntity
  8
SUNPOU
100
AcDbDimension
  2
*D2
 10
258.3309004230155
 20
307.0253478105473
 30
0.0
 11
246.8289625781283
 21
311.5253478105473
 31
0.0
 70
   160
  3
SUNPOU_2
100
AcDbAlignedDimension
 13
226.3309004230155
 23
307.0253478105473
 33
0.0
 14
258.3309004230155
 24
307.1830040293008
 34
0.0
100
AcDbRotatedDimension
  0
DIMENSION
  5
670
330
A
100
AcDbEntity
  8
SUNPOU
100
AcDbDimension
  2
*D3
 10
263.3309004230178
 20
307.0253478105473
 30
0.0
 11
260.8309004230166
 21
302.5532350696453
 31
0.0
 70
   160
  3
SUNPOU_2
100
AcDbAlignedDimension
 13
258.3309004230155
 23
307.1830040293008
 33
0.0
 14
263.3309004230178
 24
307.1830040293008
 34
0.0
100
AcDbRotatedDimension
  0
DIMENSION
  5
67F
330
A
100
AcDbEntity
  8
SUNPOU
100
AcDbDimension
  2
*D4
 10
295.3309004230177
 20
307.0253478105473
 30
0.0
 11
284.4558862444078
 21
311.5253478105473
 31
0.0
 70
   160
  3
SUNPOU_2
100
AcDbAlignedDimension
 13
263.3309004230178
 23
307.1830040293008
 33
0.0
 14
295.3309004230177
 24
307.0253478105473
 34
0.0
100
AcDbRotatedDimension
  0
DIMENSION
  5
68B
330
A
100
AcDbEntity
  8
SUNPOU
100
AcDbDimension
  2
*D5
 10
300.3309004230178
 20
307.0253478105473
 30
0.0
 11
297.8309004230176
 21
302.4506317097041
 31
0.0
 70
   160
  3
SUNPOU_2
100
AcDbAlignedDimension
 13
295.3309004230177
 23
307.0253478105473
 33
0.0
 14
300.3309004230178
 24
324.8323899371068
 34
0.0
100
AcDbRotatedDimension
  0
DIMENSION
  5
6AC
330
A
100
AcDbEntity
  8
SUNPOU
100
AcDbDimension
  2
*D6
 10
317.3309004230176
 20
307.0253478105473
 30
0.0
 11
308.8309004230176
 21
311.5253478105473
 31
0.0
 70
    32
  3
SUNPOU_2
100
AcDbAlignedDimension
 13
300.3309004230178
 23
324.8323899371068
 33
0.0
 14
317.3309004230176
 24
324.8323899371068
 34
0.0
100
AcDbRotatedDimension
  0
DIMENSION
  5
6B9
330
A
100
AcDbEntity
  8
SUNPOU
100
AcDbDimension
  2
*D7
 10
203.3309004230175
 20
295.5795136456389
 30
0.0
 11
192.7423031657513
 21
300.1244469302751
 31
0.0
 70
   160
  3
SUNPOU_2
100
AcDbAlignedDimension
 13
200.3309004230175
 23
295.5795136456389
 33
0.0
 14
203.3309004230175
 24
324.8323899371068
 34
0.0
100
AcDbRotatedDimension
  0
DIMENSION
  5
6C7
330
A
100
AcDbEntity
  8
SUNPOU
100
AcDbDimension
  2
*D8
 10
317.3309004230176
 20
295.5795136456389
 30
0.0
 11
273.0255149593621
 21
300.0795136456388
 31
0.0
 70
   160
  3
SUNPOU_2
100
AcDbAlignedDimension
 13
203.3309004230175
 23
324.8323899371068
 33
0.0
 14
317.3309004230176
 24
324.8323899371068
 34
0.0
100
AcDbRotatedDimension
  0
DIMENSION
  5
6D4
330
A
100
AcDbEntity
  8
SUNPOU
100
AcDbDimension
  2
*D9
 10
320.3309004230177
 20
295.5795136456389
 30
0.0
 11
327.3051528619016
 21
300.1118273332429
 31
0.0
 70
   160
  3
SUNPOU_2
100
AcDbAlignedDimension
 13
317.3309004230176
 23
324.8323899371068
 33
0.0
 14
320.3309004230177
 24
295.5795136456389
 34
0.0
100
AcDbRotatedDimension
  0
DIMENSION
  5
6E2
330
A
100
AcDbEntity
  8
SUNPOU
100
AcDbDimension
  2
*D10
 10
320.3309004230177
 20
284.1336794807303
 30
0.0
 11
272.9296959898793
 21
288.6336794807305
 31
0.0
 70
   160
  3
SUNPOU_2
100
AcDbAlignedDimension
 13
200.3309004230175
 23
284.1336794807303
 33
0.0
 14
320.3309004230177
 24
284.1336794807303
 34
0.0
100
AcDbRotatedDimension
  0
DIMENSION
  5
6ED
330
A
100
AcDbEntity
  8
SUNPOU
100
AcDbDimension
  2
*D11
 10
270.8309004230176
 20
49.2823899371071
 30
0.0
 11
246.573334941161
 21
56.84702300507728
 31
0.0
 70
   160
  3
SUNPOU_2
100
AcDbAlignedDimension
 13
258.3309004230176
 23
68.08238993710728
 33
0.0
 14
270.8309004230176
 24
68.08238993710715
 34
0.0
100
AcDbRotatedDimension
  0
DIMENSION
  5
6FC
330
A
100
AcDbEntity
  8
SUNPOU
100
AcDbDimension
  2
*D12
 10
287.8309004230178
 20
49.2823899371071
 30
0.0
 11
279.3309004230176
 21
53.78238993710709
 31
0.0
 70
    32
  3
SUNPOU_2
100
AcDbAlignedDimension
 13
270.8309004230176
 23
68.08238993710715
 33
0.0
 14
287.8309004230178
 24
68.08238993710713
 34
0.0
100
AcDbRotatedDimension
  0
DIMENSION
  5
709
330
A
100
AcDbEntity
  8
SUNPOU
100
AcDbDimension
  2
*D13
 10
308.3309004230176
 20
49.2823899371071
 30
0.0
 11
298.0809004230176
 21
53.78238993710709
 31
0.0
 70
    32
  3
SUNPOU_2
100
AcDbAlignedDimension
 13
287.8309004230178
 23
68.08238993710713
 33
0.0
 14
308.3309004230176
 24
65.28238993710733
 34
0.0
100
AcDbRotatedDimension
  0
DIMENSION
  5
716
330
A
100
AcDbEntity
  8
SUNPOU
100
AcDbDimension
  2
*D14
 10
140.3309004230177
 20
324.0823899371068
 30
0.0
 11
132.8309004230177
 21
322.5823899371068
 31
0.0
 70
    32
  3
SUNPOU_2
100
AcDbAlignedDimension
 13
226.3309004230155
 23
321.0823899371068
 33
0.0
 14
204.0809004230175
 24
324.0823899371068
 34
0.0
 50
90.0
100
AcDbRotatedDimension
  0
DIMENSION
  5
725
330
A
100
AcDbEntity
  8
SUNPOU
100
AcDbDimension
  2
*D15
 10
140.3309004230177
 20
506.0823899371069
 30
0.0
 11
135.8309004230177
 21
415.0823899371069
 31
0.0
 70
    32
  3
SUNPOU_2
100
AcDbAlignedDimension
 13
204.0809004230175
 23
324.0823899371068
 33
0.0
 14
204.0809004230175
 24
506.0823899371069
 34
0.0
 50
90.0
100
AcDbRotatedDimension
  0
DIMENSION
  5
732
330
A
100
AcDbEntity
  8
SUNPOU
100
AcDbDimension
  2
*D16
 10
140.3309004230177
 20
524.0823899371068
 30
0.0
 11
135.8309004230177
 21
515.0823899371069
 31
0.0
 70
    32
  3
SUNPOU_2
100
AcDbAlignedDimension
 13
204.0809004230175
 23
506.0823899371069
 33
0.0
 14
209.0809004230178
 24
524.0823899371068
 34
0.0
 50
90.0
100
AcDbRotatedDimension
  0
DIMENSION
  5
73F
330
A
100
AcDbEntity
  8
SUNPOU
100
AcDbDimension
  2
*D17
 10
180.3309004230175
 20
409.0822752926363
 30
0.0
 11
175.8309004230175
 21
366.5823326148718
 31
0.0
 70
    32
  3
SUNPOU_2
100
AcDbAlignedDimension
 13
204.0809004230175
 23
324.0823899371068
 33
0.0
 14
215.5840061229723
 24
409.0822752926363
 34
0.0
 50
90.0
100
AcDbRotatedDimension
  0
DIMENSION
  5
74C
330
A
100
AcDbEntity
  8
SUNPOU
100
AcDbDimension
  2
*D18
 10
180.3309004230175
 20
454.0822752926366
 30
0.0
 11
175.8309004230175
 21
440.6603864610048
 31
0.0
 70
   160
  3
SUNPOU_2
100
AcDbAlignedDimension
 13
215.5840061229723
 23
409.0822752926363
 33
0.0
 14
215.5840061229723
 24
454.0822752926366
 34
0.0
 50
90.0
100
AcDbRotatedDimension
  0
DIMENSION
  5
768
330
A
100
AcDbEntity
  8
SUNPOU
100
AcDbDimension
  2
*D19
 10
140.3309004230177
 20
219.0823899371068
 30
0.0
 11
135.8309004230177
 21
157.0823899371069
 31
0.0
 70
    32
  1
600
  3
SUNPOU_2
100
AcDbAlignedDimension
 13
227.3309004230156
 23
95.08238993710712
 33
0.0
 14
197.3309004230175
 24
219.0823899371068
 34
0.0
 50
90.0
100
AcDbRotatedDimension
  0
DIMENSION
  5
776
330
A
100
AcDbEntity
  8
SUNPOU
100
AcDbDimension
  2
*D20
 10
360.3309004230176
 20
98.08238993710709
 30
0.0
 11
355.8309004230177
 21
83.08238993710714
 31
0.0
 70
    32
  3
SUNPOU_2
100
AcDbAlignedDimension
 13
320.3309004230177
 23
68.08238993710713
 33
0.0
 14
320.3309004230177
 24
98.08238993710713
 34
0.0
 50
90.0
100
AcDbRotatedDimension
  0
DIMENSION
  5
783
330
A
100
AcDbEntity
  8
SUNPOU
100
AcDbDimension
  2
*D21
 10
360.3309004230176
 20
105.082389937107
 30
0.0
 11
354.4631531101626
 21
102.2490325600335
 31
0.0
 70
   160
  3
SUNPOU_2
100
AcDbAlignedDimension
 13
309.3309004230178
 23
98.08238993710729
 33
0.0
 14
295.3309004230177
 24
105.082389937107
 34
0.0
 50
90.0
100
AcDbRotatedDimension
1001
ACAD
1000
DSTYLE
1002
{
1070
     6
1000
DOTSMALL
1070
     5
1000

1070
   173
1070
     1
1070
     7
1000
OPEN30
1002
}
  0
DIMENSION
  5
79F
330
A
100
AcDbEntity
  8
SUNPOU
100
AcDbDimension
  2
*D22
 10
350.3309004230176
 20
331.082389937107
 30
0.0
 11
345.8309004230176
 21
327.5823899371069
 31
0.0
 70
    32
  3
SUNPOU_2
100
AcDbAlignedDimension
 13
316.5809004230176
 23
324.0823899371068
 33
0.0
 14
295.3309004230177
 24
331.082389937107
 34
0.0
 50
90.0
100
AcDbRotatedDimension
  0
DIMENSION
  5
7AE
330
A
100
AcDbEntity
  8
SUNPOU
100
AcDbDimension
  2
*D23
 10
380.3309004230176
 20
324.0823899371068
 30
0.0
 11
375.8309004230176
 21
211.082389937107
 31
0.0
 70
    32
  1
Ｈ
  3
SUNPOU_2
100
AcDbAlignedDimension
 13
309.3309004230178
 23
98.08238993710729
 33
0.0
 14
316.5809004230176
 24
324.0823899371068
 34
0.0
 50
90.0
100
AcDbRotatedDimension
1001
ACAD
1000
DSTYLE
1002
{
1070
     7
1000
OPEN30
1070
     5
1000

1070
   173
1070
     1
1070
     6
1000
OPEN30
1002
}
  0
DIMENSION
  5
7BB
330
A
100
AcDbEntity
  8
SUNPOU
100
AcDbDimension
  2
*D24
 10
380.3309004230176
 20
524.0823899371068
 30
0.0
 11
375.8309004230176
 21
424.0823899371068
 31
0.0
 70
    32
  3
SUNPOU_2
100
AcDbAlignedDimension
 13
316.5809004230176
 23
324.0823899371068
 33
0.0
 14
317.3309004230176
 24
524.0823899371068
 34
0.0
 50
90.0
100
AcDbRotatedDimension
  0
LEADER
  5
901
330
A
100
AcDbEntity
  8
HIKIDASI
100
AcDbLeader
  3
SUNPOU_2
 73
     0
 74
     0
 75
     1
 40
5.000000000000001
 41
45.86666666666665
 76
     3
 10
288.8828092153103
 20
107.9008616838404
 30
0.0
 10
310.4874704410663
 20
123.3743186582809
 30
0.0
 10
315.4874704410663
 20
123.3743186582809
 30
0.0
340
902
1001
ACAD
1000
DSTYLE
1002
{
1070
     5
1000
OPEN30
1070
    77
1070
     1
1070
   147
1040
1.0
1070
   342
1005
5D9
1002
}
1000
LEANOF
1010
0.0
1020
0.0
1030
0.0
1000
LEANOF
1010
0.0
1020
0.0
1030
0.0
1000
LEANOF
1010
0.0
1020
0.0
1030
0.0
  0
MTEXT
  5
902
330
A
100
AcDbEntity
  8
HIKIDASI
100
AcDbMText
 10
317.4874704410663
 20
125.3743186582809
 30
0.0
 40
5.0
 41
0.0
 71
     7
 72
     1
  1
レールタイトシステム
  7
SUNPOU
1001
ACAD
1000
MTEXTBEGIN
1070
    73
1070
     1
1070
    44
1040
1.0
1070
    74
1070
     0
1000
MTEXTEND
1000
MTEXTBEGIN
1070
    73
1070
     1
1070
    44
1040
1.0
1070
    74
1070
     0
1000
MTEXTEND
  0
LEADER
  5
904
330
A
100
AcDbEntity
  8
HIKIDASI
100
AcDbLeader
  3
SUNPOU_2
 73
     0
 74
     0
 75
     1
 40
13.33333333333333
 41
58.26666666666673
 76
     3
 10
294.0809004230178
 20
182.1714728946853
 30
0.0
 10
307.3351365157084
 20
157.7106939592478
 30
0.0
 10
312.3351365157085
 20
157.7106939592478
 30
0.0
340
905
213
1.560286198210178
223
8.628304022140952
233
0.0
1001
ACAD
1000
DSTYLE
1002
{
1070
     5
1000
OPEN30
1070
    77
1070
     1
1070
   147
1040
1.0
1070
   342
1005
5D9
1002
}
1000
LEANOF
1010
1.560286198210178
1020
8.628304022140952
1030
0.0
1000
LEANOF
1010
1.560286198210178
1020
8.628304022140952
1030
0.0
1000
LEANOF
1010
1.560286198210178
1020
8.628304022140952
1030
0.0
  0
MTEXT
  5
905
330
A
100
AcDbEntity
  8
HIKIDASI
100
AcDbMText
 10
312.7748503174982
 20
151.0823899371069
 30
0.0
 40
5.0
 41
0.0
 71
     7
 72
     1
  1
スリムセナージ･ドアI,II型\P（強化ガラス）
  7
SUNPOU
1001
ACAD
1000
MTEXTBEGIN
1070
    73
1070
     1
1070
    44
1040
1.0
1070
    74
1070
     0
1000
MTEXTEND
1000
MTEXTBEGIN
1070
    73
1070
     1
1070
    44
1040
1.0
1070
    74
1070
     0
1000
MTEXTEND
  0
LINE
  5
A37
330
A
100
AcDbEntity
  8
03
100
AcDbLine
 10
227.5809004230155
 20
105.0823899371069
 30
0.0
 11
227.5809004230155
 21
199.3323899371065
 31
0.0
  0
LINE
  5
A38
330
A
100
AcDbEntity
  8
03
100
AcDbLine
 10
229.0809004230155
 20
105.0823899371069
 30
0.0
 11
229.0809004230155
 21
198.5823899371068
 31
0.0
  0
LINE
  5
A39
330
A
100
AcDbEntity
  8
03
100
AcDbLine
 10
226.3309004230154
 20
209.0823899371069
 30
0.0
 11
226.3309004230155
 21
105.0823899371069
 31
0.0
  0
LINE
  5
A3A
330
A
100
AcDbEntity
  8
03
100
AcDbLine
 10
200.3309004230176
 20
209.0823899371069
 30
0.0
 11
200.3309004230175
 21
95.08238993710714
 31
0.0
  0
LINE
  5
A3B
330
A
100
AcDbEntity
  8
CHUSIN
100
AcDbLine
 10
242.3309004230155
 20
158.2903560661028
 30
0.0
 11
242.3309004230155
 21
84.98411521762159
 31
0.0
  0
LINE
  5
1011
330
A
100
AcDbEntity
  8
06
100
AcDbLine
 10
291.8309004230176
 20
339.0823764455428
 30
0.0
 11
266.8309004230175
 21
339.0823864554127
 31
0.0
  0
CIRCLE
  5
1028
330
A
100
AcDbEntity
  8
KAKURE
100
AcDbCircle
 10
252.5309135006589
 20
439.5828103873881
 30
0.0
 40
15.0
  0
DIMENSION
  5
1029
330
A
100
AcDbEntity
  8
SUNPOU
100
AcDbDimension
  2
*D25
 10
241.5735560827136
 20
429.3389674358683
 30
0.0
 11
249.6863206850973
 21
442.6798451818188
 31
0.0
 70
   163
  1
配線孔<>
  3
SUNPOU_2
100
AcDbDiametricDimension
 15
263.488270918604
 25
449.8266533389078
 35
0.0
 40
0.0
1001
ACAD
1000
DSTYLE
1002
{
1070
   288
1070
     1
1002
}
  0
TEXT
  5
102A
330
A
100
AcDbEntity
  8
SUNPOU
100
AcDbText
 10
247.6978729697973
 20
428.5589631933328
 30
0.0
 40
3.0
  1
（両端及び方立部）
 50
44.83352120439746
 41
0.7
  7
SUNPOU
 72
     1
 11
255.5411644875927
 21
436.356807649776
 31
0.0
100
AcDbText
 73
     1
  0
LINE
  5
15CC
330
A
100
AcDbEntity
  8
CHUSIN
100
AcDbLine
 10
311.3880105206671
 20
434.082628257147
 30
0.0
 11
215.3309344904418
 21
434.082768690252
 31
0.0
  0
LINE
  5
160D
330
A
100
AcDbEntity
  8
CHUSIN
100
AcDbLine
 10
215.5840061229723
 20
454.0822752926366
 30
0.0
 11
233.6797558040303
 21
454.0822752926366
 31
0.0
  0
LINE
  5
160E
330
A
100
AcDbEntity
  8
CHUSIN
100
AcDbLine
 10
215.5840061229723
 20
409.0822752926363
 30
0.0
 11
233.6797558040303
 21
409.0822752926363
 31
0.0
  0
LINE
  5
167B
330
A
100
AcDbEntity
  8
CHUSIN
100
AcDbLine
 10
275.8307621185275
 20
404.9756987683599
 30
0.0
 11
275.8309111968157
 21
355.1925303899963
 31
0.0
  0
LINE
  5
16CC
330
A
100
AcDbEntity
  8
CHUSIN
100
AcDbLine
 10
296.8309493120173
 20
471.4480423152655
 30
0.0
 11
296.8309493120175
 21
397.6996146423093
 31
0.0
  0
LINE
  5
16D7
330
A
100
AcDbEntity
  8
CHUSIN
100
AcDbLine
 10
260.5968591716895
 20
380.082321809448
 30
0.0
 11
312.0491125182891
 21
380.082321809448
 31
0.0
  0
LINE
  5
16D8
330
A
100
AcDbEntity
  8
CHUSIN
100
AcDbLine
 10
287.6012223927538
 20
404.082702061463
 30
0.0
 11
305.1475694157573
 21
404.0827193505397
 31
0.0
  0
LINE
  5
171C
330
A
100
AcDbEntity
  8
CHUSIN
100
AcDbLine
 10
289.1012236362172
 20
464.0827093441546
 30
0.0
 11
306.647569415703
 21
464.082709342739
 31
0.0
  0
LINE
  5
19B9
330
A
100
AcDbEntity
  8
KAKURE
100
AcDbLine
 10
219.3309004230175
 20
457.0822752926365
 30
0.0
 11
213.3309004230175
 21
457.0822752926365
 31
0.0
  0
LINE
  5
19BA
330
A
100
AcDbEntity
  8
02
100
AcDbLine
 10
219.3309004230175
 20
456.4322752926363
 30
0.0
 11
213.3309004230175
 21
456.4322752926363
 31
0.0
  0
LINE
  5
19BB
330
A
100
AcDbEntity
  8
KAKURE
100
AcDbLine
 10
219.3309004230175
 20
451.0822752926363
 30
0.0
 11
213.3309004230175
 21
451.0822752926363
 31
0.0
  0
LINE
  5
19BC
330
A
100
AcDbEntity
  8
02
100
AcDbLine
 10
219.3309004230175
 20
451.7322752926363
 30
0.0
 11
213.3309004230175
 21
451.7322752926363
 31
0.0
  0
LEADER
  5
19BD
330
A
100
AcDbEntity
  8
HIKIDASI
100
AcDbLeader
  3
SUNPOU_2
 73
     0
 74
     0
 75
     1
 40
5.0
 41
21.06666666666666
 76
     3
 10
213.3309014742385
 20
454.0822742404436
 30
0.0
 10
179.9458408174185
 20
473.5194172512426
 30
0.0
 10
174.9458408174185
 20
473.5194172512426
 30
0.0
211
-1.0
221
0.0
231
0.0
210
0.0
220
0.0
230
-1.0
1001
ACAD
1000
DSTYLE
1002
{
1070
     5
1000
OPEN30
1070
    77
1070
     1
1070
   147
1040
1.0
1070
   342
1005
5D9
1002
}
1000
LEANOF
1010
0.0
1020
0.0
1030
0.0
1000
LEANOF
1010
0.0
1020
0.0
1030
0.0
1000
LEANOF
1010
0.0
1020
0.0
1030
0.0
  0
MTEXT
  5
19BE
102
{ACAD_REACTORS
330
19BD
102
}
330
A
100
AcDbEntity
  8
HIKIDASI
100
AcDbMText
 10
154.2490189220748
 20
474.863148863772
 30
0.0
 40
4.999999999999999
 41
0.0
 71
     7
 72
     1
  1
M6タップ
  7
SUNPOU
1001
ACAD
1000
MTEXTBEGIN
1070
    73
1070
     1
1070
    44
1040
1.0
1070
    74
1070
     0
1000
MTEXTEND
1000
MTEXTBEGIN
1070
    73
1070
     1
1070
    44
1040
1.0
1070
    74
1070
     0
1000
MTEXTEND
  0
LEADER
  5
19BF
330
A
100
AcDbEntity
  8
HIKIDASI
100
AcDbLeader
  3
SUNPOU_2
 73
     0
 74
     0
 75
     1
 40
5.0
 41
21.06666666666666
 76
     3
 10
213.3309014742385
 20
409.0822742404439
 30
0.0
 10
179.7421681823453
 20
428.5194172512426
 30
0.0
 10
174.7421681823453
 20
428.5194172512426
 30
0.0
211
-1.0
221
0.0
231
0.0
210
0.0
220
0.0
230
-1.0
1001
ACAD
1000
DSTYLE
1002
{
1070
     5
1000
OPEN30
1070
    77
1070
     1
1070
   147
1040
1.0
1070
   342
1005
5D9
1002
}
1000
LEANOF
1010
0.0
1020
0.0
1030
0.0
1000
LEANOF
1010
0.0
1020
0.0
1030
0.0
1000
LEANOF
1010
0.0
1020
0.0
1030
0.0
  0
MTEXT
  5
19C0
102
{ACAD_REACTORS
330
19BF
102
}
330
A
100
AcDbEntity
  8
HIKIDASI
100
AcDbMText
 10
154.2490189220748
 20
429.8631488637719
 30
0.0
 40
4.999999999999999
 41
0.0
 71
     7
 72
     1
  1
M6タップ
  7
SUNPOU
1001
ACAD
1000
MTEXTBEGIN
1070
    73
1070
     1
1070
    44
1040
1.0
1070
    74
1070
     0
1000
MTEXTEND
1000
MTEXTBEGIN
1070
    73
1070
     1
1070
    44
1040
1.0
1070
    74
1070
     0
1000
MTEXTEND
  0
LINE
  5
19C1
330
A
100
AcDbEntity
  8
KAKURE
100
AcDbLine
 10
219.3309004230175
 20
412.0822752926365
 30
0.0
 11
213.3309004230175
 21
412.0822752926365
 31
0.0
  0
LINE
  5
19C2
330
A
100
AcDbEntity
  8
02
100
AcDbLine
 10
219.3309004230175
 20
411.4322752926366
 30
0.0
 11
213.3309004230175
 21
411.4322752926366
 31
0.0
  0
LINE
  5
19C3
330
A
100
AcDbEntity
  8
KAKURE
100
AcDbLine
 10
219.3309004230175
 20
406.0822752926362
 30
0.0
 11
213.3309004230175
 21
406.0822752926362
 31
0.0
  0
LINE
  5
19C4
330
A
100
AcDbEntity
  8
02
100
AcDbLine
 10
219.3309004230175
 20
406.7322752926363
 30
0.0
 11
213.3309004230175
 21
406.7322752926363
 31
0.0
  0
LINE
  5
1A3A
330
A
100
AcDbEntity
  8
06
100
AcDbLine
 10
271.3309004230178
 20
236.0823899371067
 30
0.0
 11
265.5809004230178
 21
236.0823899371065
 31
0.0
  0
LINE
  5
1A3B
330
A
100
AcDbEntity
  8
06
100
AcDbLine
 10
287.3309004230176
 20
236.0823899371069
 30
0.0
 11
293.0809004230176
 21
236.0823899371069
 31
0.0
  0
LINE
  5
1A3C
330
A
100
AcDbEntity
  8
06
100
AcDbLine
 10
271.3309004230178
 20
237.5823899371066
 30
0.0
 11
266.3309004230177
 21
237.5823899371066
 31
0.0
  0
LINE
  5
1A3D
330
A
100
AcDbEntity
  8
06
100
AcDbLine
 10
287.3309004230176
 20
237.5823899371068
 30
0.0
 11
292.3309004230178
 21
237.5823899371066
 31
0.0
  0
LINE
  5
1A51
330
A
100
AcDbEntity
  8
06
100
AcDbLine
 10
276.3309004230179
 20
261.3823899371069
 30
0.0
 11
282.3309004230178
 21
261.382389937107
 31
0.0
  0
ARC
  5
1A54
330
A
100
AcDbEntity
  8
06
100
AcDbCircle
 10
284.8309004230179
 20
229.0113221252414
 30
0.0
 40
7.5
100
AcDbArc
 50
70.52877936550858
 51
109.4712206344914
  0
ARC
  5
1A55
330
A
100
AcDbEntity
  8
06
100
AcDbCircle
 10
273.8309004230178
 20
229.0113221252414
 30
0.0
 40
7.5
100
AcDbArc
 50
70.52877936550858
 51
109.4712206344914
  0
ARC
  5
1A56
330
A
100
AcDbEntity
  8
06
100
AcDbCircle
 10
265.5809004230178
 20
236.8323899371067
 30
0.0
 40
0.75
100
AcDbArc
 50
180.0
 51
270.0000000000016
  0
ARC
  5
1A57
330
A
100
AcDbEntity
  8
06
100
AcDbCircle
 10
293.0809004230179
 20
236.8323899371068
 30
0.0
 40
0.75
100
AcDbArc
 50
270.0
 51
0.0
  0
LINE
  5
1A59
330
A
100
AcDbEntity
  8
03
100
AcDbLine
 10
234.3309004230155
 20
236.0823899371069
 30
0.0
 11
228.5809004230155
 21
236.0823899371067
 31
0.0
  0
LINE
  5
1A5A
330
A
100
AcDbEntity
  8
03
100
AcDbLine
 10
250.3309004230156
 20
236.082389937107
 30
0.0
 11
256.0809004230155
 21
236.082389937107
 31
0.0
  0
LINE
  5
1A5B
330
A
100
AcDbEntity
  8
03
100
AcDbLine
 10
234.3309004230155
 20
237.5823899371068
 30
0.0
 11
229.3309004230156
 21
237.5823899371068
 31
0.0
  0
LINE
  5
1A5C
330
A
100
AcDbEntity
  8
03
100
AcDbLine
 10
250.3309004230156
 20
237.582389937107
 30
0.0
 11
255.3309004230155
 21
237.5823899371068
 31
0.0
  0
LINE
  5
1A70
330
A
100
AcDbEntity
  8
03
100
AcDbLine
 10
239.3309004230156
 20
261.382389937107
 30
0.0
 11
245.3309004230156
 21
261.382389937107
 31
0.0
  0
ARC
  5
1A73
330
A
100
AcDbEntity
  8
03
100
AcDbCircle
 10
247.8309004230156
 20
229.0113221252415
 30
0.0
 40
7.5
100
AcDbArc
 50
70.52877936550858
 51
109.4712206344914
  0
ARC
  5
1A74
330
A
100
AcDbEntity
  8
03
100
AcDbCircle
 10
236.8309004230156
 20
229.0113221252415
 30
0.0
 40
7.5
100
AcDbArc
 50
70.52877936550858
 51
109.4712206344914
  0
ARC
  5
1A75
330
A
100
AcDbEntity
  8
03
100
AcDbCircle
 10
228.5809004230156
 20
236.8323899371068
 30
0.0
 40
0.75
100
AcDbArc
 50
180.0
 51
270.0000000000016
  0
ARC
  5
1A76
330
A
100
AcDbEntity
  8
03
100
AcDbCircle
 10
256.0809004230155
 20
236.832389937107
 30
0.0
 40
0.75
100
AcDbArc
 50
270.0
 51
0.0
  0
LINE
  5
1A7D
330
A
100
AcDbEntity
  8
06
100
AcDbLine
 10
266.3309004230179
 20
237.5823899371068
 30
0.0
 11
266.3309004230179
 21
331.082389937107
 31
0.0
  0
LINE
  5
1A7E
330
A
100
AcDbEntity
  8
06
100
AcDbLine
 10
292.3309004230178
 20
331.082389937107
 30
0.0
 11
292.3309004230178
 21
237.5823899371068
 31
0.0
  0
LINE
  5
1A85
330
A
100
AcDbEntity
  8
03
100
AcDbLine
 10
229.3309004230156
 20
237.582389937107
 30
0.0
 11
229.3309004230156
 21
321.0823899371071
 31
0.0
  0
LINE
  5
1A86
330
A
100
AcDbEntity
  8
03
100
AcDbLine
 10
255.3309004230156
 20
321.0823899371071
 30
0.0
 11
255.3309004230156
 21
237.582389937107
 31
0.0
  0
LINE
  5
1AB0
330
A
100
AcDbEntity
  8
06
100
AcDbLine
 10
276.3309004230178
 20
174.7823899371072
 30
0.0
 11
282.3309004230178
 21
174.7823899371072
 31
0.0
  0
ARC
  5
1ABB
330
A
100
AcDbEntity
  8
06
100
AcDbCircle
 10
284.8309004230177
 20
207.1534577489723
 30
0.0
 40
7.5
100
AcDbArc
 50
250.5287793655085
 51
289.4712206344913
  0
ARC
  5
1ABC
330
A
100
AcDbEntity
  8
06
100
AcDbCircle
 10
273.8309004230178
 20
207.1534577489723
 30
0.0
 40
7.5
100
AcDbArc
 50
250.5287793655085
 51
289.4712206344913
  0
LINE
  5
1AE6
330
A
100
AcDbEntity
  8
03
100
AcDbLine
 10
239.3309004230153
 20
174.7823899371072
 30
0.0
 11
245.3309004230153
 21
174.7823899371072
 31
0.0
  0
ARC
  5
1AF1
330
A
100
AcDbEntity
  8
03
100
AcDbCircle
 10
247.8309004230153
 20
207.1534577489723
 30
0.0
 40
7.5
100
AcDbArc
 50
250.5287793655085
 51
289.4712206344913
  0
ARC
  5
1AF2
330
A
100
AcDbEntity
  8
03
100
AcDbCircle
 10
236.8309004230153
 20
207.1534577489723
 30
0.0
 40
7.5
100
AcDbArc
 50
250.5287793655085
 51
289.4712206344913
  0
LINE
  5
1BAA
330
A
100
AcDbEntity
  8
06
100
AcDbLine
 10
287.3309004230176
 20
264.5823899371068
 30
0.0
 11
271.3309004230178
 21
264.5823899371068
 31
0.0
  0
LINE
  5
1BAB
330
A
100
AcDbEntity
  8
06
100
AcDbLine
 10
271.3309004230178
 20
264.5823899371068
 30
0.0
 11
271.3309004230178
 21
236.0823899371068
 31
0.0
  0
LINE
  5
1BAC
330
A
100
AcDbEntity
  8
06
100
AcDbLine
 10
287.3309004230176
 20
236.0823899371069
 30
0.0
 11
287.3309004230176
 21
264.5823899371068
 31
0.0
  0
LINE
  5
1BAD
330
A
100
AcDbEntity
  8
06
100
AcDbLine
 10
287.3309004230183
 20
171.5823899371069
 30
0.0
 11
287.3309004230181
 21
200.0823899371068
 31
0.0
  0
LINE
  5
1BAE
330
A
100
AcDbEntity
  8
06
100
AcDbLine
 10
271.3309004230182
 20
200.0823899371068
 30
0.0
 11
271.3309004230182
 21
171.582389937107
 31
0.0
  0
LINE
  5
1BAF
330
A
100
AcDbEntity
  8
06
100
AcDbLine
 10
271.3309004230182
 20
171.582389937107
 30
0.0
 11
287.3309004230183
 21
171.5823899371069
 31
0.0
  0
LINE
  5
1BB0
330
A
100
AcDbEntity
  8
03
100
AcDbLine
 10
234.3309004230155
 20
264.582389937107
 30
0.0
 11
234.3309004230155
 21
236.082389937107
 31
0.0
  0
LINE
  5
1BB1
330
A
100
AcDbEntity
  8
03
100
AcDbLine
 10
250.3309004230156
 20
236.082389937107
 30
0.0
 11
250.3309004230154
 21
264.582389937107
 31
0.0
  0
LINE
  5
1BB3
330
A
100
AcDbEntity
  8
03
100
AcDbLine
 10
234.330900423015
 20
200.082389937107
 30
0.0
 11
234.3309004230158
 21
171.582389937107
 31
0.0
  0
LINE
  5
1BB4
330
A
100
AcDbEntity
  8
03
100
AcDbLine
 10
234.3309004230158
 20
171.582389937107
 30
0.0
 11
250.3309004230156
 21
171.582389937107
 31
0.0
  0
LINE
  5
1BB5
330
A
100
AcDbEntity
  8
03
100
AcDbLine
 10
250.3309004230156
 20
171.582389937107
 30
0.0
 11
250.3309004230154
 21
200.082389937107
 31
0.0
  0
LINE
  5
1BEB
330
A
100
AcDbEntity
  8
03
100
AcDbLine
 10
250.3309004230156
 20
264.582389937107
 30
0.0
 11
234.3309004230155
 21
264.582389937107
 31
0.0
  0
LEADER
  5
2087
330
A
100
AcDbEntity
  8
HIKIDASI
100
AcDbLeader
  3
SUNPOU_2
 73
     0
 75
     1
 40
21.66666666666666
 41
37.06666666666665
 76
     3
 10
209.0882597358983
 20
223.3250306242261
 30
0.0
 10
135.6398113479203
 20
268.6172634185338
 30
0.0
 10
130.6398113479203
 20
268.6172634185338
 30
0.0
1001
ACAD
1000
DSTYLE
1002
{
1070
     5
1000
OPEN30
1070
    77
1070
     1
1070
   147
1040
1.0
1070
   342
1005
5D9
1002
}
1000
LEANOF
1010
0.0
1020
0.0
1030
0.0
1000
LEANOF
1010
0.0
1020
0.0
1030
0.0
1000
LEANOF
1010
0.0
1020
0.0
1030
0.0
  0
MTEXT
  5
2088
102
{ACAD_REACTORS
330
2087
102
}
330
A
100
AcDbEntity
  8
HIKIDASI
100
AcDbMText
 10
131.5932819048829
 20
254.0255253206089
 30
0.0
 40
5.0
 41
0.0
 71
     9
 72
     1
  1
補助光電スイッチ\P取付穴φ12\P（サッシ工事）
  7
SUNPOU
1001
ACAD
1000
MTEXTBEGIN
1070
    73
1070
     1
1070
    44
1040
1.0
1070
    74
1070
     0
1000
MTEXTEND
1000
MTEXTBEGIN
1070
    73
1070
     1
1070
    44
1040
1.0
1070
    74
1070
     0
1000
MTEXTEND
  0
LINE
  5
2089
330
A
100
AcDbEntity
  8
SAISEN
100
AcDbLine
 10
194.1836768951857
 20
228.0823899371068
 30
0.0
 11
325.8394883502317
 21
228.0823899371068
 31
0.0
  0
LINE
  5
208A
330
A
100
AcDbEntity
  8
03
100
AcDbLine
 10
200.3309004230175
 20
228.0823899371068
 30
0.0
 11
200.3309004230175
 21
212.082389937107
 31
0.0
  0
LINE
  5
208B
330
A
100
AcDbEntity
  8
03
100
AcDbLine
 10
226.3309004230155
 20
228.0823899371068
 30
0.0
 11
226.3309004230155
 21
212.082389937107
 31
0.0
  0
LINE
  5
208C
330
A
100
AcDbEntity
  8
SAISEN
100
AcDbLine
 10
325.8394883502317
 20
212.082389937107
 30
0.0
 11
194.1836768951857
 21
212.082389937107
 31
0.0
  0
CIRCLE
  5
208D
330
A
100
AcDbEntity
  8
03
100
AcDbCircle
 10
213.3309004230175
 20
219.0823899371068
 30
0.0
 40
6.0
  0
LINE
  5
208E
330
A
100
AcDbEntity
  8
CHUSIN
100
AcDbLine
 10
197.3309004230175
 20
219.0823899371068
 30
0.0
 11
229.3309004230175
 21
219.0823899371068
 31
0.0
  0
LINE
  5
208F
330
A
100
AcDbEntity
  8
06
100
AcDbLine
 10
295.3309004230177
 20
228.0823899371068
 30
0.0
 11
295.3309004230177
 21
212.082389937107
 31
0.0
  0
LINE
  5
2090
330
A
100
AcDbEntity
  8
06
100
AcDbLine
 10
281.830900423018
 20
212.0823899371068
 30
0.0
 11
281.830900423018
 21
228.0823899371068
 31
0.0
  0
LINE
  5
2091
330
A
100
AcDbEntity
  8
06
100
AcDbLine
 10
282.3309004230178
 20
228.0823899371068
 30
0.0
 11
282.3309004230178
 21
212.0823899371068
 31
0.0
  0
LINE
  5
2092
330
A
100
AcDbEntity
  8
06
100
AcDbLine
 10
276.3309004230178
 20
212.0823899371068
 30
0.0
 11
276.3309004230178
 21
228.0823899371068
 31
0.0
  0
LINE
  5
2093
330
A
100
AcDbEntity
  8
06
100
AcDbLine
 10
276.830900423018
 20
228.0823899371068
 30
0.0
 11
276.830900423018
 21
212.0823899371068
 31
0.0
  0
LINE
  5
2094
330
A
100
AcDbEntity
  8
03
100
AcDbLine
 10
258.3309004230155
 20
228.0823899371068
 30
0.0
 11
258.3309004230155
 21
212.082389937107
 31
0.0
  0
LINE
  5
2095
330
A
100
AcDbEntity
  8
06
100
AcDbLine
 10
263.3309004230154
 20
228.0823899371068
 30
0.0
 11
263.3309004230154
 21
212.082389937107
 31
0.0
  0
LINE
  5
2096
330
A
100
AcDbEntity
  8
03
100
AcDbLine
 10
320.3309004230177
 20
228.0823899371068
 30
0.0
 11
320.3309004230177
 21
212.082389937107
 31
0.0
  0
LINE
  5
20A9
330
A
100
AcDbEntity
  8
03
100
AcDbLine
 10
245.3308979022434
 20
228.0823899371068
 30
0.0
 11
245.3308979022434
 21
212.082389937107
 31
0.0
  0
LINE
  5
20AA
330
A
100
AcDbEntity
  8
03
100
AcDbLine
 10
244.8308979022435
 20
212.082389937107
 30
0.0
 11
244.8308979022435
 21
228.0823899371068
 31
0.0
  0
LINE
  5
20AB
330
A
100
AcDbEntity
  8
03
100
AcDbLine
 10
239.8308979022437
 20
228.0823899371068
 30
0.0
 11
239.8308979022437
 21
212.082389937107
 31
0.0
  0
LINE
  5
20AC
330
A
100
AcDbEntity
  8
03
100
AcDbLine
 10
239.3308979022434
 20
212.082389937107
 30
0.0
 11
239.3308979022434
 21
228.0823899371068
 31
0.0
  0
MTEXT
  5
20B0
330
A
100
AcDbEntity
  8
HIKIDASI
  6
CENTER2
100
AcDbMText
 10
292.4874704410663
 20
135.3743186582809
 30
0.0
 40
5.0
 41
0.0
 71
     7
 72
     1
  1
\A1;
  7
SUNPOU
1001
ACAD
1000
MTEXTBEGIN
1070
    73
1070
     1
1070
    44
1040
1.0
1070
    74
1070
     0
1000
MTEXTEND
1000
MTEXTBEGIN
1070
    73
1070
     1
1070
    44
1040
1.0
1070
    74
1070
     0
1000
MTEXTEND
  0
LEADER
  5
20B1
330
A
100
AcDbEntity
  8
HIKIDASI
100
AcDbLeader
  3
SUNPOU_2
 76
     2
 10
297.6285501538281
 20
98.08238993710729
 30
0.0
 10
310.4988012017541
 20
123.3743186582809
 30
0.0
1001
ACAD
1000
DSTYLE
1002
{
1070
     5
1000
OPEN30
1070
    77
1070
     1
1070
   147
1040
1.0
1070
   342
1005
5D9
1002
}
1000
LEANOF
1010
0.0
1020
0.0
1030
0.0
1000
LEANOF
1010
0.0
1020
0.0
1030
0.0
1000
LEANOF
1010
0.0
1020
0.0
1030
0.0
  0
LINE
  5
2181
330
A
100
AcDbEntity
  8
KAKURE
100
AcDbLine
 10
218.3309004230177
 20
577.5823899371069
 30
0.0
 11
302.3309004230176
 21
577.5823899371069
 31
0.0
  0
LINE
  5
2182
330
A
100
AcDbEntity
  8
KAKURE
100
AcDbLine
 10
312.3309004230176
 20
575.9823899371069
 30
0.0
 11
312.3309004230176
 21
577.5823899371069
 31
0.0
  0
LINE
  5
2183
330
A
100
AcDbEntity
  8
KAKURE
100
AcDbLine
 10
208.3309004230175
 20
575.9823899371069
 30
0.0
 11
208.3309004230175
 21
577.5823899371069
 31
0.0
  0
LINE
  5
2184
330
A
100
AcDbEntity
  8
KAKURE
100
AcDbLine
 10
208.3309004230175
 20
575.9823899371069
 30
0.0
 11
312.3309004230176
 21
575.9823899371069
 31
0.0
  0
LINE
  5
2185
330
A
100
AcDbEntity
  8
CHUSIN
100
AcDbLine
 10
234.3309004230175
 20
570.3999999999997
 30
0.0
 11
234.3309004230175
 21
539.0823899371069
 31
0.0
  0
ARC
  5
2186
330
A
100
AcDbEntity
  8
03
100
AcDbCircle
 10
240.7059004230175
 20
537.5667755375189
 30
0.0
 40
12.0
100
AcDbArc
 50
73.66517721931362
 51
106.3348227806862
  0
ARC
  5
2187
330
A
100
AcDbEntity
  8
03
100
AcDbCircle
 10
227.9559004230175
 20
537.5667755375189
 30
0.0
 40
12.0
100
AcDbArc
 50
73.66517721931362
 51
106.3348227806862
  0
LINE
  5
2188
330
A
100
AcDbEntity
  8
03
100
AcDbLine
 10
236.3309004230175
 20
555.0823899371066
 30
0.0
 11
236.3309004230175
 21
539.0823899371069
 31
0.0
  0
LINE
  5
2189
330
A
100
AcDbEntity
  8
03
100
AcDbLine
 10
232.3309004230175
 20
555.0823899371066
 30
0.0
 11
232.3309004230175
 21
539.0823899371069
 31
0.0
  0
LINE
  5
218A
330
A
100
AcDbEntity
  8
03
100
AcDbLine
 10
231.3309004230175
 20
555.0823899371066
 30
0.0
 11
237.3309004230175
 21
555.0823899371066
 31
0.0
  0
LINE
  5
218B
330
A
100
AcDbEntity
  8
03
100
AcDbLine
 10
237.3309004230175
 20
555.0823899371066
 30
0.0
 11
237.3309004230175
 21
539.0823899371069
 31
0.0
  0
LINE
  5
218C
330
A
100
AcDbEntity
  8
03
100
AcDbLine
 10
231.3309004230175
 20
555.0823899371066
 30
0.0
 11
231.3309004230175
 21
539.0823899371069
 31
0.0
  0
LINE
  5
218D
330
A
100
AcDbEntity
  8
SAISEN
100
AcDbLine
 10
194.1836768951857
 20
539.0823899371069
 30
0.0
 11
325.8394883502317
 21
539.0823899371069
 31
0.0
  0
ARC
  5
218E
330
A
100
AcDbEntity
  8
03
100
AcDbCircle
 10
224.5809004230175
 20
564.8323899371067
 30
0.0
 40
0.75
100
AcDbArc
 50
90.0
 51
180.0
  0
ARC
  5
218F
330
A
100
AcDbEntity
  8
03
100
AcDbCircle
 10
244.0809004230178
 20
564.8323899371067
 30
0.0
 40
0.75
100
AcDbArc
 50
0.0
 51
90.0
  0
LINE
  5
2190
330
A
100
AcDbEntity
  8
03
100
AcDbLine
 10
224.5809004230177
 20
565.5823899371068
 30
0.0
 11
244.0809004230178
 21
565.5823899371068
 31
0.0
  0
LINE
  5
2191
330
A
100
AcDbEntity
  8
03
100
AcDbLine
 10
225.3309004230175
 20
564.0823899371069
 30
0.0
 11
243.3309004230177
 21
564.0823899371069
 31
0.0
  0
LINE
  5
2192
330
A
100
AcDbEntity
  8
03
100
AcDbLine
 10
302.3309004230176
 20
579.0823899371067
 30
0.0
 11
302.3309004230176
 21
577.5823899371069
 31
0.0
  0
LINE
  5
2193
330
A
100
AcDbEntity
  8
03
100
AcDbLine
 10
218.3309004230177
 20
579.0823899371067
 30
0.0
 11
218.3309004230177
 21
577.5823899371069
 31
0.0
  0
LINE
  5
2194
330
A
100
AcDbEntity
  8
03
100
AcDbLine
 10
244.8309004230178
 20
564.8323899371067
 30
0.0
 11
244.8309004230178
 21
550.5823899371066
 31
0.0
  0
LINE
  5
2195
330
A
100
AcDbEntity
  8
03
100
AcDbLine
 10
223.8309004230174
 20
564.8323899371067
 30
0.0
 11
223.8309004230175
 21
550.5823899371066
 31
0.0
  0
ARC
  5
2196
330
A
100
AcDbEntity
  8
03
100
AcDbCircle
 10
244.0809004230178
 20
549.8323899371069
 30
0.0
 40
0.75
100
AcDbArc
 50
180.0
 51
270.0
  0
LINE
  5
2197
330
A
100
AcDbEntity
  8
03
100
AcDbLine
 10
243.3309004230177
 20
564.0823899371069
 30
0.0
 11
243.3309004230177
 21
549.8323899371069
 31
0.0
  0
ARC
  5
2198
330
A
100
AcDbEntity
  8
03
100
AcDbCircle
 10
224.5809004230177
 20
549.8323899371069
 30
0.0
 40
0.75
100
AcDbArc
 50
270.0
 51
0.0
  0
LINE
  5
2199
330
A
100
AcDbEntity
  8
03
100
AcDbLine
 10
225.3309004230175
 20
564.0823899371069
 30
0.0
 11
225.3309004230175
 21
549.8323899371069
 31
0.0
  0
LINE
  5
219A
330
A
100
AcDbEntity
  8
03
100
AcDbLine
 10
204.8309004230175
 20
577.5823899371069
 30
0.0
 11
204.8309004230179
 21
550.5823899371066
 31
0.0
  0
LINE
  5
219B
330
A
100
AcDbEntity
  8
03
100
AcDbLine
 10
302.3309004230176
 20
577.5823899371069
 30
0.0
 11
315.8309004230176
 21
577.5823899371069
 31
0.0
  0
LINE
  5
219C
330
A
100
AcDbEntity
  8
03
100
AcDbLine
 10
204.8309004230175
 20
577.5823899371069
 30
0.0
 11
218.3309004230177
 21
577.5823899371069
 31
0.0
  0
LINE
  5
219D
330
A
100
AcDbEntity
  8
03
100
AcDbLine
 10
315.8309004230176
 20
577.5823899371069
 30
0.0
 11
315.8309004230178
 21
550.5823899371066
 31
0.0
  0
LINE
  5
219E
330
A
100
AcDbEntity
  8
03
100
AcDbLine
 10
244.8309004230178
 20
550.5823899371066
 30
0.0
 11
315.8309004230176
 21
550.5823899371066
 31
0.0
  0
LINE
  5
219F
330
A
100
AcDbEntity
  8
03
100
AcDbLine
 10
204.8309004230179
 20
550.5823899371066
 30
0.0
 11
223.8309004230175
 21
550.5823899371066
 31
0.0
  0
ARC
  5
21A0
330
A
100
AcDbEntity
  8
03
100
AcDbCircle
 10
316.5809004230176
 20
578.332389937107
 30
0.0
 40
0.75
100
AcDbArc
 50
0.0
 51
90.0
  0
LINE
  5
21A1
330
A
100
AcDbEntity
  8
03
100
AcDbLine
 10
302.3309004230176
 20
579.0823899371067
 30
0.0
 11
320.3309004230177
 21
579.0823899371067
 31
0.0
  0
ARC
  5
21A2
330
A
100
AcDbEntity
  8
03
100
AcDbCircle
 10
204.0809004230175
 20
578.3323899371067
 30
0.0
 40
0.75
100
AcDbArc
 50
90.0
 51
180.0
  0
LINE
  5
21A3
330
A
100
AcDbEntity
  8
03
100
AcDbLine
 10
200.3309004230175
 20
579.0823899371067
 30
0.0
 11
218.3309004230177
 21
579.0823899371067
 31
0.0
  0
ARC
  5
21A4
330
A
100
AcDbEntity
  8
03
100
AcDbCircle
 10
316.5809004230176
 20
549.8323899371069
 30
0.0
 40
0.75
100
AcDbArc
 50
270.0
 51
0.0
  0
LINE
  5
21A5
330
A
100
AcDbEntity
  8
03
100
AcDbLine
 10
244.0809004230178
 20
549.0823899371068
 30
0.0
 11
316.5809004230176
 21
549.0823899371068
 31
0.0
  0
ARC
  5
21A6
330
A
100
AcDbEntity
  8
03
100
AcDbCircle
 10
204.0809004230175
 20
549.8323899371069
 30
0.0
 40
0.75
100
AcDbArc
 50
180.0
 51
270.0
  0
LINE
  5
21A7
330
A
100
AcDbEntity
  8
03
100
AcDbLine
 10
204.0809004230175
 20
549.0823899371068
 30
0.0
 11
224.5809004230177
 21
549.0823899371068
 31
0.0
  0
LINE
  5
21A8
330
A
100
AcDbEntity
  8
03
100
AcDbLine
 10
317.3309004230178
 20
578.332389937107
 30
0.0
 11
317.3309004230176
 21
549.8323899371069
 31
0.0
  0
LINE
  5
21A9
330
A
100
AcDbEntity
  8
03
100
AcDbLine
 10
203.3309004230178
 20
578.3323899371067
 30
0.0
 11
203.3309004230178
 21
549.8323899371069
 31
0.0
  0
LINE
  5
21AA
330
A
100
AcDbEntity
  8
03
100
AcDbLine
 10
320.3309004230177
 20
579.0823899371071
 30
0.0
 11
320.3309004230177
 21
539.0823899371069
 31
0.0
  0
LINE
  5
21AB
330
A
100
AcDbEntity
  8
03
100
AcDbLine
 10
200.3309004230175
 20
579.0823899371067
 30
0.0
 11
200.3309004230175
 21
539.0823899371069
 31
0.0
  0
LINE
  5
21AC
330
A
100
AcDbEntity
  8
SAISEN
100
AcDbLine
 10
194.1836768951857
 20
534.0823899371066
 30
0.0
 11
325.8394883502317
 21
534.0823899371066
 31
0.0
  0
DIMENSION
  5
22F9
330
A
100
AcDbEntity
  8
SUNPOU
100
AcDbDimension
  2
*D26
 10
180.3309004230175
 20
321.0823899371068
 30
0.0
 11
175.8309004230175
 21
278.5823899371068
 31
0.0
 70
    32
  3
SUNPOU_2
100
AcDbAlignedDimension
 13
228.5809004230156
 23
236.0823899371067
 33
0.0
 14
226.3309004230155
 24
321.0823899371068
 34
0.0
 50
90.0
100
AcDbRotatedDimension
  0
DIMENSION
  5
2325
330
A
100
AcDbEntity
  8
SUNPOU
100
AcDbDimension
  2
*D27
 10
360.3309004230176
 20
200.082389937107
 30
0.0
 11
355.6771205923473
 21
142.2718607598589
 31
0.0
 70
   160
  3
SUNPOU_2
100
AcDbAlignedDimension
 13
295.3309004230177
 23
105.082389937107
 33
0.0
 14
293.3309004230176
 24
200.082389937107
 34
0.0
 50
90.0
100
AcDbRotatedDimension
  0
DIMENSION
  5
2332
330
A
100
AcDbEntity
  8
SUNPOU
100
AcDbDimension
  2
*D28
 10
360.3309004230176
 20
331.082389937107
 30
0.0
 11
355.8309004230177
 21
283.5823899371068
 31
0.0
 70
    32
  3
SUNPOU_2
100
AcDbAlignedDimension
 13
293.0809004230176
 23
236.0823899371069
 33
0.0
 14
295.3309004230177
 24
331.082389937107
 34
0.0
 50
90.0
100
AcDbRotatedDimension
  0
DIMENSION
  5
241B
330
A
100
AcDbEntity
  8
SUNPOU
100
AcDbDimension
  2
*D30
 10
380.3309004230176
 20
95.08238993710724
 30
0.0
 11
375.7013268818613
 21
90.56015275833237
 31
0.0
 70
   160
  3
SUNPOU_2
100
AcDbAlignedDimension
 13
380.3309004230176
 23
98.08238993710729
 33
0.0
 14
309.3309004230178
 24
95.08238993710728
 34
0.0
 50
90.0
100
AcDbRotatedDimension
1001
ACAD
1000
DSTYLE
1002
{
1070
     7
1000
OPEN30
1070
     5
1000

1070
   173
1070
     1
1070
     6
1000
OPEN30
1002
}
  0
DIMENSION
  5
2594
330
A
100
AcDbEntity
  8
SUNPOU
100
AcDbDimension
  2
*D31
 10
180.3309004230175
 20
200.0823899371068
 30
0.0
 11
175.8309004230175
 21
152.5823899371069
 31
0.0
 70
    32
  3
SUNPOU_2
100
AcDbAlignedDimension
 13
226.3309004230155
 23
105.0823899371069
 33
0.0
 14
228.3309004230155
 24
200.0823899371068
 34
0.0
 50
90.0
100
AcDbRotatedDimension
  0
CIRCLE
  5
25FB
330
A
100
AcDbEntity
  8
SAISEN
100
AcDbCircle
 10
392.0976380784291
 20
49.5430264122316
 30
0.0
 40
5.0
  0
TEXT
  5
25FC
330
A
100
AcDbEntity
  8
MOJI
100
AcDbText
 10
389.048819039213
 20
45.27151320611588
 30
0.0
 40
8.0
  1
Ｓ
 41
0.8
  7
0_8
 11
389.048819039213
 21
53.27151320611588
 31
0.0
100
AcDbText
 73
     3
  0
LINE
  5
2773
330
A
100
AcDbEntity
  8
03
100
AcDbLine
 10
320.3309004230177
 20
147.8670235344333
 30
0.0
 11
320.3309004230177
 21
131.7713653003822
 31
0.0
  0
LINE
  5
283B
330
A
100
AcDbEntity
  8
03
100
AcDbLine
 10
244.0809004230175
 20
504.5823899371066
 30
0.0
 11
204.8309004230175
 21
504.5823899371066
 31
0.0
  0
LINE
  5
283C
330
A
100
AcDbEntity
  8
03
100
AcDbLine
 10
292.8309004230176
 20
522.5823899371069
 30
0.0
 11
292.8309004230176
 21
507.3323899371067
 31
0.0
  0
LINE
  5
283E
330
A
100
AcDbEntity
  8
03
100
AcDbLine
 10
291.2309004230177
 20
522.5823899371069
 30
0.0
 11
292.8309004230176
 21
522.5823899371069
 31
0.0
  0
LINE
  5
283F
330
A
100
AcDbEntity
  8
03
100
AcDbLine
 10
255.2309004230178
 20
325.5823899371069
 30
0.0
 11
256.8309004230178
 21
325.5823899371069
 31
0.0
  0
LINE
  5
2C0A
330
A
100
AcDbEntity
  8
SOUZOU
100
AcDbLine
 10
282.8310379270023
 20
364.5015527860388
 30
0.0
 11
282.8309945461072
 21
392.263094250958
 31
0.0
  0
LINE
  5
2C0B
330
A
100
AcDbEntity
  8
SOUZOU
100
AcDbLine
 10
283.3675888161396
 20
361.7691513299128
 30
0.0
 11
283.367536950759
 21
394.995518620742
 31
0.0
  0
LINE
  5
2C0C
330
A
100
AcDbEntity
  8
SOUZOU
100
AcDbLine
 10
268.8308352940711
 20
364.5015418590253
 30
0.0
 11
268.8308352940711
 21
392.2630833239783
 31
0.0
  0
LINE
  5
2C0D
330
A
100
AcDbEntity
  8
SOUZOU
100
AcDbLine
 10
268.2942886246585
 20
361.7691395653575
 30
0.0
 11
268.2942886246585
 21
394.9955068562271
 31
0.0
  0
LINE
  5
2C0E
330
A
100
AcDbEntity
  8
SOUZOU
100
AcDbLine
 10
287.3309589746972
 20
393.6321924937761
 30
0.0
 11
287.3308939414886
 21
363.1323196893653
 31
0.0
  0
LINE
  5
2C0F
330
A
100
AcDbEntity
  8
SOUZOU
100
AcDbLine
 10
264.3309504215681
 20
363.1323447781535
 30
0.0
 11
264.3309504214621
 21
393.6322356390587
 31
0.0
  0
ARC
  5
2C18
330
A
100
AcDbEntity
  8
SOUZOU
100
AcDbCircle
 10
275.8308587908225
 20
330.3823325254023
 30
0.0
 40
35.0
100
AcDbArc
 50
79.02686695919202
 51
100.9731028972711
  0
LINE
  5
2C22
330
A
100
AcDbEntity
  8
SOUZOU
100
AcDbLine
 10
265.8309504215683
 20
361.6323447781589
 30
0.0
 11
268.0425676961705
 21
361.6323447782038
 31
0.0
  0
ARC
  5
2C25
330
A
100
AcDbEntity
  8
SOUZOU
100
AcDbCircle
 10
265.8309504215683
 20
363.1323447781588
 30
0.0
 40
1.5
100
AcDbArc
 50
180.0000000001985
 51
270.0
  0
LINE
  5
2C2E
330
A
100
AcDbEntity
  8
SOUZOU
100
AcDbLine
 10
268.771444741368
 20
364.3383710956527
 30
0.0
 11
268.3380024114416
 21
361.8802524405583
 31
0.0
  0
ARC
  5
2C30
330
A
100
AcDbEntity
  8
SOUZOU
100
AcDbCircle
 10
268.0425676961669
 20
361.9323467164243
 30
0.0
 40
0.3
100
AcDbArc
 50
270.0000000006953
 51
349.9997809654605
  0
ARC
  5
2C32
330
A
100
AcDbEntity
  8
SOUZOU
100
AcDbCircle
 10
269.2638497338264
 20
364.2515448691171
 30
0.0
 40
0.5
100
AcDbArc
 50
100.9731028972733
 51
169.9997809654638
  0
LINE
  5
2C36
330
A
100
AcDbEntity
  8
SOUZOU
100
AcDbLine
 10
282.8902738771393
 20
364.3383601191898
 30
0.0
 11
283.3237270080077
 21
361.8802274724711
 31
0.0
  0
ARC
  5
2C37
330
A
100
AcDbEntity
  8
SOUZOU
100
AcDbCircle
 10
282.3978808446323
 20
364.2515479081942
 30
0.0
 40
0.5
100
AcDbArc
 50
10.0000000000018
 51
79.02686695919202
  0
ARC
  5
2C48
330
A
100
AcDbEntity
  8
SOUZOU
100
AcDbCircle
 10
285.8308939414443
 20
363.132322818487
 30
0.0
 40
1.5
100
AcDbArc
 50
270.0
 51
359.9998804763566
  0
LINE
  5
2C4A
330
A
100
AcDbEntity
  8
SOUZOU
100
AcDbLine
 10
285.8308939414476
 20
361.632322818487
 30
0.0
 11
283.6191680522497
 21
361.6323021075871
 31
0.0
  0
ARC
  5
2C4B
330
A
100
AcDbEntity
  8
SOUZOU
100
AcDbCircle
 10
283.6191658963263
 20
361.9323127064145
 30
0.0
 40
0.3
100
AcDbArc
 50
189.9999928137455
 51
270.0002529843507
  0
ARC
  5
2C70
330
A
100
AcDbEntity
  8
SOUZOU
100
AcDbCircle
 10
275.8309508786349
 20
426.3822243147425
 30
0.0
 40
35.0
100
AcDbArc
 50
259.026799169081
 51
281.5369261517157
  0
LINE
  5
2C72
330
A
100
AcDbEntity
  8
SOUZOU
100
AcDbLine
 10
265.8309504214619
 20
395.1322356390639
 30
0.0
 11
268.042609245992
 21
395.1322356390639
 31
0.0
  0
ARC
  5
2C73
330
A
100
AcDbEntity
  8
SOUZOU
100
AcDbCircle
 10
265.8309504214619
 20
393.6322356390638
 30
0.0
 40
1.5
100
AcDbArc
 50
90.0
 51
180.0000000001985
  0
ARC
  5
2C74
330
A
100
AcDbEntity
  8
SOUZOU
100
AcDbCircle
 10
268.042609245992
 20
394.8322356390637
 30
0.0
 40
0.3
100
AcDbArc
 50
9.999850835436062
 51
90.0
  0
LINE
  5
2C75
330
A
100
AcDbEntity
  8
SOUZOU
100
AcDbLine
 10
268.338051707518
 20
394.8843293232053
 30
0.0
 11
268.771479832559
 21
392.4261988556289
 31
0.0
  0
ARC
  5
2C76
330
A
100
AcDbEntity
  8
SOUZOU
100
AcDbCircle
 10
269.2638836222055
 20
392.5130216073603
 30
0.0
 40
0.5
100
AcDbArc
 50
189.9998508354329
 51
259.026799169081
  0
LINE
  5
2C7F
330
A
100
AcDbEntity
  8
SOUZOU
100
AcDbLine
 10
283.3674877339248
 20
395.1322592729738
 30
0.0
 11
282.8309164713866
 21
392.0893765874239
 31
0.0
  0
ARC
  5
2C80
330
A
100
AcDbEntity
  8
SOUZOU
100
AcDbCircle
 10
282.3979137592641
 20
392.5129965780594
 30
0.0
 40
0.5
100
AcDbArc
 50
281.2924527854823
 51
349.9998678763278
  0
ARC
  5
2C82
330
A
100
AcDbEntity
  8
SOUZOU
100
AcDbCircle
 10
285.830957566612
 20
393.6321956228977
 30
0.0
 40
1.5
100
AcDbArc
 50
359.9998804763566
 51
90.0
  0
LINE
  5
2C84
330
A
100
AcDbEntity
  8
SOUZOU
100
AcDbLine
 10
285.8309575666562
 20
395.1321956228977
 30
0.0
 11
283.3674765805773
 21
395.1322380038416
 31
0.0
  0
ARC
  5
2DD5
330
A
100
AcDbEntity
  8
04
100
AcDbCircle
 10
269.3309120589755
 20
395.1826490367642
 30
0.0
 40
0.5
100
AcDbArc
 50
79.44961107748291
 51
179.9999368636694
  0
ARC
  5
2DD6
330
A
100
AcDbEntity
  8
04
100
AcDbCircle
 10
282.3309848496721
 20
395.1826750011727
 30
0.0
 40
0.5
100
AcDbArc
 50
0.0
 51
100.5503101203655
  0
ARC
  5
2DD7
330
A
100
AcDbEntity
  8
04
100
AcDbCircle
 10
275.8309764661519
 20
430.0825056332511
 30
0.0
 40
35.0
100
AcDbArc
 50
259.4496110774829
 51
280.5503101203655
  0
LINE
  5
2DD8
330
A
100
AcDbEntity
  8
04
100
AcDbLine
 10
282.823230768751
 20
364.9819570217341
 30
0.0
 11
282.8309225938616
 21
395.2895872254238
 31
0.0
  0
ARC
  5
2DD9
330
A
100
AcDbEntity
  8
04
100
AcDbCircle
 10
275.8309673779538
 20
330.0823325252291
 30
0.0
 40
35.0
100
AcDbArc
 50
79.44969052542379
 51
100.5504195723643
  0
ARC
  5
2DDA
330
A
100
AcDbEntity
  8
04
100
AcDbCircle
 10
282.3232308346725
 20
364.9822137732596
 30
0.0
 40
0.5
100
AcDbArc
 50
259.4202683207619
 51
359.970578441126
  0
LINE
  5
2DDB
330
A
100
AcDbEntity
  8
04
100
AcDbLine
 10
268.8308440993619
 20
364.9820209944783
 30
0.0
 11
268.8308554306506
 21
395.2895877342282
 31
0.0
  0
ARC
  5
2DDC
330
A
100
AcDbEntity
  8
04
100
AcDbCircle
 10
269.330844099359
 20
364.9820192951753
 30
0.0
 40
0.5
100
AcDbArc
 50
179.9998052742103
 51
280.5501310603983
  0
LINE
  5
2DFC
330
A
100
AcDbEntity
  8
06
100
AcDbLine
 10
241.841849774582
 20
472.5822795992418
 30
0.0
 11
269.770774954205
 21
472.5822795992418
 31
0.0
  0
ARC
  5
2DFE
330
A
100
AcDbEntity
  8
06
100
AcDbCircle
 10
304.8309084974182
 20
468.3826770155712
 30
0.0
 40
1.000076370194728
100
AcDbArc
 50
0.0207633509177839
 51
89.99802286500194
  0
LINE
  5
2DFF
330
A
100
AcDbEntity
  8
06
100
AcDbLine
 10
286.0309872307059
 20
469.0825682767362
 30
0.0
 11
286.0309913902331
 21
469.3834021247917
 31
0.0
  0
LINE
  5
2E00
330
A
100
AcDbEntity
  8
06
100
AcDbLine
 10
283.0309955156891
 20
470.0825214699602
 30
0.0
 11
283.0309955771603
 21
469.0826903468432
 31
0.0
  0
LINE
  5
2E01
330
A
100
AcDbEntity
  8
06
100
AcDbLine
 10
283.0309955771603
 20
469.0826903468432
 30
0.0
 11
286.0309872307059
 21
469.0825682767362
 31
0.0
  0
LINE
  5
2E02
330
A
100
AcDbEntity
  8
06
100
AcDbLine
 10
269.770774954205
 20
472.5822795992418
 30
0.0
 11
269.7707784214108
 21
470.0828050881693
 31
0.0
  0
LINE
  5
2E03
330
A
100
AcDbEntity
  8
06
100
AcDbLine
 10
269.7707784214108
 20
470.0828050881693
 30
0.0
 11
283.0309955156891
 21
470.0825214699602
 31
0.0
  0
LINE
  5
2E04
330
A
100
AcDbEntity
  8
06
100
AcDbLine
 10
286.0309913902331
 20
469.3834021247917
 30
0.0
 11
304.830943007569
 21
469.3827533851705
 31
0.0
  0
LINE
  5
2E05
330
A
100
AcDbEntity
  8
06
100
AcDbLine
 10
303.0709662920122
 20
467.0830258596281
 30
0.0
 11
290.5709662920656
 21
467.0830624090192
 31
0.0
  0
LINE
  5
2E06
330
A
100
AcDbEntity
  8
06
100
AcDbLine
 10
308.3304293137571
 20
439.0826822986506
 30
0.0
 11
308.8309715486086
 21
439.0825827208985
 31
0.0
  0
LINE
  5
2E07
330
A
100
AcDbEntity
  8
06
100
AcDbLine
 10
308.3309277093291
 20
442.3326643383805
 30
0.0
 11
308.3304293137571
 21
439.0826822986506
 31
0.0
  0
LINE
  5
2E08
330
A
100
AcDbEntity
  8
06
100
AcDbLine
 10
308.3309594347641
 20
429.08257327098
 30
0.0
 11
308.3309393400891
 21
425.8326055601471
 31
0.0
  0
LINE
  5
2E09
330
A
100
AcDbEntity
  8
06
100
AcDbLine
 10
308.8310297594018
 20
429.0825744683263
 30
0.0
 11
308.3309594347641
 21
429.08257327098
 31
0.0
  0
LINE
  5
2E0A
330
A
100
AcDbEntity
  8
06
100
AcDbLine
 10
308.8309715486086
 20
439.0825827208985
 30
0.0
 11
308.8310297594018
 21
429.0825744683263
 31
0.0
  0
LINE
  5
2E0B
330
A
100
AcDbEntity
  8
06
100
AcDbLine
 10
305.8309617159491
 20
443.8975365693288
 30
0.0
 11
307.4274438480196
 21
443.897706291659
 31
0.0
  0
LINE
  5
2E0C
330
A
100
AcDbEntity
  8
06
100
AcDbLine
 10
293.85093997649
 20
458.0830528184973
 30
0.0
 11
299.7909399764647
 21
458.0830354502266
 31
0.0
  0
LINE
  5
2E0D
330
A
100
AcDbEntity
  8
06
100
AcDbLine
 10
307.427282704673
 20
424.2674408307173
 30
0.0
 11
306.3309291187988
 21
424.2676525393727
 31
0.0
  0
LINE
  5
2E0E
330
A
100
AcDbEntity
  8
06
100
AcDbLine
 10
306.3309555367292
 20
427.0826163855702
 30
0.0
 11
306.3309291187988
 21
424.2676525393727
 31
0.0
  0
LINE
  5
2E0F
330
A
100
AcDbEntity
  8
06
100
AcDbLine
 10
308.3309393400891
 20
425.8326055601471
 30
0.0
 11
307.427282704673
 21
424.2674408307173
 31
0.0
  0
LINE
  5
2E10
330
A
100
AcDbEntity
  8
06
100
AcDbLine
 10
307.4274438480196
 20
443.897706291659
 30
0.0
 11
308.3309277093291
 21
442.3326643383805
 31
0.0
  0
LINE
  5
2E11
330
A
100
AcDbEntity
  8
04
100
AcDbLine
 10
309.1348901141248
 20
385.5879167494606
 30
0.0
 11
309.8309769317507
 21
384.3823857980621
 31
0.0
  0
LINE
  5
2E12
330
A
100
AcDbEntity
  8
04
100
AcDbLine
 10
309.8309246125208
 20
371.7823725369062
 30
0.0
 11
309.1348972401695
 21
370.5768033496092
 31
0.0
  0
LINE
  5
2E13
330
A
100
AcDbEntity
  8
04
100
AcDbLine
 10
309.8309769317507
 20
384.3823857980621
 30
0.0
 11
309.8309246125208
 21
371.7823725369062
 31
0.0
  0
LINE
  5
2E14
330
A
100
AcDbEntity
  8
06
100
AcDbLine
 10
306.3309291192919
 20
392.0827389489636
 30
0.0
 11
303.5012452169066
 21
392.0827389489202
 31
0.0
  0
LINE
  5
2E15
330
A
100
AcDbEntity
  8
06
100
AcDbLine
 10
299.7909079560082
 20
407.582283386442
 30
0.0
 11
303.0709079560081
 21
398.5822833864421
 31
0.0
  0
LINE
  5
2E16
330
A
100
AcDbEntity
  8
04
100
AcDbLine
 10
295.3309151411968
 20
393.0823696561903
 30
0.0
 11
295.3309151416526
 21
392.0823610120075
 31
0.0
  0
LINE
  5
2E17
330
A
100
AcDbEntity
  8
06
100
AcDbLine
 10
293.8509079560083
 20
407.582283386442
 30
0.0
 11
299.7909079560082
 21
407.582283386442
 31
0.0
  0
LINE
  5
2E18
330
A
100
AcDbEntity
  8
04
100
AcDbLine
 10
295.3309151416526
 20
392.0823610120075
 30
0.0
 11
302.3309056312001
 21
392.0823610120075
 31
0.0
  0
LINE
  5
2E19
330
A
100
AcDbEntity
  8
04
100
AcDbLine
 10
304.3309740976888
 20
385.7823637081137
 30
0.0
 11
304.3309740976888
 21
385.5879167494585
 31
0.0
  0
LINE
  5
2E1A
330
A
100
AcDbEntity
  8
04
100
AcDbLine
 10
302.3309135366023
 20
385.7823792826597
 30
0.0
 11
304.3309740976888
 21
385.7823637081137
 31
0.0
  0
LINE
  5
2E1B
330
A
100
AcDbEntity
  8
04
100
AcDbLine
 10
304.3309530702649
 20
370.5767936856178
 30
0.0
 11
304.3309549732376
 21
370.3823749193638
 31
0.0
  0
LINE
  5
2E1C
330
A
100
AcDbEntity
  8
04
100
AcDbLine
 10
304.3309549732376
 20
370.3823749193638
 30
0.0
 11
302.3309226130966
 21
370.382355343029
 31
0.0
  0
LINE
  5
2E1D
330
A
100
AcDbEntity
  8
04
100
AcDbLine
 10
302.3309056312001
 20
392.0823610120075
 30
0.0
 11
302.3309135366023
 21
385.7823792826597
 31
0.0
  0
LINE
  5
2E1E
330
A
100
AcDbEntity
  8
04
100
AcDbLine
 10
309.1348972401695
 20
370.5768033496092
 30
0.0
 11
304.3309530702649
 21
370.5767936856178
 31
0.0
  0
LINE
  5
2E1F
330
A
100
AcDbEntity
  8
04
100
AcDbLine
 10
304.3309740976888
 20
385.5879167494585
 30
0.0
 11
309.1348901141248
 21
385.5879167494606
 31
0.0
  0
LINE
  5
2E20
330
A
100
AcDbEntity
  8
06
100
AcDbLine
 10
306.3309291187988
 20
424.2676525393727
 30
0.0
 11
306.3309291192919
 21
392.0827389489636
 31
0.0
  0
LINE
  5
2E21
330
A
100
AcDbEntity
  8
04
100
AcDbLine
 10
287.3309591679687
 20
392.5823255244577
 30
0.0
 11
288.8309125394935
 21
392.5823254937166
 31
0.0
  0
LINE
  5
2E22
330
A
100
AcDbEntity
  8
04
100
AcDbLine
 10
288.830814765151
 20
384.9873214847056
 30
0.0
 11
290.830944379063
 21
384.9873214847653
 31
0.0
  0
LINE
  5
2E23
330
A
100
AcDbEntity
  8
04
100
AcDbLine
 10
290.8309441283098
 20
375.1773149055677
 30
0.0
 11
288.8309793332543
 21
375.1773072304726
 31
0.0
  0
LINE
  5
2E24
330
A
100
AcDbEntity
  8
04
100
AcDbLine
 10
288.830924367825
 20
367.5823360983403
 30
0.0
 11
287.3309036448096
 21
367.5823392967525
 31
0.0
  0
LINE
  5
2E25
330
A
100
AcDbEntity
  8
04
100
AcDbLine
 10
288.8309793332543
 20
375.1773072304726
 30
0.0
 11
288.830924367825
 21
367.5823360983403
 31
0.0
  0
LINE
  5
2E26
330
A
100
AcDbEntity
  8
04
100
AcDbLine
 10
290.830944379063
 20
384.9873214847653
 30
0.0
 11
290.8309441283098
 21
375.1773149055677
 31
0.0
  0
LINE
  5
2E27
330
A
100
AcDbEntity
  8
04
100
AcDbLine
 10
290.830944379063
 20
384.9873214847653
 30
0.0
 11
290.8309445958705
 21
393.0823696541396
 31
0.0
  0
LINE
  5
2E28
330
A
100
AcDbEntity
  8
04
100
AcDbLine
 10
288.8309125394935
 20
392.5823254937166
 30
0.0
 11
288.830814765151
 21
384.9873214847056
 31
0.0
  0
LINE
  5
2E29
330
A
100
AcDbEntity
  8
06
100
AcDbLine
 10
281.3309563695768
 20
427.0824901777173
 30
0.0
 11
281.3309596399045
 21
396.052070854526
 31
0.0
  0
LINE
  5
2E2A
330
A
100
AcDbEntity
  8
06
100
AcDbLine
 10
290.5709079560081
 20
398.5822833864421
 30
0.0
 11
293.8509079560083
 21
407.582283386442
 31
0.0
  0
LINE
  5
2E2B
330
A
100
AcDbEntity
  8
06
100
AcDbLine
 10
303.0709079560081
 20
398.5822833864421
 30
0.0
 11
290.5709079560081
 21
398.5822833864421
 31
0.0
  0
LINE
  5
2E2C
330
A
100
AcDbEntity
  8
04
100
AcDbLine
 10
290.8309445958705
 20
393.0823696541396
 30
0.0
 11
295.3309151411968
 21
393.0823696561903
 31
0.0
  0
LINE
  5
2E2D
330
A
100
AcDbEntity
  8
06
100
AcDbLine
 10
281.3309558426208
 20
427.0826159472902
 30
0.0
 11
306.3309555367292
 21
427.0826163855702
 31
0.0
  0
LINE
  5
2E2E
330
A
100
AcDbEntity
  8
06
100
AcDbLine
 10
305.8309848019451
 20
468.3830394320763
 30
0.0
 11
305.8309617159491
 21
443.8975365693288
 31
0.0
  0
LINE
  5
2E2F
330
A
100
AcDbEntity
  8
06
100
AcDbLine
 10
290.5709662920656
 20
467.0830624090192
 30
0.0
 11
293.85093997649
 21
458.0830528184973
 31
0.0
  0
LINE
  5
2E30
330
A
100
AcDbEntity
  8
06
100
AcDbLine
 10
299.7909399764647
 20
458.0830354502266
 30
0.0
 11
303.0709662920122
 21
467.0830258596281
 31
0.0
  0
LINE
  5
2E31
330
A
100
AcDbEntity
  8
04
100
AcDbLine
 10
305.2159605848243
 20
355.7014292553521
 30
0.0
 11
305.6309661567538
 21
354.982644864876
 31
0.0
  0
LINE
  5
2E32
330
A
100
AcDbEntity
  8
04
100
AcDbLine
 10
302.1309590648197
 20
355.6825890578427
 30
0.0
 11
302.1309597400581
 21
355.7013956955078
 31
0.0
  0
LINE
  5
2E33
330
A
100
AcDbEntity
  8
04
100
AcDbLine
 10
300.8309556521068
 20
356.0825958250056
 30
0.0
 11
300.8309626408759
 21
355.6825890578678
 31
0.0
  0
LINE
  5
2E34
330
A
100
AcDbEntity
  8
04
100
AcDbLine
 10
299.8311796689609
 20
356.0825435603356
 30
0.0
 11
300.8309556521068
 21
356.0825958250056
 31
0.0
  0
LINE
  5
2E35
330
A
100
AcDbEntity
  8
04
100
AcDbLine
 10
299.8309965666795
 20
360.0824714992426
 30
0.0
 11
299.8311796689609
 21
356.0825435603356
 31
0.0
  0
LINE
  5
2E36
330
A
100
AcDbEntity
  8
04
100
AcDbLine
 10
300.8309626408759
 20
355.6825890578678
 30
0.0
 11
302.1309590648197
 21
355.6825890578427
 31
0.0
  0
LINE
  5
2E37
330
A
100
AcDbEntity
  8
04
100
AcDbLine
 10
302.1309597400581
 20
355.7013956955078
 30
0.0
 11
305.2159605848243
 21
355.7014292553521
 31
0.0
  0
LINE
  5
2E38
330
A
100
AcDbEntity
  8
04
100
AcDbLine
 10
305.6310413698184
 20
347.182656193039
 30
0.0
 11
305.2160516089798
 21
346.4637991831466
 31
0.0
  0
LINE
  5
2E39
330
A
100
AcDbEntity
  8
04
100
AcDbLine
 10
302.131047904688
 20
346.4637692285591
 30
0.0
 11
302.1310491317688
 21
346.4825182139733
 31
0.0
  0
LINE
  5
2E3A
330
A
100
AcDbEntity
  8
04
100
AcDbLine
 10
299.8310521481688
 20
346.0825593537085
 30
0.0
 11
299.8310046779843
 21
343.5823482297
 31
0.0
  0
LINE
  5
2E3B
330
A
100
AcDbEntity
  8
04
100
AcDbLine
 10
300.8310514002185
 20
346.0825691197931
 30
0.0
 11
299.8310521481688
 21
346.0825593537085
 31
0.0
  0
LINE
  5
2E3C
330
A
100
AcDbEntity
  8
04
100
AcDbLine
 10
300.8310496721243
 20
346.4825054822211
 30
0.0
 11
300.8310514002185
 21
346.0825691197931
 31
0.0
  0
LINE
  5
2E3D
330
A
100
AcDbEntity
  8
04
100
AcDbLine
 10
302.1310491317688
 20
346.4825182139733
 30
0.0
 11
300.8310496721243
 21
346.4825054822211
 31
0.0
  0
LINE
  5
2E3E
330
A
100
AcDbEntity
  8
04
100
AcDbLine
 10
305.2160516089798
 20
346.4637991831466
 30
0.0
 11
302.131047904688
 21
346.4637692285591
 31
0.0
  0
LINE
  5
2E3F
330
A
100
AcDbEntity
  8
04
100
AcDbLine
 10
305.6309661567538
 20
354.982644864876
 30
0.0
 11
305.6310413698184
 21
347.182656193039
 31
0.0
  0
LINE
  5
2E40
330
A
100
AcDbEntity
  8
04
100
AcDbLine
 10
295.3309151544123
 20
364.0823832220069
 30
0.0
 11
295.3308466648301
 21
360.0825485557745
 31
0.0
  0
LINE
  5
2E41
330
A
100
AcDbEntity
  8
04
100
AcDbLine
 10
295.3308466648301
 20
360.0825485557745
 30
0.0
 11
295.3308466648301
 21
343.5823784340596
 31
0.0
  0
LINE
  5
2E42
330
A
100
AcDbEntity
  8
04
100
AcDbLine
 10
295.3308466648301
 20
360.0825485557745
 30
0.0
 11
299.8309965666795
 21
360.0824714992426
 31
0.0
  0
LINE
  5
2E43
330
A
100
AcDbEntity
  8
04
100
AcDbLine
 10
302.3309430554081
 20
364.0823832251968
 30
0.0
 11
295.3309151544123
 21
364.0823832220069
 31
0.0
  0
LINE
  5
2E44
330
A
100
AcDbEntity
  8
04
100
AcDbLine
 10
285.3309553707013
 20
356.5825800263047
 30
0.0
 11
285.3309505385051
 21
355.5825271776132
 31
0.0
  0
LINE
  5
2E45
330
A
100
AcDbEntity
  8
04
100
AcDbLine
 10
285.3309505385051
 20
355.5825271776132
 30
0.0
 11
290.8309435915221
 21
355.5825270287788
 31
0.0
  0
LINE
  5
2E46
330
A
100
AcDbEntity
  8
04
100
AcDbLine
 10
290.8309435915223
 20
355.582527097265
 30
0.0
 11
290.8309435915223
 21
343.5823784340596
 31
0.0
  0
ARC
  5
2E47
330
A
100
AcDbEntity
  8
02
100
AcDbCircle
 10
281.3614025317746
 20
358.0822556502777
 30
0.0
 40
0.9999999999999303
100
AcDbArc
 50
269.9997942982991
 51
355.0008160366461
  0
LINE
  5
2E48
330
A
100
AcDbEntity
  8
02
100
AcDbLine
 10
282.8275586519885
 20
363.3676648499374
 30
0.0
 11
282.3575984710831
 21
357.9951140958681
 31
0.0
  0
LINE
  5
2E49
330
A
100
AcDbEntity
  8
04
100
AcDbLine
 10
275.3309492723673
 20
355.0825735950386
 30
0.0
 11
275.330954645452
 21
356.5825790706603
 31
0.0
  0
ARC
  5
2E4A
330
A
100
AcDbEntity
  8
02
100
AcDbCircle
 10
281.831341782112
 20
363.4547908995076
 30
0.0
 40
1.00001949997998
100
AcDbArc
 50
355.0018055028788
 51
78.05843379273824
  0
LINE
  5
2E4B
330
A
100
AcDbEntity
  8
04
100
AcDbLine
 10
275.330954645452
 20
356.5825790706603
 30
0.0
 11
285.3309553707013
 21
356.5825800263047
 31
0.0
  0
ARC
  5
2E4C
330
A
100
AcDbEntity
  8
02
100
AcDbCircle
 10
269.831370373986
 20
363.4548346208528
 30
0.0
 40
1.000011695728936
100
AcDbArc
 50
101.9412216107161
 51
184.9999999999995
  0
LINE
  5
2E4D
330
A
100
AcDbEntity
  8
02
100
AcDbLine
 10
268.972090207598
 20
361.8026044262803
 30
0.0
 11
268.8351640246711
 21
363.3676778587552
 31
0.0
  0
ARC
  5
2E4E
330
A
100
AcDbEntity
  8
02
100
AcDbCircle
 10
267.9758955095064
 20
361.7154486835326
 30
0.0
 40
1.0
100
AcDbArc
 50
304.7217982668788
 51
4.999999999999743
  0
ARC
  5
2E4F
330
A
100
AcDbEntity
  8
02
100
AcDbCircle
 10
272.6114573814198
 20
354.0813951893718
 30
0.0
 40
3.000891874687466
100
AcDbArc
 50
89.99979429830238
 51
136.2086526010829
  0
LINE
  5
2E50
330
A
100
AcDbEntity
  8
04
100
AcDbLine
 10
272.8308193015215
 20
354.0825542574711
 30
0.0
 11
274.3309550222968
 21
354.0825722188201
 31
0.0
  0
LINE
  5
2E51
330
A
100
AcDbEntity
  8
04
100
AcDbLine
 10
272.6309019185175
 20
345.182365007984
 30
0.0
 11
272.6309019185175
 21
347.182365007984
 31
0.0
  0
LINE
  5
2E52
330
A
100
AcDbEntity
  8
04
100
AcDbLine
 10
271.8309019185174
 20
345.182365007984
 30
0.0
 11
272.6309019185175
 21
345.182365007984
 31
0.0
  0
LINE
  5
2E53
330
A
100
AcDbEntity
  8
04
100
AcDbLine
 10
271.8309019185176
 20
343.5823784340596
 30
0.0
 11
271.8309019185174
 21
345.182365007984
 31
0.0
  0
LINE
  5
2E54
330
A
100
AcDbEntity
  8
04
100
AcDbLine
 10
272.6309019185175
 20
347.182365007984
 30
0.0
 11
272.8309019185175
 21
347.182365007984
 31
0.0
  0
LINE
  5
2E55
330
A
100
AcDbEntity
  8
04
100
AcDbLine
 10
272.8309019185175
 20
347.182365007984
 30
0.0
 11
272.8308193015215
 21
354.0825542574711
 31
0.0
  0
LINE
  5
2E56
330
A
100
AcDbEntity
  8
04
100
AcDbLine
 10
274.3309550222968
 20
354.0825722188201
 30
0.0
 11
274.3309702811698
 21
355.0825734205521
 31
0.0
  0
ARC
  5
2E57
330
A
100
AcDbEntity
  8
02
100
AcDbCircle
 10
258.9773710242577
 20
347.0822838011766
 30
0.0
 40
1.999999999999974
100
AcDbArc
 50
270.000127435914
 51
316.2187368015914
  0
LINE
  5
2E58
330
A
100
AcDbEntity
  8
02
100
AcDbLine
 10
270.4452193340579
 20
356.1581149022186
 30
0.0
 11
260.4213440910301
 21
345.6984695858878
 31
0.0
  0
LINE
  5
2E59
330
A
100
AcDbEntity
  8
02
100
AcDbLine
 10
281.3613989416026
 20
357.0822556502843
 30
0.0
 11
272.6114681551373
 21
357.0822870640398
 31
0.0
  0
ARC
  5
2E5A
330
A
100
AcDbEntity
  8
02
100
AcDbCircle
 10
275.831271570839
 20
335.0844375811411
 30
0.0
 40
29.99791235358491
100
AcDbArc
 50
78.05843379273824
 51
101.9412216107161
  0
LINE
  5
2E5B
330
A
100
AcDbEntity
  8
04
100
AcDbLine
 10
274.3309702811698
 20
355.0825734205521
 30
0.0
 11
275.3309492723673
 21
355.0825735950386
 31
0.0
  0
LINE
  5
2E5C
330
A
100
AcDbEntity
  8
04
100
AcDbLine
 10
302.3309226130966
 20
370.382355343029
 30
0.0
 11
302.3309430554081
 21
364.0823832251968
 31
0.0
  0
LINE
  5
2E5D
330
A
100
AcDbEntity
  8
04
100
AcDbLine
 10
295.3309151416526
 20
392.0823610120075
 30
0.0
 11
295.3309151544123
 21
364.0823832220069
 31
0.0
  0
LINE
  5
2E5E
330
A
100
AcDbEntity
  8
04
100
AcDbLine
 10
290.8309435915223
 20
355.582527097265
 30
0.0
 11
290.8309441283098
 21
375.1773149055677
 31
0.0
  0
ARC
  5
2E5F
330
A
100
AcDbEntity
  8
06
100
AcDbCircle
 10
241.8418378103003
 20
467.5822795992561
 30
0.0
 40
4.999999999999938
100
AcDbArc
 50
90.0
 51
135.0
  0
LINE
  5
2E60
330
A
100
AcDbEntity
  8
02
100
AcDbLine
 10
229.8309013075379
 20
470.0823887600184
 30
0.0
 11
229.8309155346585
 21
467.0824223806611
 31
0.0
  0
LINE
  5
2E61
330
A
100
AcDbEntity
  8
02
100
AcDbLine
 10
227.5308783769293
 20
465.0828207312397
 30
0.0
 11
227.531123497836
 21
467.5820521570521
 31
0.0
  0
LINE
  5
2E62
330
A
100
AcDbEntity
  8
02
100
AcDbLine
 10
228.8309575820195
 20
465.0825704648736
 30
0.0
 11
227.5308783769293
 21
465.0828207312397
 31
0.0
  0
LINE
  5
2E63
330
A
100
AcDbEntity
  8
06
100
AcDbLine
 10
228.8311706412061
 20
465.0828206423795
 30
0.0
 11
232.2713109089916
 21
465.0828205098128
 31
0.0
  0
LINE
  5
2E64
330
A
100
AcDbEntity
  8
02
100
AcDbLine
 10
229.8309155346585
 20
467.0824223806611
 30
0.0
 11
228.8309575820195
 21
465.0825704648736
 31
0.0
  0
LINE
  5
2E65
330
A
100
AcDbEntity
  8
06
100
AcDbLine
 10
232.2713109089916
 20
465.0828205098128
 30
0.0
 11
238.3063039043676
 21
471.1178135051888
 31
0.0
  0
ARC
  5
2E66
330
A
100
AcDbEntity
  8
02
100
AcDbCircle
 10
221.3309515878858
 20
468.0828910091522
 30
0.0
 40
2.000035762191588
100
AcDbArc
 50
91.47207322026805
 51
179.9999926480247
  0
ARC
  5
2E67
330
A
100
AcDbEntity
  8
02
100
AcDbCircle
 10
223.9061527769264
 20
115992.8098116338
 30
0.0
 40
115522.7275748033
100
AcDbArc
 50
269.9986972950008
 51
270.0029384961099
  0
LINE
  5
2E68
330
A
100
AcDbEntity
  8
02
100
AcDbLine
 10
227.531123497836
 20
467.5820521570521
 30
0.0
 11
223.330915840967
 21
467.582048112938
 31
0.0
  0
LINE
  5
2E69
330
A
100
AcDbEntity
  8
02
100
AcDbLine
 10
242.8315265404842
 20
374.5820562319121
 30
0.0
 11
243.8319448846924
 21
374.582074549941
 31
0.0
  0
ARC
  5
2E6A
330
A
100
AcDbEntity
  8
02
100
AcDbCircle
 10
243.831963194726
 20
373.5820928599745
 30
0.0
 40
0.9999816901340356
100
AcDbArc
 50
359.9989508931414
 51
90.00104910685534
  0
LINE
  5
2E6B
330
A
100
AcDbEntity
  8
02
100
AcDbLine
 10
229.8310081586195
 20
398.0825982901435
 30
0.0
 11
229.8309623758906
 21
393.6825543541992
 31
0.0
  0
LINE
  5
2E6C
330
A
100
AcDbEntity
  8
02
100
AcDbLine
 10
227.530973884808
 20
397.5824497060338
 30
0.0
 11
227.5309712317286
 21
400.0825408296711
 31
0.0
  0
LINE
  5
2E6D
330
A
100
AcDbEntity
  8
02
100
AcDbLine
 10
227.5309712317286
 20
400.0825408296711
 30
0.0
 11
228.8310361654315
 21
400.0825487258798
 31
0.0
  0
LINE
  5
2E6E
330
A
100
AcDbEntity
  8
02
100
AcDbLine
 10
227.5308775936597
 20
393.6824422733419
 30
0.0
 11
227.5308802901967
 21
395.1823507208267
 31
0.0
  0
LINE
  5
2E6F
330
A
100
AcDbEntity
  8
02
100
AcDbLine
 10
229.8309623758906
 20
393.6825543541992
 30
0.0
 11
227.5308775936597
 21
393.6824422733419
 31
0.0
  0
LINE
  5
2E70
330
A
100
AcDbEntity
  8
02
100
AcDbLine
 10
228.8310361654315
 20
400.0825487258798
 30
0.0
 11
229.8310081586195
 21
398.0825982901435
 31
0.0
  0
ARC
  5
2E71
330
A
100
AcDbEntity
  8
02
100
AcDbCircle
 10
240.3322492040147
 20
373.0815163387175
 30
0.0
 40
0.5
100
AcDbArc
 50
0.0
 51
89.99825599077464
  0
LINE
  5
2E72
330
A
100
AcDbEntity
  8
02
100
AcDbLine
 10
229.8308801095909
 20
388.4823035809366
 30
0.0
 11
229.8308995287416
 21
384.9824819352076
 31
0.0
  0
LINE
  5
2E73
330
A
100
AcDbEntity
  8
02
100
AcDbLine
 10
227.5308770941455
 20
386.9823843590502
 30
0.0
 11
227.530978125956
 21
388.4824584821231
 31
0.0
  0
LINE
  5
2E74
330
A
100
AcDbEntity
  8
02
100
AcDbLine
 10
227.530978125956
 20
388.4824584821231
 30
0.0
 11
229.8308801095909
 21
388.4823035809366
 31
0.0
  0
LINE
  5
2E75
330
A
100
AcDbEntity
  8
02
100
AcDbLine
 10
240.3326842462728
 20
373.581805516263
 30
0.0
 11
225.8323525255538
 21
373.5815163384858
 31
0.0
  0
ARC
  5
2E76
330
A
100
AcDbEntity
  8
02
100
AcDbCircle
 10
242.8044085586481
 20
373.6099612311521
 30
0.0
 40
0.9724731746640964
100
AcDbArc
 50
88.40206662141083
 51
179.9976516552194
  0
ARC
  5
2E77
330
A
100
AcDbEntity
  8
02
100
AcDbCircle
 10
240.8323366795619
 20
373.5816739206033
 30
0.0
 40
0.9999999999999998
100
AcDbArc
 50
0.0
 51
89.99919302646956
  0
LINE
  5
2E78
330
A
100
AcDbEntity
  8
02
100
AcDbLine
 10
224.3306156435003
 20
380.4081613170902
 30
0.0
 11
224.3314663974846
 21
379.7550620450392
 31
0.0
  0
LINE
  5
2E79
330
A
100
AcDbEntity
  8
02
100
AcDbLine
 10
224.3306156435003
 20
380.4081613170902
 30
0.0
 11
224.3306156435003
 21
380.4081613170902
 31
0.0
  0
LINE
  5
2E7A
330
A
100
AcDbEntity
  8
02
100
AcDbLine
 10
224.3307881253183
 20
384.9824514172262
 30
0.0
 11
224.3306156435003
 21
380.4081613170902
 31
0.0
  0
ARC
  5
2E7B
330
A
100
AcDbEntity
  8
02
100
AcDbCircle
 10
225.3322802693581
 20
373.5816739206033
 30
0.0
 40
0.9999999999999998
100
AcDbArc
 50
90.00054666709623
 51
180.0
  0
LINE
  5
2E7C
330
A
100
AcDbEntity
  8
02
100
AcDbLine
 10
223.330864572863
 20
395.1823432164706
 30
0.0
 11
223.3308792239832
 21
386.9824477414695
 31
0.0
  0
LINE
  5
2E7D
330
A
100
AcDbEntity
  8
02
100
AcDbLine
 10
229.8308995287416
 20
384.9824819352076
 30
0.0
 11
224.3307881253183
 21
384.9824514172262
 31
0.0
  0
LINE
  5
2E7E
330
A
100
AcDbEntity
  8
02
100
AcDbLine
 10
223.3308792239832
 20
386.9824477414695
 30
0.0
 11
227.5308770941455
 21
386.9823843590502
 31
0.0
  0
LINE
  5
2E7F
330
A
100
AcDbEntity
  8
02
100
AcDbLine
 10
227.5308802901967
 20
395.1823507208267
 30
0.0
 11
223.330864572863
 21
395.1823432164706
 31
0.0
  0
LINE
  5
2E80
330
A
100
AcDbEntity
  8
02
100
AcDbLine
 10
223.3309738848294
 20
397.5824151455173
 30
0.0
 11
227.530973884808
 21
397.5824497060338
 31
0.0
  0
ARC
  5
2E81
330
A
100
AcDbEntity
  8
02
100
AcDbCircle
 10
225.8323677449054
 20
373.0815163387175
 30
0.0
 40
0.5
100
AcDbArc
 50
90.00174400922537
 51
180.0
  0
LINE
  5
2E82
330
A
100
AcDbEntity
  8
02
100
AcDbLine
 10
225.3322707282173
 20
374.5816739205476
 30
0.0
 11
240.832719173821
 21
374.5818218125076
 31
0.0
  0
LINE
  5
2E83
330
A
100
AcDbEntity
  8
02
100
AcDbLine
 10
223.330915840967
 20
467.582048112938
 30
0.0
 11
223.3309738848294
 21
397.5824151455173
 31
0.0
  0
LINE
  5
2E84
330
A
100
AcDbEntity
  8
02
100
AcDbLine
 10
227.5308996011335
 20
467.5826558359396
 30
0.0
 11
227.5309738848295
 21
397.582491870549
 31
0.0
  0
ARC
  5
2E85
330
A
100
AcDbEntity
  8
02
100
AcDbCircle
 10
254.892770756321
 20
355.0822025908466
 30
0.0
 40
3.000000000000283
100
AcDbArc
 50
270.0
 51
304.7217982668776
  0
LINE
  5
2E86
330
A
100
AcDbEntity
  8
02
100
AcDbLine
 10
252.4084795060347
 20
352.0822025908461
 30
0.0
 11
252.4084795060347
 21
352.0822025908461
 31
0.0
  0
LINE
  5
2E87
330
A
100
AcDbEntity
  8
02
100
AcDbLine
 10
251.2537789676556
 20
352.0822025908461
 30
0.0
 11
252.4084795060347
 21
352.0822025908461
 31
0.0
  0
LINE
  5
2E88
330
A
100
AcDbEntity
  8
02
100
AcDbLine
 10
254.1311046640756
 20
345.0822730222211
 30
0.0
 11
253.531319080296
 21
345.0822730224154
 31
0.0
  0
LINE
  5
2E89
330
A
100
AcDbEntity
  8
02
100
AcDbLine
 10
254.1311046640756
 20
345.0822730222211
 30
0.0
 11
254.1311046640756
 21
345.0822730222211
 31
0.0
  0
LINE
  5
2E8A
330
A
100
AcDbEntity
  8
02
100
AcDbLine
 10
250.1311046638809
 20
345.0822730224154
 30
0.0
 11
250.1311046638809
 21
345.0822730224154
 31
0.0
  0
LINE
  5
2E8B
330
A
100
AcDbEntity
  8
02
100
AcDbLine
 10
253.531319080296
 20
345.0822730224154
 30
0.0
 11
250.1311046638809
 21
345.0822730224154
 31
0.0
  0
LINE
  5
2E8C
330
A
100
AcDbEntity
  8
02
100
AcDbLine
 10
252.4084795060347
 20
352.0822025908461
 30
0.0
 11
254.892770756321
 21
352.0822025908461
 31
0.0
  0
ARC
  5
2E8D
330
A
100
AcDbEntity
  8
02
100
AcDbCircle
 10
243.8319448846927
 20
363.3994111942251
 30
0.0
 40
0.9999999999997868
100
AcDbArc
 50
322.3042546316948
 51
0.0
  0
LINE
  5
2E8E
330
A
100
AcDbEntity
  8
02
100
AcDbLine
 10
248.4084795060347
 20
352.0822025908461
 30
0.0
 11
248.4084795060347
 21
352.0822025908461
 31
0.0
  0
LINE
  5
2E8F
330
A
100
AcDbEntity
  8
02
100
AcDbLine
 10
247.2537789676557
 20
352.0822025908461
 30
0.0
 11
248.4084795060347
 21
352.0822025908461
 31
0.0
  0
LINE
  5
2E90
330
A
100
AcDbEntity
  8
02
100
AcDbLine
 10
246.1311046638811
 20
345.0822730224154
 30
0.0
 11
246.1311046638811
 21
345.0822730224154
 31
0.0
  0
LINE
  5
2E91
330
A
100
AcDbEntity
  8
02
100
AcDbLine
 10
249.531319080296
 20
345.0822730224154
 30
0.0
 11
246.1311046638811
 21
345.0822730224154
 31
0.0
  0
LINE
  5
2E92
330
A
100
AcDbEntity
  8
02
100
AcDbLine
 10
244.4084795060347
 20
352.0822025908461
 30
0.0
 11
244.4084795060347
 21
352.0822025908461
 31
0.0
  0
LINE
  5
2E93
330
A
100
AcDbEntity
  8
02
100
AcDbLine
 10
243.2537789676556
 20
352.0822025908464
 30
0.0
 11
244.4084795060347
 21
352.0822025908461
 31
0.0
  0
LINE
  5
2E94
330
A
100
AcDbEntity
  8
02
100
AcDbLine
 10
242.1311046638811
 20
345.0822730224154
 30
0.0
 11
242.1311046638811
 21
345.0822730224154
 31
0.0
  0
LINE
  5
2E95
330
A
100
AcDbEntity
  8
02
100
AcDbLine
 10
245.5313190802963
 20
345.0822730224154
 30
0.0
 11
242.1311046638811
 21
345.0822730224154
 31
0.0
  0
LINE
  5
2E96
330
A
100
AcDbEntity
  8
02
100
AcDbLine
 10
246.1311046638811
 20
345.0822730224154
 30
0.0
 11
245.5313190802963
 21
345.0822730224154
 31
0.0
  0
LINE
  5
2E97
330
A
100
AcDbEntity
  8
02
100
AcDbLine
 10
244.4084795060347
 20
352.0822025908461
 30
0.0
 11
247.2537789676557
 21
352.0822025908461
 31
0.0
  0
LINE
  5
2E98
330
A
100
AcDbEntity
  8
02
100
AcDbLine
 10
250.1311046638809
 20
345.0822730224154
 30
0.0
 11
249.531319080296
 21
345.0822730224154
 31
0.0
  0
LINE
  5
2E99
330
A
100
AcDbEntity
  8
02
100
AcDbLine
 10
248.4084795060347
 20
352.0822025908461
 30
0.0
 11
251.2537789676556
 21
352.0822025908461
 31
0.0
  0
LINE
  5
2E9A
330
A
100
AcDbEntity
  8
02
100
AcDbLine
 10
240.8322492040148
 20
364.5816739205041
 30
0.0
 11
241.8327416284094
 21
364.5816739205041
 31
0.0
  0
ARC
  5
2E9B
330
A
100
AcDbEntity
  8
02
100
AcDbCircle
 10
240.4232712727522
 20
354.0822025908461
 30
0.0
 40
2.000000000000005
100
AcDbArc
 50
142.3042546317027
 51
270.000000000003
  0
LINE
  5
2E9C
330
A
100
AcDbEntity
  8
02
100
AcDbLine
 10
233.9316168007249
 20
353.878534813619
 30
0.0
 11
241.8315448510213
 21
364.0816143340306
 31
0.0
  0
LINE
  5
2E9D
330
A
100
AcDbEntity
  8
02
100
AcDbLine
 10
227.3315677613954
 20
353.0821197471984
 30
0.0
 11
232.3343627408235
 21
353.0821648599951
 31
0.0
  0
ARC
  5
2E9E
330
A
100
AcDbEntity
  8
02
100
AcDbCircle
 10
232.3343447057671
 20
355.0821670157423
 30
0.0
 40
2.000002155828581
100
AcDbArc
 50
270.0005166657545
 51
322.999969207994
  0
LINE
  5
2E9F
330
A
100
AcDbEntity
  8
02
100
AcDbLine
 10
242.1311046638811
 20
345.0822730224154
 30
0.0
 11
241.5313190802963
 21
345.0822730224154
 31
0.0
  0
LINE
  5
2EA0
330
A
100
AcDbEntity
  8
02
100
AcDbLine
 10
240.4232712727524
 20
352.0822025908461
 30
0.0
 11
243.2537789676556
 21
352.0822025908464
 31
0.0
  0
LINE
  5
2EA1
330
A
100
AcDbEntity
  8
02
100
AcDbLine
 10
244.6232138258447
 20
362.7879429098736
 30
0.0
 11
238.8407333904478
 21
355.3051391595493
 31
0.0
  0
LINE
  5
2EA2
330
A
100
AcDbEntity
  8
02
100
AcDbLine
 10
224.3322849298448
 20
364.5816739205041
 30
0.0
 11
225.3323677449055
 21
364.5816739205041
 31
0.0
  0
ARC
  5
2EA3
330
A
100
AcDbEntity
  8
02
100
AcDbCircle
 10
222.3306809251388
 20
348.0822730224157
 30
0.0
 40
2.999999999999957
100
AcDbArc
 50
180.6930982698889
 51
270.0
  0
LINE
  5
2EA4
330
A
100
AcDbEntity
  8
02
100
AcDbLine
 10
241.5313190802963
 20
345.0822730224154
 30
0.0
 11
222.3306809251388
 21
345.0822730224158
 31
0.0
  0
ARC
  5
2EA5
330
A
100
AcDbEntity
  8
02
100
AcDbCircle
 10
227.331536152592
 20
356.0821149228168
 30
0.0
 40
2.999995175784897
100
AcDbArc
 50
180.0001805047575
 51
270.0006036846493
  0
LINE
  5
2EA6
330
A
100
AcDbEntity
  8
02
100
AcDbLine
 10
219.3309004230175
 20
348.045983366949
 30
0.0
 11
219.3309158256943
 21
468.0828912657891
 31
0.0
  0
LINE
  5
2EA7
330
A
100
AcDbEntity
  8
02
100
AcDbLine
 10
244.8319448846925
 20
373.582074549941
 30
0.0
 11
244.8319448846925
 21
363.3994111942251
 31
0.0
  0
LINE
  5
2EA8
330
A
100
AcDbEntity
  8
02
100
AcDbLine
 10
241.8315448510213
 20
364.0816143340306
 30
0.0
 11
241.8319353848009
 21
373.6100010892766
 31
0.0
  0
LINE
  5
2EA9
330
A
100
AcDbEntity
  8
02
100
AcDbLine
 10
224.3314663974846
 20
379.7550620450392
 30
0.0
 11
224.331540976822
 21
356.0821054716252
 31
0.0
  0
LINE
  5
2EAA
330
A
100
AcDbEntity
  8
02
100
AcDbLine
 10
240.8322492040148
 20
373.0815163387175
 30
0.0
 11
240.8322492040148
 21
364.5816739205041
 31
0.0
  0
LINE
  5
2EAB
330
A
100
AcDbEntity
  8
02
100
AcDbLine
 10
225.3323677449053
 20
373.0815163387175
 30
0.0
 11
225.3323677449055
 21
364.5816739205041
 31
0.0
  0
LINE
  5
2EAD
330
A
100
AcDbEntity
  8
02
100
AcDbLine
 10
258.9773754726103
 20
345.0822838011817
 30
0.0
 11
254.1311046640756
 21
345.0822730222211
 31
0.0
  0
LINE
  5
2EAE
330
A
100
AcDbEntity
  8
02
100
AcDbLine
 10
256.6015475608625
 20
352.6164203960324
 30
0.0
 11
268.5454877776868
 21
360.8935212852613
 31
0.0
  0
LINE
  5
2EAF
330
A
100
AcDbEntity
  8
06
100
AcDbLine
 10
281.3309594258976
 20
398.0826703566406
 30
0.0
 11
233.8351737488379
 21
398.0824976849971
 31
0.0
  0
LINE
  5
2EB0
330
A
100
AcDbEntity
  8
04
100
AcDbLine
 10
304.3309022225731
 20
343.5823387869337
 30
0.0
 11
304.3309096354638
 21
339.0823687359073
 31
0.0
  0
LINE
  5
2EB1
330
A
100
AcDbEntity
  8
04
100
AcDbLine
 10
266.3309072075063
 20
343.5823055517278
 30
0.0
 11
266.3308959093204
 21
339.0823693043461
 31
0.0
  0
LINE
  5
2EB2
330
A
100
AcDbEntity
  8
04
100
AcDbLine
 10
266.3308875761838
 20
343.5823784340791
 30
0.0
 11
304.3308894203946
 21
343.5823475134005
 31
0.0
  0
LINE
  5
2EB3
330
A
100
AcDbEntity
  8
04
100
AcDbLine
 10
266.3309115205564
 20
339.0823647639042
 30
0.0
 11
304.3308713275099
 21
339.0824011856566
 31
0.0
  0
TEXT
  5
2F0B
330
A
100
AcDbEntity
  8
MOJI
100
AcDbText
 10
69.12485034689772
 20
48.52120090954372
 30
0.0
 40
6.0
  1
SOV-100KLDM
 50
90.0
 41
0.8
  7
0_8
 11
63.12485034689771
 21
48.52120090954372
 31
0.0
100
AcDbText
 73
     3
  0
TEXT
  5
2F0C
330
A
100
AcDbEntity
  8
MOJI
100
AcDbText
 10
69.12485034689772
 20
113.337388906335
 30
0.0
 40
6.0
  1
７５×１
 50
90.0
 41
0.8
  7
0_8
 11
63.12485034689771
 21
113.337388906335
 31
0.0
100
AcDbText
 73
     3
  0
TEXT
  5
2F0D
330
A
100
AcDbEntity
  8
MOJI
100
AcDbText
 10
69.12485034689772
 20
147.545415195258
 30
0.0
 40
6.0
  1
５０×２
 50
90.0
 41
0.8
  7
0_8
 11
63.12485034689771
 21
147.545415195258
 31
0.0
100
AcDbText
 73
     3
  0
CIRCLE
  5
2F0E
330
A
100
AcDbEntity
  8
SAISEN
100
AcDbCircle
 10
58.34208265903964
 20
190.0186281509279
 30
0.0
 40
2.43
  0
CIRCLE
  5
2F0F
330
A
100
AcDbEntity
  8
SAISEN
100
AcDbCircle
 10
58.34208265903964
 20
190.0186281509279
 30
0.0
 40
1.619999999999999
  0
CIRCLE
  5
2F10
330
A
100
AcDbEntity
  8
SAISEN
100
AcDbCircle
 10
58.34208265903964
 20
224.3043424366422
 30
0.0
 40
2.43
  0
LINE
  5
2F11
330
A
100
AcDbEntity
  8
SAISEN
100
AcDbLine
 10
62.31485034689754
 20
46.90120090954372
 30
0.0
 11
62.31485034689757
 21
244.0440580524009
 31
0.0
  0
TEXT
  5
2F12
330
A
100
AcDbEntity
  8
MOJI
100
AcDbText
 10
76.88627891832621
 20
245.6297723381152
 30
0.0
 40
6.0
  1
☆本図
 50
90.0
 41
0.8
  7
0_8
 11
70.88627891832621
 21
245.6297723381152
 31
0.0
100
AcDbText
 73
     3
  0
POLYLINE
  5
2F13
330
A
100
AcDbEntity
  8
SAISEN
100
AcDb2dPolyline
 66
     1
 10
0.0
 20
0.0
 30
0.0
 70
     1
  0
VERTEX
  5
30DE
330
2F13
100
AcDbEntity
  8
SAISEN
100
AcDbVertex
100
AcDb2dVertex
 10
103.0291360611832
 20
46.90120090954372
 30
0.0
  0
VERTEX
  5
30DF
330
2F13
100
AcDbEntity
  8
SAISEN
100
AcDbVertex
100
AcDb2dVertex
 10
103.0291360611832
 20
244.0440580524009
 30
0.0
  0
VERTEX
  5
30E0
330
2F13
100
AcDbEntity
  8
SAISEN
100
AcDbVertex
100
AcDb2dVertex
 10
29.74342177546899
 20
244.0440580524009
 30
0.0
  0
VERTEX
  5
30E1
330
2F13
100
AcDbEntity
  8
SAISEN
100
AcDbVertex
100
AcDb2dVertex
 10
29.74342177546896
 20
46.90120090954375
 30
0.0
  0
SEQEND
  5
30E2
330
2F13
100
AcDbEntity
  8
SAISEN
  0
TEXT
  5
2F14
330
A
100
AcDbEntity
  8
MOJI
100
AcDbText
 10
117.8308902677415
 20
46.90120090954372
 30
0.0
 40
6.0
  1
※　伝達機構は◎印が標準、○印はオーダーです。
 50
90.0
 41
0.8
  7
0_8
 11
111.8308902677415
 21
46.90120090954372
 31
0.0
100
AcDbText
 73
     3
  0
TEXT
  5
2F15
330
A
100
AcDbEntity
  8
MOJI
100
AcDbText
 10
44.69627891832611
 20
211.8179106729833
 30
0.0
 40
6.0
  1
歯付きベルト
 50
90.0
 41
0.7
  7
0_7
 11
38.6962789183261
 21
211.8179106729833
 31
0.0
100
AcDbText
 73
     3
  0
TEXT
  5
2F16
330
A
100
AcDbEntity
  8
MOJI
100
AcDbText
 10
44.69627891832611
 20
181.142629480972
 30
0.0
 40
6.0
  1
Ｖベルト
 50
90.0
 41
0.8
  7
0_8
 11
38.6962789183261
 21
181.142629480972
 31
0.0
100
AcDbText
 73
     3
  0
TEXT
  5
2F17
330
A
100
AcDbEntity
  8
MOJI
100
AcDbText
 10
36.55342177546893
 20
200.9897473662196
 30
0.0
 40
6.0
  1
伝達機構
 50
90.0
 41
0.8
  7
0_8
 11
30.55342177546893
 21
200.9897473662196
 31
0.0
100
AcDbText
 73
     3
  0
TEXT
  5
2F18
330
A
100
AcDbEntity
  8
MOJI
100
AcDbText
 10
126.4023188391699
 20
46.90120090954372
 30
0.0
 40
6.0
  1
※　台板専用の戸車を使用する為、質量制限をしています。
 50
90.0
 41
0.8
  7
0_8
 11
120.4023188391699
 21
46.90120090954372
 31
0.0
100
AcDbText
 73
     3
  0
TEXT
  5
2F19
330
A
100
AcDbEntity
  8
MOJI
100
AcDbText
 10
101.6962789183262
 20
113.337388906335
 30
0.0
 40
6.0
  1
７５×１
 50
90.0
 41
0.8
  7
0_8
 11
95.69627891832629
 21
113.337388906335
 31
0.0
100
AcDbText
 73
     3
  0
TEXT
  5
2F1A
330
A
100
AcDbEntity
  8
MOJI
100
AcDbText
 10
93.55342177546907
 20
113.337388906335
 30
0.0
 40
6.0
  1
７５×１
 50
90.0
 41
0.8
  7
0_8
 11
87.55342177546905
 21
113.337388906335
 31
0.0
100
AcDbText
 73
     3
  0
TEXT
  5
2F1B
330
A
100
AcDbEntity
  8
MOJI
100
AcDbText
 10
85.4105646326119
 20
113.337388906335
 30
0.0
 40
6.0
  1
７５×１
 50
90.0
 41
0.8
  7
0_8
 11
79.41056463261189
 21
113.337388906335
 31
0.0
100
AcDbText
 73
     3
  0
TEXT
  5
2F1C
330
A
100
AcDbEntity
  8
MOJI
100
AcDbText
 10
77.26770748975479
 20
113.337388906335
 30
0.0
 40
6.0
  1
７５×１
 50
90.0
 41
0.8
  7
0_8
 11
71.2677074897548
 21
113.337388906335
 31
0.0
100
AcDbText
 73
     3
  0
TEXT
  5
2F1D
330
A
100
AcDbEntity
  8
MOJI
100
AcDbText
 10
101.6962789183262
 20
147.545415195258
 30
0.0
 40
6.0
  1
７５×２
 50
90.0
 41
0.8
  7
0_8
 11
95.69627891832629
 21
147.545415195258
 31
0.0
100
AcDbText
 73
     3
  0
TEXT
  5
2F1E
330
A
100
AcDbEntity
  8
MOJI
100
AcDbText
 10
93.55342177546907
 20
147.545415195258
 30
0.0
 40
6.0
  1
７５×２
 50
90.0
 41
0.8
  7
0_8
 11
87.55342177546905
 21
147.545415195258
 31
0.0
100
AcDbText
 73
     3
  0
TEXT
  5
2F1F
330
A
100
AcDbEntity
  8
MOJI
100
AcDbText
 10
85.4105646326119
 20
147.545415195258
 30
0.0
 40
6.0
  1
７５×２
 50
90.0
 41
0.8
  7
0_8
 11
79.41056463261189
 21
147.545415195258
 31
0.0
100
AcDbText
 73
     3
  0
TEXT
  5
2F20
330
A
100
AcDbEntity
  8
MOJI
100
AcDbText
 10
77.26770748975479
 20
147.545415195258
 30
0.0
 40
6.0
  1
７５×２
 50
90.0
 41
0.8
  7
0_8
 11
71.2677074897548
 21
147.545415195258
 31
0.0
100
AcDbText
 73
     3
  0
TEXT
  5
2F21
330
A
100
AcDbEntity
  8
MOJI
100
AcDbText
 10
60.9819932040405
 20
147.545415195258
 30
0.0
 40
6.0
  1
３５×２
 50
90.0
 41
0.8
  7
0_8
 11
54.98199320404051
 21
147.545415195258
 31
0.0
100
AcDbText
 73
     3
  0
TEXT
  5
2F22
330
A
100
AcDbEntity
  8
MOJI
100
AcDbText
 10
60.9819932040405
 20
113.337388906335
 30
0.0
 40
6.0
  1
７０×１
 50
90.0
 41
0.8
  7
0_8
 11
54.98199320404051
 21
113.337388906335
 31
0.0
100
AcDbText
 73
     3
  0
TEXT
  5
2F23
330
A
100
AcDbEntity
  8
MOJI
100
AcDbText
 10
52.83913606118331
 20
147.545415195258
 30
0.0
 40
6.0
  1
３０×２
 50
90.0
 41
0.8
  7
0_8
 11
46.83913606118331
 21
147.545415195258
 31
0.0
100
AcDbText
 73
     3
  0
TEXT
  5
2F24
330
A
100
AcDbEntity
  8
MOJI
100
AcDbText
 10
52.83913606118331
 20
113.337388906335
 30
0.0
 40
6.0
  1
６５×１
 50
90.0
 41
0.8
  7
0_8
 11
46.83913606118331
 21
113.337388906335
 31
0.0
100
AcDbText
 73
     3
  0
TEXT
  5
2F25
330
A
100
AcDbEntity
  8
MOJI
100
AcDbText
 10
44.69627891832611
 20
149.3631433188586
 30
0.0
 40
6.0
  1
引分け
 50
90.0
 41
0.8
  7
0_8
 11
38.6962789183261
 21
149.3631433188586
 31
0.0
100
AcDbText
 73
     3
  0
TEXT
  5
2F26
330
A
100
AcDbEntity
  8
MOJI
100
AcDbText
 10
44.69627891832611
 20
115.3071024583107
 30
0.0
 40
6.0
  1
片引き
 50
90.0
 41
0.8
  7
0_8
 11
38.6962789183261
 21
115.3071024583107
 31
0.0
100
AcDbText
 73
     3
  0
TEXT
  5
2F27
330
A
100
AcDbEntity
  8
MOJI
100
AcDbText
 10
36.55342177546893
 20
115.3071024583107
 30
0.0
 40
6.0
  1
最大ドア質量（kg）
 50
90.0
 41
0.8
  7
0_8
 11
30.55342177546893
 21
115.3071024583107
 31
0.0
100
AcDbText
 73
     3
  0
TEXT
  5
2F28
330
A
100
AcDbEntity
  8
MOJI
100
AcDbText
 10
41.26584554887872
 20
65.71118232210899
 30
0.0
 40
6.0
  1
使用機種
 50
90.0
 41
0.8
  7
0_8
 11
35.26584554887873
 21
65.71118232210899
 31
0.0
100
AcDbText
 73
     3
  0
TEXT
  5
2F29
330
A
100
AcDbEntity
  8
MOJI
100
AcDbText
 10
52.83913606118331
 20
48.52120090954372
 30
0.0
 40
6.0
  1
SOV-60KLTM
 50
90.0
 41
0.8
  7
0_8
 11
46.83913606118331
 21
48.52120090954372
 31
0.0
100
AcDbText
 73
     3
  0
TEXT
  5
2F2A
330
A
100
AcDbEntity
  8
MOJI
100
AcDbText
 10
77.26770748975479
 20
48.52120090954372
 30
0.0
 40
6.0
  1
SOV-150KLTM
 50
90.0
 41
0.8
  7
0_8
 11
71.2677074897548
 21
48.52120090954372
 31
0.0
100
AcDbText
 73
     3
  0
TEXT
  5
2F2B
330
A
100
AcDbEntity
  8
MOJI
100
AcDbText
 10
60.9819932040405
 20
48.52120090954372
 30
0.0
 40
6.0
  1
SOV-70KLDM
 50
90.0
 41
0.8
  7
0_8
 11
54.98199320404051
 21
48.52120090954372
 31
0.0
100
AcDbText
 73
     3
  0
TEXT
  5
2F2C
330
A
100
AcDbEntity
  8
MOJI
100
AcDbText
 10
101.6962789183262
 20
48.52120090954372
 30
0.0
 40
6.0
  1
SOV-200KNB
 50
90.0
 41
0.8
  7
0_8
 11
95.69627891832622
 21
48.52120090954372
 31
0.0
100
AcDbText
 73
     3
  0
TEXT
  5
2F2D
330
A
100
AcDbEntity
  8
MOJI
100
AcDbText
 10
93.55342177546907
 20
48.52120090954372
 30
0.0
 40
6.0
  1
SOV-200KLDM
 50
90.0
 41
0.8
  7
0_8
 11
87.55342177546905
 21
48.52120090954372
 31
0.0
100
AcDbText
 73
     3
  0
TEXT
  5
2F2E
330
A
100
AcDbEntity
  8
MOJI
100
AcDbText
 10
85.41056463261188
 20
48.52120090954372
 30
0.0
 40
6.0
  1
SOV-160KLDM
 50
90.0
 41
0.8
  7
0_8
 11
79.41056463261188
 21
48.52120090954372
 31
0.0
100
AcDbText
 73
     3
  0
CIRCLE
  5
2F2F
330
A
100
AcDbEntity
  8
SAISEN
100
AcDbCircle
 10
99.05636837332544
 20
224.3043424366422
 30
0.0
 40
1.619999999999999
  0
LINE
  5
2F30
330
A
100
AcDbEntity
  8
SAISEN
100
AcDbLine
 10
103.0291360611834
 20
175.4726294809723
 30
0.0
 11
94.88627891832621
 21
209.7583437666865
 31
0.0
  0
CIRCLE
  5
2F31
330
A
100
AcDbEntity
  8
SAISEN
100
AcDbCircle
 10
90.87065408761114
 20
190.0186281509279
 30
0.0
 40
1.619999999999999
  0
CIRCLE
  5
2F32
330
A
100
AcDbEntity
  8
SAISEN
100
AcDbCircle
 10
82.77065408761119
 20
190.0186281509279
 30
0.0
 40
1.619999999999999
  0
CIRCLE
  5
2F33
330
A
100
AcDbEntity
  8
SAISEN
100
AcDbCircle
 10
74.62779694475402
 20
190.0186281509279
 30
0.0
 40
1.619999999999999
  0
CIRCLE
  5
2F34
330
A
100
AcDbEntity
  8
SAISEN
100
AcDbCircle
 10
66.48493980189681
 20
190.0186281509279
 30
0.0
 40
1.619999999999999
  0
CIRCLE
  5
2F35
330
A
100
AcDbEntity
  8
SAISEN
100
AcDbCircle
 10
50.15636837332539
 20
190.0186281509279
 30
0.0
 40
1.619999999999999
  0
CIRCLE
  5
2F36
330
A
100
AcDbEntity
  8
SAISEN
100
AcDbCircle
 10
50.15636837332539
 20
224.3043424366422
 30
0.0
 40
2.43
  0
CIRCLE
  5
2F37
330
A
100
AcDbEntity
  8
SAISEN
100
AcDbCircle
 10
66.48493980189681
 20
224.3043424366422
 30
0.0
 40
2.43
  0
CIRCLE
  5
2F38
330
A
100
AcDbEntity
  8
SAISEN
100
AcDbCircle
 10
74.62779694475402
 20
224.3043424366422
 30
0.0
 40
2.43
  0
CIRCLE
  5
2F39
330
A
100
AcDbEntity
  8
SAISEN
100
AcDbCircle
 10
82.77065408761123
 20
224.3043424366422
 30
0.0
 40
2.43
  0
CIRCLE
  5
2F3A
330
A
100
AcDbEntity
  8
SAISEN
100
AcDbCircle
 10
90.87065408761116
 20
224.3043424366422
 30
0.0
 40
2.43
  0
CIRCLE
  5
2F3B
330
A
100
AcDbEntity
  8
SAISEN
100
AcDbCircle
 10
99.05636837332544
 20
224.3043424366422
 30
0.0
 40
2.43
  0
CIRCLE
  5
2F3C
330
A
100
AcDbEntity
  8
SAISEN
100
AcDbCircle
 10
90.87065408761114
 20
190.0186281509279
 30
0.0
 40
2.43
  0
CIRCLE
  5
2F3D
330
A
100
AcDbEntity
  8
SAISEN
100
AcDbCircle
 10
82.77065408761119
 20
190.0186281509279
 30
0.0
 40
2.43
  0
CIRCLE
  5
2F3E
330
A
100
AcDbEntity
  8
SAISEN
100
AcDbCircle
 10
74.62779694475402
 20
190.0186281509279
 30
0.0
 40
2.43
  0
CIRCLE
  5
2F3F
330
A
100
AcDbEntity
  8
SAISEN
100
AcDbCircle
 10
66.48493980189681
 20
190.0186281509279
 30
0.0
 40
2.43
  0
CIRCLE
  5
2F40
330
A
100
AcDbEntity
  8
SAISEN
100
AcDbCircle
 10
50.15636837332539
 20
190.0186281509279
 30
0.0
 40
2.43
  0
LINE
  5
2F41
330
A
100
AcDbEntity
  8
SAISEN
100
AcDbLine
 10
103.0291360611834
 20
209.7583437666865
 30
0.0
 11
37.88627891832617
 21
209.7583437666865
 31
0.0
  0
LINE
  5
2F42
330
A
100
AcDbEntity
  8
SAISEN
100
AcDbLine
 10
37.88627891832614
 20
141.1869151952579
 30
0.0
 11
103.0291360611834
 21
141.1869151952579
 31
0.0
  0
LINE
  5
2F43
330
A
100
AcDbEntity
  8
SAISEN
100
AcDbLine
 10
29.74342177546896
 20
106.9012009095437
 30
0.0
 11
103.0291360611832
 21
106.9012009095437
 31
0.0
  0
LINE
  5
2F44
330
A
100
AcDbEntity
  8
SAISEN
100
AcDbLine
 10
37.88627891832614
 20
106.9012009095437
 30
0.0
 11
37.88627891832617
 21
244.0440580524009
 31
0.0
  0
LINE
  5
2F45
330
A
100
AcDbEntity
  8
SAISEN
100
AcDbLine
 10
46.02913606118325
 20
46.90120090954375
 30
0.0
 11
46.02913606118328
 21
244.0440580524009
 31
0.0
  0
LINE
  5
2F46
330
A
100
AcDbEntity
  8
SAISEN
100
AcDbLine
 10
54.17199320404044
 20
46.90120090954374
 30
0.0
 11
54.17199320404047
 21
244.0440580524009
 31
0.0
  0
LINE
  5
2F47
330
A
100
AcDbEntity
  8
SAISEN
100
AcDbLine
 10
70.45770748975474
 20
46.90120090954372
 30
0.0
 11
70.45770748975475
 21
244.0440580524009
 31
0.0
  0
LINE
  5
2F48
330
A
100
AcDbEntity
  8
SAISEN
100
AcDbLine
 10
78.60056463261192
 20
46.90120090954372
 30
0.0
 11
78.60056463261194
 21
244.0440580524009
 31
0.0
  0
LINE
  5
2F49
330
A
100
AcDbEntity
  8
SAISEN
100
AcDbLine
 10
86.74342177546911
 20
46.90120090954372
 30
0.0
 11
86.74342177546915
 21
244.0440580524009
 31
0.0
  0
LINE
  5
2F4A
330
A
100
AcDbEntity
  8
SAISEN
100
AcDbLine
 10
94.88627891832621
 20
46.90120090954372
 30
0.0
 11
94.88627891832621
 21
244.0440580524009
 31
0.0
  0
LINE
  5
2F4B
330
A
100
AcDbEntity
  8
SAISEN
100
AcDbLine
 10
103.0291360611834
 20
175.4726294809723
 30
0.0
 11
29.74342177546896
 21
175.4726294809723
 31
0.0
  0
MTEXT
  5
306E
330
A
100
AcDbEntity
  8
MOJI
100
AcDbMText
 10
360.9999999999967
 20
28.50000000000011
 30
0.0
 40
7.0
 41
49.99999999999994
 71
     5
 72
     1
  1
たて断面図　
  7
0_80
1001
ACAD
1000
MTEXTBEGIN
1070
    73
1070
     1
1070
    44
1040
1.0
1070
    74
1070
     0
1000
MTEXTEND
1000
MTEXTBEGIN
1070
    73
1070
     1
1070
    44
1040
1.0
1070
    74
1070
     0
1000
MTEXTEND
  0
MTEXT
  5
306F
330
A
100
AcDbEntity
  8
MOJI
100
AcDbMText
 10
310.9999999999968
 20
29.0
 30
0.0
 40
7.0
 41
50.0
 71
     5
 72
     1
  1
図番３－４
  7
0_80
1001
ACAD
1000
MTEXTBEGIN
1070
    73
1070
     1
1070
    44
1040
1.0
1070
    74
1070
     0
1000
MTEXTEND
1000
MTEXTBEGIN
1070
    73
1070
     1
1070
    44
1040
1.0
1070
    74
1070
     0
1000
MTEXTEND
  0
LINE
  5
3070
330
A
100
AcDbEntity
  8
SAISEN
100
AcDbLine
 10
285.9999999999968
 20
41.00000000000022
 30
0.0
 11
285.9999999999968
 21
17.0
 31
0.0
  0
LINE
  5
3071
330
A
100
AcDbEntity
  8
SAISEN
100
AcDbLine
 10
225.9999999999969
 20
41.00000000000022
 30
0.0
 11
225.9999999999969
 21
17.0
 31
0.0
  0
MTEXT
  5
3072
330
A
100
AcDbEntity
  8
MOJI
100
AcDbMText
 10
185.9999999999969
 20
29.00000000000011
 30
0.0
 40
7.0
 41
80.0
 71
     5
 72
     1
  1
Ｍ３台板
  7
0_8
1001
ACAD
1000
MTEXTBEGIN
1070
    73
1070
     1
1070
    44
1040
1.0
1070
    74
1070
     0
1000
MTEXTEND
1000
MTEXTBEGIN
1070
    73
1070
     1
1070
    44
1040
1.0
1070
    74
1070
     0
1000
MTEXTEND
  0
LINE
  5
3073
330
A
100
AcDbEntity
  8
SAISEN
100
AcDbLine
 10
145.9999999999969
 20
41.00000000000022
 30
0.0
 11
145.9999999999969
 21
17.0
 31
0.0
  0
POLYLINE
  5
3074
330
A
100
AcDbEntity
  8
SAISEN
100
AcDb2dPolyline
 66
     1
 10
0.0
 20
0.0
 30
0.0
 70
     1
  0
VERTEX
  5
30E3
330
3074
100
AcDbEntity
  8
SAISEN
100
AcDbVertex
100
AcDb2dVertex
 10
35.99999999999695
 20
17.0
 30
0.0
  0
VERTEX
  5
30E4
330
3074
100
AcDbEntity
  8
SAISEN
100
AcDbVertex
100
AcDb2dVertex
 10
385.9999999999968
 20
17.0
 30
0.0
  0
VERTEX
  5
30E5
330
3074
100
AcDbEntity
  8
SAISEN
100
AcDbVertex
100
AcDb2dVertex
 10
385.9999999999968
 20
41.00000000000022
 30
0.0
  0
VERTEX
  5
30E6
330
3074
100
AcDbEntity
  8
SAISEN
100
AcDbVertex
100
AcDb2dVertex
 10
35.99999999999695
 20
41.00000000000022
 30
0.0
  0
SEQEND
  5
30E7
330
3074
100
AcDbEntity
  8
SAISEN
  0
MTEXT
  5
3076
330
A
100
AcDbEntity
  8
MOJI
100
AcDbMText
 10
90.89194499017375
 20
28.52455795677803
 30
0.0
 40
6.5
 41
110.0
 71
     5
 72
     1
  1
ステンレスサッシ　枠見込１２０mm\Pレールタイトシステム納り
  7
0_8
1001
ACAD
1000
MTEXTBEGIN
1070
    73
1070
     1
1070
    44
1040
1.0
1070
    74
1070
     0
1000
MTEXTEND
1000
MTEXTBEGIN
1070
    73
1070
     1
1070
    44
1040
1.0
1070
    74
1070
     0
1000
MTEXTEND
  0
MTEXT
  5
3091
330
A
100
AcDbEntity
  8
MOJI
100
AcDbMText
 10
255.9999999999968
 20
29.00000000000011
 30
0.0
 40
7.0
 41
60.0
 71
     5
 72
     1
  1
片引き又は両引き
  7
0_80
1001
ACAD
1000
MTEXTBEGIN
1070
    73
1070
     1
1070
    44
1040
1.0
1070
    74
1070
     0
1000
MTEXTEND
1000
MTEXTBEGIN
1070
    73
1070
     1
1070
    44
1040
1.0
1070
    74
1070
     0
1000
MTEXTEND
  0
VIEWPORT
  5
643
102
{ACAD_XDICTIONARY
360
30BB
102
}
330
B
100
AcDbEntity
 67
     1
  8
0
100
AcDbViewport
 10
198.0628952545769
 20
285.1953640037304
 30
0.0
 40
1078.243506057541
 41
628.2954051513671
 68
     1
 69
     1
1001
ACAD
1000
MVIEW
1002
{
1070
    16
1010
0.0
1020
0.0
1030
0.0
1010
0.0
1020
0.0
1030
1.0
1040
0.0
1040
628.2954051513671
1040
198.0628952545769
1040
285.1953640037304
1040
50.0
1040
0.0
1040
0.0
1070
     0
1070
   100
1070
     1
1070
     1
1070
     0
1070
     0
1070
     0
1070
     0
1040
0.0
1040
0.0
1040
0.0
1040
10.0
1040
10.0
1040
10.0
1040
10.0
1070
     0
1002
{
1002
}
1002
}
  0
VIEWPORT
  5
30A5
102
{ACAD_XDICTIONARY
360
30C1
102
}
330
B
100
AcDbEntity
 67
     1
  8
DEFPOINTS
100
AcDbViewport
 10
198.0628962082512
 20
285.1953630500561
 30
0.0
 40
396.4516582489013
 41
570.3569965362548
 68
     2
 69
     2
1001
ACAD
1000
MVIEW
1002
{
1070
    16
1010
0.0
1020
0.0
1030
0.0
1010
0.0
1020
0.0
1030
1.0
1040
0.0
1040
570.3569965362548
1040
210.0
1040
297.0
1040
50.0
1040
0.0
1040
0.0
1070
     0
1070
   100
1070
     1
1070
     1
1070
     0
1070
     0
1070
     0
1070
     0
1040
0.0
1040
0.0
1040
0.0
1040
1.0
1040
1.0
1040
0.0
1040
0.0
1070
     0
1002
{
1002
}
1002
}
  0
ENDSEC
  0
SECTION
  2
OBJECTS
  0
DICTIONARY
  5
19
330
0
100
AcDbDictionary
  3
ACAD_COLOR
350
5F7
  3
ACAD_GROUP
350
1A
  3
ACAD_LAYOUT
350
566
  3
ACAD_MATERIAL
350
5F6
  3
ACAD_MLINESTYLE
350
1B
  3
ACAD_PLOTSETTINGS
350
567
  3
ACADDIM
350
20AE
  3
ASE_INDEX_DICTIONARY
350
3059
1001
ACAD
1000
TREAT_AS_HARD
1070
     0
1000
TREAT_AS_HARD
1070
     0
1000
TREAT_AS_HARD
1070
     0
  0
DICTIONARY
  5
305E
330
2
100
AcDbDictionary
  3
ACAD_LAYERSTATES
350
305F
1001
ACAD
1000
TREAT_AS_HARD
1070
     1
  0
DICTIONARY
  5
2FDC
330
A
100
AcDbDictionary
  3
ACAD_LAYOUTSELFREF
350
30C9
1001
ACAD
1000
TREAT_AS_HARD
1070
     0
1000
TREAT_AS_HARD
1070
     1
  0
DICTIONARY
  5
2FDE
330
B
100
AcDbDictionary
  3
ACAD_LAYOUTSELFREF
350
30CA
1001
ACAD
1000
TREAT_AS_HARD
1070
     0
1000
TREAT_AS_HARD
1070
     1
  0
DICTIONARY
  5
30BB
330
643
100
AcDbDictionary
  3
ACAD_XREC_ROUNDTRIP
350
30BC
1001
ACAD
1000
TREAT_AS_HARD
1070
     1
  0
DICTIONARY
  5
30C1
330
30A5
100
AcDbDictionary
  3
ACAD_XREC_ROUNDTRIP
350
30C2
1001
ACAD
1000
TREAT_AS_HARD
1070
     1
  0
DICTIONARY
  5
5F7
102
{ACAD_REACTORS
330
19
102
}
330
19
100
AcDbDictionary
1001
ACAD
1000
TREAT_AS_HARD
1070
     0
1000
TREAT_AS_HARD
1070
     0
1000
TREAT_AS_HARD
1070
     0
  0
DICTIONARY
  5
1A
102
{ACAD_REACTORS
330
19
102
}
330
19
100
AcDbDictionary
  3
DAGROUP391
350
391
  3
DAGROUP395
350
395
  3
DAGROUP398
350
398
  3
DAGROUP39B
350
39B
  3
DAGROUP3A1
350
3A1
  3
DAGROUP3A7
350
3A7
  3
DAGROUP3AD
350
3AD
  3
DAGROUP3B3
350
3B3
  3
DAGROUP3B9
350
3B9
  3
DAGROUP3BF
350
3BF
  3
DAGROUP3C5
350
3C5
  3
DAGROUP3CB
350
3CB
  3
DAGROUP3D1
350
3D1
  3
DAGROUP3D7
350
3D7
  3
DAGROUP3DD
350
3DD
  3
DAGROUP3E1
350
3E1
  3
DAGROUP3E5
350
3E5
  3
DAGROUP3E9
350
3E9
  3
DAGROUP3ED
350
3ED
  3
DAGROUP3F1
350
3F1
  3
DAGROUP3F5
350
3F5
  3
DAGROUP3F9
350
3F9
1001
ACAD
1000
TREAT_AS_HARD
1070
     0
1000
TREAT_AS_HARD
1070
     0
1000
TREAT_AS_HARD
1070
     0
  0
DICTIONARY
  5
566
102
{ACAD_REACTORS
330
19
102
}
330
19
100
AcDbDictionary
1001
ACAD
1000
TREAT_AS_HARD
1070
     0
1000
TREAT_AS_HARD
1070
     0
1000
TREAT_AS_HARD
1070
     0
  0
DICTIONARY
  5
5F6
102
{ACAD_REACTORS
330
19
102
}
330
19
100
AcDbDictionary
1001
ACAD
1000
TREAT_AS_HARD
1070
     0
1000
TREAT_AS_HARD
1070
     0
1000
TREAT_AS_HARD
1070
     0
  0
DICTIONARY
  5
1B
102
{ACAD_REACTORS
330
19
102
}
330
19
100
AcDbDictionary
  3
STANDARD
350
1C
1001
ACAD
1000
TREAT_AS_HARD
1070
     0
1000
TREAT_AS_HARD
1070
     0
1000
TREAT_AS_HARD
1070
     0
  0
DICTIONARY
  5
567
102
{ACAD_REACTORS
330
19
102
}
330
19
100
AcDbDictionary
1001
ACAD
1000
TREAT_AS_HARD
1070
     0
1000
TREAT_AS_HARD
1070
     0
1000
TREAT_AS_HARD
1070
     0
  0
XRECORD
  5
20AE
102
{ACAD_REACTORS
330
19
102
}
330
19
100
AcDbXrecord
 90
   990106
  3

 60
     0
 61
     0
 62
     4
 63
     4
 64
     1
 65
     0
 66
     0
 67
     3
 68
     1
 69
     0
 70
     0
 71
     0
 72
     0
 40
0.0
170
     2
340
20B0
  0
DICTIONARY
  5
3059
102
{ACAD_REACTORS
330
19
102
}
330
19
100
AcDbDictionary
  3
ASEBLOCKHIERARCHYINDEXRECORD
350
305A
1001
DCO15
1040
1508669045.078
1001
ACAD
1000
TREAT_AS_HARD
1070
     0
  0
DICTIONARY
  5
305F
102
{ACAD_REACTORS
330
305E
102
}
330
305E
100
AcDbDictionary
1001
ACAD
1000
TREAT_AS_HARD
1070
     0
  0
XRECORD
  5
30C9
102
{ACAD_REACTORS
330
2FDC
102
}
330
2FDC
100
AcDbXrecord
340
A
  0
XRECORD
  5
30CA
102
{ACAD_REACTORS
330
2FDE
102
}
330
2FDE
100
AcDbXrecord
340
B
  0
XRECORD
  5
30BC
102
{ACAD_REACTORS
330
30BB
102
}
330
30BB
100
AcDbXrecord
102
SHADEPLOT
 70
     0
  0
XRECORD
  5
30C2
102
{ACAD_REACTORS
330
30C1
102
}
330
30C1
100
AcDbXrecord
102
SHADEPLOT
 70
     0
  0
GROUP
  5
391
102
{ACAD_REACTORS
330
1A
102
}
330
1A
100
AcDbGroup
300

 70
     0
 71
     1
  0
GROUP
  5
395
102
{ACAD_REACTORS
330
1A
102
}
330
1A
100
AcDbGroup
300

 70
     0
 71
     1
  0
GROUP
  5
398
102
{ACAD_REACTORS
330
1A
102
}
330
1A
100
AcDbGroup
300

 70
     0
 71
     1
  0
GROUP
  5
39B
102
{ACAD_REACTORS
330
1A
102
}
330
1A
100
AcDbGroup
300

 70
     0
 71
     1
  0
GROUP
  5
3A1
102
{ACAD_REACTORS
330
1A
102
}
330
1A
100
AcDbGroup
300

 70
     0
 71
     1
  0
GROUP
  5
3A7
102
{ACAD_REACTORS
330
1A
102
}
330
1A
100
AcDbGroup
300

 70
     0
 71
     1
  0
GROUP
  5
3AD
102
{ACAD_REACTORS
330
1A
102
}
330
1A
100
AcDbGroup
300

 70
     0
 71
     1
  0
GROUP
  5
3B3
102
{ACAD_REACTORS
330
1A
102
}
330
1A
100
AcDbGroup
300

 70
     0
 71
     1
  0
GROUP
  5
3B9
102
{ACAD_REACTORS
330
1A
102
}
330
1A
100
AcDbGroup
300

 70
     0
 71
     1
  0
GROUP
  5
3BF
102
{ACAD_REACTORS
330
1A
102
}
330
1A
100
AcDbGroup
300

 70
     0
 71
     1
  0
GROUP
  5
3C5
102
{ACAD_REACTORS
330
1A
102
}
330
1A
100
AcDbGroup
300

 70
     0
 71
     1
  0
GROUP
  5
3CB
102
{ACAD_REACTORS
330
1A
102
}
330
1A
100
AcDbGroup
300

 70
     0
 71
     1
  0
GROUP
  5
3D1
102
{ACAD_REACTORS
330
1A
102
}
330
1A
100
AcDbGroup
300

 70
     0
 71
     1
  0
GROUP
  5
3D7
102
{ACAD_REACTORS
330
1A
102
}
330
1A
100
AcDbGroup
300

 70
     0
 71
     1
  0
GROUP
  5
3DD
102
{ACAD_REACTORS
330
1A
102
}
330
1A
100
AcDbGroup
300

 70
     0
 71
     1
  0
GROUP
  5
3E1
102
{ACAD_REACTORS
330
1A
102
}
330
1A
100
AcDbGroup
300

 70
     0
 71
     1
  0
GROUP
  5
3E5
102
{ACAD_REACTORS
330
1A
102
}
330
1A
100
AcDbGroup
300

 70
     0
 71
     1
  0
GROUP
  5
3E9
102
{ACAD_REACTORS
330
1A
102
}
330
1A
100
AcDbGroup
300

 70
     0
 71
     1
  0
GROUP
  5
3ED
102
{ACAD_REACTORS
330
1A
102
}
330
1A
100
AcDbGroup
300

 70
     0
 71
     1
  0
GROUP
  5
3F1
102
{ACAD_REACTORS
330
1A
102
}
330
1A
100
AcDbGroup
300

 70
     0
 71
     1
  0
GROUP
  5
3F5
102
{ACAD_REACTORS
330
1A
102
}
330
1A
100
AcDbGroup
300

 70
     0
 71
     1
  0
GROUP
  5
3F9
102
{ACAD_REACTORS
330
1A
102
}
330
1A
100
AcDbGroup
300

 70
     0
 71
     1
  0
MLINESTYLE
  5
1C
102
{ACAD_REACTORS
330
1B
102
}
330
1B
100
AcDbMlineStyle
  2
STANDARD
 70
     0
  3

 62
     0
 51
90.00000000000019
 52
90.00000000000019
 71
     2
 49
0.5
 62
   256
  6
BYLAYER
 49
-0.5
 62
   256
  6
BYLAYER
  0
XRECORD
  5
305A
102
{ACAD_REACTORS
330
3059
102
}
330
3059
100
AcDbXrecord
330
2580
330
2581
330
2578
330
2579
330
256F
330
2570
330
2564
330
2565
330
255B
330
255C
330
254F
330
2550
330
2547
330
2548
330
253C
330
253D
330
2533
330
2534
330
2528
330
2529
330
2660
330
2661
330
2654
330
2655
330
264B
330
264C
330
2502
330
2503
330
24F6
330
24F7
330
24ED
330
24EE
330
24E4
330
24E5
330
24DC
330
24DD
330
2804
330
2805
330
2691
330
2692
330
2FFB
330
2FFC
330
24AC
330
24AD
330
3003
330
3004
330
2498
330
2499
330
2488
330
2489
330
2FC4
330
2FC5
330
27B9
330
27BA
330
279C
330
279D
330
3012
330
3013
330
2599
330
259A
  0
ENDSEC
  0
EOF
