  0
SECTION
  2
HEADER
  9
$ACADVER
  1
AC1012
  9
$DWGCODEPAGE
  3
dos932
  9
$INSBASE
 10
0.0
 20
0.0
 30
0.0
  9
$EXTMIN
 10
0.0
 20
0.0
 30
0.0
  9
$EXTMAX
 10
420.0
 20
594.0
 30
0.0
  9
$LIMMIN
 10
0.0
 20
0.0
  9
$LIMMAX
 10
420.0
 20
594.0
  9
$ORTHOMODE
 70
     1
  9
$REGENMODE
 70
     1
  9
$FILLMODE
 70
     1
  9
$QTEXTMODE
 70
     0
  9
$MIRRTEXT
 70
     1
  9
$DRAGMODE
 70
     2
  9
$LTSCALE
 40
0.3
  9
$OSMODE
 70
    37
  9
$ATTMODE
 70
     1
  9
$TEXTSIZE
 40
0.2
  9
$TRACEWID
 40
0.05
  9
$TEXTSTYLE
  7
SUNPOU
  9
$CLAYER
  8
DEFPOINTS
  9
$CELTYPE
  6
BYLAYER
  9
$CECOLOR
 62
   256
  9
$CELTSCALE
 40
1.0
  9
$DELOBJ
 70
     1
  9
$DISPSILH
 70
     0
  9
$DIMSCALE
 40
2.0
  9
$DIMASZ
 40
2.5
  9
$DIMEXO
 40
1.5
  9
$DIMDLI
 40
0.0
  9
$DIMRND
 40
0.0
  9
$DIMDLE
 40
0.0
  9
$DIMEXE
 40
1.0
  9
$DIMTP
 40
0.0
  9
$DIMTM
 40
0.0
  9
$DIMTXT
 40
2.5
  9
$DIMCEN
 40
0.0
  9
$DIMTSZ
 40
0.0
  9
$DIMTOL
 70
     0
  9
$DIMLIM
 70
     0
  9
$DIMTIH
 70
     0
  9
$DIMTOH
 70
     0
  9
$DIMSE1
 70
     0
  9
$DIMSE2
 70
     0
  9
$DIMTAD
 70
     1
  9
$DIMZIN
 70
     8
  9
$DIMBLK
  1
OPEN30
  9
$DIMASO
 70
     1
  9
$DIMSHO
 70
     1
  9
$DIMPOST
  1

  9
$DIMAPOST
  1

  9
$DIMALT
 70
     0
  9
$DIMALTD
 70
     2
  9
$DIMALTF
 40
25.4
  9
$DIMLFAC
 40
1.0
  9
$DIMTOFL
 70
     1
  9
$DIMTVP
 40
0.0
  9
$DIMTIX
 70
     0
  9
$DIMSOXD
 70
     0
  9
$DIMSAH
 70
     0
  9
$DIMBLK1
  1

  9
$DIMBLK2
  1

  9
$DIMSTYLE
  2
SUNPOU_2
  9
$DIMCLRD
 70
   256
  9
$DIMCLRE
 70
   256
  9
$DIMCLRT
 70
   256
  9
$DIMTFAC
 40
1.0
  9
$DIMGAP
 40
1.0
  9
$DIMJUST
 70
     0
  9
$DIMSD1
 70
     0
  9
$DIMSD2
 70
     0
  9
$DIMTOLJ
 70
     1
  9
$DIMTZIN
 70
     0
  9
$DIMALTZ
 70
     0
  9
$DIMALTTZ
 70
     0
  9
$DIMFIT
 70
     3
  9
$DIMUPT
 70
     0
  9
$DIMUNIT
 70
     2
  9
$DIMDEC
 70
     1
  9
$DIMTDEC
 70
     1
  9
$DIMALTU
 70
     2
  9
$DIMALTTD
 70
     2
  9
$DIMTXSTY
  7
SUNPOU
  9
$DIMAUNIT
 70
     0
  9
$LUNITS
 70
     2
  9
$LUPREC
 70
     4
  9
$SKETCHINC
 40
0.1
  9
$FILLETRAD
 40
0.0
  9
$AUNITS
 70
     0
  9
$AUPREC
 70
     0
  9
$MENU
  1
acad
  9
$ELEVATION
 40
0.0
  9
$PELEVATION
 40
0.0
  9
$THICKNESS
 40
0.0
  9
$LIMCHECK
 70
     0
  9
$BLIPMODE
 70
     0
  9
$CHAMFERA
 40
0.0
  9
$CHAMFERB
 40
0.0
  9
$CHAMFERC
 40
0.0
  9
$CHAMFERD
 40
0.0
  9
$SKPOLY
 70
     0
  9
$TDCREATE
 40
2444972.375000000
  9
$TDUPDATE
 40
2453266.401798854
  9
$TDINDWG
 40
0.4236011921
  9
$TDUSRTIMER
 40
0.4236011921
  9
$USRTIMER
 70
     1
  9
$ANGBASE
 50
0.0
  9
$ANGDIR
 70
     0
  9
$PDMODE
 70
     0
  9
$PDSIZE
 40
1.0
  9
$PLINEWID
 40
0.0
  9
$COORDS
 70
     1
  9
$SPLFRAME
 70
     0
  9
$SPLINETYPE
 70
     6
  9
$SPLINESEGS
 70
     8
  9
$ATTDIA
 70
     0
  9
$ATTREQ
 70
     1
  9
$HANDLING
 70
-16383
  9
$HANDSEED
  5
24C3
  9
$SURFTAB1
 70
     6
  9
$SURFTAB2
 70
     6
  9
$SURFTYPE
 70
     6
  9
$SURFU
 70
     6
  9
$SURFV
 70
     6
  9
$UCSNAME
  2

  9
$UCSORG
 10
0.0
 20
0.0
 30
0.0
  9
$UCSXDIR
 10
1.0
 20
0.0
 30
0.0
  9
$UCSYDIR
 10
0.0
 20
1.0
 30
0.0
  9
$PUCSNAME
  2

  9
$PUCSORG
 10
0.0
 20
0.0
 30
0.0
  9
$PUCSXDIR
 10
1.0
 20
0.0
 30
0.0
  9
$PUCSYDIR
 10
0.0
 20
1.0
 30
0.0
  9
$USERI1
 70
     0
  9
$USERI2
 70
     0
  9
$USERI3
 70
     0
  9
$USERI4
 70
     0
  9
$USERI5
 70
     0
  9
$USERR1
 40
0.0
  9
$USERR2
 40
0.0
  9
$USERR3
 40
0.0
  9
$USERR4
 40
0.0
  9
$USERR5
 40
0.0
  9
$WORLDVIEW
 70
     1
  9
$SHADEDGE
 70
     3
  9
$SHADEDIF
 70
    70
  9
$TILEMODE
 70
     1
  9
$MAXACTVP
 70
    16
  9
$PINSBASE
 10
0.0
 20
0.0
 30
0.0
  9
$PLIMCHECK
 70
     0
  9
$PEXTMIN
 10
-0.1629396976745738
 20
-0.0031352180712929
 30
-0.0000000000000058
  9
$PEXTMAX
 10
396.3055218455004
 20
570.3780354545616
 30
0.0000000000000104
  9
$PLIMMIN
 10
-11.91093707221789
 20
-11.75112877775568
  9
$PLIMMAX
 10
408.0535173126142
 20
582.1260309216754
  9
$UNITMODE
 70
     0
  9
$VISRETAIN
 70
     0
  9
$PLINEGEN
 70
     1
  9
$PSLTSCALE
 70
     0
  9
$TREEDEPTH
 70
  3020
  9
$PICKSTYLE
 70
     1
  9
$CMLSTYLE
  2
STANDARD
  9
$CMLJUST
 70
     0
  9
$CMLSCALE
 40
1.0
  9
$SAVEIMAGES
 70
     1
  0
ENDSEC
  0
SECTION
  2
CLASSES
  0
CLASS
  1
LWPOLYLINE
  2
AcDbPolyline
  3
AutoCAD 2000
 90
    32768
280
     0
281
     1
  0
CLASS
  1
IMAGE
  2
AcDbRasterImage
  3
ISM
 90
    32895
280
     0
281
     1
  0
CLASS
  1
OLE2FRAME
  2
AcDbOle2Frame
  3
AutoCAD 2000
 90
    32768
280
     0
281
     1
  0
CLASS
  1
HATCH
  2
AcDbHatch
  3
AutoCAD 2000
 90
    32768
280
     0
281
     1
  0
CLASS
  1
DICTIONARYVAR
  2
AcDbDictionaryVar
  3
AutoCAD 2000
 90
    32768
280
     0
281
     0
  0
CLASS
  1
RASTERVARIABLES
  2
AcDbRasterVariables
  3
ISM
 90
    32768
280
     0
281
     0
  0
CLASS
  1
IMAGEDEF
  2
AcDbRasterImageDef
  3
ISM
 90
    32768
280
     0
281
     0
  0
CLASS
  1
IMAGEDEF_REACTOR
  2
AcDbRasterImageDefReactor
  3
ISM
 90
    32769
280
     0
281
     0
  0
CLASS
  1
IDBUFFER
  2
AcDbIdBuffer
  3
AutoCAD 2000
 90
    32768
280
     0
281
     0
  0
CLASS
  1
SPATIAL_FILTER
  2
AcDbSpatialFilter
  3
AutoCAD 2000
 90
    32768
280
     0
281
     0
  0
CLASS
  1
XRECORD
  2
AcDbXrecord
  3
AutoCAD 2000
 90
    32768
280
     0
281
     0
  0
CLASS
  1
SORTENTSTABLE
  2
AcDbSortentsTable
  3
AutoCAD 2000
 90
    32768
280
     0
281
     0
  0
CLASS
  1
LAYER_INDEX
  2
AcDbLayerIndex
  3
AutoCAD 2000
 90
    32768
280
     0
281
     0
  0
CLASS
  1
SPATIAL_INDEX
  2
AcDbSpatialIndex
  3
AutoCAD 2000
 90
    32768
280
     0
281
     0
  0
CLASS
  1
OBJECT_PTR
  2
CAseDLPNTableRecord
  3
ASE-LPNTableRecord
 90
    32769
280
     0
281
     0
  0
CLASS
  1
ACDBDICTIONARYWDFLT
  2
AcDbDictionaryWithDefault
  3
AutoCAD 2000
 90
    32768
280
     0
281
     0
  0
CLASS
  1
ACDBPLACEHOLDER
  2
AcDbPlaceHolder
  3
AutoCAD 2000
 90
    32768
280
     0
281
     0
  0
CLASS
  1
LAYOUT
  2
AcDbLayout
  3
AutoCAD 2000
 90
    32768
280
     0
281
     0
  0
CLASS
  1
LONG_TRANSACTION
  2
AcDbLongTransaction
  3
AutoCAD 2000
 90
    32768
280
     0
281
     0
  0
CLASS
  1
LWPOLYLINE
  2
AcDbPolyline
  3
AutoCAD 2000
 90
    32768
280
     0
281
     1
  0
CLASS
  1
HATCH
  2
AcDbHatch
  3
AutoCAD 2000
 90
    32768
280
     0
281
     1
  0
CLASS
  1
XRECORD
  2
AcDbXrecord
  3
AutoCAD 2000
 90
    32768
280
     0
281
     0
  0
CLASS
  1
LONG_TRANSACTION
  2
AcDbLongTransaction
  3
AutoCAD 2000
 90
    32768
280
     0
281
     0
  0
CLASS
  1
LWPOLYLINE
  2
AcDbPolyline
  3
AutoCAD 2000
 90
    32768
280
     0
281
     1
  0
CLASS
  1
HATCH
  2
AcDbHatch
  3
AutoCAD 2000
 90
    32768
280
     0
281
     1
  0
CLASS
  1
XRECORD
  2
AcDbXrecord
  3
AutoCAD 2000
 90
    32768
280
     0
281
     0
  0
CLASS
  1
LONG_TRANSACTION
  2
AcDbLongTransaction
  3
AutoCAD 2000
 90
    32768
280
     0
281
     0
  0
CLASS
  1
LWPOLYLINE
  2
AcDbPolyline
  3
AutoCAD 2000
 90
    32768
280
     0
281
     1
  0
CLASS
  1
HATCH
  2
AcDbHatch
  3
AutoCAD 2000
 90
    32768
280
     0
281
     1
  0
CLASS
  1
XRECORD
  2
AcDbXrecord
  3
AutoCAD 2000
 90
    32768
280
     0
281
     0
  0
ENDSEC
  0
SECTION
  2
TABLES
  0
TABLE
  2
VPORT
  5
7
330
0
100
AcDbSymbolTable
 70
     2
  0
VPORT
  5
24A2
330
7
100
AcDbSymbolTableRecord
100
AcDbViewportTableRecord
  2
*ACTIVE
 70
     0
 10
0.0
 20
0.0
 11
1.0
 21
1.0
 12
229.3281044228862
 22
297.0000027661125
 13
0.0
 23
0.0
 14
1.0
 24
1.0
 15
0.0
 25
0.0
 16
0.0
 26
0.0
 36
1.0
 17
0.0
 27
0.0
 37
0.0
 40
601.377866905658
 41
1.780442804428044
 42
50.0
 43
0.0
 44
0.0
 50
0.0
 51
0.0
 71
     0
 72
   100
 73
     1
 74
     1
 75
     0
 76
     0
 77
     0
 78
     0
  0
ENDTAB
  0
TABLE
  2
LTYPE
  5
4
330
0
100
AcDbSymbolTable
 70
     4
  0
LTYPE
  5
11
330
4
100
AcDbSymbolTableRecord
100
AcDbLinetypeTableRecord
  2
BYBLOCK
 70
     0
  3

 72
    65
 73
     0
 40
0.0
  0
LTYPE
  5
12
330
4
100
AcDbSymbolTableRecord
100
AcDbLinetypeTableRecord
  2
BYLAYER
 70
     0
  3

 72
    65
 73
     0
 40
0.0
  0
LTYPE
  5
13
330
4
100
AcDbSymbolTableRecord
100
AcDbLinetypeTableRecord
  2
CONTINUOUS
 70
     0
  3
Solid line
 72
    65
 73
     0
 40
0.0
  0
LTYPE
  5
21
330
4
100
AcDbSymbolTableRecord
100
AcDbLinetypeTableRecord
  2
DASHED2
 70
     0
  3
Dashed (.5x) _ _ _ _ _ _ _ _ _ _ _ _ _ _ _ _ _
 72
    65
 73
     2
 40
9.524999999999996
 49
6.349999999999997
 74
     0
 49
-3.174999999999998
 74
     0
  0
LTYPE
  5
715
330
4
100
AcDbSymbolTableRecord
100
AcDbLinetypeTableRecord
  2
CENTER2
 70
     0
  3
Center (.5x) ___ _ ___ _ ___ _ ___ _ ___ _ ___
 72
    65
 73
     4
 40
28.57499999999999
 49
19.05
 74
     0
 49
-3.174999999999998
 74
     0
 49
3.174999999999998
 74
     0
 49
-3.174999999999998
 74
     0
  0
LTYPE
  5
716
330
4
100
AcDbSymbolTableRecord
100
AcDbLinetypeTableRecord
  2
PHANTOM2
 70
     0
  3
Phantom (.5x) ___ _ _ ___ _ _ ___ _ _ ___ _ _
 72
    65
 73
     6
 40
31.75
 49
15.875
 74
     0
 49
-3.174999999999998
 74
     0
 49
3.174999999999998
 74
     0
 49
-3.174999999999998
 74
     0
 49
3.174999999999998
 74
     0
 49
-3.174999999999998
 74
     0
  0
ENDTAB
  0
TABLE
  2
LAYER
  5
2
102
{ACAD_XDICTIONARY
360
2434
102
}
330
0
100
AcDbSymbolTable
 70
    13
  0
LAYER
  5
14
330
2
100
AcDbSymbolTableRecord
100
AcDbLayerTableRecord
  2
0
 70
     0
 62
     7
  6
CONTINUOUS
  0
LAYER
  5
717
330
2
100
AcDbSymbolTableRecord
100
AcDbLayerTableRecord
  2
DEFPOINTS
 70
     0
 62
     7
  6
CONTINUOUS
  0
LAYER
  5
718
330
2
100
AcDbSymbolTableRecord
100
AcDbLayerTableRecord
  2
03
 70
     0
 62
     3
  6
CONTINUOUS
  0
LAYER
  5
719
330
2
100
AcDbSymbolTableRecord
100
AcDbLayerTableRecord
  2
04
 70
     0
 62
     4
  6
CONTINUOUS
  0
LAYER
  5
71B
330
2
100
AcDbSymbolTableRecord
100
AcDbLayerTableRecord
  2
CHUSIN
 70
     0
 62
     6
  6
CENTER2
  0
LAYER
  5
71C
330
2
100
AcDbSymbolTableRecord
100
AcDbLayerTableRecord
  2
HIKIDASI
 70
     0
 62
     6
  6
CONTINUOUS
  0
LAYER
  5
71D
330
2
100
AcDbSymbolTableRecord
100
AcDbLayerTableRecord
  2
KAKURE
 70
     0
 62
     6
  6
DASHED2
  0
LAYER
  5
71E
330
2
100
AcDbSymbolTableRecord
100
AcDbLayerTableRecord
  2
MOJI
 70
     0
 62
     3
  6
CONTINUOUS
  0
LAYER
  5
720
330
2
100
AcDbSymbolTableRecord
100
AcDbLayerTableRecord
  2
SUNPOU
 70
     0
 62
     6
  6
CONTINUOUS
  0
LAYER
  5
114F
330
2
100
AcDbSymbolTableRecord
100
AcDbLayerTableRecord
  2
SAISEN
 70
     0
 62
     3
  6
CONTINUOUS
  0
LAYER
  5
18F8
330
2
100
AcDbSymbolTableRecord
100
AcDbLayerTableRecord
  2
02
 70
     0
 62
     2
  6
CONTINUOUS
  0
LAYER
  5
18FD
330
2
100
AcDbSymbolTableRecord
100
AcDbLayerTableRecord
  2
SOUZOU
 70
     0
 62
     6
  6
PHANTOM2
  0
LAYER
  5
2242
330
2
100
AcDbSymbolTableRecord
100
AcDbLayerTableRecord
  2
06
 70
     0
 62
     6
  6
CONTINUOUS
  0
ENDTAB
  0
TABLE
  2
STYLE
  5
3
330
0
100
AcDbSymbolTable
 70
     5
  0
STYLE
  5
17
330
3
100
AcDbSymbolTableRecord
100
AcDbTextStyleTableRecord
  2
STANDARD
 70
     0
 40
0.0
 41
0.8
 50
0.0
 71
     0
 42
10.0
  3
txt.shx
  4
bigfont.shx
  0
STYLE
  5
72B
330
3
100
AcDbSymbolTableRecord
100
AcDbTextStyleTableRecord
  2
SUNPOU
 70
     0
 40
0.0
 41
0.8
 50
0.0
 71
     0
 42
0.2
  3
txt.shx
  4
extfont.shx
  0
STYLE
  5
732
330
3
100
AcDbSymbolTableRecord
100
AcDbTextStyleTableRecord
  2
0_8
 70
     0
 40
0.0
 41
0.8
 50
0.0
 71
     0
 42
7.0
  3
txt.shx
  4
extfont.shx
  0
STYLE
  5
76A
330
3
100
AcDbSymbolTableRecord
100
AcDbTextStyleTableRecord
  2
0_7
 70
     0
 40
0.0
 41
0.7
 50
0.0
 71
     0
 42
0.2
  3
txt.shx
  4
extfont.shx
  0
STYLE
  5
2432
330
3
100
AcDbSymbolTableRecord
100
AcDbTextStyleTableRecord
  2
0_80
 70
     0
 40
0.0
 41
0.8
 50
0.0
 71
     0
 42
7.0
  3
txt.shx
  4
extfont.shx
  0
ENDTAB
  0
TABLE
  2
VIEW
  5
5
330
0
100
AcDbSymbolTable
 70
     1
  0
VIEW
  5
136
330
5
100
AcDbSymbolTableRecord
100
AcDbViewTableRecord
  2
QQQQ
 70
     0
 40
618.7999999999997
 10
-6.0
 20
-1.0
 41
419.8999999999998
 11
0.0
 21
0.0
 31
1.0
 12
100.0
 22
100.0
 32
0.0
 42
50.0
 43
0.0
 44
0.0
 50
0.0
 71
     0
  0
ENDTAB
  0
TABLE
  2
UCS
  5
6
330
0
100
AcDbSymbolTable
 70
     0
  0
ENDTAB
  0
TABLE
  2
APPID
  5
8
330
0
100
AcDbSymbolTable
 70
     3
  0
APPID
  5
16
330
8
100
AcDbSymbolTableRecord
100
AcDbRegAppTableRecord
  2
ACAD
 70
     0
  0
APPID
  5
C48
330
8
100
AcDbSymbolTableRecord
100
AcDbRegAppTableRecord
  2
DCO15
 70
     0
  0
APPID
  5
2357
330
8
100
AcDbSymbolTableRecord
100
AcDbRegAppTableRecord
  2
CONTENTBLOCKICON
 70
     0
  0
ENDTAB
  0
TABLE
  2
DIMSTYLE
  5
9
330
0
100
AcDbSymbolTable
 70
     3
  0
DIMSTYLE
105
72C
102
{ACAD_REACTORS
330
76E
330
77D
330
78A
330
7FB
330
808
330
815
330
822
330
82F
330
83B
330
889
330
896
330
8A4
330
8B2
330
8BD
330
8CA
330
8E2
330
8F0
330
8FF
330
977
330
982
330
9CA
330
9D6
330
9E3
330
9F0
330
9FD
330
A17
330
A24
330
A43
330
A4F
330
A5C
330
A6A
330
A78
330
A85
330
A94
330
AA1
330
B2F
330
B36
330
B40
330
B49
330
D63
330
1178
102
}
330
9
100
AcDbSymbolTableRecord
100
AcDbDimStyleTableRecord
  2
SUNPOU_2
 70
     0
  3

  4

  5
OPEN30
  6

  7

 40
2.0
 41
2.5
 42
1.5
 43
0.0
 44
1.0
 45
0.0
 46
0.0
 47
0.0
 48
0.0
140
2.5
141
0.0
142
0.0
143
25.4
144
1.0
145
0.0
146
1.0
147
1.0
 71
     0
 72
     0
 73
     0
 74
     0
 75
     0
 76
     0
 77
     1
 78
     8
170
     0
171
     2
172
     1
173
     0
174
     0
175
     0
176
   256
177
   256
178
   256
270
     2
271
     1
272
     1
273
     2
274
     2
340
72B
275
     0
280
     0
281
     0
282
     0
283
     1
284
     0
285
     0
286
     0
287
     3
288
     0
  0
DIMSTYLE
105
12AB
102
{ACAD_REACTORS
330
18AE
330
18BB
102
}
330
9
100
AcDbSymbolTableRecord
100
AcDbDimStyleTableRecord
  2
GOSA_2
 70
     0
  3

  4

  5
OPEN30
  6

  7

 40
2.0
 41
2.5
 42
1.5
 43
0.0
 44
1.0
 45
0.0
 46
0.0
 47
0.0
 48
0.0
140
2.5
141
0.0
142
0.0
143
25.4
144
1.0
145
0.0
146
1.0
147
1.0
 71
     0
 72
     0
 73
     0
 74
     0
 75
     0
 76
     0
 77
     1
 78
     8
170
     0
171
     2
172
     1
173
     0
174
     0
175
     0
176
   256
177
   256
178
   256
270
     2
271
     8
272
     8
273
     2
274
     2
340
72B
275
     0
280
     0
281
     0
282
     0
283
     1
284
     0
285
     0
286
     0
287
     3
288
     0
  0
DIMSTYLE
105
1569
330
9
100
AcDbSymbolTableRecord
100
AcDbDimStyleTableRecord
  2
STANDARD
 70
     0
  3

  4

  5

  6

  7

 40
1.0
 41
0.18
 42
0.0625
 43
0.38
 44
0.18
 45
0.0
 46
0.0
 47
0.0
 48
0.0
140
0.18
141
0.09
142
0.0
143
25.4
144
1.0
145
0.0
146
1.0
147
0.09
 71
     0
 72
     0
 73
     1
 74
     1
 75
     0
 76
     0
 77
     0
 78
     0
170
     0
171
     2
172
     0
173
     0
174
     0
175
     0
176
     0
177
     0
178
     0
270
     2
271
     4
272
     4
273
     2
274
     2
340
17
275
     0
280
     0
281
     0
282
     0
283
     1
284
     0
285
     0
286
     0
287
     3
288
     0
  0
ENDTAB
  0
TABLE
  2
BLOCK_RECORD
  5
1
330
0
100
AcDbSymbolTable
 70
    44
  0
BLOCK_RECORD
  5
A
102
{ACAD_XDICTIONARY
360
2353
102
}
330
1
100
AcDbSymbolTableRecord
100
AcDbBlockTableRecord
  2
*MODEL_SPACE
  0
BLOCK_RECORD
  5
B
102
{ACAD_XDICTIONARY
360
2355
102
}
330
1
100
AcDbSymbolTableRecord
100
AcDbBlockTableRecord
  2
*PAPER_SPACE
  0
BLOCK_RECORD
  5
725
330
1
100
AcDbSymbolTableRecord
100
AcDbBlockTableRecord
  2
_OPEN30
1001
CONTENTBLOCKICON
1071
        0
1004
2800000020000000200000000100080000000000000400000000000000000000000000000000000000000000000080000080000000808000800000008000800080800000C0C0C000C0DCC000F0CAA6000020400000206000002080000020A0000020C0000020E00000400000004020000040400000406000004080000040A0
1004
000040C0000040E00000600000006020000060400000606000006080000060A0000060C0000060E00000800000008020000080400000806000008080000080A0000080C0000080E00000A0000000A0200000A0400000A0600000A0800000A0A00000A0C00000A0E00000C0000000C0200000C0400000C0600000C0800000C0
1004
A00000C0C00000C0E00000E0000000E0200000E0400000E0600000E0800000E0A00000E0C00000E0E00040000000400020004000400040006000400080004000A0004000C0004000E00040200000402020004020400040206000402080004020A0004020C0004020E000404000004040200040404000404060004040800040
1004
40A0004040C0004040E00040600000406020004060400040606000406080004060A0004060C0004060E00040800000408020004080400040806000408080004080A0004080C0004080E00040A0000040A0200040A0400040A0600040A0800040A0A00040A0C00040A0E00040C0000040C0200040C0400040C0600040C08000
1004
40C0A00040C0C00040C0E00040E0000040E0200040E0400040E0600040E0800040E0A00040E0C00040E0E00080000000800020008000400080006000800080008000A0008000C0008000E00080200000802020008020400080206000802080008020A0008020C0008020E00080400000804020008040400080406000804080
1004
008040A0008040C0008040E00080600000806020008060400080606000806080008060A0008060C0008060E00080800000808020008080400080806000808080008080A0008080C0008080E00080A0000080A0200080A0400080A0600080A0800080A0A00080A0C00080A0E00080C0000080C0200080C0400080C0600080C0
1004
800080C0A00080C0C00080C0E00080E0000080E0200080E0400080E0600080E0800080E0A00080E0C00080E0E000C0000000C0002000C0004000C0006000C0008000C000A000C000C000C000E000C0200000C0202000C0204000C0206000C0208000C020A000C020C000C020E000C0400000C0402000C0404000C0406000C0
1004
408000C040A000C040C000C040E000C0600000C0602000C0604000C0606000C0608000C060A000C060C000C060E000C0800000C0802000C0804000C0806000C0808000C080A000C080C000C080E000C0A00000C0A02000C0A04000C0A06000C0A08000C0A0A000C0A0C000C0A0E000C0C00000C0C02000C0C04000C0C06000
1004
C0C08000C0C0A000F0FBFF00A4A0A000808080000000FF0000FF000000FFFF00FF000000FF00FF00FFFF0000FFFFFF0000000000000000000000000000000000000000000000000000000000000000000000000000000000000000000000000000000000000000000000000000000000000000000000000000000000000000
1004
00000000000000000000000000000000000000000000000000000000000000000000000000000000000000000000000000000000000000000000000000000000000000000000000000000000000000000000000000000000000000000000000000000000000000000000000000000000000000000000000000000000000000
1004
000000000000000000000000000000000000000000000000000000000000000000000000000000000000000000000000000000FFFF0000000000000000000000000000000000000000000000000000000000000000FFFFFFFF0000000000000000000000000000000000000000000000000000000000000000FFFFFFFF0000
1004
000000000000000000000000000000000000000000000000000000000000FFFFFF0000000000000000000000000000000000000000000000000000000000000000FFFFFFFF0000000000000000000000000000000000000000000000000000000000000000FFFFFF0000000000000000000000000000000000000000000000
1004
000000000000000000FFFFFFFF0000000000000000000000000000000000000000000000000000000000000000FFFFFFFF00000000FFFFFFFFFFFFFFFFFFFFFFFFFFFFFFFFFFFFFFFFFFFFFFFFFFFFFFFFFFFF00000000000000000000000000000000000000000000000000FFFFFFFF000000000000000000000000000000
1004
000000000000000000FFFFFFFF000000000000000000000000000000000000000000000000FFFFFFFF000000000000000000000000000000000000000000000000FFFFFFFF000000000000000000000000000000000000000000000000FFFFFFFF000000000000000000000000000000000000000000000000FFFFFFFF0000
1004
0000000000000000000000000000000000000000000000FFFFFF0000000000000000000000000000000000000000000000000000000000000000000000000000000000000000000000000000000000000000000000000000000000000000000000000000000000000000000000000000000000000000000000000000000000
1004
00000000000000000000000000000000000000000000000000000000000000000000000000000000000000000000000000000000000000000000000000000000000000000000000000000000000000000000000000000000000000000000000000000000000000000000000000000000000000000000000000000000000000
1004
0000000000000000000000000000000000000000000000000000000000000000000000000000000000000000000000000000000000000000
  0
BLOCK_RECORD
  5
76F
330
1
100
AcDbSymbolTableRecord
100
AcDbBlockTableRecord
  2
*D1
  0
BLOCK_RECORD
  5
77E
330
1
100
AcDbSymbolTableRecord
100
AcDbBlockTableRecord
  2
*D2
  0
BLOCK_RECORD
  5
78B
330
1
100
AcDbSymbolTableRecord
100
AcDbBlockTableRecord
  2
*D3
  0
BLOCK_RECORD
  5
7FC
330
1
100
AcDbSymbolTableRecord
100
AcDbBlockTableRecord
  2
*D4
  0
BLOCK_RECORD
  5
809
330
1
100
AcDbSymbolTableRecord
100
AcDbBlockTableRecord
  2
*D5
  0
BLOCK_RECORD
  5
816
330
1
100
AcDbSymbolTableRecord
100
AcDbBlockTableRecord
  2
*D6
  0
BLOCK_RECORD
  5
823
330
1
100
AcDbSymbolTableRecord
100
AcDbBlockTableRecord
  2
*D7
  0
BLOCK_RECORD
  5
830
330
1
100
AcDbSymbolTableRecord
100
AcDbBlockTableRecord
  2
*D8
  0
BLOCK_RECORD
  5
83C
330
1
100
AcDbSymbolTableRecord
100
AcDbBlockTableRecord
  2
*D9
  0
BLOCK_RECORD
  5
848
330
1
100
AcDbSymbolTableRecord
100
AcDbBlockTableRecord
  2
_DOTSMALL
1001
CONTENTBLOCKICON
1071
        0
1004
2800000020000000200000000100080000000000000400000000000000000000000000000000000000000000000080000080000000808000800000008000800080800000C0C0C000C0DCC000F0CAA6000020400000206000002080000020A0000020C0000020E00000400000004020000040400000406000004080000040A0
1004
000040C0000040E00000600000006020000060400000606000006080000060A0000060C0000060E00000800000008020000080400000806000008080000080A0000080C0000080E00000A0000000A0200000A0400000A0600000A0800000A0A00000A0C00000A0E00000C0000000C0200000C0400000C0600000C0800000C0
1004
A00000C0C00000C0E00000E0000000E0200000E0400000E0600000E0800000E0A00000E0C00000E0E00040000000400020004000400040006000400080004000A0004000C0004000E00040200000402020004020400040206000402080004020A0004020C0004020E000404000004040200040404000404060004040800040
1004
40A0004040C0004040E00040600000406020004060400040606000406080004060A0004060C0004060E00040800000408020004080400040806000408080004080A0004080C0004080E00040A0000040A0200040A0400040A0600040A0800040A0A00040A0C00040A0E00040C0000040C0200040C0400040C0600040C08000
1004
40C0A00040C0C00040C0E00040E0000040E0200040E0400040E0600040E0800040E0A00040E0C00040E0E00080000000800020008000400080006000800080008000A0008000C0008000E00080200000802020008020400080206000802080008020A0008020C0008020E00080400000804020008040400080406000804080
1004
008040A0008040C0008040E00080600000806020008060400080606000806080008060A0008060C0008060E00080800000808020008080400080806000808080008080A0008080C0008080E00080A0000080A0200080A0400080A0600080A0800080A0A00080A0C00080A0E00080C0000080C0200080C0400080C0600080C0
1004
800080C0A00080C0C00080C0E00080E0000080E0200080E0400080E0600080E0800080E0A00080E0C00080E0E000C0000000C0002000C0004000C0006000C0008000C000A000C000C000C000E000C0200000C0202000C0204000C0206000C0208000C020A000C020C000C020E000C0400000C0402000C0404000C0406000C0
1004
408000C040A000C040C000C040E000C0600000C0602000C0604000C0606000C0608000C060A000C060C000C060E000C0800000C0802000C0804000C0806000C0808000C080A000C080C000C080E000C0A00000C0A02000C0A04000C0A06000C0A08000C0A0A000C0A0C000C0A0E000C0C00000C0C02000C0C04000C0C06000
1004
C0C08000C0C0A000F0FBFF00A4A0A000808080000000FF0000FF000000FFFF00FF000000FF00FF00FFFF0000FFFFFF00000000FFFF000000FF0000000000000000000000000000FF000000FFFF00000000000000FFFF0000FF0000000000000000000000000000FF0000FFFF00000000000000000000FFFFFF000000000000
1004
0000000000000000FFFFFF0000000000000000000000000000FFFF000000000000000000000000FFFF00000000000000000000000000000000FF00FFFF0000000000000000FFFF00FF00000000000000000000000000000000FF0000FFFF000000000000FFFF0000FF00000000000000000000000000000000FF00000000FF
1004
FF0000FFFF00000000FF00000000000000000000000000000000FF000000000000FFFF000000000000FF00000000000000000000000000000000FF00000000FFFFFFFFFFFF00000000FF00000000000000000000000000000000FF000000FFFF00000000FFFF000000FF00000000000000000000000000000000FF00FFFF00
1004
00000000000000FFFF00FF00000000000000000000000000000000FFFFFF00000000000000000000FFFFFF000000000000000000000000000000FFFF0000000000000000000000000000FFFF000000000000000000000000FFFF00FF0000000000000000000000000000FF00FFFF0000000000000000FFFF000000FF000000
1004
0000000000000000000000FF000000FFFF000000FFFFFFFF00000000FF0000000000000000000000000000FF00000000FFFFFFFFFFFFFFFF00000000FF0000000000000000000000000000FF00000000FFFFFFFF000000FFFF000000FF0000000000000000000000000000FF000000FFFF0000000000000000FFFF00FF0000
1004
000000000000000000000000FF00FFFF000000000000000000000000FFFF0000000000000000000000000000FFFF000000000000000000000000000000FFFFFF00000000000000000000FFFFFF00000000000000000000000000000000FF00FFFF0000000000000000FFFF00FF00000000000000000000000000000000FF00
1004
0000FFFF00000000FFFF000000FF00000000000000000000000000000000FF00000000FFFFFFFFFFFF00000000FF00000000000000000000000000000000FF000000000000FFFF000000000000FF00000000000000000000000000000000FF00000000FFFF0000FFFF00000000FF00000000000000000000000000000000FF
1004
0000FFFF000000000000FFFF0000FF00000000000000000000000000000000FF00FFFF0000000000000000FFFF00FF00000000000000000000000000000000FFFF000000000000000000000000FFFF0000000000000000000000000000FFFFFF0000000000000000000000000000FFFFFF00000000000000000000FFFF0000
1004
FF0000000000000000000000000000FF0000FFFF00000000000000FFFF000000FF0000000000000000000000000000FF000000FFFF000000
  0
BLOCK_RECORD
  5
855
330
1
100
AcDbSymbolTableRecord
100
AcDbBlockTableRecord
  2
_NONE
  0
BLOCK_RECORD
  5
88A
330
1
100
AcDbSymbolTableRecord
100
AcDbBlockTableRecord
  2
*D12
  0
BLOCK_RECORD
  5
897
330
1
100
AcDbSymbolTableRecord
100
AcDbBlockTableRecord
  2
*D13
  0
BLOCK_RECORD
  5
8A5
330
1
100
AcDbSymbolTableRecord
100
AcDbBlockTableRecord
  2
*D14
  0
BLOCK_RECORD
  5
8B3
330
1
100
AcDbSymbolTableRecord
100
AcDbBlockTableRecord
  2
*D15
  0
BLOCK_RECORD
  5
8BE
330
1
100
AcDbSymbolTableRecord
100
AcDbBlockTableRecord
  2
*D16
  0
BLOCK_RECORD
  5
8CB
330
1
100
AcDbSymbolTableRecord
100
AcDbBlockTableRecord
  2
*D17
  0
BLOCK_RECORD
  5
8E3
330
1
100
AcDbSymbolTableRecord
100
AcDbBlockTableRecord
  2
*D18
  0
BLOCK_RECORD
  5
8F1
330
1
100
AcDbSymbolTableRecord
100
AcDbBlockTableRecord
  2
*D19
  0
BLOCK_RECORD
  5
900
330
1
100
AcDbSymbolTableRecord
100
AcDbBlockTableRecord
  2
*D20
  0
BLOCK_RECORD
  5
978
330
1
100
AcDbSymbolTableRecord
100
AcDbBlockTableRecord
  2
*D21
  0
BLOCK_RECORD
  5
983
330
1
100
AcDbSymbolTableRecord
100
AcDbBlockTableRecord
  2
*D22
  0
BLOCK_RECORD
  5
9CB
330
1
100
AcDbSymbolTableRecord
100
AcDbBlockTableRecord
  2
*D23
  0
BLOCK_RECORD
  5
9D7
330
1
100
AcDbSymbolTableRecord
100
AcDbBlockTableRecord
  2
*D24
  0
BLOCK_RECORD
  5
9E4
330
1
100
AcDbSymbolTableRecord
100
AcDbBlockTableRecord
  2
*D25
  0
BLOCK_RECORD
  5
9F1
330
1
100
AcDbSymbolTableRecord
100
AcDbBlockTableRecord
  2
*D26
  0
BLOCK_RECORD
  5
9FE
330
1
100
AcDbSymbolTableRecord
100
AcDbBlockTableRecord
  2
*D27
  0
BLOCK_RECORD
  5
A18
330
1
100
AcDbSymbolTableRecord
100
AcDbBlockTableRecord
  2
*D28
  0
BLOCK_RECORD
  5
A25
330
1
100
AcDbSymbolTableRecord
100
AcDbBlockTableRecord
  2
*D29
  0
BLOCK_RECORD
  5
A44
330
1
100
AcDbSymbolTableRecord
100
AcDbBlockTableRecord
  2
*D30
  0
BLOCK_RECORD
  5
A50
330
1
100
AcDbSymbolTableRecord
100
AcDbBlockTableRecord
  2
*D31
  0
BLOCK_RECORD
  5
A5D
330
1
100
AcDbSymbolTableRecord
100
AcDbBlockTableRecord
  2
*D32
  0
BLOCK_RECORD
  5
A6B
330
1
100
AcDbSymbolTableRecord
100
AcDbBlockTableRecord
  2
*D33
  0
BLOCK_RECORD
  5
A79
330
1
100
AcDbSymbolTableRecord
100
AcDbBlockTableRecord
  2
*D34
  0
BLOCK_RECORD
  5
A86
330
1
100
AcDbSymbolTableRecord
100
AcDbBlockTableRecord
  2
*D35
  0
BLOCK_RECORD
  5
A95
330
1
100
AcDbSymbolTableRecord
100
AcDbBlockTableRecord
  2
*D36
  0
BLOCK_RECORD
  5
AA2
330
1
100
AcDbSymbolTableRecord
100
AcDbBlockTableRecord
  2
*D37
  0
BLOCK_RECORD
  5
117A
330
1
100
AcDbSymbolTableRecord
100
AcDbBlockTableRecord
  2
*D38
  0
BLOCK_RECORD
  5
18AF
330
1
100
AcDbSymbolTableRecord
100
AcDbBlockTableRecord
  2
*D39
  0
BLOCK_RECORD
  5
18BC
330
1
100
AcDbSymbolTableRecord
100
AcDbBlockTableRecord
  2
*D40
  0
BLOCK_RECORD
  5
23C0
330
1
100
AcDbSymbolTableRecord
100
AcDbBlockTableRecord
  2
*X41
  0
BLOCK_RECORD
  5
23C9
330
1
100
AcDbSymbolTableRecord
100
AcDbBlockTableRecord
  2
*X42
  0
BLOCK_RECORD
  5
23D2
330
1
100
AcDbSymbolTableRecord
100
AcDbBlockTableRecord
  2
*X43
  0
ENDTAB
  0
ENDSEC
  0
SECTION
  2
BLOCKS
  0
BLOCK
  5
D
330
A
100
AcDbEntity
  8
0
100
AcDbBlockBegin
  2
*MODEL_SPACE
 70
     0
 10
0.0
 20
0.0
 30
0.0
  3
*MODEL_SPACE
  1

  0
ENDBLK
  5
E
330
A
100
AcDbEntity
  8
0
100
AcDbBlockEnd
  0
BLOCK
  5
F
330
B
100
AcDbEntity
 67
     1
  8
0
100
AcDbBlockBegin
  2
*PAPER_SPACE
 70
     0
 10
0.0
 20
0.0
 30
0.0
  3
*PAPER_SPACE
  1

  0
ENDBLK
  5
10
330
B
100
AcDbEntity
 67
     1
  8
0
100
AcDbBlockEnd
  0
BLOCK
  5
729
330
725
100
AcDbEntity
  8
0
100
AcDbBlockBegin
  2
_OPEN30
 70
     0
 10
0.0
 20
0.0
 30
0.0
  3
_OPEN30
  1

  0
LINE
  5
726
330
725
100
AcDbEntity
  8
0
  6
BYBLOCK
 62
     0
100
AcDbLine
 10
-1.0
 20
0.26794919
 30
0.0
 11
0.0
 21
0.0
 31
0.0
  0
LINE
  5
727
330
725
100
AcDbEntity
  8
0
  6
BYBLOCK
 62
     0
100
AcDbLine
 10
0.0
 20
0.0
 30
0.0
 11
-1.0
 21
-0.26794919
 31
0.0
  0
LINE
  5
728
330
725
100
AcDbEntity
  8
0
  6
BYBLOCK
 62
     0
100
AcDbLine
 10
0.0
 20
0.0
 30
0.0
 11
-1.0
 21
0.0
 31
0.0
  0
ENDBLK
  5
72A
330
725
100
AcDbEntity
  8
0
100
AcDbBlockEnd
  0
BLOCK
  5
77B
330
76F
100
AcDbEntity
  8
0
100
AcDbBlockBegin
  2
*D1
 70
     1
 10
0.0
 20
0.0
 30
0.0
  3
*D1
  1

  0
LINE
  5
F2E
330
76F
100
AcDbEntity
  8
SUNPOU
100
AcDbLine
 10
166.3309004230175
 20
551.0823899371066
 30
0.0
 11
166.3309004230175
 21
512.7207004428785
 31
0.0
  0
LINE
  5
F2F
330
76F
100
AcDbEntity
  8
SUNPOU
100
AcDbLine
 10
169.3309004230175
 20
521.8323899371068
 30
0.0
 11
169.3309004230175
 21
512.7207004428785
 31
0.0
  0
LINE
  5
F30
330
76F
100
AcDbEntity
  8
SUNPOU
100
AcDbLine
 10
161.3309004230176
 20
514.7207004428785
 30
0.0
 11
156.3309004230176
 21
514.7207004428785
 31
0.0
  0
LINE
  5
F31
330
76F
100
AcDbEntity
  8
SUNPOU
100
AcDbLine
 10
174.3309004230175
 20
514.7207004428785
 30
0.0
 11
179.3309004230175
 21
514.7207004428785
 31
0.0
  0
MTEXT
  5
F32
330
76F
100
AcDbEntity
  8
SUNPOU
100
AcDbMText
 10
158.9977803913544
 20
519.3259906593608
 30
0.0
 40
5.0
 41
0.0
 71
     5
 72
     1
  1
\A1;3
  7
SUNPOU
1001
ACAD
1000
MTEXTBEGIN
1070
    73
1070
     1
1070
    44
1040
1.0
1070
    74
1070
     0
1000
MTEXTEND
1000
MTEXTBEGIN
1070
    73
1070
     1
1070
    44
1040
1.0
1070
    74
1070
     0
1000
MTEXTEND
  0
LINE
  5
F33
330
76F
100
AcDbEntity
  8
SUNPOU
100
AcDbLine
 10
166.3309004230175
 20
514.7207004428785
 30
0.0
 11
169.3309004230175
 21
514.7207004428785
 31
0.0
  0
INSERT
  5
F34
330
76F
100
AcDbEntity
  8
SUNPOU
100
AcDbBlockReference
  2
_OPEN30
 10
166.3309004230175
 20
514.7207004428785
 30
0.0
 41
5.0
 42
5.0
 43
5.0
  0
INSERT
  5
F35
330
76F
100
AcDbEntity
  8
SUNPOU
100
AcDbBlockReference
  2
_OPEN30
 10
169.3309004230175
 20
514.7207004428785
 30
0.0
 41
5.0
 42
5.0
 43
5.0
 50
180.0
  0
POINT
  5
F36
330
76F
100
AcDbEntity
  8
DEFPOINTS
 62
     0
100
AcDbPoint
 10
166.3309004230175
 20
554.0823899371067
 30
0.0
  0
POINT
  5
F37
330
76F
100
AcDbEntity
  8
DEFPOINTS
 62
     0
100
AcDbPoint
 10
169.3309004230175
 20
524.8323899371069
 30
0.0
  0
POINT
  5
F38
330
76F
100
AcDbEntity
  8
DEFPOINTS
 62
     0
100
AcDbPoint
 10
169.3309004230175
 20
514.7207004428785
 30
0.0
  0
ENDBLK
  5
77C
330
76F
100
AcDbEntity
  8
0
100
AcDbBlockEnd
  0
BLOCK
  5
788
330
77E
100
AcDbEntity
  8
0
100
AcDbBlockBegin
  2
*D2
 70
     1
 10
0.0
 20
0.0
 30
0.0
  3
*D2
  1

  0
LINE
  5
F39
330
77E
100
AcDbEntity
  8
SUNPOU
100
AcDbLine
 10
169.3309004230175
 20
521.8323899371068
 30
0.0
 11
169.3309004230175
 21
512.7187139296885
 31
0.0
  0
LINE
  5
F3A
330
77E
100
AcDbEntity
  8
SUNPOU
100
AcDbLine
 10
283.3309004230176
 20
521.8323899371068
 30
0.0
 11
283.3309004230176
 21
512.7187139296885
 31
0.0
  0
LINE
  5
F3B
330
77E
100
AcDbEntity
  8
SUNPOU
100
AcDbLine
 10
174.3309004230175
 20
514.7187139296885
 30
0.0
 11
278.3309004230175
 21
514.7187139296885
 31
0.0
  0
INSERT
  5
F3C
330
77E
100
AcDbEntity
  8
SUNPOU
100
AcDbBlockReference
  2
_OPEN30
 10
169.3309004230175
 20
514.7187139296885
 30
0.0
 41
5.0
 42
5.0
 43
5.0
 50
180.0
  0
INSERT
  5
F3D
330
77E
100
AcDbEntity
  8
SUNPOU
100
AcDbBlockReference
  2
_OPEN30
 10
283.3309004230176
 20
514.7187139296885
 30
0.0
 41
5.0
 42
5.0
 43
5.0
  0
MTEXT
  5
F3E
330
77E
100
AcDbEntity
  8
SUNPOU
100
AcDbMText
 10
226.3309004230175
 20
519.2187139296885
 30
0.0
 40
5.0
 41
0.0
 71
     5
 72
     1
  1
\A1;114
  7
SUNPOU
1001
ACAD
1000
MTEXTBEGIN
1070
    73
1070
     1
1070
    44
1040
1.0
1070
    74
1070
     0
1000
MTEXTEND
1000
MTEXTBEGIN
1070
    73
1070
     1
1070
    44
1040
1.0
1070
    74
1070
     0
1000
MTEXTEND
  0
POINT
  5
F3F
330
77E
100
AcDbEntity
  8
DEFPOINTS
 62
     0
100
AcDbPoint
 10
169.3309004230175
 20
524.8323899371069
 30
0.0
  0
POINT
  5
F40
330
77E
100
AcDbEntity
  8
DEFPOINTS
 62
     0
100
AcDbPoint
 10
283.3309004230176
 20
524.8323899371069
 30
0.0
  0
POINT
  5
F41
330
77E
100
AcDbEntity
  8
DEFPOINTS
 62
     0
100
AcDbPoint
 10
283.3309004230176
 20
514.7187139296885
 30
0.0
  0
ENDBLK
  5
789
330
77E
100
AcDbEntity
  8
0
100
AcDbBlockEnd
  0
BLOCK
  5
797
330
78B
100
AcDbEntity
  8
0
100
AcDbBlockBegin
  2
*D3
 70
     1
 10
0.0
 20
0.0
 30
0.0
  3
*D3
  1

  0
LINE
  5
F42
330
78B
100
AcDbEntity
  8
SUNPOU
100
AcDbLine
 10
283.3309004230176
 20
521.8323899371068
 30
0.0
 11
283.3309004230176
 21
512.7207004408464
 31
0.0
  0
LINE
  5
F43
330
78B
100
AcDbEntity
  8
SUNPOU
100
AcDbLine
 10
286.3309004230176
 20
551.082389937107
 30
0.0
 11
286.3309004230176
 21
512.7207004408464
 31
0.0
  0
LINE
  5
F44
330
78B
100
AcDbEntity
  8
SUNPOU
100
AcDbLine
 10
278.3309004230175
 20
514.7207004408463
 30
0.0
 11
273.3309004230175
 21
514.7207004408463
 31
0.0
  0
LINE
  5
F45
330
78B
100
AcDbEntity
  8
SUNPOU
100
AcDbLine
 10
291.3309004230177
 20
514.7207004408463
 30
0.0
 11
296.3309004230176
 21
514.7207004408463
 31
0.0
  0
MTEXT
  5
F46
330
78B
100
AcDbEntity
  8
SUNPOU
100
AcDbMText
 10
293.4807017186701
 20
519.4203896542518
 30
0.0
 40
5.0
 41
0.0
 71
     5
 72
     1
  1
\A1;3
  7
SUNPOU
1001
ACAD
1000
MTEXTBEGIN
1070
    73
1070
     1
1070
    44
1040
1.0
1070
    74
1070
     0
1000
MTEXTEND
1000
MTEXTBEGIN
1070
    73
1070
     1
1070
    44
1040
1.0
1070
    74
1070
     0
1000
MTEXTEND
  0
LINE
  5
F47
330
78B
100
AcDbEntity
  8
SUNPOU
100
AcDbLine
 10
283.3309004230176
 20
514.7207004408463
 30
0.0
 11
286.3309004230176
 21
514.7207004408463
 31
0.0
  0
INSERT
  5
F48
330
78B
100
AcDbEntity
  8
SUNPOU
100
AcDbBlockReference
  2
_OPEN30
 10
283.3309004230176
 20
514.7207004408463
 30
0.0
 41
5.0
 42
5.0
 43
5.0
  0
INSERT
  5
F49
330
78B
100
AcDbEntity
  8
SUNPOU
100
AcDbBlockReference
  2
_OPEN30
 10
286.3309004230176
 20
514.7207004408463
 30
0.0
 41
5.0
 42
5.0
 43
5.0
 50
180.0
  0
POINT
  5
F4A
330
78B
100
AcDbEntity
  8
DEFPOINTS
 62
     0
100
AcDbPoint
 10
283.3309004230176
 20
524.8323899371069
 30
0.0
  0
POINT
  5
F4B
330
78B
100
AcDbEntity
  8
DEFPOINTS
 62
     0
100
AcDbPoint
 10
286.3309004230176
 20
554.0823899371067
 30
0.0
  0
POINT
  5
F4C
330
78B
100
AcDbEntity
  8
DEFPOINTS
 62
     0
100
AcDbPoint
 10
286.3309004230176
 20
514.7207004408463
 30
0.0
  0
ENDBLK
  5
798
330
78B
100
AcDbEntity
  8
0
100
AcDbBlockEnd
  0
BLOCK
  5
806
330
7FC
100
AcDbEntity
  8
0
100
AcDbBlockBegin
  2
*D4
 70
     1
 10
0.0
 20
0.0
 30
0.0
  3
*D4
  1

  0
LINE
  5
1244
330
7FC
100
AcDbEntity
  8
SUNPOU
100
AcDbLine
 10
185.3311583365465
 20
426.9164930691978
 30
0.0
 11
185.3311583365465
 21
464.6831093488621
 31
0.0
  0
LINE
  5
1245
330
7FC
100
AcDbEntity
  8
SUNPOU
100
AcDbLine
 10
274.8311910464873
 20
419.0826996355895
 30
0.0
 11
274.8311910464873
 21
464.6831093488621
 31
0.0
  0
LINE
  5
1246
330
7FC
100
AcDbEntity
  8
SUNPOU
100
AcDbLine
 10
190.3311583365465
 20
462.6831093488621
 30
0.0
 11
269.8311910464874
 21
462.6831093488621
 31
0.0
  0
MTEXT
  5
1247
330
7FC
100
AcDbEntity
  8
SUNPOU
100
AcDbMText
 10
242.6249371269157
 20
467.1944191655008
 30
0.0
 40
5.0
 41
0.0
 71
     5
 72
     1
  1
\A1;89.5
  7
SUNPOU
1001
ACAD
1000
MTEXTBEGIN
1070
    73
1070
     1
1070
    44
1040
1.0
1070
    74
1070
     0
1000
MTEXTEND
1000
MTEXTBEGIN
1070
    73
1070
     1
1070
    44
1040
1.0
1070
    74
1070
     0
1000
MTEXTEND
  0
INSERT
  5
1248
330
7FC
100
AcDbEntity
  8
SUNPOU
100
AcDbBlockReference
  2
_OPEN30
 10
185.3311583365465
 20
462.6831093488621
 30
0.0
 41
5.0
 42
5.0
 43
5.0
 50
180.0
  0
INSERT
  5
1249
330
7FC
100
AcDbEntity
  8
SUNPOU
100
AcDbBlockReference
  2
_OPEN30
 10
274.8311910464873
 20
462.6831093488621
 30
0.0
 41
5.0
 42
5.0
 43
5.0
  0
POINT
  5
124A
330
7FC
100
AcDbEntity
  8
DEFPOINTS
 62
     0
100
AcDbPoint
 10
185.3311583365465
 20
423.9164930691978
 30
0.0
  0
POINT
  5
124B
330
7FC
100
AcDbEntity
  8
DEFPOINTS
 62
     0
100
AcDbPoint
 10
274.8311910464873
 20
416.0826996355896
 30
0.0
  0
POINT
  5
124C
330
7FC
100
AcDbEntity
  8
DEFPOINTS
 62
     0
100
AcDbPoint
 10
274.8311910464873
 20
462.6831093488621
 30
0.0
  0
ENDBLK
  5
807
330
7FC
100
AcDbEntity
  8
0
100
AcDbBlockEnd
  0
BLOCK
  5
813
330
809
100
AcDbEntity
  8
0
100
AcDbBlockBegin
  2
*D5
 70
     1
 10
0.0
 20
0.0
 30
0.0
  3
*D5
  1

  0
LINE
  5
236C
330
809
100
AcDbEntity
  8
SUNPOU
100
AcDbLine
 10
166.3309004230175
 20
398.2140900757846
 30
0.0
 11
166.3309004230175
 21
397.2140900757846
 31
0.0
  0
LINE
  5
236D
330
809
100
AcDbEntity
  8
SUNPOU
100
AcDbLine
 10
169.3309004230175
 20
398.2140900757846
 30
0.0
 11
169.3309004230175
 21
397.2140900757846
 31
0.0
  0
LINE
  5
236E
330
809
100
AcDbEntity
  8
SUNPOU
100
AcDbLine
 10
161.3309004230176
 20
395.2140900757846
 30
0.0
 11
156.3309004230176
 21
395.2140900757846
 31
0.0
  0
LINE
  5
236F
330
809
100
AcDbEntity
  8
SUNPOU
100
AcDbLine
 10
169.3309004230175
 20
395.2140900757846
 30
0.0
 11
174.3309004230175
 21
395.2140900757846
 31
0.0
  0
MTEXT
  5
2370
330
809
100
AcDbEntity
  8
SUNPOU
100
AcDbMText
 10
159.7225741477698
 20
399.8008187560444
 30
0.0
 40
5.0
 41
0.0
 71
     5
 72
     1
  1
\A1;3
  7
SUNPOU
1001
ACAD
1000
MTEXTBEGIN
1070
    73
1070
     1
1070
    44
1040
1.0
1070
    74
1070
     0
1000
MTEXTEND
1000
MTEXTBEGIN
1070
    73
1070
     1
1070
    44
1040
1.0
1070
    74
1070
     0
1000
MTEXTEND
  0
LINE
  5
2371
330
809
100
AcDbEntity
  8
SUNPOU
100
AcDbLine
 10
166.3309004230175
 20
395.2140900757846
 30
0.0
 11
169.3309004230175
 21
395.2140900757846
 31
0.0
  0
INSERT
  5
2372
330
809
100
AcDbEntity
  8
SUNPOU
100
AcDbBlockReference
  2
_OPEN30
 10
166.3309004230175
 20
395.2140900757846
 30
0.0
 41
5.0
 42
5.0
 43
5.0
  0
INSERT
  5
2373
330
809
100
AcDbEntity
  8
SUNPOU
100
AcDbBlockReference
  2
_DOTSMALL
 10
169.3309004230175
 20
395.2140900757846
 30
0.0
 41
5.0
 42
5.0
 43
5.0
 50
180.0
  0
POINT
  5
2374
330
809
100
AcDbEntity
  8
DEFPOINTS
 62
     0
100
AcDbPoint
 10
166.3309004230175
 20
395.2140900757846
 30
0.0
  0
POINT
  5
2375
330
809
100
AcDbEntity
  8
DEFPOINTS
 62
     0
100
AcDbPoint
 10
169.3309004230175
 20
395.2140900757846
 30
0.0
  0
POINT
  5
2376
330
809
100
AcDbEntity
  8
DEFPOINTS
 62
     0
100
AcDbPoint
 10
169.3309004230175
 20
395.2140900757846
 30
0.0
  0
ENDBLK
  5
814
330
809
100
AcDbEntity
  8
0
100
AcDbBlockEnd
  0
BLOCK
  5
820
330
816
100
AcDbEntity
  8
0
100
AcDbBlockBegin
  2
*D6
 70
     1
 10
0.0
 20
0.0
 30
0.0
  3
*D6
  1

  0
LINE
  5
2377
330
816
100
AcDbEntity
  8
SUNPOU
100
AcDbLine
 10
169.3309004230175
 20
398.2140900757846
 30
0.0
 11
169.3309004230175
 21
397.2140900757846
 31
0.0
  0
LINE
  5
2378
330
816
100
AcDbEntity
  8
SUNPOU
100
AcDbLine
 10
179.3309004230175
 20
398.2140900757846
 30
0.0
 11
179.3309004230175
 21
397.2140900757846
 31
0.0
  0
LINE
  5
2379
330
816
100
AcDbEntity
  8
SUNPOU
100
AcDbLine
 10
169.3309004230175
 20
395.2140900757846
 30
0.0
 11
179.3309004230175
 21
395.2140900757846
 31
0.0
  0
MTEXT
  5
237A
330
816
100
AcDbEntity
  8
SUNPOU
100
AcDbMText
 10
175.5744084104949
 20
399.7140900757846
 30
0.0
 40
5.0
 41
0.0
 71
     5
 72
     1
  1
\A1;10
  7
SUNPOU
1001
ACAD
1000
MTEXTBEGIN
1070
    73
1070
     1
1070
    44
1040
1.0
1070
    74
1070
     0
1000
MTEXTEND
1000
MTEXTBEGIN
1070
    73
1070
     1
1070
    44
1040
1.0
1070
    74
1070
     0
1000
MTEXTEND
  0
POINT
  5
237B
330
816
100
AcDbEntity
  8
DEFPOINTS
 62
     0
100
AcDbPoint
 10
169.3309004230175
 20
395.2140900757846
 30
0.0
  0
POINT
  5
237C
330
816
100
AcDbEntity
  8
DEFPOINTS
 62
     0
100
AcDbPoint
 10
179.3309004230175
 20
395.2140900757846
 30
0.0
  0
POINT
  5
237D
330
816
100
AcDbEntity
  8
DEFPOINTS
 62
     0
100
AcDbPoint
 10
179.3309004230175
 20
395.2140900757846
 30
0.0
  0
ENDBLK
  5
821
330
816
100
AcDbEntity
  8
0
100
AcDbBlockEnd
  0
BLOCK
  5
82D
330
823
100
AcDbEntity
  8
0
100
AcDbBlockBegin
  2
*D7
 70
     1
 10
0.0
 20
0.0
 30
0.0
  3
*D7
  1

  0
LINE
  5
237E
330
823
100
AcDbEntity
  8
SUNPOU
100
AcDbLine
 10
179.3309004230175
 20
398.2140900757846
 30
0.0
 11
179.3309004230175
 21
397.2140900757846
 31
0.0
  0
LINE
  5
237F
330
823
100
AcDbEntity
  8
SUNPOU
100
AcDbLine
 10
185.3309004230175
 20
398.2140900757846
 30
0.0
 11
185.3309004230175
 21
397.2140900757846
 31
0.0
  0
LINE
  5
2380
330
823
100
AcDbEntity
  8
SUNPOU
100
AcDbLine
 10
179.3309004230175
 20
395.2140900757846
 30
0.0
 11
174.3309004230175
 21
395.2140900757846
 31
0.0
  0
LINE
  5
2381
330
823
100
AcDbEntity
  8
SUNPOU
100
AcDbLine
 10
190.3309004230175
 20
395.2140900757846
 30
0.0
 11
195.3309004230175
 21
395.2140900757846
 31
0.0
  0
MTEXT
  5
2382
330
823
100
AcDbEntity
  8
SUNPOU
100
AcDbMText
 10
182.3309004230175
 20
399.6955289525706
 30
0.0
 40
5.0
 41
0.0
 71
     5
 72
     1
  1
\A1;6
  7
SUNPOU
1001
ACAD
1000
MTEXTBEGIN
1070
    73
1070
     1
1070
    44
1040
1.0
1070
    74
1070
     0
1000
MTEXTEND
1000
MTEXTBEGIN
1070
    73
1070
     1
1070
    44
1040
1.0
1070
    74
1070
     0
1000
MTEXTEND
  0
LINE
  5
2383
330
823
100
AcDbEntity
  8
SUNPOU
100
AcDbLine
 10
179.3309004230175
 20
395.2140900757846
 30
0.0
 11
185.3309004230175
 21
395.2140900757846
 31
0.0
  0
INSERT
  5
2384
330
823
100
AcDbEntity
  8
SUNPOU
100
AcDbBlockReference
  2
_DOTSMALL
 10
179.3309004230175
 20
395.2140900757846
 30
0.0
 41
5.0
 42
5.0
 43
5.0
  0
INSERT
  5
2385
330
823
100
AcDbEntity
  8
SUNPOU
100
AcDbBlockReference
  2
_OPEN30
 10
185.3309004230175
 20
395.2140900757846
 30
0.0
 41
5.0
 42
5.0
 43
5.0
 50
180.0
  0
POINT
  5
2386
330
823
100
AcDbEntity
  8
DEFPOINTS
 62
     0
100
AcDbPoint
 10
179.3309004230175
 20
395.2140900757846
 30
0.0
  0
POINT
  5
2387
330
823
100
AcDbEntity
  8
DEFPOINTS
 62
     0
100
AcDbPoint
 10
185.3309004230175
 20
395.2140900757846
 30
0.0
  0
POINT
  5
2388
330
823
100
AcDbEntity
  8
DEFPOINTS
 62
     0
100
AcDbPoint
 10
185.3309004230175
 20
395.2140900757846
 30
0.0
  0
ENDBLK
  5
82E
330
823
100
AcDbEntity
  8
0
100
AcDbBlockEnd
  0
BLOCK
  5
839
330
830
100
AcDbEntity
  8
0
100
AcDbBlockBegin
  2
*D8
 70
     1
 10
0.0
 20
0.0
 30
0.0
  3
*D8
  1

  0
LINE
  5
F73
330
830
100
AcDbEntity
  8
SUNPOU
100
AcDbLine
 10
185.3309004230175
 20
398.2140900757846
 30
0.0
 11
185.3309004230175
 21
397.2140900757846
 31
0.0
  0
LINE
  5
F74
330
830
100
AcDbEntity
  8
SUNPOU
100
AcDbLine
 10
241.8310045310615
 20
387.5852874944441
 30
0.0
 11
241.8310045310615
 21
397.2140900757846
 31
0.0
  0
LINE
  5
F75
330
830
100
AcDbEntity
  8
SUNPOU
100
AcDbLine
 10
190.3309004230175
 20
395.2140900757846
 30
0.0
 11
236.8310045310617
 21
395.2140900757846
 31
0.0
  0
INSERT
  5
F76
330
830
100
AcDbEntity
  8
SUNPOU
100
AcDbBlockReference
  2
_OPEN30
 10
185.3309004230175
 20
395.2140900757846
 30
0.0
 41
5.0
 42
5.0
 43
5.0
 50
180.0
  0
INSERT
  5
F77
330
830
100
AcDbEntity
  8
SUNPOU
100
AcDbBlockReference
  2
_OPEN30
 10
241.8310045310615
 20
395.2140900757846
 30
0.0
 41
5.0
 42
5.0
 43
5.0
  0
MTEXT
  5
F78
330
830
100
AcDbEntity
  8
SUNPOU
100
AcDbMText
 10
213.5809524770396
 20
399.7140900757846
 30
0.0
 40
5.0
 41
0.0
 71
     5
 72
     1
  1
\A1;56.5
  7
SUNPOU
1001
ACAD
1000
MTEXTBEGIN
1070
    73
1070
     1
1070
    44
1040
1.0
1070
    74
1070
     0
1000
MTEXTEND
1000
MTEXTBEGIN
1070
    73
1070
     1
1070
    44
1040
1.0
1070
    74
1070
     0
1000
MTEXTEND
  0
POINT
  5
F79
330
830
100
AcDbEntity
  8
DEFPOINTS
 62
     0
100
AcDbPoint
 10
185.3309004230175
 20
395.2140900757846
 30
0.0
  0
POINT
  5
F7A
330
830
100
AcDbEntity
  8
DEFPOINTS
 62
     0
100
AcDbPoint
 10
241.8310045310615
 20
384.5852874944441
 30
0.0
  0
POINT
  5
F7B
330
830
100
AcDbEntity
  8
DEFPOINTS
 62
     0
100
AcDbPoint
 10
241.8310045310615
 20
395.2140900757846
 30
0.0
  0
ENDBLK
  5
83A
330
830
100
AcDbEntity
  8
0
100
AcDbBlockEnd
  0
BLOCK
  5
846
330
83C
100
AcDbEntity
  8
0
100
AcDbBlockBegin
  2
*D9
 70
     1
 10
0.0
 20
0.0
 30
0.0
  3
*D9
  1

  0
LINE
  5
F7C
330
83C
100
AcDbEntity
  8
SUNPOU
100
AcDbLine
 10
241.8310045310615
 20
387.5852874944441
 30
0.0
 11
241.8310045310615
 21
397.2140900757846
 31
0.0
  0
LINE
  5
F7D
330
83C
100
AcDbEntity
  8
SUNPOU
100
AcDbLine
 10
275.8311964296296
 20
364.3825027127533
 30
0.0
 11
275.8311964296296
 21
397.2140900757846
 31
0.0
  0
LINE
  5
F7E
330
83C
100
AcDbEntity
  8
SUNPOU
100
AcDbLine
 10
246.8310045310615
 20
395.2140900757846
 30
0.0
 11
270.8311964296295
 21
395.2140900757846
 31
0.0
  0
INSERT
  5
F7F
330
83C
100
AcDbEntity
  8
SUNPOU
100
AcDbBlockReference
  2
_OPEN30
 10
241.8310045310615
 20
395.2140900757846
 30
0.0
 41
5.0
 42
5.0
 43
5.0
 50
180.0
  0
INSERT
  5
F80
330
83C
100
AcDbEntity
  8
SUNPOU
100
AcDbBlockReference
  2
_OPEN30
 10
275.8311964296296
 20
395.2140900757846
 30
0.0
 41
5.0
 42
5.0
 43
5.0
  0
MTEXT
  5
F81
330
83C
100
AcDbEntity
  8
SUNPOU
100
AcDbMText
 10
258.8311004803457
 20
399.7140900757846
 30
0.0
 40
5.0
 41
0.0
 71
     5
 72
     1
  1
\A1;34
  7
SUNPOU
1001
ACAD
1000
MTEXTBEGIN
1070
    73
1070
     1
1070
    44
1040
1.0
1070
    74
1070
     0
1000
MTEXTEND
1000
MTEXTBEGIN
1070
    73
1070
     1
1070
    44
1040
1.0
1070
    74
1070
     0
1000
MTEXTEND
  0
POINT
  5
F82
330
83C
100
AcDbEntity
  8
DEFPOINTS
 62
     0
100
AcDbPoint
 10
241.8310045310615
 20
384.5852874944441
 30
0.0
  0
POINT
  5
F83
330
83C
100
AcDbEntity
  8
DEFPOINTS
 62
     0
100
AcDbPoint
 10
275.8311964296296
 20
361.3825027127532
 30
0.0
  0
POINT
  5
F84
330
83C
100
AcDbEntity
  8
DEFPOINTS
 62
     0
100
AcDbPoint
 10
275.8311964296296
 20
395.2140900757846
 30
0.0
  0
ENDBLK
  5
847
330
83C
100
AcDbEntity
  8
0
100
AcDbBlockEnd
  0
BLOCK
  5
84A
330
848
100
AcDbEntity
  8
0
100
AcDbBlockBegin
  2
_DOTSMALL
 70
     0
 10
0.0
 20
0.0
 30
0.0
  3
_DOTSMALL
  1

  0
POLYLINE
  5
849
330
848
100
AcDbEntity
  8
0
  6
BYBLOCK
 62
     0
100
AcDb2dPolyline
 66
     1
 10
0.0
 20
0.0
 30
0.0
 70
     1
 40
0.5
 41
0.5
  0
VERTEX
  5
24B6
330
849
100
AcDbEntity
  8
0
  6
BYBLOCK
 62
     0
100
AcDbVertex
100
AcDb2dVertex
 10
-0.0625
 20
0.0
 30
0.0
 42
1.0
  0
VERTEX
  5
24B7
330
849
100
AcDbEntity
  8
0
  6
BYBLOCK
 62
     0
100
AcDbVertex
100
AcDb2dVertex
 10
0.0625
 20
0.0
 30
0.0
 42
1.0
  0
SEQEND
  5
24B8
330
849
100
AcDbEntity
  8
0
  6
BYBLOCK
 62
     0
  0
ENDBLK
  5
84B
330
848
100
AcDbEntity
  8
0
100
AcDbBlockEnd
  0
BLOCK
  5
856
330
855
100
AcDbEntity
  8
0
100
AcDbBlockBegin
  2
_NONE
 70
     0
 10
0.0
 20
0.0
 30
0.0
  3
_NONE
  1

  0
ENDBLK
  5
857
330
855
100
AcDbEntity
  8
0
100
AcDbBlockEnd
  0
BLOCK
  5
894
330
88A
100
AcDbEntity
  8
0
100
AcDbBlockBegin
  2
*D12
 70
     1
 10
0.0
 20
0.0
 30
0.0
  3
*D12
  1

  0
LINE
  5
F85
330
88A
100
AcDbEntity
  8
SUNPOU
100
AcDbLine
 10
185.3311547105519
 20
381.0803545997231
 30
0.0
 11
185.3311547105519
 21
380.0803813264201
 31
0.0
  0
LINE
  5
F86
330
88A
100
AcDbEntity
  8
SUNPOU
100
AcDbLine
 10
249.3309004230175
 20
334.526180512001
 30
0.0
 11
249.3309004230175
 21
380.0803813264201
 31
0.0
  0
LINE
  5
F87
330
88A
100
AcDbEntity
  8
SUNPOU
100
AcDbLine
 10
190.3311547105517
 20
378.0803813264201
 30
0.0
 11
244.3309004230175
 21
378.0803813264201
 31
0.0
  0
INSERT
  5
F88
330
88A
100
AcDbEntity
  8
SUNPOU
100
AcDbBlockReference
  2
_OPEN30
 10
185.3311547105519
 20
378.0803813264201
 30
0.0
 41
5.0
 42
5.0
 43
5.0
 50
180.0
  0
INSERT
  5
F89
330
88A
100
AcDbEntity
  8
SUNPOU
100
AcDbBlockReference
  2
_OPEN30
 10
249.3309004230175
 20
378.0803813264201
 30
0.0
 41
5.0
 42
5.0
 43
5.0
  0
MTEXT
  5
F8A
330
88A
100
AcDbEntity
  8
SUNPOU
100
AcDbMText
 10
217.3310275667847
 20
382.5803813264201
 30
0.0
 40
5.0
 41
0.0
 71
     5
 72
     1
  1
\A1;64
  7
SUNPOU
1001
ACAD
1000
MTEXTBEGIN
1070
    73
1070
     1
1070
    44
1040
1.0
1070
    74
1070
     0
1000
MTEXTEND
1000
MTEXTBEGIN
1070
    73
1070
     1
1070
    44
1040
1.0
1070
    74
1070
     0
1000
MTEXTEND
  0
POINT
  5
F8B
330
88A
100
AcDbEntity
  8
DEFPOINTS
 62
     0
100
AcDbPoint
 10
185.3311547105519
 20
378.0803545997232
 30
0.0
  0
POINT
  5
F8C
330
88A
100
AcDbEntity
  8
DEFPOINTS
 62
     0
100
AcDbPoint
 10
249.3309004230175
 20
331.526180512001
 30
0.0
  0
POINT
  5
F8D
330
88A
100
AcDbEntity
  8
DEFPOINTS
 62
     0
100
AcDbPoint
 10
249.3309004230175
 20
378.0803813264201
 30
0.0
  0
ENDBLK
  5
895
330
88A
100
AcDbEntity
  8
0
100
AcDbBlockEnd
  0
BLOCK
  5
8A2
330
897
100
AcDbEntity
  8
0
100
AcDbBlockBegin
  2
*D13
 70
     1
 10
0.0
 20
0.0
 30
0.0
  3
*D13
  1

  0
LINE
  5
238D
330
897
100
AcDbEntity
  8
SUNPOU
100
AcDbLine
 10
166.3309004230175
 20
266.5660547109552
 30
0.0
 11
166.3309004230175
 21
267.566054710955
 31
0.0
  0
LINE
  5
238E
330
897
100
AcDbEntity
  8
SUNPOU
100
AcDbLine
 10
169.3309004230175
 20
291.8323899371068
 30
0.0
 11
169.3309004230175
 21
267.566054710955
 31
0.0
  0
LINE
  5
238F
330
897
100
AcDbEntity
  8
SUNPOU
100
AcDbLine
 10
161.3309004230176
 20
269.566054710955
 30
0.0
 11
156.3309004230176
 21
269.566054710955
 31
0.0
  0
LINE
  5
2390
330
897
100
AcDbEntity
  8
SUNPOU
100
AcDbLine
 10
169.3309004230175
 20
269.566054710955
 30
0.0
 11
174.3309004230175
 21
269.566054710955
 31
0.0
  0
MTEXT
  5
2391
330
897
100
AcDbEntity
  8
SUNPOU
100
AcDbMText
 10
159.0508757393276
 20
274.2164637544163
 30
0.0
 40
5.0
 41
0.0
 71
     5
 72
     1
  1
\A1;3
  7
SUNPOU
1001
ACAD
1000
MTEXTBEGIN
1070
    73
1070
     1
1070
    44
1040
1.0
1070
    74
1070
     0
1000
MTEXTEND
1000
MTEXTBEGIN
1070
    73
1070
     1
1070
    44
1040
1.0
1070
    74
1070
     0
1000
MTEXTEND
  0
LINE
  5
2392
330
897
100
AcDbEntity
  8
SUNPOU
100
AcDbLine
 10
166.3309004230175
 20
269.566054710955
 30
0.0
 11
169.3309004230175
 21
269.566054710955
 31
0.0
  0
INSERT
  5
2393
330
897
100
AcDbEntity
  8
SUNPOU
100
AcDbBlockReference
  2
_OPEN30
 10
166.3309004230175
 20
269.566054710955
 30
0.0
 41
5.0
 42
5.0
 43
5.0
  0
INSERT
  5
2394
330
897
100
AcDbEntity
  8
SUNPOU
100
AcDbBlockReference
  2
_DOTSMALL
 10
169.3309004230175
 20
269.566054710955
 30
0.0
 41
5.0
 42
5.0
 43
5.0
 50
180.0
  0
POINT
  5
2395
330
897
100
AcDbEntity
  8
DEFPOINTS
 62
     0
100
AcDbPoint
 10
166.3309004230175
 20
269.5660547109552
 30
0.0
  0
POINT
  5
2396
330
897
100
AcDbEntity
  8
DEFPOINTS
 62
     0
100
AcDbPoint
 10
169.3309004230175
 20
294.8323899371068
 30
0.0
  0
POINT
  5
2397
330
897
100
AcDbEntity
  8
DEFPOINTS
 62
     0
100
AcDbPoint
 10
169.3309004230175
 20
269.566054710955
 30
0.0
  0
ENDBLK
  5
8A3
330
897
100
AcDbEntity
  8
0
100
AcDbBlockEnd
  0
BLOCK
  5
8B0
330
8A5
100
AcDbEntity
  8
0
100
AcDbBlockBegin
  2
*D14
 70
     1
 10
0.0
 20
0.0
 30
0.0
  3
*D14
  1

  0
LINE
  5
2398
330
8A5
100
AcDbEntity
  8
SUNPOU
100
AcDbLine
 10
169.3309004230175
 20
291.8323899371068
 30
0.0
 11
169.3309004230175
 21
267.566054710955
 31
0.0
  0
LINE
  5
2399
330
8A5
100
AcDbEntity
  8
SUNPOU
100
AcDbLine
 10
172.3309004230175
 20
272.566054710955
 30
0.0
 11
172.3309004230175
 21
271.566054710955
 31
0.0
  0
LINE
  5
239A
330
8A5
100
AcDbEntity
  8
SUNPOU
100
AcDbLine
 10
169.3309004230175
 20
269.566054710955
 30
0.0
 11
164.3309004230175
 21
269.566054710955
 31
0.0
  0
LINE
  5
239B
330
8A5
100
AcDbEntity
  8
SUNPOU
100
AcDbLine
 10
177.3309004230175
 20
269.566054710955
 30
0.0
 11
182.3309004230175
 21
269.566054710955
 31
0.0
  0
MTEXT
  5
239C
330
8A5
100
AcDbEntity
  8
SUNPOU
100
AcDbMText
 10
169.4079107297734
 20
264.300374241021
 30
0.0
 40
5.0
 41
0.0
 71
     5
 72
     1
  1
\A1;3
  7
SUNPOU
1001
ACAD
1000
MTEXTBEGIN
1070
    73
1070
     1
1070
    44
1040
1.0
1070
    74
1070
     0
1000
MTEXTEND
1000
MTEXTBEGIN
1070
    73
1070
     1
1070
    44
1040
1.0
1070
    74
1070
     0
1000
MTEXTEND
  0
LINE
  5
239D
330
8A5
100
AcDbEntity
  8
SUNPOU
100
AcDbLine
 10
169.3309004230175
 20
269.566054710955
 30
0.0
 11
172.3309004230175
 21
269.566054710955
 31
0.0
  0
INSERT
  5
239E
330
8A5
100
AcDbEntity
  8
SUNPOU
100
AcDbBlockReference
  2
_DOTSMALL
 10
169.3309004230175
 20
269.566054710955
 30
0.0
 41
5.0
 42
5.0
 43
5.0
  0
INSERT
  5
239F
330
8A5
100
AcDbEntity
  8
SUNPOU
100
AcDbBlockReference
  2
_OPEN30
 10
172.3309004230175
 20
269.566054710955
 30
0.0
 41
5.0
 42
5.0
 43
5.0
 50
180.0
  0
POINT
  5
23A0
330
8A5
100
AcDbEntity
  8
DEFPOINTS
 62
     0
100
AcDbPoint
 10
169.3309004230175
 20
294.8323899371068
 30
0.0
  0
POINT
  5
23A1
330
8A5
100
AcDbEntity
  8
DEFPOINTS
 62
     0
100
AcDbPoint
 10
172.3309004230175
 20
269.566054710955
 30
0.0
  0
POINT
  5
23A2
330
8A5
100
AcDbEntity
  8
DEFPOINTS
 62
     0
100
AcDbPoint
 10
172.3309004230175
 20
269.566054710955
 30
0.0
  0
ENDBLK
  5
8B1
330
8A5
100
AcDbEntity
  8
0
100
AcDbBlockEnd
  0
BLOCK
  5
8BB
330
8B3
100
AcDbEntity
  8
0
100
AcDbBlockBegin
  2
*D15
 70
     1
 10
0.0
 20
0.0
 30
0.0
  3
*D15
  1

  0
LINE
  5
FA4
330
8B3
100
AcDbEntity
  8
SUNPOU
100
AcDbLine
 10
172.3309004230175
 20
272.566054710955
 30
0.0
 11
172.3309004230175
 21
271.566054710955
 31
0.0
  0
LINE
  5
FA5
330
8B3
100
AcDbEntity
  8
SUNPOU
100
AcDbLine
 10
228.3309004230178
 20
272.566054710955
 30
0.0
 11
228.3309004230178
 21
271.566054710955
 31
0.0
  0
LINE
  5
FA6
330
8B3
100
AcDbEntity
  8
SUNPOU
100
AcDbLine
 10
177.3309004230175
 20
269.566054710955
 30
0.0
 11
223.3309004230178
 21
269.566054710955
 31
0.0
  0
MTEXT
  5
FA7
330
8B3
100
AcDbEntity
  8
SUNPOU
100
AcDbMText
 10
206.7288976589515
 20
274.0660547109551
 30
0.0
 40
5.0
 41
0.0
 71
     5
 72
     1
  1
\A1;56
  7
SUNPOU
1001
ACAD
1000
MTEXTBEGIN
1070
    73
1070
     1
1070
    44
1040
1.0
1070
    74
1070
     0
1000
MTEXTEND
1000
MTEXTBEGIN
1070
    73
1070
     1
1070
    44
1040
1.0
1070
    74
1070
     0
1000
MTEXTEND
  0
INSERT
  5
FA8
330
8B3
100
AcDbEntity
  8
SUNPOU
100
AcDbBlockReference
  2
_OPEN30
 10
172.3309004230175
 20
269.566054710955
 30
0.0
 41
5.0
 42
5.0
 43
5.0
 50
180.0
  0
INSERT
  5
FA9
330
8B3
100
AcDbEntity
  8
SUNPOU
100
AcDbBlockReference
  2
_OPEN30
 10
228.3309004230178
 20
269.566054710955
 30
0.0
 41
5.0
 42
5.0
 43
5.0
  0
POINT
  5
FAA
330
8B3
100
AcDbEntity
  8
DEFPOINTS
 62
     0
100
AcDbPoint
 10
172.3309004230175
 20
269.566054710955
 30
0.0
  0
POINT
  5
FAB
330
8B3
100
AcDbEntity
  8
DEFPOINTS
 62
     0
100
AcDbPoint
 10
228.3309004230178
 20
269.566054710955
 30
0.0
  0
POINT
  5
FAC
330
8B3
100
AcDbEntity
  8
DEFPOINTS
 62
     0
100
AcDbPoint
 10
228.3309004230178
 20
269.566054710955
 30
0.0
  0
ENDBLK
  5
8BC
330
8B3
100
AcDbEntity
  8
0
100
AcDbBlockEnd
  0
BLOCK
  5
8C8
330
8BE
100
AcDbEntity
  8
0
100
AcDbBlockBegin
  2
*D16
 70
     1
 10
0.0
 20
0.0
 30
0.0
  3
*D16
  1

  0
LINE
  5
FAD
330
8BE
100
AcDbEntity
  8
SUNPOU
100
AcDbLine
 10
228.3309004230178
 20
272.566054710955
 30
0.0
 11
228.3309004230178
 21
271.566054710955
 31
0.0
  0
LINE
  5
FAE
330
8BE
100
AcDbEntity
  8
SUNPOU
100
AcDbLine
 10
233.3309004230175
 20
272.566054710955
 30
0.0
 11
233.3309004230175
 21
271.566054710955
 31
0.0
  0
LINE
  5
FAF
330
8BE
100
AcDbEntity
  8
SUNPOU
100
AcDbLine
 10
223.3309004230178
 20
269.566054710955
 30
0.0
 11
218.3309004230177
 21
269.566054710955
 31
0.0
  0
LINE
  5
FB0
330
8BE
100
AcDbEntity
  8
SUNPOU
100
AcDbLine
 10
238.3309004230178
 20
269.566054710955
 30
0.0
 11
243.3309004230177
 21
269.566054710955
 31
0.0
  0
MTEXT
  5
FB1
330
8BE
100
AcDbEntity
  8
SUNPOU
100
AcDbMText
 10
230.8309004230177
 20
274.1449570344623
 30
0.0
 40
5.0
 41
0.0
 71
     5
 72
     1
  1
\A1;5
  7
SUNPOU
1001
ACAD
1000
MTEXTBEGIN
1070
    73
1070
     1
1070
    44
1040
1.0
1070
    74
1070
     0
1000
MTEXTEND
1000
MTEXTBEGIN
1070
    73
1070
     1
1070
    44
1040
1.0
1070
    74
1070
     0
1000
MTEXTEND
  0
LINE
  5
FB2
330
8BE
100
AcDbEntity
  8
SUNPOU
100
AcDbLine
 10
228.3309004230178
 20
269.566054710955
 30
0.0
 11
233.3309004230175
 21
269.566054710955
 31
0.0
  0
INSERT
  5
FB3
330
8BE
100
AcDbEntity
  8
SUNPOU
100
AcDbBlockReference
  2
_OPEN30
 10
228.3309004230178
 20
269.566054710955
 30
0.0
 41
5.0
 42
5.0
 43
5.0
  0
INSERT
  5
FB4
330
8BE
100
AcDbEntity
  8
SUNPOU
100
AcDbBlockReference
  2
_OPEN30
 10
233.3309004230175
 20
269.566054710955
 30
0.0
 41
5.0
 42
5.0
 43
5.0
 50
180.0
  0
POINT
  5
FB5
330
8BE
100
AcDbEntity
  8
DEFPOINTS
 62
     0
100
AcDbPoint
 10
228.3309004230178
 20
269.566054710955
 30
0.0
  0
POINT
  5
FB6
330
8BE
100
AcDbEntity
  8
DEFPOINTS
 62
     0
100
AcDbPoint
 10
233.3309004230175
 20
269.566054710955
 30
0.0
  0
POINT
  5
FB7
330
8BE
100
AcDbEntity
  8
DEFPOINTS
 62
     0
100
AcDbPoint
 10
233.3309004230175
 20
269.566054710955
 30
0.0
  0
ENDBLK
  5
8C9
330
8BE
100
AcDbEntity
  8
0
100
AcDbBlockEnd
  0
BLOCK
  5
8D3
330
8CB
100
AcDbEntity
  8
0
100
AcDbBlockBegin
  2
*D17
 70
     1
 10
0.0
 20
0.0
 30
0.0
  3
*D17
  1

  0
LINE
  5
FB8
330
8CB
100
AcDbEntity
  8
SUNPOU
100
AcDbLine
 10
233.3309004230175
 20
272.566054710955
 30
0.0
 11
233.3309004230175
 21
271.566054710955
 31
0.0
  0
LINE
  5
FB9
330
8CB
100
AcDbEntity
  8
SUNPOU
100
AcDbLine
 10
265.3309004230178
 20
272.566054710955
 30
0.0
 11
265.3309004230178
 21
271.566054710955
 31
0.0
  0
LINE
  5
FBA
330
8CB
100
AcDbEntity
  8
SUNPOU
100
AcDbLine
 10
238.3309004230178
 20
269.566054710955
 30
0.0
 11
260.3309004230175
 21
269.566054710955
 31
0.0
  0
MTEXT
  5
FBB
330
8CB
100
AcDbEntity
  8
SUNPOU
100
AcDbMText
 10
254.8625060371944
 20
274.0660547109551
 30
0.0
 40
5.0
 41
0.0
 71
     5
 72
     1
  1
\A1;32
  7
SUNPOU
1001
ACAD
1000
MTEXTBEGIN
1070
    73
1070
     1
1070
    44
1040
1.0
1070
    74
1070
     0
1000
MTEXTEND
1000
MTEXTBEGIN
1070
    73
1070
     1
1070
    44
1040
1.0
1070
    74
1070
     0
1000
MTEXTEND
  0
INSERT
  5
FBC
330
8CB
100
AcDbEntity
  8
SUNPOU
100
AcDbBlockReference
  2
_OPEN30
 10
233.3309004230175
 20
269.566054710955
 30
0.0
 41
5.0
 42
5.0
 43
5.0
 50
180.0
  0
INSERT
  5
FBD
330
8CB
100
AcDbEntity
  8
SUNPOU
100
AcDbBlockReference
  2
_OPEN30
 10
265.3309004230178
 20
269.566054710955
 30
0.0
 41
5.0
 42
5.0
 43
5.0
  0
POINT
  5
FBE
330
8CB
100
AcDbEntity
  8
DEFPOINTS
 62
     0
100
AcDbPoint
 10
233.3309004230175
 20
269.566054710955
 30
0.0
  0
POINT
  5
FBF
330
8CB
100
AcDbEntity
  8
DEFPOINTS
 62
     0
100
AcDbPoint
 10
265.3309004230178
 20
269.566054710955
 30
0.0
  0
POINT
  5
FC0
330
8CB
100
AcDbEntity
  8
DEFPOINTS
 62
     0
100
AcDbPoint
 10
265.3309004230178
 20
269.566054710955
 30
0.0
  0
ENDBLK
  5
8D4
330
8CB
100
AcDbEntity
  8
0
100
AcDbBlockEnd
  0
BLOCK
  5
8EE
330
8E3
100
AcDbEntity
  8
0
100
AcDbBlockBegin
  2
*D18
 70
     1
 10
0.0
 20
0.0
 30
0.0
  3
*D18
  1

  0
LINE
  5
23A3
330
8E3
100
AcDbEntity
  8
SUNPOU
100
AcDbLine
 10
265.3309004230178
 20
272.566054710955
 30
0.0
 11
265.3309004230178
 21
271.566054710955
 31
0.0
  0
LINE
  5
23A4
330
8E3
100
AcDbEntity
  8
SUNPOU
100
AcDbLine
 10
270.3309004230177
 20
292.5823899371069
 30
0.0
 11
270.3309004230177
 21
267.566054710955
 31
0.0
  0
LINE
  5
23A5
330
8E3
100
AcDbEntity
  8
SUNPOU
100
AcDbLine
 10
260.3309004230175
 20
269.566054710955
 30
0.0
 11
255.3309004230178
 21
269.566054710955
 31
0.0
  0
LINE
  5
23A6
330
8E3
100
AcDbEntity
  8
SUNPOU
100
AcDbLine
 10
270.3309004230177
 20
269.566054710955
 30
0.0
 11
275.3309004230178
 21
269.566054710955
 31
0.0
  0
MTEXT
  5
23A7
330
8E3
100
AcDbEntity
  8
SUNPOU
100
AcDbMText
 10
267.8309004230178
 20
264.2762412935799
 30
0.0
 40
5.0
 41
0.0
 71
     5
 72
     1
  1
\A1;5
  7
SUNPOU
1001
ACAD
1000
MTEXTBEGIN
1070
    73
1070
     1
1070
    44
1040
1.0
1070
    74
1070
     0
1000
MTEXTEND
1000
MTEXTBEGIN
1070
    73
1070
     1
1070
    44
1040
1.0
1070
    74
1070
     0
1000
MTEXTEND
  0
LINE
  5
23A8
330
8E3
100
AcDbEntity
  8
SUNPOU
100
AcDbLine
 10
265.3309004230178
 20
269.566054710955
 30
0.0
 11
270.3309004230177
 21
269.566054710955
 31
0.0
  0
INSERT
  5
23A9
330
8E3
100
AcDbEntity
  8
SUNPOU
100
AcDbBlockReference
  2
_OPEN30
 10
265.3309004230178
 20
269.566054710955
 30
0.0
 41
5.0
 42
5.0
 43
5.0
  0
POINT
  5
23AA
330
8E3
100
AcDbEntity
  8
DEFPOINTS
 62
     0
100
AcDbPoint
 10
265.3309004230178
 20
269.566054710955
 30
0.0
  0
POINT
  5
23AB
330
8E3
100
AcDbEntity
  8
DEFPOINTS
 62
     0
100
AcDbPoint
 10
270.3309004230177
 20
295.5823899371068
 30
0.0
  0
POINT
  5
23AC
330
8E3
100
AcDbEntity
  8
DEFPOINTS
 62
     0
100
AcDbPoint
 10
270.3309004230177
 20
269.566054710955
 30
0.0
  0
ENDBLK
  5
8EF
330
8E3
100
AcDbEntity
  8
0
100
AcDbBlockEnd
  0
BLOCK
  5
8FD
330
8F1
100
AcDbEntity
  8
0
100
AcDbBlockBegin
  2
*D19
 70
     1
 10
0.0
 20
0.0
 30
0.0
  3
*D19
  1

  0
LINE
  5
23AD
330
8F1
100
AcDbEntity
  8
SUNPOU
100
AcDbLine
 10
270.3309004230177
 20
292.5823899371069
 30
0.0
 11
270.3309004230177
 21
267.566054710955
 31
0.0
  0
LINE
  5
23AE
330
8F1
100
AcDbEntity
  8
SUNPOU
100
AcDbLine
 10
283.3309004230176
 20
291.8323899371068
 30
0.0
 11
283.3309004230176
 21
267.566054710955
 31
0.0
  0
LINE
  5
23AF
330
8F1
100
AcDbEntity
  8
SUNPOU
100
AcDbLine
 10
270.3309004230177
 20
269.566054710955
 30
0.0
 11
283.3309004230176
 21
269.566054710955
 31
0.0
  0
INSERT
  5
23B0
330
8F1
100
AcDbEntity
  8
SUNPOU
100
AcDbBlockReference
  2
_DOTSMALL
 10
270.3309004230177
 20
269.566054710955
 30
0.0
 41
5.0
 42
5.0
 43
5.0
 50
180.0
  0
INSERT
  5
23B1
330
8F1
100
AcDbEntity
  8
SUNPOU
100
AcDbBlockReference
  2
_DOTSMALL
 10
283.3309004230176
 20
269.566054710955
 30
0.0
 41
5.0
 42
5.0
 43
5.0
  0
MTEXT
  5
23B2
330
8F1
100
AcDbEntity
  8
SUNPOU
100
AcDbMText
 10
276.8309004230177
 20
274.0660547109551
 30
0.0
 40
5.0
 41
0.0
 71
     5
 72
     1
  1
\A1;13
  7
SUNPOU
1001
ACAD
1000
MTEXTBEGIN
1070
    73
1070
     1
1070
    44
1040
1.0
1070
    74
1070
     0
1000
MTEXTEND
1000
MTEXTBEGIN
1070
    73
1070
     1
1070
    44
1040
1.0
1070
    74
1070
     0
1000
MTEXTEND
  0
POINT
  5
23B3
330
8F1
100
AcDbEntity
  8
DEFPOINTS
 62
     0
100
AcDbPoint
 10
270.3309004230177
 20
295.5823899371068
 30
0.0
  0
POINT
  5
23B4
330
8F1
100
AcDbEntity
  8
DEFPOINTS
 62
     0
100
AcDbPoint
 10
283.3309004230176
 20
294.8323899371068
 30
0.0
  0
POINT
  5
23B5
330
8F1
100
AcDbEntity
  8
DEFPOINTS
 62
     0
100
AcDbPoint
 10
283.3309004230176
 20
269.566054710955
 30
0.0
  0
ENDBLK
  5
8FE
330
8F1
100
AcDbEntity
  8
0
100
AcDbBlockEnd
  0
BLOCK
  5
90C
330
900
100
AcDbEntity
  8
0
100
AcDbBlockBegin
  2
*D20
 70
     1
 10
0.0
 20
0.0
 30
0.0
  3
*D20
  1

  0
LINE
  5
23B6
330
900
100
AcDbEntity
  8
SUNPOU
100
AcDbLine
 10
283.3309004230176
 20
291.8323899371068
 30
0.0
 11
283.3309004230176
 21
267.566054710955
 31
0.0
  0
LINE
  5
23B7
330
900
100
AcDbEntity
  8
SUNPOU
100
AcDbLine
 10
286.3309004230176
 20
271.762207140955
 30
0.0
 11
286.3309004230176
 21
271.566054710955
 31
0.0
  0
LINE
  5
23B8
330
900
100
AcDbEntity
  8
SUNPOU
100
AcDbLine
 10
283.3309004230176
 20
269.566054710955
 30
0.0
 11
278.3309004230175
 21
269.566054710955
 31
0.0
  0
LINE
  5
23B9
330
900
100
AcDbEntity
  8
SUNPOU
100
AcDbLine
 10
291.3309004230177
 20
269.566054710955
 30
0.0
 11
296.3309004230176
 21
269.566054710955
 31
0.0
  0
MTEXT
  5
23BA
330
900
100
AcDbEntity
  8
SUNPOU
100
AcDbMText
 10
294.0978512267197
 20
274.1994594871168
 30
0.0
 40
5.0
 41
0.0
 71
     5
 72
     1
  1
\A1;3
  7
SUNPOU
1001
ACAD
1000
MTEXTBEGIN
1070
    73
1070
     1
1070
    44
1040
1.0
1070
    74
1070
     0
1000
MTEXTEND
1000
MTEXTBEGIN
1070
    73
1070
     1
1070
    44
1040
1.0
1070
    74
1070
     0
1000
MTEXTEND
  0
LINE
  5
23BB
330
900
100
AcDbEntity
  8
SUNPOU
100
AcDbLine
 10
283.3309004230176
 20
269.566054710955
 30
0.0
 11
286.3309004230176
 21
269.566054710955
 31
0.0
  0
INSERT
  5
23BC
330
900
100
AcDbEntity
  8
SUNPOU
100
AcDbBlockReference
  2
_OPEN30
 10
286.3309004230176
 20
269.566054710955
 30
0.0
 41
5.0
 42
5.0
 43
5.0
 50
180.0
  0
POINT
  5
23BD
330
900
100
AcDbEntity
  8
DEFPOINTS
 62
     0
100
AcDbPoint
 10
283.3309004230176
 20
294.8323899371068
 30
0.0
  0
POINT
  5
23BE
330
900
100
AcDbEntity
  8
DEFPOINTS
 62
     0
100
AcDbPoint
 10
286.3309004230176
 20
268.762207140955
 30
0.0
  0
POINT
  5
23BF
330
900
100
AcDbEntity
  8
DEFPOINTS
 62
     0
100
AcDbPoint
 10
286.3309004230176
 20
269.566054710955
 30
0.0
  0
ENDBLK
  5
90D
330
900
100
AcDbEntity
  8
0
100
AcDbBlockEnd
  0
BLOCK
  5
980
330
978
100
AcDbEntity
  8
0
100
AcDbBlockBegin
  2
*D21
 70
     1
 10
0.0
 20
0.0
 30
0.0
  3
*D21
  1

  0
LINE
  5
FDE
330
978
100
AcDbEntity
  8
SUNPOU
100
AcDbLine
 10
166.3309004230175
 20
260.29713199372
 30
0.0
 11
166.3309004230175
 21
259.2971319937201
 31
0.0
  0
LINE
  5
FDF
330
978
100
AcDbEntity
  8
SUNPOU
100
AcDbLine
 10
286.3309004230176
 20
260.29713199372
 30
0.0
 11
286.3309004230176
 21
259.2971319937201
 31
0.0
  0
LINE
  5
FE0
330
978
100
AcDbEntity
  8
SUNPOU
100
AcDbLine
 10
171.3309004230175
 20
257.2971319937201
 30
0.0
 11
281.3309004230177
 21
257.2971319937201
 31
0.0
  0
MTEXT
  5
FE1
330
978
100
AcDbEntity
  8
SUNPOU
100
AcDbMText
 10
220.1144334864423
 20
261.7971319937201
 30
0.0
 40
5.0
 41
0.0
 71
     5
 72
     1
  1
\A1;120
  7
SUNPOU
1001
ACAD
1000
MTEXTBEGIN
1070
    73
1070
     1
1070
    44
1040
1.0
1070
    74
1070
     0
1000
MTEXTEND
1000
MTEXTBEGIN
1070
    73
1070
     1
1070
    44
1040
1.0
1070
    74
1070
     0
1000
MTEXTEND
  0
INSERT
  5
FE2
330
978
100
AcDbEntity
  8
SUNPOU
100
AcDbBlockReference
  2
_OPEN30
 10
166.3309004230175
 20
257.2971319937201
 30
0.0
 41
5.0
 42
5.0
 43
5.0
 50
180.0
  0
INSERT
  5
FE3
330
978
100
AcDbEntity
  8
SUNPOU
100
AcDbBlockReference
  2
_OPEN30
 10
286.3309004230176
 20
257.2971319937201
 30
0.0
 41
5.0
 42
5.0
 43
5.0
  0
POINT
  5
FE4
330
978
100
AcDbEntity
  8
DEFPOINTS
 62
     0
100
AcDbPoint
 10
166.3309004230175
 20
257.2971319937201
 30
0.0
  0
POINT
  5
FE5
330
978
100
AcDbEntity
  8
DEFPOINTS
 62
     0
100
AcDbPoint
 10
286.3309004230176
 20
257.2971319937201
 30
0.0
  0
POINT
  5
FE6
330
978
100
AcDbEntity
  8
DEFPOINTS
 62
     0
100
AcDbPoint
 10
286.3309004230176
 20
257.2971319937201
 30
0.0
  0
ENDBLK
  5
981
330
978
100
AcDbEntity
  8
0
100
AcDbBlockEnd
  0
BLOCK
  5
98F
330
983
100
AcDbEntity
  8
0
100
AcDbBlockBegin
  2
*D22
 70
     1
 10
0.0
 20
0.0
 30
0.0
  3
*D22
  1

  0
LINE
  5
FE7
330
983
100
AcDbEntity
  8
SUNPOU
100
AcDbLine
 10
194.3309004230175
 20
306.0823899371068
 30
0.0
 11
194.3309004230175
 21
280.6265208293019
 31
0.0
  0
LINE
  5
FE8
330
983
100
AcDbEntity
  8
SUNPOU
100
AcDbLine
 10
206.3309004230175
 20
306.0823899371068
 30
0.0
 11
206.3309004230175
 21
280.6265208293019
 31
0.0
  0
LINE
  5
FE9
330
983
100
AcDbEntity
  8
SUNPOU
100
AcDbLine
 10
189.3309004230175
 20
282.6265208293018
 30
0.0
 11
184.3309004230175
 21
282.6265208293018
 31
0.0
  0
LINE
  5
FEA
330
983
100
AcDbEntity
  8
SUNPOU
100
AcDbLine
 10
211.3309004230175
 20
282.6265208293018
 30
0.0
 11
216.3309004230177
 21
282.6265208293018
 31
0.0
  0
MTEXT
  5
FEB
330
983
100
AcDbEntity
  8
SUNPOU
100
AcDbMText
 10
200.3309004230175
 20
287.3537457307516
 30
0.0
 40
5.0
 41
0.0
 71
     5
 72
     1
  1
\A1;φ12
  7
SUNPOU
1001
ACAD
1000
MTEXTBEGIN
1070
    73
1070
     1
1070
    44
1040
1.0
1070
    74
1070
     0
1000
MTEXTEND
1000
MTEXTBEGIN
1070
    73
1070
     1
1070
    44
1040
1.0
1070
    74
1070
     0
1000
MTEXTEND
  0
LINE
  5
FEC
330
983
100
AcDbEntity
  8
SUNPOU
100
AcDbLine
 10
194.3309004230175
 20
282.6265208293018
 30
0.0
 11
206.3309004230175
 21
282.6265208293018
 31
0.0
  0
INSERT
  5
FED
330
983
100
AcDbEntity
  8
SUNPOU
100
AcDbBlockReference
  2
_OPEN30
 10
194.3309004230175
 20
282.6265208293018
 30
0.0
 41
5.0
 42
5.0
 43
5.0
  0
INSERT
  5
FEE
330
983
100
AcDbEntity
  8
SUNPOU
100
AcDbBlockReference
  2
_OPEN30
 10
206.3309004230175
 20
282.6265208293018
 30
0.0
 41
5.0
 42
5.0
 43
5.0
 50
180.0
  0
POINT
  5
FEF
330
983
100
AcDbEntity
  8
DEFPOINTS
 62
     0
100
AcDbPoint
 10
194.3309004230175
 20
309.0823899371069
 30
0.0
  0
POINT
  5
FF0
330
983
100
AcDbEntity
  8
DEFPOINTS
 62
     0
100
AcDbPoint
 10
206.3309004230175
 20
309.0823899371069
 30
0.0
  0
POINT
  5
FF1
330
983
100
AcDbEntity
  8
DEFPOINTS
 62
     0
100
AcDbPoint
 10
206.3309004230175
 20
282.6265208293018
 30
0.0
  0
ENDBLK
  5
990
330
983
100
AcDbEntity
  8
0
100
AcDbBlockEnd
  0
BLOCK
  5
9D4
330
9CB
100
AcDbEntity
  8
0
100
AcDbBlockBegin
  2
*D23
 70
     1
 10
0.0
 20
0.0
 30
0.0
  3
*D23
  1

  0
LINE
  5
FF2
330
9CB
100
AcDbEntity
  8
SUNPOU
100
AcDbLine
 10
180.1615587583258
 20
294.0823899371068
 30
0.0
 11
181.1615587583258
 21
294.0823899371068
 31
0.0
  0
LINE
  5
FF3
330
9CB
100
AcDbEntity
  8
SUNPOU
100
AcDbLine
 10
188.3309004230175
 20
309.0823899371069
 30
0.0
 11
181.1615587583258
 21
309.0823899371069
 31
0.0
  0
LINE
  5
FF4
330
9CB
100
AcDbEntity
  8
SUNPOU
100
AcDbLine
 10
183.1615587583256
 20
299.0823899371068
 30
0.0
 11
183.1615587583256
 21
304.0823899371068
 31
0.0
  0
INSERT
  5
FF5
330
9CB
100
AcDbEntity
  8
SUNPOU
100
AcDbBlockReference
  2
_OPEN30
 10
183.1615587583256
 20
294.0823899371068
 30
0.0
 41
5.0
 42
5.0
 43
5.0
 50
270.0
  0
INSERT
  5
FF6
330
9CB
100
AcDbEntity
  8
SUNPOU
100
AcDbBlockReference
  2
_OPEN30
 10
183.1615587583256
 20
309.0823899371069
 30
0.0
 41
5.0
 42
5.0
 43
5.0
 50
90.0
  0
MTEXT
  5
FF7
330
9CB
100
AcDbEntity
  8
SUNPOU
100
AcDbMText
 10
178.6615587583258
 20
301.5823899371068
 30
0.0
 40
5.0
 41
0.0
 71
     5
 72
     1
  1
\A1;15
  7
SUNPOU
 11
0.0000000000000001
 21
1.0
 31
0.0
1001
ACAD
1000
MTEXTBEGIN
1070
    73
1070
     1
1070
    44
1040
1.0
1070
    74
1070
     0
1000
MTEXTEND
1000
MTEXTBEGIN
1070
    73
1070
     1
1070
    44
1040
1.0
1070
    74
1070
     0
1000
MTEXTEND
  0
POINT
  5
FF8
330
9CB
100
AcDbEntity
  8
DEFPOINTS
 62
     0
100
AcDbPoint
 10
183.1615587583256
 20
294.0823899371068
 30
0.0
  0
POINT
  5
FF9
330
9CB
100
AcDbEntity
  8
DEFPOINTS
 62
     0
100
AcDbPoint
 10
191.3309004230175
 20
309.0823899371069
 30
0.0
  0
POINT
  5
FFA
330
9CB
100
AcDbEntity
  8
DEFPOINTS
 62
     0
100
AcDbPoint
 10
183.1615587583256
 20
309.0823899371069
 30
0.0
  0
ENDBLK
  5
9D5
330
9CB
100
AcDbEntity
  8
0
100
AcDbBlockEnd
  0
BLOCK
  5
9E1
330
9D7
100
AcDbEntity
  8
0
100
AcDbBlockBegin
  2
*D24
 70
     1
 10
0.0
 20
0.0
 30
0.0
  3
*D24
  1

  0
LINE
  5
FFB
330
9D7
100
AcDbEntity
  8
SUNPOU
100
AcDbLine
 10
167.0809004230175
 20
294.0823899371068
 30
0.0
 11
122.3331891307287
 21
294.0823899371068
 31
0.0
  0
LINE
  5
FFC
330
9D7
100
AcDbEntity
  8
SUNPOU
100
AcDbLine
 10
167.0809004230175
 20
476.0823899371067
 30
0.0
 11
122.3331891307287
 21
476.082389937107
 31
0.0
  0
LINE
  5
FFD
330
9D7
100
AcDbEntity
  8
SUNPOU
100
AcDbLine
 10
124.3331891307287
 20
299.0823899371068
 30
0.0
 11
124.3331891307287
 21
471.082389937107
 31
0.0
  0
INSERT
  5
FFE
330
9D7
100
AcDbEntity
  8
SUNPOU
100
AcDbBlockReference
  2
_OPEN30
 10
124.3331891307287
 20
294.0823899371068
 30
0.0
 41
5.0
 42
5.0
 43
5.0
 50
270.0
  0
INSERT
  5
FFF
330
9D7
100
AcDbEntity
  8
SUNPOU
100
AcDbBlockReference
  2
_OPEN30
 10
124.3331891307287
 20
476.082389937107
 30
0.0
 41
5.0
 42
5.0
 43
5.0
 50
90.0
  0
MTEXT
  5
1000
330
9D7
100
AcDbEntity
  8
SUNPOU
100
AcDbMText
 10
119.8331891307285
 20
385.082389937107
 30
0.0
 40
5.0
 41
0.0
 71
     5
 72
     1
  1
\A1;182
  7
SUNPOU
 11
0.0000000000000001
 21
1.0
 31
0.0
1001
ACAD
1000
MTEXTBEGIN
1070
    73
1070
     1
1070
    44
1040
1.0
1070
    74
1070
     0
1000
MTEXTEND
1000
MTEXTBEGIN
1070
    73
1070
     1
1070
    44
1040
1.0
1070
    74
1070
     0
1000
MTEXTEND
  0
POINT
  5
1001
330
9D7
100
AcDbEntity
  8
DEFPOINTS
 62
     0
100
AcDbPoint
 10
170.0809004230175
 20
294.0823899371068
 30
0.0
  0
POINT
  5
1002
330
9D7
100
AcDbEntity
  8
DEFPOINTS
 62
     0
100
AcDbPoint
 10
170.0809004230175
 20
476.0823899371067
 30
0.0
  0
POINT
  5
1003
330
9D7
100
AcDbEntity
  8
DEFPOINTS
 62
     0
100
AcDbPoint
 10
124.3331891307287
 20
476.082389937107
 30
0.0
  0
ENDBLK
  5
9E2
330
9D7
100
AcDbEntity
  8
0
100
AcDbBlockEnd
  0
BLOCK
  5
9EE
330
9E4
100
AcDbEntity
  8
0
100
AcDbBlockBegin
  2
*D25
 70
     1
 10
0.0
 20
0.0
 30
0.0
  3
*D25
  1

  0
LINE
  5
1004
330
9E4
100
AcDbEntity
  8
SUNPOU
100
AcDbLine
 10
167.0809004230175
 20
476.0823899371067
 30
0.0
 11
122.3331891307287
 21
476.082389937107
 31
0.0
  0
LINE
  5
1005
330
9E4
100
AcDbEntity
  8
SUNPOU
100
AcDbLine
 10
172.0809004230178
 20
494.0823899371069
 30
0.0
 11
122.3331891307287
 21
494.082389937107
 31
0.0
  0
LINE
  5
1006
330
9E4
100
AcDbEntity
  8
SUNPOU
100
AcDbLine
 10
124.3331891307287
 20
481.082389937107
 30
0.0
 11
124.3331891307287
 21
489.082389937107
 31
0.0
  0
INSERT
  5
1007
330
9E4
100
AcDbEntity
  8
SUNPOU
100
AcDbBlockReference
  2
_OPEN30
 10
124.3331891307287
 20
476.082389937107
 30
0.0
 41
5.0
 42
5.0
 43
5.0
 50
270.0
  0
INSERT
  5
1008
330
9E4
100
AcDbEntity
  8
SUNPOU
100
AcDbBlockReference
  2
_OPEN30
 10
124.3331891307287
 20
494.082389937107
 30
0.0
 41
5.0
 42
5.0
 43
5.0
 50
90.0
  0
MTEXT
  5
1009
330
9E4
100
AcDbEntity
  8
SUNPOU
100
AcDbMText
 10
119.8331891307285
 20
485.082389937107
 30
0.0
 40
5.0
 41
0.0
 71
     5
 72
     1
  1
\A1;18
  7
SUNPOU
 11
0.0000000000000001
 21
1.0
 31
0.0
1001
ACAD
1000
MTEXTBEGIN
1070
    73
1070
     1
1070
    44
1040
1.0
1070
    74
1070
     0
1000
MTEXTEND
1000
MTEXTBEGIN
1070
    73
1070
     1
1070
    44
1040
1.0
1070
    74
1070
     0
1000
MTEXTEND
  0
POINT
  5
100A
330
9E4
100
AcDbEntity
  8
DEFPOINTS
 62
     0
100
AcDbPoint
 10
170.0809004230175
 20
476.0823899371067
 30
0.0
  0
POINT
  5
100B
330
9E4
100
AcDbEntity
  8
DEFPOINTS
 62
     0
100
AcDbPoint
 10
175.0809004230178
 20
494.0823899371069
 30
0.0
  0
POINT
  5
100C
330
9E4
100
AcDbEntity
  8
DEFPOINTS
 62
     0
100
AcDbPoint
 10
124.3331891307287
 20
494.082389937107
 30
0.0
  0
ENDBLK
  5
9EF
330
9E4
100
AcDbEntity
  8
0
100
AcDbBlockEnd
  0
BLOCK
  5
9FB
330
9F1
100
AcDbEntity
  8
0
100
AcDbBlockBegin
  2
*D26
 70
     1
 10
0.0
 20
0.0
 30
0.0
  3
*D26
  1

  0
LINE
  5
100D
330
9F1
100
AcDbEntity
  8
SUNPOU
100
AcDbLine
 10
185.3309004230175
 20
322.0823899371068
 30
0.0
 11
136.2095173719075
 21
322.0823899371068
 31
0.0
  0
LINE
  5
100E
330
9F1
100
AcDbEntity
  8
SUNPOU
100
AcDbLine
 10
184.2797907710716
 20
447.0823836047266
 30
0.0
 11
136.2095173719075
 21
447.0823836047266
 31
0.0
  0
LINE
  5
100F
330
9F1
100
AcDbEntity
  8
SUNPOU
100
AcDbLine
 10
138.2095173719075
 20
327.0823899371068
 30
0.0
 11
138.2095173719075
 21
442.0823836047266
 31
0.0
  0
INSERT
  5
1010
330
9F1
100
AcDbEntity
  8
SUNPOU
100
AcDbBlockReference
  2
_OPEN30
 10
138.2095173719075
 20
322.0823899371068
 30
0.0
 41
5.0
 42
5.0
 43
5.0
 50
270.0
  0
INSERT
  5
1011
330
9F1
100
AcDbEntity
  8
SUNPOU
100
AcDbBlockReference
  2
_OPEN30
 10
138.2095173719075
 20
447.0823836047266
 30
0.0
 41
5.0
 42
5.0
 43
5.0
 50
90.0
  0
MTEXT
  5
1012
330
9F1
100
AcDbEntity
  8
SUNPOU
100
AcDbMText
 10
133.7095173719075
 20
384.5823867709168
 30
0.0
 40
5.0
 41
0.0
 71
     5
 72
     1
  1
\A1;125
  7
SUNPOU
 11
0.0000000000000001
 21
1.0
 31
0.0
1001
ACAD
1000
MTEXTBEGIN
1070
    73
1070
     1
1070
    44
1040
1.0
1070
    74
1070
     0
1000
MTEXTEND
1000
MTEXTBEGIN
1070
    73
1070
     1
1070
    44
1040
1.0
1070
    74
1070
     0
1000
MTEXTEND
  0
POINT
  5
1013
330
9F1
100
AcDbEntity
  8
DEFPOINTS
 62
     0
100
AcDbPoint
 10
188.3309004230175
 20
322.0823899371068
 30
0.0
  0
POINT
  5
1014
330
9F1
100
AcDbEntity
  8
DEFPOINTS
 62
     0
100
AcDbPoint
 10
187.2797907710715
 20
447.0823836047266
 30
0.0
  0
POINT
  5
1015
330
9F1
100
AcDbEntity
  8
DEFPOINTS
 62
     0
100
AcDbPoint
 10
138.2095173719075
 20
447.0823836047266
 30
0.0
  0
ENDBLK
  5
9FC
330
9F1
100
AcDbEntity
  8
0
100
AcDbBlockEnd
  0
BLOCK
  5
A08
330
9FE
100
AcDbEntity
  8
0
100
AcDbBlockBegin
  2
*D27
 70
     1
 10
0.0
 20
0.0
 30
0.0
  3
*D27
  1

  0
LINE
  5
1016
330
9FE
100
AcDbEntity
  8
SUNPOU
100
AcDbLine
 10
167.0809004230175
 20
294.0823899371068
 30
0.0
 11
149.2185750980127
 21
294.0823899371068
 31
0.0
  0
LINE
  5
1017
330
9FE
100
AcDbEntity
  8
SUNPOU
100
AcDbLine
 10
185.3309004230175
 20
322.0823899371068
 30
0.0
 11
149.2185750980127
 21
322.0823899371068
 31
0.0
  0
LINE
  5
1018
330
9FE
100
AcDbEntity
  8
SUNPOU
100
AcDbLine
 10
151.2185750980127
 20
299.0823899371068
 30
0.0
 11
151.2185750980127
 21
317.0823899371068
 31
0.0
  0
INSERT
  5
1019
330
9FE
100
AcDbEntity
  8
SUNPOU
100
AcDbBlockReference
  2
_OPEN30
 10
151.2185750980127
 20
294.0823899371068
 30
0.0
 41
5.0
 42
5.0
 43
5.0
 50
270.0
  0
INSERT
  5
101A
330
9FE
100
AcDbEntity
  8
SUNPOU
100
AcDbBlockReference
  2
_OPEN30
 10
151.2185750980127
 20
322.0823899371068
 30
0.0
 41
5.0
 42
5.0
 43
5.0
 50
90.0
  0
MTEXT
  5
101B
330
9FE
100
AcDbEntity
  8
SUNPOU
100
AcDbMText
 10
146.7185750980127
 20
308.0823899371068
 30
0.0
 40
5.0
 41
0.0
 71
     5
 72
     1
  1
\A1;28
  7
SUNPOU
 11
0.0000000000000001
 21
1.0
 31
0.0
1001
ACAD
1000
MTEXTBEGIN
1070
    73
1070
     1
1070
    44
1040
1.0
1070
    74
1070
     0
1000
MTEXTEND
1000
MTEXTBEGIN
1070
    73
1070
     1
1070
    44
1040
1.0
1070
    74
1070
     0
1000
MTEXTEND
  0
POINT
  5
101C
330
9FE
100
AcDbEntity
  8
DEFPOINTS
 62
     0
100
AcDbPoint
 10
170.0809004230175
 20
294.0823899371068
 30
0.0
  0
POINT
  5
101D
330
9FE
100
AcDbEntity
  8
DEFPOINTS
 62
     0
100
AcDbPoint
 10
188.3309004230175
 20
322.0823899371068
 30
0.0
  0
POINT
  5
101E
330
9FE
100
AcDbEntity
  8
DEFPOINTS
 62
     0
100
AcDbPoint
 10
151.2185750980127
 20
322.0823899371068
 30
0.0
  0
ENDBLK
  5
A09
330
9FE
100
AcDbEntity
  8
0
100
AcDbBlockEnd
  0
BLOCK
  5
A22
330
A18
100
AcDbEntity
  8
0
100
AcDbBlockBegin
  2
*D28
 70
     1
 10
0.0
 20
0.0
 30
0.0
  3
*D28
  1

  0
LINE
  5
101F
330
A18
100
AcDbEntity
  8
SUNPOU
100
AcDbLine
 10
185.3309004230175
 20
322.0823899371068
 30
0.0
 11
149.2185750980127
 21
322.0823899371068
 31
0.0
  0
LINE
  5
1020
330
A18
100
AcDbEntity
  8
SUNPOU
100
AcDbLine
 10
169.4309004230177
 20
386.0823899371069
 30
0.0
 11
149.2185750980127
 21
386.0823899371069
 31
0.0
  0
LINE
  5
1021
330
A18
100
AcDbEntity
  8
SUNPOU
100
AcDbLine
 10
151.2185750980127
 20
327.0823899371068
 30
0.0
 11
151.2185750980127
 21
381.0823899371067
 31
0.0
  0
INSERT
  5
1022
330
A18
100
AcDbEntity
  8
SUNPOU
100
AcDbBlockReference
  2
_OPEN30
 10
151.2185750980127
 20
322.0823899371068
 30
0.0
 41
5.0
 42
5.0
 43
5.0
 50
270.0
  0
INSERT
  5
1023
330
A18
100
AcDbEntity
  8
SUNPOU
100
AcDbBlockReference
  2
_OPEN30
 10
151.2185750980127
 20
386.0823899371069
 30
0.0
 41
5.0
 42
5.0
 43
5.0
 50
90.0
  0
MTEXT
  5
1024
330
A18
100
AcDbEntity
  8
SUNPOU
100
AcDbMText
 10
146.7185750980126
 20
354.0823899371067
 30
0.0
 40
5.0
 41
0.0
 71
     5
 72
     1
  1
\A1;64
  7
SUNPOU
 11
0.0000000000000001
 21
1.0
 31
0.0
1001
ACAD
1000
MTEXTBEGIN
1070
    73
1070
     1
1070
    44
1040
1.0
1070
    74
1070
     0
1000
MTEXTEND
1000
MTEXTBEGIN
1070
    73
1070
     1
1070
    44
1040
1.0
1070
    74
1070
     0
1000
MTEXTEND
  0
POINT
  5
1025
330
A18
100
AcDbEntity
  8
DEFPOINTS
 62
     0
100
AcDbPoint
 10
188.3309004230175
 20
322.0823899371068
 30
0.0
  0
POINT
  5
1026
330
A18
100
AcDbEntity
  8
DEFPOINTS
 62
     0
100
AcDbPoint
 10
172.4309004230175
 20
386.0823899371069
 30
0.0
  0
POINT
  5
1027
330
A18
100
AcDbEntity
  8
DEFPOINTS
 62
     0
100
AcDbPoint
 10
151.2185750980127
 20
386.0823899371069
 30
0.0
  0
ENDBLK
  5
A23
330
A18
100
AcDbEntity
  8
0
100
AcDbBlockEnd
  0
BLOCK
  5
A2F
330
A25
100
AcDbEntity
  8
0
100
AcDbBlockBegin
  2
*D29
 70
     1
 10
0.0
 20
0.0
 30
0.0
  3
*D29
  1

  0
LINE
  5
1028
330
A25
100
AcDbEntity
  8
SUNPOU
100
AcDbLine
 10
169.4309004230177
 20
386.0823899371069
 30
0.0
 11
149.2185750980127
 21
386.0823899371069
 31
0.0
  0
LINE
  5
1029
330
A25
100
AcDbEntity
  8
SUNPOU
100
AcDbLine
 10
169.4309004230177
 20
431.0823899371069
 30
0.0
 11
149.2185750980127
 21
431.0823899371069
 31
0.0
  0
LINE
  5
102A
330
A25
100
AcDbEntity
  8
SUNPOU
100
AcDbLine
 10
151.2185750980127
 20
391.0823899371067
 30
0.0
 11
151.2185750980127
 21
426.0823899371066
 31
0.0
  0
INSERT
  5
102B
330
A25
100
AcDbEntity
  8
SUNPOU
100
AcDbBlockReference
  2
_OPEN30
 10
151.2185750980127
 20
386.0823899371069
 30
0.0
 41
5.0
 42
5.0
 43
5.0
 50
270.0
  0
INSERT
  5
102C
330
A25
100
AcDbEntity
  8
SUNPOU
100
AcDbBlockReference
  2
_OPEN30
 10
151.2185750980127
 20
431.0823899371069
 30
0.0
 41
5.0
 42
5.0
 43
5.0
 50
90.0
  0
MTEXT
  5
102D
330
A25
100
AcDbEntity
  8
SUNPOU
100
AcDbMText
 10
146.7185750980127
 20
408.5823899371067
 30
0.0
 40
5.0
 41
0.0
 71
     5
 72
     1
  1
\A1;45
  7
SUNPOU
 11
0.0000000000000001
 21
1.0
 31
0.0
1001
ACAD
1000
MTEXTBEGIN
1070
    73
1070
     1
1070
    44
1040
1.0
1070
    74
1070
     0
1000
MTEXTEND
1000
MTEXTBEGIN
1070
    73
1070
     1
1070
    44
1040
1.0
1070
    74
1070
     0
1000
MTEXTEND
  0
POINT
  5
102E
330
A25
100
AcDbEntity
  8
DEFPOINTS
 62
     0
100
AcDbPoint
 10
172.4309004230175
 20
386.0823899371069
 30
0.0
  0
POINT
  5
102F
330
A25
100
AcDbEntity
  8
DEFPOINTS
 62
     0
100
AcDbPoint
 10
172.4309004230175
 20
431.0823899371069
 30
0.0
  0
POINT
  5
1030
330
A25
100
AcDbEntity
  8
DEFPOINTS
 62
     0
100
AcDbPoint
 10
151.2185750980127
 20
431.0823899371069
 30
0.0
  0
ENDBLK
  5
A30
330
A25
100
AcDbEntity
  8
0
100
AcDbBlockEnd
  0
BLOCK
  5
A4D
330
A44
100
AcDbEntity
  8
0
100
AcDbBlockBegin
  2
*D30
 70
     1
 10
0.0
 20
0.0
 30
0.0
  3
*D30
  1

  0
LINE
  5
1031
330
A44
100
AcDbEntity
  8
SUNPOU
100
AcDbLine
 10
144.5660277454199
 20
90.20192815750744
 30
0.0
 11
145.5660277454199
 21
90.20192815750744
 31
0.0
  0
LINE
  5
1032
330
A44
100
AcDbEntity
  8
SUNPOU
100
AcDbLine
 10
181.3309004230177
 20
200.082389937107
 30
0.0
 11
145.5660277454199
 21
200.082389937107
 31
0.0
  0
LINE
  5
1033
330
A44
100
AcDbEntity
  8
SUNPOU
100
AcDbLine
 10
147.5660277454199
 20
95.20192815750744
 30
0.0
 11
147.5660277454199
 21
195.0823899371068
 31
0.0
  0
INSERT
  5
1034
330
A44
100
AcDbEntity
  8
SUNPOU
100
AcDbBlockReference
  2
_OPEN30
 10
147.5660277454199
 20
90.20192815750744
 30
0.0
 41
5.0
 42
5.0
 43
5.0
 50
270.0
  0
INSERT
  5
1035
330
A44
100
AcDbEntity
  8
SUNPOU
100
AcDbBlockReference
  2
_OPEN30
 10
147.5660277454199
 20
200.082389937107
 30
0.0
 41
5.0
 42
5.0
 43
5.0
 50
90.0
  0
MTEXT
  5
1036
330
A44
100
AcDbEntity
  8
SUNPOU
100
AcDbMText
 10
143.0660277454198
 20
145.142159047307
 30
0.0
 40
5.0
 41
0.0
 71
     5
 72
     1
  1
\A1;600
  7
SUNPOU
 11
0.0000000000000001
 21
1.0
 31
0.0
1001
ACAD
1000
MTEXTBEGIN
1070
    73
1070
     1
1070
    44
1040
1.0
1070
    74
1070
     0
1000
MTEXTEND
1000
MTEXTBEGIN
1070
    73
1070
     1
1070
    44
1040
1.0
1070
    74
1070
     0
1000
MTEXTEND
  0
POINT
  5
1037
330
A44
100
AcDbEntity
  8
DEFPOINTS
 62
     0
100
AcDbPoint
 10
147.5660277454199
 20
90.20192815750744
 30
0.0
  0
POINT
  5
1038
330
A44
100
AcDbEntity
  8
DEFPOINTS
 62
     0
100
AcDbPoint
 10
184.3309004230175
 20
200.082389937107
 30
0.0
  0
POINT
  5
1039
330
A44
100
AcDbEntity
  8
DEFPOINTS
 62
     0
100
AcDbPoint
 10
147.5660277454199
 20
200.082389937107
 30
0.0
  0
ENDBLK
  5
A4E
330
A44
100
AcDbEntity
  8
0
100
AcDbBlockEnd
  0
BLOCK
  5
A5A
330
A50
100
AcDbEntity
  8
0
100
AcDbBlockBegin
  2
*D31
 70
     1
 10
0.0
 20
0.0
 30
0.0
  3
*D31
  1

  0
LINE
  5
103A
330
A50
100
AcDbEntity
  8
SUNPOU
100
AcDbLine
 10
260.8309004230179
 20
67.08238993710711
 30
0.0
 11
296.0643401311418
 21
67.08238993710709
 31
0.0
  0
LINE
  5
103B
330
A50
100
AcDbEntity
  8
SUNPOU
100
AcDbLine
 10
275.8309004230178
 20
92.08238993710713
 30
0.0
 11
296.0643401311418
 21
92.08238993710708
 31
0.0
  0
LINE
  5
103C
330
A50
100
AcDbEntity
  8
SUNPOU
100
AcDbLine
 10
294.0643401311418
 20
72.08238993710709
 30
0.0
 11
294.0643401311418
 21
87.08238993710708
 31
0.0
  0
INSERT
  5
103D
330
A50
100
AcDbEntity
  8
SUNPOU
100
AcDbBlockReference
  2
_OPEN30
 10
294.0643401311418
 20
67.08238993710709
 30
0.0
 41
5.0
 42
5.0
 43
5.0
 50
270.0
  0
INSERT
  5
103E
330
A50
100
AcDbEntity
  8
SUNPOU
100
AcDbBlockReference
  2
_OPEN30
 10
294.0643401311418
 20
92.08238993710708
 30
0.0
 41
5.0
 42
5.0
 43
5.0
 50
90.0
  0
MTEXT
  5
103F
330
A50
100
AcDbEntity
  8
SUNPOU
100
AcDbMText
 10
289.5643401311419
 20
79.58238993710715
 30
0.0
 40
5.0
 41
0.0
 71
     5
 72
     1
  1
\A1;25
  7
SUNPOU
 11
0.0000000000000001
 21
1.0
 31
0.0
1001
ACAD
1000
MTEXTBEGIN
1070
    73
1070
     1
1070
    44
1040
1.0
1070
    74
1070
     0
1000
MTEXTEND
1000
MTEXTBEGIN
1070
    73
1070
     1
1070
    44
1040
1.0
1070
    74
1070
     0
1000
MTEXTEND
  0
POINT
  5
1040
330
A50
100
AcDbEntity
  8
DEFPOINTS
 62
     0
100
AcDbPoint
 10
257.8309004230179
 20
67.08238993710711
 30
0.0
  0
POINT
  5
1041
330
A50
100
AcDbEntity
  8
DEFPOINTS
 62
     0
100
AcDbPoint
 10
272.8309004230179
 20
92.08238993710713
 30
0.0
  0
POINT
  5
1042
330
A50
100
AcDbEntity
  8
DEFPOINTS
 62
     0
100
AcDbPoint
 10
294.0643401311418
 20
92.08238993710708
 30
0.0
  0
ENDBLK
  5
A5B
330
A50
100
AcDbEntity
  8
0
100
AcDbBlockEnd
  0
BLOCK
  5
A68
330
A5D
100
AcDbEntity
  8
0
100
AcDbBlockBegin
  2
*D32
 70
     1
 10
0.0
 20
0.0
 30
0.0
  3
*D32
  1

  0
LINE
  5
1043
330
A5D
100
AcDbEntity
  8
SUNPOU
100
AcDbLine
 10
280.57757501162
 20
89.082389937107
 30
0.0
 11
281.57757501162
 21
89.082389937107
 31
0.0
  0
LINE
  5
1044
330
A5D
100
AcDbEntity
  8
SUNPOU
100
AcDbLine
 10
275.8309004230178
 20
92.08238993710706
 30
0.0
 11
285.57757501162
 21
92.08238993710706
 31
0.0
  0
LINE
  5
1045
330
A5D
100
AcDbEntity
  8
SUNPOU
100
AcDbLine
 10
283.57757501162
 20
84.082389937107
 30
0.0
 11
283.57757501162
 21
79.082389937107
 31
0.0
  0
LINE
  5
1046
330
A5D
100
AcDbEntity
  8
SUNPOU
100
AcDbLine
 10
283.57757501162
 20
97.08238993710708
 30
0.0
 11
283.57757501162
 21
102.0823899371069
 31
0.0
  0
MTEXT
  5
1047
330
A5D
100
AcDbEntity
  8
SUNPOU
100
AcDbMText
 10
279.0656929264794
 20
101.9945073201236
 30
0.0
 40
5.0
 41
0.0
 71
     5
 72
     1
  1
\A1;3
  7
SUNPOU
 11
0.0000000000000001
 21
1.0
 31
0.0
1001
ACAD
1000
MTEXTBEGIN
1070
    73
1070
     1
1070
    44
1040
1.0
1070
    74
1070
     0
1000
MTEXTEND
1000
MTEXTBEGIN
1070
    73
1070
     1
1070
    44
1040
1.0
1070
    74
1070
     0
1000
MTEXTEND
  0
LINE
  5
1048
330
A5D
100
AcDbEntity
  8
SUNPOU
100
AcDbLine
 10
283.57757501162
 20
89.082389937107
 30
0.0
 11
283.57757501162
 21
92.08238993710706
 31
0.0
  0
INSERT
  5
1049
330
A5D
100
AcDbEntity
  8
SUNPOU
100
AcDbBlockReference
  2
_OPEN30
 10
283.57757501162
 20
89.082389937107
 30
0.0
 41
5.0
 42
5.0
 43
5.0
 50
90.0
  0
INSERT
  5
104A
330
A5D
100
AcDbEntity
  8
SUNPOU
100
AcDbBlockReference
  2
_OPEN30
 10
283.57757501162
 20
92.08238993710706
 30
0.0
 41
5.0
 42
5.0
 43
5.0
 50
270.0
  0
POINT
  5
104B
330
A5D
100
AcDbEntity
  8
DEFPOINTS
 62
     0
100
AcDbPoint
 10
283.57757501162
 20
89.082389937107
 30
0.0
  0
POINT
  5
104C
330
A5D
100
AcDbEntity
  8
DEFPOINTS
 62
     0
100
AcDbPoint
 10
272.8309004230179
 20
92.08238993710706
 30
0.0
  0
POINT
  5
104D
330
A5D
100
AcDbEntity
  8
DEFPOINTS
 62
     0
100
AcDbPoint
 10
283.57757501162
 20
92.08238993710706
 30
0.0
  0
ENDBLK
  5
A69
330
A5D
100
AcDbEntity
  8
0
100
AcDbBlockEnd
  0
BLOCK
  5
A76
330
A6B
100
AcDbEntity
  8
0
100
AcDbBlockBegin
  2
*D33
 70
     1
 10
0.0
 20
0.0
 30
0.0
  3
*D33
  1

  0
LINE
  5
188F
330
A6B
100
AcDbEntity
  8
SUNPOU
100
AcDbLine
 10
320.4339188390511
 20
89.082389937107
 30
0.0
 11
321.4339188390511
 21
89.082389937107
 31
0.0
  0
LINE
  5
1890
330
A6B
100
AcDbEntity
  8
SUNPOU
100
AcDbLine
 10
268.3309004230175
 20
99.082389937107
 30
0.0
 11
325.4339188390511
 21
99.082389937107
 31
0.0
  0
LINE
  5
1891
330
A6B
100
AcDbEntity
  8
SUNPOU
100
AcDbLine
 10
323.4339188390511
 20
84.082389937107
 30
0.0
 11
323.4339188390511
 21
79.082389937107
 31
0.0
  0
LINE
  5
1892
330
A6B
100
AcDbEntity
  8
SUNPOU
100
AcDbLine
 10
323.4339188390511
 20
104.0823899371069
 30
0.0
 11
323.4339188390511
 21
109.0823899371069
 31
0.0
  0
LINE
  5
1893
330
A6B
100
AcDbEntity
  8
SUNPOU
100
AcDbLine
 10
323.4339188390511
 20
89.082389937107
 30
0.0
 11
323.4339188390511
 21
99.082389937107
 31
0.0
  0
INSERT
  5
1894
330
A6B
100
AcDbEntity
  8
SUNPOU
100
AcDbBlockReference
  2
_OPEN30
 10
323.4339188390511
 20
89.082389937107
 30
0.0
 41
5.0
 42
5.0
 43
5.0
 50
90.0
  0
INSERT
  5
1895
330
A6B
100
AcDbEntity
  8
SUNPOU
100
AcDbBlockReference
  2
_OPEN30
 10
323.4339188390511
 20
99.082389937107
 30
0.0
 41
5.0
 42
5.0
 43
5.0
 50
270.0
  0
MTEXT
  5
1896
330
A6B
100
AcDbEntity
  8
SUNPOU
100
AcDbMText
 10
318.9339188390511
 20
94.08238993710705
 30
0.0
 40
5.0
 41
0.0
 71
     5
 72
     1
  1
\A1;10
  7
SUNPOU
 11
0.0000000000000001
 21
1.0
 31
0.0
1001
ACAD
1000
MTEXTBEGIN
1070
    73
1070
     1
1070
    44
1040
1.0
1070
    74
1070
     0
1000
MTEXTEND
1000
MTEXTBEGIN
1070
    73
1070
     1
1070
    44
1040
1.0
1070
    74
1070
     0
1000
MTEXTEND
  0
POINT
  5
1897
330
A6B
100
AcDbEntity
  8
DEFPOINTS
 62
     0
100
AcDbPoint
 10
323.4339188390511
 20
89.082389937107
 30
0.0
  0
POINT
  5
1898
330
A6B
100
AcDbEntity
  8
DEFPOINTS
 62
     0
100
AcDbPoint
 10
265.3309004230175
 20
99.082389937107
 30
0.0
  0
POINT
  5
1899
330
A6B
100
AcDbEntity
  8
DEFPOINTS
 62
     0
100
AcDbPoint
 10
323.4339188390511
 20
99.082389937107
 30
0.0
  0
ENDBLK
  5
A77
330
A6B
100
AcDbEntity
  8
0
100
AcDbBlockEnd
  0
BLOCK
  5
A83
330
A79
100
AcDbEntity
  8
0
100
AcDbBlockBegin
  2
*D34
 70
     1
 10
0.0
 20
0.0
 30
0.0
  3
*D34
  1

  0
LINE
  5
189A
330
A79
100
AcDbEntity
  8
SUNPOU
100
AcDbLine
 10
268.3309004230175
 20
99.082389937107
 30
0.0
 11
325.4339188390511
 21
99.082389937107
 31
0.0
  0
LINE
  5
189B
330
A79
100
AcDbEntity
  8
SUNPOU
100
AcDbLine
 10
274.8309004230175
 20
304.0823899371068
 30
0.0
 11
325.4339188390511
 21
304.0823899371068
 31
0.0
  0
LINE
  5
189C
330
A79
100
AcDbEntity
  8
SUNPOU
100
AcDbLine
 10
323.4339188390511
 20
104.0823899371069
 30
0.0
 11
323.4339188390511
 21
299.0823899371068
 31
0.0
  0
INSERT
  5
189D
330
A79
100
AcDbEntity
  8
SUNPOU
100
AcDbBlockReference
  2
_OPEN30
 10
323.4339188390511
 20
99.082389937107
 30
0.0
 41
5.0
 42
5.0
 43
5.0
 50
270.0
  0
INSERT
  5
189E
330
A79
100
AcDbEntity
  8
SUNPOU
100
AcDbBlockReference
  2
_OPEN30
 10
323.4339188390511
 20
304.0823899371068
 30
0.0
 41
5.0
 42
5.0
 43
5.0
 50
90.0
  0
MTEXT
  5
189F
330
A79
100
AcDbEntity
  8
SUNPOU
100
AcDbMText
 10
318.9339188390511
 20
201.5823899371068
 30
0.0
 40
5.0
 41
0.0
 71
     5
 72
     1
  1
\A1;DH
  7
SUNPOU
 11
0.0000000000000001
 21
1.0
 31
0.0
1001
ACAD
1000
MTEXTBEGIN
1070
    73
1070
     1
1070
    44
1040
1.0
1070
    74
1070
     0
1000
MTEXTEND
1000
MTEXTBEGIN
1070
    73
1070
     1
1070
    44
1040
1.0
1070
    74
1070
     0
1000
MTEXTEND
  0
POINT
  5
18A0
330
A79
100
AcDbEntity
  8
DEFPOINTS
 62
     0
100
AcDbPoint
 10
265.3309004230175
 20
99.082389937107
 30
0.0
  0
POINT
  5
18A1
330
A79
100
AcDbEntity
  8
DEFPOINTS
 62
     0
100
AcDbPoint
 10
271.8309004230178
 20
304.0823899371068
 30
0.0
  0
POINT
  5
18A2
330
A79
100
AcDbEntity
  8
DEFPOINTS
 62
     0
100
AcDbPoint
 10
323.4339188390511
 20
304.0823899371068
 30
0.0
  0
ENDBLK
  5
A84
330
A79
100
AcDbEntity
  8
0
100
AcDbBlockEnd
  0
BLOCK
  5
A92
330
A86
100
AcDbEntity
  8
0
100
AcDbBlockBegin
  2
*D35
 70
     1
 10
0.0
 20
0.0
 30
0.0
  3
*D35
  1

  0
LINE
  5
18D3
330
A86
100
AcDbEntity
  8
SUNPOU
100
AcDbLine
 10
285.5809004230176
 20
294.0823899371068
 30
0.0
 11
300.4339188390511
 21
294.0823899371068
 31
0.0
  0
LINE
  5
18D4
330
A86
100
AcDbEntity
  8
SUNPOU
100
AcDbLine
 10
274.8309004230175
 20
304.0823899371068
 30
0.0
 11
300.4339188390511
 21
304.0823899371068
 31
0.0
  0
LINE
  5
18D5
330
A86
100
AcDbEntity
  8
SUNPOU
100
AcDbLine
 10
298.4339188390511
 20
289.0823899371068
 30
0.0
 11
298.4339188390511
 21
284.0823899371068
 31
0.0
  0
LINE
  5
18D6
330
A86
100
AcDbEntity
  8
SUNPOU
100
AcDbLine
 10
298.4339188390511
 20
309.0823899371069
 30
0.0
 11
298.4339188390511
 21
314.0823899371068
 31
0.0
  0
LINE
  5
18D7
330
A86
100
AcDbEntity
  8
SUNPOU
100
AcDbLine
 10
298.4339188390511
 20
294.0823899371068
 30
0.0
 11
298.4339188390511
 21
304.0823899371068
 31
0.0
  0
INSERT
  5
18D8
330
A86
100
AcDbEntity
  8
SUNPOU
100
AcDbBlockReference
  2
_OPEN30
 10
298.4339188390511
 20
294.0823899371068
 30
0.0
 41
5.0
 42
5.0
 43
5.0
 50
90.0
  0
INSERT
  5
18D9
330
A86
100
AcDbEntity
  8
SUNPOU
100
AcDbBlockReference
  2
_OPEN30
 10
298.4339188390511
 20
304.0823899371068
 30
0.0
 41
5.0
 42
5.0
 43
5.0
 50
270.0
  0
MTEXT
  5
18DA
330
A86
100
AcDbEntity
  8
SUNPOU
100
AcDbMText
 10
293.9339188390511
 20
299.0823899371068
 30
0.0
 40
5.0
 41
0.0
 71
     5
 72
     1
  1
\A1;10
  7
SUNPOU
 11
0.0000000000000001
 21
1.0
 31
0.0
1001
ACAD
1000
MTEXTBEGIN
1070
    73
1070
     1
1070
    44
1040
1.0
1070
    74
1070
     0
1000
MTEXTEND
1000
MTEXTBEGIN
1070
    73
1070
     1
1070
    44
1040
1.0
1070
    74
1070
     0
1000
MTEXTEND
  0
POINT
  5
18DB
330
A86
100
AcDbEntity
  8
DEFPOINTS
 62
     0
100
AcDbPoint
 10
282.5809004230176
 20
294.0823899371068
 30
0.0
  0
POINT
  5
18DC
330
A86
100
AcDbEntity
  8
DEFPOINTS
 62
     0
100
AcDbPoint
 10
271.8309004230178
 20
304.0823899371068
 30
0.0
  0
POINT
  5
18DD
330
A86
100
AcDbEntity
  8
DEFPOINTS
 62
     0
100
AcDbPoint
 10
298.4339188390511
 20
304.0823899371068
 30
0.0
  0
ENDBLK
  5
A93
330
A86
100
AcDbEntity
  8
0
100
AcDbBlockEnd
  0
BLOCK
  5
A9F
330
A95
100
AcDbEntity
  8
0
100
AcDbBlockBegin
  2
*D36
 70
     1
 10
0.0
 20
0.0
 30
0.0
  3
*D36
  1

  0
LINE
  5
1886
330
A95
100
AcDbEntity
  8
SUNPOU
100
AcDbLine
 10
277.3309004230175
 20
89.082389937107
 30
0.0
 11
340.433918839051
 21
89.082389937107
 31
0.0
  0
LINE
  5
1887
330
A95
100
AcDbEntity
  8
SUNPOU
100
AcDbLine
 10
285.5809004230176
 20
294.0823899371068
 30
0.0
 11
340.4339188390511
 21
294.0823899371068
 31
0.0
  0
LINE
  5
1888
330
A95
100
AcDbEntity
  8
SUNPOU
100
AcDbLine
 10
338.433918839051
 20
94.082389937107
 30
0.0
 11
338.4339188390511
 21
289.0823899371068
 31
0.0
  0
INSERT
  5
1889
330
A95
100
AcDbEntity
  8
SUNPOU
100
AcDbBlockReference
  2
_OPEN30
 10
338.433918839051
 20
89.082389937107
 30
0.0
 41
5.0
 42
5.0
 43
5.0
 50
270.0
  0
INSERT
  5
188A
330
A95
100
AcDbEntity
  8
SUNPOU
100
AcDbBlockReference
  2
_OPEN30
 10
338.4339188390511
 20
294.0823899371068
 30
0.0
 41
5.0
 42
5.0
 43
5.0
 50
90.0
  0
MTEXT
  5
188B
330
A95
100
AcDbEntity
  8
SUNPOU
100
AcDbMText
 10
333.9339188390511
 20
191.5823899371068
 30
0.0
 40
5.0
 41
0.0
 71
     5
 72
     1
  1
\A1;H
  7
SUNPOU
 11
0.0000000000000001
 21
1.0
 31
0.0
1001
ACAD
1000
MTEXTBEGIN
1070
    73
1070
     1
1070
    44
1040
1.0
1070
    74
1070
     0
1000
MTEXTEND
1000
MTEXTBEGIN
1070
    73
1070
     1
1070
    44
1040
1.0
1070
    74
1070
     0
1000
MTEXTEND
  0
POINT
  5
188C
330
A95
100
AcDbEntity
  8
DEFPOINTS
 62
     0
100
AcDbPoint
 10
274.3309004230175
 20
89.082389937107
 30
0.0
  0
POINT
  5
188D
330
A95
100
AcDbEntity
  8
DEFPOINTS
 62
     0
100
AcDbPoint
 10
282.5809004230176
 20
294.0823899371068
 30
0.0
  0
POINT
  5
188E
330
A95
100
AcDbEntity
  8
DEFPOINTS
 62
     0
100
AcDbPoint
 10
338.4339188390511
 20
294.0823899371068
 30
0.0
  0
ENDBLK
  5
AA0
330
A95
100
AcDbEntity
  8
0
100
AcDbBlockEnd
  0
BLOCK
  5
AAC
330
AA2
100
AcDbEntity
  8
0
100
AcDbBlockBegin
  2
*D37
 70
     1
 10
0.0
 20
0.0
 30
0.0
  3
*D37
  1

  0
LINE
  5
187D
330
AA2
100
AcDbEntity
  8
SUNPOU
100
AcDbLine
 10
285.5809004230176
 20
294.0823899371068
 30
0.0
 11
340.4339188390511
 21
294.0823899371068
 31
0.0
  0
LINE
  5
187E
330
AA2
100
AcDbEntity
  8
SUNPOU
100
AcDbLine
 10
285.5809004230176
 20
494.0823899371069
 30
0.0
 11
340.4339188390511
 21
494.0823899371069
 31
0.0
  0
LINE
  5
187F
330
AA2
100
AcDbEntity
  8
SUNPOU
100
AcDbLine
 10
338.4339188390511
 20
299.0823899371068
 30
0.0
 11
338.4339188390511
 21
489.0823899371069
 31
0.0
  0
INSERT
  5
1880
330
AA2
100
AcDbEntity
  8
SUNPOU
100
AcDbBlockReference
  2
_OPEN30
 10
338.4339188390511
 20
294.0823899371068
 30
0.0
 41
5.0
 42
5.0
 43
5.0
 50
270.0
  0
INSERT
  5
1881
330
AA2
100
AcDbEntity
  8
SUNPOU
100
AcDbBlockReference
  2
_OPEN30
 10
338.4339188390511
 20
494.0823899371069
 30
0.0
 41
5.0
 42
5.0
 43
5.0
 50
90.0
  0
MTEXT
  5
1882
330
AA2
100
AcDbEntity
  8
SUNPOU
100
AcDbMText
 10
333.9339188390511
 20
394.0823899371067
 30
0.0
 40
5.0
 41
0.0
 71
     5
 72
     1
  1
\A1;200
  7
SUNPOU
 11
0.0000000000000001
 21
1.0
 31
0.0
1001
ACAD
1000
MTEXTBEGIN
1070
    73
1070
     1
1070
    44
1040
1.0
1070
    74
1070
     0
1000
MTEXTEND
1000
MTEXTBEGIN
1070
    73
1070
     1
1070
    44
1040
1.0
1070
    74
1070
     0
1000
MTEXTEND
  0
POINT
  5
1883
330
AA2
100
AcDbEntity
  8
DEFPOINTS
 62
     0
100
AcDbPoint
 10
282.5809004230176
 20
294.0823899371068
 30
0.0
  0
POINT
  5
1884
330
AA2
100
AcDbEntity
  8
DEFPOINTS
 62
     0
100
AcDbPoint
 10
282.5809004230176
 20
494.0823899371069
 30
0.0
  0
POINT
  5
1885
330
AA2
100
AcDbEntity
  8
DEFPOINTS
 62
     0
100
AcDbPoint
 10
338.4339188390511
 20
494.0823899371069
 30
0.0
  0
ENDBLK
  5
AAD
330
AA2
100
AcDbEntity
  8
0
100
AcDbBlockEnd
  0
BLOCK
  5
1183
330
117A
100
AcDbEntity
  8
0
100
AcDbBlockBegin
  2
*D38
 70
     1
 10
0.0
 20
0.0
 30
0.0
  3
*D38
  1

  0
LINE
  5
1185
330
117A
100
AcDbEntity
  8
SUNPOU
100
AcDbLine
 10
203.9213313405481
 20
412.4239326684135
 30
0.0
 11
200.2688788678998
 21
409.0093183512403
 31
0.0
  0
LINE
  5
1186
330
117A
100
AcDbEntity
  8
SUNPOU
100
AcDbLine
 10
233.1409511217353
 20
439.7408472057998
 30
0.0
 11
236.7934035943837
 21
443.1554615229733
 31
0.0
  0
MTEXT
  5
1187
330
117A
100
AcDbEntity
  8
SUNPOU
100
AcDbMText
 10
215.6865484155801
 20
429.1794247315372
 30
0.0
 40
5.0
 41
0.0
 71
     5
 72
     1
  1
\A1;配線孔\U+220530
  7
SUNPOU
 11
0.7304904945296759
 21
0.6829228634346559
 31
0.0
1001
ACAD
1000
MTEXTBEGIN
1070
    73
1070
     1
1070
    44
1040
1.0
1070
    74
1070
     0
1000
MTEXTEND
1000
MTEXTBEGIN
1070
    73
1070
     1
1070
    44
1040
1.0
1070
    74
1070
     0
1000
MTEXTEND
  0
LINE
  5
1188
330
117A
100
AcDbEntity
  8
SUNPOU
100
AcDbLine
 10
207.5737838131966
 20
415.8385469855867
 30
0.0
 11
229.4884986490869
 21
436.3262328886267
 31
0.0
  0
INSERT
  5
1189
330
117A
100
AcDbEntity
  8
SUNPOU
100
AcDbBlockReference
  2
_OPEN30
 10
207.5737838131966
 20
415.8385469855867
 30
0.0
 41
5.0
 42
5.0
 43
5.0
 50
43.07247028711794
  0
INSERT
  5
118A
330
117A
100
AcDbEntity
  8
SUNPOU
100
AcDbBlockReference
  2
_OPEN30
 10
229.4884986490869
 20
436.3262328886267
 30
0.0
 41
5.0
 42
5.0
 43
5.0
 50
223.0724702871178
  0
POINT
  5
118B
330
117A
100
AcDbEntity
  8
DEFPOINTS
 62
     0
100
AcDbPoint
 10
229.4884986490869
 20
436.3262328886267
 30
0.0
  0
POINT
  5
118C
330
117A
100
AcDbEntity
  8
DEFPOINTS
 62
     0
100
AcDbPoint
 10
207.5737838131966
 20
415.8385469855867
 30
0.0
  0
ENDBLK
  5
1184
330
117A
100
AcDbEntity
  8
0
100
AcDbBlockEnd
  0
BLOCK
  5
18B9
330
18AF
100
AcDbEntity
  8
0
100
AcDbBlockBegin
  2
*D39
 70
     1
 10
0.0
 20
0.0
 30
0.0
  3
*D39
  1

  0
LINE
  5
18B0
330
18AF
100
AcDbEntity
  8
SUNPOU
100
AcDbLine
 10
268.3309004230175
 20
99.082389937107
 30
0.0
 11
310.4339188390511
 21
99.082389937107
 31
0.0
  0
LINE
  5
18B1
330
18AF
100
AcDbEntity
  8
SUNPOU
100
AcDbLine
 10
266.0809004230177
 20
184.082389937107
 30
0.0
 11
310.4339188390511
 21
184.082389937107
 31
0.0
  0
LINE
  5
18B2
330
18AF
100
AcDbEntity
  8
SUNPOU
100
AcDbLine
 10
308.4339188390511
 20
104.0823899371069
 30
0.0
 11
308.4339188390511
 21
179.082389937107
 31
0.0
  0
INSERT
  5
18B3
330
18AF
100
AcDbEntity
  8
SUNPOU
100
AcDbBlockReference
  2
_OPEN30
 10
308.4339188390511
 20
99.082389937107
 30
0.0
 41
5.0
 42
5.0
 43
5.0
 50
270.0
  0
INSERT
  5
18B4
330
18AF
100
AcDbEntity
  8
SUNPOU
100
AcDbBlockReference
  2
_OPEN30
 10
308.4339188390511
 20
184.082389937107
 30
0.0
 41
5.0
 42
5.0
 43
5.0
 50
90.0
  0
MTEXT
  5
18B5
330
18AF
100
AcDbEntity
  8
SUNPOU
100
AcDbMText
 10
303.9339188390511
 20
141.5823899371069
 30
0.0
 40
5.0
 41
0.0
 71
     5
 72
     1
  1
\A1;85
  7
SUNPOU
 11
0.0000000000000001
 21
1.0
 31
0.0
1001
ACAD
1000
MTEXTBEGIN
1070
    73
1070
     1
1070
    44
1040
1.0
1070
    74
1070
     0
1000
MTEXTEND
1000
MTEXTBEGIN
1070
    73
1070
     1
1070
    44
1040
1.0
1070
    74
1070
     0
1000
MTEXTEND
  0
POINT
  5
18B6
330
18AF
100
AcDbEntity
  8
DEFPOINTS
 62
     0
100
AcDbPoint
 10
265.3309004230175
 20
99.082389937107
 30
0.0
  0
POINT
  5
18B7
330
18AF
100
AcDbEntity
  8
DEFPOINTS
 62
     0
100
AcDbPoint
 10
263.0809004230178
 20
184.082389937107
 30
0.0
  0
POINT
  5
18B8
330
18AF
100
AcDbEntity
  8
DEFPOINTS
 62
     0
100
AcDbPoint
 10
308.4339188390511
 20
184.082389937107
 30
0.0
  0
ENDBLK
  5
18BA
330
18AF
100
AcDbEntity
  8
0
100
AcDbBlockEnd
  0
BLOCK
  5
18C6
330
18BC
100
AcDbEntity
  8
0
100
AcDbBlockBegin
  2
*D40
 70
     1
 10
0.0
 20
0.0
 30
0.0
  3
*D40
  1

  0
LINE
  5
18BD
330
18BC
100
AcDbEntity
  8
SUNPOU
100
AcDbLine
 10
266.0809004230177
 20
219.0823899371068
 30
0.0
 11
310.4339188390511
 21
219.0823899371068
 31
0.0
  0
LINE
  5
18BE
330
18BC
100
AcDbEntity
  8
SUNPOU
100
AcDbLine
 10
268.3309004230177
 20
304.082389937107
 30
0.0
 11
310.4339188390511
 21
304.082389937107
 31
0.0
  0
LINE
  5
18BF
330
18BC
100
AcDbEntity
  8
SUNPOU
100
AcDbLine
 10
308.4339188390511
 20
224.0823899371068
 30
0.0
 11
308.4339188390511
 21
299.0823899371068
 31
0.0
  0
INSERT
  5
18C0
330
18BC
100
AcDbEntity
  8
SUNPOU
100
AcDbBlockReference
  2
_OPEN30
 10
308.4339188390511
 20
219.0823899371068
 30
0.0
 41
5.0
 42
5.0
 43
5.0
 50
270.0
  0
INSERT
  5
18C1
330
18BC
100
AcDbEntity
  8
SUNPOU
100
AcDbBlockReference
  2
_OPEN30
 10
308.4339188390511
 20
304.082389937107
 30
0.0
 41
5.0
 42
5.0
 43
5.0
 50
90.0
  0
MTEXT
  5
18C2
330
18BC
100
AcDbEntity
  8
SUNPOU
100
AcDbMText
 10
303.9339188390511
 20
261.5823899371068
 30
0.0
 40
5.0
 41
0.0
 71
     5
 72
     1
  1
\A1;85
  7
SUNPOU
 11
0.0000000000000001
 21
1.0
 31
0.0
1001
ACAD
1000
MTEXTBEGIN
1070
    73
1070
     1
1070
    44
1040
1.0
1070
    74
1070
     0
1000
MTEXTEND
1000
MTEXTBEGIN
1070
    73
1070
     1
1070
    44
1040
1.0
1070
    74
1070
     0
1000
MTEXTEND
  0
POINT
  5
18C3
330
18BC
100
AcDbEntity
  8
DEFPOINTS
 62
     0
100
AcDbPoint
 10
263.0809004230175
 20
219.0823899371068
 30
0.0
  0
POINT
  5
18C4
330
18BC
100
AcDbEntity
  8
DEFPOINTS
 62
     0
100
AcDbPoint
 10
265.3309004230178
 20
304.082389937107
 30
0.0
  0
POINT
  5
18C5
330
18BC
100
AcDbEntity
  8
DEFPOINTS
 62
     0
100
AcDbPoint
 10
308.4339188390511
 20
304.082389937107
 30
0.0
  0
ENDBLK
  5
18C7
330
18BC
100
AcDbEntity
  8
0
100
AcDbBlockEnd
  0
BLOCK
  5
23C7
330
23C0
100
AcDbEntity
  8
0
100
AcDbBlockBegin
  2
*X41
 70
     1
 10
0.0
 20
0.0
 30
0.0
  3
*X41
  1

  0
LINE
  5
23C1
330
23C0
100
AcDbEntity
  8
0
 62
     0
100
AcDbLine
 10
183.75
 20
431.0823899371069
 30
0.0
 11
183.75
 21
434.0823899371066
 31
0.0
  0
LINE
  5
23C2
330
23C0
100
AcDbEntity
  8
0
 62
     0
100
AcDbLine
 10
183.75
 20
428.0823899371068
 30
0.0
 11
183.75
 21
431.0823899371067
 31
0.0
  0
LINE
  5
23C3
330
23C0
100
AcDbEntity
  8
0
 62
     0
100
AcDbLine
 10
181.875
 20
431.0823899371069
 30
0.0
 11
181.875
 21
434.0823899371066
 31
0.0
  0
LINE
  5
23C4
330
23C0
100
AcDbEntity
  8
0
 62
     0
100
AcDbLine
 10
181.875
 20
428.0823899371068
 30
0.0
 11
181.875
 21
431.0823899371067
 31
0.0
  0
LINE
  5
23C5
330
23C0
100
AcDbEntity
  8
0
 62
     0
100
AcDbLine
 10
180.0
 20
431.0823899371069
 30
0.0
 11
180.0
 21
434.0823899371066
 31
0.0
  0
LINE
  5
23C6
330
23C0
100
AcDbEntity
  8
0
 62
     0
100
AcDbLine
 10
180.0
 20
428.0823899371068
 30
0.0
 11
180.0
 21
431.0823899371067
 31
0.0
  0
ENDBLK
  5
23C8
330
23C0
100
AcDbEntity
  8
0
100
AcDbBlockEnd
  0
BLOCK
  5
23D0
330
23C9
100
AcDbEntity
  8
0
100
AcDbBlockBegin
  2
*X42
 70
     1
 10
0.0
 20
0.0
 30
0.0
  3
*X42
  1

  0
LINE
  5
23CA
330
23C9
100
AcDbEntity
  8
0
 62
     0
100
AcDbLine
 10
183.75
 20
386.0823899371069
 30
0.0
 11
183.75
 21
389.0823899371067
 31
0.0
  0
LINE
  5
23CB
330
23C9
100
AcDbEntity
  8
0
 62
     0
100
AcDbLine
 10
183.75
 20
383.0823899371067
 30
0.0
 11
183.75
 21
386.0823899371067
 31
0.0
  0
LINE
  5
23CC
330
23C9
100
AcDbEntity
  8
0
 62
     0
100
AcDbLine
 10
181.875
 20
386.0823899371069
 30
0.0
 11
181.875
 21
389.0823899371067
 31
0.0
  0
LINE
  5
23CD
330
23C9
100
AcDbEntity
  8
0
 62
     0
100
AcDbLine
 10
181.875
 20
383.0823899371067
 30
0.0
 11
181.875
 21
386.0823899371067
 31
0.0
  0
LINE
  5
23CE
330
23C9
100
AcDbEntity
  8
0
 62
     0
100
AcDbLine
 10
180.0
 20
386.0823899371069
 30
0.0
 11
180.0
 21
389.0823899371067
 31
0.0
  0
LINE
  5
23CF
330
23C9
100
AcDbEntity
  8
0
 62
     0
100
AcDbLine
 10
180.0
 20
383.0823899371067
 30
0.0
 11
180.0
 21
386.0823899371067
 31
0.0
  0
ENDBLK
  5
23D1
330
23C9
100
AcDbEntity
  8
0
100
AcDbBlockEnd
  0
BLOCK
  5
23EA
330
23D2
100
AcDbEntity
  8
0
100
AcDbBlockBegin
  2
*X43
 70
     1
 10
0.0
 20
0.0
 30
0.0
  3
*X43
  1

  0
LINE
  5
23D3
330
23D2
100
AcDbEntity
  8
0
 62
     0
100
AcDbLine
 10
205.6940422887885
 20
294.0823899371068
 30
0.0
 11
206.3309004230175
 21
294.7192480713361
 31
0.0
  0
LINE
  5
23D4
330
23D2
100
AcDbEntity
  8
0
 62
     0
100
AcDbLine
 10
203.6585083828556
 20
295.5823899371068
 30
0.0
 11
206.3309004230175
 21
298.2547819772688
 31
0.0
  0
LINE
  5
23D5
330
23D2
100
AcDbEntity
  8
0
 62
     0
100
AcDbLine
 10
202.1585083828556
 20
294.0823899371068
 30
0.0
 11
203.6585083828556
 21
295.5823899371068
 31
0.0
  0
LINE
  5
23D6
330
23D2
100
AcDbEntity
  8
0
 62
     0
100
AcDbLine
 10
200.1229744769228
 20
295.5823899371068
 30
0.0
 11
200.3309004230175
 21
295.7903158832016
 31
0.0
  0
LINE
  5
23D7
330
23D2
100
AcDbEntity
  8
0
 62
     0
100
AcDbLine
 10
200.3309004230175
 20
295.7903158832016
 30
0.0
 11
206.3309004230175
 21
301.7903158832016
 31
0.0
  0
LINE
  5
23D8
330
23D2
100
AcDbEntity
  8
0
 62
     0
100
AcDbLine
 10
198.6229744769229
 20
294.0823899371068
 30
0.0
 11
200.1229744769227
 21
295.5823899371068
 31
0.0
  0
LINE
  5
23D9
330
23D2
100
AcDbEntity
  8
0
 62
     0
100
AcDbLine
 10
196.5874405709901
 20
295.5823899371068
 30
0.0
 11
200.3309004230175
 21
299.3258497891341
 31
0.0
  0
LINE
  5
23DA
330
23D2
100
AcDbEntity
  8
0
 62
     0
100
AcDbLine
 10
200.3309004230175
 20
299.3258497891344
 30
0.0
 11
206.3309004230175
 21
305.3258497891344
 31
0.0
  0
LINE
  5
23DB
330
23D2
100
AcDbEntity
  8
0
 62
     0
100
AcDbLine
 10
195.0874405709901
 20
294.0823899371068
 30
0.0
 11
196.5874405709901
 21
295.5823899371068
 31
0.0
  0
LINE
  5
23DC
330
23D2
100
AcDbEntity
  8
0
 62
     0
100
AcDbLine
 10
200.3309004230175
 20
302.8613836950671
 30
0.0
 11
206.3309004230175
 21
308.8613836950671
 31
0.0
  0
LINE
  5
23DD
330
23D2
100
AcDbEntity
  8
0
 62
     0
100
AcDbLine
 10
194.3309004230176
 20
296.8613836950671
 30
0.0
 11
200.3309004230175
 21
302.861383695067
 31
0.0
  0
LINE
  5
23DE
330
23D2
100
AcDbEntity
  8
0
 62
     0
100
AcDbLine
 10
203.0163727591246
 20
309.0823899371069
 30
0.0
 11
204.5163727591245
 21
310.5823899371068
 31
0.0
  0
LINE
  5
23DF
330
23D2
100
AcDbEntity
  8
0
 62
     0
100
AcDbLine
 10
200.3309004230175
 20
306.3969176009998
 30
0.0
 11
203.0163727591246
 21
309.0823899371069
 31
0.0
  0
LINE
  5
23E0
330
23D2
100
AcDbEntity
  8
0
 62
     0
100
AcDbLine
 10
204.5163727591248
 20
310.5823899371068
 30
0.0
 11
206.1163727591248
 21
312.1823899371067
 31
0.0
  0
LINE
  5
23E1
330
23D2
100
AcDbEntity
  8
0
 62
     0
100
AcDbLine
 10
194.3309004230175
 20
300.3969176009998
 30
0.0
 11
200.3309004230175
 21
306.3969176009998
 31
0.0
  0
LINE
  5
23E2
330
23D2
100
AcDbEntity
  8
0
 62
     0
100
AcDbLine
 10
200.3309004230175
 20
309.9324515069326
 30
0.0
 11
200.980838853192
 21
310.5823899371068
 31
0.0
  0
LINE
  5
23E3
330
23D2
100
AcDbEntity
  8
0
 62
     0
100
AcDbLine
 10
199.4808388531918
 20
309.0823899371068
 30
0.0
 11
200.3309004230175
 21
309.9324515069326
 31
0.0
  0
LINE
  5
23E4
330
23D2
100
AcDbEntity
  8
0
 62
     0
100
AcDbLine
 10
200.980838853192
 20
310.5823899371068
 30
0.0
 11
202.580838853192
 21
312.1823899371067
 31
0.0
  0
LINE
  5
23E5
330
23D2
100
AcDbEntity
  8
0
 62
     0
100
AcDbLine
 10
194.3309004230176
 20
303.9324515069326
 30
0.0
 11
199.4808388531918
 21
309.0823899371068
 31
0.0
  0
LINE
  5
23E6
330
23D2
100
AcDbEntity
  8
0
 62
     0
100
AcDbLine
 10
195.9453049472591
 20
309.0823899371069
 30
0.0
 11
197.4453049472591
 21
310.5823899371068
 31
0.0
  0
LINE
  5
23E7
330
23D2
100
AcDbEntity
  8
0
 62
     0
100
AcDbLine
 10
197.4453049472593
 20
310.5823899371068
 30
0.0
 11
199.045304947259
 21
312.1823899371066
 31
0.0
  0
LINE
  5
23E8
330
23D2
100
AcDbEntity
  8
0
 62
     0
100
AcDbLine
 10
194.3309004230175
 20
307.4679854128651
 30
0.0
 11
195.9453049472591
 21
309.0823899371069
 31
0.0
  0
LINE
  5
23E9
330
23D2
100
AcDbEntity
  8
0
 62
     0
100
AcDbLine
 10
194.3309004230175
 20
311.003519318798
 30
0.0
 11
195.5097710413264
 21
312.1823899371066
 31
0.0
  0
ENDBLK
  5
23EB
330
23D2
100
AcDbEntity
  8
0
100
AcDbBlockEnd
  0
ENDSEC
  0
SECTION
  2
ENTITIES
  0
LINE
  5
2B3
330
A
100
AcDbEntity
  8
03
100
AcDbLine
 10
210.0809004230177
 20
494.0823899371069
 30
0.0
 11
259.5809004230175
 21
494.0823899371069
 31
0.0
  0
LINE
  5
2B4
330
A
100
AcDbEntity
  8
03
100
AcDbLine
 10
264.0809004230177
 20
494.0823899371069
 30
0.0
 11
282.5809004230176
 21
494.0823899371069
 31
0.0
  0
LINE
  5
2B5
330
A
100
AcDbEntity
  8
03
100
AcDbLine
 10
283.3309004230176
 20
493.3323899371067
 30
0.0
 11
283.3309004230176
 21
294.8323899371068
 31
0.0
  0
LINE
  5
2B6
330
A
100
AcDbEntity
  8
03
100
AcDbLine
 10
282.5809004230178
 20
294.0823899371068
 30
0.0
 11
271.0809004230179
 21
294.0823899371068
 31
0.0
  0
ARC
  5
2B7
330
A
100
AcDbEntity
  8
03
100
AcDbCircle
 10
282.5809004230178
 20
294.8323899371068
 30
0.0
 40
0.75
100
AcDbArc
 50
270.0
 51
0.0000000000000799
  0
LINE
  5
2B8
330
A
100
AcDbEntity
  8
03
100
AcDbLine
 10
227.5809004230178
 20
294.0823899371068
 30
0.0
 11
210.0809004230177
 21
294.0823899371068
 31
0.0
  0
LINE
  5
2B9
330
A
100
AcDbEntity
  8
03
100
AcDbLine
 10
190.5809004230175
 20
294.0823899371068
 30
0.0
 11
170.0809004230175
 21
294.0823899371068
 31
0.0
  0
LINE
  5
2BA
330
A
100
AcDbEntity
  8
03
100
AcDbLine
 10
169.3309004230175
 20
294.8323899371068
 30
0.0
 11
169.3309004230175
 21
475.3323899371069
 31
0.0
  0
ARC
  5
2BB
330
A
100
AcDbEntity
  8
03
100
AcDbCircle
 10
170.0809004230175
 20
294.8323899371068
 30
0.0
 40
0.75
100
AcDbArc
 50
179.9999999999999
 51
269.9999999999999
  0
LINE
  5
2BC
330
A
100
AcDbEntity
  8
03
100
AcDbLine
 10
166.3309004230175
 20
554.0823899371067
 30
0.0
 11
166.3309004230175
 21
509.0823899371066
 31
0.0
  0
LINE
  5
2BD
330
A
100
AcDbEntity
  8
03
100
AcDbLine
 10
166.3309004230175
 20
506.0823899371069
 30
0.0
 11
166.3309004230175
 21
212.082389937107
 31
0.0
  0
LINE
  5
2BE
330
A
100
AcDbEntity
  8
03
100
AcDbLine
 10
286.3309004230176
 20
554.0823899371071
 30
0.0
 11
286.3309004230176
 21
509.0823899371066
 31
0.0
  0
LINE
  5
2BF
330
A
100
AcDbEntity
  8
03
100
AcDbLine
 10
286.3309004230176
 20
506.0823899371069
 30
0.0
 11
286.3309004230176
 21
212.082389937107
 31
0.0
  0
LINE
  5
2C0
330
A
100
AcDbEntity
  8
03
100
AcDbLine
 10
170.8309004230176
 20
474.5823899371067
 30
0.0
 11
170.8309004230176
 21
295.5823899371068
 31
0.0
  0
LINE
  5
2C1
330
A
100
AcDbEntity
  8
03
100
AcDbLine
 10
210.8309004230175
 20
492.5823899371066
 30
0.0
 11
258.8309004230175
 21
492.5823899371066
 31
0.0
  0
LINE
  5
2C2
330
A
100
AcDbEntity
  8
03
100
AcDbLine
 10
264.8309004230175
 20
492.5823899371066
 30
0.0
 11
281.8309004230176
 21
492.5823899371066
 31
0.0
  0
LINE
  5
2C3
330
A
100
AcDbEntity
  8
03
100
AcDbLine
 10
281.8309004230176
 20
492.5823899371066
 30
0.0
 11
281.8309004230176
 21
295.5823899371068
 31
0.0
  0
LINE
  5
2C4
330
A
100
AcDbEntity
  8
03
100
AcDbLine
 10
281.8309004230178
 20
295.5823899371068
 30
0.0
 11
271.8309004230178
 21
295.5823899371068
 31
0.0
  0
LINE
  5
2C5
330
A
100
AcDbEntity
  8
03
100
AcDbLine
 10
226.8309004230177
 20
295.5823899371068
 30
0.0
 11
210.8309004230175
 21
295.5823899371068
 31
0.0
  0
LINE
  5
2C6
330
A
100
AcDbEntity
  8
03
100
AcDbLine
 10
189.8309004230175
 20
295.5823899371068
 30
0.0
 11
170.8309004230176
 21
295.5823899371068
 31
0.0
  0
LINE
  5
2C7
330
A
100
AcDbEntity
  8
03
100
AcDbLine
 10
270.3309004230177
 20
304.0823899371068
 30
0.0
 11
271.8309004230178
 21
304.0823899371068
 31
0.0
  0
LINE
  5
2C8
330
A
100
AcDbEntity
  8
03
100
AcDbLine
 10
228.3309004230178
 20
306.0823899371068
 30
0.0
 11
226.8309004230177
 21
306.0823899371068
 31
0.0
  0
LINE
  5
2C9
330
A
100
AcDbEntity
  8
03
100
AcDbLine
 10
263.3309004230175
 20
493.3323899371067
 30
0.0
 11
263.3309004230175
 21
479.0823899371067
 31
0.0
  0
ARC
  5
2CA
330
A
100
AcDbEntity
  8
03
100
AcDbCircle
 10
264.0809004230177
 20
493.3323899371067
 30
0.0
 40
0.75
100
AcDbArc
 50
90.00000000000005
 51
179.9999999999999
  0
LINE
  5
2CB
330
A
100
AcDbEntity
  8
03
100
AcDbLine
 10
264.8309004230175
 20
492.5823899371066
 30
0.0
 11
264.8309004230175
 21
479.0823899371067
 31
0.0
  0
LINE
  5
2CC
330
A
100
AcDbEntity
  8
03
100
AcDbLine
 10
260.3309004230175
 20
493.3323899371067
 30
0.0
 11
260.3309004230175
 21
478.0823899371068
 31
0.0
  0
ARC
  5
2CD
330
A
100
AcDbEntity
  8
03
100
AcDbCircle
 10
259.5809004230175
 20
493.3323899371067
 30
0.0
 40
0.75
100
AcDbArc
 50
0.0
 51
90.0
  0
LINE
  5
2CE
330
A
100
AcDbEntity
  8
03
100
AcDbLine
 10
263.3309004230175
 20
479.0823899371067
 30
0.0
 11
264.8309004230175
 21
479.0823899371067
 31
0.0
  0
LINE
  5
2CF
330
A
100
AcDbEntity
  8
03
100
AcDbLine
 10
260.3309004230175
 20
478.0823899371068
 30
0.0
 11
270.8309004230175
 21
478.0823899371068
 31
0.0
  0
LINE
  5
2D0
330
A
100
AcDbEntity
  8
03
100
AcDbLine
 10
259.5809004230175
 20
476.5823899371069
 30
0.0
 11
270.8309004230175
 21
476.5823899371069
 31
0.0
  0
ARC
  5
2D1
330
A
100
AcDbEntity
  8
03
100
AcDbCircle
 10
259.5809004230175
 20
477.3323899371066
 30
0.0
 40
0.75
100
AcDbArc
 50
179.9999999999999
 51
270.0
  0
LINE
  5
2D2
330
A
100
AcDbEntity
  8
03
100
AcDbLine
 10
270.8309004230175
 20
478.0823899371068
 30
0.0
 11
270.8309004230175
 21
476.5823899371069
 31
0.0
  0
LINE
  5
2D3
330
A
100
AcDbEntity
  8
03
100
AcDbLine
 10
191.3309004230175
 20
493.3323899371067
 30
0.0
 11
191.3309004230175
 21
476.0823899371067
 31
0.0
  0
LINE
  5
2D4
330
A
100
AcDbEntity
  8
03
100
AcDbLine
 10
189.8309004230175
 20
492.5823899371066
 30
0.0
 11
189.8309004230175
 21
476.0823899371067
 31
0.0
  0
LINE
  5
2D5
330
A
100
AcDbEntity
  8
03
100
AcDbLine
 10
209.3309004230175
 20
493.3323899371067
 30
0.0
 11
209.3309004230178
 21
476.0823899371067
 31
0.0
  0
LINE
  5
2D6
330
A
100
AcDbEntity
  8
03
100
AcDbLine
 10
210.8309004230175
 20
492.5823899371066
 30
0.0
 11
210.8309004230175
 21
475.3323899371069
 31
0.0
  0
LINE
  5
2D7
330
A
100
AcDbEntity
  8
03
100
AcDbLine
 10
170.0809004230175
 20
476.0823899371067
 30
0.0
 11
209.3309004230178
 21
476.0823899371067
 31
0.0
  0
ARC
  5
2D8
330
A
100
AcDbEntity
  8
03
100
AcDbCircle
 10
170.0809004230175
 20
475.3323899371069
 30
0.0
 40
0.75
100
AcDbArc
 50
89.99999999999998
 51
179.9999999999999
  0
ARC
  5
2D9
330
A
100
AcDbEntity
  8
03
100
AcDbCircle
 10
210.0809004230177
 20
475.3323899371069
 30
0.0
 40
0.75
100
AcDbArc
 50
269.9999999999999
 51
0.0
  0
LINE
  5
2DA
330
A
100
AcDbEntity
  8
03
100
AcDbLine
 10
174.3309004230175
 20
493.3323899371067
 30
0.0
 11
174.3309004230175
 21
476.0823899371067
 31
0.0
  0
LINE
  5
2DB
330
A
100
AcDbEntity
  8
03
100
AcDbLine
 10
175.8309004230175
 20
492.5823899371066
 30
0.0
 11
175.8309004230175
 21
476.0823899371067
 31
0.0
  0
LINE
  5
2DC
330
A
100
AcDbEntity
  8
03
100
AcDbLine
 10
175.8309004230175
 20
492.5823899371066
 30
0.0
 11
189.8309004230175
 21
492.5823899371066
 31
0.0
  0
LINE
  5
2DD
330
A
100
AcDbEntity
  8
03
100
AcDbLine
 10
175.0809004230178
 20
494.0823899371069
 30
0.0
 11
190.5809004230175
 21
494.0823899371069
 31
0.0
  0
ARC
  5
2DE
330
A
100
AcDbEntity
  8
03
100
AcDbCircle
 10
190.5809004230175
 20
493.3323899371067
 30
0.0
 40
0.75
100
AcDbArc
 50
0.0
 51
89.99999999999984
  0
ARC
  5
2DF
330
A
100
AcDbEntity
  8
03
100
AcDbCircle
 10
175.0809004230178
 20
493.3323899371067
 30
0.0
 40
0.75
100
AcDbArc
 50
89.99999999999991
 51
179.9999999999999
  0
LINE
  5
2E0
330
A
100
AcDbEntity
  8
SAISEN
100
AcDbLine
 10
140.7779852190063
 20
90.20192815750744
 30
0.0
 11
228.3309004230178
 21
90.20192815750744
 31
0.0
  0
LINE
  5
2E1
330
A
100
AcDbEntity
  8
06
100
AcDbLine
 10
262.3309004230175
 20
304.082389937107
 30
0.0
 11
262.3309004230175
 21
220.5823899371068
 31
0.0
  0
LINE
  5
2E2
330
A
100
AcDbEntity
  8
06
100
AcDbLine
 10
236.3309004230178
 20
220.5823899371068
 30
0.0
 11
236.3309004230178
 21
304.082389937107
 31
0.0
  0
LINE
  5
2E9
330
A
100
AcDbEntity
  8
06
100
AcDbLine
 10
263.8309004230178
 20
304.082389937107
 30
0.0
 11
263.8309004230178
 21
219.8323899371068
 31
0.0
  0
ARC
  5
2EA
330
A
100
AcDbEntity
  8
06
100
AcDbCircle
 10
263.0809004230178
 20
219.8323899371068
 30
0.0
 40
0.75
100
AcDbArc
 50
270.0000000000001
 51
0.0
  0
LINE
  5
2EB
330
A
100
AcDbEntity
  8
06
100
AcDbLine
 10
234.8309004230177
 20
219.8323899371067
 30
0.0
 11
234.8309004230177
 21
304.082389937107
 31
0.0
  0
ARC
  5
2EC
330
A
100
AcDbEntity
  8
06
100
AcDbCircle
 10
235.5809004230175
 20
219.8323899371067
 30
0.0
 40
0.75
100
AcDbArc
 50
179.9999999999999
 51
270.0000000000008
  0
LINE
  5
2ED
330
A
100
AcDbEntity
  8
06
100
AcDbLine
 10
263.8309004230178
 20
304.082389937107
 30
0.0
 11
265.3309004230178
 21
304.082389937107
 31
0.0
  0
LINE
  5
2EE
330
A
100
AcDbEntity
  8
06
100
AcDbLine
 10
234.8309004230177
 20
304.082389937107
 30
0.0
 11
233.3309004230175
 21
304.082389937107
 31
0.0
  0
LINE
  5
2EF
330
A
100
AcDbEntity
  8
06
100
AcDbLine
 10
265.3309004230178
 20
212.082389937107
 30
0.0
 11
265.3309004230178
 21
304.082389937107
 31
0.0
  0
LINE
  5
2F0
330
A
100
AcDbEntity
  8
06
100
AcDbLine
 10
233.3309004230175
 20
212.082389937107
 30
0.0
 11
233.3309004230175
 21
304.082389937107
 31
0.0
  0
LINE
  5
2F1
330
A
100
AcDbEntity
  8
03
100
AcDbLine
 10
169.3309004230175
 20
553.3323899371066
 30
0.0
 11
169.3309004230175
 21
524.8323899371069
 31
0.0
  0
LINE
  5
2F2
330
A
100
AcDbEntity
  8
03
100
AcDbLine
 10
283.3309004230176
 20
553.332389937107
 30
0.0
 11
283.3309004230176
 21
524.8323899371069
 31
0.0
  0
LINE
  5
2F3
330
A
100
AcDbEntity
  8
03
100
AcDbLine
 10
170.0809004230178
 20
524.0823899371068
 30
0.0
 11
190.5809004230175
 21
524.0823899371068
 31
0.0
  0
ARC
  5
2F4
330
A
100
AcDbEntity
  8
03
100
AcDbCircle
 10
170.0809004230178
 20
524.8323899371069
 30
0.0
 40
0.75
100
AcDbArc
 50
179.9999999999999
 51
269.9999999999999
  0
LINE
  5
2F5
330
A
100
AcDbEntity
  8
03
100
AcDbLine
 10
210.0809004230177
 20
524.0823899371068
 30
0.0
 11
282.5809004230176
 21
524.0823899371068
 31
0.0
  0
ARC
  5
2F6
330
A
100
AcDbEntity
  8
03
100
AcDbCircle
 10
282.5809004230176
 20
524.8323899371069
 30
0.0
 40
0.75
100
AcDbArc
 50
269.9999999999999
 51
0.0
  0
LINE
  5
2F7
330
A
100
AcDbEntity
  8
03
100
AcDbLine
 10
166.3309004230175
 20
554.0823899371067
 30
0.0
 11
184.3309004230175
 21
554.0823899371067
 31
0.0
  0
ARC
  5
2F8
330
A
100
AcDbEntity
  8
03
100
AcDbCircle
 10
170.0809004230178
 20
553.3323899371066
 30
0.0
 40
0.75
100
AcDbArc
 50
89.99999999999998
 51
179.9999999999999
  0
LINE
  5
2F9
330
A
100
AcDbEntity
  8
03
100
AcDbLine
 10
268.3309004230177
 20
554.0823899371067
 30
0.0
 11
286.3309004230176
 21
554.0823899371067
 31
0.0
  0
ARC
  5
2FA
330
A
100
AcDbEntity
  8
03
100
AcDbCircle
 10
282.5809004230178
 20
553.332389937107
 30
0.0
 40
0.75
100
AcDbArc
 50
0.0
 51
90.00000000000023
  0
LINE
  5
2FB
330
A
100
AcDbEntity
  8
03
100
AcDbLine
 10
170.8309004230179
 20
525.5823899371066
 30
0.0
 11
189.8309004230175
 21
525.5823899371066
 31
0.0
  0
LINE
  5
2FC
330
A
100
AcDbEntity
  8
03
100
AcDbLine
 10
210.8309004230178
 20
525.5823899371066
 30
0.0
 11
281.8309004230176
 21
525.5823899371066
 31
0.0
  0
LINE
  5
2FD
330
A
100
AcDbEntity
  8
03
100
AcDbLine
 10
281.8309004230176
 20
552.5823899371069
 30
0.0
 11
281.8309004230178
 21
525.5823899371066
 31
0.0
  0
LINE
  5
2FE
330
A
100
AcDbEntity
  8
03
100
AcDbLine
 10
170.8309004230176
 20
552.5823899371069
 30
0.0
 11
184.3309004230175
 21
552.5823899371069
 31
0.0
  0
LINE
  5
2FF
330
A
100
AcDbEntity
  8
03
100
AcDbLine
 10
268.3309004230177
 20
552.5823899371069
 30
0.0
 11
281.8309004230176
 21
552.5823899371069
 31
0.0
  0
LINE
  5
300
330
A
100
AcDbEntity
  8
03
100
AcDbLine
 10
170.8309004230176
 20
552.5823899371069
 30
0.0
 11
170.8309004230179
 21
525.5823899371066
 31
0.0
  0
LINE
  5
301
330
A
100
AcDbEntity
  8
03
100
AcDbLine
 10
191.3309004230175
 20
539.0823899371069
 30
0.0
 11
191.3309004230175
 21
524.8323899371069
 31
0.0
  0
ARC
  5
302
330
A
100
AcDbEntity
  8
03
100
AcDbCircle
 10
190.5809004230175
 20
524.8323899371069
 30
0.0
 40
0.75
100
AcDbArc
 50
269.9999999999999
 51
0.0
  0
LINE
  5
303
330
A
100
AcDbEntity
  8
03
100
AcDbLine
 10
209.3309004230175
 20
539.0823899371069
 30
0.0
 11
209.3309004230178
 21
524.8323899371069
 31
0.0
  0
LINE
  5
304
330
A
100
AcDbEntity
  8
03
100
AcDbLine
 10
189.8309004230175
 20
539.8323899371066
 30
0.0
 11
189.8309004230175
 21
525.5823899371066
 31
0.0
  0
LINE
  5
305
330
A
100
AcDbEntity
  8
03
100
AcDbLine
 10
210.8309004230178
 20
539.8323899371066
 30
0.0
 11
210.8309004230178
 21
525.5823899371066
 31
0.0
  0
LINE
  5
306
330
A
100
AcDbEntity
  8
03
100
AcDbLine
 10
184.3309004230175
 20
554.0823899371067
 30
0.0
 11
184.3309004230175
 21
552.5823899371069
 31
0.0
  0
LINE
  5
307
330
A
100
AcDbEntity
  8
03
100
AcDbLine
 10
268.3309004230177
 20
554.0823899371067
 30
0.0
 11
268.3309004230177
 21
552.5823899371069
 31
0.0
  0
LINE
  5
308
330
A
100
AcDbEntity
  8
03
100
AcDbLine
 10
270.3309004230177
 20
304.0823899371068
 30
0.0
 11
270.3309004230179
 21
294.8323899371068
 31
0.0
  0
ARC
  5
309
330
A
100
AcDbEntity
  8
03
100
AcDbCircle
 10
271.0809004230176
 20
294.8323899371068
 30
0.0
 40
0.75
100
AcDbArc
 50
180.0
 51
270.0
  0
LINE
  5
30A
330
A
100
AcDbEntity
  8
03
100
AcDbLine
 10
271.8309004230178
 20
304.0823899371068
 30
0.0
 11
271.8309004230178
 21
295.5823899371068
 31
0.0
  0
LINE
  5
30B
330
A
100
AcDbEntity
  8
03
100
AcDbLine
 10
228.3309004230178
 20
306.0823899371068
 30
0.0
 11
228.3309004230178
 21
294.8323899371068
 31
0.0
  0
ARC
  5
30C
330
A
100
AcDbEntity
  8
03
100
AcDbCircle
 10
227.5809004230178
 20
294.8323899371068
 30
0.0
 40
0.75
100
AcDbArc
 50
269.9999999999999
 51
0.0
  0
LINE
  5
30D
330
A
100
AcDbEntity
  8
03
100
AcDbLine
 10
226.8309004230177
 20
306.0823899371068
 30
0.0
 11
226.8309004230177
 21
295.5823899371068
 31
0.0
  0
LINE
  5
30E
330
A
100
AcDbEntity
  8
03
100
AcDbLine
 10
172.3309004230175
 20
294.0823899371068
 30
0.0
 11
172.3309004230175
 21
212.082389937107
 31
0.0
  0
LINE
  5
30F
330
A
100
AcDbEntity
  8
03
100
AcDbLine
 10
191.3309004230175
 20
309.0823899371069
 30
0.0
 11
191.3309004230175
 21
294.8323899371068
 31
0.0
  0
ARC
  5
310
330
A
100
AcDbEntity
  8
03
100
AcDbCircle
 10
190.5809004230175
 20
294.8323899371068
 30
0.0
 40
0.75
100
AcDbArc
 50
269.9999999999999
 51
0.0
  0
LINE
  5
311
330
A
100
AcDbEntity
  8
03
100
AcDbLine
 10
189.8309004230175
 20
309.8323899371068
 30
0.0
 11
189.8309004230175
 21
295.5823899371068
 31
0.0
  0
LINE
  5
312
330
A
100
AcDbEntity
  8
03
100
AcDbLine
 10
209.3309004230175
 20
309.0823899371069
 30
0.0
 11
209.3309004230175
 21
294.8323899371068
 31
0.0
  0
ARC
  5
313
330
A
100
AcDbEntity
  8
03
100
AcDbCircle
 10
210.0809004230177
 20
294.8323899371068
 30
0.0
 40
0.75
100
AcDbArc
 50
179.9999999999999
 51
269.9999999999999
  0
LINE
  5
314
330
A
100
AcDbEntity
  8
03
100
AcDbLine
 10
210.8309004230175
 20
309.8323899371068
 30
0.0
 11
210.8309004230175
 21
295.5823899371068
 31
0.0
  0
LINE
  5
315
330
A
100
AcDbEntity
  8
03
100
AcDbLine
 10
191.3309004230175
 20
309.0823899371069
 30
0.0
 11
209.3309004230175
 21
309.0823899371069
 31
0.0
  0
LINE
  5
316
330
A
100
AcDbEntity
  8
03
100
AcDbLine
 10
190.5809004230175
 20
310.5823899371068
 30
0.0
 11
210.0809004230177
 21
310.5823899371068
 31
0.0
  0
ARC
  5
317
330
A
100
AcDbEntity
  8
03
100
AcDbCircle
 10
210.0809004230177
 20
309.8323899371068
 30
0.0
 40
0.75
100
AcDbArc
 50
0.0
 51
90.0
  0
ARC
  5
318
330
A
100
AcDbEntity
  8
03
100
AcDbCircle
 10
190.5809004230175
 20
309.8323899371068
 30
0.0
 40
0.75
100
AcDbArc
 50
90.0
 51
179.9999999999999
  0
LINE
  5
319
330
A
100
AcDbEntity
  8
03
100
AcDbLine
 10
191.3309004230175
 20
539.0823899371069
 30
0.0
 11
209.3309004230175
 21
539.0823899371069
 31
0.0
  0
LINE
  5
31A
330
A
100
AcDbEntity
  8
03
100
AcDbLine
 10
190.5809004230175
 20
540.5823899371068
 30
0.0
 11
210.0809004230177
 21
540.5823899371068
 31
0.0
  0
ARC
  5
31B
330
A
100
AcDbEntity
  8
03
100
AcDbCircle
 10
210.0809004230177
 20
539.8323899371066
 30
0.0
 40
0.75
100
AcDbArc
 50
0.0
 51
89.99999999999992
  0
ARC
  5
31C
330
A
100
AcDbEntity
  8
03
100
AcDbCircle
 10
190.5809004230175
 20
539.8323899371066
 30
0.0
 40
0.75
100
AcDbArc
 50
89.99999999999991
 51
179.9999999999999
  0
LINE
  5
31E
330
A
100
AcDbEntity
  8
06
100
AcDbLine
 10
257.3309004230174
 20
184.082389937107
 30
0.0
 11
263.0809004230175
 21
184.082389937107
 31
0.0
  0
LINE
  5
31F
330
A
100
AcDbEntity
  8
06
100
AcDbLine
 10
257.3309004230174
 20
182.582389937107
 30
0.0
 11
262.3309004230175
 21
182.582389937107
 31
0.0
  0
LINE
  5
321
330
A
100
AcDbEntity
  8
06
100
AcDbLine
 10
241.3309004230175
 20
184.082389937107
 30
0.0
 11
235.5809004230175
 21
184.082389937107
 31
0.0
  0
LINE
  5
322
330
A
100
AcDbEntity
  8
06
100
AcDbLine
 10
241.3309004230175
 20
182.582389937107
 30
0.0
 11
236.3309004230174
 21
182.582389937107
 31
0.0
  0
LINE
  5
323
330
A
100
AcDbEntity
  8
06
100
AcDbLine
 10
262.3309004230175
 20
182.582389937107
 30
0.0
 11
262.3309004230175
 21
99.082389937107
 31
0.0
  0
LINE
  5
324
330
A
100
AcDbEntity
  8
06
100
AcDbLine
 10
236.3309004230174
 20
182.582389937107
 30
0.0
 11
236.3309004230174
 21
99.082389937107
 31
0.0
  0
LINE
  5
325
330
A
100
AcDbEntity
  8
06
100
AcDbLine
 10
263.8309004230175
 20
183.332389937107
 30
0.0
 11
263.8309004230175
 21
99.082389937107
 31
0.0
  0
ARC
  5
326
330
A
100
AcDbEntity
  8
06
100
AcDbCircle
 10
263.0809004230178
 20
183.332389937107
 30
0.0
 40
0.7500000000000001
100
AcDbArc
 50
0.0
 51
89.99999999999992
  0
LINE
  5
327
330
A
100
AcDbEntity
  8
06
100
AcDbLine
 10
234.8309004230177
 20
183.332389937107
 30
0.0
 11
234.8309004230177
 21
99.082389937107
 31
0.0
  0
ARC
  5
328
330
A
100
AcDbEntity
  8
06
100
AcDbCircle
 10
235.5809004230175
 20
183.332389937107
 30
0.0
 40
0.7500000000000001
100
AcDbArc
 50
90.00000000000033
 51
179.9999999999999
  0
LINE
  5
329
330
A
100
AcDbEntity
  8
06
100
AcDbLine
 10
260.3854246211385
 20
99.082389937107
 30
0.0
 11
265.3309004230175
 21
99.082389937107
 31
0.0
  0
LINE
  5
32A
330
A
100
AcDbEntity
  8
06
100
AcDbLine
 10
233.3309004230175
 20
99.082389937107
 30
0.0
 11
238.2809004230179
 21
99.082389937107
 31
0.0
  0
LINE
  5
32B
330
A
100
AcDbEntity
  8
03
100
AcDbLine
 10
229.8309004230175
 20
77.08238993710711
 30
0.0
 11
228.3309004230175
 21
77.08238993710711
 31
0.0
  0
LINE
  5
32C
330
A
100
AcDbEntity
  8
03
100
AcDbLine
 10
228.3309004230175
 20
77.08238993710711
 30
0.0
 11
228.3309004230175
 21
90.58238993710705
 31
0.0
  0
LINE
  5
32D
330
A
100
AcDbEntity
  8
03
100
AcDbLine
 10
229.8309004230175
 20
92.08238993710713
 30
0.0
 11
239.3309004230177
 21
92.08238993710713
 31
0.0
  0
LINE
  5
32E
330
A
100
AcDbEntity
  8
03
100
AcDbLine
 10
240.8309004230175
 20
90.58238993710705
 30
0.0
 11
240.8309004230175
 21
67.08238993710711
 31
0.0
  0
LINE
  5
32F
330
A
100
AcDbEntity
  8
03
100
AcDbLine
 10
240.8309004230175
 20
67.08238993710711
 30
0.0
 11
257.8309004230179
 21
67.08238993710711
 31
0.0
  0
LINE
  5
330
330
A
100
AcDbEntity
  8
03
100
AcDbLine
 10
257.8309004230179
 20
67.08238993710711
 30
0.0
 11
257.8309004230179
 21
90.58238993710705
 31
0.0
  0
LINE
  5
331
330
A
100
AcDbEntity
  8
03
100
AcDbLine
 10
259.3309004230175
 20
92.08238993710713
 30
0.0
 11
272.8309004230179
 21
92.08238993710713
 31
0.0
  0
LINE
  5
332
330
A
100
AcDbEntity
  8
03
100
AcDbLine
 10
274.3309004230175
 20
90.58238993710705
 30
0.0
 11
274.3309004230175
 21
77.08238993710711
 31
0.0
  0
LINE
  5
333
330
A
100
AcDbEntity
  8
03
100
AcDbLine
 10
274.3309004230175
 20
77.08238993710711
 30
0.0
 11
272.8309004230179
 21
77.08238993710711
 31
0.0
  0
LINE
  5
334
330
A
100
AcDbEntity
  8
03
100
AcDbLine
 10
272.8309004230179
 20
90.58238993710705
 30
0.0
 11
259.3309004230175
 21
90.58238993710705
 31
0.0
  0
LINE
  5
335
330
A
100
AcDbEntity
  8
03
100
AcDbLine
 10
259.3309004230175
 20
90.58238993710705
 30
0.0
 11
259.3309004230175
 21
67.08238993710711
 31
0.0
  0
LINE
  5
336
330
A
100
AcDbEntity
  8
03
100
AcDbLine
 10
257.8309004230179
 20
65.58238993710705
 30
0.0
 11
240.8309004230175
 21
65.58238993710705
 31
0.0
  0
LINE
  5
337
330
A
100
AcDbEntity
  8
03
100
AcDbLine
 10
239.3309004230177
 20
67.08238993710711
 30
0.0
 11
239.3309004230177
 21
90.58238993710705
 31
0.0
  0
LINE
  5
338
330
A
100
AcDbEntity
  8
03
100
AcDbLine
 10
239.3309004230177
 20
90.58238993710705
 30
0.0
 11
229.8309004230175
 21
90.58238993710705
 31
0.0
  0
LINE
  5
339
330
A
100
AcDbEntity
  8
03
100
AcDbLine
 10
229.8309004230175
 20
77.08238993710711
 30
0.0
 11
229.8309004230175
 21
90.58238993710705
 31
0.0
  0
LINE
  5
33A
330
A
100
AcDbEntity
  8
03
100
AcDbLine
 10
272.8309004230179
 20
77.08238993710711
 30
0.0
 11
272.8309004230179
 21
90.58238993710705
 31
0.0
  0
LINE
  5
33B
330
A
100
AcDbEntity
  8
SAISEN
100
AcDbLine
 10
274.3309004230175
 20
89.082389937107
 30
0.0
 11
359.4252612764295
 21
89.082389937107
 31
0.0
  0
ARC
  5
33C
330
A
100
AcDbEntity
  8
03
100
AcDbCircle
 10
272.8309004230179
 20
90.58238993710705
 30
0.0
 40
1.5
100
AcDbArc
 50
0.0
 51
90.0
  0
ARC
  5
33D
330
A
100
AcDbEntity
  8
03
100
AcDbCircle
 10
259.3309004230175
 20
90.58238993710705
 30
0.0
 40
1.5
100
AcDbArc
 50
90.0
 51
180.0
  0
ARC
  5
33E
330
A
100
AcDbEntity
  8
03
100
AcDbCircle
 10
257.8309004230179
 20
67.08238993710711
 30
0.0
 40
1.5
100
AcDbArc
 50
270.0
 51
0.0
  0
ARC
  5
33F
330
A
100
AcDbEntity
  8
03
100
AcDbCircle
 10
240.8309004230175
 20
67.08238993710711
 30
0.0
 40
1.5
100
AcDbArc
 50
180.0
 51
270.0
  0
ARC
  5
340
330
A
100
AcDbEntity
  8
03
100
AcDbCircle
 10
239.3309004230177
 20
90.58238993710705
 30
0.0
 40
1.5
100
AcDbArc
 50
0.0
 51
90.0
  0
ARC
  5
341
330
A
100
AcDbEntity
  8
03
100
AcDbCircle
 10
229.8309004230175
 20
90.58238993710705
 30
0.0
 40
1.5
100
AcDbArc
 50
90.0
 51
180.0
  0
LINE
  5
342
330
A
100
AcDbEntity
  8
03
100
AcDbLine
 10
228.3309004230178
 20
294.8323899371068
 30
0.0
 11
228.3309004230178
 21
212.082389937107
 31
0.0
  0
ARC
  5
3E1
330
A
100
AcDbEntity
  8
03
100
AcDbCircle
 10
282.5809004230176
 20
493.3323899371067
 30
0.0
 40
0.75
100
AcDbArc
 50
0.0
 51
90.0
  0
LINE
  5
3E2
330
A
100
AcDbEntity
  8
03
100
AcDbLine
 10
286.3309004230176
 20
209.0823899371069
 30
0.0
 11
286.3309004230176
 21
192.082389937107
 31
0.0
  0
LINE
  5
3E3
330
A
100
AcDbEntity
  8
03
100
AcDbLine
 10
286.3309004230176
 20
189.082389937107
 30
0.0
 11
286.3309004230176
 21
89.082389937107
 31
0.0
  0
LINE
  5
3E4
330
A
100
AcDbEntity
  8
06
100
AcDbLine
 10
265.3309004230175
 20
209.0823899371069
 30
0.0
 11
265.3309004230175
 21
192.082389937107
 31
0.0
  0
LINE
  5
3E5
330
A
100
AcDbEntity
  8
06
100
AcDbLine
 10
265.3309004230175
 20
189.082389937107
 30
0.0
 11
265.3309004230175
 21
99.082389937107
 31
0.0
  0
LINE
  5
3E6
330
A
100
AcDbEntity
  8
06
100
AcDbLine
 10
233.3309004230175
 20
209.0823899371069
 30
0.0
 11
233.3309004230175
 21
192.082389937107
 31
0.0
  0
LINE
  5
3E7
330
A
100
AcDbEntity
  8
06
100
AcDbLine
 10
233.3309004230175
 20
189.0823899371068
 30
0.0
 11
233.3309004230175
 21
99.082389937107
 31
0.0
  0
LINE
  5
3E8
330
A
100
AcDbEntity
  8
03
100
AcDbLine
 10
228.3309004230178
 20
209.0823899371069
 30
0.0
 11
228.3309004230178
 21
192.082389937107
 31
0.0
  0
LINE
  5
3E9
330
A
100
AcDbEntity
  8
03
100
AcDbLine
 10
228.3309004230178
 20
189.0823899371068
 30
0.0
 11
228.3309004230178
 21
90.20192815750744
 31
0.0
  0
LINE
  5
3EA
330
A
100
AcDbEntity
  8
03
100
AcDbLine
 10
172.3309004230175
 20
209.0823899371069
 30
0.0
 11
172.3309004230175
 21
192.082389937107
 31
0.0
  0
LINE
  5
3EB
330
A
100
AcDbEntity
  8
03
100
AcDbLine
 10
172.3309004230175
 20
189.0823899371068
 30
0.0
 11
172.3309004230175
 21
90.20192815750744
 31
0.0
  0
LINE
  5
3EC
330
A
100
AcDbEntity
  8
03
100
AcDbLine
 10
166.3309004230175
 20
209.0823899371069
 30
0.0
 11
166.3309004230175
 21
192.082389937107
 31
0.0
  0
LINE
  5
3ED
330
A
100
AcDbEntity
  8
03
100
AcDbLine
 10
166.3309004230175
 20
189.0823899371068
 30
0.0
 11
166.3309004230175
 21
90.20192815750744
 31
0.0
  0
LINE
  5
3EE
330
A
100
AcDbEntity
  8
02
100
AcDbLine
 10
170.8309004230176
 20
473.5823899371069
 30
0.0
 11
170.8309004230176
 21
311.5823899371068
 31
0.0
  0
LINE
  5
3EF
330
A
100
AcDbEntity
  8
02
100
AcDbLine
 10
258.8309004230175
 20
492.5823899371066
 30
0.0
 11
258.8309004230175
 21
473.9823899371066
 31
0.0
  0
ARC
  5
3F0
330
A
100
AcDbEntity
  8
03
100
AcDbCircle
 10
210.0809004230177
 20
493.3323899371067
 30
0.0
 40
0.75
100
AcDbArc
 50
89.99999999999998
 51
179.9999999999999
  0
LINE
  5
3F1
330
A
100
AcDbEntity
  8
02
100
AcDbLine
 10
171.8309004230175
 20
474.5823899371067
 30
0.0
 11
257.2309004230177
 21
474.5823899371067
 31
0.0
  0
ARC
  5
3F2
330
A
100
AcDbEntity
  8
02
100
AcDbCircle
 10
171.8309004230175
 20
473.5823899371069
 30
0.0
 40
1.0
100
AcDbArc
 50
89.99999999999998
 51
179.9999999999999
  0
LINE
  5
3F3
330
A
100
AcDbEntity
  8
02
100
AcDbLine
 10
172.4309004230175
 20
472.9823899371067
 30
0.0
 11
172.4309004230178
 21
312.1823899371066
 31
0.0
  0
LINE
  5
3F4
330
A
100
AcDbEntity
  8
02
100
AcDbLine
 10
172.4309004230175
 20
472.9823899371067
 30
0.0
 11
257.8309004230177
 21
472.9823899371067
 31
0.0
  0
ARC
  5
3F5
330
A
100
AcDbEntity
  8
02
100
AcDbCircle
 10
257.8309004230177
 20
473.9823899371066
 30
0.0
 40
1.0
100
AcDbArc
 50
269.9999999999999
 51
0.0
  0
LINE
  5
3F6
330
A
100
AcDbEntity
  8
02
100
AcDbLine
 10
257.2309004230177
 20
492.5823899371066
 30
0.0
 11
257.2309004230177
 21
474.5823899371067
 31
0.0
  0
LINE
  5
3F7
330
A
100
AcDbEntity
  8
02
100
AcDbLine
 10
179.3309004230175
 20
472.9823899371067
 30
0.0
 11
179.3309004230175
 21
312.1823899371066
 31
0.0
1001
ACAD
1000
ASC_BOUNDS
1002
{
1070
    19
1005
B9E
1005
B9E
1002
}
  0
ARC
  5
3F8
330
A
100
AcDbEntity
  8
03
100
AcDbCircle
 10
210.0809004230177
 20
524.8323899371069
 30
0.0
 40
0.75
100
AcDbArc
 50
179.9999999999999
 51
269.9999999999999
  0
LINE
  5
3F9
330
A
100
AcDbEntity
  8
02
100
AcDbLine
 10
226.8309004230177
 20
311.1823899371068
 30
0.0
 11
226.8309004230177
 21
295.5823899371068
 31
0.0
  0
LINE
  5
3FA
330
A
100
AcDbEntity
  8
02
100
AcDbLine
 10
171.8309004230175
 20
310.5823899371068
 30
0.0
 11
225.2309004230175
 21
310.5823899371068
 31
0.0
  0
ARC
  5
3FC
330
A
100
AcDbEntity
  8
02
100
AcDbCircle
 10
171.8309004230175
 20
311.5823899371068
 30
0.0
 40
1.0
100
AcDbArc
 50
179.9999999999999
 51
270.0
  0
LINE
  5
3FD
330
A
100
AcDbEntity
  8
02
100
AcDbLine
 10
172.4309004230178
 20
312.1823899371066
 30
0.0
 11
225.8309004230178
 21
312.1823899371066
 31
0.0
  0
ARC
  5
3FE
330
A
100
AcDbEntity
  8
02
100
AcDbCircle
 10
225.8309004230178
 20
311.1823899371068
 30
0.0
 40
1.0
100
AcDbArc
 50
0.0
 51
90.0
  0
LINE
  5
3FF
330
A
100
AcDbEntity
  8
02
100
AcDbLine
 10
225.2309004230175
 20
310.5823899371068
 30
0.0
 11
225.2309004230175
 21
295.5823899371068
 31
0.0
  0
LINE
  5
400
330
A
100
AcDbEntity
  8
SAISEN
100
AcDbLine
 10
160.1836768951855
 20
509.0823899371066
 30
0.0
 11
291.8394883502317
 21
509.0823899371066
 31
0.0
  0
LINE
  5
401
330
A
100
AcDbEntity
  8
SAISEN
100
AcDbLine
 10
160.1836768951855
 20
506.0823899371069
 30
0.0
 11
291.8394883502317
 21
506.0823899371069
 31
0.0
  0
LINE
  5
402
330
A
100
AcDbEntity
  8
SAISEN
100
AcDbLine
 10
160.1836768951855
 20
209.0823899371069
 30
0.0
 11
291.8394883502317
 21
209.0823899371069
 31
0.0
  0
LINE
  5
403
330
A
100
AcDbEntity
  8
SAISEN
100
AcDbLine
 10
291.8394883502317
 20
212.082389937107
 30
0.0
 11
160.1836768951855
 21
212.082389937107
 31
0.0
  0
CIRCLE
  5
426
330
A
100
AcDbEntity
  8
03
100
AcDbCircle
 10
261.8309004230175
 20
497.5823899371069
 30
0.0
 40
3.0
  0
LINE
  5
427
330
A
100
AcDbEntity
  8
SAISEN
100
AcDbLine
 10
291.8394883502317
 20
192.082389937107
 30
0.0
 11
160.1836768951855
 21
192.082389937107
 31
0.0
  0
LINE
  5
428
330
A
100
AcDbEntity
  8
SAISEN
100
AcDbLine
 10
160.1836768951855
 20
189.0823899371068
 30
0.0
 11
291.8394883502317
 21
189.082389937107
 31
0.0
  0
LINE
  5
44A
330
A
100
AcDbEntity
  8
KAKURE
100
AcDbLine
 10
272.8309004230179
 20
65.58238993710705
 30
0.0
 11
272.8309004230179
 21
77.08238993710711
 31
0.0
  0
LINE
  5
44B
330
A
100
AcDbEntity
  8
KAKURE
100
AcDbLine
 10
229.8309004230175
 20
77.08238993710711
 30
0.0
 11
229.8309004230175
 21
65.58238993710705
 31
0.0
  0
LINE
  5
44C
330
A
100
AcDbEntity
  8
KAKURE
100
AcDbLine
 10
232.1309004230176
 20
63.28238993710716
 30
0.0
 11
270.5309004230175
 21
63.28238993710716
 31
0.0
  0
LINE
  5
44D
330
A
100
AcDbEntity
  8
KAKURE
100
AcDbLine
 10
270.5309004230175
 20
90.58238993710705
 30
0.0
 11
270.5309004230175
 21
65.58238993710705
 31
0.0
  0
LINE
  5
44E
330
A
100
AcDbEntity
  8
KAKURE
100
AcDbLine
 10
270.5309004230175
 20
65.58238993710705
 30
0.0
 11
232.1309004230176
 21
65.58238993710705
 31
0.0
  0
LINE
  5
44F
330
A
100
AcDbEntity
  8
KAKURE
100
AcDbLine
 10
232.1309004230176
 20
65.58238993710705
 30
0.0
 11
232.1309004230176
 21
90.58238993710705
 31
0.0
  0
ARC
  5
450
330
A
100
AcDbEntity
  8
KAKURE
100
AcDbCircle
 10
232.1309004230176
 20
65.58238993710705
 30
0.0
 40
2.299999999999998
100
AcDbArc
 50
180.0
 51
270.0
  0
ARC
  5
451
330
A
100
AcDbEntity
  8
KAKURE
100
AcDbCircle
 10
270.5309004230175
 20
65.58238993710705
 30
0.0
 40
2.299999999999998
100
AcDbArc
 50
270.0
 51
0.0
  0
LINE
  5
452
330
A
100
AcDbEntity
  8
02
100
AcDbLine
 10
185.3309004230175
 20
472.9823899371067
 30
0.0
 11
185.3309004230175
 21
312.1823899371066
 31
0.0
1001
ACAD
1000
ASC_BOUNDS
1002
{
1070
    19
1005
B9E
1005
B9E
1002
}
  0
LINE
  5
453
330
A
100
AcDbEntity
  8
CHUSIN
100
AcDbLine
 10
249.3309004230175
 20
331.526180512001
 30
0.0
 11
249.330900423018
 21
63.6722475056398
 31
0.0
  0
LINE
  5
454
330
A
100
AcDbEntity
  8
CHUSIN
100
AcDbLine
 10
200.3309004230175
 20
535.3534129015399
 30
0.0
 11
200.3309004230175
 21
509.0823899371066
 31
0.0
  0
LINE
  5
455
330
A
100
AcDbEntity
  8
CHUSIN
100
AcDbLine
 10
200.3309004230175
 20
509.0823899371066
 30
0.0
 11
200.3309004230175
 21
470.6642914566248
 31
0.0
  0
LINE
  5
456
330
A
100
AcDbEntity
  8
CHUSIN
100
AcDbLine
 10
200.3309004230175
 20
318.1054507337524
 30
0.0
 11
200.3309004230175
 21
204.082389937107
 31
0.0
  0
LINE
  5
457
330
A
100
AcDbEntity
  8
CHUSIN
100
AcDbLine
 10
200.3309004230175
 20
199.0823899371068
 30
0.0
 11
200.3309004230175
 21
79.26740862057619
 31
0.0
  0
LINE
  5
458
330
A
100
AcDbEntity
  8
CHUSIN
100
AcDbLine
 10
184.3309004230175
 20
200.082389937107
 30
0.0
 11
216.3309004230177
 21
200.082389937107
 31
0.0
  0
LINE
  5
45F
330
A
100
AcDbEntity
  8
CHUSIN
100
AcDbLine
 10
278.3311421109755
 20
355.0824722577202
 30
0.0
 11
228.3311421109754
 21
355.0824722577202
 31
0.0
  0
LINE
  5
460
330
A
100
AcDbEntity
  8
CHUSIN
100
AcDbLine
 10
172.4309004230175
 20
386.0823899371069
 30
0.0
 11
198.3309004230175
 21
386.0823899371069
 31
0.0
1001
ACAD
1000
ASC_BOUNDS
1002
{
1070
    19
1005
B9E
1005
B9E
1002
}
  0
LINE
  5
461
330
A
100
AcDbEntity
  8
CHUSIN
100
AcDbLine
 10
198.3309004230175
 20
431.0823899371069
 30
0.0
 11
172.4309004230175
 21
431.0823899371069
 31
0.0
  0
LINE
  5
462
330
A
100
AcDbEntity
  8
CHUSIN
100
AcDbLine
 10
226.3309004230175
 20
574.9621076863843
 30
0.0
 11
226.3309004230175
 21
544.0823899371066
 31
0.0
  0
LINE
  5
463
330
A
100
AcDbEntity
  8
CHUSIN
100
AcDbLine
 10
261.8309004230175
 20
493.3323899371067
 30
0.0
 11
261.8309004230175
 21
503.3323899371067
 31
0.0
  0
LINE
  5
464
330
A
100
AcDbEntity
  8
CHUSIN
 48
0.9
100
AcDbLine
 10
265.6892628125917
 20
497.5823899371069
 30
0.0
 11
257.5372862993028
 21
497.5823899371069
 31
0.0
  0
LINE
  5
465
330
A
100
AcDbEntity
  8
06
100
AcDbLine
 10
253.5809004230177
 20
303.5823899371068
 30
0.0
 11
262.3309004230175
 21
303.5823899371068
 31
0.0
  0
LINE
  5
466
330
A
100
AcDbEntity
  8
06
100
AcDbLine
 10
236.3309004230178
 20
303.5823899371068
 30
0.0
 11
245.0809004230178
 21
303.5823899371068
 31
0.0
  0
LINE
  5
467
330
A
100
AcDbEntity
  8
06
100
AcDbLine
 10
261.8309004230175
 20
303.5823899371068
 30
0.0
 11
261.8309004230175
 21
305.0823899371069
 31
0.0
  0
LINE
  5
468
330
A
100
AcDbEntity
  8
06
100
AcDbLine
 10
261.8309004230175
 20
303.5823899371068
 30
0.0
 11
236.8309004230175
 21
303.5823899371068
 31
0.0
  0
LINE
  5
469
330
A
100
AcDbEntity
  8
06
100
AcDbLine
 10
236.8309004230175
 20
303.5823899371068
 30
0.0
 11
236.8309004230175
 21
304.5823899371068
 31
0.0
  0
LINE
  5
46A
330
A
100
AcDbEntity
  8
06
100
AcDbLine
 10
228.6309004230175
 20
304.5823899371068
 30
0.0
 11
236.8309004230175
 21
304.5823899371068
 31
0.0
  0
LINE
  5
46B
330
A
100
AcDbEntity
  8
06
100
AcDbLine
 10
261.8309004230175
 20
305.0823899371069
 30
0.0
 11
231.8309004230178
 21
305.0823899371069
 31
0.0
  0
LINE
  5
46C
330
A
100
AcDbEntity
  8
06
100
AcDbLine
 10
231.8309004230178
 20
305.0823899371069
 30
0.0
 11
228.6309004230175
 21
304.5823899371068
 31
0.0
  0
ARC
  5
46D
330
A
100
AcDbEntity
  8
06
100
AcDbCircle
 10
243.8309004230175
 20
212.0113221252414
 30
0.0
 40
7.5
100
AcDbArc
 50
70.52877936550931
 51
109.4712206344905
  0
ARC
  5
46E
330
A
100
AcDbEntity
  8
06
100
AcDbCircle
 10
254.8309004230178
 20
212.0113221252414
 30
0.0
 40
7.5
100
AcDbArc
 50
70.52877936550931
 51
109.4712206344905
  0
LINE
  5
487
330
A
100
AcDbEntity
  8
06
100
AcDbLine
 10
252.3309004230175
 20
212.0113221252414
 30
0.0
 11
252.3309004230176
 21
244.382389937107
 31
0.0
  0
LINE
  5
488
330
A
100
AcDbEntity
  8
06
100
AcDbLine
 10
246.3309004230178
 20
212.0113221252414
 30
0.0
 11
246.3309004230178
 21
244.3823899371067
 31
0.0
  0
LINE
  5
489
330
A
100
AcDbEntity
  8
06
100
AcDbLine
 10
246.8309004230178
 20
212.0113221252414
 30
0.0
 11
246.8309004230178
 21
244.3823899371067
 31
0.0
  0
LINE
  5
48A
330
A
100
AcDbEntity
  8
06
100
AcDbLine
 10
251.8309004230177
 20
212.0113221252414
 30
0.0
 11
251.8309004230177
 21
244.3823899371071
 31
0.0
  0
LINE
  5
48B
330
A
100
AcDbEntity
  8
03
100
AcDbLine
 10
197.3309004230175
 20
530.0823899371066
 30
0.0
 11
197.3309004230175
 21
509.0823899371066
 31
0.0
  0
LINE
  5
48C
330
A
100
AcDbEntity
  8
03
100
AcDbLine
 10
197.3309004230175
 20
505.5980043366949
 30
0.0
 11
197.3309004230175
 21
486.0823899371069
 31
0.0
  0
LINE
  5
48D
330
A
100
AcDbEntity
  8
03
100
AcDbLine
 10
203.3309004230175
 20
530.0823899371066
 30
0.0
 11
203.3309004230175
 21
509.0823899371066
 31
0.0
  0
LINE
  5
48E
330
A
100
AcDbEntity
  8
03
100
AcDbLine
 10
203.3309004230175
 20
505.5980043366949
 30
0.0
 11
203.3309004230175
 21
486.0823899371069
 31
0.0
  0
LINE
  5
48F
330
A
100
AcDbEntity
  8
03
100
AcDbLine
 10
197.3309004230175
 20
530.0823899371066
 30
0.0
 11
203.3309004230175
 21
530.0823899371066
 31
0.0
  0
LINE
  5
490
330
A
100
AcDbEntity
  8
03
100
AcDbLine
 10
197.3309004230175
 20
486.0823899371069
 30
0.0
 11
203.3309004230175
 21
486.0823899371069
 31
0.0
  0
CIRCLE
  5
491
330
A
100
AcDbEntity
  8
03
100
AcDbCircle
 10
200.3309004230175
 20
200.082389937107
 30
0.0
 40
6.0
  0
LINE
  5
492
330
A
100
AcDbEntity
  8
06
100
AcDbLine
 10
194.3309004230175
 20
312.1823899371066
 30
0.0
 11
194.3309004230175
 21
309.0823899371069
 31
0.0
  0
LINE
  5
493
330
A
100
AcDbEntity
  8
06
100
AcDbLine
 10
206.3309004230175
 20
312.1823899371066
 30
0.0
 11
206.3309004230175
 21
309.0823899371069
 31
0.0
  0
LINE
  5
494
330
A
100
AcDbEntity
  8
03
100
AcDbLine
 10
192.8309004230175
 20
486.0823899371068
 30
0.0
 11
207.8309004230177
 21
486.0823899371068
 31
0.0
  0
LINE
  5
495
330
A
100
AcDbEntity
  8
03
100
AcDbLine
 10
207.8309004230177
 20
486.0823899371068
 30
0.0
 11
207.8309004230177
 21
476.0823899371067
 31
0.0
  0
LINE
  5
496
330
A
100
AcDbEntity
  8
03
100
AcDbLine
 10
207.8309004230177
 20
476.0823899371067
 30
0.0
 11
192.8309004230175
 21
476.0823899371067
 31
0.0
  0
LINE
  5
497
330
A
100
AcDbEntity
  8
03
100
AcDbLine
 10
192.8309004230175
 20
476.0823899371067
 30
0.0
 11
192.8309004230175
 21
486.0823899371068
 31
0.0
  0
LINE
  5
498
330
A
100
AcDbEntity
  8
03
100
AcDbLine
 10
192.8309004230175
 20
476.0823899371067
 30
0.0
 11
207.8309004230177
 21
486.0823899371068
 31
0.0
  0
ARC
  5
499
330
A
100
AcDbEntity
  8
03
100
AcDbCircle
 10
206.7059004230175
 20
505.5980043366949
 30
0.0
 40
12.0
100
AcDbArc
 50
253.6651772193138
 51
286.3348227806858
  0
ARC
  5
49A
330
A
100
AcDbEntity
  8
03
100
AcDbCircle
 10
193.9559004230175
 20
505.5980043366949
 30
0.0
 40
12.0
100
AcDbArc
 50
253.665177219314
 51
286.334822780686
  0
ARC
  5
49B
330
A
100
AcDbEntity
  8
03
100
AcDbCircle
 10
193.9559004230175
 20
512.5667755375189
 30
0.0
 40
12.0
100
AcDbArc
 50
73.66517721931393
 51
106.3348227806858
  0
ARC
  5
49C
330
A
100
AcDbEntity
  8
03
100
AcDbCircle
 10
206.7059004230175
 20
512.5667755375189
 30
0.0
 40
12.0
100
AcDbArc
 50
73.66517721931401
 51
106.334822780686
  0
ARC
  5
49D
330
A
100
AcDbEntity
  8
06
100
AcDbCircle
 10
243.8309004230175
 20
191.1534577489723
 30
0.0
 40
7.5
100
AcDbArc
 50
250.5287793655093
 51
289.4712206344907
  0
ARC
  5
49E
330
A
100
AcDbEntity
  8
06
100
AcDbCircle
 10
254.8309004230175
 20
191.1534577489723
 30
0.0
 40
7.5
100
AcDbArc
 50
250.5287793655092
 51
289.4712206344906
  0
LINE
  5
4CE
330
A
100
AcDbEntity
  8
06
100
AcDbLine
 10
256.8309004230175
 20
98.58238993710656
 30
0.0
 11
256.8309004230175
 21
74.082389937107
 31
0.0
  0
LINE
  5
4CF
330
A
100
AcDbEntity
  8
06
100
AcDbLine
 10
256.8309004230175
 20
74.082389937107
 30
0.0
 11
241.8309004230175
 21
74.082389937107
 31
0.0
  0
LINE
  5
4D0
330
A
100
AcDbEntity
  8
06
100
AcDbLine
 10
241.8309004230175
 20
74.082389937107
 30
0.0
 11
241.8309004230175
 21
98.58238993710656
 31
0.0
  0
LINE
  5
4D1
330
A
100
AcDbEntity
  8
06
100
AcDbLine
 10
236.8309004230175
 20
316.0824859914386
 30
0.0
 11
236.8309004230175
 21
305.0823899371069
 31
0.0
  0
LINE
  5
4D2
330
A
100
AcDbEntity
  8
06
100
AcDbLine
 10
261.8309004230175
 20
305.0823899371069
 30
0.0
 11
261.8309004230175
 21
316.0825099531431
 31
0.0
  0
LINE
  5
4DF
330
A
100
AcDbEntity
  8
06
100
AcDbLine
 10
236.8309004230175
 20
305.0823899371069
 30
0.0
 11
261.8309004230175
 21
316.0825099531431
 31
0.0
  0
LINE
  5
4E0
330
A
100
AcDbEntity
  8
03
100
AcDbLine
 10
179.3309004230175
 20
434.0823899371066
 30
0.0
 11
185.3309004230175
 21
434.0823899371066
 31
0.0
  0
LINE
  5
4E1
330
A
100
AcDbEntity
  8
03
100
AcDbLine
 10
185.3309004230175
 20
428.0823899371068
 30
0.0
 11
179.3309004230175
 21
428.0823899371068
 31
0.0
  0
LINE
  5
4E9
330
A
100
AcDbEntity
  8
03
100
AcDbLine
 10
179.3309004230175
 20
389.0823899371067
 30
0.0
 11
185.3309004230175
 21
389.0823899371067
 31
0.0
1001
ACAD
1000
ASC_BOUNDS
1002
{
1070
    19
1005
B9E
1002
}
  0
LINE
  5
4EA
330
A
100
AcDbEntity
  8
03
100
AcDbLine
 10
185.3309004230175
 20
383.0823899371067
 30
0.0
 11
179.3309004230175
 21
383.0823899371067
 31
0.0
1001
ACAD
1000
ASC_BOUNDS
1002
{
1070
    19
1005
B9E
1002
}
  0
LINE
  5
4F9
330
A
100
AcDbEntity
  8
06
100
AcDbLine
 10
252.3309004230175
 20
209.0823899371069
 30
0.0
 11
252.3309004230175
 21
192.082389937107
 31
0.0
  0
LINE
  5
4FA
330
A
100
AcDbEntity
  8
06
100
AcDbLine
 10
252.3309004230175
 20
189.082389937107
 30
0.0
 11
252.3309004230175
 21
158.782389937107
 31
0.0
  0
LINE
  5
4FB
330
A
100
AcDbEntity
  8
06
100
AcDbLine
 10
251.8309004230177
 20
158.782389937107
 30
0.0
 11
251.8309004230177
 21
189.082389937107
 31
0.0
  0
LINE
  5
4FC
330
A
100
AcDbEntity
  8
06
100
AcDbLine
 10
251.8309004230177
 20
192.082389937107
 30
0.0
 11
251.8309004230177
 21
209.0823899371069
 31
0.0
  0
LINE
  5
4FD
330
A
100
AcDbEntity
  8
06
100
AcDbLine
 10
246.8309004230175
 20
209.0823899371069
 30
0.0
 11
246.8309004230175
 21
192.082389937107
 31
0.0
  0
LINE
  5
4FE
330
A
100
AcDbEntity
  8
06
100
AcDbLine
 10
246.8309004230175
 20
189.082389937107
 30
0.0
 11
246.8309004230178
 21
158.782389937107
 31
0.0
  0
LINE
  5
4FF
330
A
100
AcDbEntity
  8
06
100
AcDbLine
 10
246.3309004230175
 20
158.782389937107
 30
0.0
 11
246.3309004230175
 21
189.082389937107
 31
0.0
  0
LINE
  5
500
330
A
100
AcDbEntity
  8
06
100
AcDbLine
 10
246.3309004230175
 20
192.082389937107
 30
0.0
 11
246.3309004230175
 21
209.0823899371069
 31
0.0
  0
LINE
  5
503
330
A
100
AcDbEntity
  8
KAKURE
100
AcDbLine
 10
174.3309004230175
 20
550.9823899371069
 30
0.0
 11
278.3309004230175
 21
550.9823899371069
 31
0.0
  0
LINE
  5
504
330
A
100
AcDbEntity
  8
KAKURE
100
AcDbLine
 10
174.3309004230175
 20
550.9823899371069
 30
0.0
 11
174.3309004230175
 21
552.5823899371069
 31
0.0
  0
LINE
  5
505
330
A
100
AcDbEntity
  8
KAKURE
100
AcDbLine
 10
278.3309004230175
 20
550.9823899371069
 30
0.0
 11
278.3309004230178
 21
552.5823899371069
 31
0.0
  0
LINE
  5
506
330
A
100
AcDbEntity
  8
KAKURE
100
AcDbLine
 10
184.3309004230175
 20
552.5823899371069
 30
0.0
 11
268.3309004230177
 21
552.5823899371069
 31
0.0
  0
LINE
  5
507
330
A
100
AcDbEntity
  8
KAKURE
100
AcDbLine
 10
201.3309004230175
 20
572.5823899371069
 30
0.0
 11
251.3309004230175
 21
572.5823899371069
 31
0.0
  0
LINE
  5
508
330
A
100
AcDbEntity
  8
KAKURE
100
AcDbLine
 10
251.3309004230175
 20
552.5823899371069
 30
0.0
 11
201.3309004230175
 21
552.5823899371069
 31
0.0
  0
LINE
  5
509
330
A
100
AcDbEntity
  8
KAKURE
100
AcDbLine
 10
201.3309004230175
 20
552.5823899371069
 30
0.0
 11
201.3309004230175
 21
572.5823899371069
 31
0.0
  0
LINE
  5
50A
330
A
100
AcDbEntity
  8
KAKURE
100
AcDbLine
 10
251.3309004230175
 20
572.5823899371069
 30
0.0
 11
251.3309004230175
 21
552.5823899371069
 31
0.0
  0
LINE
  5
50B
330
A
100
AcDbEntity
  8
KAKURE
100
AcDbLine
 10
201.3309004230175
 20
554.8823899371068
 30
0.0
 11
251.3309004230175
 21
554.8823899371068
 31
0.0
  0
LINE
  5
6B5
330
A
100
AcDbEntity
  8
03
100
AcDbLine
 10
208.4439376714138
 20
294.0823899371068
 30
0.0
 11
192.0809004230175
 21
294.0823899371068
 31
0.0
  0
LINE
  5
6B6
330
A
100
AcDbEntity
  8
03
100
AcDbLine
 10
191.3337543994488
 20
294.8977567441675
 30
0.0
 11
192.5697551884304
 21
309.025310408483
 31
0.0
  0
LINE
  5
6B7
330
A
100
AcDbEntity
  8
03
100
AcDbLine
 10
207.9550829060009
 20
309.025310408483
 30
0.0
 11
209.1910836949826
 21
294.8977567441675
 31
0.0
  0
LINE
  5
6B8
330
A
100
AcDbEntity
  8
03
100
AcDbLine
 10
194.0640472355682
 20
308.8945767943615
 30
0.0
 11
192.8993817988195
 21
295.5823899371068
 31
0.0
  0
LINE
  5
6B9
330
A
100
AcDbEntity
  8
03
100
AcDbLine
 10
192.7624190472158
 20
295.5823899371068
 30
0.0
 11
207.7624190472158
 21
295.5823899371068
 31
0.0
  0
LINE
  5
6BA
330
A
100
AcDbEntity
  8
03
100
AcDbLine
 10
207.6254562956119
 20
295.5823899371068
 30
0.0
 11
206.4607908588633
 21
308.8945767943615
 31
0.0
  0
LINE
  5
6BB
330
A
100
AcDbEntity
  8
03
100
AcDbLine
 10
192.5697551884304
 20
309.025310408483
 30
0.0
 11
194.0640472355682
 21
308.8945767943615
 31
0.0
  0
LINE
  5
6BC
330
A
100
AcDbEntity
  8
03
100
AcDbLine
 10
206.4607908588633
 20
308.8945767943615
 30
0.0
 11
207.9550829060009
 21
309.025310408483
 31
0.0
  0
ARC
  5
6BD
330
A
100
AcDbEntity
  8
03
100
AcDbCircle
 10
192.0809004230175
 20
294.8323899371068
 30
0.0
 40
0.75
100
AcDbArc
 50
175.0000000000029
 51
270.0
  0
ARC
  5
6BE
330
A
100
AcDbEntity
  8
03
100
AcDbCircle
 10
208.4439376714138
 20
294.8323899371068
 30
0.0
 40
0.75
100
AcDbArc
 50
270.0
 51
4.999999999999777
  0
POLYLINE
  5
73B
330
A
100
AcDbEntity
  8
DEFPOINTS
100
AcDb2dPolyline
 66
     1
 10
0.0
 20
0.0
 30
0.0
 70
     1
  0
VERTEX
  5
24A6
330
73B
100
AcDbEntity
  8
DEFPOINTS
100
AcDbVertex
100
AcDb2dVertex
 10
0.0
 20
0.0
 30
0.0
  0
VERTEX
  5
24A7
330
73B
100
AcDbEntity
  8
DEFPOINTS
100
AcDbVertex
100
AcDb2dVertex
 10
420.0
 20
0.0
 30
0.0
  0
VERTEX
  5
24A8
330
73B
100
AcDbEntity
  8
DEFPOINTS
100
AcDbVertex
100
AcDb2dVertex
 10
420.0
 20
594.0
 30
0.0
  0
VERTEX
  5
24A9
330
73B
100
AcDbEntity
  8
DEFPOINTS
100
AcDbVertex
100
AcDb2dVertex
 10
0.0
 20
594.0
 30
0.0
  0
SEQEND
  5
24AA
330
73B
100
AcDbEntity
  8
DEFPOINTS
  0
MTEXT
  5
759
330
A
100
AcDbEntity
  8
MOJI
100
AcDbMText
 10
365.454481546573
 20
289.6038664323373
 30
0.0
 40
6.0
 41
10.0
 71
     5
 72
     1
  1
内\P\P部
  7
0_8
1001
ACAD
1000
MTEXTBEGIN
1070
    73
1070
     1
1070
    44
1040
1.0
1070
    74
1070
     0
1000
MTEXTEND
1000
MTEXTBEGIN
1070
    73
1070
     1
1070
    44
1040
1.0
1070
    74
1070
     0
1000
MTEXTEND
  0
POLYLINE
  5
75A
330
A
100
AcDbEntity
  8
SAISEN
100
AcDb2dPolyline
 66
     1
 10
0.0
 20
0.0
 30
0.0
 70
     1
  0
VERTEX
  5
24AB
330
75A
100
AcDbEntity
  8
SAISEN
100
AcDbVertex
100
AcDb2dVertex
 10
360.4544815465728
 20
274.6038664323374
 30
0.0
  0
VERTEX
  5
24AC
330
75A
100
AcDbEntity
  8
SAISEN
100
AcDbVertex
100
AcDb2dVertex
 10
370.4544815465729
 20
274.6038664323374
 30
0.0
  0
VERTEX
  5
24AD
330
75A
100
AcDbEntity
  8
SAISEN
100
AcDbVertex
100
AcDb2dVertex
 10
370.4544815465729
 20
304.6038664323373
 30
0.0
  0
VERTEX
  5
24AE
330
75A
100
AcDbEntity
  8
SAISEN
100
AcDbVertex
100
AcDb2dVertex
 10
360.4544815465728
 20
304.6038664323373
 30
0.0
  0
SEQEND
  5
24AF
330
75A
100
AcDbEntity
  8
SAISEN
  0
POLYLINE
  5
75B
330
A
100
AcDbEntity
  8
SAISEN
100
AcDb2dPolyline
 66
     1
 10
0.0
 20
0.0
 30
0.0
 70
     1
  0
VERTEX
  5
24B0
330
75B
100
AcDbEntity
  8
SAISEN
100
AcDbVertex
100
AcDb2dVertex
 10
65.12529405105166
 20
274.6038664323374
 30
0.0
  0
VERTEX
  5
24B1
330
75B
100
AcDbEntity
  8
SAISEN
100
AcDbVertex
100
AcDb2dVertex
 10
75.12529405105166
 20
274.6038664323374
 30
0.0
  0
VERTEX
  5
24B2
330
75B
100
AcDbEntity
  8
SAISEN
100
AcDbVertex
100
AcDb2dVertex
 10
75.12529405105166
 20
304.6038664323373
 30
0.0
  0
VERTEX
  5
24B3
330
75B
100
AcDbEntity
  8
SAISEN
100
AcDbVertex
100
AcDb2dVertex
 10
65.12529405105166
 20
304.6038664323373
 30
0.0
  0
SEQEND
  5
24B4
330
75B
100
AcDbEntity
  8
SAISEN
  0
MTEXT
  5
75C
330
A
100
AcDbEntity
  8
MOJI
100
AcDbMText
 10
70.12529405105166
 20
289.6038664323373
 30
0.0
 40
6.0
 41
10.0
 71
     5
 72
     1
  1
外\P\P部
  7
0_8
1001
ACAD
1000
MTEXTBEGIN
1070
    73
1070
     1
1070
    44
1040
1.0
1070
    74
1070
     0
1000
MTEXTEND
1000
MTEXTBEGIN
1070
    73
1070
     1
1070
    44
1040
1.0
1070
    74
1070
     0
1000
MTEXTEND
  0
TEXT
  5
768
330
A
100
AcDbEntity
  8
MOJI
100
AcDbText
 10
342.4135703050763
 20
92.18238993710695
 30
0.0
 40
5.0
  1
Ｆ.Ｌ
 41
0.8
  7
0_8
 11
342.4135703050763
 21
94.68238993710695
 31
0.0
100
AcDbText
 73
     2
  0
DIMENSION
  5
76E
330
A
100
AcDbEntity
  8
SUNPOU
100
AcDbDimension
  2
*D1
 10
169.3309004230175
 20
514.7207004428785
 30
0.0
 11
158.9977803913544
 21
519.3259906593608
 31
0.0
 70
   160
  3
SUNPOU_2
100
AcDbAlignedDimension
 13
166.3309004230175
 23
554.0823899371067
 33
0.0
 14
169.3309004230175
 24
524.8323899371069
 34
0.0
100
AcDbRotatedDimension
  0
DIMENSION
  5
77D
330
A
100
AcDbEntity
  8
SUNPOU
100
AcDbDimension
  2
*D2
 10
283.3309004230176
 20
514.7187139296885
 30
0.0
 11
226.3309004230175
 21
519.2187139296885
 31
0.0
 70
    32
  3
SUNPOU_2
100
AcDbAlignedDimension
 13
169.3309004230175
 23
524.8323899371069
 33
0.0
 14
283.3309004230176
 24
524.8323899371069
 34
0.0
100
AcDbRotatedDimension
  0
DIMENSION
  5
78A
330
A
100
AcDbEntity
  8
SUNPOU
100
AcDbDimension
  2
*D3
 10
286.3309004230176
 20
514.7207004408463
 30
0.0
 11
293.4807017186701
 21
519.4203896542518
 31
0.0
 70
   160
  3
SUNPOU_2
100
AcDbAlignedDimension
 13
283.3309004230176
 23
524.8323899371069
 33
0.0
 14
286.3309004230176
 24
554.0823899371067
 34
0.0
100
AcDbRotatedDimension
  0
DIMENSION
  5
7FB
330
A
100
AcDbEntity
  8
SUNPOU
100
AcDbDimension
  2
*D4
 10
274.8311910464873
 20
462.6831093488621
 30
0.0
 11
242.6249371269157
 21
467.1944191655008
 31
0.0
 70
   160
  3
SUNPOU_2
100
AcDbAlignedDimension
 13
185.3311583365465
 23
423.9164930691978
 33
0.0
 14
274.8311910464873
 24
416.0826996355896
 34
0.0
100
AcDbRotatedDimension
  0
DIMENSION
  5
808
330
A
100
AcDbEntity
  8
SUNPOU
100
AcDbDimension
  2
*D5
 10
169.3309004230175
 20
395.2140900757846
 30
0.0
 11
159.7225741477698
 21
399.8008187560444
 31
0.0
 70
   160
  3
SUNPOU_2
100
AcDbAlignedDimension
 13
166.3309004230175
 23
395.2140900757846
 33
0.0
 14
169.3309004230175
 24
395.2140900757846
 34
0.0
100
AcDbRotatedDimension
1001
ACAD
1000
DSTYLE
1002
{
1070
     7
1000
DOTSMALL
1070
     5
1000

1070
   173
1070
     1
1070
     6
1000
OPEN30
1002
}
  0
DIMENSION
  5
815
330
A
100
AcDbEntity
  8
SUNPOU
100
AcDbDimension
  2
*D6
 10
179.3309004230175
 20
395.2140900757846
 30
0.0
 11
175.5744084104949
 21
399.7140900757846
 31
0.0
 70
   160
  3
SUNPOU_2
100
AcDbAlignedDimension
 13
169.3309004230175
 23
395.2140900757846
 33
0.0
 14
179.3309004230175
 24
395.2140900757846
 34
0.0
100
AcDbRotatedDimension
1001
ACAD
1000
DSTYLE
1002
{
1070
     6
1000
NONE
1070
     5
1000

1070
   173
1070
     1
1070
     7
1000
NONE
1002
}
  0
DIMENSION
  5
822
330
A
100
AcDbEntity
  8
SUNPOU
100
AcDbDimension
  2
*D7
 10
185.3309004230175
 20
395.2140900757846
 30
0.0
 11
182.3309004230175
 21
399.6955289525706
 31
0.0
 70
   160
  3
SUNPOU_2
100
AcDbAlignedDimension
 13
179.3309004230175
 23
395.2140900757846
 33
0.0
 14
185.3309004230175
 24
395.2140900757846
 34
0.0
100
AcDbRotatedDimension
1001
ACAD
1000
DSTYLE
1002
{
1070
     6
1000
DOTSMALL
1070
     5
1000

1070
   173
1070
     1
1070
     7
1000
OPEN30
1002
}
  0
DIMENSION
  5
82F
330
A
100
AcDbEntity
  8
SUNPOU
100
AcDbDimension
  2
*D8
 10
241.8310045310615
 20
395.2140900757846
 30
0.0
 11
213.5809524770396
 21
399.7140900757846
 31
0.0
 70
    32
  3
SUNPOU_2
100
AcDbAlignedDimension
 13
185.3309004230175
 23
395.2140900757846
 33
0.0
 14
241.8310045310615
 24
384.5852874944441
 34
0.0
100
AcDbRotatedDimension
  0
DIMENSION
  5
83B
330
A
100
AcDbEntity
  8
SUNPOU
100
AcDbDimension
  2
*D9
 10
275.8311964296296
 20
395.2140900757846
 30
0.0
 11
258.8311004803457
 21
399.7140900757846
 31
0.0
 70
    32
  3
SUNPOU_2
100
AcDbAlignedDimension
 13
241.8310045310615
 23
384.5852874944441
 33
0.0
 14
275.8311964296296
 24
361.3825027127532
 34
0.0
100
AcDbRotatedDimension
  0
DIMENSION
  5
889
330
A
100
AcDbEntity
  8
SUNPOU
100
AcDbDimension
  2
*D12
 10
249.3309004230175
 20
378.0803813264201
 30
0.0
 11
217.3310275667847
 21
382.5803813264201
 31
0.0
 70
    32
  3
SUNPOU_2
100
AcDbAlignedDimension
 13
185.3311547105519
 23
378.0803545997232
 33
0.0
 14
249.3309004230175
 24
331.526180512001
 34
0.0
100
AcDbRotatedDimension
  0
DIMENSION
  5
896
330
A
100
AcDbEntity
  8
SUNPOU
100
AcDbDimension
  2
*D13
 10
169.3309004230175
 20
269.566054710955
 30
0.0
 11
159.0508757393276
 21
274.2164637544163
 31
0.0
 70
   160
  3
SUNPOU_2
100
AcDbAlignedDimension
 13
166.3309004230175
 23
269.5660547109552
 33
0.0
 14
169.3309004230175
 24
294.8323899371068
 34
0.0
100
AcDbRotatedDimension
1001
ACAD
1000
DSTYLE
1002
{
1070
     7
1000
DOTSMALL
1070
     5
1000

1070
   173
1070
     1
1070
     6
1000
OPEN30
1002
}
  0
DIMENSION
  5
8A4
330
A
100
AcDbEntity
  8
SUNPOU
100
AcDbDimension
  2
*D14
 10
172.3309004230175
 20
269.566054710955
 30
0.0
 11
169.4079107297734
 21
264.300374241021
 31
0.0
 70
   160
  3
SUNPOU_2
100
AcDbAlignedDimension
 13
169.3309004230175
 23
294.8323899371068
 33
0.0
 14
172.3309004230175
 24
269.566054710955
 34
0.0
100
AcDbRotatedDimension
1001
ACAD
1000
DSTYLE
1002
{
1070
     6
1000
DOTSMALL
1070
     5
1000

1070
   173
1070
     1
1070
     7
1000
OPEN30
1002
}
  0
DIMENSION
  5
8B2
330
A
100
AcDbEntity
  8
SUNPOU
100
AcDbDimension
  2
*D15
 10
228.3309004230178
 20
269.566054710955
 30
0.0
 11
206.7288976589515
 21
274.0660547109551
 31
0.0
 70
   160
  3
SUNPOU_2
100
AcDbAlignedDimension
 13
172.3309004230175
 23
269.566054710955
 33
0.0
 14
228.3309004230178
 24
269.566054710955
 34
0.0
100
AcDbRotatedDimension
  0
DIMENSION
  5
8BD
330
A
100
AcDbEntity
  8
SUNPOU
100
AcDbDimension
  2
*D16
 10
233.3309004230175
 20
269.566054710955
 30
0.0
 11
230.8309004230177
 21
274.1449570344623
 31
0.0
 70
   160
  3
SUNPOU_2
100
AcDbAlignedDimension
 13
228.3309004230178
 23
269.566054710955
 33
0.0
 14
233.3309004230175
 24
269.566054710955
 34
0.0
100
AcDbRotatedDimension
  0
DIMENSION
  5
8CA
330
A
100
AcDbEntity
  8
SUNPOU
100
AcDbDimension
  2
*D17
 10
265.3309004230178
 20
269.566054710955
 30
0.0
 11
254.8625060371944
 21
274.0660547109551
 31
0.0
 70
   160
  3
SUNPOU_2
100
AcDbAlignedDimension
 13
233.3309004230175
 23
269.566054710955
 33
0.0
 14
265.3309004230178
 24
269.566054710955
 34
0.0
100
AcDbRotatedDimension
  0
DIMENSION
  5
8E2
330
A
100
AcDbEntity
  8
SUNPOU
100
AcDbDimension
  2
*D18
 10
270.3309004230177
 20
269.566054710955
 30
0.0
 11
267.8309004230178
 21
264.2762412935799
 31
0.0
 70
   160
  3
SUNPOU_2
100
AcDbAlignedDimension
 13
265.3309004230178
 23
269.566054710955
 33
0.0
 14
270.3309004230177
 24
295.5823899371068
 34
0.0
100
AcDbRotatedDimension
1001
ACAD
1000
DSTYLE
1002
{
1070
     7
1000
NONE
1070
     5
1000

1070
   173
1070
     1
1070
     6
1000
OPEN30
1002
}
  0
DIMENSION
  5
8F0
330
A
100
AcDbEntity
  8
SUNPOU
100
AcDbDimension
  2
*D19
 10
283.3309004230176
 20
269.566054710955
 30
0.0
 11
276.8309004230177
 21
274.0660547109551
 31
0.0
 70
    32
  3
SUNPOU_2
100
AcDbAlignedDimension
 13
270.3309004230177
 23
295.5823899371068
 33
0.0
 14
283.3309004230176
 24
294.8323899371068
 34
0.0
100
AcDbRotatedDimension
1001
ACAD
1000
DSTYLE
1002
{
1070
     7
1000
DOTSMALL
1070
     5
1000

1070
   173
1070
     1
1070
     6
1000
DOTSMALL
1002
}
  0
DIMENSION
  5
8FF
330
A
100
AcDbEntity
  8
SUNPOU
100
AcDbDimension
  2
*D20
 10
286.3309004230176
 20
269.566054710955
 30
0.0
 11
294.0978512267197
 21
274.1994594871168
 31
0.0
 70
   160
  3
SUNPOU_2
100
AcDbAlignedDimension
 13
283.3309004230176
 23
294.8323899371068
 33
0.0
 14
286.3309004230176
 24
268.762207140955
 34
0.0
100
AcDbRotatedDimension
1001
ACAD
1000
DSTYLE
1002
{
1070
     6
1000
NONE
1070
     5
1000

1070
   173
1070
     1
1070
     7
1000
OPEN30
1002
}
  0
DIMENSION
  5
977
330
A
100
AcDbEntity
  8
SUNPOU
100
AcDbDimension
  2
*D21
 10
286.3309004230176
 20
257.2971319937201
 30
0.0
 11
220.1144334864423
 21
261.7971319937201
 31
0.0
 70
   160
  3
SUNPOU_2
100
AcDbAlignedDimension
 13
166.3309004230175
 23
257.2971319937201
 33
0.0
 14
286.3309004230176
 24
257.2971319937201
 34
0.0
100
AcDbRotatedDimension
  0
DIMENSION
  5
982
330
A
100
AcDbEntity
  8
SUNPOU
100
AcDbDimension
  2
*D22
 10
206.3309004230175
 20
282.6265208293018
 30
0.0
 11
200.3309004230175
 21
287.3537457307516
 31
0.0
 70
   160
  1
φ12
  3
SUNPOU_2
100
AcDbAlignedDimension
 13
194.3309004230175
 23
309.0823899371069
 33
0.0
 14
206.3309004230175
 24
309.0823899371069
 34
0.0
100
AcDbRotatedDimension
  0
DIMENSION
  5
9CA
330
A
100
AcDbEntity
  8
SUNPOU
100
AcDbDimension
  2
*D23
 10
183.1615587583256
 20
309.0823899371069
 30
0.0
 11
178.6615587583258
 21
301.5823899371068
 31
0.0
 70
    32
  3
SUNPOU_2
100
AcDbAlignedDimension
 13
183.1615587583256
 23
294.0823899371068
 33
0.0
 14
191.3309004230175
 24
309.0823899371069
 34
0.0
 50
90.0
100
AcDbRotatedDimension
  0
DIMENSION
  5
9D6
330
A
100
AcDbEntity
  8
SUNPOU
100
AcDbDimension
  2
*D24
 10
124.3331891307287
 20
476.082389937107
 30
0.0
 11
119.8331891307285
 21
385.082389937107
 31
0.0
 70
    32
  3
SUNPOU_2
100
AcDbAlignedDimension
 13
170.0809004230175
 23
294.0823899371068
 33
0.0
 14
170.0809004230175
 24
476.0823899371067
 34
0.0
 50
90.0
100
AcDbRotatedDimension
  0
DIMENSION
  5
9E3
330
A
100
AcDbEntity
  8
SUNPOU
100
AcDbDimension
  2
*D25
 10
124.3331891307287
 20
494.082389937107
 30
0.0
 11
119.8331891307285
 21
485.082389937107
 31
0.0
 70
    32
  3
SUNPOU_2
100
AcDbAlignedDimension
 13
170.0809004230175
 23
476.0823899371067
 33
0.0
 14
175.0809004230178
 24
494.0823899371069
 34
0.0
 50
90.0
100
AcDbRotatedDimension
  0
DIMENSION
  5
9F0
330
A
100
AcDbEntity
  8
SUNPOU
100
AcDbDimension
  2
*D26
 10
138.2095173719075
 20
447.0823836047266
 30
0.0
 11
133.7095173719075
 21
384.5823867709168
 31
0.0
 70
    32
  3
SUNPOU_2
100
AcDbAlignedDimension
 13
188.3309004230175
 23
322.0823899371068
 33
0.0
 14
187.2797907710715
 24
447.0823836047266
 34
0.0
 50
90.0
100
AcDbRotatedDimension
  0
DIMENSION
  5
9FD
330
A
100
AcDbEntity
  8
SUNPOU
100
AcDbDimension
  2
*D27
 10
151.2185750980127
 20
322.0823899371068
 30
0.0
 11
146.7185750980127
 21
308.0823899371068
 31
0.0
 70
    32
  3
SUNPOU_2
100
AcDbAlignedDimension
 13
170.0809004230175
 23
294.0823899371068
 33
0.0
 14
188.3309004230175
 24
322.0823899371068
 34
0.0
 50
90.0
100
AcDbRotatedDimension
  0
DIMENSION
  5
A17
330
A
100
AcDbEntity
  8
SUNPOU
100
AcDbDimension
  2
*D28
 10
151.2185750980127
 20
386.0823899371069
 30
0.0
 11
146.7185750980126
 21
354.0823899371067
 31
0.0
 70
    32
  3
SUNPOU_2
100
AcDbAlignedDimension
 13
188.3309004230175
 23
322.0823899371068
 33
0.0
 14
172.4309004230175
 24
386.0823899371069
 34
0.0
 50
90.0
100
AcDbRotatedDimension
  0
DIMENSION
  5
A24
330
A
100
AcDbEntity
  8
SUNPOU
100
AcDbDimension
  2
*D29
 10
151.2185750980127
 20
431.0823899371069
 30
0.0
 11
146.7185750980127
 21
408.5823899371067
 31
0.0
 70
    32
  3
SUNPOU_2
100
AcDbAlignedDimension
 13
172.4309004230175
 23
386.0823899371069
 33
0.0
 14
172.4309004230175
 24
431.0823899371069
 34
0.0
 50
90.0
100
AcDbRotatedDimension
  0
DIMENSION
  5
A43
330
A
100
AcDbEntity
  8
SUNPOU
100
AcDbDimension
  2
*D30
 10
147.5660277454199
 20
200.082389937107
 30
0.0
 11
143.0660277454198
 21
145.142159047307
 31
0.0
 70
    32
  1
600
  3
SUNPOU_2
100
AcDbAlignedDimension
 13
147.5660277454199
 23
90.20192815750744
 33
0.0
 14
184.3309004230175
 24
200.082389937107
 34
0.0
 50
90.0
100
AcDbRotatedDimension
  0
DIMENSION
  5
A4F
330
A
100
AcDbEntity
  8
SUNPOU
100
AcDbDimension
  2
*D31
 10
294.0643401311418
 20
92.08238993710708
 30
0.0
 11
289.5643401311419
 21
79.58238993710715
 31
0.0
 70
    32
  3
SUNPOU_2
100
AcDbAlignedDimension
 13
257.8309004230179
 23
67.08238993710711
 33
0.0
 14
272.8309004230179
 24
92.08238993710713
 34
0.0
 50
90.0
100
AcDbRotatedDimension
  0
DIMENSION
  5
A5C
330
A
100
AcDbEntity
  8
SUNPOU
100
AcDbDimension
  2
*D32
 10
283.57757501162
 20
92.08238993710706
 30
0.0
 11
279.0656929264794
 21
101.9945073201236
 31
0.0
 70
   160
  3
SUNPOU_2
100
AcDbAlignedDimension
 13
283.57757501162
 23
89.082389937107
 33
0.0
 14
272.8309004230179
 24
92.08238993710706
 34
0.0
 50
90.0
100
AcDbRotatedDimension
  0
DIMENSION
  5
A6A
330
A
100
AcDbEntity
  8
SUNPOU
100
AcDbDimension
  2
*D33
 10
323.4339188390511
 20
99.082389937107
 30
0.0
 11
318.9339188390511
 21
94.08238993710705
 31
0.0
 70
    32
  3
SUNPOU_2
100
AcDbAlignedDimension
 13
323.4339188390511
 23
89.082389937107
 33
0.0
 14
265.3309004230175
 24
99.082389937107
 34
0.0
 50
90.0
100
AcDbRotatedDimension
  0
DIMENSION
  5
A78
330
A
100
AcDbEntity
  8
SUNPOU
100
AcDbDimension
  2
*D34
 10
323.4339188390511
 20
304.0823899371068
 30
0.0
 11
318.9339188390511
 21
201.5823899371068
 31
0.0
 70
    32
  1
DH
  3
SUNPOU_2
100
AcDbAlignedDimension
 13
265.3309004230175
 23
99.082389937107
 33
0.0
 14
271.8309004230178
 24
304.0823899371068
 34
0.0
 50
90.0
100
AcDbRotatedDimension
  0
DIMENSION
  5
A85
330
A
100
AcDbEntity
  8
SUNPOU
100
AcDbDimension
  2
*D35
 10
298.4339188390511
 20
304.0823899371068
 30
0.0
 11
293.9339188390511
 21
299.0823899371068
 31
0.0
 70
    32
  3
SUNPOU_2
100
AcDbAlignedDimension
 13
282.5809004230176
 23
294.0823899371068
 33
0.0
 14
271.8309004230178
 24
304.0823899371068
 34
0.0
 50
90.0
100
AcDbRotatedDimension
  0
DIMENSION
  5
A94
330
A
100
AcDbEntity
  8
SUNPOU
100
AcDbDimension
  2
*D36
 10
338.4339188390511
 20
294.0823899371068
 30
0.0
 11
333.9339188390511
 21
191.5823899371068
 31
0.0
 70
    32
  1
H
  3
SUNPOU_2
100
AcDbAlignedDimension
 13
274.3309004230175
 23
89.082389937107
 33
0.0
 14
282.5809004230176
 24
294.0823899371068
 34
0.0
 50
90.0
100
AcDbRotatedDimension
  0
DIMENSION
  5
AA1
330
A
100
AcDbEntity
  8
SUNPOU
100
AcDbDimension
  2
*D37
 10
338.4339188390511
 20
494.0823899371069
 30
0.0
 11
333.9339188390511
 21
394.0823899371067
 31
0.0
 70
    32
  3
SUNPOU_2
100
AcDbAlignedDimension
 13
282.5809004230176
 23
294.0823899371068
 33
0.0
 14
282.5809004230176
 24
494.0823899371069
 34
0.0
 50
90.0
100
AcDbRotatedDimension
  0
MTEXT
  5
B2E
102
{ACAD_REACTORS
330
B2F
102
}
330
A
100
AcDbEntity
  8
HIKIDASI
100
AcDbMText
 10
152.1919607177181
 20
219.5735879056797
 30
0.0
 40
5.0
 41
0.0
 71
     9
 72
     1
  1
補助光電スイッチ\P取付穴φ12\P（サッシ工事）
  7
SUNPOU
1001
ACAD
1000
MTEXTBEGIN
1070
    73
1070
     1
1070
    44
1040
1.0
1070
    74
1070
     0
1000
MTEXTEND
1000
MTEXTBEGIN
1070
    73
1070
     1
1070
    44
1040
1.0
1070
    74
1070
     0
1000
MTEXTEND
  0
LEADER
  5
B2F
330
A
100
AcDbEntity
  8
HIKIDASI
100
AcDbLeader
  3
SUNPOU_2
 73
     0
 75
     1
 40
21.66666666666666
 41
37.06666666666665
 76
     3
 10
196.0882597358983
 20
204.3250306242262
 30
0.0
 10
159.1919607177183
 20
234.959798442022
 30
0.0
 10
154.1919607177183
 20
234.959798442022
 30
0.0
1001
ACAD
1000
DSTYLE
1002
{
1070
     5
1000
OPEN30
1070
    77
1070
     1
1070
   147
1040
1.0
1070
   342
1005
725
1002
}
1000
LEANOF
1010
0.0
1020
0.0
1030
0.0
1000
LEANOF
1010
0.0
1020
0.0
1030
0.0
1000
LEANOF
1010
0.0
1020
0.0
1030
0.0
  0
LEADER
  5
B36
330
A
100
AcDbEntity
  8
HIKIDASI
100
AcDbLeader
  3
SUNPOU_2
 73
     0
 74
     0
 75
     1
 40
13.33333333333333
 41
52.26666666666666
 76
     3
 10
265.3309004230175
 20
136.4561033963077
 30
0.0
 10
333.9339188390511
 20
175.9926304438724
 30
0.0
 10
338.9339188390511
 20
175.9926304438724
 30
0.0
1001
ACAD
1000
DSTYLE
1002
{
1070
     5
1000
OPEN30
1070
    77
1070
     1
1070
   147
1040
1.0
1070
   342
1005
725
1002
}
1000
LEANOF
1010
0.0
1020
0.0
1030
0.0
1000
LEANOF
1010
0.0
1020
0.0
1030
0.0
1000
LEANOF
1010
0.0
1020
0.0
1030
0.0
  0
MTEXT
  5
B37
102
{ACAD_REACTORS
330
B36
102
}
330
A
100
AcDbEntity
  8
HIKIDASI
100
AcDbMText
 10
340.9339188390511
 20
177.7404646392878
 30
0.0
 40
5.0
 41
0.0
 71
     7
 72
     1
  1
スリムセナージ･ドアI型
  7
SUNPOU
1001
ACAD
1000
MTEXTBEGIN
1070
    73
1070
     1
1070
    44
1040
1.0
1070
    74
1070
     0
1000
MTEXTEND
1000
MTEXTBEGIN
1070
    73
1070
     1
1070
    44
1040
1.0
1070
    74
1070
     0
1000
MTEXTEND
  0
MTEXT
  5
B3F
102
{ACAD_REACTORS
330
B40
102
}
330
A
100
AcDbEntity
  8
HIKIDASI
100
AcDbMText
 10
339.0084784354617
 20
131.366751180087
 30
0.0
 40
5.0
 41
0.0
 71
     7
 72
     1
  1
ステンレスガイドレール\P（サッシ工事）
  7
SUNPOU
1001
ACAD
1000
MTEXTBEGIN
1070
    73
1070
     1
1070
    44
1040
1.0
1070
    74
1070
     0
1000
MTEXTEND
1000
MTEXTBEGIN
1070
    73
1070
     1
1070
    44
1040
1.0
1070
    74
1070
     0
1000
MTEXTEND
  0
LEADER
  5
B40
330
A
100
AcDbEntity
  8
HIKIDASI
100
AcDbLeader
  3
SUNPOU_2
 73
     0
 74
     0
 75
     1
 40
13.33333333333333
 41
52.26666666666666
 76
     3
 10
268.9004148583371
 20
92.08238993710713
 30
0.0
 10
334.0515505254796
 20
137.9456051609251
 30
0.0
 10
339.0515505254796
 20
137.9456051609251
 30
0.0
1001
ACAD
1000
DSTYLE
1002
{
1070
     5
1000
OPEN30
1070
    77
1070
     1
1070
   147
1040
1.0
1070
   342
1005
725
1002
}
1000
LEANOF
1010
0.0
1020
0.0
1030
0.0
1000
LEANOF
1010
0.0
1020
0.0
1030
0.0
1000
LEANOF
1010
0.0
1020
0.0
1030
0.0
  0
LEADER
  5
B49
330
A
100
AcDbEntity
  8
HIKIDASI
100
AcDbLeader
  3
SUNPOU_2
 73
     0
 75
     1
 40
5.0
 41
27.59999999999999
 76
     3
 10
179.3309004230175
 20
453.240439309306
 30
0.0
 10
128.6485198177384
 20
503.8348790050021
 30
0.0
 10
123.6485198177384
 20
503.8348790050021
 30
0.0
340
B4A
1001
ACAD
1000
DSTYLE
1002
{
1070
     5
1000
OPEN30
1070
    77
1070
     1
1070
   147
1040
1.0
1070
   342
1005
725
1002
}
1000
LEANOF
1010
0.0
1020
0.0
1030
0.0
1000
LEANOF
1010
0.0
1020
0.0
1030
0.0
1000
LEANOF
1010
0.0
1020
0.0
1030
0.0
  0
MTEXT
  5
B4A
330
A
100
AcDbEntity
  8
HIKIDASI
100
AcDbMText
 10
121.6485198177384
 20
505.8348790050021
 30
0.0
 40
5.0
 41
0.0
 71
     9
 72
     1
  1
FB－6×50
  7
SUNPOU
1001
ACAD
1000
MTEXTBEGIN
1070
    73
1070
     1
1070
    44
1040
1.0
1070
    74
1070
     0
1000
MTEXTEND
1000
MTEXTBEGIN
1070
    73
1070
     1
1070
    44
1040
1.0
1070
    74
1070
     0
1000
MTEXTEND
  0
INSERT
  5
B8D
330
A
100
AcDbEntity
  8
03
  6
CONTINUOUS
100
AcDbBlockReference
  2
*X41
 10
0.0
 20
0.0
 30
0.0
1001
ACAD
1000
HATCH
1002
{
1070
    19
1000
ANSI31
1040
15.0
1040
0.7853981633974483
1000
R14_HATCH_DATA
1000
B8D
1011
1.0
1021
0.0
1031
0.0
1011
0.0
1021
1.0
1031
0.0
1011
0.0
1021
0.0
1031
1.0
1040
0.0
1010
0.0
1020
0.0
1030
1.0
1000
ANSI31
1070
     0
1070
     0
1071
        2
1071
        7
1070
     0
1070
     1
1071
        5
1040
185.3309004230175
1040
434.0823899371066
1040
179.3309004230175
1040
434.0823899371066
1040
179.3309004230175
1040
431.0823899371067
1040
184.9309004230175
1040
431.0823899371067
1040
185.3309004230175
1040
431.9214456194725
1071
        0
1071
        7
1070
     0
1070
     1
1071
        4
1040
185.3309004230175
1040
431.0823899371069
1040
179.3309004230175
1040
431.0823899371069
1040
179.3309004230175
1040
428.0823899371068
1040
185.3309004230175
1040
428.0823899371068
1071
        0
1070
     0
1070
     1
1040
0.7853981633974483
1040
15.0
1070
     0
1070
     1
1040
1.570796326794896
1040
0.0
1040
0.0
1040
-1.875
1040
0.0000000000000003
1070
     0
1040
0.0491385613166207
1071
        2
1040
181.3097101633093
1040
433.6798918763147
1040
0.0
1040
181.5555177129331
1040
430.4367462874128
1040
0.0
1002
}
  0
INSERT
  5
B9E
330
A
100
AcDbEntity
  8
03
  6
CONTINUOUS
100
AcDbBlockReference
  2
*X42
 10
0.0
 20
0.0
 30
0.0
1001
ACAD
1000
HATCH
1002
{
1070
    19
1000
ANSI31
1040
15.0
1040
0.7853981633974483
1000
ASC_BOUNDS
1070
     2
1070
     1
1070
     4
1005
452
1005
4EA
1005
3F7
1005
460
1070
     1
1070
     4
1005
452
1005
460
1005
3F7
1005
4E9
1000
ASC_SEEDPOINT
1011
183.2400814057703
1021
387.3847533994892
1031
0.0
1000
R14_HATCH_DATA
1000
B9E
1011
1.0
1021
0.0
1031
0.0
1011
0.0
1021
1.0
1031
0.0
1011
0.0
1021
0.0
1031
1.0
1040
0.0
1010
0.0
1020
0.0
1030
1.0
1000
ANSI31
1070
     0
1070
     1
1071
        2
1071
        7
1070
     0
1070
     1
1071
        4
1040
185.3309004230175
1040
386.0823899371069
1040
185.3309004230175
1040
389.0823899371067
1040
179.3309004230175
1040
389.0823899371067
1040
179.3309004230175
1040
386.0823899371069
1071
        4
1005
4E9
1005
3F7
1005
460
1005
452
1071
        7
1070
     0
1070
     1
1071
        4
1040
179.3309004230175
1040
386.0823899371067
1040
179.3309004230175
1040
383.0823899371067
1040
185.3309004230175
1040
383.0823899371067
1040
185.3309004230175
1040
386.0823899371067
1071
        4
1005
460
1005
3F7
1005
4EA
1005
452
1070
     0
1070
     1
1040
0.7853981633974483
1040
15.0
1070
     0
1070
     1
1040
1.570796326794896
1040
0.0
1040
0.0
1040
-1.875
1040
0.0000000000000003
1070
     0
1040
0.049252096028899
1071
        2
1040
183.2400814057703
1040
387.3847533994892
1040
0.0
1040
183.6835572899751
1040
384.6266360704467
1040
0.0
1002
}
  0
LEADER
  5
D63
330
A
100
AcDbEntity
  8
HIKIDASI
100
AcDbLeader
  3
SUNPOU_2
 73
     0
 74
     0
 75
     1
 40
5.0
 41
21.06666666666666
 76
     3
 10
184.9309004230175
 20
431.0823899371069
 30
0.0
 10
198.389007860422
 20
454.1630938517424
 30
0.0
 10
203.389007860422
 20
454.1630938517424
 30
0.0
340
D64
1001
ACAD
1000
DSTYLE
1002
{
1070
     5
1000
OPEN30
1070
    77
1070
     1
1070
   147
1040
1.0
1070
   342
1005
725
1002
}
1000
LEANOF
1010
0.0
1020
0.0
1030
0.0
1000
LEANOF
1010
0.0
1020
0.0
1030
0.0
1000
LEANOF
1010
0.0
1020
0.0
1030
0.0
  0
MTEXT
  5
D64
330
A
100
AcDbEntity
  8
HIKIDASI
100
AcDbMText
 10
205.389007860422
 20
456.1630938517423
 30
0.0
 40
5.0
 41
0.0
 71
     7
 72
     1
  1
M6タップ
  7
SUNPOU
1001
ACAD
1000
MTEXTBEGIN
1070
    73
1070
     1
1070
    44
1040
1.0
1070
    74
1070
     0
1000
MTEXTEND
1000
MTEXTBEGIN
1070
    73
1070
     1
1070
    44
1040
1.0
1070
    74
1070
     0
1000
MTEXTEND
  0
CIRCLE
  5
1177
330
A
100
AcDbEntity
  8
KAKURE
100
AcDbCircle
 10
218.5311412311418
 20
426.0823899371067
 30
0.0
 40
15.0
  0
DIMENSION
  5
1178
330
A
100
AcDbEntity
  8
SUNPOU
100
AcDbDimension
  2
*D38
 10
207.5737838131966
 20
415.8385469855867
 30
0.0
 11
215.6865484155801
 21
429.1794247315372
 31
0.0
 70
   163
  1
配線孔<>
  3
SUNPOU_2
100
AcDbDiametricDimension
 15
229.4884986490869
 25
436.3262328886267
 35
0.0
 40
0.0
1001
ACAD
1000
DSTYLE
1002
{
1070
   288
1070
     1
1002
}
  0
TEXT
  5
1179
330
A
100
AcDbEntity
  8
SUNPOU
100
AcDbText
 10
213.6981007002801
 20
415.0585427430515
 30
0.0
 40
3.0
  1
（両端及び方立部）
 50
44.83352120439746
 41
0.7
  7
SUNPOU
 72
     1
 11
221.5413922180754
 21
422.8563871994946
 31
0.0
100
AcDbText
 73
     1
  0
INSERT
  5
11CD
330
A
100
AcDbEntity
  8
06
  6
CONTINUOUS
100
AcDbBlockReference
  2
*X43
 10
0.0
 20
0.0
 30
0.0
1001
ACAD
1000
HATCH
1002
{
1070
    19
1000
ANSI31
1040
20.0
1040
0.0
1000
R14_HATCH_DATA
1000
11CD
1011
1.0
1021
0.0
1031
0.0
1011
0.0
1021
1.0
1031
0.0
1011
0.0
1021
0.0
1031
1.0
1040
0.0
1010
0.0
1020
0.0
1030
1.0
1000
ANSI31
1070
     0
1070
     0
1071
        8
1071
        7
1070
     0
1070
     1
1071
        4
1040
200.3309004230175
1040
309.0823899371069
1040
194.3309004230175
1040
309.0823899371069
1040
194.3309004230175
1040
295.5823899371068
1040
200.3309004230175
1040
295.5823899371068
1071
        0
1071
        7
1070
     0
1070
     1
1071
        4
1040
206.3309004230175
1040
309.0823899371069
1040
200.3309004230175
1040
309.0823899371069
1040
200.3309004230175
1040
295.5823899371068
1040
206.3309004230175
1040
295.5823899371068
1071
        0
1071
        7
1070
     0
1070
     1
1071
        4
1040
206.3309004230175
1040
310.5823899371068
1040
200.3309004230175
1040
310.5823899371068
1040
200.3309004230175
1040
309.0823899371069
1040
206.3309004230175
1040
309.0823899371069
1071
        0
1071
        7
1070
     0
1070
     1
1071
        4
1040
200.3309004230175
1040
310.5823899371068
1040
194.3309004230175
1040
310.5823899371068
1040
194.3309004230175
1040
309.0823899371069
1040
200.3309004230175
1040
309.0823899371069
1071
        0
1071
        7
1070
     0
1070
     1
1071
        4
1040
200.3309004230175
1040
312.1823899371066
1040
194.3309004230175
1040
312.1823899371066
1040
194.3309004230175
1040
310.5823899371068
1040
200.3309004230175
1040
310.5823899371068
1071
        0
1071
        7
1070
     0
1070
     1
1071
        4
1040
206.3309004230175
1040
312.1823899371067
1040
200.3309004230175
1040
312.1823899371067
1040
200.3309004230175
1040
310.5823899371068
1040
206.3309004230175
1040
310.5823899371068
1071
        0
1071
        7
1070
     0
1070
     1
1071
        4
1040
200.3309004230175
1040
295.5823899371068
1040
194.3309004230175
1040
295.5823899371068
1040
194.3309004230175
1040
294.0823899371068
1040
200.3309004230175
1040
294.0823899371068
1071
        0
1071
        7
1070
     0
1070
     1
1071
        4
1040
206.3309004230175
1040
295.5823899371068
1040
200.3309004230175
1040
295.5823899371068
1040
200.3309004230175
1040
294.0823899371068
1040
206.3309004230175
1040
294.0823899371068
1071
        0
1070
     0
1070
     1
1040
0.0
1040
20.0
1070
     0
1070
     1
1040
0.7853981633974483
1040
0.0
1040
0.0
1040
-1.767766952966368
1040
1.767766952966368
1070
     0
1040
0.0762124715005813
1071
        8
1040
198.1115931155168
1040
298.8074733114238
1040
0.0
1040
204.3638783423405
1040
300.7127844255618
1040
0.0
1040
202.0764570538306
1040
309.7820695804548
1040
0.0
1040
197.5778611099681
1040
309.5534315754536
1040
0.0
1040
196.5866455898435
1040
311.458744088143
1040
0.0
1040
201.8477152965429
1040
310.8490441400243
1040
0.0
1040
199.2553037597719
1040
294.6919990112616
1040
0.0
1040
203.3726628222159
1040
294.6919990112616
1040
0.0
1002
}
  0
LINE
  5
15F5
330
A
100
AcDbEntity
  8
06
100
AcDbLine
 10
246.3309004230178
 20
244.3823899371067
 30
0.0
 11
252.3309004230176
 21
244.382389937107
 31
0.0
  0
LINE
  5
1627
330
A
100
AcDbEntity
  8
06
100
AcDbLine
 10
257.3309004230175
 20
220.5823899371068
 30
0.0
 11
262.3309004230175
 21
220.5823899371067
 31
0.0
  0
LINE
  5
1628
330
A
100
AcDbEntity
  8
06
100
AcDbLine
 10
241.3309004230177
 20
220.5823899371067
 30
0.0
 11
236.3309004230175
 21
220.5823899371067
 31
0.0
  0
LINE
  5
162B
330
A
100
AcDbEntity
  8
06
100
AcDbLine
 10
257.3309004230175
 20
219.0823899371068
 30
0.0
 11
263.0809004230175
 21
219.0823899371068
 31
0.0
  0
LINE
  5
162C
330
A
100
AcDbEntity
  8
06
100
AcDbLine
 10
241.3309004230177
 20
219.0823899371067
 30
0.0
 11
235.5809004230175
 21
219.0823899371065
 31
0.0
  0
LINE
  5
168B
330
A
100
AcDbEntity
  8
06
100
AcDbLine
 10
246.3309004230175
 20
158.782389937107
 30
0.0
 11
252.3309004230175
 21
158.782389937107
 31
0.0
  0
LINE
  5
16FC
330
A
100
AcDbEntity
  8
06
100
AcDbLine
 10
237.880900423018
 20
105.5682315392205
 30
0.0
 11
238.97048062912
 21
108.5682315392205
 31
0.0
  0
LINE
  5
16FD
330
A
100
AcDbEntity
  8
06
100
AcDbLine
 10
258.97048062912
 20
109.0682315392205
 30
0.0
 11
258.9704806291201
 21
100.5823899371065
 31
0.0
  0
LINE
  5
16FE
330
A
100
AcDbEntity
  8
06
100
AcDbLine
 10
239.47048062912
 20
109.0682315392196
 30
0.0
 11
239.47048062912
 21
100.5823899371063
 31
0.0
  0
LINE
  5
16FF
330
A
100
AcDbEntity
  8
06
100
AcDbLine
 10
238.97048062912
 20
108.5682315392197
 30
0.0
 11
237.880900423018
 21
105.5682315392205
 31
0.0
  0
LINE
  5
1700
330
A
100
AcDbEntity
  8
06
100
AcDbLine
 10
260.8724027983707
 20
105.5617997452465
 30
0.0
 11
259.47048062912
 21
108.5682315392205
 31
0.0
  0
LINE
  5
1701
330
A
100
AcDbEntity
  8
06
100
AcDbLine
 10
238.97048062912
 20
108.5682315392205
 30
0.0
 11
238.97048062912
 21
109.0682315392205
 31
0.0
  0
LINE
  5
1702
330
A
100
AcDbEntity
  8
06
100
AcDbLine
 10
238.97048062912
 20
109.0682315392205
 30
0.0
 11
239.47048062912
 21
109.0682315392205
 31
0.0
  0
LINE
  5
1703
330
A
100
AcDbEntity
  8
06
100
AcDbLine
 10
259.47048062912
 20
109.0682315392205
 30
0.0
 11
259.47048062912
 21
108.5682315392205
 31
0.0
  0
LINE
  5
1704
330
A
100
AcDbEntity
  8
06
100
AcDbLine
 10
259.47048062912
 20
109.0682315392197
 30
0.0
 11
258.97048062912
 21
109.0682315392205
 31
0.0
  0
LINE
  5
1705
330
A
100
AcDbEntity
  8
06
100
AcDbLine
 10
239.47048062912
 20
100.5823899371063
 30
0.0
 11
258.97048062912
 21
100.5823899371065
 31
0.0
  0
LINE
  5
1706
330
A
100
AcDbEntity
  8
06
100
AcDbLine
 10
239.030900423018
 20
91.36823153922071
 30
0.0
 11
239.030900423018
 21
99.36823153922055
 31
0.0
  0
LINE
  5
1707
330
A
100
AcDbEntity
  8
06
100
AcDbLine
 10
238.2809004230178
 20
100.5682315392199
 30
0.0
 11
238.280900423018
 21
92.06823153922062
 31
0.0
  0
LINE
  5
1708
330
A
100
AcDbEntity
  8
06
100
AcDbLine
 10
237.880900423018
 20
100.5682315392204
 30
0.0
 11
238.280900423018
 21
105.5682315392205
 31
0.0
  0
LINE
  5
1709
330
A
100
AcDbEntity
  8
06
100
AcDbLine
 10
237.8809004230181
 20
100.5682315392199
 30
0.0
 11
238.280900423018
 21
105.5682315392205
 31
0.0
  0
LINE
  5
170A
330
A
100
AcDbEntity
  8
06
100
AcDbLine
 10
238.280900423018
 20
105.5682315392205
 30
0.0
 11
237.880900423018
 21
105.5682315392205
 31
0.0
  0
LINE
  5
170B
330
A
100
AcDbEntity
  8
06
100
AcDbLine
 10
238.280900423018
 20
105.5682315392205
 30
0.0
 11
237.880900423018
 21
105.5682315392205
 31
0.0
  0
LINE
  5
170C
330
A
100
AcDbEntity
  8
06
100
AcDbLine
 10
238.280900423018
 20
100.5682315392204
 30
0.0
 11
237.880900423018
 21
100.5682315392204
 31
0.0
  0
LINE
  5
170D
330
A
100
AcDbEntity
  8
06
100
AcDbLine
 10
238.280900423018
 20
100.5682315392204
 30
0.0
 11
238.280900423018
 21
99.36823153922055
 31
0.0
  0
ARC
  5
170E
330
A
100
AcDbEntity
  8
06
100
AcDbCircle
 10
238.9809004230179
 20
92.06823153922069
 30
0.0
 40
0.7
100
AcDbArc
 50
180.0
 51
270.0000000000455
  0
LINE
  5
170F
330
A
100
AcDbEntity
  8
06
100
AcDbLine
 10
239.030900423018
 20
91.36823153922071
 30
0.0
 11
238.9809004230184
 21
91.36823153922071
 31
0.0
  0
LINE
  5
1710
330
A
100
AcDbEntity
  8
06
100
AcDbLine
 10
259.6354246211386
 20
91.36823153922042
 30
0.0
 11
259.6354246211386
 21
99.36823153922055
 31
0.0
  0
LINE
  5
1711
330
A
100
AcDbEntity
  8
06
100
AcDbLine
 10
260.3854246211385
 20
100.5682315392222
 30
0.0
 11
260.3854246211386
 21
92.06823153921982
 31
0.0
  0
LINE
  5
1712
330
A
100
AcDbEntity
  8
06
100
AcDbLine
 10
260.4173232916735
 20
105.5617997452465
 30
0.0
 11
260.780900423018
 21
100.5682315392204
 31
0.0
  0
LINE
  5
1713
330
A
100
AcDbEntity
  8
06
100
AcDbLine
 10
260.780900423018
 20
100.5682315392204
 30
0.0
 11
260.3809004230179
 21
105.5682315392205
 31
0.0
  0
LINE
  5
1715
330
A
100
AcDbEntity
  8
06
100
AcDbLine
 10
260.3809004230179
 20
105.5682315392205
 30
0.0
 11
260.869403603585
 21
105.5682315392207
 31
0.0
  0
LINE
  5
1716
330
A
100
AcDbEntity
  8
06
100
AcDbLine
 10
260.780900423018
 20
100.5682315392204
 30
0.0
 11
260.3854246211386
 21
100.5682315392204
 31
0.0
  0
LINE
  5
1717
330
A
100
AcDbEntity
  8
06
100
AcDbLine
 10
260.3854246211386
 20
100.5682315392204
 30
0.0
 11
260.3854246211386
 21
99.36823153922055
 31
0.0
  0
ARC
  5
1718
330
A
100
AcDbEntity
  8
06
100
AcDbCircle
 10
259.6854246211386
 20
92.06823153921979
 30
0.0
 40
0.7
100
AcDbArc
 50
269.9999999999902
 51
0.0
  0
LINE
  5
1719
330
A
100
AcDbEntity
  8
06
100
AcDbLine
 10
259.6854246211385
 20
91.36823153921987
 30
0.0
 11
259.6354246211384
 21
91.36823153922042
 31
0.0
  0
LINE
  5
171A
330
A
100
AcDbEntity
  8
06
100
AcDbLine
 10
239.030900423018
 20
99.36823153922048
 30
0.0
 11
259.6354246211384
 21
99.36823153922055
 31
0.0
  0
LINE
  5
171E
330
A
100
AcDbEntity
  8
06
100
AcDbLine
 10
236.3309004230178
 20
304.082389937107
 30
0.0
 11
236.3309004230178
 21
303.5823899371068
 31
0.0
  0
LINE
  5
171F
330
A
100
AcDbEntity
  8
06
100
AcDbLine
 10
236.3309004230178
 20
303.5823899371068
 30
0.0
 11
236.8309004230175
 21
303.5823899371068
 31
0.0
  0
LINE
  5
1720
330
A
100
AcDbEntity
  8
06
100
AcDbLine
 10
262.3309004230175
 20
304.082389937107
 30
0.0
 11
262.3309004230175
 21
303.5823899371068
 31
0.0
  0
LINE
  5
1721
330
A
100
AcDbEntity
  8
06
100
AcDbLine
 10
262.3309004230175
 20
303.5823899371068
 30
0.0
 11
261.8309004230175
 21
303.5823899371068
 31
0.0
  0
LINE
  5
1722
330
A
100
AcDbEntity
  8
06
100
AcDbLine
 10
236.3309004230178
 20
304.082389937107
 30
0.0
 11
234.8309004230177
 21
304.082389937107
 31
0.0
  0
LINE
  5
1723
330
A
100
AcDbEntity
  8
06
100
AcDbLine
 10
262.3309004230175
 20
304.082389937107
 30
0.0
 11
263.8309004230178
 21
304.082389937107
 31
0.0
  0
LINE
  5
1775
330
A
100
AcDbEntity
  8
06
100
AcDbLine
 10
257.3309004230174
 20
247.5823899371068
 30
0.0
 11
241.3309004230177
 21
247.5823899371068
 31
0.0
  0
LINE
  5
1777
330
A
100
AcDbEntity
  8
06
100
AcDbLine
 10
257.3309004230178
 20
219.0823899371068
 30
0.0
 11
257.3309004230174
 21
247.5823899371068
 31
0.0
  0
LINE
  5
1778
330
A
100
AcDbEntity
  8
06
100
AcDbLine
 10
241.3309004230177
 20
247.5823899371068
 30
0.0
 11
241.3309004230183
 21
219.0823899371067
 31
0.0
  0
LINE
  5
177A
330
A
100
AcDbEntity
  8
06
100
AcDbLine
 10
241.3309004230179
 20
184.082389937107
 30
0.0
 11
241.3309004230179
 21
155.5823899371072
 31
0.0
  0
LINE
  5
1780
330
A
100
AcDbEntity
  8
06
100
AcDbLine
 10
257.3309004230178
 20
155.5823899371072
 30
0.0
 11
257.3309004230178
 21
184.082389937107
 31
0.0
  0
LINE
  5
1783
330
A
100
AcDbEntity
  8
06
100
AcDbLine
 10
241.3309004230179
 20
155.5823899371072
 30
0.0
 11
257.3309004230178
 21
155.5823899371072
 31
0.0
  0
CIRCLE
  5
1851
330
A
100
AcDbEntity
  8
SAISEN
100
AcDbCircle
 10
392.0976380784291
 20
49.5430264122316
 30
0.0
 40
5.0
  0
TEXT
  5
1852
330
A
100
AcDbEntity
  8
MOJI
100
AcDbText
 10
389.0488190392131
 20
45.27151320611588
 30
0.0
 40
8.0
  1
Ｓ
 41
0.8
  7
0_8
 11
389.0488190392131
 21
53.27151320611588
 31
0.0
100
AcDbText
 73
     3
  0
DIMENSION
  5
18AE
330
A
100
AcDbEntity
  8
SUNPOU
100
AcDbDimension
  2
*D39
 10
308.4339188390511
 20
184.082389937107
 30
0.0
 11
303.9339188390511
 21
141.5823899371069
 31
0.0
 70
    32
  3
GOSA_2
100
AcDbAlignedDimension
 13
265.3309004230175
 23
99.082389937107
 33
0.0
 14
263.0809004230178
 24
184.082389937107
 34
0.0
 50
90.0
100
AcDbRotatedDimension
  0
DIMENSION
  5
18BB
330
A
100
AcDbEntity
  8
SUNPOU
100
AcDbDimension
  2
*D40
 10
308.4339188390511
 20
304.082389937107
 30
0.0
 11
303.9339188390511
 21
261.5823899371068
 31
0.0
 70
    32
  3
GOSA_2
100
AcDbAlignedDimension
 13
263.0809004230175
 23
219.0823899371068
 33
0.0
 14
265.3309004230178
 24
304.082389937107
 34
0.0
 50
90.0
100
AcDbRotatedDimension
  0
LINE
  5
1E98
330
A
100
AcDbEntity
  8
CHUSIN
100
AcDbLine
 10
277.3880412495283
 20
411.0827406313961
 30
0.0
 11
181.330965219303
 21
411.0828810645012
 31
0.0
  0
LINE
  5
1ED8
330
A
100
AcDbEntity
  8
CHUSIN
100
AcDbLine
 10
187.830372434761
 20
397.0824030005463
 30
0.0
 11
204.1751618298047
 21
397.0824030005463
 31
0.0
  0
LINE
  5
1ED9
330
A
100
AcDbEntity
  8
CHUSIN
100
AcDbLine
 10
187.830372434761
 20
422.0824030005463
 30
0.0
 11
204.1751618298047
 21
422.0824030005463
 31
0.0
  0
LINE
  5
1F3E
330
A
100
AcDbEntity
  8
SOUZOU
100
AcDbLine
 10
248.8310381417901
 20
341.5016674305092
 30
0.0
 11
248.830994760895
 21
369.2632088954283
 31
0.0
  0
LINE
  5
1F3F
330
A
100
AcDbEntity
  8
SOUZOU
100
AcDbLine
 10
249.3675890309275
 20
338.7692659743831
 30
0.0
 11
249.367537165547
 21
371.9956332652121
 31
0.0
  0
LINE
  5
1F40
330
A
100
AcDbEntity
  8
SOUZOU
100
AcDbLine
 10
234.8308355088589
 20
341.5016565034956
 30
0.0
 11
234.8308355088589
 21
369.2631979684485
 31
0.0
  0
LINE
  5
1F41
330
A
100
AcDbEntity
  8
SOUZOU
100
AcDbLine
 10
234.2942888394466
 20
338.7692542098278
 30
0.0
 11
234.2942888394466
 21
371.9956215006975
 31
0.0
  0
LINE
  5
1F42
330
A
100
AcDbEntity
  8
SOUZOU
100
AcDbLine
 10
253.3309591894854
 20
370.6323071382461
 30
0.0
 11
253.3308941562764
 21
340.1324343338353
 31
0.0
  0
LINE
  5
1F43
330
A
100
AcDbEntity
  8
SOUZOU
100
AcDbLine
 10
230.330950636356
 20
340.1324594226238
 30
0.0
 11
230.3309506362499
 21
370.6323502835289
 31
0.0
  0
LINE
  5
1F4A
330
A
100
AcDbEntity
  8
CHUSIN
100
AcDbLine
 10
241.8307928473887
 20
381.975811142609
 30
0.0
 11
241.8309419256771
 21
332.1926427642456
 31
0.0
  0
ARC
  5
1F4D
330
A
100
AcDbEntity
  8
SOUZOU
100
AcDbCircle
 10
241.8308590056104
 20
307.3824471698726
 30
0.0
 40
35.0
100
AcDbArc
 50
79.02686695919202
 51
100.9731028972711
  0
LINE
  5
1F57
330
A
100
AcDbEntity
  8
SOUZOU
100
AcDbLine
 10
231.8309506363561
 20
338.632459422629
 30
0.0
 11
234.0425679109585
 21
338.6324594226741
 31
0.0
  0
ARC
  5
1F5A
330
A
100
AcDbEntity
  8
SOUZOU
100
AcDbCircle
 10
231.8309506363561
 20
340.132459422629
 30
0.0
 40
1.5
100
AcDbArc
 50
180.0000000001985
 51
270.0
  0
LINE
  5
1F5E
330
A
100
AcDbEntity
  8
04
100
AcDbLine
 10
240.3308863072816
 20
320.5824841928961
 30
0.0
 11
240.3308863072816
 21
323.0827912796732
 31
0.0
  0
LINE
  5
1F63
330
A
100
AcDbEntity
  8
SOUZOU
100
AcDbLine
 10
234.771444956156
 20
341.3384857401227
 30
0.0
 11
234.3380026262295
 21
338.8803670850283
 31
0.0
  0
ARC
  5
1F65
330
A
100
AcDbEntity
  8
SOUZOU
100
AcDbCircle
 10
234.0425679109548
 20
338.9324613608945
 30
0.0
 40
0.3
100
AcDbArc
 50
270.0000000006953
 51
349.9997809654605
  0
ARC
  5
1F67
330
A
100
AcDbEntity
  8
SOUZOU
100
AcDbCircle
 10
235.2638499486146
 20
341.2516595135873
 30
0.0
 40
0.5
100
AcDbArc
 50
100.9731028972733
 51
169.9997809654638
  0
LINE
  5
1F6B
330
A
100
AcDbEntity
  8
SOUZOU
100
AcDbLine
 10
248.8902740919271
 20
341.3384747636598
 30
0.0
 11
249.3237272227956
 21
338.8803421169411
 31
0.0
  0
ARC
  5
1F6C
330
A
100
AcDbEntity
  8
SOUZOU
100
AcDbCircle
 10
248.3978810594203
 20
341.2516625526643
 30
0.0
 40
0.5
100
AcDbArc
 50
10.0000000000018
 51
79.02686695919202
  0
ARC
  5
1F7D
330
A
100
AcDbEntity
  8
SOUZOU
100
AcDbCircle
 10
251.8308941562322
 20
340.1324374629571
 30
0.0
 40
1.5
100
AcDbArc
 50
270.0
 51
359.9998804763566
  0
LINE
  5
1F7F
330
A
100
AcDbEntity
  8
SOUZOU
100
AcDbLine
 10
251.8308941562354
 20
338.6324374629571
 30
0.0
 11
249.6191682670378
 21
338.6324167520573
 31
0.0
  0
ARC
  5
1F80
330
A
100
AcDbEntity
  8
SOUZOU
100
AcDbCircle
 10
249.6191661111144
 20
338.9324273508847
 30
0.0
 40
0.3
100
AcDbArc
 50
189.9999928137455
 51
270.0002529843507
  0
LINE
  5
1F84
330
A
100
AcDbEntity
  8
CHUSIN
100
AcDbLine
 10
262.0696497161254
 20
328.0826466193472
 30
0.0
 11
273.1671032583725
 21
328.082726900358
 31
0.0
  0
LINE
  5
1F9B
330
A
100
AcDbEntity
  8
CHUSIN
100
AcDbLine
 10
262.8309800408786
 20
448.4481546895146
 30
0.0
 11
262.8309800408786
 21
374.6997270165587
 31
0.0
  0
LINE
  5
1FA7
330
A
100
AcDbEntity
  8
CHUSIN
100
AcDbLine
 10
253.6012531216151
 20
381.0828144357121
 30
0.0
 11
271.1476001446188
 21
381.0828317247891
 31
0.0
  0
ARC
  5
1FA9
330
A
100
AcDbEntity
  8
SOUZOU
100
AcDbCircle
 10
241.8309510934228
 20
403.3823389592128
 30
0.0
 40
35.0
100
AcDbArc
 50
259.0267991690793
 51
281.5369261517157
  0
LINE
  5
1FAB
330
A
100
AcDbEntity
  8
SOUZOU
100
AcDbLine
 10
231.83095063625
 20
372.132350283534
 30
0.0
 11
234.04260946078
 21
372.132350283534
 31
0.0
  0
ARC
  5
1FAC
330
A
100
AcDbEntity
  8
SOUZOU
100
AcDbCircle
 10
231.83095063625
 20
370.6323502835341
 30
0.0
 40
1.5
100
AcDbArc
 50
90.0
 51
180.0000000001985
  0
ARC
  5
1FAD
330
A
100
AcDbEntity
  8
SOUZOU
100
AcDbCircle
 10
234.04260946078
 20
371.832350283534
 30
0.0
 40
0.3
100
AcDbArc
 50
9.999850835436062
 51
90.0
  0
LINE
  5
1FAE
330
A
100
AcDbEntity
  8
SOUZOU
100
AcDbLine
 10
234.3380519223059
 20
371.8844439676757
 30
0.0
 11
234.771480047347
 21
369.4263135000992
 31
0.0
  0
ARC
  5
1FAF
330
A
100
AcDbEntity
  8
SOUZOU
100
AcDbCircle
 10
235.2638838369934
 20
369.5131362518303
 30
0.0
 40
0.5
100
AcDbArc
 50
189.9998508354329
 51
259.0267991690793
  0
LINE
  5
1FB8
330
A
100
AcDbEntity
  8
SOUZOU
100
AcDbLine
 10
249.3674879487127
 20
372.1323739174441
 30
0.0
 11
248.8309166861744
 21
369.089491231894
 31
0.0
  0
ARC
  5
1FB9
330
A
100
AcDbEntity
  8
SOUZOU
100
AcDbCircle
 10
248.397913974052
 20
369.5131112225295
 30
0.0
 40
0.5
100
AcDbArc
 50
281.2924527854823
 51
349.9998678763278
  0
ARC
  5
1FBB
330
A
100
AcDbEntity
  8
SOUZOU
100
AcDbCircle
 10
251.8309577814
 20
370.632310267368
 30
0.0
 40
1.5
100
AcDbArc
 50
359.9998804763566
 51
90.0
  0
LINE
  5
1FBD
330
A
100
AcDbEntity
  8
SOUZOU
100
AcDbLine
 10
251.8309577814441
 20
372.1323102673677
 30
0.0
 11
249.3674767953653
 21
372.1323526483116
 31
0.0
  0
LINE
  5
1FEB
330
A
100
AcDbEntity
  8
CHUSIN
100
AcDbLine
 10
255.1012543650785
 20
441.0828217184039
 30
0.0
 11
272.6476001445643
 21
441.0828217169882
 31
0.0
  0
LINE
  5
2013
330
A
100
AcDbEntity
  8
04
100
AcDbLine
 10
238.8309591730398
 20
323.0827912796732
 30
0.0
 11
240.3309617069213
 21
323.0827912796732
 31
0.0
  0
LINE
  5
2106
330
A
100
AcDbEntity
  8
06
100
AcDbLine
 10
247.3309594258974
 20
375.0827850011108
 30
0.0
 11
199.8351737488379
 21
375.0826123294674
 31
0.0
  0
LINE
  5
2107
330
A
100
AcDbEntity
  8
02
100
AcDbLine
 10
222.6015475608623
 20
329.6165350405025
 30
0.0
 11
234.545487777687
 21
337.8936359297313
 31
0.0
  0
LINE
  5
2108
330
A
100
AcDbEntity
  8
02
100
AcDbLine
 10
224.97737547261
 20
322.0823984456519
 30
0.0
 11
220.1311046640756
 21
322.0823876666913
 31
0.0
  0
LINE
  5
2109
330
A
100
AcDbEntity
  8
06
100
AcDbLine
 10
207.8418378103004
 20
449.5823942437263
 30
0.0
 11
235.770774954205
 21
449.582394243712
 31
0.0
  0
LINE
  5
210B
330
A
100
AcDbEntity
  8
02
100
AcDbLine
 10
191.3323677449053
 20
350.0816309831877
 30
0.0
 11
191.3323677449055
 21
341.5817885649743
 31
0.0
  0
LINE
  5
210C
330
A
100
AcDbEntity
  8
02
100
AcDbLine
 10
206.8322492040148
 20
350.0816309831877
 30
0.0
 11
206.8322492040147
 21
341.5817885649743
 31
0.0
  0
LINE
  5
210D
330
A
100
AcDbEntity
  8
02
100
AcDbLine
 10
190.3314663974845
 20
356.7551766895096
 30
0.0
 11
190.331540976822
 21
333.0822201160953
 31
0.0
  0
LINE
  5
210E
330
A
100
AcDbEntity
  8
02
100
AcDbLine
 10
207.8315448510211
 20
341.0817289785008
 30
0.0
 11
207.8319353848008
 21
350.6101157337467
 31
0.0
  0
LINE
  5
210F
330
A
100
AcDbEntity
  8
02
100
AcDbLine
 10
210.8319448846924
 20
350.5821891944111
 30
0.0
 11
210.8319448846924
 21
340.3995258386951
 31
0.0
  0
LINE
  5
2110
330
A
100
AcDbEntity
  8
02
100
AcDbLine
 10
185.3309004230175
 20
325.0460980114191
 30
0.0
 11
185.3309158256943
 21
445.0830059102591
 31
0.0
  0
ARC
  5
2111
330
A
100
AcDbEntity
  8
02
100
AcDbCircle
 10
193.331536152592
 20
333.082229567287
 30
0.0
 40
2.999995175784897
100
AcDbArc
 50
180.0001805047575
 51
270.0006036846493
  0
LINE
  5
2112
330
A
100
AcDbEntity
  8
02
100
AcDbLine
 10
207.531319080296
 20
322.0823876668856
 30
0.0
 11
188.3306809251388
 21
322.0823876668859
 31
0.0
  0
ARC
  5
2113
330
A
100
AcDbEntity
  8
02
100
AcDbCircle
 10
188.3306809251388
 20
325.0823876668856
 30
0.0
 40
2.999999999999957
100
AcDbArc
 50
180.6930982698889
 51
270.0
  0
LINE
  5
2114
330
A
100
AcDbEntity
  8
02
100
AcDbLine
 10
190.3322849298448
 20
341.5817885649743
 30
0.0
 11
191.3323677449055
 21
341.5817885649743
 31
0.0
  0
LINE
  5
2115
330
A
100
AcDbEntity
  8
02
100
AcDbLine
 10
210.6232138258445
 20
339.7880575543437
 30
0.0
 11
204.8407333904477
 21
332.3052538040195
 31
0.0
  0
LINE
  5
2116
330
A
100
AcDbEntity
  8
02
100
AcDbLine
 10
206.4232712727524
 20
329.0823172353164
 30
0.0
 11
209.2537789676554
 21
329.0823172353165
 31
0.0
  0
LINE
  5
2117
330
A
100
AcDbEntity
  8
02
100
AcDbLine
 10
208.131104663881
 20
322.0823876668856
 30
0.0
 11
207.531319080296
 21
322.0823876668856
 31
0.0
  0
ARC
  5
2118
330
A
100
AcDbEntity
  8
02
100
AcDbCircle
 10
198.3343447057671
 20
332.0822816602125
 30
0.0
 40
2.000002155828581
100
AcDbArc
 50
270.0005166657545
 51
322.999969207994
  0
LINE
  5
2119
330
A
100
AcDbEntity
  8
02
100
AcDbLine
 10
193.3315677613954
 20
330.0822343916686
 30
0.0
 11
198.3343627408235
 21
330.0822795044652
 31
0.0
  0
LINE
  5
211A
330
A
100
AcDbEntity
  8
02
100
AcDbLine
 10
199.9316168007249
 20
330.8786494580891
 30
0.0
 11
207.8315448510211
 21
341.0817289785008
 31
0.0
  0
ARC
  5
211B
330
A
100
AcDbEntity
  8
02
100
AcDbCircle
 10
206.4232712727521
 20
331.0823172353163
 30
0.0
 40
2.000000000000005
100
AcDbArc
 50
142.3042546317027
 51
270.0000000000049
  0
LINE
  5
211C
330
A
100
AcDbEntity
  8
02
100
AcDbLine
 10
206.8322492040147
 20
341.5817885649743
 30
0.0
 11
207.8327416284094
 21
341.5817885649743
 31
0.0
  0
LINE
  5
211D
330
A
100
AcDbEntity
  8
02
100
AcDbLine
 10
214.4084795060348
 20
329.0823172353164
 30
0.0
 11
217.2537789676554
 21
329.0823172353164
 31
0.0
  0
LINE
  5
211E
330
A
100
AcDbEntity
  8
02
100
AcDbLine
 10
216.1311046638811
 20
322.0823876668856
 30
0.0
 11
215.5313190802961
 21
322.0823876668856
 31
0.0
  0
LINE
  5
211F
330
A
100
AcDbEntity
  8
02
100
AcDbLine
 10
210.4084795060348
 20
329.0823172353165
 30
0.0
 11
213.2537789676555
 21
329.0823172353164
 31
0.0
  0
LINE
  5
2120
330
A
100
AcDbEntity
  8
02
100
AcDbLine
 10
212.131104663881
 20
322.0823876668856
 30
0.0
 11
211.5313190802963
 21
322.0823876668856
 31
0.0
  0
LINE
  5
2121
330
A
100
AcDbEntity
  8
02
100
AcDbLine
 10
211.5313190802963
 20
322.0823876668856
 30
0.0
 11
208.131104663881
 21
322.0823876668856
 31
0.0
  0
LINE
  5
2122
330
A
100
AcDbEntity
  8
02
100
AcDbLine
 10
208.131104663881
 20
322.0823876668856
 30
0.0
 11
208.131104663881
 21
322.0823876668856
 31
0.0
  0
LINE
  5
2123
330
A
100
AcDbEntity
  8
02
100
AcDbLine
 10
209.2537789676554
 20
329.0823172353165
 30
0.0
 11
210.4084795060348
 21
329.0823172353165
 31
0.0
  0
LINE
  5
2124
330
A
100
AcDbEntity
  8
02
100
AcDbLine
 10
210.4084795060348
 20
329.0823172353165
 30
0.0
 11
210.4084795060348
 21
329.0823172353165
 31
0.0
  0
LINE
  5
2125
330
A
100
AcDbEntity
  8
02
100
AcDbLine
 10
215.5313190802961
 20
322.0823876668856
 30
0.0
 11
212.131104663881
 21
322.0823876668856
 31
0.0
  0
LINE
  5
2126
330
A
100
AcDbEntity
  8
02
100
AcDbLine
 10
212.131104663881
 20
322.0823876668856
 30
0.0
 11
212.131104663881
 21
322.0823876668856
 31
0.0
  0
LINE
  5
2127
330
A
100
AcDbEntity
  8
02
100
AcDbLine
 10
213.2537789676555
 20
329.0823172353164
 30
0.0
 11
214.4084795060348
 21
329.0823172353164
 31
0.0
  0
LINE
  5
2128
330
A
100
AcDbEntity
  8
02
100
AcDbLine
 10
214.4084795060348
 20
329.0823172353164
 30
0.0
 11
214.4084795060348
 21
329.0823172353164
 31
0.0
  0
ARC
  5
2129
330
A
100
AcDbEntity
  8
02
100
AcDbCircle
 10
209.8319448846925
 20
340.3995258386951
 30
0.0
 40
0.9999999999997868
100
AcDbArc
 50
322.3042546316911
 51
0.0
  0
LINE
  5
212A
330
A
100
AcDbEntity
  8
02
100
AcDbLine
 10
218.4084795060348
 20
329.0823172353164
 30
0.0
 11
220.8927707563208
 21
329.0823172353164
 31
0.0
  0
LINE
  5
212B
330
A
100
AcDbEntity
  8
02
100
AcDbLine
 10
219.5313190802961
 20
322.0823876668856
 30
0.0
 11
216.1311046638811
 21
322.0823876668856
 31
0.0
  0
LINE
  5
212C
330
A
100
AcDbEntity
  8
02
100
AcDbLine
 10
216.1311046638811
 20
322.0823876668856
 30
0.0
 11
216.1311046638811
 21
322.0823876668856
 31
0.0
  0
LINE
  5
212D
330
A
100
AcDbEntity
  8
02
100
AcDbLine
 10
220.1311046640756
 20
322.0823876666913
 30
0.0
 11
220.1311046640756
 21
322.0823876666913
 31
0.0
  0
LINE
  5
212E
330
A
100
AcDbEntity
  8
02
100
AcDbLine
 10
220.1311046640756
 20
322.0823876666913
 30
0.0
 11
219.5313190802961
 21
322.0823876668856
 31
0.0
  0
LINE
  5
212F
330
A
100
AcDbEntity
  8
02
100
AcDbLine
 10
217.2537789676554
 20
329.0823172353164
 30
0.0
 11
218.4084795060348
 21
329.0823172353164
 31
0.0
  0
LINE
  5
2130
330
A
100
AcDbEntity
  8
02
100
AcDbLine
 10
218.4084795060348
 20
329.0823172353164
 30
0.0
 11
218.4084795060348
 21
329.0823172353164
 31
0.0
  0
ARC
  5
2131
330
A
100
AcDbEntity
  8
02
100
AcDbCircle
 10
220.8927707563208
 20
332.0823172353166
 30
0.0
 40
3.000000000000283
100
AcDbArc
 50
270.0
 51
304.7217982668776
  0
LINE
  5
2132
330
A
100
AcDbEntity
  8
02
100
AcDbLine
 10
193.5308996011334
 20
444.5827704804099
 30
0.0
 11
193.5309738848294
 21
374.5826065150191
 31
0.0
  0
LINE
  5
2133
330
A
100
AcDbEntity
  8
02
100
AcDbLine
 10
189.3309158409669
 20
444.5821627574082
 30
0.0
 11
189.3309738848294
 21
374.5825297899874
 31
0.0
  0
LINE
  5
2134
330
A
100
AcDbEntity
  8
02
100
AcDbLine
 10
191.3322707282173
 20
351.5817885650178
 30
0.0
 11
206.8327191738209
 21
351.5819364569778
 31
0.0
  0
ARC
  5
2135
330
A
100
AcDbEntity
  8
02
100
AcDbCircle
 10
191.8323677449055
 20
350.0816309831877
 30
0.0
 40
0.5
100
AcDbArc
 50
90.00174400922373
 51
180.0
  0
LINE
  5
2136
330
A
100
AcDbEntity
  8
02
100
AcDbLine
 10
189.3309738848294
 20
374.5825297899874
 30
0.0
 11
193.530973884808
 21
374.5825643505038
 31
0.0
  0
LINE
  5
2137
330
A
100
AcDbEntity
  8
02
100
AcDbLine
 10
193.5308802901966
 20
372.1824653652967
 30
0.0
 11
189.3308645728628
 21
372.1824578609407
 31
0.0
  0
LINE
  5
2138
330
A
100
AcDbEntity
  8
02
100
AcDbLine
 10
189.3308792239832
 20
363.9825623859397
 30
0.0
 11
193.5308770941453
 21
363.9824990035206
 31
0.0
  0
LINE
  5
2139
330
A
100
AcDbEntity
  8
02
100
AcDbLine
 10
195.8308995287416
 20
361.9825965796778
 30
0.0
 11
190.3307881253184
 21
361.9825660616963
 31
0.0
  0
LINE
  5
213C
330
A
100
AcDbEntity
  8
02
100
AcDbLine
 10
189.3308645728628
 20
372.1824578609407
 30
0.0
 11
189.3308792239832
 21
363.9825623859397
 31
0.0
  0
ARC
  5
213D
330
A
100
AcDbEntity
  8
02
100
AcDbCircle
 10
191.3322802693581
 20
350.5817885650736
 30
0.0
 40
0.9999999999999998
100
AcDbArc
 50
90.00054666709623
 51
180.0
  0
LINE
  5
213E
330
A
100
AcDbEntity
  8
02
100
AcDbLine
 10
190.3307881253184
 20
361.9825660616963
 30
0.0
 11
190.3306156435003
 21
357.4082759615602
 31
0.0
  0
LINE
  5
213F
330
A
100
AcDbEntity
  8
02
100
AcDbLine
 10
190.3306156435003
 20
357.4082759615602
 30
0.0
 11
190.3306156435003
 21
357.4082759615602
 31
0.0
  0
LINE
  5
2140
330
A
100
AcDbEntity
  8
02
100
AcDbLine
 10
190.3306156435003
 20
357.4082759615602
 30
0.0
 11
190.3314663974845
 21
356.7551766895096
 31
0.0
  0
ARC
  5
2141
330
A
100
AcDbEntity
  8
02
100
AcDbCircle
 10
206.832336679562
 20
350.5817885650736
 30
0.0
 40
0.9999999999999998
100
AcDbArc
 50
0.0
 51
89.99919302646956
  0
ARC
  5
2142
330
A
100
AcDbEntity
  8
02
100
AcDbCircle
 10
208.8044085586481
 20
350.6100758756224
 30
0.0
 40
0.9724731746640964
100
AcDbArc
 50
88.40206662141083
 51
179.9976516552159
  0
LINE
  5
2143
330
A
100
AcDbEntity
  8
02
100
AcDbLine
 10
206.3326842462728
 20
350.5819201607333
 30
0.0
 11
191.8323525255538
 21
350.5816309829561
 31
0.0
  0
LINE
  5
2144
330
A
100
AcDbEntity
  8
02
100
AcDbLine
 10
193.5309781259559
 20
365.4825731265933
 30
0.0
 11
195.8308801095909
 21
365.4824182254067
 31
0.0
  0
LINE
  5
2145
330
A
100
AcDbEntity
  8
02
100
AcDbLine
 10
193.5308770941453
 20
363.9824990035206
 30
0.0
 11
193.5309781259559
 21
365.4825731265933
 31
0.0
  0
LINE
  5
2146
330
A
100
AcDbEntity
  8
02
100
AcDbLine
 10
195.8308801095909
 20
365.4824182254067
 30
0.0
 11
195.8308995287416
 21
361.9825965796778
 31
0.0
  0
ARC
  5
2147
330
A
100
AcDbEntity
  8
02
100
AcDbCircle
 10
206.3322492040148
 20
350.0816309831877
 30
0.0
 40
0.5
100
AcDbArc
 50
0.0
 51
89.99825599077464
  0
LINE
  5
2148
330
A
100
AcDbEntity
  8
02
100
AcDbLine
 10
194.8310361654315
 20
377.0826633703499
 30
0.0
 11
195.8310081586195
 21
375.0827129346137
 31
0.0
  0
LINE
  5
2149
330
A
100
AcDbEntity
  8
02
100
AcDbLine
 10
195.8309623758907
 20
370.6826689986692
 30
0.0
 11
193.5308775936596
 21
370.6825569178119
 31
0.0
  0
LINE
  5
214A
330
A
100
AcDbEntity
  8
02
100
AcDbLine
 10
193.5308775936596
 20
370.6825569178119
 30
0.0
 11
193.5308802901966
 21
372.1824653652967
 31
0.0
  0
LINE
  5
214B
330
A
100
AcDbEntity
  8
02
100
AcDbLine
 10
193.5309712317286
 20
377.0826554741414
 30
0.0
 11
194.8310361654315
 21
377.0826633703499
 31
0.0
  0
LINE
  5
214C
330
A
100
AcDbEntity
  8
02
100
AcDbLine
 10
193.530973884808
 20
374.5825643505038
 30
0.0
 11
193.5309712317286
 21
377.0826554741414
 31
0.0
  0
LINE
  5
214D
330
A
100
AcDbEntity
  8
02
100
AcDbLine
 10
195.8310081586195
 20
375.0827129346137
 30
0.0
 11
195.8309623758907
 21
370.6826689986692
 31
0.0
  0
ARC
  5
214E
330
A
100
AcDbEntity
  8
02
100
AcDbCircle
 10
209.8319631947259
 20
350.5822075044448
 30
0.0
 40
0.9999816901340356
100
AcDbArc
 50
359.9989508931414
 51
90.00104910685697
  0
LINE
  5
214F
330
A
100
AcDbEntity
  8
02
100
AcDbLine
 10
208.831526540484
 20
351.5821708763823
 30
0.0
 11
209.8319448846924
 21
351.5821891944111
 31
0.0
  0
LINE
  5
2150
330
A
100
AcDbEntity
  8
02
100
AcDbLine
 10
193.531123497836
 20
444.5821668015224
 30
0.0
 11
189.3309158409669
 21
444.5821627574082
 31
0.0
  0
ARC
  5
2151
330
A
100
AcDbEntity
  8
02
100
AcDbCircle
 10
189.9061527769264
 20
115969.8099262783
 30
0.0
 40
115522.7275748033
100
AcDbArc
 50
269.9986972950008
 51
270.0029384961099
  0
ARC
  5
2152
330
A
100
AcDbEntity
  8
02
100
AcDbCircle
 10
187.3309515878858
 20
445.0830056536223
 30
0.0
 40
2.000035762191588
100
AcDbArc
 50
91.47207322026968
 51
179.9999926480247
  0
LINE
  5
2153
330
A
100
AcDbEntity
  8
06
100
AcDbLine
 10
198.2713109089915
 20
442.0829351542831
 30
0.0
 11
204.3063039043675
 21
448.1179281496588
 31
0.0
  0
LINE
  5
2154
330
A
100
AcDbEntity
  8
02
100
AcDbLine
 10
195.8309155346587
 20
444.0825370251312
 30
0.0
 11
194.8309575820194
 21
442.0826851093438
 31
0.0
  0
LINE
  5
2155
330
A
100
AcDbEntity
  8
06
100
AcDbLine
 10
194.831170641206
 20
442.0829352868495
 30
0.0
 11
198.2713109089915
 21
442.0829351542831
 31
0.0
  0
LINE
  5
2156
330
A
100
AcDbEntity
  8
02
100
AcDbLine
 10
194.8309575820194
 20
442.0826851093438
 30
0.0
 11
193.5308783769293
 21
442.0829353757095
 31
0.0
  0
LINE
  5
2157
330
A
100
AcDbEntity
  8
02
100
AcDbLine
 10
193.5308783769293
 20
442.0829353757095
 30
0.0
 11
193.531123497836
 21
444.5821668015224
 31
0.0
  0
LINE
  5
2158
330
A
100
AcDbEntity
  8
02
100
AcDbLine
 10
195.8309013075379
 20
447.0825034044885
 30
0.0
 11
195.8309155346587
 21
444.0825370251312
 31
0.0
  0
ARC
  5
2159
330
A
100
AcDbEntity
  8
06
100
AcDbCircle
 10
207.8418378103003
 20
444.5823942437264
 30
0.0
 40
4.999999999999938
100
AcDbArc
 50
90.0
 51
135.0
  0
LINE
  5
215A
330
A
100
AcDbEntity
  8
04
100
AcDbLine
 10
234.8308355088589
 20
341.5016565034956
 30
0.0
 11
234.8308355088591
 21
369.2631979684485
 31
0.0
  0
LINE
  5
215B
330
A
100
AcDbEntity
  8
04
100
AcDbLine
 10
248.8310381417901
 20
341.5016674305092
 30
0.0
 11
248.830994760895
 21
369.2632088954283
 31
0.0
  0
LINE
  5
215C
330
A
100
AcDbEntity
  8
04
100
AcDbLine
 10
230.3309506363563
 20
340.1324594226238
 30
0.0
 11
230.3309506362499
 21
370.6323502835289
 31
0.0
  0
LINE
  5
215D
330
A
100
AcDbEntity
  8
04
100
AcDbLine
 10
253.3309591894854
 20
370.6323071382461
 30
0.0
 11
253.3308941562764
 21
340.1324343338353
 31
0.0
  0
LINE
  5
215E
330
A
100
AcDbEntity
  8
04
100
AcDbLine
 10
256.830943591522
 20
332.5826417417353
 30
0.0
 11
256.8309441283099
 21
352.1774295500378
 31
0.0
  0
LINE
  5
215F
330
A
100
AcDbEntity
  8
04
100
AcDbLine
 10
261.3309151416526
 20
369.0824756564776
 30
0.0
 11
261.3309151544124
 21
341.0824978664771
 31
0.0
  0
LINE
  5
2160
330
A
100
AcDbEntity
  8
04
100
AcDbLine
 10
268.3309226130965
 20
347.3824699874991
 30
0.0
 11
268.3309430554081
 21
341.0824978696672
 31
0.0
  0
LINE
  5
2162
330
A
100
AcDbEntity
  8
04
100
AcDbLine
 10
270.3308952718825
 20
316.0825158301073
 30
0.0
 11
232.3309198536933
 21
316.0824839487968
 31
0.0
  0
LINE
  5
2163
330
A
100
AcDbEntity
  8
04
100
AcDbLine
 10
237.8309019185175
 20
320.5824930785297
 30
0.0
 11
260.3309311518788
 21
320.5824930785297
 31
0.0
  0
ARC
  5
2164
330
A
100
AcDbEntity
  8
04
100
AcDbCircle
 10
241.8309877336244
 20
307.3824303856776
 30
0.0
 40
35.0
100
AcDbArc
 50
79.02686695919361
 51
100.9731028972711
  0
LINE
  5
2165
330
A
100
AcDbEntity
  8
04
100
AcDbLine
 10
240.3309702811699
 20
332.0826880650224
 30
0.0
 11
241.3309492723673
 21
332.0826882395087
 31
0.0
  0
ARC
  5
2166
330
A
100
AcDbEntity
  8
02
100
AcDbCircle
 10
241.8312715708391
 20
312.0845522256113
 30
0.0
 40
29.99791235358491
100
AcDbArc
 50
78.05843379273824
 51
101.9412216107139
  0
LINE
  5
2167
330
A
100
AcDbEntity
  8
02
100
AcDbLine
 10
247.3613989416026
 20
334.0823702947543
 30
0.0
 11
238.6114681551374
 21
334.0824017085101
 31
0.0
  0
LINE
  5
2168
330
A
100
AcDbEntity
  8
04
100
AcDbLine
 10
232.3309198536933
 20
316.0824839487968
 30
0.0
 11
232.3309115205564
 21
320.5824930785297
 31
0.0
  0
LINE
  5
2169
330
A
100
AcDbEntity
  8
04
100
AcDbLine
 10
234.0425679109585
 20
338.6324594226741
 30
0.0
 11
231.8309506363867
 21
338.632459422629
 31
0.0
  0
LINE
  5
216A
330
A
100
AcDbEntity
  8
04
100
AcDbLine
 10
232.3309115205564
 20
320.5824930785297
 30
0.0
 11
237.8309019185175
 21
320.5824930785297
 31
0.0
  0
LINE
  5
216B
330
A
100
AcDbEntity
  8
02
100
AcDbLine
 10
236.4452193340579
 20
333.1582295466887
 30
0.0
 11
226.4213440910299
 21
322.698584230358
 31
0.0
  0
ARC
  5
216C
330
A
100
AcDbEntity
  8
02
100
AcDbCircle
 10
224.9773710242576
 20
324.0823984456468
 30
0.0
 40
1.999999999999974
100
AcDbArc
 50
270.000127435914
 51
316.218736801595
  0
ARC
  5
216D
330
A
100
AcDbEntity
  8
04
100
AcDbCircle
 10
231.8309506363563
 20
340.1324594226291
 30
0.0
 40
1.500000000000026
100
AcDbArc
 50
180.0000000001985
 51
270.0000000011676
  0
LINE
  5
216E
330
A
100
AcDbEntity
  8
04
100
AcDbLine
 10
240.3309550222968
 20
331.0826868632903
 30
0.0
 11
240.3309702811699
 21
332.0826880650224
 31
0.0
  0
LINE
  5
216F
330
A
100
AcDbEntity
  8
04
100
AcDbLine
 10
238.8309019185175
 20
323.0827912796732
 30
0.0
 11
238.8308193015216
 21
331.0826689019413
 31
0.0
  0
LINE
  5
2174
330
A
100
AcDbEntity
  8
04
100
AcDbLine
 10
238.8308193015216
 20
331.0826689019413
 30
0.0
 11
240.3309550222968
 21
331.0826868632903
 31
0.0
  0
ARC
  5
2175
330
A
100
AcDbEntity
  8
02
100
AcDbCircle
 10
238.6114573814198
 20
331.0815098338418
 30
0.0
 40
3.000891874687466
100
AcDbArc
 50
89.99979429830238
 51
136.2086526010829
  0
LINE
  5
2176
330
A
100
AcDbEntity
  8
04
100
AcDbLine
 10
234.771444956156
 20
341.3384857401227
 30
0.0
 11
234.3380100377058
 21
338.8803657781561
 31
0.0
  0
ARC
  5
2177
330
A
100
AcDbEntity
  8
02
100
AcDbCircle
 10
233.9758955095065
 20
338.7155633280027
 30
0.0
 40
1.0
100
AcDbArc
 50
304.7217982668788
 51
5.000000000002986
  0
ARC
  5
2178
330
A
100
AcDbEntity
  8
04
100
AcDbCircle
 10
234.0425665055965
 20
338.9324606902138
 30
0.0
 40
0.3000012675431254
100
AcDbArc
 50
270.000268403209
 51
349.9999537180262
  0
ARC
  5
2179
330
A
100
AcDbEntity
  8
04
100
AcDbCircle
 10
235.2640303147242
 20
341.2516288643965
 30
0.0
 40
0.5000357221798465
100
AcDbArc
 50
100.9786091785428
 51
169.9998212364725
  0
LINE
  5
217A
330
A
100
AcDbEntity
  8
02
100
AcDbLine
 10
234.9720902075981
 20
338.8027190707504
 30
0.0
 11
234.8351640246709
 21
340.3677925032253
 31
0.0
  0
ARC
  5
217B
330
A
100
AcDbEntity
  8
02
100
AcDbCircle
 10
235.831370373986
 20
340.4549492653228
 30
0.0
 40
1.000011695728936
100
AcDbArc
 50
101.9412216107139
 51
184.9999999999995
  0
LINE
  5
217C
330
A
100
AcDbEntity
  8
04
100
AcDbLine
 10
249.3237237786769
 20
338.8803329346401
 30
0.0
 11
248.8902740919271
 21
341.33847476366
 31
0.0
  0
ARC
  5
217D
330
A
100
AcDbEntity
  8
04
100
AcDbCircle
 10
248.3978354799325
 20
341.2516419537737
 30
0.0
 40
0.5000357221798465
100
AcDbArc
 50
10.00029296745647
 51
79.02150502538598
  0
LINE
  5
217E
330
A
100
AcDbEntity
  8
04
100
AcDbLine
 10
241.330954645452
 20
333.5826937151306
 30
0.0
 11
251.3309553707013
 21
333.5826946707752
 31
0.0
  0
ARC
  5
217F
330
A
100
AcDbEntity
  8
02
100
AcDbCircle
 10
247.831341782112
 20
340.4549055439778
 30
0.0
 40
1.00001949997998
100
AcDbArc
 50
355.0018055028822
 51
78.05843379273824
  0
LINE
  5
2180
330
A
100
AcDbEntity
  8
04
100
AcDbLine
 10
241.3309492723673
 20
332.0826882395087
 30
0.0
 11
241.330954645452
 21
333.5826937151306
 31
0.0
  0
LINE
  5
2181
330
A
100
AcDbEntity
  8
02
100
AcDbLine
 10
248.8275586519884
 20
340.3677794944076
 30
0.0
 11
248.3575984710831
 21
334.9952287403382
 31
0.0
  0
ARC
  5
2182
330
A
100
AcDbEntity
  8
02
100
AcDbCircle
 10
247.3614025317744
 20
335.0823702947478
 30
0.0
 40
0.9999999999999303
100
AcDbArc
 50
269.9997942983005
 51
355.0008160366459
  0
LINE
  5
2183
330
A
100
AcDbEntity
  8
04
100
AcDbLine
 10
256.830943591522
 20
332.5826417417353
 30
0.0
 11
256.830943591522
 21
320.5824930785297
 31
0.0
  0
ARC
  5
2184
330
A
100
AcDbEntity
  8
04
100
AcDbCircle
 10
251.8308940870336
 20
340.1324375322035
 30
0.0
 40
1.500000069246365
100
AcDbArc
 50
270.0000026433229
 51
359.9998778313467
  0
LINE
  5
2185
330
A
100
AcDbEntity
  8
04
100
AcDbLine
 10
251.3309505385055
 20
332.5826418890402
 30
0.0
 11
256.830943591522
 21
332.5826417417353
 31
0.0
  0
LINE
  5
2186
330
A
100
AcDbEntity
  8
04
100
AcDbLine
 10
251.3309553707013
 20
333.5826946707752
 30
0.0
 11
251.3309505385055
 21
332.5826418890402
 31
0.0
  0
LINE
  5
2187
330
A
100
AcDbEntity
  8
04
100
AcDbLine
 10
251.8308941562357
 20
338.6324374629571
 30
0.0
 11
249.6191682670378
 21
338.6324167520573
 31
0.0
  0
ARC
  5
2188
330
A
100
AcDbEntity
  8
04
100
AcDbCircle
 10
249.6191654578255
 20
338.9324137466201
 30
0.0
 40
0.2999969945759568
100
AcDbArc
 50
189.9974557038729
 51
270.000536525409
  0
LINE
  5
218A
330
A
100
AcDbEntity
  8
04
100
AcDbLine
 10
270.330926166918
 20
320.5824702869808
 30
0.0
 11
270.3308952718825
 21
316.0825158301073
 31
0.0
  0
LINE
  5
218C
330
A
100
AcDbEntity
  8
04
100
AcDbLine
 10
268.3309430554081
 20
341.0824978696672
 30
0.0
 11
261.3309151544124
 21
341.0824978664771
 31
0.0
  0
LINE
  5
218D
330
A
100
AcDbEntity
  8
04
100
AcDbLine
 10
261.3308466648301
 20
337.0826632002446
 30
0.0
 11
265.8309965666795
 21
337.0825861437127
 31
0.0
  0
LINE
  5
218E
330
A
100
AcDbEntity
  8
04
100
AcDbLine
 10
260.3309311518788
 20
320.5824930785297
 30
0.0
 11
265.8310046779843
 21
320.5824628741701
 31
0.0
  0
LINE
  5
218F
330
A
100
AcDbEntity
  8
04
100
AcDbLine
 10
261.3308466648301
 20
337.0826632002446
 30
0.0
 11
261.3308466648301
 21
320.5824930785297
 31
0.0
  0
LINE
  5
2190
330
A
100
AcDbEntity
  8
04
100
AcDbLine
 10
261.3309151544124
 20
341.0824978664771
 30
0.0
 11
261.3308466648301
 21
337.0826632002446
 31
0.0
  0
LINE
  5
2191
330
A
100
AcDbEntity
  8
04
100
AcDbLine
 10
271.6309661567541
 20
331.9827595093461
 30
0.0
 11
271.6310413698183
 21
324.1827708375091
 31
0.0
  0
LINE
  5
2192
330
A
100
AcDbEntity
  8
04
100
AcDbLine
 10
265.8310046779843
 20
320.5824628741701
 30
0.0
 11
270.330926166918
 21
320.5824702869808
 31
0.0
  0
LINE
  5
2193
330
A
100
AcDbEntity
  8
04
100
AcDbLine
 10
271.2160516089797
 20
323.4639138276168
 30
0.0
 11
268.1310479046881
 21
323.4638838730291
 31
0.0
  0
LINE
  5
2194
330
A
100
AcDbEntity
  8
04
100
AcDbLine
 10
268.1310491317688
 20
323.4826328584433
 30
0.0
 11
266.831049672124
 21
323.4826201266912
 31
0.0
  0
LINE
  5
2195
330
A
100
AcDbEntity
  8
04
100
AcDbLine
 10
266.831049672124
 20
323.4826201266912
 30
0.0
 11
266.8310514002182
 21
323.0826837642633
 31
0.0
  0
LINE
  5
2196
330
A
100
AcDbEntity
  8
04
100
AcDbLine
 10
266.8310514002182
 20
323.0826837642633
 30
0.0
 11
265.8310521481689
 21
323.0826739981786
 31
0.0
  0
LINE
  5
2197
330
A
100
AcDbEntity
  8
04
100
AcDbLine
 10
265.8310521481689
 20
323.0826739981786
 30
0.0
 11
265.8310046779843
 21
320.5824628741701
 31
0.0
  0
LINE
  5
2198
330
A
100
AcDbEntity
  8
04
100
AcDbLine
 10
268.1310479046881
 20
323.4638838730291
 30
0.0
 11
268.1310491317688
 21
323.4826328584433
 31
0.0
  0
LINE
  5
2199
330
A
100
AcDbEntity
  8
04
100
AcDbLine
 10
271.6310413698183
 20
324.1827708375091
 30
0.0
 11
271.2160516089797
 21
323.4639138276168
 31
0.0
  0
LINE
  5
219A
330
A
100
AcDbEntity
  8
04
100
AcDbLine
 10
268.1309597400578
 20
332.7015103399777
 30
0.0
 11
271.2159605848242
 21
332.7015438998224
 31
0.0
  0
LINE
  5
219B
330
A
100
AcDbEntity
  8
04
100
AcDbLine
 10
266.8309626408758
 20
332.6827037023379
 30
0.0
 11
268.1309590648197
 21
332.682703702313
 31
0.0
  0
LINE
  5
219C
330
A
100
AcDbEntity
  8
04
100
AcDbLine
 10
265.8309965666795
 20
337.0825861437127
 30
0.0
 11
265.831179668961
 21
333.0826582048056
 31
0.0
  0
LINE
  5
219D
330
A
100
AcDbEntity
  8
04
100
AcDbLine
 10
265.831179668961
 20
333.0826582048056
 30
0.0
 11
266.8309556521069
 21
333.0827104694756
 31
0.0
  0
LINE
  5
219E
330
A
100
AcDbEntity
  8
04
100
AcDbLine
 10
266.8309556521069
 20
333.0827104694756
 30
0.0
 11
266.8309626408758
 21
332.6827037023379
 31
0.0
  0
LINE
  5
219F
330
A
100
AcDbEntity
  8
04
100
AcDbLine
 10
268.1309590648197
 20
332.682703702313
 30
0.0
 11
268.1309597400578
 21
332.7015103399777
 31
0.0
  0
LINE
  5
21A0
330
A
100
AcDbEntity
  8
04
100
AcDbLine
 10
271.2159605848242
 20
332.7015438998224
 30
0.0
 11
271.6309661567541
 21
331.9827595093461
 31
0.0
  0
LINE
  5
21A1
330
A
100
AcDbEntity
  8
06
100
AcDbLine
 10
265.7909399764647
 20
435.0831500946967
 30
0.0
 11
269.0709662920121
 21
444.0831405040984
 31
0.0
  0
LINE
  5
21A2
330
A
100
AcDbEntity
  8
06
100
AcDbLine
 10
256.5709662920655
 20
444.0831770534891
 30
0.0
 11
259.8509399764901
 21
435.0831674629676
 31
0.0
  0
LINE
  5
21A3
330
A
100
AcDbEntity
  8
06
100
AcDbLine
 10
271.8309848019452
 20
445.3831540765464
 30
0.0
 11
271.8309617159491
 21
420.897651213799
 31
0.0
  0
LINE
  5
21A5
330
A
100
AcDbEntity
  8
06
100
AcDbLine
 10
247.3309558426208
 20
404.0827305917604
 30
0.0
 11
272.3309555367291
 21
404.0827310300403
 31
0.0
  0
LINE
  5
21A6
330
A
100
AcDbEntity
  8
04
100
AcDbLine
 10
256.8309445958705
 20
370.0824842986098
 30
0.0
 11
261.3309151411968
 21
370.0824843006603
 31
0.0
  0
LINE
  5
21A7
330
A
100
AcDbEntity
  8
06
100
AcDbLine
 10
269.0709079560081
 20
375.5823980309123
 30
0.0
 11
256.5709079560081
 21
375.5823980309123
 31
0.0
  0
LINE
  5
21A8
330
A
100
AcDbEntity
  8
06
100
AcDbLine
 10
256.5709079560081
 20
375.5823980309123
 30
0.0
 11
259.8509079560082
 21
384.5823980309123
 31
0.0
  0
LINE
  5
21AB
330
A
100
AcDbEntity
  8
06
100
AcDbLine
 10
247.3309563695766
 20
404.0826048221878
 30
0.0
 11
247.3309596399045
 21
373.0521854989962
 31
0.0
  0
ARC
  5
21AC
330
A
100
AcDbEntity
  8
04
100
AcDbCircle
 10
241.8309865607497
 20
407.082641764217
 30
0.0
 40
35.0
100
AcDbArc
 50
259.4496110774829
 51
280.5503101203655
  0
ARC
  5
21AD
330
A
100
AcDbEntity
  8
04
100
AcDbCircle
 10
241.8309155633163
 20
403.3764785454741
 30
0.0
 40
34.99423998970407
100
AcDbArc
 50
259.0250298325635
 51
280.9794702861486
  0
LINE
  5
21AE
330
A
100
AcDbEntity
  8
04
100
AcDbLine
 10
231.83095063625
 20
372.132350283534
 30
0.0
 11
234.04260946078
 21
372.132350283534
 31
0.0
  0
ARC
  5
21AF
330
A
100
AcDbEntity
  8
04
100
AcDbCircle
 10
231.83095063625
 20
370.6323502835341
 30
0.0
 40
1.499999999999985
100
AcDbArc
 50
89.99999999999836
 51
180.0000000001985
  0
LINE
  5
21B0
330
A
100
AcDbEntity
  8
04
100
AcDbLine
 10
234.8308706197022
 20
369.2631351094141
 30
0.0
 11
234.8309221535735
 21
372.1827857186983
 31
0.0
  0
ARC
  5
21B1
330
A
100
AcDbEntity
  8
04
100
AcDbCircle
 10
234.04260946078
 20
371.832350283534
 30
0.0
 40
0.2999999999999829
100
AcDbArc
 50
9.999850835432855
 51
90.00000000000161
  0
LINE
  5
21B2
330
A
100
AcDbEntity
  8
04
100
AcDbLine
 10
234.3380519223059
 20
371.8844439676757
 30
0.0
 11
234.77147973445
 21
369.4263134449279
 31
0.0
  0
ARC
  5
21B3
330
A
100
AcDbEntity
  8
04
100
AcDbCircle
 10
235.2639001092419
 20
369.5131390563938
 30
0.0
 40
0.5000165120439659
100
AcDbArc
 50
189.9998435422206
 51
259.0250298325635
  0
ARC
  5
21B4
330
A
100
AcDbEntity
  8
04
100
AcDbCircle
 10
235.330922153573
 20
372.1827851677301
 30
0.0
 40
0.5
100
AcDbArc
 50
79.44961107748291
 51
179.9999368636694
  0
LINE
  5
21B5
330
A
100
AcDbEntity
  8
04
100
AcDbLine
 10
254.8309125394934
 20
369.5824401381867
 30
0.0
 11
254.8308147651509
 21
361.9874361291758
 31
0.0
  0
LINE
  5
21B6
330
A
100
AcDbEntity
  8
04
100
AcDbLine
 10
256.830944379063
 20
361.9874361292356
 30
0.0
 11
256.8309445958705
 21
370.0824842986098
 31
0.0
  0
LINE
  5
21B7
330
A
100
AcDbEntity
  8
04
100
AcDbLine
 10
256.830944379063
 20
361.9874361292356
 30
0.0
 11
256.8309441283099
 21
352.1774295500378
 31
0.0
  0
LINE
  5
21B8
330
A
100
AcDbEntity
  8
04
100
AcDbLine
 10
254.8309793332542
 20
352.1774218749427
 30
0.0
 11
254.8309243678249
 21
344.5824507428105
 31
0.0
  0
LINE
  5
21B9
330
A
100
AcDbEntity
  8
04
100
AcDbLine
 10
254.8309243678249
 20
344.5824507428105
 30
0.0
 11
253.3309036448097
 21
344.5824539412226
 31
0.0
  0
LINE
  5
21BA
330
A
100
AcDbEntity
  8
04
100
AcDbLine
 10
256.8309441283099
 20
352.1774295500378
 30
0.0
 11
254.8309793332542
 21
352.1774218749427
 31
0.0
  0
LINE
  5
21BB
330
A
100
AcDbEntity
  8
04
100
AcDbLine
 10
254.8308147651509
 20
361.9874361291758
 30
0.0
 11
256.830944379063
 21
361.9874361292356
 31
0.0
  0
LINE
  5
21BC
330
A
100
AcDbEntity
  8
04
100
AcDbLine
 10
248.8903176503411
 20
369.4262859982163
 30
0.0
 11
249.3249837215551
 21
371.8877460883358
 31
0.0
  0
ARC
  5
21BD
330
A
100
AcDbEntity
  8
04
100
AcDbCircle
 10
248.3961146685451
 20
369.5393395444203
 30
0.0
 40
0.5000165120439659
100
AcDbArc
 50
281.2035950328775
 51
350.2287813232181
  0
ARC
  5
21BE
330
A
100
AcDbEntity
  8
04
100
AcDbCircle
 10
248.33099494427
 20
372.1828111321385
 30
0.0
 40
0.5
100
AcDbArc
 50
0.0
 51
100.5503101203655
  0
LINE
  5
21BF
330
A
100
AcDbEntity
  8
04
100
AcDbLine
 10
248.8309361128016
 20
369.2617373991414
 30
0.0
 11
248.8309328004512
 21
372.1906940222629
 31
0.0
  0
ARC
  5
21C0
330
A
100
AcDbEntity
  8
04
100
AcDbCircle
 10
251.8309319754085
 20
370.6322830533197
 30
0.0
 40
1.500027214270151
100
AcDbArc
 50
0.0009199597365318
 51
89.99901430162239
  0
ARC
  5
21C1
330
A
100
AcDbEntity
  8
04
100
AcDbCircle
 10
249.6207000379913
 20
371.8355259243872
 30
0.0
 40
0.3002916670996232
100
AcDbArc
 50
98.71679422589958
 51
169.985456644407
  0
LINE
  5
21C2
330
A
100
AcDbEntity
  8
04
100
AcDbLine
 10
249.5751906689783
 20
372.1323490748683
 30
0.0
 11
251.8309577814
 21
372.1323102673678
 31
0.0
  0
LINE
  5
21C3
330
A
100
AcDbEntity
  8
04
100
AcDbLine
 10
253.3309591679684
 20
369.5824401689278
 30
0.0
 11
254.8309125394934
 21
369.5824401381867
 31
0.0
  0
LINE
  5
21C4
330
A
100
AcDbEntity
  8
06
100
AcDbLine
 10
272.3309291187987
 20
401.2677671838431
 30
0.0
 11
272.3309291192919
 21
369.0828535934338
 31
0.0
  0
LINE
  5
21C5
330
A
100
AcDbEntity
  8
04
100
AcDbLine
 10
270.3309740976889
 20
362.5880313939287
 30
0.0
 11
275.1348901141247
 21
362.5880313939305
 31
0.0
  0
LINE
  5
21C6
330
A
100
AcDbEntity
  8
04
100
AcDbLine
 10
275.1348972401694
 20
347.5769179940793
 30
0.0
 11
270.3309530702649
 21
347.5769083300879
 31
0.0
  0
LINE
  5
21C7
330
A
100
AcDbEntity
  8
04
100
AcDbLine
 10
268.3309056312001
 20
369.0824756564776
 30
0.0
 11
268.3309135366024
 21
362.7824939271299
 31
0.0
  0
LINE
  5
21C8
330
A
100
AcDbEntity
  8
04
100
AcDbLine
 10
270.3309549732376
 20
347.3824895638341
 30
0.0
 11
268.3309226130965
 21
347.3824699874991
 31
0.0
  0
LINE
  5
21C9
330
A
100
AcDbEntity
  8
04
100
AcDbLine
 10
270.3309530702649
 20
347.5769083300879
 30
0.0
 11
270.3309549732376
 21
347.3824895638341
 31
0.0
  0
LINE
  5
21CA
330
A
100
AcDbEntity
  8
04
100
AcDbLine
 10
268.3309135366024
 20
362.7824939271299
 30
0.0
 11
270.3309740976888
 21
362.7824783525841
 31
0.0
  0
LINE
  5
21CB
330
A
100
AcDbEntity
  8
04
100
AcDbLine
 10
270.3309740976888
 20
362.7824783525841
 30
0.0
 11
270.3309740976889
 21
362.5880313939287
 31
0.0
  0
LINE
  5
21CC
330
A
100
AcDbEntity
  8
04
100
AcDbLine
 10
261.3309151416526
 20
369.0824756564776
 30
0.0
 11
268.3309056312001
 21
369.0824756564776
 31
0.0
  0
LINE
  5
21CD
330
A
100
AcDbEntity
  8
06
100
AcDbLine
 10
259.8509079560082
 20
384.5823980309123
 30
0.0
 11
265.7909079560082
 21
384.5823980309123
 31
0.0
  0
LINE
  5
21CE
330
A
100
AcDbEntity
  8
04
100
AcDbLine
 10
261.3309151411968
 20
370.0824843006603
 30
0.0
 11
261.3309151416526
 21
369.0824756564776
 31
0.0
  0
LINE
  5
21CF
330
A
100
AcDbEntity
  8
06
100
AcDbLine
 10
265.7909079560082
 20
384.5823980309123
 30
0.0
 11
269.0709079560081
 21
375.5823980309123
 31
0.0
  0
LINE
  5
21D0
330
A
100
AcDbEntity
  8
06
100
AcDbLine
 10
272.3309291192919
 20
369.0828535934338
 30
0.0
 11
269.5012452169065
 21
369.0828535933903
 31
0.0
  0
LINE
  5
21D1
330
A
100
AcDbEntity
  8
04
100
AcDbLine
 10
275.8309769317508
 20
361.3825004425323
 30
0.0
 11
275.8309246125208
 21
348.7824871813763
 31
0.0
  0
LINE
  5
21D2
330
A
100
AcDbEntity
  8
04
100
AcDbLine
 10
275.8309246125208
 20
348.7824871813763
 30
0.0
 11
275.1348972401694
 21
347.5769179940793
 31
0.0
  0
LINE
  5
21D3
330
A
100
AcDbEntity
  8
04
100
AcDbLine
 10
275.1348901141247
 20
362.5880313939305
 30
0.0
 11
275.8309769317508
 21
361.3825004425323
 31
0.0
  0
LINE
  5
21D4
330
A
100
AcDbEntity
  8
06
100
AcDbLine
 10
273.4274438480196
 20
420.8978209361291
 30
0.0
 11
274.3309277093291
 21
419.3327789828506
 31
0.0
  0
LINE
  5
21D5
330
A
100
AcDbEntity
  8
06
100
AcDbLine
 10
274.3309393400891
 20
402.8327202046173
 30
0.0
 11
273.427282704673
 21
401.2675554751877
 31
0.0
  0
LINE
  5
21D6
330
A
100
AcDbEntity
  8
06
100
AcDbLine
 10
272.3309555367291
 20
404.0827310300403
 30
0.0
 11
272.3309291187987
 21
401.2677671838431
 31
0.0
  0
LINE
  5
21D7
330
A
100
AcDbEntity
  8
06
100
AcDbLine
 10
273.427282704673
 20
401.2675554751877
 30
0.0
 11
272.3309291187987
 21
401.2677671838431
 31
0.0
  0
LINE
  5
21D8
330
A
100
AcDbEntity
  8
06
100
AcDbLine
 10
259.8509399764901
 20
435.0831674629676
 30
0.0
 11
265.7909399764647
 21
435.0831500946967
 31
0.0
  0
LINE
  5
21D9
330
A
100
AcDbEntity
  8
06
100
AcDbLine
 10
271.8309617159491
 20
420.897651213799
 30
0.0
 11
273.4274438480196
 21
420.8978209361291
 31
0.0
  0
LINE
  5
21DA
330
A
100
AcDbEntity
  8
06
100
AcDbLine
 10
274.8309715486086
 20
416.0826973653686
 30
0.0
 11
274.8310297594021
 21
406.0826891127963
 31
0.0
  0
LINE
  5
21DB
330
A
100
AcDbEntity
  8
06
100
AcDbLine
 10
274.8310297594021
 20
406.0826891127963
 30
0.0
 11
274.3309594347641
 21
406.0826879154502
 31
0.0
  0
LINE
  5
21DC
330
A
100
AcDbEntity
  8
06
100
AcDbLine
 10
274.3309594347641
 20
406.0826879154502
 30
0.0
 11
274.3309393400891
 21
402.8327202046173
 31
0.0
  0
LINE
  5
21DD
330
A
100
AcDbEntity
  8
06
100
AcDbLine
 10
274.3309277093291
 20
419.3327789828506
 30
0.0
 11
274.3304293137569
 21
416.0827969431208
 31
0.0
  0
LINE
  5
21DE
330
A
100
AcDbEntity
  8
06
100
AcDbLine
 10
274.3304293137569
 20
416.0827969431208
 30
0.0
 11
274.8309715486086
 21
416.0826973653686
 31
0.0
  0
LINE
  5
21DF
330
A
100
AcDbEntity
  8
06
100
AcDbLine
 10
269.0709662920121
 20
444.0831405040984
 30
0.0
 11
256.5709662920655
 21
444.0831770534891
 31
0.0
  0
LINE
  5
21E0
330
A
100
AcDbEntity
  8
06
100
AcDbLine
 10
252.0309913902333
 20
446.383516769262
 30
0.0
 11
270.830943007569
 21
446.3828680296408
 31
0.0
  0
LINE
  5
21E2
330
A
100
AcDbEntity
  8
06
100
AcDbLine
 10
235.7707784214106
 20
447.0829197326396
 30
0.0
 11
249.0309955156892
 21
447.0826361144303
 31
0.0
  0
LINE
  5
21E3
330
A
100
AcDbEntity
  8
06
100
AcDbLine
 10
235.770774954205
 20
449.582394243712
 30
0.0
 11
235.7707784214106
 21
447.0829197326396
 31
0.0
  0
LINE
  5
21E4
330
A
100
AcDbEntity
  8
06
100
AcDbLine
 10
249.0309955771603
 20
446.0828049913135
 30
0.0
 11
252.0309872307056
 21
446.0826829212066
 31
0.0
  0
LINE
  5
21E5
330
A
100
AcDbEntity
  8
06
100
AcDbLine
 10
249.0309955156892
 20
447.0826361144303
 30
0.0
 11
249.0309955771603
 21
446.0828049913135
 31
0.0
  0
LINE
  5
21E6
330
A
100
AcDbEntity
  8
06
100
AcDbLine
 10
252.0309872307056
 20
446.0826829212066
 30
0.0
 11
252.0309913902333
 21
446.383516769262
 31
0.0
  0
ARC
  5
21E7
330
A
100
AcDbEntity
  8
06
100
AcDbCircle
 10
270.8309084974183
 20
445.3827916600412
 30
0.0
 40
1.000076370194728
100
AcDbArc
 50
0.0207633509177839
 51
89.9980228650036
  0
LINE
  5
222B
330
A
100
AcDbEntity
  8
02
100
AcDbLine
 10
257.2309004230177
 20
492.5823899371066
 30
0.0
 11
258.8309004230175
 21
492.5823899371067
 31
0.0
  0
LINE
  5
222C
330
A
100
AcDbEntity
  8
02
100
AcDbLine
 10
225.2309004230175
 20
295.5823899371068
 30
0.0
 11
226.8309004230177
 21
295.5823899371068
 31
0.0
  0
LINE
  5
2233
330
A
100
AcDbEntity
  8
03
100
AcDbLine
 10
258.8309004230175
 20
492.5823899371066
 30
0.0
 11
258.8309004230175
 21
477.3323899371066
 31
0.0
  0
LINE
  5
2234
330
A
100
AcDbEntity
  8
03
100
AcDbLine
 10
210.0809004230177
 20
474.5823899371067
 30
0.0
 11
170.8309004230176
 21
474.5823899371067
 31
0.0
  0
LINE
  5
2235
330
A
100
AcDbEntity
  8
06
100
AcDbLine
 10
236.8309004230175
 20
316.0824859914386
 30
0.0
 11
261.8309004230175
 21
316.0824859914386
 31
0.0
  0
TEXT
  5
22AB
330
A
100
AcDbEntity
  8
MOJI
100
AcDbText
 10
67.23569432174278
 20
48.36972322837175
 30
0.0
 40
6.0
  1
SOV-100KLDM
 50
90.0
 41
0.8
  7
0_8
 11
61.23569432174279
 21
48.36972322837175
 31
0.0
100
AcDbText
 73
     3
  0
TEXT
  5
22AC
330
A
100
AcDbEntity
  8
MOJI
100
AcDbText
 10
67.23569432174278
 20
113.1859112251631
 30
0.0
 40
6.0
  1
７５×１
 50
90.0
 41
0.8
  7
0_8
 11
61.23569432174279
 21
113.1859112251631
 31
0.0
100
AcDbText
 73
     3
  0
TEXT
  5
22AD
330
A
100
AcDbEntity
  8
MOJI
100
AcDbText
 10
67.23569432174278
 20
147.3939375140861
 30
0.0
 40
6.0
  1
５０×２
 50
90.0
 41
0.8
  7
0_8
 11
61.23569432174279
 21
147.3939375140861
 31
0.0
100
AcDbText
 73
     3
  0
CIRCLE
  5
22AE
330
A
100
AcDbEntity
  8
SAISEN
100
AcDbCircle
 10
56.45292663388471
 20
189.867150469756
 30
0.0
 40
2.43
  0
CIRCLE
  5
22AF
330
A
100
AcDbEntity
  8
SAISEN
100
AcDbCircle
 10
56.45292663388471
 20
189.867150469756
 30
0.0
 40
1.619999999999999
  0
CIRCLE
  5
22B0
330
A
100
AcDbEntity
  8
SAISEN
100
AcDbCircle
 10
56.45292663388471
 20
224.1528647554703
 30
0.0
 40
2.43
  0
LINE
  5
22B1
330
A
100
AcDbEntity
  8
SAISEN
100
AcDbLine
 10
60.42569432174264
 20
46.74972322837176
 30
0.0
 11
60.42569432174264
 21
243.8925803712289
 31
0.0
  0
TEXT
  5
22B2
330
A
100
AcDbEntity
  8
MOJI
100
AcDbText
 10
74.99712289317132
 20
245.4782946569433
 30
0.0
 40
6.0
  1
☆本図
 50
90.0
 41
0.8
  7
0_8
 11
68.99712289317132
 21
245.4782946569433
 31
0.0
100
AcDbText
 73
     3
  0
POLYLINE
  5
22B3
330
A
100
AcDbEntity
  8
SAISEN
100
AcDb2dPolyline
 66
     1
 10
0.0
 20
0.0
 30
0.0
 70
     1
  0
VERTEX
  5
24B9
330
22B3
100
AcDbEntity
  8
SAISEN
100
AcDbVertex
100
AcDb2dVertex
 10
101.1399800360282
 20
46.74972322837176
 30
0.0
  0
VERTEX
  5
24BA
330
22B3
100
AcDbEntity
  8
SAISEN
100
AcDbVertex
100
AcDb2dVertex
 10
101.1399800360282
 20
243.8925803712289
 30
0.0
  0
VERTEX
  5
24BB
330
22B3
100
AcDbEntity
  8
SAISEN
100
AcDbVertex
100
AcDb2dVertex
 10
27.85426575031408
 20
243.8925803712289
 30
0.0
  0
VERTEX
  5
24BC
330
22B3
100
AcDbEntity
  8
SAISEN
100
AcDbVertex
100
AcDb2dVertex
 10
27.85426575031406
 20
46.7497232283718
 30
0.0
  0
SEQEND
  5
24BD
330
22B3
100
AcDbEntity
  8
SAISEN
  0
TEXT
  5
22B4
330
A
100
AcDbEntity
  8
MOJI
100
AcDbText
 10
42.80712289317121
 20
211.6664329918115
 30
0.0
 40
6.0
  1
歯付きベルト
 50
90.0
 41
0.7
  7
0_7
 11
36.80712289317122
 21
211.6664329918115
 31
0.0
100
AcDbText
 73
     3
  0
TEXT
  5
22B5
330
A
100
AcDbEntity
  8
MOJI
100
AcDbText
 10
42.80712289317121
 20
180.9911517998003
 30
0.0
 40
6.0
  1
Ｖベルト
 50
90.0
 41
0.8
  7
0_8
 11
36.80712289317122
 21
180.9911517998003
 31
0.0
100
AcDbText
 73
     3
  0
TEXT
  5
22B6
330
A
100
AcDbEntity
  8
MOJI
100
AcDbText
 10
34.66426575031402
 20
200.8382696850476
 30
0.0
 40
6.0
  1
伝達機構
 50
90.0
 41
0.8
  7
0_8
 11
28.66426575031402
 21
200.8382696850476
 31
0.0
100
AcDbText
 73
     3
  0
TEXT
  5
22B7
330
A
100
AcDbEntity
  8
MOJI
100
AcDbText
 10
99.80712289317137
 20
113.1859112251631
 30
0.0
 40
6.0
  1
７５×１
 50
90.0
 41
0.8
  7
0_8
 11
93.80712289317136
 21
113.1859112251631
 31
0.0
100
AcDbText
 73
     3
  0
TEXT
  5
22B8
330
A
100
AcDbEntity
  8
MOJI
100
AcDbText
 10
91.66426575031415
 20
113.1859112251631
 30
0.0
 40
6.0
  1
７５×１
 50
90.0
 41
0.8
  7
0_8
 11
85.66426575031416
 21
113.1859112251631
 31
0.0
100
AcDbText
 73
     3
  0
TEXT
  5
22B9
330
A
100
AcDbEntity
  8
MOJI
100
AcDbText
 10
83.52140860745697
 20
113.1859112251631
 30
0.0
 40
6.0
  1
７５×１
 50
90.0
 41
0.8
  7
0_8
 11
77.52140860745697
 21
113.1859112251631
 31
0.0
100
AcDbText
 73
     3
  0
TEXT
  5
22BA
330
A
100
AcDbEntity
  8
MOJI
100
AcDbText
 10
75.37855146459988
 20
113.1859112251631
 30
0.0
 40
6.0
  1
７５×１
 50
90.0
 41
0.8
  7
0_8
 11
69.37855146459988
 21
113.1859112251631
 31
0.0
100
AcDbText
 73
     3
  0
TEXT
  5
22BB
330
A
100
AcDbEntity
  8
MOJI
100
AcDbText
 10
99.80712289317137
 20
147.3939375140861
 30
0.0
 40
6.0
  1
７５×２
 50
90.0
 41
0.8
  7
0_8
 11
93.80712289317136
 21
147.3939375140861
 31
0.0
100
AcDbText
 73
     3
  0
TEXT
  5
22BC
330
A
100
AcDbEntity
  8
MOJI
100
AcDbText
 10
91.66426575031417
 20
147.3939375140861
 30
0.0
 40
6.0
  1
７５×２
 50
90.0
 41
0.8
  7
0_8
 11
85.66426575031417
 21
147.3939375140861
 31
0.0
100
AcDbText
 73
     3
  0
TEXT
  5
22BD
330
A
100
AcDbEntity
  8
MOJI
100
AcDbText
 10
83.52140860745697
 20
147.3939375140861
 30
0.0
 40
6.0
  1
７５×２
 50
90.0
 41
0.8
  7
0_8
 11
77.52140860745697
 21
147.3939375140861
 31
0.0
100
AcDbText
 73
     3
  0
TEXT
  5
22BE
330
A
100
AcDbEntity
  8
MOJI
100
AcDbText
 10
75.37855146459988
 20
147.3939375140861
 30
0.0
 40
6.0
  1
７５×２
 50
90.0
 41
0.8
  7
0_8
 11
69.37855146459988
 21
147.3939375140861
 31
0.0
100
AcDbText
 73
     3
  0
TEXT
  5
22BF
330
A
100
AcDbEntity
  8
MOJI
100
AcDbText
 10
59.0928371788856
 20
147.3939375140861
 30
0.0
 40
6.0
  1
３５×２
 50
90.0
 41
0.8
  7
0_8
 11
53.0928371788856
 21
147.3939375140861
 31
0.0
100
AcDbText
 73
     3
  0
TEXT
  5
22C0
330
A
100
AcDbEntity
  8
MOJI
100
AcDbText
 10
59.0928371788856
 20
113.1859112251631
 30
0.0
 40
6.0
  1
７０×１
 50
90.0
 41
0.8
  7
0_8
 11
53.0928371788856
 21
113.1859112251631
 31
0.0
100
AcDbText
 73
     3
  0
TEXT
  5
22C1
330
A
100
AcDbEntity
  8
MOJI
100
AcDbText
 10
50.94998003602839
 20
147.3939375140861
 30
0.0
 40
6.0
  1
３０×２
 50
90.0
 41
0.8
  7
0_8
 11
44.94998003602839
 21
147.3939375140861
 31
0.0
100
AcDbText
 73
     3
  0
TEXT
  5
22C2
330
A
100
AcDbEntity
  8
MOJI
100
AcDbText
 10
50.94998003602839
 20
113.1859112251631
 30
0.0
 40
6.0
  1
６５×１
 50
90.0
 41
0.8
  7
0_8
 11
44.94998003602839
 21
113.1859112251631
 31
0.0
100
AcDbText
 73
     3
  0
TEXT
  5
22C3
330
A
100
AcDbEntity
  8
MOJI
100
AcDbText
 10
42.80712289317121
 20
149.2116656376865
 30
0.0
 40
6.0
  1
引分け
 50
90.0
 41
0.8
  7
0_8
 11
36.80712289317122
 21
149.2116656376865
 31
0.0
100
AcDbText
 73
     3
  0
TEXT
  5
22C4
330
A
100
AcDbEntity
  8
MOJI
100
AcDbText
 10
42.80712289317121
 20
115.1556247771388
 30
0.0
 40
6.0
  1
片引き
 50
90.0
 41
0.8
  7
0_8
 11
36.80712289317122
 21
115.1556247771388
 31
0.0
100
AcDbText
 73
     3
  0
TEXT
  5
22C5
330
A
100
AcDbEntity
  8
MOJI
100
AcDbText
 10
34.66426575031402
 20
115.1556247771388
 30
0.0
 40
6.0
  1
最大ドア質量（kg）
 50
90.0
 41
0.8
  7
0_8
 11
28.66426575031402
 21
115.1556247771388
 31
0.0
100
AcDbText
 73
     3
  0
TEXT
  5
22C6
330
A
100
AcDbEntity
  8
MOJI
100
AcDbText
 10
39.37668952372382
 20
65.55970464093704
 30
0.0
 40
6.0
  1
使用機種
 50
90.0
 41
0.8
  7
0_8
 11
33.37668952372382
 21
65.55970464093704
 31
0.0
100
AcDbText
 73
     3
  0
TEXT
  5
22C7
330
A
100
AcDbEntity
  8
MOJI
100
AcDbText
 10
50.94998003602839
 20
48.36972322837175
 30
0.0
 40
6.0
  1
SOV-60KLTM
 50
90.0
 41
0.8
  7
0_8
 11
44.94998003602839
 21
48.36972322837175
 31
0.0
100
AcDbText
 73
     3
  0
TEXT
  5
22C8
330
A
100
AcDbEntity
  8
MOJI
100
AcDbText
 10
75.37855146459988
 20
48.36972322837175
 30
0.0
 40
6.0
  1
SOV-150KLTM
 50
90.0
 41
0.8
  7
0_8
 11
69.37855146459988
 21
48.36972322837175
 31
0.0
100
AcDbText
 73
     3
  0
TEXT
  5
22C9
330
A
100
AcDbEntity
  8
MOJI
100
AcDbText
 10
59.0928371788856
 20
48.36972322837175
 30
0.0
 40
6.0
  1
SOV-70KLDM
 50
90.0
 41
0.8
  7
0_8
 11
53.0928371788856
 21
48.36972322837175
 31
0.0
100
AcDbText
 73
     3
  0
TEXT
  5
22CA
330
A
100
AcDbEntity
  8
MOJI
100
AcDbText
 10
99.80712289317137
 20
48.36972322837175
 30
0.0
 40
6.0
  1
SOV-200KNB
 50
90.0
 41
0.8
  7
0_8
 11
93.80712289317136
 21
48.36972322837175
 31
0.0
100
AcDbText
 73
     3
  0
TEXT
  5
22CB
330
A
100
AcDbEntity
  8
MOJI
100
AcDbText
 10
91.66426575031415
 20
48.36972322837175
 30
0.0
 40
6.0
  1
SOV-200KLDM
 50
90.0
 41
0.8
  7
0_8
 11
85.66426575031416
 21
48.36972322837175
 31
0.0
100
AcDbText
 73
     3
  0
TEXT
  5
22CC
330
A
100
AcDbEntity
  8
MOJI
100
AcDbText
 10
83.52140860745695
 20
48.36972322837175
 30
0.0
 40
6.0
  1
SOV-160KLDM
 50
90.0
 41
0.8
  7
0_8
 11
77.52140860745694
 21
48.36972322837175
 31
0.0
100
AcDbText
 73
     3
  0
CIRCLE
  5
22CD
330
A
100
AcDbEntity
  8
SAISEN
100
AcDbCircle
 10
97.16721234817057
 20
224.1528647554703
 30
0.0
 40
1.619999999999999
  0
LINE
  5
22CE
330
A
100
AcDbEntity
  8
SAISEN
100
AcDbLine
 10
101.1399800360285
 20
175.3211517998004
 30
0.0
 11
92.99712289317131
 21
209.6068660855145
 31
0.0
  0
CIRCLE
  5
22CF
330
A
100
AcDbEntity
  8
SAISEN
100
AcDbCircle
 10
88.98149806245625
 20
189.867150469756
 30
0.0
 40
1.619999999999999
  0
CIRCLE
  5
22D0
330
A
100
AcDbEntity
  8
SAISEN
100
AcDbCircle
 10
80.88149806245629
 20
189.867150469756
 30
0.0
 40
1.619999999999999
  0
CIRCLE
  5
22D1
330
A
100
AcDbEntity
  8
SAISEN
100
AcDbCircle
 10
72.73864091959911
 20
189.867150469756
 30
0.0
 40
1.619999999999999
  0
CIRCLE
  5
22D2
330
A
100
AcDbEntity
  8
SAISEN
100
AcDbCircle
 10
64.59578377674191
 20
189.867150469756
 30
0.0
 40
1.619999999999999
  0
CIRCLE
  5
22D3
330
A
100
AcDbEntity
  8
SAISEN
100
AcDbCircle
 10
48.26721234817047
 20
189.867150469756
 30
0.0
 40
1.619999999999999
  0
CIRCLE
  5
22D4
330
A
100
AcDbEntity
  8
SAISEN
100
AcDbCircle
 10
48.26721234817047
 20
224.1528647554703
 30
0.0
 40
2.43
  0
CIRCLE
  5
22D5
330
A
100
AcDbEntity
  8
SAISEN
100
AcDbCircle
 10
64.59578377674191
 20
224.1528647554703
 30
0.0
 40
2.43
  0
CIRCLE
  5
22D6
330
A
100
AcDbEntity
  8
SAISEN
100
AcDbCircle
 10
72.73864091959911
 20
224.1528647554703
 30
0.0
 40
2.43
  0
CIRCLE
  5
22D7
330
A
100
AcDbEntity
  8
SAISEN
100
AcDbCircle
 10
80.88149806245631
 20
224.1528647554703
 30
0.0
 40
2.43
  0
CIRCLE
  5
22D8
330
A
100
AcDbEntity
  8
SAISEN
100
AcDbCircle
 10
88.98149806245625
 20
224.1528647554703
 30
0.0
 40
2.43
  0
CIRCLE
  5
22D9
330
A
100
AcDbEntity
  8
SAISEN
100
AcDbCircle
 10
97.16721234817057
 20
224.1528647554703
 30
0.0
 40
2.43
  0
CIRCLE
  5
22DA
330
A
100
AcDbEntity
  8
SAISEN
100
AcDbCircle
 10
88.98149806245625
 20
189.867150469756
 30
0.0
 40
2.43
  0
CIRCLE
  5
22DB
330
A
100
AcDbEntity
  8
SAISEN
100
AcDbCircle
 10
80.88149806245629
 20
189.867150469756
 30
0.0
 40
2.43
  0
CIRCLE
  5
22DC
330
A
100
AcDbEntity
  8
SAISEN
100
AcDbCircle
 10
72.73864091959911
 20
189.867150469756
 30
0.0
 40
2.43
  0
CIRCLE
  5
22DD
330
A
100
AcDbEntity
  8
SAISEN
100
AcDbCircle
 10
64.59578377674191
 20
189.867150469756
 30
0.0
 40
2.43
  0
CIRCLE
  5
22DE
330
A
100
AcDbEntity
  8
SAISEN
100
AcDbCircle
 10
48.26721234817047
 20
189.867150469756
 30
0.0
 40
2.43
  0
LINE
  5
22DF
330
A
100
AcDbEntity
  8
SAISEN
100
AcDbLine
 10
101.1399800360285
 20
209.6068660855145
 30
0.0
 11
35.99712289317128
 21
209.6068660855145
 31
0.0
  0
LINE
  5
22E0
330
A
100
AcDbEntity
  8
SAISEN
100
AcDbLine
 10
35.99712289317126
 20
141.035437514086
 30
0.0
 11
101.1399800360285
 21
141.035437514086
 31
0.0
  0
LINE
  5
22E1
330
A
100
AcDbEntity
  8
SAISEN
100
AcDbLine
 10
27.85426575031406
 20
106.7497232283716
 30
0.0
 11
101.1399800360282
 21
106.7497232283716
 31
0.0
  0
LINE
  5
22E2
330
A
100
AcDbEntity
  8
SAISEN
100
AcDbLine
 10
35.99712289317126
 20
106.7497232283716
 30
0.0
 11
35.99712289317128
 21
243.8925803712289
 31
0.0
  0
LINE
  5
22E3
330
A
100
AcDbEntity
  8
SAISEN
100
AcDbLine
 10
44.13998003602834
 20
46.7497232283718
 30
0.0
 11
44.13998003602837
 21
243.8925803712289
 31
0.0
  0
LINE
  5
22E4
330
A
100
AcDbEntity
  8
SAISEN
100
AcDbLine
 10
52.28283717888555
 20
46.74972322837178
 30
0.0
 11
52.28283717888556
 21
243.8925803712289
 31
0.0
  0
LINE
  5
22E5
330
A
100
AcDbEntity
  8
SAISEN
100
AcDbLine
 10
68.56855146459984
 20
46.74972322837176
 30
0.0
 11
68.56855146459984
 21
243.8925803712289
 31
0.0
  0
LINE
  5
22E6
330
A
100
AcDbEntity
  8
SAISEN
100
AcDbLine
 10
76.71140860745701
 20
46.74972322837176
 30
0.0
 11
76.71140860745705
 21
243.8925803712289
 31
0.0
  0
LINE
  5
22E7
330
A
100
AcDbEntity
  8
SAISEN
100
AcDbLine
 10
84.85426575031421
 20
46.74972322837176
 30
0.0
 11
84.85426575031423
 21
243.8925803712289
 31
0.0
  0
LINE
  5
22E8
330
A
100
AcDbEntity
  8
SAISEN
100
AcDbLine
 10
92.99712289317131
 20
46.74972322837176
 30
0.0
 11
92.99712289317131
 21
243.8925803712289
 31
0.0
  0
LINE
  5
22E9
330
A
100
AcDbEntity
  8
SAISEN
100
AcDbLine
 10
101.1399800360285
 20
175.3211517998004
 30
0.0
 11
27.85426575031406
 21
175.3211517998004
 31
0.0
  0
TEXT
  5
22F0
330
A
100
AcDbEntity
  8
MOJI
100
AcDbText
 10
115.9417342425864
 20
46.74972322837176
 30
0.0
 40
6.0
  1
※　伝達機構は◎印が標準、○印はオーダーです。
 50
90.0
 41
0.8
  7
0_8
 11
109.9417342425864
 21
46.74972322837176
 31
0.0
100
AcDbText
 73
     3
  0
TEXT
  5
22F1
330
A
100
AcDbEntity
  8
MOJI
100
AcDbText
 10
124.5131628140152
 20
46.74972322837176
 30
0.0
 40
6.0
  1
※　台板専用の戸車を使用する為、質量制限をしています。
 50
90.0
 41
0.8
  7
0_8
 11
118.5131628140152
 21
46.74972322837176
 31
0.0
100
AcDbText
 73
     3
  0
MTEXT
  5
2444
330
A
100
AcDbEntity
  8
MOJI
100
AcDbMText
 10
360.999999999997
 20
28.50000000000011
 30
0.0
 40
7.0
 41
49.99999999999994
 71
     5
 72
     1
  1
たて断面図　
  7
0_80
1001
ACAD
1000
MTEXTBEGIN
1070
    73
1070
     1
1070
    44
1040
1.0
1070
    74
1070
     0
1000
MTEXTEND
1000
MTEXTBEGIN
1070
    73
1070
     1
1070
    44
1040
1.0
1070
    74
1070
     0
1000
MTEXTEND
  0
MTEXT
  5
2445
330
A
100
AcDbEntity
  8
MOJI
100
AcDbMText
 10
310.9999999999968
 20
28.0
 30
0.0
 40
7.0
 41
50.0
 71
     5
 72
     1
  1
図番３－３
  7
0_80
1001
ACAD
1000
MTEXTBEGIN
1070
    73
1070
     1
1070
    44
1040
1.0
1070
    74
1070
     0
1000
MTEXTEND
1000
MTEXTBEGIN
1070
    73
1070
     1
1070
    44
1040
1.0
1070
    74
1070
     0
1000
MTEXTEND
  0
POLYLINE
  5
2446
330
A
100
AcDbEntity
  8
SAISEN
100
AcDb2dPolyline
 66
     1
 10
0.0
 20
0.0
 30
0.0
 70
     1
  0
VERTEX
  5
24BE
330
2446
100
AcDbEntity
  8
SAISEN
100
AcDbVertex
100
AcDb2dVertex
 10
35.99999999999698
 20
17.0
 30
0.0
  0
VERTEX
  5
24BF
330
2446
100
AcDbEntity
  8
SAISEN
100
AcDbVertex
100
AcDb2dVertex
 10
385.999999999997
 20
17.0
 30
0.0
  0
VERTEX
  5
24C0
330
2446
100
AcDbEntity
  8
SAISEN
100
AcDbVertex
100
AcDb2dVertex
 10
385.999999999997
 20
41.00000000000022
 30
0.0
  0
VERTEX
  5
24C1
330
2446
100
AcDbEntity
  8
SAISEN
100
AcDbVertex
100
AcDb2dVertex
 10
35.99999999999698
 20
41.00000000000022
 30
0.0
  0
SEQEND
  5
24C2
330
2446
100
AcDbEntity
  8
SAISEN
  0
LINE
  5
2447
330
A
100
AcDbEntity
  8
SAISEN
100
AcDbLine
 10
145.9999999999969
 20
41.00000000000022
 30
0.0
 11
145.9999999999969
 21
17.0
 31
0.0
  0
MTEXT
  5
2448
330
A
100
AcDbEntity
  8
MOJI
100
AcDbMText
 10
185.9999999999969
 20
29.00000000000011
 30
0.0
 40
7.0
 41
80.0
 71
     5
 72
     1
  1
Ｍ３台板
  7
0_8
1001
ACAD
1000
MTEXTBEGIN
1070
    73
1070
     1
1070
    44
1040
1.0
1070
    74
1070
     0
1000
MTEXTEND
1000
MTEXTBEGIN
1070
    73
1070
     1
1070
    44
1040
1.0
1070
    74
1070
     0
1000
MTEXTEND
  0
LINE
  5
244A
330
A
100
AcDbEntity
  8
SAISEN
100
AcDbLine
 10
225.999999999997
 20
41.00000000000022
 30
0.0
 11
225.999999999997
 21
17.0
 31
0.0
  0
LINE
  5
244B
330
A
100
AcDbEntity
  8
SAISEN
100
AcDbLine
 10
285.999999999997
 20
41.00000000000022
 30
0.0
 11
285.999999999997
 21
17.0
 31
0.0
  0
MTEXT
  5
244C
330
A
100
AcDbEntity
  8
MOJI
100
AcDbMText
 10
90.89194499017381
 20
28.52455795677803
 30
0.0
 40
6.5
 41
110.0
 71
     5
 72
     1
  1
ステンレスサッシ　枠見込１２０mm\Pユニット台板納り
  7
0_8
1001
ACAD
1000
MTEXTBEGIN
1070
    73
1070
     1
1070
    44
1040
1.0
1070
    74
1070
     0
1000
MTEXTEND
1000
MTEXTBEGIN
1070
    73
1070
     1
1070
    44
1040
1.0
1070
    74
1070
     0
1000
MTEXTEND
  0
MTEXT
  5
2468
330
A
100
AcDbEntity
  8
MOJI
100
AcDbMText
 10
255.9999999999969
 20
29.00000000000011
 30
0.0
 40
7.0
 41
60.0
 71
     5
 72
     1
  1
片引き又は両引き
  7
0_80
1001
ACAD
1000
MTEXTBEGIN
1070
    73
1070
     1
1070
    44
1040
1.0
1070
    74
1070
     0
1000
MTEXTEND
1000
MTEXTBEGIN
1070
    73
1070
     1
1070
    44
1040
1.0
1070
    74
1070
     0
1000
MTEXTEND
  0
VIEWPORT
  5
C30
102
{ACAD_XDICTIONARY
360
2495
102
}
330
B
100
AcDbEntity
 67
     1
  8
0
100
AcDbViewport
 10
198.0712901201981
 20
285.1874510719598
 30
0.0
 40
1078.289206567436
 41
628.3220349619981
 68
     1
 69
     1
1001
ACAD
1000
MVIEW
1002
{
1070
    16
1010
0.0
1020
0.0
1030
0.0
1010
0.0
1020
0.0
1030
1.0
1040
0.0
1040
628.3220349619981
1040
198.0712901201981
1040
285.1874510719598
1040
50.0
1040
0.0
1040
0.0
1070
     0
1070
   100
1070
     1
1070
     1
1070
     0
1070
     0
1070
     0
1070
     0
1040
0.0
1040
0.0
1040
0.0
1040
10.0
1040
10.0
1040
10.0
1040
10.0
1070
     0
1002
{
1002
}
1002
}
  0
VIEWPORT
  5
247D
102
{ACAD_XDICTIONARY
360
249B
102
}
330
B
100
AcDbEntity
 67
     1
  8
DEFPOINTS
100
AcDbViewport
 10
198.0712910739129
 20
285.1874501182452
 30
0.0
 40
396.4684615431749
 41
570.3811706726329
 68
     2
 69
     2
1001
ACAD
1000
MVIEW
1002
{
1070
    16
1010
0.0
1020
0.0
1030
0.0
1010
0.0
1020
0.0
1030
1.0
1040
0.0
1040
570.3811706726329
1040
210.0
1040
297.0
1040
50.0
1040
0.0
1040
0.0
1070
     0
1070
   100
1070
     1
1070
     1
1070
     0
1070
     0
1070
     0
1070
     0
1040
0.0
1040
0.0
1040
0.0
1040
1.0
1040
1.0
1040
0.0
1040
0.0
1070
     0
1002
{
1002
}
1002
}
  0
ENDSEC
  0
SECTION
  2
OBJECTS
  0
DICTIONARY
  5
19
330
0
100
AcDbDictionary
  3
ACAD_COLOR
350
C19
  3
ACAD_GROUP
350
1A
  3
ACAD_LAYOUT
350
5E8
  3
ACAD_MATERIAL
350
C18
  3
ACAD_MLINESTYLE
350
1B
  3
ACAD_PLOTSETTINGS
350
5E9
  3
ACADDIM
350
B48
  3
ASE_INDEX_DICTIONARY
350
242F
  3
DWGPROPS
350
2491
1001
ACAD
1000
TREAT_AS_HARD
1070
     0
1000
TREAT_AS_HARD
1070
     0
1000
TREAT_AS_HARD
1070
     0
  0
DICTIONARY
  5
2434
330
2
100
AcDbDictionary
  3
ACAD_LAYERSTATES
350
2435
1001
ACAD
1000
TREAT_AS_HARD
1070
     1
  0
DICTIONARY
  5
2353
330
A
100
AcDbDictionary
  3
ACAD_LAYOUTSELFREF
350
24A3
1001
ACAD
1000
TREAT_AS_HARD
1070
     0
1000
TREAT_AS_HARD
1070
     1
  0
DICTIONARY
  5
2355
330
B
100
AcDbDictionary
  3
ACAD_LAYOUTSELFREF
350
24A4
1001
ACAD
1000
TREAT_AS_HARD
1070
     0
1000
TREAT_AS_HARD
1070
     1
  0
DICTIONARY
  5
2495
330
C30
100
AcDbDictionary
  3
ACAD_XREC_ROUNDTRIP
350
2496
1001
ACAD
1000
TREAT_AS_HARD
1070
     1
  0
DICTIONARY
  5
249B
330
247D
100
AcDbDictionary
  3
ACAD_XREC_ROUNDTRIP
350
249C
1001
ACAD
1000
TREAT_AS_HARD
1070
     1
  0
DICTIONARY
  5
C19
102
{ACAD_REACTORS
330
19
102
}
330
19
100
AcDbDictionary
1001
ACAD
1000
TREAT_AS_HARD
1070
     0
1000
TREAT_AS_HARD
1070
     0
1000
TREAT_AS_HARD
1070
     0
  0
DICTIONARY
  5
1A
102
{ACAD_REACTORS
330
19
102
}
330
19
100
AcDbDictionary
  3
DAGROUP50F
350
50F
1001
ACAD
1000
TREAT_AS_HARD
1070
     0
1000
TREAT_AS_HARD
1070
     0
1000
TREAT_AS_HARD
1070
     0
  0
DICTIONARY
  5
5E8
102
{ACAD_REACTORS
330
19
102
}
330
19
100
AcDbDictionary
1001
ACAD
1000
TREAT_AS_HARD
1070
     0
1000
TREAT_AS_HARD
1070
     0
1000
TREAT_AS_HARD
1070
     0
  0
DICTIONARY
  5
C18
102
{ACAD_REACTORS
330
19
102
}
330
19
100
AcDbDictionary
1001
ACAD
1000
TREAT_AS_HARD
1070
     0
1000
TREAT_AS_HARD
1070
     0
1000
TREAT_AS_HARD
1070
     0
  0
DICTIONARY
  5
1B
102
{ACAD_REACTORS
330
19
102
}
330
19
100
AcDbDictionary
  3
STANDARD
350
1C
1001
ACAD
1000
TREAT_AS_HARD
1070
     0
1000
TREAT_AS_HARD
1070
     0
1000
TREAT_AS_HARD
1070
     0
  0
DICTIONARY
  5
5E9
102
{ACAD_REACTORS
330
19
102
}
330
19
100
AcDbDictionary
1001
ACAD
1000
TREAT_AS_HARD
1070
     0
1000
TREAT_AS_HARD
1070
     0
1000
TREAT_AS_HARD
1070
     0
  0
XRECORD
  5
B48
102
{ACAD_REACTORS
330
19
102
}
330
19
100
AcDbXrecord
 90
   990106
  3

 60
     0
 61
     0
 62
     1
 63
     3
 64
     1
 65
     0
 66
     0
 67
     3
 68
     1
 69
     0
 70
     0
 71
     0
 72
     0
 40
0.0
170
     2
340
D64
  0
DICTIONARY
  5
242F
102
{ACAD_REACTORS
330
19
102
}
330
19
100
AcDbDictionary
  3
ASEBLOCKHIERARCHYINDEXRECORD
350
2430
1001
DCO15
1040
1508669033.734
1001
ACAD
1000
TREAT_AS_HARD
1070
     0
  0
XRECORD
  5
2491
102
{ACAD_REACTORS
330
19
102
}
330
19
100
AcDbXrecord
  1
DWGPROPS COOKIE
  2

  3

  4

  6

  7

  8

  9

300
=
301
=
302
=
303
=
304
=
305
=
306
=
307
=
308
=
309
=
 40
0.4191777199074075
 41
2444972.375
 42
2453265.758305844
  1

 90
        0
  0
DICTIONARY
  5
2435
102
{ACAD_REACTORS
330
2434
102
}
330
2434
100
AcDbDictionary
1001
ACAD
1000
TREAT_AS_HARD
1070
     0
  0
XRECORD
  5
24A3
102
{ACAD_REACTORS
330
2353
102
}
330
2353
100
AcDbXrecord
340
A
  0
XRECORD
  5
24A4
102
{ACAD_REACTORS
330
2355
102
}
330
2355
100
AcDbXrecord
340
B
  0
XRECORD
  5
2496
102
{ACAD_REACTORS
330
2495
102
}
330
2495
100
AcDbXrecord
102
SHADEPLOT
 70
     0
  0
XRECORD
  5
249C
102
{ACAD_REACTORS
330
249B
102
}
330
249B
100
AcDbXrecord
102
SHADEPLOT
 70
     0
  0
GROUP
  5
50F
102
{ACAD_REACTORS
330
1A
102
}
330
1A
100
AcDbGroup
300

 70
     0
 71
     1
  0
MLINESTYLE
  5
1C
102
{ACAD_REACTORS
330
1B
102
}
330
1B
100
AcDbMlineStyle
  2
STANDARD
 70
     0
  3

 62
     0
 51
90.00000000000019
 52
90.00000000000019
 71
     2
 49
0.5
 62
   256
  6
BYLAYER
 49
-0.5
 62
   256
  6
BYLAYER
  0
XRECORD
  5
2430
102
{ACAD_REACTORS
330
242F
102
}
330
242F
100
AcDbXrecord
330
B8D
330
B9E
330
11CD
330
F34
330
F35
330
F3C
330
F3D
330
F48
330
F49
330
1248
330
1249
330
2372
330
2373
330
2384
330
2385
330
F76
330
F77
330
F7F
330
F80
330
F88
330
F89
330
2393
330
2394
330
239E
330
239F
330
FA8
330
FA9
330
FB3
330
FB4
330
FBC
330
FBD
330
23A9
330
23B0
330
23B1
330
23BC
330
FE2
330
FE3
330
FED
330
FEE
330
FF5
330
FF6
330
FFE
330
FFF
330
1007
330
1008
330
1010
330
1011
330
1019
330
101A
330
1022
330
1023
330
102B
330
102C
330
1034
330
1035
330
103D
330
103E
330
1049
330
104A
330
1894
330
1895
330
189D
330
189E
330
18D8
330
18D9
330
1889
330
188A
330
1880
330
1881
330
1189
330
118A
330
18B3
330
18B4
330
18C0
330
18C1
  0
ENDSEC
  0
EOF
