  0
SECTION
  2
HEADER
  9
$ACADVER
  1
AC1012
  9
$DWGCODEPAGE
  3
dos932
  9
$INSBASE
 10
0.0
 20
0.0
 30
0.0
  9
$EXTMIN
 10
-1.0
 20
-0.1666666666666666
 30
0.0
  9
$EXTMAX
 10
420.0
 20
594.0
 30
0.0
  9
$LIMMIN
 10
0.0
 20
0.0
  9
$LIMMAX
 10
420.0
 20
594.0
  9
$ORTHOMODE
 70
     1
  9
$REGENMODE
 70
     1
  9
$FILLMODE
 70
     1
  9
$QTEXTMODE
 70
     0
  9
$MIRRTEXT
 70
     1
  9
$DRAGMODE
 70
     2
  9
$LTSCALE
 40
0.3
  9
$OSMODE
 70
    37
  9
$ATTMODE
 70
     1
  9
$TEXTSIZE
 40
3.5
  9
$TRACEWID
 40
0.05
  9
$TEXTSTYLE
  7
SUNPOU
  9
$CLAYER
  8
DEFPOINTS
  9
$CELTYPE
  6
BYLAYER
  9
$CECOLOR
 62
   256
  9
$CELTSCALE
 40
1.0
  9
$DELOBJ
 70
     1
  9
$DISPSILH
 70
     0
  9
$DIMSCALE
 40
2.0
  9
$DIMASZ
 40
2.5
  9
$DIMEXO
 40
1.5
  9
$DIMDLI
 40
0.0
  9
$DIMRND
 40
0.0
  9
$DIMDLE
 40
0.0
  9
$DIMEXE
 40
1.0
  9
$DIMTP
 40
0.0
  9
$DIMTM
 40
0.0
  9
$DIMTXT
 40
2.5
  9
$DIMCEN
 40
0.0
  9
$DIMTSZ
 40
0.0
  9
$DIMTOL
 70
     0
  9
$DIMLIM
 70
     0
  9
$DIMTIH
 70
     0
  9
$DIMTOH
 70
     0
  9
$DIMSE1
 70
     0
  9
$DIMSE2
 70
     0
  9
$DIMTAD
 70
     1
  9
$DIMZIN
 70
     8
  9
$DIMBLK
  1
OPEN30
  9
$DIMASO
 70
     1
  9
$DIMSHO
 70
     1
  9
$DIMPOST
  1

  9
$DIMAPOST
  1

  9
$DIMALT
 70
     0
  9
$DIMALTD
 70
     2
  9
$DIMALTF
 40
25.4
  9
$DIMLFAC
 40
1.0
  9
$DIMTOFL
 70
     1
  9
$DIMTVP
 40
0.0
  9
$DIMTIX
 70
     0
  9
$DIMSOXD
 70
     0
  9
$DIMSAH
 70
     0
  9
$DIMBLK1
  1

  9
$DIMBLK2
  1

  9
$DIMSTYLE
  2
SUNPOU_2
  9
$DIMCLRD
 70
   256
  9
$DIMCLRE
 70
   256
  9
$DIMCLRT
 70
   256
  9
$DIMTFAC
 40
1.0
  9
$DIMGAP
 40
1.0
  9
$DIMJUST
 70
     0
  9
$DIMSD1
 70
     0
  9
$DIMSD2
 70
     0
  9
$DIMTOLJ
 70
     1
  9
$DIMTZIN
 70
     0
  9
$DIMALTZ
 70
     0
  9
$DIMALTTZ
 70
     0
  9
$DIMFIT
 70
     3
  9
$DIMUPT
 70
     0
  9
$DIMUNIT
 70
     2
  9
$DIMDEC
 70
     1
  9
$DIMTDEC
 70
     1
  9
$DIMALTU
 70
     2
  9
$DIMALTTD
 70
     2
  9
$DIMTXSTY
  7
SUNPOU
  9
$DIMAUNIT
 70
     0
  9
$LUNITS
 70
     2
  9
$LUPREC
 70
     4
  9
$SKETCHINC
 40
0.1
  9
$FILLETRAD
 40
0.0
  9
$AUNITS
 70
     0
  9
$AUPREC
 70
     0
  9
$MENU
  1
acad
  9
$ELEVATION
 40
0.0
  9
$PELEVATION
 40
0.0
  9
$THICKNESS
 40
0.0
  9
$LIMCHECK
 70
     0
  9
$BLIPMODE
 70
     0
  9
$CHAMFERA
 40
0.0
  9
$CHAMFERB
 40
0.0
  9
$CHAMFERC
 40
0.0
  9
$CHAMFERD
 40
0.0
  9
$SKPOLY
 70
     0
  9
$TDCREATE
 40
2444972.375000000
  9
$TDUPDATE
 40
2453266.402959155
  9
$TDINDWG
 40
0.2527510764
  9
$TDUSRTIMER
 40
0.2527508912
  9
$USRTIMER
 70
     1
  9
$ANGBASE
 50
0.0
  9
$ANGDIR
 70
     0
  9
$PDMODE
 70
     0
  9
$PDSIZE
 40
1.0
  9
$PLINEWID
 40
0.0
  9
$COORDS
 70
     1
  9
$SPLFRAME
 70
     0
  9
$SPLINETYPE
 70
     6
  9
$SPLINESEGS
 70
     8
  9
$ATTDIA
 70
     0
  9
$ATTREQ
 70
     1
  9
$HANDLING
 70
-16383
  9
$HANDSEED
  5
123A
  9
$SURFTAB1
 70
     6
  9
$SURFTAB2
 70
     6
  9
$SURFTYPE
 70
     6
  9
$SURFU
 70
     6
  9
$SURFV
 70
     6
  9
$UCSNAME
  2

  9
$UCSORG
 10
0.0
 20
0.0
 30
0.0
  9
$UCSXDIR
 10
1.0
 20
0.0
 30
0.0
  9
$UCSYDIR
 10
0.0
 20
1.0
 30
0.0
  9
$PUCSNAME
  2

  9
$PUCSORG
 10
0.0
 20
0.0
 30
0.0
  9
$PUCSXDIR
 10
1.0
 20
0.0
 30
0.0
  9
$PUCSYDIR
 10
0.0
 20
1.0
 30
0.0
  9
$USERI1
 70
     0
  9
$USERI2
 70
     0
  9
$USERI3
 70
     0
  9
$USERI4
 70
     0
  9
$USERI5
 70
     0
  9
$USERR1
 40
0.0
  9
$USERR2
 40
0.0
  9
$USERR3
 40
0.0
  9
$USERR4
 40
0.0
  9
$USERR5
 40
0.0
  9
$WORLDVIEW
 70
     1
  9
$SHADEDGE
 70
     3
  9
$SHADEDIF
 70
    70
  9
$TILEMODE
 70
     1
  9
$MAXACTVP
 70
    16
  9
$PINSBASE
 10
0.0
 20
0.0
 30
0.0
  9
$PLIMCHECK
 70
     0
  9
$PEXTMIN
 10
-0.2055473772918503
 20
-0.0174202791267817
 30
-0.0015258207003583
  9
$PEXTMAX
 10
396.3139079836237
 20
570.3923158424973
 30
0.0000000349246037
  9
$PLIMMIN
 10
-11.94191342824454
 20
-11.76600219398141
  9
$PLIMMAX
 10
408.0435733360149
 20
582.1408996648768
  9
$UNITMODE
 70
     0
  9
$VISRETAIN
 70
     0
  9
$PLINEGEN
 70
     1
  9
$PSLTSCALE
 70
     0
  9
$TREEDEPTH
 70
  3020
  9
$PICKSTYLE
 70
     1
  9
$CMLSTYLE
  2
STANDARD
  9
$CMLJUST
 70
     0
  9
$CMLSCALE
 40
1.0
  9
$SAVEIMAGES
 70
     1
  0
ENDSEC
  0
SECTION
  2
CLASSES
  0
CLASS
  1
LWPOLYLINE
  2
AcDbPolyline
  3
AutoCAD 2000
 90
    32768
280
     0
281
     1
  0
CLASS
  1
IMAGE
  2
AcDbRasterImage
  3
ISM
 90
    32895
280
     0
281
     1
  0
CLASS
  1
OLE2FRAME
  2
AcDbOle2Frame
  3
AutoCAD 2000
 90
    32768
280
     0
281
     1
  0
CLASS
  1
HATCH
  2
AcDbHatch
  3
AutoCAD 2000
 90
    32768
280
     0
281
     1
  0
CLASS
  1
DICTIONARYVAR
  2
AcDbDictionaryVar
  3
AutoCAD 2000
 90
    32768
280
     0
281
     0
  0
CLASS
  1
RASTERVARIABLES
  2
AcDbRasterVariables
  3
ISM
 90
    32768
280
     0
281
     0
  0
CLASS
  1
IMAGEDEF
  2
AcDbRasterImageDef
  3
ISM
 90
    32768
280
     0
281
     0
  0
CLASS
  1
IMAGEDEF_REACTOR
  2
AcDbRasterImageDefReactor
  3
ISM
 90
    32769
280
     0
281
     0
  0
CLASS
  1
IDBUFFER
  2
AcDbIdBuffer
  3
AutoCAD 2000
 90
    32768
280
     0
281
     0
  0
CLASS
  1
SPATIAL_FILTER
  2
AcDbSpatialFilter
  3
AutoCAD 2000
 90
    32768
280
     0
281
     0
  0
CLASS
  1
XRECORD
  2
AcDbXrecord
  3
AutoCAD 2000
 90
    32768
280
     0
281
     0
  0
CLASS
  1
SORTENTSTABLE
  2
AcDbSortentsTable
  3
AutoCAD 2000
 90
    32768
280
     0
281
     0
  0
CLASS
  1
LAYER_INDEX
  2
AcDbLayerIndex
  3
AutoCAD 2000
 90
    32768
280
     0
281
     0
  0
CLASS
  1
SPATIAL_INDEX
  2
AcDbSpatialIndex
  3
AutoCAD 2000
 90
    32768
280
     0
281
     0
  0
CLASS
  1
OBJECT_PTR
  2
CAseDLPNTableRecord
  3
ASE-LPNTableRecord
 90
    32769
280
     0
281
     0
  0
CLASS
  1
ACDBDICTIONARYWDFLT
  2
AcDbDictionaryWithDefault
  3
AutoCAD 2000
 90
    32768
280
     0
281
     0
  0
CLASS
  1
ACDBPLACEHOLDER
  2
AcDbPlaceHolder
  3
AutoCAD 2000
 90
    32768
280
     0
281
     0
  0
CLASS
  1
LAYOUT
  2
AcDbLayout
  3
AutoCAD 2000
 90
    32768
280
     0
281
     0
  0
CLASS
  1
LONG_TRANSACTION
  2
AcDbLongTransaction
  3
AutoCAD 2000
 90
    32768
280
     0
281
     0
  0
CLASS
  1
LWPOLYLINE
  2
AcDbPolyline
  3
AutoCAD 2000
 90
    32768
280
     0
281
     1
  0
CLASS
  1
HATCH
  2
AcDbHatch
  3
AutoCAD 2000
 90
    32768
280
     0
281
     1
  0
CLASS
  1
XRECORD
  2
AcDbXrecord
  3
AutoCAD 2000
 90
    32768
280
     0
281
     0
  0
CLASS
  1
LONG_TRANSACTION
  2
AcDbLongTransaction
  3
AutoCAD 2000
 90
    32768
280
     0
281
     0
  0
CLASS
  1
LWPOLYLINE
  2
AcDbPolyline
  3
AutoCAD 2000
 90
    32768
280
     0
281
     1
  0
CLASS
  1
HATCH
  2
AcDbHatch
  3
AutoCAD 2000
 90
    32768
280
     0
281
     1
  0
CLASS
  1
XRECORD
  2
AcDbXrecord
  3
AutoCAD 2000
 90
    32768
280
     0
281
     0
  0
ENDSEC
  0
SECTION
  2
TABLES
  0
TABLE
  2
VPORT
  5
7
330
0
100
AcDbSymbolTable
 70
     2
  0
VPORT
  5
1221
330
7
100
AcDbSymbolTableRecord
100
AcDbViewportTableRecord
  2
*ACTIVE
 70
     0
 10
0.0
 20
0.0
 11
1.0
 21
1.0
 12
228.8239100971782
 22
296.9166760052114
 13
0.0
 23
0.0
 14
1.0
 24
1.0
 15
0.0
 25
0.0
 16
0.0
 26
0.0
 36
1.0
 17
0.0
 27
0.0
 37
0.0
 40
601.1086067997646
 41
1.780442804428044
 42
50.0
 43
0.0
 44
0.0
 50
0.0
 51
0.0
 71
     0
 72
   100
 73
     1
 74
     1
 75
     0
 76
     0
 77
     0
 78
     0
  0
ENDTAB
  0
TABLE
  2
LTYPE
  5
4
330
0
100
AcDbSymbolTable
 70
     4
  0
LTYPE
  5
11
330
4
100
AcDbSymbolTableRecord
100
AcDbLinetypeTableRecord
  2
BYBLOCK
 70
     0
  3

 72
    65
 73
     0
 40
0.0
  0
LTYPE
  5
12
330
4
100
AcDbSymbolTableRecord
100
AcDbLinetypeTableRecord
  2
BYLAYER
 70
     0
  3

 72
    65
 73
     0
 40
0.0
  0
LTYPE
  5
13
330
4
100
AcDbSymbolTableRecord
100
AcDbLinetypeTableRecord
  2
CONTINUOUS
 70
     0
  3
Solid line
 72
    65
 73
     0
 40
0.0
  0
LTYPE
  5
843
330
4
100
AcDbSymbolTableRecord
100
AcDbLinetypeTableRecord
  2
PHANTOM2
 70
     0
  3
Phantom (.5x) ___ _ _ ___ _ _ ___ _ _ ___ _ _
 72
    65
 73
     6
 40
31.75
 49
15.875
 74
     0
 49
-3.174999999999998
 74
     0
 49
3.174999999999998
 74
     0
 49
-3.174999999999998
 74
     0
 49
3.174999999999998
 74
     0
 49
-3.174999999999998
 74
     0
  0
LTYPE
  5
9F3
330
4
100
AcDbSymbolTableRecord
100
AcDbLinetypeTableRecord
  2
CENTER2
 70
     0
  3
Center (.5x) ___ _ ___ _ ___ _ ___ _ ___ _ ___
 72
    65
 73
     4
 40
28.57499999999999
 49
19.05
 74
     0
 49
-3.174999999999998
 74
     0
 49
3.174999999999998
 74
     0
 49
-3.174999999999998
 74
     0
  0
LTYPE
  5
9F4
330
4
100
AcDbSymbolTableRecord
100
AcDbLinetypeTableRecord
  2
DASHED2
 70
     0
  3
Dashed (.5x) _ _ _ _ _ _ _ _ _ _ _ _ _ _ _ _ _
 72
    65
 73
     2
 40
9.524999999999996
 49
6.349999999999998
 74
     0
 49
-3.174999999999998
 74
     0
  0
ENDTAB
  0
TABLE
  2
LAYER
  5
2
102
{ACAD_XDICTIONARY
360
11B8
102
}
330
0
100
AcDbSymbolTable
 70
    12
  0
LAYER
  5
14
330
2
100
AcDbSymbolTableRecord
100
AcDbLayerTableRecord
  2
0
 70
     0
 62
     7
  6
CONTINUOUS
  0
LAYER
  5
50F
330
2
100
AcDbSymbolTableRecord
100
AcDbLayerTableRecord
  2
DEFPOINTS
 70
     0
 62
     7
  6
CONTINUOUS
  0
LAYER
  5
511
330
2
100
AcDbSymbolTableRecord
100
AcDbLayerTableRecord
  2
03
 70
     0
 62
     3
  6
CONTINUOUS
  0
LAYER
  5
512
330
2
100
AcDbSymbolTableRecord
100
AcDbLayerTableRecord
  2
04
 70
     0
 62
     4
  6
CONTINUOUS
  0
LAYER
  5
515
330
2
100
AcDbSymbolTableRecord
100
AcDbLayerTableRecord
  2
CHUSIN
 70
     0
 62
     6
  6
CENTER2
  0
LAYER
  5
516
330
2
100
AcDbSymbolTableRecord
100
AcDbLayerTableRecord
  2
HIKIDASI
 70
     0
 62
     6
  6
CONTINUOUS
  0
LAYER
  5
517
330
2
100
AcDbSymbolTableRecord
100
AcDbLayerTableRecord
  2
KAKURE
 70
     0
 62
     6
  6
DASHED2
  0
LAYER
  5
518
330
2
100
AcDbSymbolTableRecord
100
AcDbLayerTableRecord
  2
MOJI
 70
     0
 62
     3
  6
CONTINUOUS
  0
LAYER
  5
519
330
2
100
AcDbSymbolTableRecord
100
AcDbLayerTableRecord
  2
SOUZOU
 70
     0
 62
     6
  6
PHANTOM2
  0
LAYER
  5
51A
330
2
100
AcDbSymbolTableRecord
100
AcDbLayerTableRecord
  2
SUNPOU
 70
     0
 62
     6
  6
CONTINUOUS
  0
LAYER
  5
CA4
330
2
100
AcDbSymbolTableRecord
100
AcDbLayerTableRecord
  2
SAISEN
 70
     0
 62
     3
  6
CONTINUOUS
  0
LAYER
  5
EC7
330
2
100
AcDbSymbolTableRecord
100
AcDbLayerTableRecord
  2
06
 70
     0
 62
     6
  6
CONTINUOUS
  0
ENDTAB
  0
TABLE
  2
STYLE
  5
3
330
0
100
AcDbSymbolTable
 70
     4
  0
STYLE
  5
17
330
3
100
AcDbSymbolTableRecord
100
AcDbTextStyleTableRecord
  2
STANDARD
 70
     0
 40
0.0
 41
0.9
 50
0.0
 71
     0
 42
7.0
  3
txt.shx
  4
bigfont.shx
  0
STYLE
  5
531
330
3
100
AcDbSymbolTableRecord
100
AcDbTextStyleTableRecord
  2
SUNPOU
 70
     0
 40
0.0
 41
0.8
 50
0.0
 71
     0
 42
3.5
  3
txt.shx
  4
extfont.shx
  0
STYLE
  5
9BB
330
3
100
AcDbSymbolTableRecord
100
AcDbTextStyleTableRecord
  2
0_8
 70
     0
 40
0.0
 41
0.8
 50
0.0
 71
     0
 42
6.0
  3
txt.shx
  4
extfont.shx
  0
STYLE
  5
11B6
330
3
100
AcDbSymbolTableRecord
100
AcDbTextStyleTableRecord
  2
0_80
 70
     0
 40
0.0
 41
0.8
 50
0.0
 71
     0
 42
7.0
  3
txt.shx
  4
extfont.shx
  0
ENDTAB
  0
TABLE
  2
VIEW
  5
5
330
0
100
AcDbSymbolTable
 70
     1
  0
VIEW
  5
136
330
5
100
AcDbSymbolTableRecord
100
AcDbViewTableRecord
  2
QQQQ
 70
     0
 40
618.7999999999998
 10
-6.0
 20
-1.0
 41
419.8999999999999
 11
0.0
 21
0.0
 31
1.0
 12
100.0
 22
100.0
 32
0.0
 42
50.0
 43
0.0
 44
0.0
 50
0.0
 71
     0
  0
ENDTAB
  0
TABLE
  2
UCS
  5
6
330
0
100
AcDbSymbolTable
 70
     0
  0
ENDTAB
  0
TABLE
  2
APPID
  5
8
330
0
100
AcDbSymbolTable
 70
     3
  0
APPID
  5
16
330
8
100
AcDbSymbolTableRecord
100
AcDbRegAppTableRecord
  2
ACAD
 70
     0
  0
APPID
  5
AF0
330
8
100
AcDbSymbolTableRecord
100
AcDbRegAppTableRecord
  2
DCO15
 70
     0
  0
APPID
  5
10F7
330
8
100
AcDbSymbolTableRecord
100
AcDbRegAppTableRecord
  2
CONTENTBLOCKICON
 70
     0
  0
ENDTAB
  0
TABLE
  2
DIMSTYLE
  5
9
330
0
100
AcDbSymbolTable
 70
     1
  0
DIMSTYLE
105
B92
102
{ACAD_REACTORS
330
72A
330
710
330
6FA
330
6ED
330
6E0
330
69F
330
675
330
668
330
659
330
64C
330
632
330
54B
330
830
330
833
330
835
330
838
330
83D
102
}
330
9
100
AcDbSymbolTableRecord
100
AcDbDimStyleTableRecord
  2
SUNPOU_2
 70
     0
  3

  4

  5
OPEN30
  6

  7

 40
2.0
 41
2.5
 42
1.5
 43
0.0
 44
1.0
 45
0.0
 46
0.0
 47
0.0
 48
0.0
140
2.5
141
0.0
142
0.0
143
25.4
144
1.0
145
0.0
146
1.0
147
1.0
 71
     0
 72
     0
 73
     0
 74
     0
 75
     0
 76
     0
 77
     1
 78
     8
170
     0
171
     2
172
     1
173
     0
174
     0
175
     0
176
   256
177
   256
178
   256
270
     2
271
     1
272
     1
273
     2
274
     2
340
531
275
     0
280
     0
281
     0
282
     0
283
     1
284
     0
285
     0
286
     0
287
     3
288
     0
  0
ENDTAB
  0
TABLE
  2
BLOCK_RECORD
  5
1
330
0
100
AcDbSymbolTable
 70
    16
  0
BLOCK_RECORD
  5
A
102
{ACAD_XDICTIONARY
360
10F3
102
}
330
1
100
AcDbSymbolTableRecord
100
AcDbBlockTableRecord
  2
*MODEL_SPACE
  0
BLOCK_RECORD
  5
B
102
{ACAD_XDICTIONARY
360
10F5
102
}
330
1
100
AcDbSymbolTableRecord
100
AcDbBlockTableRecord
  2
*PAPER_SPACE
  0
BLOCK_RECORD
  5
51F
330
1
100
AcDbSymbolTableRecord
100
AcDbBlockTableRecord
  2
_OPEN
1001
CONTENTBLOCKICON
1071
        0
1004
2800000020000000200000000100080000000000000400000000000000000000000000000000000000000000000080000080000000808000800000008000800080800000C0C0C000C0DCC000F0CAA6000020400000206000002080000020A0000020C0000020E00000400000004020000040400000406000004080000040A0
1004
000040C0000040E00000600000006020000060400000606000006080000060A0000060C0000060E00000800000008020000080400000806000008080000080A0000080C0000080E00000A0000000A0200000A0400000A0600000A0800000A0A00000A0C00000A0E00000C0000000C0200000C0400000C0600000C0800000C0
1004
A00000C0C00000C0E00000E0000000E0200000E0400000E0600000E0800000E0A00000E0C00000E0E00040000000400020004000400040006000400080004000A0004000C0004000E00040200000402020004020400040206000402080004020A0004020C0004020E000404000004040200040404000404060004040800040
1004
40A0004040C0004040E00040600000406020004060400040606000406080004060A0004060C0004060E00040800000408020004080400040806000408080004080A0004080C0004080E00040A0000040A0200040A0400040A0600040A0800040A0A00040A0C00040A0E00040C0000040C0200040C0400040C0600040C08000
1004
40C0A00040C0C00040C0E00040E0000040E0200040E0400040E0600040E0800040E0A00040E0C00040E0E00080000000800020008000400080006000800080008000A0008000C0008000E00080200000802020008020400080206000802080008020A0008020C0008020E00080400000804020008040400080406000804080
1004
008040A0008040C0008040E00080600000806020008060400080606000806080008060A0008060C0008060E00080800000808020008080400080806000808080008080A0008080C0008080E00080A0000080A0200080A0400080A0600080A0800080A0A00080A0C00080A0E00080C0000080C0200080C0400080C0600080C0
1004
800080C0A00080C0C00080C0E00080E0000080E0200080E0400080E0600080E0800080E0A00080E0C00080E0E000C0000000C0002000C0004000C0006000C0008000C000A000C000C000C000E000C0200000C0202000C0204000C0206000C0208000C020A000C020C000C020E000C0400000C0402000C0404000C0406000C0
1004
408000C040A000C040C000C040E000C0600000C0602000C0604000C0606000C0608000C060A000C060C000C060E000C0800000C0802000C0804000C0806000C0808000C080A000C080C000C080E000C0A00000C0A02000C0A04000C0A06000C0A08000C0A0A000C0A0C000C0A0E000C0C00000C0C02000C0C04000C0C06000
1004
C0C08000C0C0A000F0FBFF00A4A0A000808080000000FF0000FF000000FFFF00FF000000FF00FF00FFFF0000FFFFFF0000000000000000000000000000000000000000000000000000000000000000000000000000000000000000000000000000000000000000000000000000000000000000000000000000000000000000
1004
00000000000000000000000000000000000000000000000000000000000000000000000000000000000000000000000000000000000000000000000000000000000000000000000000000000000000000000000000000000000000000000000000000000000000000000000000000000000000000000000000000000000000
1004
00000000000000000000000000000000000000000000000000000000000000000000000000000000000000000000000000000000000000000000000000000000000000000000000000000000000000000000000000000000000000000000000000000000000000000000000000000000000000000000000000000000000000
1004
0000000000000000000000000000000000000000FFFFFF0000000000000000000000000000000000000000000000000000000000000000FFFFFFFFFFFF0000000000000000000000000000000000000000000000000000000000000000FFFFFFFFFFFF00000000000000000000000000000000000000000000000000000000
1004
00000000FFFFFFFFFFFF0000000000000000000000000000000000000000000000000000000000000000FFFFFFFFFFFF0000000000FFFFFFFFFFFFFFFFFFFFFFFFFFFFFFFFFFFFFFFFFFFFFFFFFFFFFFFFFFFF000000000000000000000000000000000000000000FFFFFFFFFFFFFF00000000000000000000000000000000
1004
00FFFFFFFFFFFFFFFF0000000000000000000000000000000000FFFFFFFFFFFFFF000000000000000000000000000000000000000000FFFFFFFF000000000000000000000000000000000000000000000000000000000000000000000000000000000000000000000000000000000000000000000000000000000000000000
1004
00000000000000000000000000000000000000000000000000000000000000000000000000000000000000000000000000000000000000000000000000000000000000000000000000000000000000000000000000000000000000000000000000000000000000000000000000000000000000000000000000000000000000
1004
00000000000000000000000000000000000000000000000000000000000000000000000000000000000000000000000000000000000000000000000000000000000000000000000000000000000000000000000000000000000000000000000000000000000000000000000000000000000000000000000000000000000000
1004
0000000000000000000000000000000000000000000000000000000000000000000000000000000000000000000000000000000000000000
  0
BLOCK_RECORD
  5
54C
330
1
100
AcDbSymbolTableRecord
100
AcDbBlockTableRecord
  2
*D1
  0
BLOCK_RECORD
  5
633
330
1
100
AcDbSymbolTableRecord
100
AcDbBlockTableRecord
  2
*D2
  0
BLOCK_RECORD
  5
64D
330
1
100
AcDbSymbolTableRecord
100
AcDbBlockTableRecord
  2
*D3
  0
BLOCK_RECORD
  5
65A
330
1
100
AcDbSymbolTableRecord
100
AcDbBlockTableRecord
  2
*D4
  0
BLOCK_RECORD
  5
669
330
1
100
AcDbSymbolTableRecord
100
AcDbBlockTableRecord
  2
*D5
  0
BLOCK_RECORD
  5
676
330
1
100
AcDbSymbolTableRecord
100
AcDbBlockTableRecord
  2
*D6
  0
BLOCK_RECORD
  5
6A0
330
1
100
AcDbSymbolTableRecord
100
AcDbBlockTableRecord
  2
*D7
  0
BLOCK_RECORD
  5
6E1
330
1
100
AcDbSymbolTableRecord
100
AcDbBlockTableRecord
  2
*D8
  0
BLOCK_RECORD
  5
6EE
330
1
100
AcDbSymbolTableRecord
100
AcDbBlockTableRecord
  2
*D9
  0
BLOCK_RECORD
  5
6FB
330
1
100
AcDbSymbolTableRecord
100
AcDbBlockTableRecord
  2
*D10
  0
BLOCK_RECORD
  5
711
330
1
100
AcDbSymbolTableRecord
100
AcDbBlockTableRecord
  2
*D11
  0
BLOCK_RECORD
  5
72B
330
1
100
AcDbSymbolTableRecord
100
AcDbBlockTableRecord
  2
*D12
  0
BLOCK_RECORD
  5
B09
330
1
100
AcDbSymbolTableRecord
100
AcDbBlockTableRecord
  2
_OPEN30
1001
CONTENTBLOCKICON
1071
        0
1004
2800000020000000200000000100080000000000000400000000000000000000000000000000000000000000000080000080000000808000800000008000800080800000C0C0C000C0DCC000F0CAA6000020400000206000002080000020A0000020C0000020E00000400000004020000040400000406000004080000040A0
1004
000040C0000040E00000600000006020000060400000606000006080000060A0000060C0000060E00000800000008020000080400000806000008080000080A0000080C0000080E00000A0000000A0200000A0400000A0600000A0800000A0A00000A0C00000A0E00000C0000000C0200000C0400000C0600000C0800000C0
1004
A00000C0C00000C0E00000E0000000E0200000E0400000E0600000E0800000E0A00000E0C00000E0E00040000000400020004000400040006000400080004000A0004000C0004000E00040200000402020004020400040206000402080004020A0004020C0004020E000404000004040200040404000404060004040800040
1004
40A0004040C0004040E00040600000406020004060400040606000406080004060A0004060C0004060E00040800000408020004080400040806000408080004080A0004080C0004080E00040A0000040A0200040A0400040A0600040A0800040A0A00040A0C00040A0E00040C0000040C0200040C0400040C0600040C08000
1004
40C0A00040C0C00040C0E00040E0000040E0200040E0400040E0600040E0800040E0A00040E0C00040E0E00080000000800020008000400080006000800080008000A0008000C0008000E00080200000802020008020400080206000802080008020A0008020C0008020E00080400000804020008040400080406000804080
1004
008040A0008040C0008040E00080600000806020008060400080606000806080008060A0008060C0008060E00080800000808020008080400080806000808080008080A0008080C0008080E00080A0000080A0200080A0400080A0600080A0800080A0A00080A0C00080A0E00080C0000080C0200080C0400080C0600080C0
1004
800080C0A00080C0C00080C0E00080E0000080E0200080E0400080E0600080E0800080E0A00080E0C00080E0E000C0000000C0002000C0004000C0006000C0008000C000A000C000C000C000E000C0200000C0202000C0204000C0206000C0208000C020A000C020C000C020E000C0400000C0402000C0404000C0406000C0
1004
408000C040A000C040C000C040E000C0600000C0602000C0604000C0606000C0608000C060A000C060C000C060E000C0800000C0802000C0804000C0806000C0808000C080A000C080C000C080E000C0A00000C0A02000C0A04000C0A06000C0A08000C0A0A000C0A0C000C0A0E000C0C00000C0C02000C0C04000C0C06000
1004
C0C08000C0C0A000F0FBFF00A4A0A000808080000000FF0000FF000000FFFF00FF000000FF00FF00FFFF0000FFFFFF0000000000000000000000000000000000000000000000000000000000000000000000000000000000000000000000000000000000000000000000000000000000000000000000000000000000000000
1004
00000000000000000000000000000000000000000000000000000000000000000000000000000000000000000000000000000000000000000000000000000000000000000000000000000000000000000000000000000000000000000000000000000000000000000000000000000000000000000000000000000000000000
1004
000000000000000000000000000000000000000000000000000000000000000000000000000000000000000000000000000000FFFF0000000000000000000000000000000000000000000000000000000000000000FFFFFFFF0000000000000000000000000000000000000000000000000000000000000000FFFFFFFF0000
1004
000000000000000000000000000000000000000000000000000000000000FFFFFF0000000000000000000000000000000000000000000000000000000000000000FFFFFFFF0000000000000000000000000000000000000000000000000000000000000000FFFFFF0000000000000000000000000000000000000000000000
1004
000000000000000000FFFFFFFF0000000000000000000000000000000000000000000000000000000000000000FFFFFFFF00000000FFFFFFFFFFFFFFFFFFFFFFFFFFFFFFFFFFFFFFFFFFFFFFFFFFFFFFFFFFFF00000000000000000000000000000000000000000000000000FFFFFFFF000000000000000000000000000000
1004
000000000000000000FFFFFFFF000000000000000000000000000000000000000000000000FFFFFFFF000000000000000000000000000000000000000000000000FFFFFFFF000000000000000000000000000000000000000000000000FFFFFFFF000000000000000000000000000000000000000000000000FFFFFFFF0000
1004
0000000000000000000000000000000000000000000000FFFFFF0000000000000000000000000000000000000000000000000000000000000000000000000000000000000000000000000000000000000000000000000000000000000000000000000000000000000000000000000000000000000000000000000000000000
1004
00000000000000000000000000000000000000000000000000000000000000000000000000000000000000000000000000000000000000000000000000000000000000000000000000000000000000000000000000000000000000000000000000000000000000000000000000000000000000000000000000000000000000
1004
0000000000000000000000000000000000000000000000000000000000000000000000000000000000000000000000000000000000000000
  0
BLOCK_RECORD
  5
116F
330
1
100
AcDbSymbolTableRecord
100
AcDbBlockTableRecord
  2
*X14
  0
BLOCK_RECORD
  5
1191
330
1
100
AcDbSymbolTableRecord
100
AcDbBlockTableRecord
  2
*X15
  0
ENDTAB
  0
ENDSEC
  0
SECTION
  2
BLOCKS
  0
BLOCK
  5
D
330
A
100
AcDbEntity
  8
0
100
AcDbBlockBegin
  2
*MODEL_SPACE
 70
     0
 10
0.0
 20
0.0
 30
0.0
  3
*MODEL_SPACE
  1

  0
ENDBLK
  5
E
330
A
100
AcDbEntity
  8
0
100
AcDbBlockEnd
  0
BLOCK
  5
F
330
B
100
AcDbEntity
 67
     1
  8
0
100
AcDbBlockBegin
  2
*PAPER_SPACE
 70
     0
 10
0.0
 20
0.0
 30
0.0
  3
*PAPER_SPACE
  1

  0
ENDBLK
  5
10
330
B
100
AcDbEntity
 67
     1
  8
0
100
AcDbBlockEnd
  0
BLOCK
  5
523
330
51F
100
AcDbEntity
  8
0
100
AcDbBlockBegin
  2
_OPEN
 70
     0
 10
0.0
 20
0.0
 30
0.0
  3
_OPEN
  1

  0
LINE
  5
520
330
51F
100
AcDbEntity
  8
0
  6
CONTINUOUS
 62
     0
100
AcDbLine
 10
-1.0
 20
0.1666666666666666
 30
0.0
 11
0.0
 21
0.0
 31
0.0
  0
LINE
  5
521
330
51F
100
AcDbEntity
  8
0
  6
CONTINUOUS
 62
     0
100
AcDbLine
 10
0.0
 20
0.0
 30
0.0
 11
-1.0
 21
-0.1666666666666666
 31
0.0
  0
LINE
  5
522
330
51F
100
AcDbEntity
  8
0
  6
CONTINUOUS
 62
     0
100
AcDbLine
 10
0.0
 20
0.0
 30
0.0
 11
-1.0
 21
0.0
 31
0.0
  0
ENDBLK
  5
524
330
51F
100
AcDbEntity
  8
0
100
AcDbBlockEnd
  0
BLOCK
  5
557
330
54C
100
AcDbEntity
  8
0
100
AcDbBlockBegin
  2
*D1
 70
     1
 10
0.0
 20
0.0
 30
0.0
  3
*D1
  1

  0
LINE
  5
10FD
330
54C
100
AcDbEntity
  8
SUNPOU
100
AcDbLine
 10
132.5792452830187
 20
106.1600970254481
 30
0.0
 11
132.5792452830187
 21
91.18309859154932
 31
0.0
  0
LINE
  5
10FE
330
54C
100
AcDbEntity
  8
SUNPOU
100
AcDbLine
 10
322.5792452830186
 20
106.1600970254482
 30
0.0
 11
322.5792452830186
 21
91.18309859154932
 31
0.0
  0
LINE
  5
10FF
330
54C
100
AcDbEntity
  8
SUNPOU
100
AcDbLine
 10
137.5792452830187
 20
93.18309859154933
 30
0.0
 11
317.5792452830187
 21
93.18309859154933
 31
0.0
  0
MTEXT
  5
1100
330
54C
100
AcDbEntity
  8
SUNPOU
100
AcDbMText
 10
227.5792452830186
 20
88.59359706574492
 30
0.0
 40
5.0
 41
0.0
 71
     5
 72
     1
  1
\A1;190
  7
SUNPOU
 11
-1.0
 21
0.0000000000000001
 31
0.0
1001
ACAD
1000
MTEXTBEGIN
1070
    73
1070
     1
1070
    44
1040
1.0
1070
    74
1070
     0
1000
MTEXTEND
1000
MTEXTBEGIN
1070
    73
1070
     1
1070
    44
1040
1.0
1070
    74
1070
     0
1000
MTEXTEND
  0
INSERT
  5
1101
330
54C
100
AcDbEntity
  8
SUNPOU
100
AcDbBlockReference
  2
_OPEN30
 10
132.5792452830187
 20
93.18309859154933
 30
0.0
 41
5.0
 42
5.0
 43
5.0
 50
180.0
  0
INSERT
  5
1102
330
54C
100
AcDbEntity
  8
SUNPOU
100
AcDbBlockReference
  2
_OPEN30
 10
322.5792452830186
 20
93.18309859154933
 30
0.0
 41
5.0
 42
5.0
 43
5.0
  0
POINT
  5
1103
330
54C
100
AcDbEntity
  8
DEFPOINTS
 62
     0
100
AcDbPoint
 10
132.5792452830187
 20
109.160097025448
 30
0.0
  0
POINT
  5
1104
330
54C
100
AcDbEntity
  8
DEFPOINTS
 62
     0
100
AcDbPoint
 10
322.5792452830186
 20
109.1600970254482
 30
0.0
  0
POINT
  5
1105
330
54C
100
AcDbEntity
  8
DEFPOINTS
 62
     0
100
AcDbPoint
 10
322.5792452830186
 20
93.18309859154933
 30
0.0
  0
ENDBLK
  5
558
330
54C
100
AcDbEntity
  8
0
100
AcDbBlockEnd
  0
BLOCK
  5
63F
330
633
100
AcDbEntity
  8
0
100
AcDbBlockBegin
  2
*D2
 70
     1
 10
0.0
 20
0.0
 30
0.0
  3
*D2
  1

  0
LINE
  5
1106
330
633
100
AcDbEntity
  8
SUNPOU
100
AcDbLine
 10
132.5792452830187
 20
139.160097025448
 30
0.0
 11
132.5792452830187
 21
238.6152705707932
 31
0.0
  0
LINE
  5
1107
330
633
100
AcDbEntity
  8
SUNPOU
100
AcDbLine
 10
137.5792452830185
 20
254.1600970254481
 30
0.0
 11
137.5792452830185
 21
234.6152705707932
 31
0.0
  0
LINE
  5
1108
330
633
100
AcDbEntity
  8
SUNPOU
100
AcDbLine
 10
127.5792452830187
 20
236.6152705707932
 30
0.0
 11
122.5792452830187
 21
236.6152705707932
 31
0.0
  0
LINE
  5
1109
330
633
100
AcDbEntity
  8
SUNPOU
100
AcDbLine
 10
142.5792452830186
 20
236.6152705707932
 30
0.0
 11
147.5792452830186
 21
236.6152705707932
 31
0.0
  0
MTEXT
  5
110A
330
633
100
AcDbEntity
  8
SUNPOU
100
AcDbMText
 10
135.0792452830186
 20
232.1687973334121
 30
0.0
 40
5.0
 41
0.0
 71
     5
 72
     1
  1
\A1;5
  7
SUNPOU
 11
-1.0
 21
0.0000000000000001
 31
0.0
1001
ACAD
1000
MTEXTBEGIN
1070
    73
1070
     1
1070
    44
1040
1.0
1070
    74
1070
     0
1000
MTEXTEND
1000
MTEXTBEGIN
1070
    73
1070
     1
1070
    44
1040
1.0
1070
    74
1070
     0
1000
MTEXTEND
  0
LINE
  5
110B
330
633
100
AcDbEntity
  8
SUNPOU
100
AcDbLine
 10
132.5792452830187
 20
236.6152705707932
 30
0.0
 11
137.5792452830185
 21
236.6152705707932
 31
0.0
  0
INSERT
  5
110C
330
633
100
AcDbEntity
  8
SUNPOU
100
AcDbBlockReference
  2
_OPEN30
 10
132.5792452830187
 20
236.6152705707932
 30
0.0
 41
5.0
 42
5.0
 43
5.0
  0
INSERT
  5
110D
330
633
100
AcDbEntity
  8
SUNPOU
100
AcDbBlockReference
  2
_OPEN30
 10
137.5792452830185
 20
236.6152705707932
 30
0.0
 41
5.0
 42
5.0
 43
5.0
 50
180.0
  0
POINT
  5
110E
330
633
100
AcDbEntity
  8
DEFPOINTS
 62
     0
100
AcDbPoint
 10
132.5792452830187
 20
136.160097025448
 30
0.0
  0
POINT
  5
110F
330
633
100
AcDbEntity
  8
DEFPOINTS
 62
     0
100
AcDbPoint
 10
137.5792452830185
 20
257.1600970254481
 30
0.0
  0
POINT
  5
1110
330
633
100
AcDbEntity
  8
DEFPOINTS
 62
     0
100
AcDbPoint
 10
137.5792452830185
 20
236.6152705707932
 30
0.0
  0
ENDBLK
  5
640
330
633
100
AcDbEntity
  8
0
100
AcDbBlockEnd
  0
BLOCK
  5
657
330
64D
100
AcDbEntity
  8
0
100
AcDbBlockBegin
  2
*D3
 70
     1
 10
0.0
 20
0.0
 30
0.0
  3
*D3
  1

  0
LINE
  5
1111
330
64D
100
AcDbEntity
  8
SUNPOU
100
AcDbLine
 10
137.5792452830185
 20
254.1600970254481
 30
0.0
 11
137.5792452830185
 21
234.6152705707932
 31
0.0
  0
LINE
  5
1112
330
64D
100
AcDbEntity
  8
SUNPOU
100
AcDbLine
 10
192.5792452830186
 20
254.1600970254481
 30
0.0
 11
192.5792452830186
 21
234.6152705707932
 31
0.0
  0
LINE
  5
1113
330
64D
100
AcDbEntity
  8
SUNPOU
100
AcDbLine
 10
142.5792452830186
 20
236.6152705707932
 30
0.0
 11
187.5792452830186
 21
236.6152705707932
 31
0.0
  0
MTEXT
  5
1114
330
64D
100
AcDbEntity
  8
SUNPOU
100
AcDbMText
 10
165.0792452830186
 20
232.1101385587113
 30
0.0
 40
5.0
 41
0.0
 71
     5
 72
     1
  1
\A1;55
  7
SUNPOU
 11
-1.0
 21
0.0000000000000001
 31
0.0
1001
ACAD
1000
MTEXTBEGIN
1070
    73
1070
     1
1070
    44
1040
1.0
1070
    74
1070
     0
1000
MTEXTEND
1000
MTEXTBEGIN
1070
    73
1070
     1
1070
    44
1040
1.0
1070
    74
1070
     0
1000
MTEXTEND
  0
INSERT
  5
1115
330
64D
100
AcDbEntity
  8
SUNPOU
100
AcDbBlockReference
  2
_OPEN30
 10
137.5792452830185
 20
236.6152705707932
 30
0.0
 41
5.0
 42
5.0
 43
5.0
 50
180.0
  0
INSERT
  5
1116
330
64D
100
AcDbEntity
  8
SUNPOU
100
AcDbBlockReference
  2
_OPEN30
 10
192.5792452830186
 20
236.6152705707932
 30
0.0
 41
5.0
 42
5.0
 43
5.0
  0
POINT
  5
1117
330
64D
100
AcDbEntity
  8
DEFPOINTS
 62
     0
100
AcDbPoint
 10
137.5792452830185
 20
257.1600970254481
 30
0.0
  0
POINT
  5
1118
330
64D
100
AcDbEntity
  8
DEFPOINTS
 62
     0
100
AcDbPoint
 10
192.5792452830186
 20
257.1600970254481
 30
0.0
  0
POINT
  5
1119
330
64D
100
AcDbEntity
  8
DEFPOINTS
 62
     0
100
AcDbPoint
 10
192.5792452830186
 20
236.6152705707932
 30
0.0
  0
ENDBLK
  5
658
330
64D
100
AcDbEntity
  8
0
100
AcDbBlockEnd
  0
BLOCK
  5
666
330
65A
100
AcDbEntity
  8
0
100
AcDbBlockBegin
  2
*D4
 70
     1
 10
0.0
 20
0.0
 30
0.0
  3
*D4
  1

  0
LINE
  5
111A
330
65A
100
AcDbEntity
  8
SUNPOU
100
AcDbLine
 10
192.5792452830186
 20
254.1600970254481
 30
0.0
 11
192.5792452830186
 21
234.6152705707932
 31
0.0
  0
LINE
  5
111B
330
65A
100
AcDbEntity
  8
SUNPOU
100
AcDbLine
 10
197.5792452830186
 20
254.1600970254481
 30
0.0
 11
197.5792452830186
 21
234.6152705707932
 31
0.0
  0
LINE
  5
111C
330
65A
100
AcDbEntity
  8
SUNPOU
100
AcDbLine
 10
187.5792452830186
 20
236.6152705707932
 30
0.0
 11
182.5792452830184
 21
236.6152705707932
 31
0.0
  0
LINE
  5
111D
330
65A
100
AcDbEntity
  8
SUNPOU
100
AcDbLine
 10
202.5792452830184
 20
236.6152705707932
 30
0.0
 11
207.5792452830186
 21
236.6152705707932
 31
0.0
  0
MTEXT
  5
111E
330
65A
100
AcDbEntity
  8
SUNPOU
100
AcDbMText
 10
195.0792452830184
 20
232.0521948650414
 30
0.0
 40
5.0
 41
0.0
 71
     5
 72
     1
  1
\A1;5
  7
SUNPOU
 11
-1.0
 21
0.0000000000000001
 31
0.0
1001
ACAD
1000
MTEXTBEGIN
1070
    73
1070
     1
1070
    44
1040
1.0
1070
    74
1070
     0
1000
MTEXTEND
1000
MTEXTBEGIN
1070
    73
1070
     1
1070
    44
1040
1.0
1070
    74
1070
     0
1000
MTEXTEND
  0
LINE
  5
111F
330
65A
100
AcDbEntity
  8
SUNPOU
100
AcDbLine
 10
192.5792452830186
 20
236.6152705707932
 30
0.0
 11
197.5792452830186
 21
236.6152705707932
 31
0.0
  0
INSERT
  5
1120
330
65A
100
AcDbEntity
  8
SUNPOU
100
AcDbBlockReference
  2
_OPEN30
 10
192.5792452830186
 20
236.6152705707932
 30
0.0
 41
5.0
 42
5.0
 43
5.0
  0
INSERT
  5
1121
330
65A
100
AcDbEntity
  8
SUNPOU
100
AcDbBlockReference
  2
_OPEN30
 10
197.5792452830186
 20
236.6152705707932
 30
0.0
 41
5.0
 42
5.0
 43
5.0
 50
180.0
  0
POINT
  5
1122
330
65A
100
AcDbEntity
  8
DEFPOINTS
 62
     0
100
AcDbPoint
 10
192.5792452830186
 20
257.1600970254481
 30
0.0
  0
POINT
  5
1123
330
65A
100
AcDbEntity
  8
DEFPOINTS
 62
     0
100
AcDbPoint
 10
197.5792452830186
 20
257.1600970254481
 30
0.0
  0
POINT
  5
1124
330
65A
100
AcDbEntity
  8
DEFPOINTS
 62
     0
100
AcDbPoint
 10
197.5792452830186
 20
236.6152705707932
 30
0.0
  0
ENDBLK
  5
667
330
65A
100
AcDbEntity
  8
0
100
AcDbBlockEnd
  0
BLOCK
  5
673
330
669
100
AcDbEntity
  8
0
100
AcDbBlockBegin
  2
*D5
 70
     1
 10
0.0
 20
0.0
 30
0.0
  3
*D5
  1

  0
LINE
  5
1125
330
669
100
AcDbEntity
  8
SUNPOU
100
AcDbLine
 10
197.5792452830186
 20
254.1600970254481
 30
0.0
 11
197.5792452830186
 21
234.6152705707932
 31
0.0
  0
LINE
  5
1126
330
669
100
AcDbEntity
  8
SUNPOU
100
AcDbLine
 10
237.5792452830185
 20
254.1600970254481
 30
0.0
 11
237.5792452830185
 21
234.6152705707932
 31
0.0
  0
LINE
  5
1127
330
669
100
AcDbEntity
  8
SUNPOU
100
AcDbLine
 10
202.5792452830184
 20
236.6152705707932
 30
0.0
 11
232.5792452830186
 21
236.6152705707932
 31
0.0
  0
MTEXT
  5
1128
330
669
100
AcDbEntity
  8
SUNPOU
100
AcDbMText
 10
217.5792452830186
 20
232.1045064311332
 30
0.0
 40
5.0
 41
0.0
 71
     5
 72
     1
  1
\A1;40
  7
SUNPOU
 11
-1.0
 21
0.0000000000000001
 31
0.0
1001
ACAD
1000
MTEXTBEGIN
1070
    73
1070
     1
1070
    44
1040
1.0
1070
    74
1070
     0
1000
MTEXTEND
1000
MTEXTBEGIN
1070
    73
1070
     1
1070
    44
1040
1.0
1070
    74
1070
     0
1000
MTEXTEND
  0
INSERT
  5
1129
330
669
100
AcDbEntity
  8
SUNPOU
100
AcDbBlockReference
  2
_OPEN30
 10
197.5792452830186
 20
236.6152705707932
 30
0.0
 41
5.0
 42
5.0
 43
5.0
 50
180.0
  0
INSERT
  5
112A
330
669
100
AcDbEntity
  8
SUNPOU
100
AcDbBlockReference
  2
_OPEN30
 10
237.5792452830185
 20
236.6152705707932
 30
0.0
 41
5.0
 42
5.0
 43
5.0
  0
POINT
  5
112B
330
669
100
AcDbEntity
  8
DEFPOINTS
 62
     0
100
AcDbPoint
 10
197.5792452830186
 20
257.1600970254481
 30
0.0
  0
POINT
  5
112C
330
669
100
AcDbEntity
  8
DEFPOINTS
 62
     0
100
AcDbPoint
 10
237.5792452830185
 20
257.1600970254483
 30
0.0
  0
POINT
  5
112D
330
669
100
AcDbEntity
  8
DEFPOINTS
 62
     0
100
AcDbPoint
 10
237.5792452830185
 20
236.6152705707932
 30
0.0
  0
ENDBLK
  5
674
330
669
100
AcDbEntity
  8
0
100
AcDbBlockEnd
  0
BLOCK
  5
680
330
676
100
AcDbEntity
  8
0
100
AcDbBlockBegin
  2
*D6
 70
     1
 10
0.0
 20
0.0
 30
0.0
  3
*D6
  1

  0
LINE
  5
112E
330
676
100
AcDbEntity
  8
SUNPOU
100
AcDbLine
 10
237.5792452830185
 20
254.1600970254481
 30
0.0
 11
237.5792452830185
 21
234.6152705707932
 31
0.0
  0
LINE
  5
112F
330
676
100
AcDbEntity
  8
SUNPOU
100
AcDbLine
 10
242.5792452830189
 20
239.6152705707931
 30
0.0
 11
242.5792452830189
 21
238.6152705707932
 31
0.0
  0
LINE
  5
1130
330
676
100
AcDbEntity
  8
SUNPOU
100
AcDbLine
 10
232.5792452830186
 20
236.6152705707932
 30
0.0
 11
227.5792452830184
 21
236.6152705707932
 31
0.0
  0
LINE
  5
1131
330
676
100
AcDbEntity
  8
SUNPOU
100
AcDbLine
 10
247.5792452830189
 20
236.6152705707932
 30
0.0
 11
252.5792452830188
 21
236.6152705707932
 31
0.0
  0
MTEXT
  5
1132
330
676
100
AcDbEntity
  8
SUNPOU
100
AcDbMText
 10
240.0792452830186
 20
232.1586617167886
 30
0.0
 40
5.0
 41
0.0
 71
     5
 72
     1
  1
\A1;5
  7
SUNPOU
 11
-1.0
 21
0.0000000000000001
 31
0.0
1001
ACAD
1000
MTEXTBEGIN
1070
    73
1070
     1
1070
    44
1040
1.0
1070
    74
1070
     0
1000
MTEXTEND
1000
MTEXTBEGIN
1070
    73
1070
     1
1070
    44
1040
1.0
1070
    74
1070
     0
1000
MTEXTEND
  0
LINE
  5
1133
330
676
100
AcDbEntity
  8
SUNPOU
100
AcDbLine
 10
237.5792452830185
 20
236.6152705707932
 30
0.0
 11
242.5792452830189
 21
236.6152705707932
 31
0.0
  0
INSERT
  5
1134
330
676
100
AcDbEntity
  8
SUNPOU
100
AcDbBlockReference
  2
_OPEN30
 10
237.5792452830185
 20
236.6152705707932
 30
0.0
 41
5.0
 42
5.0
 43
5.0
  0
INSERT
  5
1135
330
676
100
AcDbEntity
  8
SUNPOU
100
AcDbBlockReference
  2
_OPEN30
 10
242.5792452830189
 20
236.6152705707932
 30
0.0
 41
5.0
 42
5.0
 43
5.0
 50
180.0
  0
POINT
  5
1136
330
676
100
AcDbEntity
  8
DEFPOINTS
 62
     0
100
AcDbPoint
 10
237.5792452830185
 20
257.1600970254483
 30
0.0
  0
POINT
  5
1137
330
676
100
AcDbEntity
  8
DEFPOINTS
 62
     0
100
AcDbPoint
 10
242.5792452830189
 20
236.6152705707932
 30
0.0
  0
POINT
  5
1138
330
676
100
AcDbEntity
  8
DEFPOINTS
 62
     0
100
AcDbPoint
 10
242.5792452830189
 20
236.6152705707932
 30
0.0
  0
ENDBLK
  5
681
330
676
100
AcDbEntity
  8
0
100
AcDbBlockEnd
  0
BLOCK
  5
6AA
330
6A0
100
AcDbEntity
  8
0
100
AcDbBlockBegin
  2
*D7
 70
     1
 10
0.0
 20
0.0
 30
0.0
  3
*D7
  1

  0
LINE
  5
1139
330
6A0
100
AcDbEntity
  8
SUNPOU
100
AcDbLine
 10
242.5792452830189
 20
239.6152705707931
 30
0.0
 11
242.5792452830189
 21
238.6152705707932
 31
0.0
  0
LINE
  5
113A
330
6A0
100
AcDbEntity
  8
SUNPOU
100
AcDbLine
 10
322.5792452830186
 20
143.1600970254481
 30
0.0
 11
322.5792452830186
 21
238.6152705707932
 31
0.0
  0
LINE
  5
113B
330
6A0
100
AcDbEntity
  8
SUNPOU
100
AcDbLine
 10
247.5792452830189
 20
236.6152705707932
 30
0.0
 11
317.5792452830187
 21
236.6152705707932
 31
0.0
  0
MTEXT
  5
113C
330
6A0
100
AcDbEntity
  8
SUNPOU
100
AcDbMText
 10
282.5792452830187
 20
232.101434487285
 30
0.0
 40
5.0
 41
0.0
 71
     5
 72
     1
  1
\A1;80
  7
SUNPOU
 11
-1.0
 21
0.0000000000000001
 31
0.0
1001
ACAD
1000
MTEXTBEGIN
1070
    73
1070
     1
1070
    44
1040
1.0
1070
    74
1070
     0
1000
MTEXTEND
1000
MTEXTBEGIN
1070
    73
1070
     1
1070
    44
1040
1.0
1070
    74
1070
     0
1000
MTEXTEND
  0
INSERT
  5
113D
330
6A0
100
AcDbEntity
  8
SUNPOU
100
AcDbBlockReference
  2
_OPEN30
 10
242.5792452830189
 20
236.6152705707932
 30
0.0
 41
5.0
 42
5.0
 43
5.0
 50
180.0
  0
INSERT
  5
113E
330
6A0
100
AcDbEntity
  8
SUNPOU
100
AcDbBlockReference
  2
_OPEN30
 10
322.5792452830186
 20
236.6152705707932
 30
0.0
 41
5.0
 42
5.0
 43
5.0
  0
POINT
  5
113F
330
6A0
100
AcDbEntity
  8
DEFPOINTS
 62
     0
100
AcDbPoint
 10
242.5792452830189
 20
236.6152705707932
 30
0.0
  0
POINT
  5
1140
330
6A0
100
AcDbEntity
  8
DEFPOINTS
 62
     0
100
AcDbPoint
 10
322.5792452830186
 20
140.1600970254482
 30
0.0
  0
POINT
  5
1141
330
6A0
100
AcDbEntity
  8
DEFPOINTS
 62
     0
100
AcDbPoint
 10
322.5792452830186
 20
236.6152705707932
 30
0.0
  0
ENDBLK
  5
6AB
330
6A0
100
AcDbEntity
  8
0
100
AcDbBlockEnd
  0
BLOCK
  5
6EB
330
6E1
100
AcDbEntity
  8
0
100
AcDbBlockBegin
  2
*D8
 70
     1
 10
0.0
 20
0.0
 30
0.0
  3
*D8
  1

  0
LINE
  5
1142
330
6E1
100
AcDbEntity
  8
SUNPOU
100
AcDbLine
 10
137.5792452830185
 20
254.1600970254481
 30
0.0
 11
120.9691242924298
 21
254.1600970254481
 31
0.0
  0
LINE
  5
1143
330
6E1
100
AcDbEntity
  8
SUNPOU
100
AcDbLine
 10
137.5792452830184
 20
324.1600970254481
 30
0.0
 11
120.9691242924299
 21
324.1600970254481
 31
0.0
  0
LINE
  5
1144
330
6E1
100
AcDbEntity
  8
SUNPOU
100
AcDbLine
 10
122.9691242924298
 20
259.1600970254481
 30
0.0
 11
122.9691242924299
 21
319.1600970254481
 31
0.0
  0
INSERT
  5
1145
330
6E1
100
AcDbEntity
  8
SUNPOU
100
AcDbBlockReference
  2
_OPEN30
 10
122.9691242924298
 20
254.1600970254481
 30
0.0
 41
5.0
 42
5.0
 43
5.0
 50
270.0
  0
INSERT
  5
1146
330
6E1
100
AcDbEntity
  8
SUNPOU
100
AcDbBlockReference
  2
_OPEN30
 10
122.9691242924299
 20
324.1600970254481
 30
0.0
 41
5.0
 42
5.0
 43
5.0
 50
90.0
  0
MTEXT
  5
1147
330
6E1
100
AcDbEntity
  8
SUNPOU
100
AcDbMText
 10
118.4691242924297
 20
289.1600970254481
 30
0.0
 40
5.0
 41
0.0
 71
     5
 72
     1
  1
\A1;70
  7
SUNPOU
 11
0.0000000000000001
 21
1.0
 31
0.0
1001
ACAD
1000
MTEXTBEGIN
1070
    73
1070
     1
1070
    44
1040
1.0
1070
    74
1070
     0
1000
MTEXTEND
1000
MTEXTBEGIN
1070
    73
1070
     1
1070
    44
1040
1.0
1070
    74
1070
     0
1000
MTEXTEND
  0
POINT
  5
1148
330
6E1
100
AcDbEntity
  8
DEFPOINTS
 62
     0
100
AcDbPoint
 10
140.5792452830185
 20
254.1600970254481
 30
0.0
  0
POINT
  5
1149
330
6E1
100
AcDbEntity
  8
DEFPOINTS
 62
     0
100
AcDbPoint
 10
140.5792452830184
 20
324.1600970254481
 30
0.0
  0
POINT
  5
114A
330
6E1
100
AcDbEntity
  8
DEFPOINTS
 62
     0
100
AcDbPoint
 10
122.9691242924299
 20
324.1600970254481
 30
0.0
  0
ENDBLK
  5
6EC
330
6E1
100
AcDbEntity
  8
0
100
AcDbBlockEnd
  0
BLOCK
  5
6F8
330
6EE
100
AcDbEntity
  8
0
100
AcDbBlockBegin
  2
*D9
 70
     1
 10
0.0
 20
0.0
 30
0.0
  3
*D9
  1

  0
LINE
  5
114B
330
6EE
100
AcDbEntity
  8
SUNPOU
100
AcDbLine
 10
237.5792452830185
 20
254.1600970254481
 30
0.0
 11
254.5792452830184
 21
254.1600970254481
 31
0.0
  0
LINE
  5
114C
330
6EE
100
AcDbEntity
  8
SUNPOU
100
AcDbLine
 10
233.5792452830186
 20
279.1600970254481
 30
0.0
 11
254.5792452830184
 21
279.1600970254481
 31
0.0
  0
LINE
  5
114D
330
6EE
100
AcDbEntity
  8
SUNPOU
100
AcDbLine
 10
252.5792452830184
 20
259.1600970254481
 30
0.0
 11
252.5792452830184
 21
274.1600970254481
 31
0.0
  0
INSERT
  5
114E
330
6EE
100
AcDbEntity
  8
SUNPOU
100
AcDbBlockReference
  2
_OPEN30
 10
252.5792452830184
 20
254.1600970254481
 30
0.0
 41
5.0
 42
5.0
 43
5.0
 50
270.0
  0
INSERT
  5
114F
330
6EE
100
AcDbEntity
  8
SUNPOU
100
AcDbBlockReference
  2
_OPEN30
 10
252.5792452830184
 20
279.1600970254481
 30
0.0
 41
5.0
 42
5.0
 43
5.0
 50
90.0
  0
MTEXT
  5
1150
330
6EE
100
AcDbEntity
  8
SUNPOU
100
AcDbMText
 10
248.0792452830185
 20
266.6600970254481
 30
0.0
 40
5.0
 41
0.0
 71
     5
 72
     1
  1
\A1;25
  7
SUNPOU
 11
0.0000000000000001
 21
1.0
 31
0.0
1001
ACAD
1000
MTEXTBEGIN
1070
    73
1070
     1
1070
    44
1040
1.0
1070
    74
1070
     0
1000
MTEXTEND
1000
MTEXTBEGIN
1070
    73
1070
     1
1070
    44
1040
1.0
1070
    74
1070
     0
1000
MTEXTEND
  0
POINT
  5
1151
330
6EE
100
AcDbEntity
  8
DEFPOINTS
 62
     0
100
AcDbPoint
 10
234.5792452830186
 20
254.1600970254481
 30
0.0
  0
POINT
  5
1152
330
6EE
100
AcDbEntity
  8
DEFPOINTS
 62
     0
100
AcDbPoint
 10
230.5792452830186
 20
279.1600970254481
 30
0.0
  0
POINT
  5
1153
330
6EE
100
AcDbEntity
  8
DEFPOINTS
 62
     0
100
AcDbPoint
 10
252.5792452830184
 20
279.1600970254481
 30
0.0
  0
ENDBLK
  5
6F9
330
6EE
100
AcDbEntity
  8
0
100
AcDbBlockEnd
  0
BLOCK
  5
705
330
6FB
100
AcDbEntity
  8
0
100
AcDbBlockBegin
  2
*D10
 70
     1
 10
0.0
 20
0.0
 30
0.0
  3
*D10
  1

  0
LINE
  5
1154
330
6FB
100
AcDbEntity
  8
SUNPOU
100
AcDbLine
 10
233.5792452830186
 20
476.1600970254483
 30
0.0
 11
254.5792452830184
 21
476.1600970254483
 31
0.0
  0
LINE
  5
1155
330
6FB
100
AcDbEntity
  8
SUNPOU
100
AcDbLine
 10
237.5792452830185
 20
501.1600970254483
 30
0.0
 11
254.5792452830184
 21
501.1600970254483
 31
0.0
  0
LINE
  5
1156
330
6FB
100
AcDbEntity
  8
SUNPOU
100
AcDbLine
 10
252.5792452830184
 20
481.1600970254483
 30
0.0
 11
252.5792452830184
 21
496.160097025448
 31
0.0
  0
INSERT
  5
1157
330
6FB
100
AcDbEntity
  8
SUNPOU
100
AcDbBlockReference
  2
_OPEN30
 10
252.5792452830184
 20
476.1600970254483
 30
0.0
 41
5.0
 42
5.0
 43
5.0
 50
270.0
  0
INSERT
  5
1158
330
6FB
100
AcDbEntity
  8
SUNPOU
100
AcDbBlockReference
  2
_OPEN30
 10
252.5792452830184
 20
501.1600970254483
 30
0.0
 41
5.0
 42
5.0
 43
5.0
 50
90.0
  0
MTEXT
  5
1159
330
6FB
100
AcDbEntity
  8
SUNPOU
100
AcDbMText
 10
248.0792452830185
 20
488.6600970254483
 30
0.0
 40
5.0
 41
0.0
 71
     5
 72
     1
  1
\A1;25
  7
SUNPOU
 11
0.0000000000000001
 21
1.0
 31
0.0
1001
ACAD
1000
MTEXTBEGIN
1070
    73
1070
     1
1070
    44
1040
1.0
1070
    74
1070
     0
1000
MTEXTEND
1000
MTEXTBEGIN
1070
    73
1070
     1
1070
    44
1040
1.0
1070
    74
1070
     0
1000
MTEXTEND
  0
POINT
  5
115A
330
6FB
100
AcDbEntity
  8
DEFPOINTS
 62
     0
100
AcDbPoint
 10
230.5792452830186
 20
476.1600970254483
 30
0.0
  0
POINT
  5
115B
330
6FB
100
AcDbEntity
  8
DEFPOINTS
 62
     0
100
AcDbPoint
 10
234.5792452830184
 20
501.1600970254483
 30
0.0
  0
POINT
  5
115C
330
6FB
100
AcDbEntity
  8
DEFPOINTS
 62
     0
100
AcDbPoint
 10
252.5792452830184
 20
501.1600970254483
 30
0.0
  0
ENDBLK
  5
706
330
6FB
100
AcDbEntity
  8
0
100
AcDbBlockEnd
  0
BLOCK
  5
71B
330
711
100
AcDbEntity
  8
0
100
AcDbBlockBegin
  2
*D11
 70
     1
 10
0.0
 20
0.0
 30
0.0
  3
*D11
  1

  0
LINE
  5
115D
330
711
100
AcDbEntity
  8
SUNPOU
100
AcDbLine
 10
237.6345637449271
 20
254.1606070908473
 30
0.0
 11
269.5792452830185
 21
254.1606070908473
 31
0.0
  0
LINE
  5
115E
330
711
100
AcDbEntity
  8
SUNPOU
100
AcDbLine
 10
237.6345637449271
 20
501.1600970254483
 30
0.0
 11
269.5792452830185
 21
501.1600970254483
 31
0.0
  0
LINE
  5
115F
330
711
100
AcDbEntity
  8
SUNPOU
100
AcDbLine
 10
267.5792452830185
 20
259.1606070908472
 30
0.0
 11
267.5792452830185
 21
496.160097025448
 31
0.0
  0
MTEXT
  5
1160
330
711
100
AcDbEntity
  8
SUNPOU
100
AcDbMText
 10
263.0792452830184
 20
385.812790907584
 30
0.0
 40
5.0
 41
0.0
 71
     5
 72
     1
  1
\A1;DW
  7
SUNPOU
 11
0.0000000000000001
 21
1.0
 31
0.0
1001
ACAD
1000
MTEXTBEGIN
1070
    73
1070
     1
1070
    44
1040
1.0
1070
    74
1070
     0
1000
MTEXTEND
1000
MTEXTBEGIN
1070
    73
1070
     1
1070
    44
1040
1.0
1070
    74
1070
     0
1000
MTEXTEND
  0
INSERT
  5
1161
330
711
100
AcDbEntity
  8
SUNPOU
100
AcDbBlockReference
  2
_OPEN30
 10
267.5792452830185
 20
254.1606070908473
 30
0.0
 41
5.0
 42
5.0
 43
5.0
 50
270.0
  0
INSERT
  5
1162
330
711
100
AcDbEntity
  8
SUNPOU
100
AcDbBlockReference
  2
_OPEN30
 10
267.5792452830185
 20
501.1600970254483
 30
0.0
 41
5.0
 42
5.0
 43
5.0
 50
90.0
  0
POINT
  5
1163
330
711
100
AcDbEntity
  8
DEFPOINTS
 62
     0
100
AcDbPoint
 10
234.6345637449271
 20
254.1606070908473
 30
0.0
  0
POINT
  5
1164
330
711
100
AcDbEntity
  8
DEFPOINTS
 62
     0
100
AcDbPoint
 10
234.6345637449271
 20
501.1600970254483
 30
0.0
  0
POINT
  5
1165
330
711
100
AcDbEntity
  8
DEFPOINTS
 62
     0
100
AcDbPoint
 10
267.5792452830185
 20
501.1600970254483
 30
0.0
  0
ENDBLK
  5
71C
330
711
100
AcDbEntity
  8
0
100
AcDbBlockEnd
  0
BLOCK
  5
735
330
72B
100
AcDbEntity
  8
0
100
AcDbBlockBegin
  2
*D12
 70
     1
 10
0.0
 20
0.0
 30
0.0
  3
*D12
  1

  0
LINE
  5
1166
330
72B
100
AcDbEntity
  8
SUNPOU
100
AcDbLine
 10
322.5792452830186
 20
139.1600970254482
 30
0.0
 11
344.5792452830186
 21
139.1600970254482
 31
0.0
  0
LINE
  5
1167
330
72B
100
AcDbEntity
  8
SUNPOU
100
AcDbLine
 10
322.7663801414839
 20
504.1659392899996
 30
0.0
 11
344.5792452830186
 21
504.1659392899996
 31
0.0
  0
LINE
  5
1168
330
72B
100
AcDbEntity
  8
SUNPOU
100
AcDbLine
 10
342.5792452830186
 20
144.1600970254481
 30
0.0
 11
342.5792452830187
 21
499.1659392899996
 31
0.0
  0
INSERT
  5
1169
330
72B
100
AcDbEntity
  8
SUNPOU
100
AcDbBlockReference
  2
_OPEN30
 10
342.5792452830186
 20
139.1600970254482
 30
0.0
 41
5.0
 42
5.0
 43
5.0
 50
270.0
  0
INSERT
  5
116A
330
72B
100
AcDbEntity
  8
SUNPOU
100
AcDbBlockReference
  2
_OPEN30
 10
342.5792452830187
 20
504.1659392899996
 30
0.0
 41
5.0
 42
5.0
 43
5.0
 50
90.0
  0
MTEXT
  5
116B
330
72B
100
AcDbEntity
  8
SUNPOU
100
AcDbMText
 10
338.0792452830185
 20
321.663018157724
 30
0.0
 40
5.0
 41
0.0
 71
     5
 72
     1
  1
\A1;W
  7
SUNPOU
 11
0.0000000000000001
 21
1.0
 31
0.0
1001
ACAD
1000
MTEXTBEGIN
1070
    73
1070
     1
1070
    44
1040
1.0
1070
    74
1070
     0
1000
MTEXTEND
1000
MTEXTBEGIN
1070
    73
1070
     1
1070
    44
1040
1.0
1070
    74
1070
     0
1000
MTEXTEND
  0
POINT
  5
116C
330
72B
100
AcDbEntity
  8
DEFPOINTS
 62
     0
100
AcDbPoint
 10
319.5792452830186
 20
139.1600970254482
 30
0.0
  0
POINT
  5
116D
330
72B
100
AcDbEntity
  8
DEFPOINTS
 62
     0
100
AcDbPoint
 10
319.7663801414841
 20
504.1659392899996
 30
0.0
  0
POINT
  5
116E
330
72B
100
AcDbEntity
  8
DEFPOINTS
 62
     0
100
AcDbPoint
 10
342.5792452830187
 20
504.1659392899996
 30
0.0
  0
ENDBLK
  5
736
330
72B
100
AcDbEntity
  8
0
100
AcDbBlockEnd
  0
BLOCK
  5
B0D
330
B09
100
AcDbEntity
  8
0
100
AcDbBlockBegin
  2
_OPEN30
 70
     0
 10
0.0
 20
0.0
 30
0.0
  3
_OPEN30
  1

  0
LINE
  5
B0A
330
B09
100
AcDbEntity
  8
0
  6
BYBLOCK
 62
     0
100
AcDbLine
 10
-1.0
 20
0.26794919
 30
0.0
 11
0.0
 21
0.0
 31
0.0
  0
LINE
  5
B0B
330
B09
100
AcDbEntity
  8
0
  6
BYBLOCK
 62
     0
100
AcDbLine
 10
0.0
 20
0.0
 30
0.0
 11
-1.0
 21
-0.26794919
 31
0.0
  0
LINE
  5
B0C
330
B09
100
AcDbEntity
  8
0
  6
BYBLOCK
 62
     0
100
AcDbLine
 10
0.0
 20
0.0
 30
0.0
 11
-1.0
 21
0.0
 31
0.0
  0
ENDBLK
  5
B0E
330
B09
100
AcDbEntity
  8
0
100
AcDbBlockEnd
  0
BLOCK
  5
1180
330
116F
100
AcDbEntity
  8
0
100
AcDbBlockBegin
  2
*X14
 70
     1
 10
0.0
 20
0.0
 30
0.0
  3
*X14
  1

  0
LINE
  5
1170
330
116F
100
AcDbEntity
  8
0
 62
     0
100
AcDbLine
 10
171.0792452830184
 20
300.9145311590017
 30
0.0
 11
170.8336794165721
 21
301.1600970254481
 31
0.0
  0
LINE
  5
1171
330
116F
100
AcDbEntity
  8
0
 62
     0
100
AcDbLine
 10
171.0792452830184
 20
295.6112303001028
 30
0.0
 11
166.3292452830184
 21
300.3612303001028
 31
0.0
  0
LINE
  5
1172
330
116F
100
AcDbEntity
  8
0
 62
     0
100
AcDbLine
 10
165.0792452830184
 20
296.3079294412036
 30
0.0
 11
165.069088091538
 21
296.3180866326839
 31
0.0
  0
LINE
  5
1173
330
116F
100
AcDbEntity
  8
0
 62
     0
100
AcDbLine
 10
163.8292452830184
 20
297.5579294412036
 30
0.0
 11
160.2270776987739
 21
301.1600970254481
 31
0.0
  0
LINE
  5
1174
330
116F
100
AcDbEntity
  8
0
 62
     0
100
AcDbLine
 10
171.0792452830184
 20
290.3079294412036
 30
0.0
 11
165.0792452830186
 21
296.3079294412036
 31
0.0
  0
LINE
  5
1175
330
116F
100
AcDbEntity
  8
0
 62
     0
100
AcDbLine
 10
165.0792452830186
 20
291.0046285823046
 30
0.0
 11
159.0792452830186
 21
297.0046285823045
 31
0.0
  0
LINE
  5
1176
330
116F
100
AcDbEntity
  8
0
 62
     0
100
AcDbLine
 10
171.0792452830184
 20
285.0046285823045
 30
0.0
 11
165.0792452830186
 21
291.0046285823045
 31
0.0
  0
LINE
  5
1177
330
116F
100
AcDbEntity
  8
0
 62
     0
100
AcDbLine
 10
165.0792452830184
 20
285.7013277234053
 30
0.0
 11
159.0792452830186
 21
291.7013277234053
 31
0.0
  0
LINE
  5
1178
330
116F
100
AcDbEntity
  8
0
 62
     0
100
AcDbLine
 10
171.0792452830184
 20
279.7013277234054
 30
0.0
 11
165.0792452830186
 21
285.7013277234053
 31
0.0
  0
LINE
  5
1179
330
116F
100
AcDbEntity
  8
0
 62
     0
100
AcDbLine
 10
165.0792452830186
 20
280.3980268645062
 30
0.0
 11
159.0792452830186
 21
286.3980268645062
 31
0.0
  0
LINE
  5
117A
330
116F
100
AcDbEntity
  8
0
 62
     0
100
AcDbLine
 10
171.0792452830184
 20
274.3980268645064
 30
0.0
 11
165.0792452830186
 21
280.3980268645062
 31
0.0
  0
LINE
  5
117B
330
116F
100
AcDbEntity
  8
0
 62
     0
100
AcDbLine
 10
165.0792452830186
 20
275.0947260056071
 30
0.0
 11
159.0792452830186
 21
281.0947260056071
 31
0.0
  0
LINE
  5
117C
330
116F
100
AcDbEntity
  8
0
 62
     0
100
AcDbLine
 10
171.0792452830184
 20
269.0947260056071
 30
0.0
 11
165.0792452830186
 21
275.0947260056071
 31
0.0
  0
LINE
  5
117D
330
116F
100
AcDbEntity
  8
0
 62
     0
100
AcDbLine
 10
165.0792452830184
 20
269.7914251467079
 30
0.0
 11
159.0792452830186
 21
275.791425146708
 31
0.0
  0
LINE
  5
117E
330
116F
100
AcDbEntity
  8
0
 62
     0
100
AcDbLine
 10
168.7105734042785
 20
266.1600970254482
 30
0.0
 11
165.0792452830186
 21
269.7914251467079
 31
0.0
  0
LINE
  5
117F
330
116F
100
AcDbEntity
  8
0
 62
     0
100
AcDbLine
 10
163.4072725453794
 20
266.1600970254482
 30
0.0
 11
159.0792452830186
 21
270.4881242878089
 31
0.0
  0
ENDBLK
  5
1181
330
116F
100
AcDbEntity
  8
0
100
AcDbBlockEnd
  0
BLOCK
  5
11A4
330
1191
100
AcDbEntity
  8
0
100
AcDbBlockBegin
  2
*X15
 70
     1
 10
0.0
 20
0.0
 30
0.0
  3
*X15
  1

  0
LINE
  5
1192
330
1191
100
AcDbEntity
  8
0
 62
     0
100
AcDbLine
 10
207.1752489270983
 20
504.1600970254481
 30
0.0
 11
205.0792452830186
 21
502.0640933813685
 31
0.0
  0
LINE
  5
1193
330
1191
100
AcDbEntity
  8
0
 62
     0
100
AcDbLine
 10
210.7107828330311
 20
504.1600970254481
 30
0.0
 11
207.710782833031
 21
501.1600970254483
 31
0.0
  0
LINE
  5
1194
330
1191
100
AcDbEntity
  8
0
 62
     0
100
AcDbLine
 10
214.2463167389638
 20
504.1600970254481
 30
0.0
 11
211.2463167389639
 21
501.1600970254483
 31
0.0
  0
LINE
  5
1195
330
1191
100
AcDbEntity
  8
0
 62
     0
100
AcDbLine
 10
217.5792452830186
 20
503.9574916635703
 30
0.0
 11
214.7818506448964
 21
501.1600970254483
 31
0.0
  0
LINE
  5
1196
330
1191
100
AcDbEntity
  8
0
 62
     0
100
AcDbLine
 10
217.7818506448966
 20
504.1600970254481
 30
0.0
 11
217.5792452830186
 21
503.9574916635703
 31
0.0
  0
LINE
  5
1197
330
1191
100
AcDbEntity
  8
0
 62
     0
100
AcDbLine
 10
221.3173845508292
 20
504.1600970254481
 30
0.0
 11
218.3173845508294
 21
501.1600970254483
 31
0.0
  0
LINE
  5
1198
330
1191
100
AcDbEntity
  8
0
 62
     0
100
AcDbLine
 10
224.852918456762
 20
504.1600970254481
 30
0.0
 11
221.8529184567622
 21
501.1600970254483
 31
0.0
  0
LINE
  5
1199
330
1191
100
AcDbEntity
  8
0
 62
     0
100
AcDbLine
 10
228.3884523626948
 20
504.1600970254481
 30
0.0
 11
225.3884523626949
 21
501.1600970254483
 31
0.0
  0
LINE
  5
119A
330
1191
100
AcDbEntity
  8
0
 62
     0
100
AcDbLine
 10
230.0792452830186
 20
502.3153560398393
 30
0.0
 11
228.9239862686275
 21
501.1600970254483
 31
0.0
  0
LINE
  5
119B
330
1191
100
AcDbEntity
  8
0
 62
     0
100
AcDbLine
 10
230.0792452830184
 20
501.776273245058
 30
0.0
 11
227.6954215026283
 21
504.1600970254481
 31
0.0
  0
LINE
  5
119C
330
1191
100
AcDbEntity
  8
0
 62
     0
100
AcDbLine
 10
227.1598875966955
 20
501.1600970254483
 30
0.0
 11
224.1598875966956
 21
504.1600970254481
 31
0.0
  0
LINE
  5
119D
330
1191
100
AcDbEntity
  8
0
 62
     0
100
AcDbLine
 10
223.6243536907629
 20
501.1600970254483
 30
0.0
 11
220.624353690763
 21
504.1600970254481
 31
0.0
  0
LINE
  5
119E
330
1191
100
AcDbEntity
  8
0
 62
     0
100
AcDbLine
 10
217.5792452830184
 20
503.6696715272598
 30
0.0
 11
217.0888197848301
 21
504.1600970254481
 31
0.0
  0
LINE
  5
119F
330
1191
100
AcDbEntity
  8
0
 62
     0
100
AcDbLine
 10
220.08881978483
 20
501.1600970254483
 30
0.0
 11
217.5792452830186
 21
503.6696715272598
 31
0.0
  0
LINE
  5
11A0
330
1191
100
AcDbEntity
  8
0
 62
     0
100
AcDbLine
 10
216.5532858788975
 20
501.1600970254481
 30
0.0
 11
213.5532858788975
 21
504.1600970254481
 31
0.0
  0
LINE
  5
11A1
330
1191
100
AcDbEntity
  8
0
 62
     0
100
AcDbLine
 10
213.0177519729648
 20
501.1600970254481
 30
0.0
 11
210.0177519729648
 21
504.1600970254481
 31
0.0
  0
LINE
  5
11A2
330
1191
100
AcDbEntity
  8
0
 62
     0
100
AcDbLine
 10
209.482218067032
 20
501.1600970254481
 30
0.0
 11
206.482218067032
 21
504.1600970254481
 31
0.0
  0
LINE
  5
11A3
330
1191
100
AcDbEntity
  8
0
 62
     0
100
AcDbLine
 10
205.9466841610992
 20
501.1600970254483
 30
0.0
 11
205.0792452830186
 21
502.0275359035288
 31
0.0
  0
ENDBLK
  5
11A5
330
1191
100
AcDbEntity
  8
0
100
AcDbBlockEnd
  0
ENDSEC
  0
SECTION
  2
ENTITIES
  0
LINE
  5
1F8
330
A
100
AcDbEntity
  8
03
100
AcDbLine
 10
132.5792452830187
 20
109.160097025448
 30
0.0
 11
132.5792452830187
 21
136.160097025448
 31
0.0
  0
LINE
  5
1F9
330
A
100
AcDbEntity
  8
03
100
AcDbLine
 10
132.5792452830187
 20
507.1600970254481
 30
0.0
 11
132.5792452830185
 21
534.1600970254481
 31
0.0
  0
LINE
  5
1FA
330
A
100
AcDbEntity
  8
03
100
AcDbLine
 10
192.5792452830186
 20
257.1600970254481
 30
0.0
 11
192.5792452830184
 21
321.1600970254481
 31
0.0
  0
LINE
  5
1FB
330
A
100
AcDbEntity
  8
06
100
AcDbLine
 10
197.5792452830186
 20
257.1600970254481
 30
0.0
 11
197.5792452830184
 21
321.1600970254481
 31
0.0
  0
LINE
  5
1FC
330
A
100
AcDbEntity
  8
06
100
AcDbLine
 10
197.5792452830186
 20
434.1600970254481
 30
0.0
 11
197.5792452830186
 21
498.1600970254483
 31
0.0
  0
LINE
  5
1FD
330
A
100
AcDbEntity
  8
06
100
AcDbLine
 10
237.5792452830185
 20
257.1600970254481
 30
0.0
 11
237.5792452830185
 21
309.1600970254481
 31
0.0
  0
LINE
  5
1FE
330
A
100
AcDbEntity
  8
06
100
AcDbLine
 10
237.5792452830185
 20
446.160097025448
 30
0.0
 11
237.5792452830185
 21
498.1600970254483
 31
0.0
  0
LINE
  5
1FF
330
A
100
AcDbEntity
  8
03
100
AcDbLine
 10
322.5792452830186
 20
109.1600970254482
 30
0.0
 11
322.5792452830186
 21
136.1600970254482
 31
0.0
  0
LINE
  5
200
330
A
100
AcDbEntity
  8
03
100
AcDbLine
 10
322.5792452830185
 20
507.1600970254483
 30
0.0
 11
322.5792452830185
 21
534.1600970254481
 31
0.0
  0
LINE
  5
201
330
A
100
AcDbEntity
  8
03
100
AcDbLine
 10
135.5792452830185
 20
139.160097025448
 30
0.0
 11
159.0792452830186
 21
139.160097025448
 31
0.0
  0
LINE
  5
202
330
A
100
AcDbEntity
  8
03
100
AcDbLine
 10
171.0792452830186
 20
139.1600970254482
 30
0.0
 11
319.5792452830186
 21
139.1600970254482
 31
0.0
  0
ARC
  5
203
330
A
100
AcDbEntity
  8
03
100
AcDbCircle
 10
319.5792452830186
 20
136.1600970254482
 30
0.0
 40
3.0
100
AcDbArc
 50
0.0000000000000241
 51
90.00000000000005
  0
ARC
  5
204
330
A
100
AcDbEntity
  8
03
100
AcDbCircle
 10
135.5792452830185
 20
136.160097025448
 30
0.0
 40
3.0
100
AcDbArc
 50
90.00000000000005
 51
180.0
  0
LINE
  5
205
330
A
100
AcDbEntity
  8
03
100
AcDbLine
 10
132.5792452830187
 20
109.160097025448
 30
0.0
 11
322.5792452830186
 21
109.1600970254482
 31
0.0
  0
LINE
  5
206
330
A
100
AcDbEntity
  8
03
100
AcDbLine
 10
132.5792452830185
 20
534.1600970254481
 30
0.0
 11
159.0792452830184
 21
534.1600970254481
 31
0.0
  0
LINE
  5
207
330
A
100
AcDbEntity
  8
03
100
AcDbLine
 10
171.0792452830184
 20
534.1600970254481
 30
0.0
 11
322.5792452830185
 21
534.1600970254481
 31
0.0
  0
LINE
  5
208
330
A
100
AcDbEntity
  8
03
100
AcDbLine
 10
135.5792452830187
 20
504.1600970254481
 30
0.0
 11
319.5792452830185
 21
504.1600970254481
 31
0.0
1001
ACAD
1000
ASC_BOUNDS
1002
{
1070
    19
1005
9F2
1005
9F2
1002
}
  0
ARC
  5
209
330
A
100
AcDbEntity
  8
03
100
AcDbCircle
 10
319.5792452830185
 20
507.1600970254483
 30
0.0
 40
3.0
100
AcDbArc
 50
269.9999999999999
 51
0.0
  0
ARC
  5
20A
330
A
100
AcDbEntity
  8
03
100
AcDbCircle
 10
135.5792452830187
 20
507.1600970254481
 30
0.0
 40
3.0
100
AcDbArc
 50
180.0000000000001
 51
269.9999999999999
  0
LINE
  5
20B
330
A
100
AcDbEntity
  8
03
100
AcDbLine
 10
140.5792452830185
 20
254.1600970254481
 30
0.0
 11
159.0792452830186
 21
254.1600970254481
 31
0.0
  0
LINE
  5
20C
330
A
100
AcDbEntity
  8
03
100
AcDbLine
 10
171.0792452830185
 20
254.1600970254481
 30
0.0
 11
189.5792452830184
 21
254.1600970254481
 31
0.0
  0
ARC
  5
20D
330
A
100
AcDbEntity
  8
03
100
AcDbCircle
 10
189.5792452830184
 20
257.1600970254481
 30
0.0
 40
3.0
100
AcDbArc
 50
269.9999999999999
 51
0.0
  0
LINE
  5
20E
330
A
100
AcDbEntity
  8
06
100
AcDbLine
 10
200.5792452830184
 20
254.1600970254481
 30
0.0
 11
234.5792452830186
 21
254.1600970254481
 31
0.0
  0
ARC
  5
20F
330
A
100
AcDbEntity
  8
06
100
AcDbCircle
 10
234.5792452830186
 20
257.1600970254481
 30
0.0
 40
3.0
100
AcDbArc
 50
269.9999999999999
 51
0.0
  0
ARC
  5
210
330
A
100
AcDbEntity
  8
06
100
AcDbCircle
 10
200.5792452830184
 20
257.1600970254481
 30
0.0
 40
3.0
100
AcDbArc
 50
180.0
 51
269.9999999999999
  0
LINE
  5
211
330
A
100
AcDbEntity
  8
03
100
AcDbLine
 10
140.5792452830184
 20
324.1600970254481
 30
0.0
 11
159.0792452830184
 21
324.1600970254481
 31
0.0
  0
LINE
  5
212
330
A
100
AcDbEntity
  8
03
100
AcDbLine
 10
171.0792452830184
 20
324.1600970254481
 30
0.0
 11
189.5792452830184
 21
324.1600970254481
 31
0.0
  0
ARC
  5
213
330
A
100
AcDbEntity
  8
03
100
AcDbCircle
 10
189.5792452830184
 20
321.1600970254481
 30
0.0
 40
3.0
100
AcDbArc
 50
0.0000000000000241
 51
90.00000000000005
  0
LINE
  5
214
330
A
100
AcDbEntity
  8
06
100
AcDbLine
 10
200.5792452830184
 20
324.1600970254481
 30
0.0
 11
213.5792452830186
 21
324.1600970254481
 31
0.0
  0
ARC
  5
215
330
A
100
AcDbEntity
  8
06
100
AcDbCircle
 10
200.5792452830184
 20
321.1600970254481
 30
0.0
 40
3.0
100
AcDbArc
 50
90.00000000000005
 51
180.0
  0
LINE
  5
216
330
A
100
AcDbEntity
  8
06
100
AcDbLine
 10
200.5792452830186
 20
431.1600970254481
 30
0.0
 11
213.5792452830186
 21
431.1600970254483
 31
0.0
  0
ARC
  5
217
330
A
100
AcDbEntity
  8
06
100
AcDbCircle
 10
200.5792452830186
 20
434.1600970254481
 30
0.0
 40
3.0
100
AcDbArc
 50
180.0
 51
269.9999999999999
  0
LINE
  5
218
330
A
100
AcDbEntity
  8
06
100
AcDbLine
 10
200.5792452830184
 20
501.1600970254483
 30
0.0
 11
234.5792452830184
 21
501.1600970254483
 31
0.0
1001
ACAD
1000
ASC_BOUNDS
1002
{
1070
    19
1005
9F2
1005
9F2
1002
}
  0
ARC
  5
219
330
A
100
AcDbEntity
  8
06
100
AcDbCircle
 10
234.5792452830184
 20
498.1600970254483
 30
0.0
 40
3.0
100
AcDbArc
 50
0.0000000000000241
 51
90.00000000000005
  0
ARC
  5
21A
330
A
100
AcDbEntity
  8
06
100
AcDbCircle
 10
200.5792452830184
 20
498.1600970254483
 30
0.0
 40
3.0
100
AcDbArc
 50
90.00000000000005
 51
180.0
  0
LINE
  5
21B
330
A
100
AcDbEntity
  8
03
100
AcDbLine
 10
142.5792452830186
 20
139.1600970254482
 30
0.0
 11
142.5792452830186
 21
186.5433895118511
 31
0.0
  0
LINE
  5
21C
330
A
100
AcDbEntity
  8
03
100
AcDbLine
 10
142.5792452830186
 20
191.5433895118511
 30
0.0
 11
142.5792452830186
 21
254.1600970254481
 31
0.0
  0
LINE
  5
21D
330
A
100
AcDbEntity
  8
03
100
AcDbLine
 10
187.5792452830186
 20
139.1600970254482
 30
0.0
 11
187.5792452830186
 21
186.5433895118511
 31
0.0
  0
LINE
  5
21E
330
A
100
AcDbEntity
  8
03
100
AcDbLine
 10
187.5792452830186
 20
191.5433895118511
 30
0.0
 11
187.5792452830186
 21
254.1600970254481
 31
0.0
  0
LINE
  5
21F
330
A
100
AcDbEntity
  8
03
100
AcDbLine
 10
137.5792452830185
 20
257.1600970254481
 30
0.0
 11
137.5792452830184
 21
321.1600970254481
 31
0.0
  0
ARC
  5
220
330
A
100
AcDbEntity
  8
03
100
AcDbCircle
 10
140.5792452830184
 20
321.1600970254481
 30
0.0
 40
3.0
100
AcDbArc
 50
90.00000000000005
 51
180.0
  0
ARC
  5
221
330
A
100
AcDbEntity
  8
03
100
AcDbCircle
 10
140.5792452830185
 20
257.1600970254481
 30
0.0
 40
3.0
100
AcDbArc
 50
180.0
 51
269.9999999999999
  0
LINE
  5
222
330
A
100
AcDbEntity
  8
03
100
AcDbLine
 10
159.0792452830186
 20
254.1600970254481
 30
0.0
 11
159.0792452830184
 21
324.1600970254481
 31
0.0
  0
LINE
  5
223
330
A
100
AcDbEntity
  8
03
100
AcDbLine
 10
171.0792452830185
 20
254.1600970254481
 30
0.0
 11
171.0792452830184
 21
324.1600970254481
 31
0.0
  0
LINE
  5
224
330
A
100
AcDbEntity
  8
03
100
AcDbLine
 10
159.0792452830184
 20
504.1600970254481
 30
0.0
 11
159.0792452830184
 21
534.1600970254481
 31
0.0
  0
LINE
  5
225
330
A
100
AcDbEntity
  8
03
100
AcDbLine
 10
171.0792452830184
 20
504.1600970254481
 30
0.0
 11
171.0792452830184
 21
534.1600970254481
 31
0.0
  0
LINE
  5
226
330
A
100
AcDbEntity
  8
03
100
AcDbLine
 10
159.0792452830186
 20
127.1600970254482
 30
0.0
 11
159.0792452830186
 21
139.1600970254482
 31
0.0
  0
LINE
  5
227
330
A
100
AcDbEntity
  8
03
100
AcDbLine
 10
171.0792452830184
 20
127.1600970254481
 30
0.0
 11
171.0792452830186
 21
139.1600970254482
 31
0.0
  0
LINE
  5
228
330
A
100
AcDbEntity
  8
03
100
AcDbLine
 10
159.0792452830186
 20
127.1600970254482
 30
0.0
 11
171.0792452830184
 21
127.1600970254482
 31
0.0
  0
LINE
  5
229
330
A
100
AcDbEntity
  8
03
100
AcDbLine
 10
162.0792452830186
 20
133.1600970254482
 30
0.0
 11
162.0792452830186
 21
186.5433895118511
 31
0.0
  0
LINE
  5
22A
330
A
100
AcDbEntity
  8
03
100
AcDbLine
 10
162.0792452830186
 20
191.5433895118511
 30
0.0
 11
162.0792452830186
 21
227.967852231972
 31
0.0
  0
LINE
  5
22B
330
A
100
AcDbEntity
  8
03
100
AcDbLine
 10
162.0792452830186
 20
237.8059368045021
 30
0.0
 11
162.0792452830186
 21
260.1600970254482
 31
0.0
  0
LINE
  5
22C
330
A
100
AcDbEntity
  8
03
100
AcDbLine
 10
168.0792452830186
 20
133.1600970254482
 30
0.0
 11
168.0792452830186
 21
186.5433895118511
 31
0.0
  0
LINE
  5
22D
330
A
100
AcDbEntity
  8
03
100
AcDbLine
 10
168.0792452830186
 20
191.5433895118511
 30
0.0
 11
168.0792452830186
 21
227.967852231972
 31
0.0
  0
LINE
  5
22E
330
A
100
AcDbEntity
  8
03
100
AcDbLine
 10
168.0792452830186
 20
237.8059368045021
 30
0.0
 11
168.0792452830186
 21
260.1600970254482
 31
0.0
  0
LINE
  5
22F
330
A
100
AcDbEntity
  8
03
100
AcDbLine
 10
167.0792452830186
 20
133.1600970254482
 30
0.0
 11
167.0792452830186
 21
186.5433895118511
 31
0.0
  0
LINE
  5
230
330
A
100
AcDbEntity
  8
03
100
AcDbLine
 10
167.0792452830186
 20
191.5433895118511
 30
0.0
 11
167.0792452830186
 21
227.967852231972
 31
0.0
  0
LINE
  5
231
330
A
100
AcDbEntity
  8
03
100
AcDbLine
 10
167.0792452830186
 20
237.8059368045021
 30
0.0
 11
167.0792452830186
 21
260.1600970254482
 31
0.0
  0
LINE
  5
232
330
A
100
AcDbEntity
  8
03
100
AcDbLine
 10
163.0792452830186
 20
133.1600970254482
 30
0.0
 11
163.0792452830186
 21
186.5433895118511
 31
0.0
  0
LINE
  5
233
330
A
100
AcDbEntity
  8
03
100
AcDbLine
 10
163.0792452830186
 20
191.5433895118511
 30
0.0
 11
163.0792452830186
 21
227.967852231972
 31
0.0
  0
LINE
  5
234
330
A
100
AcDbEntity
  8
03
100
AcDbLine
 10
163.0792452830186
 20
237.8059368045021
 30
0.0
 11
163.0792452830186
 21
260.1600970254482
 31
0.0
  0
LINE
  5
235
330
A
100
AcDbEntity
  8
03
100
AcDbLine
 10
162.0792452830186
 20
133.1600970254482
 30
0.0
 11
168.0792452830186
 21
133.1600970254482
 31
0.0
  0
LINE
  5
236
330
A
100
AcDbEntity
  8
03
100
AcDbLine
 10
162.0792452830186
 20
260.1600970254482
 30
0.0
 11
168.0792452830186
 21
260.1600970254482
 31
0.0
  0
LINE
  5
237
330
A
100
AcDbEntity
  8
03
100
AcDbLine
 10
159.0792452830186
 20
139.1600970254482
 30
0.0
 11
162.0792452830186
 21
140.1600970254482
 31
0.0
  0
LINE
  5
238
330
A
100
AcDbEntity
  8
03
100
AcDbLine
 10
159.0792452830186
 20
254.1600970254481
 30
0.0
 11
162.0792452830186
 21
253.1600970254481
 31
0.0
  0
LINE
  5
239
330
A
100
AcDbEntity
  8
03
100
AcDbLine
 10
171.0792452830185
 20
139.1600970254482
 30
0.0
 11
168.0792452830186
 21
140.1600970254482
 31
0.0
  0
LINE
  5
23A
330
A
100
AcDbEntity
  8
03
100
AcDbLine
 10
171.0792452830185
 20
254.1600970254481
 30
0.0
 11
168.0792452830186
 21
253.1600970254481
 31
0.0
  0
LINE
  5
23B
330
A
100
AcDbEntity
  8
06
100
AcDbLine
 10
214.5792452830185
 20
318.1600970254482
 30
0.0
 11
214.5792452830185
 21
370.9400020143692
 31
0.0
  0
LINE
  5
23C
330
A
100
AcDbEntity
  8
06
100
AcDbLine
 10
214.5792452830186
 20
375.9400020143692
 30
0.0
 11
214.5792452830185
 21
437.1600970254481
 31
0.0
  0
LINE
  5
23D
330
A
100
AcDbEntity
  8
06
100
AcDbLine
 10
220.5792452830184
 20
318.1600970254482
 30
0.0
 11
220.5792452830184
 21
370.9400020143692
 31
0.0
  0
LINE
  5
23E
330
A
100
AcDbEntity
  8
06
100
AcDbLine
 10
220.5792452830186
 20
375.9400020143692
 30
0.0
 11
220.5792452830184
 21
437.1600970254481
 31
0.0
  0
LINE
  5
23F
330
A
100
AcDbEntity
  8
06
100
AcDbLine
 10
219.5792452830184
 20
318.1600970254482
 30
0.0
 11
219.5792452830184
 21
370.9400020143692
 31
0.0
  0
LINE
  5
240
330
A
100
AcDbEntity
  8
06
100
AcDbLine
 10
219.5792452830186
 20
375.9400020143692
 30
0.0
 11
219.5792452830186
 21
437.1600970254481
 31
0.0
  0
LINE
  5
241
330
A
100
AcDbEntity
  8
06
100
AcDbLine
 10
215.5792452830184
 20
318.1600970254482
 30
0.0
 11
215.5792452830184
 21
370.9400020143692
 31
0.0
  0
LINE
  5
242
330
A
100
AcDbEntity
  8
06
100
AcDbLine
 10
215.5792452830186
 20
375.9400020143692
 30
0.0
 11
215.5792452830186
 21
437.1600970254481
 31
0.0
  0
LINE
  5
243
330
A
100
AcDbEntity
  8
06
100
AcDbLine
 10
214.5792452830185
 20
318.1600970254482
 30
0.0
 11
220.5792452830184
 21
318.1600970254482
 31
0.0
  0
LINE
  5
244
330
A
100
AcDbEntity
  8
06
100
AcDbLine
 10
214.5792452830185
 20
437.1600970254481
 30
0.0
 11
220.5792452830184
 21
437.1600970254481
 31
0.0
  0
LINE
  5
245
330
A
100
AcDbEntity
  8
06
100
AcDbLine
 10
213.5792452830186
 20
312.1600970254482
 30
0.0
 11
213.5792452830186
 21
324.1600970254481
 31
0.0
  0
LINE
  5
246
330
A
100
AcDbEntity
  8
06
100
AcDbLine
 10
213.5792452830186
 20
431.1600970254483
 30
0.0
 11
213.5792452830186
 21
443.1600970254481
 31
0.0
  0
LINE
  5
247
330
A
100
AcDbEntity
  8
06
100
AcDbLine
 10
213.5792452830186
 20
312.1600970254482
 30
0.0
 11
234.5792452830184
 21
312.1600970254482
 31
0.0
  0
ARC
  5
248
330
A
100
AcDbEntity
  8
06
100
AcDbCircle
 10
234.5792452830184
 20
309.1600970254481
 30
0.0
 40
3.0
100
AcDbArc
 50
0.0000000000000241
 51
90.00000000000005
  0
LINE
  5
249
330
A
100
AcDbEntity
  8
06
100
AcDbLine
 10
213.5792452830187
 20
443.1600970254481
 30
0.0
 11
234.5792452830186
 21
443.1600970254483
 31
0.0
  0
ARC
  5
24A
330
A
100
AcDbEntity
  8
06
100
AcDbCircle
 10
234.5792452830186
 20
446.160097025448
 30
0.0
 40
3.0
100
AcDbArc
 50
269.9999999999999
 51
0.0
  0
LINE
  5
24B
330
A
100
AcDbEntity
  8
06
100
AcDbLine
 10
221.5792452830184
 20
312.1600970254482
 30
0.0
 11
221.5792452830184
 21
324.1600970254481
 31
0.0
  0
LINE
  5
24C
330
A
100
AcDbEntity
  8
06
100
AcDbLine
 10
221.5792452830184
 20
431.1600970254483
 30
0.0
 11
221.5792452830184
 21
443.1600970254481
 31
0.0
  0
LINE
  5
24D
330
A
100
AcDbEntity
  8
06
100
AcDbLine
 10
232.5792452830186
 20
434.1600970254481
 30
0.0
 11
232.5792452830184
 21
443.1600970254483
 31
0.0
  0
LINE
  5
24E
330
A
100
AcDbEntity
  8
06
100
AcDbLine
 10
232.5792452830184
 20
312.1600970254482
 30
0.0
 11
232.5792452830184
 21
321.1600970254481
 31
0.0
  0
LINE
  5
24F
330
A
100
AcDbEntity
  8
06
100
AcDbLine
 10
221.5792452830184
 20
324.1600970254481
 30
0.0
 11
229.5792452830184
 21
324.1600970254481
 31
0.0
  0
ARC
  5
250
330
A
100
AcDbEntity
  8
06
100
AcDbCircle
 10
229.5792452830184
 20
321.1600970254481
 30
0.0
 40
3.0
100
AcDbArc
 50
0.0000000000000241
 51
90.00000000000005
  0
LINE
  5
251
330
A
100
AcDbEntity
  8
06
100
AcDbLine
 10
221.5792452830184
 20
431.1600970254483
 30
0.0
 11
229.5792452830184
 21
431.1600970254483
 31
0.0
  0
ARC
  5
252
330
A
100
AcDbEntity
  8
06
100
AcDbCircle
 10
229.5792452830184
 20
434.1600970254481
 30
0.0
 40
3.0
100
AcDbArc
 50
269.9999999999999
 51
0.0
  0
LINE
  5
253
330
A
100
AcDbEntity
  8
03
100
AcDbLine
 10
127.5792452830186
 20
370.9400020143692
 30
0.0
 11
170.1616170279116
 21
370.9400020143692
 31
0.0
  0
LINE
  5
254
330
A
100
AcDbEntity
  8
03
100
AcDbLine
 10
196.8581000240984
 20
370.9400020143691
 30
0.0
 11
332.5792452830186
 21
370.9400020143692
 31
0.0
  0
LINE
  5
255
330
A
100
AcDbEntity
  8
03
100
AcDbLine
 10
127.5792452830186
 20
375.9400020143692
 30
0.0
 11
170.1616170279116
 21
375.9400020143692
 31
0.0
  0
LINE
  5
256
330
A
100
AcDbEntity
  8
03
100
AcDbLine
 10
196.8581000240984
 20
375.9400020143691
 30
0.0
 11
332.5792452830186
 21
375.9400020143692
 31
0.0
  0
LINE
  5
257
330
A
100
AcDbEntity
  8
03
100
AcDbLine
 10
127.5792452830187
 20
186.5433895118511
 30
0.0
 11
332.5792452830186
 21
186.5433895118511
 31
0.0
  0
LINE
  5
258
330
A
100
AcDbEntity
  8
03
100
AcDbLine
 10
127.5792452830187
 20
191.5433895118511
 30
0.0
 11
332.5792452830186
 21
191.5433895118511
 31
0.0
  0
LINE
  5
259
330
A
100
AcDbEntity
  8
03
100
AcDbLine
 10
159.0792452830186
 20
139.1600970254482
 30
0.0
 11
159.0792452830186
 21
186.5433895118511
 31
0.0
  0
LINE
  5
25A
330
A
100
AcDbEntity
  8
03
100
AcDbLine
 10
159.0792452830186
 20
191.5433895118511
 30
0.0
 11
159.0792452830186
 21
254.1600970254481
 31
0.0
  0
LINE
  5
25B
330
A
100
AcDbEntity
  8
03
100
AcDbLine
 10
171.0792452830186
 20
139.1600970254482
 30
0.0
 11
171.0792452830186
 21
186.5433895118511
 31
0.0
  0
LINE
  5
25C
330
A
100
AcDbEntity
  8
03
100
AcDbLine
 10
171.0792452830186
 20
191.5433895118511
 30
0.0
 11
171.0792452830185
 21
254.1600970254481
 31
0.0
  0
LINE
  5
25D
330
A
100
AcDbEntity
  8
06
100
AcDbLine
 10
213.5792452830186
 20
324.1600970254481
 30
0.0
 11
213.5792452830186
 21
370.9400020143692
 31
0.0
  0
LINE
  5
25E
330
A
100
AcDbEntity
  8
06
100
AcDbLine
 10
213.5792452830186
 20
375.9400020143692
 30
0.0
 11
213.5792452830186
 21
431.1600970254483
 31
0.0
  0
LINE
  5
25F
330
A
100
AcDbEntity
  8
06
100
AcDbLine
 10
221.5792452830184
 20
324.1600970254481
 30
0.0
 11
221.5792452830184
 21
370.9400020143692
 31
0.0
  0
LINE
  5
260
330
A
100
AcDbEntity
  8
06
100
AcDbLine
 10
221.5792452830184
 20
375.9400020143692
 30
0.0
 11
221.5792452830184
 21
431.1600970254483
 31
0.0
  0
LINE
  5
261
330
A
100
AcDbEntity
  8
06
100
AcDbLine
 10
197.5792452830184
 20
321.1600970254481
 30
0.0
 11
197.5792452830186
 21
370.9400020143692
 31
0.0
  0
LINE
  5
262
330
A
100
AcDbEntity
  8
06
100
AcDbLine
 10
197.5792452830186
 20
375.9400020143692
 30
0.0
 11
197.5792452830186
 21
434.1600970254481
 31
0.0
  0
LINE
  5
263
330
A
100
AcDbEntity
  8
06
100
AcDbLine
 10
237.5792452830185
 20
309.1600970254481
 30
0.0
 11
237.5559237705626
 21
370.9400020143692
 31
0.0
  0
LINE
  5
264
330
A
100
AcDbEntity
  8
06
100
AcDbLine
 10
237.5540363030713
 20
375.9400020143692
 30
0.0
 11
237.5277376268602
 21
445.6065693402264
 31
0.0
  0
LINE
  5
265
330
A
100
AcDbEntity
  8
06
100
AcDbLine
 10
205.0792452830186
 20
501.1600970254481
 30
0.0
 11
205.0792452830184
 21
504.1600970254481
 31
0.0
1001
ACAD
1000
ASC_BOUNDS
1002
{
1070
    19
1005
9F2
1002
}
  0
LINE
  5
266
330
A
100
AcDbEntity
  8
06
100
AcDbLine
 10
230.0792452830186
 20
501.1600970254483
 30
0.0
 11
230.0792452830186
 21
504.1600970254481
 31
0.0
1001
ACAD
1000
ASC_BOUNDS
1002
{
1070
    19
1005
9F2
1002
}
  0
LINE
  5
267
330
A
100
AcDbEntity
  8
03
100
AcDbLine
 10
159.0792452830184
 20
266.1600970254482
 30
0.0
 11
171.0792452830184
 21
266.1600970254482
 31
0.0
  0
LINE
  5
268
330
A
100
AcDbEntity
  8
03
100
AcDbLine
 10
159.0792452830184
 20
301.1600970254481
 30
0.0
 11
171.0792452830184
 21
301.1600970254481
 31
0.0
  0
LINE
  5
269
330
A
100
AcDbEntity
  8
SOUZOU
100
AcDbLine
 10
137.5792452830185
 20
139.1600970254482
 30
0.0
 11
137.5792452830185
 21
186.5433895118511
 31
0.0
  0
LINE
  5
26A
330
A
100
AcDbEntity
  8
SOUZOU
100
AcDbLine
 10
137.5792452830185
 20
191.5433895118511
 30
0.0
 11
137.5792452830185
 21
257.1600970254481
 31
0.0
  0
LINE
  5
26B
330
A
100
AcDbEntity
  8
SOUZOU
100
AcDbLine
 10
137.5792452830184
 20
321.1600970254481
 30
0.0
 11
137.5792452830184
 21
370.9400020143692
 31
0.0
  0
LINE
  5
26C
330
A
100
AcDbEntity
  8
SOUZOU
100
AcDbLine
 10
137.5792452830185
 20
375.9400020143692
 30
0.0
 11
137.5792452830184
 21
504.1600970254481
 31
0.0
  0
LINE
  5
26D
330
A
100
AcDbEntity
  8
SOUZOU
100
AcDbLine
 10
322.5792452830186
 20
140.1600970254482
 30
0.0
 11
322.5792452830186
 21
186.5433895118511
 31
0.0
  0
LINE
  5
26E
330
A
100
AcDbEntity
  8
SOUZOU
100
AcDbLine
 10
322.5792452830186
 20
191.5433895118511
 30
0.0
 11
322.5792452830185
 21
370.9400020143692
 31
0.0
  0
LINE
  5
26F
330
A
100
AcDbEntity
  8
SOUZOU
100
AcDbLine
 10
322.5792452830186
 20
375.9400020143692
 30
0.0
 11
322.5792452830185
 21
503.1600970254483
 31
0.0
  0
LINE
  5
270
330
A
100
AcDbEntity
  8
KAKURE
100
AcDbLine
 10
297.5792452830186
 20
140.1600970254482
 30
0.0
 11
297.5792452830186
 21
186.5433895118511
 31
0.0
  0
LINE
  5
271
330
A
100
AcDbEntity
  8
KAKURE
100
AcDbLine
 10
297.5792452830186
 20
191.5433895118511
 30
0.0
 11
297.5792452830185
 21
370.9400020143692
 31
0.0
  0
LINE
  5
272
330
A
100
AcDbEntity
  8
KAKURE
100
AcDbLine
 10
297.5792452830186
 20
375.9400020143692
 30
0.0
 11
297.5792452830185
 21
503.1600970254483
 31
0.0
  0
LINE
  5
273
330
A
100
AcDbEntity
  8
KAKURE
100
AcDbLine
 10
242.5792452830186
 20
140.1600970254482
 30
0.0
 11
242.5792452830186
 21
186.5433895118511
 31
0.0
  0
LINE
  5
274
330
A
100
AcDbEntity
  8
KAKURE
100
AcDbLine
 10
242.5792452830186
 20
191.5433895118511
 30
0.0
 11
242.5792452830184
 21
370.9400020143692
 31
0.0
  0
LINE
  5
275
330
A
100
AcDbEntity
  8
KAKURE
100
AcDbLine
 10
242.5792452830186
 20
375.9400020143692
 30
0.0
 11
242.5792452830184
 21
503.1600970254483
 31
0.0
  0
LINE
  5
276
330
A
100
AcDbEntity
  8
KAKURE
100
AcDbLine
 10
242.5792452830186
 20
140.1600970254482
 30
0.0
 11
322.5792452830186
 21
140.1600970254482
 31
0.0
  0
LINE
  5
277
330
A
100
AcDbEntity
  8
KAKURE
100
AcDbLine
 10
242.5792452830184
 20
503.1600970254483
 30
0.0
 11
322.5792452830185
 21
503.1600970254483
 31
0.0
  0
LINE
  5
278
330
A
100
AcDbEntity
  8
KAKURE
100
AcDbLine
 10
204.5792452830186
 20
279.1600970254481
 30
0.0
 11
204.5792452830186
 21
370.9400020143692
 31
0.0
  0
LINE
  5
279
330
A
100
AcDbEntity
  8
KAKURE
100
AcDbLine
 10
204.5792452830186
 20
375.9400020143692
 30
0.0
 11
204.5792452830186
 21
476.1600970254483
 31
0.0
  0
LINE
  5
27A
330
A
100
AcDbEntity
  8
KAKURE
100
AcDbLine
 10
230.5792452830186
 20
279.1600970254481
 30
0.0
 11
230.5792452830186
 21
370.9400020143692
 31
0.0
  0
LINE
  5
27B
330
A
100
AcDbEntity
  8
KAKURE
100
AcDbLine
 10
230.5792452830186
 20
375.9400020143692
 30
0.0
 11
230.5792452830186
 21
476.1600970254483
 31
0.0
  0
LINE
  5
27C
330
A
100
AcDbEntity
  8
KAKURE
100
AcDbLine
 10
204.5792452830186
 20
279.1600970254481
 30
0.0
 11
230.0680960548882
 21
279.1600970254481
 31
0.0
  0
LINE
  5
27D
330
A
100
AcDbEntity
  8
KAKURE
100
AcDbLine
 10
204.5792452830186
 20
476.1600970254483
 30
0.0
 11
230.5792452830186
 21
476.1600970254483
 31
0.0
  0
LINE
  5
27E
330
A
100
AcDbEntity
  8
CHUSIN
100
AcDbLine
 10
165.0792452830186
 20
118.1600970254478
 30
0.0
 11
165.0792452830186
 21
186.5433895118511
 31
0.0
  0
LINE
  5
27F
330
A
100
AcDbEntity
  8
CHUSIN
100
AcDbLine
 10
165.0792452830186
 20
191.5433895118511
 30
0.0
 11
165.0792452830184
 21
370.9400020143692
 31
0.0
  0
LINE
  5
280
330
A
100
AcDbEntity
  8
CHUSIN
100
AcDbLine
 10
165.0792452830186
 20
375.9400020143692
 30
0.0
 11
165.0792452830184
 21
537.4777789340067
 31
0.0
  0
LINE
  5
281
330
A
100
AcDbEntity
  8
CHUSIN
100
AcDbLine
 10
217.5792452830186
 20
118.1600970254478
 30
0.0
 11
217.5792452830186
 21
186.5433895118511
 31
0.0
  0
LINE
  5
282
330
A
100
AcDbEntity
  8
CHUSIN
100
AcDbLine
 10
217.5792452830186
 20
191.5433895118511
 30
0.0
 11
217.5792452830184
 21
370.9400020143692
 31
0.0
  0
LINE
  5
283
330
A
100
AcDbEntity
  8
CHUSIN
100
AcDbLine
 10
217.5792452830186
 20
375.9400020143692
 30
0.0
 11
217.5792452830184
 21
511.5691757262411
 31
0.0
1001
ACAD
1000
ASC_BOUNDS
1002
{
1070
    19
1005
9F2
1005
9F2
1002
}
  0
LINE
  5
309
330
A
100
AcDbEntity
  8
04
100
AcDbLine
 10
163.8292452830184
 20
295.9717598638593
 30
0.0
 11
163.8529180551488
 21
295.9611187837276
 31
0.0
  0
LINE
  5
30A
330
A
100
AcDbEntity
  8
04
100
AcDbLine
 10
163.8529180551488
 20
295.9611187837276
 30
0.0
 11
163.8765772866906
 21
295.9505066748746
 31
0.0
  0
LINE
  5
30B
330
A
100
AcDbEntity
  8
04
100
AcDbLine
 10
163.8765772866906
 20
295.9505066748746
 30
0.0
 11
163.9002094370558
 21
295.9399525085789
 31
0.0
  0
LINE
  5
30C
330
A
100
AcDbEntity
  8
04
100
AcDbLine
 10
163.9002094370558
 20
295.9399525085789
 30
0.0
 11
163.9238009656561
 21
295.9294852561191
 31
0.0
  0
LINE
  5
30D
330
A
100
AcDbEntity
  8
04
100
AcDbLine
 10
163.9238009656561
 20
295.9294852561191
 30
0.0
 11
163.9473383319031
 21
295.9191338887741
 31
0.0
  0
LINE
  5
30E
330
A
100
AcDbEntity
  8
04
100
AcDbLine
 10
163.9473383319031
 20
295.9191338887741
 30
0.0
 11
163.9708079952086
 21
295.9089273778225
 31
0.0
  0
LINE
  5
30F
330
A
100
AcDbEntity
  8
04
100
AcDbLine
 10
163.9708079952086
 20
295.9089273778225
 30
0.0
 11
163.994196414984
 21
295.8988946945428
 31
0.0
  0
LINE
  5
310
330
A
100
AcDbEntity
  8
04
100
AcDbLine
 10
163.994196414984
 20
295.8988946945428
 30
0.0
 11
164.0174900506414
 21
295.8890648102138
 31
0.0
  0
LINE
  5
311
330
A
100
AcDbEntity
  8
04
100
AcDbLine
 10
164.0174900506414
 20
295.8890648102138
 30
0.0
 11
164.0406753615921
 21
295.8794666961143
 31
0.0
  0
LINE
  5
312
330
A
100
AcDbEntity
  8
04
100
AcDbLine
 10
164.0406753615921
 20
295.8794666961143
 30
0.0
 11
164.0637388072478
 21
295.8701293235228
 31
0.0
  0
LINE
  5
313
330
A
100
AcDbEntity
  8
04
100
AcDbLine
 10
164.0637388072478
 20
295.8701293235228
 30
0.0
 11
164.0866668470204
 21
295.8610816637182
 31
0.0
  0
LINE
  5
314
330
A
100
AcDbEntity
  8
04
100
AcDbLine
 10
164.0866668470204
 20
295.8610816637182
 30
0.0
 11
164.1094459403215
 21
295.8523526879787
 31
0.0
  0
LINE
  5
315
330
A
100
AcDbEntity
  8
04
100
AcDbLine
 10
164.1094459403215
 20
295.8523526879787
 30
0.0
 11
164.1320625465626
 21
295.8439713675835
 31
0.0
  0
LINE
  5
316
330
A
100
AcDbEntity
  8
04
100
AcDbLine
 10
164.1320625465626
 20
295.8439713675835
 30
0.0
 11
164.1545031251558
 21
295.8359666738108
 31
0.0
  0
LINE
  5
317
330
A
100
AcDbEntity
  8
04
100
AcDbLine
 10
164.1545031251558
 20
295.8359666738108
 30
0.0
 11
164.1767541355123
 21
295.8283675779398
 31
0.0
  0
LINE
  5
318
330
A
100
AcDbEntity
  8
04
100
AcDbLine
 10
164.1767541355123
 20
295.8283675779398
 30
0.0
 11
164.198802037044
 21
295.8212030512488
 31
0.0
  0
LINE
  5
319
330
A
100
AcDbEntity
  8
04
100
AcDbLine
 10
164.198802037044
 20
295.8212030512488
 30
0.0
 11
164.2206332891626
 21
295.8145020650163
 31
0.0
  0
LINE
  5
31A
330
A
100
AcDbEntity
  8
04
100
AcDbLine
 10
164.2206332891626
 20
295.8145020650163
 30
0.0
 11
164.2422343512799
 21
295.8082935905216
 31
0.0
  0
LINE
  5
31B
330
A
100
AcDbEntity
  8
04
100
AcDbLine
 10
164.2422343512799
 20
295.8082935905216
 30
0.0
 11
164.2635916828073
 21
295.8026065990427
 31
0.0
  0
LINE
  5
31C
330
A
100
AcDbEntity
  8
04
100
AcDbLine
 10
164.2635916828073
 20
295.8026065990427
 30
0.0
 11
164.2846917431566
 21
295.7974700618588
 31
0.0
  0
LINE
  5
31D
330
A
100
AcDbEntity
  8
04
100
AcDbLine
 10
164.2846917431566
 20
295.7974700618588
 30
0.0
 11
164.3055209917396
 21
295.7929129502483
 31
0.0
  0
LINE
  5
31E
330
A
100
AcDbEntity
  8
04
100
AcDbLine
 10
164.3055209917396
 20
295.7929129502483
 30
0.0
 11
164.3260658879676
 21
295.7889642354898
 31
0.0
  0
LINE
  5
31F
330
A
100
AcDbEntity
  8
04
100
AcDbLine
 10
164.3260658879676
 20
295.7889642354898
 30
0.0
 11
164.3463128912529
 21
295.7856528888623
 31
0.0
  0
LINE
  5
320
330
A
100
AcDbEntity
  8
04
100
AcDbLine
 10
164.3463128912529
 20
295.7856528888623
 30
0.0
 11
164.3662484610066
 21
295.7830078816441
 31
0.0
  0
LINE
  5
321
330
A
100
AcDbEntity
  8
04
100
AcDbLine
 10
164.3662484610066
 20
295.7830078816441
 30
0.0
 11
164.3858590566406
 21
295.7810581851141
 31
0.0
  0
LINE
  5
322
330
A
100
AcDbEntity
  8
04
100
AcDbLine
 10
164.3858590566406
 20
295.7810581851141
 30
0.0
 11
164.4051311375668
 21
295.7798327705508
 31
0.0
  0
LINE
  5
323
330
A
100
AcDbEntity
  8
04
100
AcDbLine
 10
164.4051311375668
 20
295.7798327705508
 30
0.0
 11
164.4240511631965
 21
295.7793606092331
 31
0.0
  0
LINE
  5
324
330
A
100
AcDbEntity
  8
04
100
AcDbLine
 10
164.4240511631965
 20
295.7793606092331
 30
0.0
 11
164.4426055929415
 21
295.7796706724396
 31
0.0
  0
LINE
  5
325
330
A
100
AcDbEntity
  8
04
100
AcDbLine
 10
164.4426055929415
 20
295.7796706724396
 30
0.0
 11
164.4607808862136
 21
295.7807919314488
 31
0.0
  0
LINE
  5
326
330
A
100
AcDbEntity
  8
04
100
AcDbLine
 10
164.4607808862136
 20
295.7807919314488
 30
0.0
 11
164.4785635024245
 21
295.7827533575396
 31
0.0
  0
LINE
  5
327
330
A
100
AcDbEntity
  8
04
100
AcDbLine
 10
164.4785635024245
 20
295.7827533575396
 30
0.0
 11
164.4959449078462
 21
295.7855743630289
 31
0.0
  0
LINE
  5
328
330
A
100
AcDbEntity
  8
04
100
AcDbLine
 10
164.4959449078462
 20
295.7855743630289
 30
0.0
 11
164.5129365961925
 21
295.7892361243873
 31
0.0
  0
LINE
  5
329
330
A
100
AcDbEntity
  8
04
100
AcDbLine
 10
164.5129365961925
 20
295.7892361243873
 30
0.0
 11
164.5295550680382
 21
295.7937102591234
 31
0.0
  0
LINE
  5
32A
330
A
100
AcDbEntity
  8
04
100
AcDbLine
 10
164.5295550680382
 20
295.7937102591234
 30
0.0
 11
164.5458168239574
 21
295.7989683847463
 31
0.0
  0
LINE
  5
32B
330
A
100
AcDbEntity
  8
04
100
AcDbLine
 10
164.5458168239574
 20
295.7989683847463
 30
0.0
 11
164.5617383645245
 21
295.8049821187647
 31
0.0
  0
LINE
  5
32C
330
A
100
AcDbEntity
  8
04
100
AcDbLine
 10
164.5617383645245
 20
295.8049821187647
 30
0.0
 11
164.5773361903141
 21
295.8117230786875
 31
0.0
  0
LINE
  5
32D
330
A
100
AcDbEntity
  8
04
100
AcDbLine
 10
164.5773361903141
 20
295.8117230786875
 30
0.0
 11
164.5926268019005
 21
295.8191628820234
 31
0.0
  0
LINE
  5
32E
330
A
100
AcDbEntity
  8
04
100
AcDbLine
 10
164.5926268019005
 20
295.8191628820234
 30
0.0
 11
164.607626699858
 21
295.8272731462815
 31
0.0
  0
LINE
  5
32F
330
A
100
AcDbEntity
  8
04
100
AcDbLine
 10
164.607626699858
 20
295.8272731462815
 30
0.0
 11
164.622352384761
 21
295.8360254889703
 31
0.0
  0
LINE
  5
330
330
A
100
AcDbEntity
  8
04
100
AcDbLine
 10
164.622352384761
 20
295.8360254889703
 30
0.0
 11
164.6368203571841
 21
295.845391527599
 31
0.0
  0
LINE
  5
331
330
A
100
AcDbEntity
  8
04
100
AcDbLine
 10
164.6368203571841
 20
295.845391527599
 30
0.0
 11
164.6510471177015
 21
295.8553428796763
 31
0.0
  0
LINE
  5
332
330
A
100
AcDbEntity
  8
04
100
AcDbLine
 10
164.6510471177015
 20
295.8553428796763
 30
0.0
 11
164.6650491668878
 21
295.8658511627108
 31
0.0
  0
LINE
  5
333
330
A
100
AcDbEntity
  8
04
100
AcDbLine
 10
164.6650491668878
 20
295.8658511627108
 30
0.0
 11
164.678843005317
 21
295.8768879942118
 31
0.0
  0
LINE
  5
334
330
A
100
AcDbEntity
  8
04
100
AcDbLine
 10
164.678843005317
 20
295.8768879942118
 30
0.0
 11
164.692445133564
 21
295.8884249916879
 31
0.0
  0
LINE
  5
335
330
A
100
AcDbEntity
  8
04
100
AcDbLine
 10
164.692445133564
 20
295.8884249916879
 30
0.0
 11
164.7058720522029
 21
295.9004337726478
 31
0.0
  0
LINE
  5
336
330
A
100
AcDbEntity
  8
04
100
AcDbLine
 10
164.7058720522029
 20
295.9004337726478
 30
0.0
 11
164.7191402618081
 21
295.9128859546004
 31
0.0
  0
LINE
  5
337
330
A
100
AcDbEntity
  8
04
100
AcDbLine
 10
164.7191402618081
 20
295.9128859546004
 30
0.0
 11
164.7322662629542
 21
295.9257531550548
 31
0.0
  0
LINE
  5
338
330
A
100
AcDbEntity
  8
04
100
AcDbLine
 10
164.7322662629542
 20
295.9257531550548
 30
0.0
 11
164.7452665562154
 21
295.9390069915195
 31
0.0
  0
LINE
  5
339
330
A
100
AcDbEntity
  8
04
100
AcDbLine
 10
164.7452665562154
 20
295.9390069915195
 30
0.0
 11
164.7581576421661
 21
295.9526190815036
 31
0.0
  0
LINE
  5
33A
330
A
100
AcDbEntity
  8
04
100
AcDbLine
 10
164.7581576421661
 20
295.9526190815036
 30
0.0
 11
164.7709560213808
 21
295.9665610425158
 31
0.0
  0
LINE
  5
33B
330
A
100
AcDbEntity
  8
04
100
AcDbLine
 10
164.7709560213808
 20
295.9665610425158
 30
0.0
 11
164.7836781944338
 21
295.980804492065
 31
0.0
  0
LINE
  5
33C
330
A
100
AcDbEntity
  8
04
100
AcDbLine
 10
164.7836781944338
 20
295.980804492065
 30
0.0
 11
164.7963406618995
 21
295.99532104766
 31
0.0
  0
LINE
  5
33D
330
A
100
AcDbEntity
  8
04
100
AcDbLine
 10
164.7963406618995
 20
295.99532104766
 30
0.0
 11
164.8089599243525
 21
296.0100823268096
 31
0.0
  0
LINE
  5
33E
330
A
100
AcDbEntity
  8
04
100
AcDbLine
 10
164.8089599243525
 20
296.0100823268096
 30
0.0
 11
164.821552482367
 21
296.0250599470228
 31
0.0
  0
LINE
  5
33F
330
A
100
AcDbEntity
  8
04
100
AcDbLine
 10
164.821552482367
 20
296.0250599470228
 30
0.0
 11
164.8341348365174
 21
296.0402255258082
 31
0.0
  0
LINE
  5
340
330
A
100
AcDbEntity
  8
04
100
AcDbLine
 10
164.8341348365174
 20
296.0402255258082
 30
0.0
 11
164.8467234873782
 21
296.055550680675
 31
0.0
  0
LINE
  5
341
330
A
100
AcDbEntity
  8
04
100
AcDbLine
 10
164.8467234873782
 20
296.055550680675
 30
0.0
 11
164.8593349355236
 21
296.0710070291316
 31
0.0
  0
LINE
  5
342
330
A
100
AcDbEntity
  8
04
100
AcDbLine
 10
164.8593349355236
 20
296.0710070291316
 30
0.0
 11
164.8719856815284
 21
296.0865661886872
 31
0.0
  0
LINE
  5
343
330
A
100
AcDbEntity
  8
04
100
AcDbLine
 10
164.8719856815284
 20
296.0865661886872
 30
0.0
 11
164.8846922259664
 21
296.1021997768505
 31
0.0
  0
LINE
  5
344
330
A
100
AcDbEntity
  8
04
100
AcDbLine
 10
164.8846922259664
 20
296.1021997768505
 30
0.0
 11
164.8974710694126
 21
296.1178794111301
 31
0.0
  0
LINE
  5
345
330
A
100
AcDbEntity
  8
04
100
AcDbLine
 10
164.8974710694126
 20
296.1178794111301
 30
0.0
 11
164.9103349767004
 21
296.1335792232668
 31
0.0
  0
LINE
  5
346
330
A
100
AcDbEntity
  8
04
100
AcDbLine
 10
164.9103349767004
 20
296.1335792232668
 30
0.0
 11
164.9232817696996
 21
296.1492834019268
 31
0.0
  0
LINE
  5
347
330
A
100
AcDbEntity
  8
04
100
AcDbLine
 10
164.9232817696996
 20
296.1492834019268
 30
0.0
 11
164.9363055345403
 21
296.1649786500077
 31
0.0
  0
LINE
  5
348
330
A
100
AcDbEntity
  8
04
100
AcDbLine
 10
164.9363055345403
 20
296.1649786500077
 30
0.0
 11
164.9494003573514
 21
296.1806516704076
 31
0.0
  0
LINE
  5
349
330
A
100
AcDbEntity
  8
04
100
AcDbLine
 10
164.9494003573514
 20
296.1806516704076
 30
0.0
 11
164.9625603242625
 21
296.1962891660243
 31
0.0
  0
LINE
  5
34A
330
A
100
AcDbEntity
  8
04
100
AcDbLine
 10
164.9625603242625
 20
296.1962891660243
 30
0.0
 11
164.975779521403
 21
296.2118778397556
 31
0.0
  0
LINE
  5
34B
330
A
100
AcDbEntity
  8
04
100
AcDbLine
 10
164.975779521403
 20
296.2118778397556
 30
0.0
 11
164.9890520349021
 21
296.2274043944995
 31
0.0
  0
LINE
  5
34C
330
A
100
AcDbEntity
  8
04
100
AcDbLine
 10
164.9890520349021
 20
296.2274043944995
 30
0.0
 11
165.0023719508896
 21
296.2428555331536
 31
0.0
  0
LINE
  5
34D
330
A
100
AcDbEntity
  8
04
100
AcDbLine
 10
165.0023719508896
 20
296.2428555331536
 30
0.0
 11
165.0157333554946
 21
296.2582179586161
 31
0.0
  0
LINE
  5
34E
330
A
100
AcDbEntity
  8
04
100
AcDbLine
 10
165.0157333554946
 20
296.2582179586161
 30
0.0
 11
165.0291303348468
 21
296.2734783737845
 31
0.0
  0
LINE
  5
34F
330
A
100
AcDbEntity
  8
04
100
AcDbLine
 10
165.0291303348468
 20
296.2734783737845
 30
0.0
 11
165.0425569750753
 21
296.2886234815568
 31
0.0
  0
LINE
  5
350
330
A
100
AcDbEntity
  8
04
100
AcDbLine
 10
165.0425569750753
 20
296.2886234815568
 30
0.0
 11
165.0560073623096
 21
296.3036399848308
 31
0.0
  0
LINE
  5
351
330
A
100
AcDbEntity
  8
04
100
AcDbLine
 10
165.0560073623096
 20
296.3036399848308
 30
0.0
 11
165.0694755826791
 21
296.3185145865046
 31
0.0
  0
LINE
  5
352
330
A
100
AcDbEntity
  8
04
100
AcDbLine
 10
165.0694755826791
 20
296.3185145865046
 30
0.0
 11
165.0829557223135
 21
296.3332339894758
 31
0.0
  0
LINE
  5
353
330
A
100
AcDbEntity
  8
04
100
AcDbLine
 10
165.0829557223135
 20
296.3332339894758
 30
0.0
 11
165.0964418673416
 21
296.3477848966423
 31
0.0
  0
LINE
  5
354
330
A
100
AcDbEntity
  8
04
100
AcDbLine
 10
165.0964418673416
 20
296.3477848966423
 30
0.0
 11
165.1099281038935
 21
296.362154010902
 31
0.0
  0
LINE
  5
355
330
A
100
AcDbEntity
  8
04
100
AcDbLine
 10
165.1099281038935
 20
296.362154010902
 30
0.0
 11
165.1234085180981
 21
296.3763280351527
 31
0.0
  0
LINE
  5
356
330
A
100
AcDbEntity
  8
04
100
AcDbLine
 10
165.1234085180981
 20
296.3763280351527
 30
0.0
 11
165.136877196085
 21
296.3902936722923
 31
0.0
  0
LINE
  5
357
330
A
100
AcDbEntity
  8
04
100
AcDbLine
 10
165.136877196085
 20
296.3902936722923
 30
0.0
 11
165.1503282239836
 21
296.4040376252187
 31
0.0
  0
LINE
  5
358
330
A
100
AcDbEntity
  8
04
100
AcDbLine
 10
165.1503282239836
 20
296.4040376252187
 30
0.0
 11
165.1637556879235
 21
296.4175465968295
 31
0.0
  0
LINE
  5
359
330
A
100
AcDbEntity
  8
04
100
AcDbLine
 10
165.1637556879235
 20
296.4175465968295
 30
0.0
 11
165.1771536740336
 21
296.4308072900228
 31
0.0
  0
LINE
  5
35A
330
A
100
AcDbEntity
  8
04
100
AcDbLine
 10
165.1771536740336
 20
296.4308072900228
 30
0.0
 11
165.1905162684438
 21
296.4438064076965
 31
0.0
  0
LINE
  5
35B
330
A
100
AcDbEntity
  8
04
100
AcDbLine
 10
165.1905162684438
 20
296.4438064076965
 30
0.0
 11
165.2038375572834
 21
296.4565306527483
 31
0.0
  0
LINE
  5
35C
330
A
100
AcDbEntity
  8
04
100
AcDbLine
 10
165.2038375572834
 20
296.4565306527483
 30
0.0
 11
165.2171116266815
 21
296.4689667280761
 31
0.0
  0
LINE
  5
35D
330
A
100
AcDbEntity
  8
04
100
AcDbLine
 10
165.2171116266815
 20
296.4689667280761
 30
0.0
 11
165.230332562768
 21
296.4811013365777
 31
0.0
  0
LINE
  5
35E
330
A
100
AcDbEntity
  8
04
100
AcDbLine
 10
165.230332562768
 20
296.4811013365777
 30
0.0
 11
165.243494451672
 21
296.492921181151
 31
0.0
  0
LINE
  5
35F
330
A
100
AcDbEntity
  8
04
100
AcDbLine
 10
165.243494451672
 20
296.492921181151
 30
0.0
 11
165.2565913795229
 21
296.5044129646938
 31
0.0
  0
LINE
  5
360
330
A
100
AcDbEntity
  8
04
100
AcDbLine
 10
165.2565913795229
 20
296.5044129646938
 30
0.0
 11
165.26961743245
 21
296.5155633901042
 31
0.0
  0
LINE
  5
361
330
A
100
AcDbEntity
  8
04
100
AcDbLine
 10
165.26961743245
 20
296.5155633901042
 30
0.0
 11
165.2825666965831
 21
296.5263591602798
 31
0.0
  0
LINE
  5
362
330
A
100
AcDbEntity
  8
04
100
AcDbLine
 10
165.2825666965831
 20
296.5263591602798
 30
0.0
 11
165.2954332580515
 21
296.5367869781183
 31
0.0
  0
LINE
  5
363
330
A
100
AcDbEntity
  8
04
100
AcDbLine
 10
165.2954332580515
 20
296.5367869781183
 30
0.0
 11
165.3082141568689
 21
296.5468369457756
 31
0.0
  0
LINE
  5
364
330
A
100
AcDbEntity
  8
04
100
AcDbLine
 10
165.3082141568689
 20
296.5468369457756
 30
0.0
 11
165.3209182485873
 21
296.5565127624373
 31
0.0
  0
LINE
  5
365
330
A
100
AcDbEntity
  8
04
100
AcDbLine
 10
165.3209182485873
 20
296.5565127624373
 30
0.0
 11
165.3335573426434
 21
296.5658215265466
 31
0.0
  0
LINE
  5
366
330
A
100
AcDbEntity
  8
04
100
AcDbLine
 10
165.3335573426434
 20
296.5658215265466
 30
0.0
 11
165.3461432484734
 21
296.5747703365471
 31
0.0
  0
LINE
  5
367
330
A
100
AcDbEntity
  8
04
100
AcDbLine
 10
165.3461432484734
 20
296.5747703365471
 30
0.0
 11
165.3586877755141
 21
296.5833662908821
 31
0.0
  0
LINE
  5
368
330
A
100
AcDbEntity
  8
04
100
AcDbLine
 10
165.3586877755141
 20
296.5833662908821
 30
0.0
 11
165.3712027332018
 21
296.5916164879951
 31
0.0
  0
LINE
  5
369
330
A
100
AcDbEntity
  8
04
100
AcDbLine
 10
165.3712027332018
 20
296.5916164879951
 30
0.0
 11
165.383699930973
 21
296.5995280263295
 31
0.0
  0
LINE
  5
36A
330
A
100
AcDbEntity
  8
04
100
AcDbLine
 10
165.383699930973
 20
296.5995280263295
 30
0.0
 11
165.3961911782644
 21
296.6071080043284
 31
0.0
  0
LINE
  5
36B
330
A
100
AcDbEntity
  8
04
100
AcDbLine
 10
165.3961911782644
 20
296.6071080043284
 30
0.0
 11
165.4086882845122
 21
296.6143635204356
 31
0.0
  0
LINE
  5
36C
330
A
100
AcDbEntity
  8
04
100
AcDbLine
 10
165.4086882845122
 20
296.6143635204356
 30
0.0
 11
165.421203059153
 21
296.6213016730943
 31
0.0
  0
LINE
  5
36D
330
A
100
AcDbEntity
  8
04
100
AcDbLine
 10
165.421203059153
 20
296.6213016730943
 30
0.0
 11
165.4337473116231
 21
296.6279295607479
 31
0.0
  0
LINE
  5
36E
330
A
100
AcDbEntity
  8
04
100
AcDbLine
 10
165.4337473116231
 20
296.6279295607479
 30
0.0
 11
165.4463328513594
 21
296.6342542818398
 31
0.0
  0
LINE
  5
36F
330
A
100
AcDbEntity
  8
04
100
AcDbLine
 10
165.4463328513594
 20
296.6342542818398
 30
0.0
 11
165.4589714877982
 21
296.6402829348135
 31
0.0
  0
LINE
  5
370
330
A
100
AcDbEntity
  8
04
100
AcDbLine
 10
165.4589714877982
 20
296.6402829348135
 30
0.0
 11
165.4716750303757
 21
296.6460226181121
 31
0.0
  0
LINE
  5
371
330
A
100
AcDbEntity
  8
04
100
AcDbLine
 10
165.4716750303757
 20
296.6460226181121
 30
0.0
 11
165.4844552885288
 21
296.6514804301794
 31
0.0
  0
LINE
  5
372
330
A
100
AcDbEntity
  8
04
100
AcDbLine
 10
165.4844552885288
 20
296.6514804301794
 30
0.0
 11
165.4973240716939
 21
296.6566634694585
 31
0.0
  0
LINE
  5
373
330
A
100
AcDbEntity
  8
04
100
AcDbLine
 10
165.4973240716939
 20
296.6566634694585
 30
0.0
 11
165.5102931893073
 21
296.6615788343927
 31
0.0
  0
LINE
  5
374
330
A
100
AcDbEntity
  8
04
100
AcDbLine
 10
165.5102931893073
 20
296.6615788343927
 30
0.0
 11
165.5233744508056
 21
296.6662336234258
 31
0.0
  0
LINE
  5
375
330
A
100
AcDbEntity
  8
04
100
AcDbLine
 10
165.5233744508056
 20
296.6662336234258
 30
0.0
 11
165.5365796656255
 21
296.6706349350008
 31
0.0
  0
LINE
  5
376
330
A
100
AcDbEntity
  8
04
100
AcDbLine
 10
165.5365796656255
 20
296.6706349350008
 30
0.0
 11
165.549920643203
 21
296.6747898675615
 31
0.0
  0
LINE
  5
377
330
A
100
AcDbEntity
  8
04
100
AcDbLine
 10
165.549920643203
 20
296.6747898675615
 30
0.0
 11
165.5634091929751
 21
296.6787055195508
 31
0.0
  0
LINE
  5
378
330
A
100
AcDbEntity
  8
04
100
AcDbLine
 10
165.5634091929751
 20
296.6787055195508
 30
0.0
 11
165.5770571243778
 21
296.6823889894125
 31
0.0
  0
LINE
  5
379
330
A
100
AcDbEntity
  8
04
100
AcDbLine
 10
165.5770571243778
 20
296.6823889894125
 30
0.0
 11
165.590876246848
 21
296.6858473755896
 31
0.0
  0
LINE
  5
37A
330
A
100
AcDbEntity
  8
04
100
AcDbLine
 10
165.590876246848
 20
296.6858473755896
 30
0.0
 11
165.6048783698221
 21
296.6890877765261
 31
0.0
  0
LINE
  5
37B
330
A
100
AcDbEntity
  8
04
100
AcDbLine
 10
165.6048783698221
 20
296.6890877765261
 30
0.0
 11
165.6190753027364
 21
296.6921172906648
 31
0.0
  0
LINE
  5
37C
330
A
100
AcDbEntity
  8
04
100
AcDbLine
 10
165.6190753027364
 20
296.6921172906648
 30
0.0
 11
165.6334788550277
 21
296.6949430164493
 31
0.0
  0
LINE
  5
37D
330
A
100
AcDbEntity
  8
04
100
AcDbLine
 10
165.6334788550277
 20
296.6949430164493
 30
0.0
 11
165.6481008361321
 21
296.697572052323
 31
0.0
  0
LINE
  5
37E
330
A
100
AcDbEntity
  8
04
100
AcDbLine
 10
165.6481008361321
 20
296.697572052323
 30
0.0
 11
165.6629530554864
 21
296.7000114967295
 31
0.0
  0
LINE
  5
37F
330
A
100
AcDbEntity
  8
04
100
AcDbLine
 10
165.6629530554864
 20
296.7000114967295
 30
0.0
 11
165.678047322527
 21
296.7022684481118
 31
0.0
  0
LINE
  5
380
330
A
100
AcDbEntity
  8
04
100
AcDbLine
 10
165.678047322527
 20
296.7022684481118
 30
0.0
 11
165.6933954466903
 21
296.7043500049136
 31
0.0
  0
LINE
  5
381
330
A
100
AcDbEntity
  8
04
100
AcDbLine
 10
165.6933954466903
 20
296.7043500049136
 30
0.0
 11
165.7090027091251
 21
296.7062618936568
 31
0.0
  0
LINE
  5
382
330
A
100
AcDbEntity
  8
04
100
AcDbLine
 10
165.7090027091251
 20
296.7062618936568
 30
0.0
 11
165.7248482778294
 21
296.7080043531767
 31
0.0
  0
LINE
  5
383
330
A
100
AcDbEntity
  8
04
100
AcDbLine
 10
165.7248482778294
 20
296.7080043531767
 30
0.0
 11
165.7409047925134
 21
296.7095762503877
 31
0.0
  0
LINE
  5
384
330
A
100
AcDbEntity
  8
04
100
AcDbLine
 10
165.7409047925134
 20
296.7095762503877
 30
0.0
 11
165.7571448928871
 21
296.710976452204
 31
0.0
  0
LINE
  5
385
330
A
100
AcDbEntity
  8
04
100
AcDbLine
 10
165.7571448928871
 20
296.710976452204
 30
0.0
 11
165.773541218661
 21
296.7122038255396
 31
0.0
  0
LINE
  5
386
330
A
100
AcDbEntity
  8
04
100
AcDbLine
 10
165.773541218661
 20
296.7122038255396
 30
0.0
 11
165.7900664095453
 21
296.7132572373087
 31
0.0
  0
LINE
  5
387
330
A
100
AcDbEntity
  8
04
100
AcDbLine
 10
165.7900664095453
 20
296.7132572373087
 30
0.0
 11
165.8066931052499
 21
296.7141355544253
 31
0.0
  0
LINE
  5
388
330
A
100
AcDbEntity
  8
04
100
AcDbLine
 10
165.8066931052499
 20
296.7141355544253
 30
0.0
 11
165.8233939454852
 21
296.7148376438036
 31
0.0
  0
LINE
  5
389
330
A
100
AcDbEntity
  8
04
100
AcDbLine
 10
165.8233939454852
 20
296.7148376438036
 30
0.0
 11
165.8401415699614
 21
296.7153623723581
 31
0.0
  0
LINE
  5
38A
330
A
100
AcDbEntity
  8
04
100
AcDbLine
 10
165.8401415699614
 20
296.7153623723581
 30
0.0
 11
165.8569086183888
 21
296.7157086070023
 31
0.0
  0
LINE
  5
38B
330
A
100
AcDbEntity
  8
04
100
AcDbLine
 10
165.8569086183888
 20
296.7157086070023
 30
0.0
 11
165.8736677304774
 21
296.7158752146509
 31
0.0
  0
LINE
  5
38C
330
A
100
AcDbEntity
  8
04
100
AcDbLine
 10
165.8736677304774
 20
296.7158752146509
 30
0.0
 11
165.8903915459374
 21
296.7158610622177
 31
0.0
  0
LINE
  5
38D
330
A
100
AcDbEntity
  8
04
100
AcDbLine
 10
165.8903915459374
 20
296.7158610622177
 30
0.0
 11
165.9070527044793
 21
296.7156650166168
 31
0.0
  0
LINE
  5
38E
330
A
100
AcDbEntity
  8
04
100
AcDbLine
 10
165.9070527044793
 20
296.7156650166168
 30
0.0
 11
165.923623845813
 21
296.7152859447626
 31
0.0
  0
LINE
  5
38F
330
A
100
AcDbEntity
  8
04
100
AcDbLine
 10
165.923623845813
 20
296.7152859447626
 30
0.0
 11
165.9400776096488
 21
296.7147227135691
 31
0.0
  0
LINE
  5
390
330
A
100
AcDbEntity
  8
04
100
AcDbLine
 10
165.9400776096488
 20
296.7147227135691
 30
0.0
 11
165.9563866356968
 21
296.7139741899504
 31
0.0
  0
LINE
  5
391
330
A
100
AcDbEntity
  8
04
100
AcDbLine
 10
165.9563866356968
 20
296.7139741899504
 30
0.0
 11
165.9725235636676
 21
296.7130392408208
 31
0.0
  0
LINE
  5
392
330
A
100
AcDbEntity
  8
04
100
AcDbLine
 10
165.9725235636676
 20
296.7130392408208
 30
0.0
 11
165.9884610332709
 21
296.7119167330943
 31
0.0
  0
LINE
  5
393
330
A
100
AcDbEntity
  8
04
100
AcDbLine
 10
165.9884610332709
 20
296.7119167330943
 30
0.0
 11
166.0041716842171
 21
296.710605533685
 31
0.0
  0
LINE
  5
394
330
A
100
AcDbEntity
  8
04
100
AcDbLine
 10
166.0041716842171
 20
296.710605533685
 30
0.0
 11
166.0196281562166
 21
296.7091045095069
 31
0.0
  0
LINE
  5
395
330
A
100
AcDbEntity
  8
04
100
AcDbLine
 10
166.0196281562166
 20
296.7091045095069
 30
0.0
 11
166.0348030889793
 21
296.7074125274746
 31
0.0
  0
LINE
  5
396
330
A
100
AcDbEntity
  8
04
100
AcDbLine
 10
166.0348030889793
 20
296.7074125274746
 30
0.0
 11
166.0496691222155
 21
296.7055284545018
 31
0.0
  0
LINE
  5
397
330
A
100
AcDbEntity
  8
04
100
AcDbLine
 10
166.0496691222155
 20
296.7055284545018
 30
0.0
 11
166.0641988956355
 21
296.703451157503
 31
0.0
  0
LINE
  5
398
330
A
100
AcDbEntity
  8
04
100
AcDbLine
 10
166.0641988956355
 20
296.703451157503
 30
0.0
 11
166.0783650489495
 21
296.7011795033919
 31
0.0
  0
LINE
  5
399
330
A
100
AcDbEntity
  8
04
100
AcDbLine
 10
166.0783650489495
 20
296.7011795033919
 30
0.0
 11
166.0921402218676
 21
296.6987123590831
 31
0.0
  0
LINE
  5
39A
330
A
100
AcDbEntity
  8
04
100
AcDbLine
 10
166.0921402218676
 20
296.6987123590831
 30
0.0
 11
166.1054970541
 21
296.6960485914903
 31
0.0
  0
LINE
  5
39B
330
A
100
AcDbEntity
  8
04
100
AcDbLine
 10
166.1054970541
 20
296.6960485914903
 30
0.0
 11
166.1184081853569
 21
296.693187067528
 31
0.0
  0
LINE
  5
39C
330
A
100
AcDbEntity
  8
04
100
AcDbLine
 10
166.1184081853569
 20
296.693187067528
 30
0.0
 11
166.1308462553486
 21
296.69012665411
 31
0.0
  0
LINE
  5
39D
330
A
100
AcDbEntity
  8
04
100
AcDbLine
 10
166.1308462553486
 20
296.69012665411
 30
0.0
 11
166.1427839037854
 21
296.6868662181508
 31
0.0
  0
LINE
  5
39E
330
A
100
AcDbEntity
  8
04
100
AcDbLine
 10
166.1427839037854
 20
296.6868662181508
 30
0.0
 11
166.1541937703773
 21
296.6834046265643
 31
0.0
  0
LINE
  5
39F
330
A
100
AcDbEntity
  8
04
100
AcDbLine
 10
166.1541937703773
 20
296.6834046265643
 30
0.0
 11
166.1650561390058
 21
296.6797420589384
 31
0.0
  0
LINE
  5
3A0
330
A
100
AcDbEntity
  8
04
100
AcDbLine
 10
166.1650561390058
 20
296.6797420589384
 30
0.0
 11
166.1753818702375
 21
296.6758839455566
 31
0.0
  0
LINE
  5
3A1
330
A
100
AcDbEntity
  8
04
100
AcDbLine
 10
166.1753818702375
 20
296.6758839455566
 30
0.0
 11
166.1851894688101
 21
296.6718370293759
 31
0.0
  0
LINE
  5
3A2
330
A
100
AcDbEntity
  8
04
100
AcDbLine
 10
166.1851894688101
 20
296.6718370293759
 30
0.0
 11
166.1944974394616
 21
296.6676080533535
 31
0.0
  0
LINE
  5
3A3
330
A
100
AcDbEntity
  8
04
100
AcDbLine
 10
166.1944974394616
 20
296.6676080533535
 30
0.0
 11
166.2033242869298
 21
296.6632037604463
 31
0.0
  0
LINE
  5
3A4
330
A
100
AcDbEntity
  8
04
100
AcDbLine
 10
166.2033242869298
 20
296.6632037604463
 30
0.0
 11
166.2116885159524
 21
296.6586308936114
 31
0.0
  0
LINE
  5
3A5
330
A
100
AcDbEntity
  8
04
100
AcDbLine
 10
166.2116885159524
 20
296.6586308936114
 30
0.0
 11
166.2196086312674
 21
296.6538961958062
 31
0.0
  0
LINE
  5
3A6
330
A
100
AcDbEntity
  8
04
100
AcDbLine
 10
166.2196086312674
 20
296.6538961958062
 30
0.0
 11
166.2271031376124
 21
296.6490064099876
 31
0.0
  0
LINE
  5
3A7
330
A
100
AcDbEntity
  8
04
100
AcDbLine
 10
166.2271031376124
 20
296.6490064099876
 30
0.0
 11
166.2341905397255
 21
296.6439682791127
 31
0.0
  0
LINE
  5
3A8
330
A
100
AcDbEntity
  8
04
100
AcDbLine
 10
166.2341905397255
 20
296.6439682791127
 30
0.0
 11
166.2408893423442
 21
296.6387885461386
 31
0.0
  0
LINE
  5
3A9
330
A
100
AcDbEntity
  8
04
100
AcDbLine
 10
166.2408893423442
 20
296.6387885461386
 30
0.0
 11
166.2472180502065
 21
296.6334739540223
 31
0.0
  0
LINE
  5
3AA
330
A
100
AcDbEntity
  8
04
100
AcDbLine
 10
166.2472180502065
 20
296.6334739540223
 30
0.0
 11
166.2531951680503
 21
296.6280312457211
 31
0.0
  0
LINE
  5
3AB
330
A
100
AcDbEntity
  8
04
100
AcDbLine
 10
166.2531951680503
 20
296.6280312457211
 30
0.0
 11
166.2588392006131
 21
296.6224671641922
 31
0.0
  0
LINE
  5
3AC
330
A
100
AcDbEntity
  8
04
100
AcDbLine
 10
166.2588392006131
 20
296.6224671641922
 30
0.0
 11
166.2641686526332
 21
296.6167884523923
 31
0.0
  0
LINE
  5
3AD
330
A
100
AcDbEntity
  8
04
100
AcDbLine
 10
166.2641686526332
 20
296.6167884523923
 30
0.0
 11
166.269202028848
 21
296.6110018532789
 31
0.0
  0
LINE
  5
3AE
330
A
100
AcDbEntity
  8
04
100
AcDbLine
 10
166.269202028848
 20
296.6110018532789
 30
0.0
 11
166.2739578339955
 21
296.6051141098089
 31
0.0
  0
LINE
  5
3AF
330
A
100
AcDbEntity
  8
04
100
AcDbLine
 10
166.2739578339955
 20
296.6051141098089
 30
0.0
 11
166.2784545728135
 21
296.5991319649396
 31
0.0
  0
LINE
  5
3B0
330
A
100
AcDbEntity
  8
04
100
AcDbLine
 10
166.2784545728135
 20
296.5991319649396
 30
0.0
 11
166.2827107500399
 21
296.5930621616278
 31
0.0
  0
LINE
  5
3B1
330
A
100
AcDbEntity
  8
04
100
AcDbLine
 10
166.2827107500399
 20
296.5930621616278
 30
0.0
 11
166.2867448704124
 21
296.5869114428306
 31
0.0
  0
LINE
  5
3B2
330
A
100
AcDbEntity
  8
04
100
AcDbLine
 10
166.2867448704124
 20
296.5869114428306
 30
0.0
 11
166.2905754386689
 21
296.5806865515056
 31
0.0
  0
LINE
  5
3B3
330
A
100
AcDbEntity
  8
04
100
AcDbLine
 10
166.2905754386689
 20
296.5806865515056
 30
0.0
 11
166.2942209595471
 21
296.5743942306093
 31
0.0
  0
LINE
  5
3B4
330
A
100
AcDbEntity
  8
04
100
AcDbLine
 10
166.2942209595471
 20
296.5743942306093
 30
0.0
 11
166.297699937785
 21
296.5680412230991
 31
0.0
  0
LINE
  5
3B5
330
A
100
AcDbEntity
  8
04
100
AcDbLine
 10
166.297699937785
 20
296.5680412230991
 30
0.0
 11
166.3010308781204
 21
296.5616342719321
 31
0.0
  0
LINE
  5
3B6
330
A
100
AcDbEntity
  8
04
100
AcDbLine
 10
166.3010308781204
 20
296.5616342719321
 30
0.0
 11
166.3042322852909
 21
296.5551801200656
 31
0.0
  0
LINE
  5
3B7
330
A
100
AcDbEntity
  8
04
100
AcDbLine
 10
166.3042322852909
 20
296.5551801200656
 30
0.0
 11
166.3073226640345
 21
296.5486855104563
 31
0.0
  0
LINE
  5
3B8
330
A
100
AcDbEntity
  8
04
100
AcDbLine
 10
166.3073226640345
 20
296.5486855104563
 30
0.0
 11
166.310320519089
 21
296.5421571860614
 31
0.0
  0
LINE
  5
3B9
330
A
100
AcDbEntity
  8
04
100
AcDbLine
 10
166.310320519089
 20
296.5421571860614
 30
0.0
 11
166.3132443551923
 21
296.5356018898381
 31
0.0
  0
LINE
  5
3BA
330
A
100
AcDbEntity
  8
04
100
AcDbLine
 10
166.3132443551923
 20
296.5356018898381
 30
0.0
 11
166.316112677082
 21
296.5290263647436
 31
0.0
  0
LINE
  5
3BB
330
A
100
AcDbEntity
  8
04
100
AcDbLine
 10
166.316112677082
 20
296.5290263647436
 30
0.0
 11
166.3189439894962
 21
296.5224373537349
 31
0.0
  0
LINE
  5
3BC
330
A
100
AcDbEntity
  8
04
100
AcDbLine
 10
166.3189439894962
 20
296.5224373537349
 30
0.0
 11
166.3217567971725
 21
296.5158415997689
 31
0.0
  0
LINE
  5
3BD
330
A
100
AcDbEntity
  8
04
100
AcDbLine
 10
163.8292452830185
 20
532.3484341870369
 30
0.0
 11
163.8529180551488
 21
532.3590752671687
 31
0.0
  0
LINE
  5
3BE
330
A
100
AcDbEntity
  8
04
100
AcDbLine
 10
163.8529180551488
 20
532.3590752671687
 30
0.0
 11
163.8765772866906
 21
532.3696873760218
 31
0.0
  0
LINE
  5
3BF
330
A
100
AcDbEntity
  8
04
100
AcDbLine
 10
163.8765772866906
 20
532.3696873760218
 30
0.0
 11
163.9002094370558
 21
532.3802415423175
 31
0.0
  0
LINE
  5
3C0
330
A
100
AcDbEntity
  8
04
100
AcDbLine
 10
163.9002094370558
 20
532.3802415423175
 30
0.0
 11
163.9238009656561
 21
532.3907087947771
 31
0.0
  0
LINE
  5
3C1
330
A
100
AcDbEntity
  8
04
100
AcDbLine
 10
163.9238009656561
 20
532.3907087947771
 30
0.0
 11
163.9473383319031
 21
532.4010601621222
 31
0.0
  0
LINE
  5
3C2
330
A
100
AcDbEntity
  8
04
100
AcDbLine
 10
163.9473383319031
 20
532.4010601621222
 30
0.0
 11
163.9708079952086
 21
532.4112666730739
 31
0.0
  0
LINE
  5
3C3
330
A
100
AcDbEntity
  8
04
100
AcDbLine
 10
163.9708079952086
 20
532.4112666730739
 30
0.0
 11
163.994196414984
 21
532.4212993563535
 31
0.0
  0
LINE
  5
3C4
330
A
100
AcDbEntity
  8
04
100
AcDbLine
 10
163.994196414984
 20
532.4212993563535
 30
0.0
 11
164.0174900506414
 21
532.4311292406823
 31
0.0
  0
LINE
  5
3C5
330
A
100
AcDbEntity
  8
04
100
AcDbLine
 10
164.0174900506414
 20
532.4311292406823
 30
0.0
 11
164.0406753615921
 21
532.4407273547818
 31
0.0
  0
LINE
  5
3C6
330
A
100
AcDbEntity
  8
04
100
AcDbLine
 10
164.0406753615921
 20
532.4407273547818
 30
0.0
 11
164.0637388072478
 21
532.4500647273735
 31
0.0
  0
LINE
  5
3C7
330
A
100
AcDbEntity
  8
04
100
AcDbLine
 10
164.0637388072478
 20
532.4500647273735
 30
0.0
 11
164.0866668470204
 21
532.4591123871782
 31
0.0
  0
LINE
  5
3C8
330
A
100
AcDbEntity
  8
04
100
AcDbLine
 10
164.0866668470204
 20
532.4591123871782
 30
0.0
 11
164.1094459403215
 21
532.4678413629176
 31
0.0
  0
LINE
  5
3C9
330
A
100
AcDbEntity
  8
04
100
AcDbLine
 10
164.1094459403215
 20
532.4678413629176
 30
0.0
 11
164.1320625465626
 21
532.4762226833128
 31
0.0
  0
LINE
  5
3CA
330
A
100
AcDbEntity
  8
04
100
AcDbLine
 10
164.1320625465626
 20
532.4762226833128
 30
0.0
 11
164.1545031251558
 21
532.4842273770853
 31
0.0
  0
LINE
  5
3CB
330
A
100
AcDbEntity
  8
04
100
AcDbLine
 10
164.1545031251558
 20
532.4842273770853
 30
0.0
 11
164.1767541355124
 21
532.4918264729565
 31
0.0
  0
LINE
  5
3CC
330
A
100
AcDbEntity
  8
04
100
AcDbLine
 10
164.1767541355124
 20
532.4918264729565
 30
0.0
 11
164.198802037044
 21
532.4989909996475
 31
0.0
  0
LINE
  5
3CD
330
A
100
AcDbEntity
  8
04
100
AcDbLine
 10
164.198802037044
 20
532.4989909996475
 30
0.0
 11
164.2206332891626
 21
532.5056919858799
 31
0.0
  0
LINE
  5
3CE
330
A
100
AcDbEntity
  8
04
100
AcDbLine
 10
164.2206332891626
 20
532.5056919858799
 30
0.0
 11
164.2422343512799
 21
532.5119004603748
 31
0.0
  0
LINE
  5
3CF
330
A
100
AcDbEntity
  8
04
100
AcDbLine
 10
164.2422343512799
 20
532.5119004603748
 30
0.0
 11
164.2635916828073
 21
532.5175874518533
 31
0.0
  0
LINE
  5
3D0
330
A
100
AcDbEntity
  8
04
100
AcDbLine
 10
164.2635916828073
 20
532.5175874518533
 30
0.0
 11
164.2846917431566
 21
532.5227239890374
 31
0.0
  0
LINE
  5
3D1
330
A
100
AcDbEntity
  8
04
100
AcDbLine
 10
164.2846917431566
 20
532.5227239890374
 30
0.0
 11
164.3055209917396
 21
532.5272811006478
 31
0.0
  0
LINE
  5
3D2
330
A
100
AcDbEntity
  8
04
100
AcDbLine
 10
164.3055209917396
 20
532.5272811006478
 30
0.0
 11
164.3260658879678
 21
532.5312298154065
 31
0.0
  0
LINE
  5
3D3
330
A
100
AcDbEntity
  8
04
100
AcDbLine
 10
164.3260658879678
 20
532.5312298154065
 30
0.0
 11
164.3463128912529
 21
532.534541162034
 31
0.0
  0
LINE
  5
3D4
330
A
100
AcDbEntity
  8
04
100
AcDbLine
 10
164.3463128912529
 20
532.534541162034
 30
0.0
 11
164.3662484610066
 21
532.5371861692522
 31
0.0
  0
LINE
  5
3D5
330
A
100
AcDbEntity
  8
04
100
AcDbLine
 10
164.3662484610066
 20
532.5371861692522
 30
0.0
 11
164.3858590566406
 21
532.5391358657822
 31
0.0
  0
LINE
  5
3D6
330
A
100
AcDbEntity
  8
04
100
AcDbLine
 10
164.3858590566406
 20
532.5391358657822
 30
0.0
 11
164.4051311375668
 21
532.5403612803453
 31
0.0
  0
LINE
  5
3D7
330
A
100
AcDbEntity
  8
04
100
AcDbLine
 10
164.4051311375668
 20
532.5403612803453
 30
0.0
 11
164.4240511631965
 21
532.5408334416631
 31
0.0
  0
LINE
  5
3D8
330
A
100
AcDbEntity
  8
04
100
AcDbLine
 10
164.4240511631965
 20
532.5408334416631
 30
0.0
 11
164.4426055929415
 21
532.5405233784566
 31
0.0
  0
LINE
  5
3D9
330
A
100
AcDbEntity
  8
04
100
AcDbLine
 10
164.4426055929415
 20
532.5405233784566
 30
0.0
 11
164.4607808862136
 21
532.5394021194474
 31
0.0
  0
LINE
  5
3DA
330
A
100
AcDbEntity
  8
04
100
AcDbLine
 10
164.4607808862136
 20
532.5394021194474
 30
0.0
 11
164.4785635024245
 21
532.5374406933567
 31
0.0
  0
LINE
  5
3DB
330
A
100
AcDbEntity
  8
04
100
AcDbLine
 10
164.4785635024245
 20
532.5374406933567
 30
0.0
 11
164.4959449078462
 21
532.5346196878673
 31
0.0
  0
LINE
  5
3DC
330
A
100
AcDbEntity
  8
04
100
AcDbLine
 10
164.4959449078462
 20
532.5346196878673
 30
0.0
 11
164.5129365961925
 21
532.5309579265091
 31
0.0
  0
LINE
  5
3DD
330
A
100
AcDbEntity
  8
04
100
AcDbLine
 10
164.5129365961925
 20
532.5309579265091
 30
0.0
 11
164.5295550680383
 21
532.5264837917728
 31
0.0
  0
LINE
  5
3DE
330
A
100
AcDbEntity
  8
04
100
AcDbLine
 10
164.5295550680383
 20
532.5264837917728
 30
0.0
 11
164.5458168239574
 21
532.52122566615
 31
0.0
  0
LINE
  5
3DF
330
A
100
AcDbEntity
  8
04
100
AcDbLine
 10
164.5458168239574
 20
532.52122566615
 30
0.0
 11
164.5617383645245
 21
532.5152119321317
 31
0.0
  0
LINE
  5
3E0
330
A
100
AcDbEntity
  8
04
100
AcDbLine
 10
164.5617383645245
 20
532.5152119321317
 30
0.0
 11
164.5773361903141
 21
532.5084709722089
 31
0.0
  0
LINE
  5
3E1
330
A
100
AcDbEntity
  8
04
100
AcDbLine
 10
164.5773361903141
 20
532.5084709722089
 30
0.0
 11
164.5926268019005
 21
532.5010311688729
 31
0.0
  0
LINE
  5
3E2
330
A
100
AcDbEntity
  8
04
100
AcDbLine
 10
164.5926268019005
 20
532.5010311688729
 30
0.0
 11
164.607626699858
 21
532.4929209046148
 31
0.0
  0
LINE
  5
3E3
330
A
100
AcDbEntity
  8
04
100
AcDbLine
 10
164.607626699858
 20
532.4929209046148
 30
0.0
 11
164.622352384761
 21
532.4841685619259
 31
0.0
  0
LINE
  5
3E4
330
A
100
AcDbEntity
  8
04
100
AcDbLine
 10
164.622352384761
 20
532.4841685619259
 30
0.0
 11
164.6368203571841
 21
532.4748025232971
 31
0.0
  0
LINE
  5
3E5
330
A
100
AcDbEntity
  8
04
100
AcDbLine
 10
164.6368203571841
 20
532.4748025232971
 30
0.0
 11
164.6510471177015
 21
532.46485117122
 31
0.0
  0
LINE
  5
3E6
330
A
100
AcDbEntity
  8
04
100
AcDbLine
 10
164.6510471177015
 20
532.46485117122
 30
0.0
 11
164.6650491668878
 21
532.4543428881853
 31
0.0
  0
LINE
  5
3E7
330
A
100
AcDbEntity
  8
04
100
AcDbLine
 10
164.6650491668878
 20
532.4543428881853
 30
0.0
 11
164.678843005317
 21
532.4433060566844
 31
0.0
  0
LINE
  5
3E8
330
A
100
AcDbEntity
  8
04
100
AcDbLine
 10
164.678843005317
 20
532.4433060566844
 30
0.0
 11
164.692445133564
 21
532.4317690592086
 31
0.0
  0
LINE
  5
3E9
330
A
100
AcDbEntity
  8
04
100
AcDbLine
 10
164.692445133564
 20
532.4317690592086
 30
0.0
 11
164.7058720522029
 21
532.4197602782486
 31
0.0
  0
LINE
  5
3EA
330
A
100
AcDbEntity
  8
04
100
AcDbLine
 10
164.7058720522029
 20
532.4197602782486
 30
0.0
 11
164.7191402618081
 21
532.4073080962959
 31
0.0
  0
LINE
  5
3EB
330
A
100
AcDbEntity
  8
04
100
AcDbLine
 10
164.7191402618081
 20
532.4073080962959
 30
0.0
 11
164.7322662629542
 21
532.3944408958416
 31
0.0
  0
LINE
  5
3EC
330
A
100
AcDbEntity
  8
04
100
AcDbLine
 10
164.7322662629542
 20
532.3944408958416
 30
0.0
 11
164.7452665562154
 21
532.3811870593766
 31
0.0
  0
LINE
  5
3ED
330
A
100
AcDbEntity
  8
04
100
AcDbLine
 10
164.7452665562154
 20
532.3811870593766
 30
0.0
 11
164.7581576421661
 21
532.3675749693926
 31
0.0
  0
LINE
  5
3EE
330
A
100
AcDbEntity
  8
04
100
AcDbLine
 10
164.7581576421661
 20
532.3675749693926
 30
0.0
 11
164.7709560213808
 21
532.3536330083803
 31
0.0
  0
LINE
  5
3EF
330
A
100
AcDbEntity
  8
04
100
AcDbLine
 10
164.7709560213808
 20
532.3536330083803
 30
0.0
 11
164.7836781944338
 21
532.3393895588313
 31
0.0
  0
LINE
  5
3F0
330
A
100
AcDbEntity
  8
04
100
AcDbLine
 10
164.7836781944338
 20
532.3393895588313
 30
0.0
 11
164.7963406618995
 21
532.3248730032363
 31
0.0
  0
LINE
  5
3F1
330
A
100
AcDbEntity
  8
04
100
AcDbLine
 10
164.7963406618995
 20
532.3248730032363
 30
0.0
 11
164.8089599243525
 21
532.3101117240867
 31
0.0
  0
LINE
  5
3F2
330
A
100
AcDbEntity
  8
04
100
AcDbLine
 10
164.8089599243525
 20
532.3101117240867
 30
0.0
 11
164.821552482367
 21
532.2951341038734
 31
0.0
  0
LINE
  5
3F3
330
A
100
AcDbEntity
  8
04
100
AcDbLine
 10
164.821552482367
 20
532.2951341038734
 30
0.0
 11
164.8341348365174
 21
532.2799685250879
 31
0.0
  0
LINE
  5
3F4
330
A
100
AcDbEntity
  8
04
100
AcDbLine
 10
164.8341348365174
 20
532.2799685250879
 30
0.0
 11
164.8467234873782
 21
532.2646433702214
 31
0.0
  0
LINE
  5
3F5
330
A
100
AcDbEntity
  8
04
100
AcDbLine
 10
164.8467234873782
 20
532.2646433702214
 30
0.0
 11
164.8593349355236
 21
532.2491870217645
 31
0.0
  0
LINE
  5
3F6
330
A
100
AcDbEntity
  8
04
100
AcDbLine
 10
164.8593349355236
 20
532.2491870217645
 30
0.0
 11
164.8719856815284
 21
532.2336278622091
 31
0.0
  0
LINE
  5
3F7
330
A
100
AcDbEntity
  8
04
100
AcDbLine
 10
164.8719856815284
 20
532.2336278622091
 30
0.0
 11
164.8846922259665
 21
532.2179942740457
 31
0.0
  0
LINE
  5
3F8
330
A
100
AcDbEntity
  8
04
100
AcDbLine
 10
164.8846922259665
 20
532.2179942740457
 30
0.0
 11
164.8974710694126
 21
532.2023146397661
 31
0.0
  0
LINE
  5
3F9
330
A
100
AcDbEntity
  8
04
100
AcDbLine
 10
164.8974710694126
 20
532.2023146397661
 30
0.0
 11
164.9103349767004
 21
532.1866148276293
 31
0.0
  0
LINE
  5
3FA
330
A
100
AcDbEntity
  8
04
100
AcDbLine
 10
164.9103349767004
 20
532.1866148276293
 30
0.0
 11
164.9232817696998
 21
532.1709106489696
 31
0.0
  0
LINE
  5
3FB
330
A
100
AcDbEntity
  8
04
100
AcDbLine
 10
164.9232817696998
 20
532.1709106489696
 30
0.0
 11
164.9363055345403
 21
532.1552154008887
 31
0.0
  0
LINE
  5
3FC
330
A
100
AcDbEntity
  8
04
100
AcDbLine
 10
164.9363055345403
 20
532.1552154008887
 30
0.0
 11
164.9494003573514
 21
532.1395423804887
 31
0.0
  0
LINE
  5
3FD
330
A
100
AcDbEntity
  8
04
100
AcDbLine
 10
164.9494003573514
 20
532.1395423804887
 30
0.0
 11
164.9625603242625
 21
532.123904884872
 31
0.0
  0
LINE
  5
3FE
330
A
100
AcDbEntity
  8
04
100
AcDbLine
 10
164.9625603242625
 20
532.123904884872
 30
0.0
 11
164.975779521403
 21
532.1083162111405
 31
0.0
  0
LINE
  5
3FF
330
A
100
AcDbEntity
  8
04
100
AcDbLine
 10
164.975779521403
 20
532.1083162111405
 30
0.0
 11
164.9890520349021
 21
532.0927896563969
 31
0.0
  0
LINE
  5
400
330
A
100
AcDbEntity
  8
04
100
AcDbLine
 10
164.9890520349021
 20
532.0927896563969
 30
0.0
 11
165.0023719508896
 21
532.0773385177426
 31
0.0
  0
LINE
  5
401
330
A
100
AcDbEntity
  8
04
100
AcDbLine
 10
165.0023719508896
 20
532.0773385177426
 30
0.0
 11
165.0157333554948
 21
532.0619760922803
 31
0.0
  0
LINE
  5
402
330
A
100
AcDbEntity
  8
04
100
AcDbLine
 10
165.0157333554948
 20
532.0619760922803
 30
0.0
 11
165.0291303348469
 21
532.0467156771119
 31
0.0
  0
LINE
  5
403
330
A
100
AcDbEntity
  8
04
100
AcDbLine
 10
165.0291303348469
 20
532.0467156771119
 30
0.0
 11
165.0425569750753
 21
532.0315705693396
 31
0.0
  0
LINE
  5
404
330
A
100
AcDbEntity
  8
04
100
AcDbLine
 10
165.0425569750753
 20
532.0315705693396
 30
0.0
 11
165.0560073623096
 21
532.0165540660655
 31
0.0
  0
LINE
  5
405
330
A
100
AcDbEntity
  8
04
100
AcDbLine
 10
165.0560073623096
 20
532.0165540660655
 30
0.0
 11
165.0694755826791
 21
532.0016794643917
 31
0.0
  0
LINE
  5
406
330
A
100
AcDbEntity
  8
04
100
AcDbLine
 10
165.0694755826791
 20
532.0016794643917
 30
0.0
 11
165.0829557223135
 21
531.9869600614205
 31
0.0
  0
LINE
  5
407
330
A
100
AcDbEntity
  8
04
100
AcDbLine
 10
165.0829557223135
 20
531.9869600614205
 30
0.0
 11
165.0964418673417
 21
531.972409154254
 31
0.0
  0
LINE
  5
408
330
A
100
AcDbEntity
  8
04
100
AcDbLine
 10
165.0964418673417
 20
531.972409154254
 30
0.0
 11
165.1099281038935
 21
531.9580400399943
 31
0.0
  0
LINE
  5
409
330
A
100
AcDbEntity
  8
04
100
AcDbLine
 10
165.1099281038935
 20
531.9580400399943
 30
0.0
 11
165.1234085180981
 21
531.9438660157437
 31
0.0
  0
LINE
  5
40A
330
A
100
AcDbEntity
  8
04
100
AcDbLine
 10
165.1234085180981
 20
531.9438660157437
 30
0.0
 11
165.136877196085
 21
531.9299003786039
 31
0.0
  0
LINE
  5
40B
330
A
100
AcDbEntity
  8
04
100
AcDbLine
 10
165.136877196085
 20
531.9299003786039
 30
0.0
 11
165.1503282239836
 21
531.9161564256777
 31
0.0
  0
LINE
  5
40C
330
A
100
AcDbEntity
  8
04
100
AcDbLine
 10
165.1503282239836
 20
531.9161564256777
 30
0.0
 11
165.1637556879235
 21
531.9026474540668
 31
0.0
  0
LINE
  5
40D
330
A
100
AcDbEntity
  8
04
100
AcDbLine
 10
165.1637556879235
 20
531.9026474540668
 30
0.0
 11
165.1771536740336
 21
531.8893867608734
 31
0.0
  0
LINE
  5
40E
330
A
100
AcDbEntity
  8
04
100
AcDbLine
 10
165.1771536740336
 20
531.8893867608734
 30
0.0
 11
165.1905162684438
 21
531.8763876431997
 31
0.0
  0
LINE
  5
40F
330
A
100
AcDbEntity
  8
04
100
AcDbLine
 10
165.1905162684438
 20
531.8763876431997
 30
0.0
 11
165.2038375572834
 21
531.8636633981481
 31
0.0
  0
LINE
  5
410
330
A
100
AcDbEntity
  8
04
100
AcDbLine
 10
165.2038375572834
 20
531.8636633981481
 30
0.0
 11
165.2171116266815
 21
531.8512273228202
 31
0.0
  0
LINE
  5
411
330
A
100
AcDbEntity
  8
04
100
AcDbLine
 10
165.2171116266815
 20
531.8512273228202
 30
0.0
 11
165.230332562768
 21
531.8390927143187
 31
0.0
  0
LINE
  5
412
330
A
100
AcDbEntity
  8
04
100
AcDbLine
 10
165.230332562768
 20
531.8390927143187
 30
0.0
 11
165.243494451672
 21
531.8272728697453
 31
0.0
  0
LINE
  5
413
330
A
100
AcDbEntity
  8
04
100
AcDbLine
 10
165.243494451672
 20
531.8272728697453
 30
0.0
 11
165.2565913795229
 21
531.8157810862023
 31
0.0
  0
LINE
  5
414
330
A
100
AcDbEntity
  8
04
100
AcDbLine
 10
165.2565913795229
 20
531.8157810862023
 30
0.0
 11
165.2696174324501
 21
531.8046306607921
 31
0.0
  0
LINE
  5
415
330
A
100
AcDbEntity
  8
04
100
AcDbLine
 10
165.2696174324501
 20
531.8046306607921
 30
0.0
 11
165.2825666965831
 21
531.7938348906166
 31
0.0
  0
LINE
  5
416
330
A
100
AcDbEntity
  8
04
100
AcDbLine
 10
165.2825666965831
 20
531.7938348906166
 30
0.0
 11
165.2954332580515
 21
531.7834070727777
 31
0.0
  0
LINE
  5
417
330
A
100
AcDbEntity
  8
04
100
AcDbLine
 10
165.2954332580515
 20
531.7834070727777
 30
0.0
 11
165.3082141568689
 21
531.7733571051205
 31
0.0
  0
LINE
  5
418
330
A
100
AcDbEntity
  8
04
100
AcDbLine
 10
165.3082141568689
 20
531.7733571051205
 30
0.0
 11
165.3209182485873
 21
531.7636812884591
 31
0.0
  0
LINE
  5
419
330
A
100
AcDbEntity
  8
04
100
AcDbLine
 10
165.3209182485873
 20
531.7636812884591
 30
0.0
 11
165.3335573426434
 21
531.7543725243496
 31
0.0
  0
LINE
  5
41A
330
A
100
AcDbEntity
  8
04
100
AcDbLine
 10
165.3335573426434
 20
531.7543725243496
 30
0.0
 11
165.3461432484734
 21
531.7454237143492
 31
0.0
  0
LINE
  5
41B
330
A
100
AcDbEntity
  8
04
100
AcDbLine
 10
165.3461432484734
 20
531.7454237143492
 30
0.0
 11
165.3586877755141
 21
531.7368277600142
 31
0.0
  0
LINE
  5
41C
330
A
100
AcDbEntity
  8
04
100
AcDbLine
 10
165.3586877755141
 20
531.7368277600142
 30
0.0
 11
165.3712027332018
 21
531.7285775629011
 31
0.0
  0
LINE
  5
41D
330
A
100
AcDbEntity
  8
04
100
AcDbLine
 10
165.3712027332018
 20
531.7285775629011
 30
0.0
 11
165.3836999309731
 21
531.7206660245667
 31
0.0
  0
LINE
  5
41E
330
A
100
AcDbEntity
  8
04
100
AcDbLine
 10
165.3836999309731
 20
531.7206660245667
 30
0.0
 11
165.3961911782644
 21
531.7130860465677
 31
0.0
  0
LINE
  5
41F
330
A
100
AcDbEntity
  8
04
100
AcDbLine
 10
165.3961911782644
 20
531.7130860465677
 30
0.0
 11
165.4086882845122
 21
531.7058305304604
 31
0.0
  0
LINE
  5
420
330
A
100
AcDbEntity
  8
04
100
AcDbLine
 10
165.4086882845122
 20
531.7058305304604
 30
0.0
 11
165.421203059153
 21
531.6988923778019
 31
0.0
  0
LINE
  5
421
330
A
100
AcDbEntity
  8
04
100
AcDbLine
 10
165.421203059153
 20
531.6988923778019
 30
0.0
 11
165.4337473116233
 21
531.6922644901483
 31
0.0
  0
LINE
  5
422
330
A
100
AcDbEntity
  8
04
100
AcDbLine
 10
165.4337473116233
 20
531.6922644901483
 30
0.0
 11
165.4463328513594
 21
531.6859397690564
 31
0.0
  0
LINE
  5
423
330
A
100
AcDbEntity
  8
04
100
AcDbLine
 10
165.4463328513594
 20
531.6859397690564
 30
0.0
 11
165.4589714877982
 21
531.6799111160828
 31
0.0
  0
LINE
  5
424
330
A
100
AcDbEntity
  8
04
100
AcDbLine
 10
165.4589714877982
 20
531.6799111160828
 30
0.0
 11
165.4716750303759
 21
531.674171432784
 31
0.0
  0
LINE
  5
425
330
A
100
AcDbEntity
  8
04
100
AcDbLine
 10
165.4716750303759
 20
531.674171432784
 30
0.0
 11
165.484455288529
 21
531.6687136207169
 31
0.0
  0
LINE
  5
426
330
A
100
AcDbEntity
  8
04
100
AcDbLine
 10
165.484455288529
 20
531.6687136207169
 30
0.0
 11
165.4973240716939
 21
531.6635305814379
 31
0.0
  0
LINE
  5
427
330
A
100
AcDbEntity
  8
04
100
AcDbLine
 10
165.4973240716939
 20
531.6635305814379
 30
0.0
 11
165.5102931893073
 21
531.6586152165036
 31
0.0
  0
LINE
  5
428
330
A
100
AcDbEntity
  8
04
100
AcDbLine
 10
165.5102931893073
 20
531.6586152165036
 30
0.0
 11
165.5233744508058
 21
531.6539604274704
 31
0.0
  0
LINE
  5
429
330
A
100
AcDbEntity
  8
04
100
AcDbLine
 10
165.5233744508058
 20
531.6539604274704
 30
0.0
 11
165.5365796656255
 21
531.6495591158955
 31
0.0
  0
LINE
  5
42A
330
A
100
AcDbEntity
  8
04
100
AcDbLine
 10
165.5365796656255
 20
531.6495591158955
 30
0.0
 11
165.549920643203
 21
531.6454041833349
 31
0.0
  0
LINE
  5
42B
330
A
100
AcDbEntity
  8
04
100
AcDbLine
 10
165.549920643203
 20
531.6454041833349
 30
0.0
 11
165.5634091929751
 21
531.6414885313455
 31
0.0
  0
LINE
  5
42C
330
A
100
AcDbEntity
  8
04
100
AcDbLine
 10
165.5634091929751
 20
531.6414885313455
 30
0.0
 11
165.5770571243778
 21
531.6378050614838
 31
0.0
  0
LINE
  5
42D
330
A
100
AcDbEntity
  8
04
100
AcDbLine
 10
165.5770571243778
 20
531.6378050614838
 30
0.0
 11
165.5908762468481
 21
531.6343466753067
 31
0.0
  0
LINE
  5
42E
330
A
100
AcDbEntity
  8
04
100
AcDbLine
 10
165.5908762468481
 20
531.6343466753067
 30
0.0
 11
165.6048783698221
 21
531.6311062743701
 31
0.0
  0
LINE
  5
42F
330
A
100
AcDbEntity
  8
04
100
AcDbLine
 10
165.6048783698221
 20
531.6311062743701
 30
0.0
 11
165.6190753027364
 21
531.6280767602314
 31
0.0
  0
LINE
  5
430
330
A
100
AcDbEntity
  8
04
100
AcDbLine
 10
165.6190753027364
 20
531.6280767602314
 30
0.0
 11
165.6334788550277
 21
531.625251034447
 31
0.0
  0
LINE
  5
431
330
A
100
AcDbEntity
  8
04
100
AcDbLine
 10
165.6334788550277
 20
531.625251034447
 30
0.0
 11
165.6481008361321
 21
531.6226219985733
 31
0.0
  0
LINE
  5
432
330
A
100
AcDbEntity
  8
04
100
AcDbLine
 10
165.6481008361321
 20
531.6226219985733
 30
0.0
 11
165.6629530554865
 21
531.6201825541668
 31
0.0
  0
LINE
  5
433
330
A
100
AcDbEntity
  8
04
100
AcDbLine
 10
165.6629530554865
 20
531.6201825541668
 30
0.0
 11
165.678047322527
 21
531.6179256027843
 31
0.0
  0
LINE
  5
434
330
A
100
AcDbEntity
  8
04
100
AcDbLine
 10
165.678047322527
 20
531.6179256027843
 30
0.0
 11
165.6933954466903
 21
531.6158440459826
 31
0.0
  0
LINE
  5
435
330
A
100
AcDbEntity
  8
04
100
AcDbLine
 10
165.6933954466903
 20
531.6158440459826
 30
0.0
 11
165.7090027091251
 21
531.6139321572395
 31
0.0
  0
LINE
  5
436
330
A
100
AcDbEntity
  8
04
100
AcDbLine
 10
165.7090027091251
 20
531.6139321572395
 30
0.0
 11
165.7248482778294
 21
531.6121896977196
 31
0.0
  0
LINE
  5
437
330
A
100
AcDbEntity
  8
04
100
AcDbLine
 10
165.7248482778294
 20
531.6121896977196
 30
0.0
 11
165.7409047925134
 21
531.6106178005086
 31
0.0
  0
LINE
  5
438
330
A
100
AcDbEntity
  8
04
100
AcDbLine
 10
165.7409047925134
 20
531.6106178005086
 30
0.0
 11
165.7571448928871
 21
531.6092175986923
 31
0.0
  0
LINE
  5
439
330
A
100
AcDbEntity
  8
04
100
AcDbLine
 10
165.7571448928871
 20
531.6092175986923
 30
0.0
 11
165.773541218661
 21
531.6079902253568
 31
0.0
  0
LINE
  5
43A
330
A
100
AcDbEntity
  8
04
100
AcDbLine
 10
165.773541218661
 20
531.6079902253568
 30
0.0
 11
165.7900664095453
 21
531.6069368135877
 31
0.0
  0
LINE
  5
43B
330
A
100
AcDbEntity
  8
04
100
AcDbLine
 10
165.7900664095453
 20
531.6069368135877
 30
0.0
 11
165.8066931052499
 21
531.606058496471
 31
0.0
  0
LINE
  5
43C
330
A
100
AcDbEntity
  8
04
100
AcDbLine
 10
165.8066931052499
 20
531.606058496471
 30
0.0
 11
165.8233939454852
 21
531.6053564070926
 31
0.0
  0
LINE
  5
43D
330
A
100
AcDbEntity
  8
04
100
AcDbLine
 10
165.8233939454852
 20
531.6053564070926
 30
0.0
 11
165.8401415699614
 21
531.6048316785383
 31
0.0
  0
LINE
  5
43E
330
A
100
AcDbEntity
  8
04
100
AcDbLine
 10
165.8401415699614
 20
531.6048316785383
 30
0.0
 11
165.8569086183889
 21
531.6044854438938
 31
0.0
  0
LINE
  5
43F
330
A
100
AcDbEntity
  8
04
100
AcDbLine
 10
165.8569086183889
 20
531.6044854438938
 30
0.0
 11
165.8736677304774
 21
531.6043188362455
 31
0.0
  0
LINE
  5
440
330
A
100
AcDbEntity
  8
04
100
AcDbLine
 10
165.8736677304774
 20
531.6043188362455
 30
0.0
 11
165.8903915459374
 21
531.6043329886787
 31
0.0
  0
LINE
  5
441
330
A
100
AcDbEntity
  8
04
100
AcDbLine
 10
165.8903915459374
 20
531.6043329886787
 30
0.0
 11
165.9070527044793
 21
531.6045290342795
 31
0.0
  0
LINE
  5
442
330
A
100
AcDbEntity
  8
04
100
AcDbLine
 10
165.9070527044793
 20
531.6045290342795
 30
0.0
 11
165.923623845813
 21
531.6049081061335
 31
0.0
  0
LINE
  5
443
330
A
100
AcDbEntity
  8
04
100
AcDbLine
 10
165.923623845813
 20
531.6049081061335
 30
0.0
 11
165.9400776096488
 21
531.6054713373272
 31
0.0
  0
LINE
  5
444
330
A
100
AcDbEntity
  8
04
100
AcDbLine
 10
165.9400776096488
 20
531.6054713373272
 30
0.0
 11
165.9563866356968
 21
531.6062198609459
 31
0.0
  0
LINE
  5
445
330
A
100
AcDbEntity
  8
04
100
AcDbLine
 10
165.9563866356968
 20
531.6062198609459
 30
0.0
 11
165.9725235636676
 21
531.6071548100754
 31
0.0
  0
LINE
  5
446
330
A
100
AcDbEntity
  8
04
100
AcDbLine
 10
165.9725235636676
 20
531.6071548100754
 30
0.0
 11
165.9884610332709
 21
531.6082773178019
 31
0.0
  0
LINE
  5
447
330
A
100
AcDbEntity
  8
04
100
AcDbLine
 10
165.9884610332709
 20
531.6082773178019
 30
0.0
 11
166.0041716842171
 21
531.6095885172114
 31
0.0
  0
LINE
  5
448
330
A
100
AcDbEntity
  8
04
100
AcDbLine
 10
166.0041716842171
 20
531.6095885172114
 30
0.0
 11
166.0196281562166
 21
531.6110895413893
 31
0.0
  0
LINE
  5
449
330
A
100
AcDbEntity
  8
04
100
AcDbLine
 10
166.0196281562166
 20
531.6110895413893
 30
0.0
 11
166.0348030889793
 21
531.6127815234217
 31
0.0
  0
LINE
  5
44A
330
A
100
AcDbEntity
  8
04
100
AcDbLine
 10
166.0348030889793
 20
531.6127815234217
 30
0.0
 11
166.0496691222155
 21
531.6146655963944
 31
0.0
  0
LINE
  5
44B
330
A
100
AcDbEntity
  8
04
100
AcDbLine
 10
166.0496691222155
 20
531.6146655963944
 30
0.0
 11
166.0641988956355
 21
531.6167428933932
 31
0.0
  0
LINE
  5
44C
330
A
100
AcDbEntity
  8
04
100
AcDbLine
 10
166.0641988956355
 20
531.6167428933932
 30
0.0
 11
166.0783650489495
 21
531.6190145475043
 31
0.0
  0
LINE
  5
44D
330
A
100
AcDbEntity
  8
04
100
AcDbLine
 10
166.0783650489495
 20
531.6190145475043
 30
0.0
 11
166.0921402218676
 21
531.6214816918131
 31
0.0
  0
LINE
  5
44E
330
A
100
AcDbEntity
  8
04
100
AcDbLine
 10
166.0921402218676
 20
531.6214816918131
 30
0.0
 11
166.1054970541
 21
531.6241454594059
 31
0.0
  0
LINE
  5
44F
330
A
100
AcDbEntity
  8
04
100
AcDbLine
 10
166.1054970541
 20
531.6241454594059
 30
0.0
 11
166.1184081853569
 21
531.6270069833683
 31
0.0
  0
LINE
  5
450
330
A
100
AcDbEntity
  8
04
100
AcDbLine
 10
166.1184081853569
 20
531.6270069833683
 30
0.0
 11
166.1308462553486
 21
531.6300673967863
 31
0.0
  0
LINE
  5
451
330
A
100
AcDbEntity
  8
04
100
AcDbLine
 10
166.1308462553486
 20
531.6300673967863
 30
0.0
 11
166.1427839037854
 21
531.6333278327456
 31
0.0
  0
LINE
  5
452
330
A
100
AcDbEntity
  8
04
100
AcDbLine
 10
166.1427839037854
 20
531.6333278327456
 30
0.0
 11
166.1541937703773
 21
531.6367894243319
 31
0.0
  0
LINE
  5
453
330
A
100
AcDbEntity
  8
04
100
AcDbLine
 10
166.1541937703773
 20
531.6367894243319
 30
0.0
 11
166.1650561390058
 21
531.6404519919577
 31
0.0
  0
LINE
  5
454
330
A
100
AcDbEntity
  8
04
100
AcDbLine
 10
166.1650561390058
 20
531.6404519919577
 30
0.0
 11
166.1753818702375
 21
531.6443101053396
 31
0.0
  0
LINE
  5
455
330
A
100
AcDbEntity
  8
04
100
AcDbLine
 10
166.1753818702375
 20
531.6443101053396
 30
0.0
 11
166.1851894688101
 21
531.6483570215202
 31
0.0
  0
LINE
  5
456
330
A
100
AcDbEntity
  8
04
100
AcDbLine
 10
166.1851894688101
 20
531.6483570215202
 30
0.0
 11
166.1944974394616
 21
531.6525859975429
 31
0.0
  0
LINE
  5
457
330
A
100
AcDbEntity
  8
04
100
AcDbLine
 10
166.1944974394616
 20
531.6525859975429
 30
0.0
 11
166.2033242869298
 21
531.6569902904499
 31
0.0
  0
LINE
  5
458
330
A
100
AcDbEntity
  8
04
100
AcDbLine
 10
166.2033242869298
 20
531.6569902904499
 30
0.0
 11
166.2116885159524
 21
531.6615631572848
 31
0.0
  0
LINE
  5
459
330
A
100
AcDbEntity
  8
04
100
AcDbLine
 10
166.2116885159524
 20
531.6615631572848
 30
0.0
 11
166.2196086312675
 21
531.66629785509
 31
0.0
  0
LINE
  5
45A
330
A
100
AcDbEntity
  8
04
100
AcDbLine
 10
166.2196086312675
 20
531.66629785509
 30
0.0
 11
166.2271031376124
 21
531.6711876409088
 31
0.0
  0
LINE
  5
45B
330
A
100
AcDbEntity
  8
04
100
AcDbLine
 10
166.2271031376124
 20
531.6711876409088
 30
0.0
 11
166.2341905397255
 21
531.6762257717837
 31
0.0
  0
LINE
  5
45C
330
A
100
AcDbEntity
  8
04
100
AcDbLine
 10
166.2341905397255
 20
531.6762257717837
 30
0.0
 11
166.2408893423443
 21
531.6814055047577
 31
0.0
  0
LINE
  5
45D
330
A
100
AcDbEntity
  8
04
100
AcDbLine
 10
166.2408893423443
 20
531.6814055047577
 30
0.0
 11
166.2472180502065
 21
531.6867200968739
 31
0.0
  0
LINE
  5
45E
330
A
100
AcDbEntity
  8
04
100
AcDbLine
 10
166.2472180502065
 20
531.6867200968739
 30
0.0
 11
166.2531951680503
 21
531.6921628051751
 31
0.0
  0
LINE
  5
45F
330
A
100
AcDbEntity
  8
04
100
AcDbLine
 10
166.2531951680503
 20
531.6921628051751
 30
0.0
 11
166.2588392006133
 21
531.6977268867042
 31
0.0
  0
LINE
  5
460
330
A
100
AcDbEntity
  8
04
100
AcDbLine
 10
166.2588392006133
 20
531.6977268867042
 30
0.0
 11
166.2641686526332
 21
531.703405598504
 31
0.0
  0
LINE
  5
461
330
A
100
AcDbEntity
  8
04
100
AcDbLine
 10
166.2641686526332
 20
531.703405598504
 30
0.0
 11
166.269202028848
 21
531.7091921976173
 31
0.0
  0
LINE
  5
462
330
A
100
AcDbEntity
  8
04
100
AcDbLine
 10
166.269202028848
 20
531.7091921976173
 30
0.0
 11
166.2739578339955
 21
531.7150799410873
 31
0.0
  0
LINE
  5
463
330
A
100
AcDbEntity
  8
04
100
AcDbLine
 10
166.2739578339955
 20
531.7150799410873
 30
0.0
 11
166.2784545728135
 21
531.7210620859567
 31
0.0
  0
LINE
  5
464
330
A
100
AcDbEntity
  8
04
100
AcDbLine
 10
166.2784545728135
 20
531.7210620859567
 30
0.0
 11
166.2827107500399
 21
531.7271318892685
 31
0.0
  0
LINE
  5
465
330
A
100
AcDbEntity
  8
04
100
AcDbLine
 10
166.2827107500399
 20
531.7271318892685
 30
0.0
 11
166.2867448704124
 21
531.7332826080654
 31
0.0
  0
LINE
  5
466
330
A
100
AcDbEntity
  8
04
100
AcDbLine
 10
166.2867448704124
 20
531.7332826080654
 30
0.0
 11
166.2905754386689
 21
531.7395074993908
 31
0.0
  0
LINE
  5
467
330
A
100
AcDbEntity
  8
04
100
AcDbLine
 10
166.2905754386689
 20
531.7395074993908
 30
0.0
 11
166.2942209595471
 21
531.7457998202868
 31
0.0
  0
LINE
  5
468
330
A
100
AcDbEntity
  8
04
100
AcDbLine
 10
166.2942209595471
 20
531.7457998202868
 30
0.0
 11
166.297699937785
 21
531.7521528277969
 31
0.0
  0
LINE
  5
469
330
A
100
AcDbEntity
  8
04
100
AcDbLine
 10
166.297699937785
 20
531.7521528277969
 30
0.0
 11
166.3010308781204
 21
531.7585597789641
 31
0.0
  0
LINE
  5
46A
330
A
100
AcDbEntity
  8
04
100
AcDbLine
 10
166.3010308781204
 20
531.7585597789641
 30
0.0
 11
166.3042322852909
 21
531.7650139308308
 31
0.0
  0
LINE
  5
46B
330
A
100
AcDbEntity
  8
04
100
AcDbLine
 10
166.3042322852909
 20
531.7650139308308
 30
0.0
 11
166.3073226640345
 21
531.77150854044
 31
0.0
  0
LINE
  5
46C
330
A
100
AcDbEntity
  8
04
100
AcDbLine
 10
166.3073226640345
 20
531.77150854044
 30
0.0
 11
166.310320519089
 21
531.7780368648349
 31
0.0
  0
LINE
  5
46D
330
A
100
AcDbEntity
  8
04
100
AcDbLine
 10
166.310320519089
 20
531.7780368648349
 30
0.0
 11
166.3132443551924
 21
531.784592161058
 31
0.0
  0
LINE
  5
46E
330
A
100
AcDbEntity
  8
04
100
AcDbLine
 10
166.3132443551924
 20
531.784592161058
 30
0.0
 11
166.316112677082
 21
531.7911676861526
 31
0.0
  0
LINE
  5
46F
330
A
100
AcDbEntity
  8
04
100
AcDbLine
 10
166.316112677082
 20
531.7911676861526
 30
0.0
 11
166.3189439894963
 21
531.7977566971615
 31
0.0
  0
LINE
  5
470
330
A
100
AcDbEntity
  8
04
100
AcDbLine
 10
166.3189439894963
 20
531.7977566971615
 30
0.0
 11
166.3217567971725
 21
531.8043524511273
 31
0.0
  0
LINE
  5
4A7
330
A
100
AcDbEntity
  8
04
100
AcDbLine
 10
171.0792452830185
 20
518.1600970254481
 30
0.0
 11
159.0792452830186
 21
518.1600970254481
 31
0.0
  0
LINE
  5
4A8
330
A
100
AcDbEntity
  8
04
100
AcDbLine
 10
153.0792452830184
 20
502.1600970254481
 30
0.0
 11
177.0792452830186
 21
502.1600970254481
 31
0.0
  0
LINE
  5
4A9
330
A
100
AcDbEntity
  8
04
100
AcDbLine
 10
153.0792452830184
 20
504.1600970254481
 30
0.0
 11
177.0792452830186
 21
504.1600970254481
 31
0.0
  0
LINE
  5
4AA
330
A
100
AcDbEntity
  8
04
100
AcDbLine
 10
159.0792452830186
 20
513.6600970254481
 30
0.0
 11
171.0792452830185
 21
513.6600970254481
 31
0.0
  0
LINE
  5
4AB
330
A
100
AcDbEntity
  8
04
100
AcDbLine
 10
159.0792452830186
 20
518.1600970254481
 30
0.0
 11
159.0792452830186
 21
513.6600970254481
 31
0.0
  0
LINE
  5
4AC
330
A
100
AcDbEntity
  8
04
100
AcDbLine
 10
171.0792452830185
 20
513.6600970254481
 30
0.0
 11
171.0792452830185
 21
518.1600970254481
 31
0.0
  0
LINE
  5
4AD
330
A
100
AcDbEntity
  8
04
100
AcDbLine
 10
160.0792452830186
 20
504.1600970254481
 30
0.0
 11
160.0792452830186
 21
513.6600970254481
 31
0.0
  0
LINE
  5
4AE
330
A
100
AcDbEntity
  8
04
100
AcDbLine
 10
170.0792452830185
 20
504.1600970254481
 30
0.0
 11
170.0792452830185
 21
513.6600970254481
 31
0.0
  0
LINE
  5
4AF
330
A
100
AcDbEntity
  8
04
100
AcDbLine
 10
163.8292452830185
 20
518.1600970254481
 30
0.0
 11
163.8292452830185
 21
532.3484341870369
 31
0.0
  0
LINE
  5
4B0
330
A
100
AcDbEntity
  8
04
100
AcDbLine
 10
166.3292452830186
 20
531.7585597789641
 30
0.0
 11
166.3292452830186
 21
518.1600970254481
 31
0.0
  0
LINE
  5
4B1
330
A
100
AcDbEntity
  8
04
100
AcDbLine
 10
153.0792452830184
 20
504.1600970254481
 30
0.0
 11
153.0792452830184
 21
502.1600970254481
 31
0.0
  0
LINE
  5
4B2
330
A
100
AcDbEntity
  8
04
100
AcDbLine
 10
177.0792452830186
 20
504.1600970254481
 30
0.0
 11
177.0792452830186
 21
502.1600970254481
 31
0.0
  0
LINE
  5
4B3
330
A
100
AcDbEntity
  8
04
100
AcDbLine
 10
171.0792452830184
 20
310.1600970254482
 30
0.0
 11
159.0792452830186
 21
310.1600970254482
 31
0.0
  0
LINE
  5
4B4
330
A
100
AcDbEntity
  8
04
100
AcDbLine
 10
153.0792452830184
 20
326.1600970254481
 30
0.0
 11
177.0792452830184
 21
326.1600970254481
 31
0.0
  0
LINE
  5
4B5
330
A
100
AcDbEntity
  8
04
100
AcDbLine
 10
153.0792452830184
 20
324.1600970254481
 30
0.0
 11
177.0792452830184
 21
324.1600970254481
 31
0.0
  0
LINE
  5
4B6
330
A
100
AcDbEntity
  8
04
100
AcDbLine
 10
159.0792452830186
 20
314.6600970254481
 30
0.0
 11
171.0792452830184
 21
314.6600970254481
 31
0.0
  0
LINE
  5
4B7
330
A
100
AcDbEntity
  8
04
100
AcDbLine
 10
159.0792452830186
 20
310.1600970254482
 30
0.0
 11
159.0792452830186
 21
314.6600970254481
 31
0.0
  0
LINE
  5
4B8
330
A
100
AcDbEntity
  8
04
100
AcDbLine
 10
171.0792452830184
 20
314.6600970254481
 30
0.0
 11
171.0792452830184
 21
310.1600970254482
 31
0.0
  0
LINE
  5
4B9
330
A
100
AcDbEntity
  8
04
100
AcDbLine
 10
160.0792452830186
 20
324.1600970254481
 30
0.0
 11
160.0792452830186
 21
314.6600970254481
 31
0.0
  0
LINE
  5
4BA
330
A
100
AcDbEntity
  8
04
100
AcDbLine
 10
170.0792452830184
 20
324.1600970254481
 30
0.0
 11
170.0792452830184
 21
314.6600970254481
 31
0.0
  0
LINE
  5
4BB
330
A
100
AcDbEntity
  8
04
100
AcDbLine
 10
163.8292452830184
 20
310.1600970254482
 30
0.0
 11
163.8292452830184
 21
295.9717598638593
 31
0.0
  0
LINE
  5
4BC
330
A
100
AcDbEntity
  8
04
100
AcDbLine
 10
166.3292452830186
 20
296.5616342719321
 30
0.0
 11
166.3292452830186
 21
310.1600970254482
 31
0.0
  0
LINE
  5
4BD
330
A
100
AcDbEntity
  8
04
100
AcDbLine
 10
153.0792452830184
 20
324.1600970254481
 30
0.0
 11
153.0792452830184
 21
326.1600970254481
 31
0.0
  0
LINE
  5
4BE
330
A
100
AcDbEntity
  8
04
100
AcDbLine
 10
177.0792452830184
 20
324.1600970254481
 30
0.0
 11
177.0792452830184
 21
326.1600970254481
 31
0.0
  0
LINE
  5
4ED
330
A
100
AcDbEntity
  8
KAKURE
100
AcDbLine
 10
322.5792452830185
 20
533.73089844144
 30
0.0
 11
322.1500466990103
 21
534.1600970254481
 31
0.0
  0
POLYLINE
  5
537
330
A
100
AcDbEntity
  8
DEFPOINTS
100
AcDb2dPolyline
 66
     1
 10
0.0
 20
0.0
 30
0.0
 70
     1
  0
VERTEX
  5
1225
330
537
100
AcDbEntity
  8
DEFPOINTS
100
AcDbVertex
100
AcDb2dVertex
 10
0.0
 20
0.0
 30
0.0
  0
VERTEX
  5
1226
330
537
100
AcDbEntity
  8
DEFPOINTS
100
AcDbVertex
100
AcDb2dVertex
 10
420.0
 20
0.0
 30
0.0
  0
VERTEX
  5
1227
330
537
100
AcDbEntity
  8
DEFPOINTS
100
AcDbVertex
100
AcDb2dVertex
 10
420.0
 20
594.0
 30
0.0
  0
VERTEX
  5
1228
330
537
100
AcDbEntity
  8
DEFPOINTS
100
AcDbVertex
100
AcDb2dVertex
 10
0.0
 20
594.0
 30
0.0
  0
SEQEND
  5
1229
330
537
100
AcDbEntity
  8
DEFPOINTS
  0
DIMENSION
  5
54B
330
A
100
AcDbEntity
  8
SUNPOU
100
AcDbDimension
  2
*D1
 10
322.5792452830186
 20
93.18309859154933
 30
0.0
 11
227.5792452830186
 21
88.59359706574492
 31
0.0
 70
   160
 53
180.0
  3
SUNPOU_2
100
AcDbAlignedDimension
 13
132.5792452830187
 23
109.160097025448
 33
0.0
 14
322.5792452830186
 24
109.1600970254482
 34
0.0
100
AcDbRotatedDimension
1001
ACAD
1000
DSTYLE
1002
{
1070
     6
1000
OPEN30
1070
     5
1000

1070
   173
1070
     1
1070
     7
1000
OPEN30
1002
}
  0
DIMENSION
  5
632
330
A
100
AcDbEntity
  8
SUNPOU
100
AcDbDimension
  2
*D2
 10
137.5792452830185
 20
236.6152705707932
 30
0.0
 11
135.0792452830186
 21
232.1687973334121
 31
0.0
 70
   160
 53
180.0
  3
SUNPOU_2
100
AcDbAlignedDimension
 13
132.5792452830187
 23
136.160097025448
 33
0.0
 14
137.5792452830185
 24
257.1600970254481
 34
0.0
100
AcDbRotatedDimension
1001
ACAD
1000
DSTYLE
1002
{
1070
     6
1000
OPEN30
1070
     5
1000

1070
   173
1070
     1
1070
     7
1000
OPEN30
1002
}
  0
DIMENSION
  5
64C
330
A
100
AcDbEntity
  8
SUNPOU
100
AcDbDimension
  2
*D3
 10
192.5792452830186
 20
236.6152705707932
 30
0.0
 11
165.0792452830186
 21
232.1101385587113
 31
0.0
 70
   160
 53
180.0
  3
SUNPOU_2
100
AcDbAlignedDimension
 13
137.5792452830185
 23
257.1600970254481
 33
0.0
 14
192.5792452830186
 24
257.1600970254481
 34
0.0
100
AcDbRotatedDimension
1001
ACAD
1000
DSTYLE
1002
{
1070
     6
1000
OPEN30
1070
     5
1000

1070
   173
1070
     1
1070
     7
1000
OPEN30
1002
}
  0
DIMENSION
  5
659
330
A
100
AcDbEntity
  8
SUNPOU
100
AcDbDimension
  2
*D4
 10
197.5792452830186
 20
236.6152705707932
 30
0.0
 11
195.0792452830184
 21
232.0521948650414
 31
0.0
 70
   160
 53
180.0
  3
SUNPOU_2
100
AcDbAlignedDimension
 13
192.5792452830186
 23
257.1600970254481
 33
0.0
 14
197.5792452830186
 24
257.1600970254481
 34
0.0
100
AcDbRotatedDimension
1001
ACAD
1000
DSTYLE
1002
{
1070
     6
1000
OPEN30
1070
     5
1000

1070
   173
1070
     1
1070
     7
1000
OPEN30
1002
}
  0
DIMENSION
  5
668
330
A
100
AcDbEntity
  8
SUNPOU
100
AcDbDimension
  2
*D5
 10
237.5792452830185
 20
236.6152705707932
 30
0.0
 11
217.5792452830186
 21
232.1045064311332
 31
0.0
 70
   160
 53
180.0
  3
SUNPOU_2
100
AcDbAlignedDimension
 13
197.5792452830186
 23
257.1600970254481
 33
0.0
 14
237.5792452830185
 24
257.1600970254483
 34
0.0
100
AcDbRotatedDimension
1001
ACAD
1000
DSTYLE
1002
{
1070
     6
1000
OPEN30
1070
     5
1000

1070
   173
1070
     1
1070
     7
1000
OPEN30
1002
}
  0
DIMENSION
  5
675
330
A
100
AcDbEntity
  8
SUNPOU
100
AcDbDimension
  2
*D6
 10
242.5792452830189
 20
236.6152705707932
 30
0.0
 11
240.0792452830186
 21
232.1586617167886
 31
0.0
 70
   160
 53
180.0
  3
SUNPOU_2
100
AcDbAlignedDimension
 13
237.5792452830185
 23
257.1600970254483
 33
0.0
 14
242.5792452830189
 24
236.6152705707932
 34
0.0
100
AcDbRotatedDimension
1001
ACAD
1000
DSTYLE
1002
{
1070
     6
1000
OPEN30
1070
     5
1000

1070
   173
1070
     1
1070
     7
1000
OPEN30
1002
}
  0
DIMENSION
  5
69F
330
A
100
AcDbEntity
  8
SUNPOU
100
AcDbDimension
  2
*D7
 10
322.5792452830186
 20
236.6152705707932
 30
0.0
 11
282.5792452830187
 21
232.101434487285
 31
0.0
 70
   160
 53
180.0
  3
SUNPOU_2
100
AcDbAlignedDimension
 13
242.5792452830189
 23
236.6152705707932
 33
0.0
 14
322.5792452830186
 24
140.1600970254482
 34
0.0
100
AcDbRotatedDimension
1001
ACAD
1000
DSTYLE
1002
{
1070
     6
1000
OPEN30
1070
     5
1000

1070
   173
1070
     1
1070
     7
1000
OPEN30
1002
}
  0
DIMENSION
  5
6E0
330
A
100
AcDbEntity
  8
SUNPOU
100
AcDbDimension
  2
*D8
 10
122.9691242924299
 20
324.1600970254481
 30
0.0
 11
118.4691242924297
 21
289.1600970254481
 31
0.0
 70
    32
  3
SUNPOU_2
100
AcDbAlignedDimension
 13
140.5792452830185
 23
254.1600970254481
 33
0.0
 14
140.5792452830184
 24
324.1600970254481
 34
0.0
 50
90.0
100
AcDbRotatedDimension
1001
ACAD
1000
DSTYLE
1002
{
1070
     6
1000
OPEN30
1070
     5
1000

1070
   173
1070
     1
1070
     7
1000
OPEN30
1002
}
  0
DIMENSION
  5
6ED
330
A
100
AcDbEntity
  8
SUNPOU
100
AcDbDimension
  2
*D9
 10
252.5792452830184
 20
279.1600970254481
 30
0.0
 11
248.0792452830185
 21
266.6600970254481
 31
0.0
 70
    32
  3
SUNPOU_2
100
AcDbAlignedDimension
 13
234.5792452830186
 23
254.1600970254481
 33
0.0
 14
230.5792452830186
 24
279.1600970254481
 34
0.0
 50
90.0
100
AcDbRotatedDimension
1001
ACAD
1000
DSTYLE
1002
{
1070
     6
1000
OPEN30
1070
     5
1000

1070
   173
1070
     1
1070
     7
1000
OPEN30
1002
}
  0
DIMENSION
  5
6FA
330
A
100
AcDbEntity
  8
SUNPOU
100
AcDbDimension
  2
*D10
 10
252.5792452830184
 20
501.1600970254483
 30
0.0
 11
248.0792452830185
 21
488.6600970254483
 31
0.0
 70
    32
  3
SUNPOU_2
100
AcDbAlignedDimension
 13
230.5792452830186
 23
476.1600970254483
 33
0.0
 14
234.5792452830184
 24
501.1600970254483
 34
0.0
 50
90.0
100
AcDbRotatedDimension
1001
ACAD
1000
DSTYLE
1002
{
1070
     6
1000
OPEN30
1070
     5
1000

1070
   173
1070
     1
1070
     7
1000
OPEN30
1002
}
  0
DIMENSION
  5
710
330
A
100
AcDbEntity
  8
SUNPOU
100
AcDbDimension
  2
*D11
 10
267.5792452830185
 20
501.1600970254483
 30
0.0
 11
263.0792452830184
 21
385.812790907584
 31
0.0
 70
   160
  1
DW
  3
SUNPOU_2
100
AcDbAlignedDimension
 13
234.6345637449271
 23
254.1606070908473
 33
0.0
 14
234.6345637449271
 24
501.1600970254483
 34
0.0
 50
90.0
100
AcDbRotatedDimension
1001
ACAD
1000
DSTYLE
1002
{
1070
     6
1000
OPEN30
1070
     5
1000

1070
   173
1070
     1
1070
     7
1000
OPEN30
1002
}
  0
DIMENSION
  5
72A
330
A
100
AcDbEntity
  8
SUNPOU
100
AcDbDimension
  2
*D12
 10
342.5792452830187
 20
504.1659392899996
 30
0.0
 11
338.0792452830185
 21
321.663018157724
 31
0.0
 70
    32
  1
W
  3
SUNPOU_2
100
AcDbAlignedDimension
 13
319.5792452830186
 23
139.1600970254482
 33
0.0
 14
319.7663801414841
 24
504.1659392899996
 34
0.0
 50
90.0
100
AcDbRotatedDimension
1001
ACAD
1000
DSTYLE
1002
{
1070
     6
1000
OPEN30
1070
     5
1000

1070
   173
1070
     1
1070
     7
1000
OPEN30
1002
}
  0
LEADER
  5
830
330
A
100
AcDbEntity
  8
HIKIDASI
100
AcDbLeader
  3
SUNPOU_2
 73
     0
 75
     1
 40
13.33333333333333
 41
27.46666666666667
 76
     3
 10
208.6636113120432
 20
501.1600970254483
 30
0.0
 10
180.5662555458889
 20
484.8521799516006
 30
0.0
 10
180.5662555458889
 20
479.8521799516006
 30
0.0
340
831
211
0.0000000000000001
221
1.0
231
0.0
213
-8.496692263531969
223
-4.905567565571573
233
0.0
1001
ACAD
1000
DSTYLE
1002
{
1070
     5
1000
OPEN30
1070
    77
1070
     1
1070
   147
1040
1.0
1070
   341
1005
B09
1070
   342
1005
B09
1002
}
1000
LEANOF
1010
-8.496692263531969
1020
-4.905567565571573
1030
0.0
1000
LEANOF
1010
-8.496692263531969
1020
-4.905567565571573
1030
0.0
  0
MTEXT
  5
831
330
A
100
AcDbEntity
  8
HIKIDASI
100
AcDbMText
 10
187.0629478094208
 20
482.7577475171721
 30
0.0
 40
5.0
 41
0.0
 71
     9
 72
     1
  1
戸当たりゴム\P（建具工事）
  7
SUNPOU
 11
0.0000000000000001
 21
1.0
 31
0.0
1001
ACAD
1000
MTEXTBEGIN
1070
    73
1070
     1
1070
    44
1040
1.0
1070
    74
1070
     0
1000
MTEXTEND
1000
MTEXTBEGIN
1070
    73
1070
     1
1070
    44
1040
1.0
1070
    74
1070
     0
1000
MTEXTEND
  0
LEADER
  5
833
330
A
100
AcDbEntity
  8
HIKIDASI
100
AcDbLeader
  3
SUNPOU_2
 73
     0
 74
     0
 75
     1
 40
13.33333333333333
 41
70.53333333333333
 76
     3
 10
207.7805834739091
 20
328.908830909549
 30
0.0
 10
180.4671994683072
 20
344.438627785016
 30
0.0
 10
180.4671994683072
 20
349.438627785016
 30
0.0
340
834
211
0.0000000000000001
221
1.0
231
0.0
213
-8.626487528040655
223
4.980504896475223
233
0.0
1001
ACAD
1000
DSTYLE
1002
{
1070
     5
1000
OPEN30
1070
    77
1070
     1
1070
   147
1040
1.0
1070
   341
1005
B09
1070
   342
1005
B09
1002
}
1000
LEANOF
1010
-8.626487528040655
1020
4.980504896475223
1030
0.0
1000
LEANOF
1010
-8.626487528040655
1020
4.980504896475223
1030
0.0
  0
MTEXT
  5
834
330
A
100
AcDbEntity
  8
HIKIDASI
100
AcDbMText
 10
180.4270203296812
 20
346.4581228885407
 30
0.0
 40
5.0
 41
0.0
 71
     4
 72
     1
  1
補強FB用埋込み溝（DW-50）\P上下共深さ7mm（建具工事）
  7
SUNPOU
 11
0.0000000000000001
 21
1.0
 31
0.0
1001
ACAD
1000
MTEXTBEGIN
1070
    73
1070
     1
1070
    44
1040
1.0
1070
    74
1070
     0
1000
MTEXTEND
1000
MTEXTBEGIN
1070
    73
1070
     1
1070
    44
1040
1.0
1070
    74
1070
     0
1000
MTEXTEND
  0
LEADER
  5
835
330
A
100
AcDbEntity
  8
HIKIDASI
100
AcDbLeader
  3
SUNPOU_2
 73
     0
 74
     0
 75
     1
 40
13.33333333333333
 41
70.13333333333332
 76
     3
 10
165.0792452830186
 20
326.1600970254481
 30
0.0
 10
115.8660391735129
 20
366.7174662316381
 30
0.0
 10
115.8660391735129
 20
371.7174662316381
 30
0.0
340
836
211
0.0000000000000001
221
1.0
231
0.0
213
-8.133628452921641
223
0.0
233
0.0
1001
ACAD
1000
DSTYLE
1002
{
1070
     5
1000
OPEN30
1070
    77
1070
     1
1070
   147
1040
1.0
1070
   341
1005
B09
1070
   342
1005
B09
1002
}
1000
LEANOF
1010
-8.133628452921641
1020
0.0
1030
0.0
1000
LEANOF
1010
-8.133628452921641
1020
0.0
1030
0.0
  0
MTEXT
  5
836
330
A
100
AcDbEntity
  8
HIKIDASI
100
AcDbMText
 10
115.3330009597679
 20
373.7174662316381
 30
0.0
 40
5.0
 41
0.0
 71
     4
 72
     1
  1
プレート取付型補助光電スイッチ\P取付穴φ12（建具工事）
  7
SUNPOU
 11
0.0000000000000001
 21
1.0
 31
0.0
1001
ACAD
1000
MTEXTBEGIN
1070
    73
1070
     1
1070
    44
1040
1.0
1070
    74
1070
     0
1000
MTEXTEND
1000
MTEXTBEGIN
1070
    73
1070
     1
1070
    44
1040
1.0
1070
    74
1070
     0
1000
MTEXTEND
  0
LEADER
  5
838
330
A
100
AcDbEntity
  8
HIKIDASI
100
AcDbLeader
  3
SUNPOU_2
 76
     2
 10
165.0792452830186
 20
502.1600970254481
 30
0.0
 10
115.8660391735129
 20
443.8507995649714
 30
0.0
1001
ACAD
1000
DSTYLE
1002
{
1070
     5
1000
OPEN30
1070
    77
1070
     1
1070
   147
1040
1.0
1070
   341
1005
B09
1070
   342
1005
B09
1002
}
1000
LEANOF
1010
0.0
1020
0.0
1030
0.0
1000
LEANOF
1010
0.0
1020
0.0
1030
0.0
  0
LEADER
  5
83D
330
A
100
AcDbEntity
  8
HIKIDASI
100
AcDbLeader
  3
SUNPOU_2
 73
     0
 74
     0
 75
     1
 40
13.33333333333333
 41
94.13333333333337
 76
     3
 10
163.1283120858076
 20
286.2315622399378
 30
0.0
 10
70.62978376965475
 20
371.0433930331313
 30
0.0
 10
70.62978376965475
 20
376.0433930331314
 30
0.0
340
83E
211
0.0000000000000001
221
1.0
231
0.0
213
-8.414145778034324
223
0.0
233
0.0
1001
ACAD
1000
DSTYLE
1002
{
1070
     5
1000
OPEN30
1070
    77
1070
     1
1070
   147
1040
1.0
1070
   341
1005
B09
1070
   342
1005
B09
1002
}
1000
LEANOF
1010
-8.414145778034324
1020
0.0
1030
0.0
1000
LEANOF
1010
-8.414145778034324
1020
0.0
1030
0.0
  0
MTEXT
  5
83E
330
A
100
AcDbEntity
  8
HIKIDASI
100
AcDbMText
 10
70.3772628810224
 20
378.0433930331314
 30
0.0
 40
5.0
 41
0.0
 71
     4
 72
     1
  1
補助光電スイッチケーブル通し穴\Pガラスポケットの溝を深く加工（建具工事）
  7
SUNPOU
 11
0.0000000000000001
 21
1.0
 31
0.0
1001
ACAD
1000
MTEXTBEGIN
1070
    73
1070
     1
1070
    44
1040
1.0
1070
    74
1070
     0
1000
MTEXTEND
1000
MTEXTBEGIN
1070
    73
1070
     1
1070
    44
1040
1.0
1070
    74
1070
     0
1000
MTEXTEND
  0
INSERT
  5
9B2
330
A
100
AcDbEntity
  8
KAKURE
  6
CONTINUOUS
100
AcDbBlockReference
  2
*X14
 10
0.0
 20
0.0
 30
0.0
1001
ACAD
1000
HATCH
1002
{
1070
    19
1000
ANSI31
1040
30.0
1040
1.570796326794896
1000
R14_HATCH_DATA
1000
9B2
1011
1.0
1021
0.0
1031
0.0
1011
0.0
1021
1.0
1031
0.0
1011
0.0
1021
0.0
1031
1.0
1040
0.0
1010
0.0
1020
0.0
1030
1.0
1000
ANSI31
1070
     0
1070
     0
1071
        2
1071
        7
1070
     0
1070
     1
1071
      112
1040
171.0792452830184
1040
301.1600970254481
1040
166.3292452830184
1040
301.1600970254481
1040
166.3292452830184
1040
296.4982818459923
1040
166.3189439894886
1040
296.5224373537263
1040
166.3161126770823
1040
296.5290263647427
1040
166.3132443551914
1040
296.5356018898447
1040
166.3103205190894
1040
296.5421571860618
1040
166.307322664034
1040
296.5486855104566
1040
166.3042322852918
1040
296.5551801200628
1040
166.3010308781204
1040
296.5616342719306
1040
166.2976999377848
1040
296.5680412230991
1040
166.2942209595476
1040
296.5743942306088
1040
166.2905754386699
1040
296.5806865515038
1040
166.286744870413
1040
296.5869114428298
1040
166.2827107500405
1040
296.5930621616272
1040
166.2784545728143
1040
296.5991319649385
1040
166.2739578339951
1040
296.6051141098093
1040
166.269202028848
1040
296.6110018532792
1040
166.2641686526336
1040
296.6167884523916
1040
166.2588392006137
1040
296.6224671641913
1040
166.2531951680504
1040
296.6280312457218
1040
166.2472180502058
1040
296.6334739540213
1040
166.2408893423435
1040
296.6387885461386
1040
166.2341905397244
1040
296.6439682791133
1040
166.2271031376128
1040
296.6490064099873
1040
166.2196086312675
1040
296.6538961958061
1040
166.2116885159524
1040
296.6586308936118
1040
166.2033242869304
1040
296.6632037604463
1040
166.1944974394612
1040
296.6676080533543
1040
166.1851894688108
1040
296.6718370293755
1040
166.1753818702364
1040
296.6758839455568
1040
166.1650561390033
1040
296.6797420589388
1040
166.1541937703764
1040
296.6834046265643
1040
166.1427839037848
1040
296.6868662181513
1040
166.1308462553465
1040
296.6901266541103
1040
166.1184081853604
1040
296.6931870675275
1040
166.1054970541015
1040
296.6960485914903
1040
166.0921402218704
1040
296.6987123590826
1040
166.0783650489513
1040
296.7011795033918
1040
166.0641988956331
1040
296.7034511575036
1040
166.0496691222145
1040
296.7055284545013
1040
166.0348030889814
1040
296.7074125274746
1040
166.0196281562184
1040
296.7091045095069
1040
166.0041716842181
1040
296.7106055336851
1040
165.9884610332728
1040
296.7119167330941
1040
165.972523563665
1040
296.7130392408207
1040
165.9563866357017
1040
296.7139741899503
1040
165.9400776096483
1040
296.7147227135693
1040
165.9236238458103
1040
296.7152859447626
1040
165.9070527044818
1040
296.7156650166168
1040
165.8903915459345
1040
296.7158610622177
1040
165.8736677304791
1040
296.7158752146509
1040
165.8569086183844
1040
296.7157086070022
1040
165.8401415699619
1040
296.7153623723581
1040
165.8233939454846
1040
296.7148376438036
1040
165.806693105253
1040
296.7141355544254
1040
165.7900664095509
1040
296.7132572373087
1040
165.77354121866
1040
296.7122038255393
1040
165.7571448928851
1040
296.7109764522041
1040
165.7409047925091
1040
296.7095762503872
1040
165.724848277826
1040
296.7080043531769
1040
165.7090027091251
1040
296.7062618936568
1040
165.6933954466899
1040
296.7043500049138
1040
165.6780473225289
1040
296.7022684481111
1040
165.662953055483
1040
296.700011496729
1040
165.648100836133
1040
296.6975720523229
1040
165.6334788550275
1040
296.6949430164493
1040
165.6190753027393
1040
296.6921172906653
1040
165.6048783698224
1040
296.6890877765257
1040
165.5908762468483
1040
296.6858473755898
1040
165.5770571243781
1040
296.6823889894127
1040
165.5634091929756
1040
296.6787055195506
1040
165.5499206432049
1040
296.6747898675618
1040
165.5365796656248
1040
296.6706349350008
1040
165.5233744508043
1040
296.6662336234254
1040
165.510293189306
1040
296.6615788343925
1040
165.4973240716959
1040
296.6566634694592
1040
165.4844552885281
1040
296.6514804301791
1040
165.4716750303761
1040
296.6460226181118
1040
165.458971487799
1040
296.6402829348141
1040
165.4463328513622
1040
296.6342542818411
1040
165.4337473116218
1040
296.6279295607466
1040
165.4212030591519
1040
296.6213016730938
1040
165.4086882845131
1040
296.6143635204359
1040
165.3961911782654
1040
296.6071080043296
1040
165.3836999309716
1040
296.5995280263285
1040
165.3712027332016
1040
296.5916164879948
1040
165.3586877755135
1040
296.5833662908813
1040
165.3461432484741
1040
296.5747703365479
1040
165.3335573426425
1040
296.5658215265459
1040
165.3209182485871
1040
296.5565127624373
1040
165.3082141568695
1040
296.5468369457766
1040
165.2954332580515
1040
296.5367869781179
1040
165.2825666965839
1040
296.5263591602814
1040
165.2696174324493
1040
296.5155633901042
1040
165.2565913795235
1040
296.5044129646944
1040
165.2434944516724
1040
296.4929211811503
1040
165.2303325627679
1040
296.481101336577
1040
165.2171116266799
1040
296.4689667280736
1040
165.2038375572856
1040
296.4565306527508
1040
165.190516268445
1040
296.4438064076971
1040
165.177153674032
1040
296.4308072900198
1040
165.1637556879238
1040
296.4175465968292
1040
165.1503282239824
1040
296.404037625219
1040
165.1368771960858
1040
296.3902936722928
1040
165.1234085180973
1040
296.3763280351513
1040
165.1099281038948
1040
296.3621540109028
1040
165.096441867343
1040
296.3477848966444
1040
165.0829557223113
1040
296.3332339894749
1040
165.0792452830186
1040
296.3291824401114
1040
165.0792452830186
1040
266.1600970254482
1040
171.0792452830185
1040
266.1600970254482
1071
        0
1071
        7
1070
     0
1070
     1
1071
       29
1040
165.0792452830186
1040
296.3291824401103
1040
165.0694755826781
1040
296.3185145865043
1040
165.0560073623115
1040
296.3036399848343
1040
165.0425569750729
1040
296.2886234815558
1040
165.0291303348464
1040
296.2734783737858
1040
165.0157333554963
1040
296.2582179586161
1040
165.0023719508861
1040
296.2428555331472
1040
164.9890520349038
1040
296.2274043945021
1040
164.975779521402
1040
296.2118778397548
1040
164.9625603242604
1040
296.1962891660227
1040
164.9494003573529
1040
296.1806516704088
1040
164.936305534539
1040
296.1649786500052
1040
164.9232817696983
1040
296.1492834019257
1040
164.9103349767053
1040
296.1335792232759
1040
164.8974710694098
1040
296.1178794111265
1040
164.886692202598
1040
296.1046537471401
1040
164.8094906804275
1040
296.0097035520336
1040
164.7209609649685
1040
295.910587738211
1040
164.6056306597681
1040
295.8183087723551
1040
164.4658352672974
1040
295.7731069049332
1040
164.3111520256542
1040
295.7884856004665
1040
164.1620018348459
1040
295.8313536386448
1040
164.0153351677213
1040
295.8892299386688
1040
163.9002635994111
1040
295.939836623464
1040
163.8292452830184
1040
295.9717598638593
1040
163.8292452830184
1040
301.1600970254481
1040
159.0792452830186
1040
301.1600970254481
1040
159.0792452830186
1040
266.1600970254482
1040
165.0792452830186
1040
266.1600970254482
1071
        0
1070
     0
1070
     1
1040
1.570796326794896
1040
30.0
1070
     0
1070
     1
1040
2.356194490192344
1040
0.0
1040
0.0
1040
-2.651650429449553
1040
-2.651650429449551
1070
     0
1040
0.1664151241580803
1071
        2
1040
167.9888814373525
1040
284.9470820438286
1040
0.0
1040
161.8268434027186
1040
294.4327444916856
1040
0.0
1002
}
  0
MTEXT
  5
9C4
330
A
100
AcDbEntity
  8
MOJI
100
AcDbMText
 10
77.96912429242991
 20
297.0
 30
0.0
 40
6.0
 41
30.0
 71
     5
 72
     1
  1
外　部
  7
0_8
 11
0.0000000000000001
 21
1.0
 31
0.0
1001
ACAD
1000
MTEXTBEGIN
1070
    73
1070
     1
1070
    44
1040
1.0
1070
    74
1070
     0
1000
MTEXTEND
1000
MTEXTBEGIN
1070
    73
1070
     1
1070
    44
1040
1.0
1070
    74
1070
     0
1000
MTEXTEND
  0
POLYLINE
  5
9C5
330
A
100
AcDbEntity
  8
SAISEN
100
AcDb2dPolyline
 66
     1
 10
0.0
 20
0.0
 30
0.0
 70
     1
  0
VERTEX
  5
122A
330
9C5
100
AcDbEntity
  8
SAISEN
100
AcDbVertex
100
AcDb2dVertex
 10
72.96912429242991
 20
282.0
 30
0.0
  0
VERTEX
  5
122B
330
9C5
100
AcDbEntity
  8
SAISEN
100
AcDbVertex
100
AcDb2dVertex
 10
82.96912429242992
 20
282.0
 30
0.0
  0
VERTEX
  5
122C
330
9C5
100
AcDbEntity
  8
SAISEN
100
AcDbVertex
100
AcDb2dVertex
 10
82.96912429242992
 20
312.0
 30
0.0
  0
VERTEX
  5
122D
330
9C5
100
AcDbEntity
  8
SAISEN
100
AcDbVertex
100
AcDb2dVertex
 10
72.96912429242991
 20
312.0
 30
0.0
  0
SEQEND
  5
122E
330
9C5
100
AcDbEntity
  8
SAISEN
  0
POLYLINE
  5
9C6
330
A
100
AcDbEntity
  8
SAISEN
100
AcDb2dPolyline
 66
     1
 10
0.0
 20
0.0
 30
0.0
 70
     1
  0
VERTEX
  5
122F
330
9C6
100
AcDbEntity
  8
SAISEN
100
AcDbVertex
100
AcDb2dVertex
 10
362.5792452830186
 20
282.0
 30
0.0
  0
VERTEX
  5
1230
330
9C6
100
AcDbEntity
  8
SAISEN
100
AcDbVertex
100
AcDb2dVertex
 10
372.5792452830186
 20
282.0
 30
0.0
  0
VERTEX
  5
1231
330
9C6
100
AcDbEntity
  8
SAISEN
100
AcDbVertex
100
AcDb2dVertex
 10
372.5792452830186
 20
312.0
 30
0.0
  0
VERTEX
  5
1232
330
9C6
100
AcDbEntity
  8
SAISEN
100
AcDbVertex
100
AcDb2dVertex
 10
362.5792452830186
 20
312.0
 30
0.0
  0
SEQEND
  5
1233
330
9C6
100
AcDbEntity
  8
SAISEN
  0
MTEXT
  5
9C7
330
A
100
AcDbEntity
  8
MOJI
100
AcDbMText
 10
367.5792452830187
 20
297.0
 30
0.0
 40
6.0
 41
30.0
 71
     5
 72
     1
  1
内　部
  7
0_8
 11
0.0000000000000001
 21
1.0
 31
0.0
1001
ACAD
1000
MTEXTBEGIN
1070
    73
1070
     1
1070
    44
1040
1.0
1070
    74
1070
     0
1000
MTEXTEND
1000
MTEXTBEGIN
1070
    73
1070
     1
1070
    44
1040
1.0
1070
    74
1070
     0
1000
MTEXTEND
  0
INSERT
  5
9F2
330
A
100
AcDbEntity
  8
06
  6
CONTINUOUS
100
AcDbBlockReference
  2
*X15
 10
0.0
 20
0.0
 30
0.0
1001
ACAD
1000
HATCH
1002
{
1070
    19
1000
ANSI37
1040
20.0
1040
1.570796326794896
1000
ASC_BOUNDS
1070
     2
1070
     1
1070
     4
1005
283
1005
218
1005
265
1005
208
1070
     1
1070
     4
1005
266
1005
218
1005
283
1005
208
1000
ASC_SEEDPOINT
1011
226.9135287207191
1021
502.5575577244699
1031
0.0
1000
R14_HATCH_DATA
1000
9F2
1011
1.0
1021
0.0
1031
0.0
1011
0.0
1021
1.0
1031
0.0
1011
0.0
1021
0.0
1031
1.0
1040
0.0
1010
0.0
1020
0.0
1030
1.0
1000
ANSI37
1070
     0
1070
     1
1071
        2
1071
        7
1070
     0
1070
     1
1071
        4
1040
230.0792452830184
1040
501.1600970254483
1040
230.0792452830186
1040
504.1600970254481
1040
217.5792452830184
1040
504.1600970254481
1040
217.5792452830186
1040
501.1600970254483
1071
        4
1005
208
1005
283
1005
218
1005
266
1071
        7
1070
     0
1070
     1
1071
        4
1040
217.5792452830184
1040
501.1600970254481
1040
217.5792452830184
1040
504.1600970254481
1040
205.0792452830184
1040
504.1600970254481
1040
205.0792452830186
1040
501.1600970254481
1071
        4
1005
208
1005
265
1005
218
1005
283
1070
     0
1070
     1
1040
1.570796326794896
1040
20.0
1070
     0
1070
     2
1040
2.356194490192344
1040
0.0
1040
0.0
1040
-1.767766952966368
1040
-1.767766952966368
1070
     0
1040
3.926990816987241
1040
0.0
1040
0.0
1040
1.767766952966368
1040
-1.767766952966368
1070
     0
1040
0.0816083410901388
1071
        2
1040
226.9135287207191
1040
502.5575577244699
1040
0.0
1040
214.5035471869717
1040
502.3943413243578
1040
0.0
1002
}
  0
INSERT
  5
B08
330
A
100
AcDbEntity
  8
DEFPOINTS
100
AcDbBlockReference
  2
_OPEN
 10
0.0
 20
0.0
 30
0.0
  0
ARC
  5
EDF
330
A
100
AcDbEntity
  8
03
100
AcDbCircle
 10
15.14831575469451
 20
111.7271797812289
 30
0.0
 40
270.0
100
AcDbArc
 50
48.91700298402164
 51
51.88640419359049
  0
ARC
  5
EE0
330
A
100
AcDbEntity
  8
03
100
AcDbCircle
 10
15.14831575469451
 20
111.7271797812289
 30
0.0
 40
260.0
100
AcDbArc
 50
46.9664375422359
 51
53.14912617101199
  0
ARC
  5
EE1
330
A
100
AcDbEntity
  8
03
100
AcDbCircle
 10
15.14831575469451
 20
111.7271797812289
 30
0.0
 40
250.0
100
AcDbArc
 50
44.78755927968101
 51
51.41142705166865
  0
ARC
  5
EE2
330
A
100
AcDbEntity
  8
03
100
AcDbCircle
 10
15.14831575469451
 20
111.7271797812289
 30
0.0
 40
240.0
100
AcDbArc
 50
42.328559108716
 51
49.4800930191969
  0
ARC
  5
EE3
330
A
100
AcDbEntity
  8
03
100
AcDbCircle
 10
15.14831575469451
 20
111.7271797812289
 30
0.0
 40
230.0
100
AcDbArc
 50
39.51672961285818
 51
47.31552091661611
  0
ARC
  5
EE4
330
A
100
AcDbEntity
  8
03
100
AcDbCircle
 10
15.14831575469451
 20
111.7271797812289
 30
0.0
 40
220.0
100
AcDbArc
 50
40.34753893861638
 51
44.8645082543041
  0
ARC
  5
EE5
330
A
100
AcDbEntity
  8
03
100
AcDbCircle
 10
15.14831575469451
 20
111.7271797812289
 30
0.0
 40
210.0
100
AcDbArc
 50
46.73407745976901
 51
54.33786336923212
  0
ARC
  5
EE6
330
A
100
AcDbEntity
  8
03
100
AcDbCircle
 10
15.14831575469451
 20
111.7271797812289
 30
0.0
 40
200.0
100
AcDbArc
 50
45.41130603186422
 51
52.25453839515668
  0
ARC
  5
EE7
330
A
100
AcDbEntity
  8
03
100
AcDbCircle
 10
15.14831575469451
 20
111.7271797812289
 30
0.0
 40
190.0
100
AcDbArc
 50
48.55980337773107
 51
49.87999531390245
  0
ARC
  5
EE8
330
A
100
AcDbEntity
  8
06
100
AcDbCircle
 10
122.7158260553504
 20
136.7535650239145
 30
0.0
 40
180.0
100
AcDbArc
 50
50.34747282825359
 51
65.42349668031197
  0
ARC
  5
EE9
330
A
100
AcDbEntity
  8
06
100
AcDbCircle
 10
122.7158260553504
 20
136.7535650239145
 30
0.0
 40
170.0
100
AcDbArc
 50
47.49401861286769
 51
63.87231411291605
  0
ARC
  5
EEA
330
A
100
AcDbEntity
  8
06
100
AcDbCircle
 10
122.7158260553504
 20
136.7535650239145
 30
0.0
 40
160.0
100
AcDbArc
 50
47.20514091351089
 51
62.10216820592509
  0
ARC
  5
EEB
330
A
100
AcDbEntity
  8
06
100
AcDbCircle
 10
122.7158260553504
 20
136.7535650239145
 30
0.0
 40
160.0
100
AcDbArc
 50
47.20514091351089
 51
62.10216820592509
  0
ARC
  5
EEC
330
A
100
AcDbEntity
  8
06
100
AcDbCircle
 10
122.7158260553504
 20
136.7535650239145
 30
0.0
 40
150.0
100
AcDbArc
 50
51.50939417100714
 51
60.06022247941285
  0
ARC
  5
EED
330
A
100
AcDbEntity
  8
06
100
AcDbCircle
 10
171.9432091200409
 20
333.4270280126536
 30
0.0
 40
140.0
100
AcDbArc
 50
62.04169983661829
 51
79.44877398395705
  0
ARC
  5
EEE
330
A
100
AcDbEntity
  8
06
100
AcDbCircle
 10
171.9432091200409
 20
333.4270280126536
 30
0.0
 40
130.0
100
AcDbArc
 50
59.69679761905299
 51
78.62671353182394
  0
ARC
  5
EEF
330
A
100
AcDbEntity
  8
06
100
AcDbCircle
 10
171.9432091200409
 20
333.4270280126536
 30
0.0
 40
120.0
100
AcDbArc
 50
59.64871093558117
 51
65.56670061646655
  0
ARC
  5
EF0
330
A
100
AcDbEntity
  8
06
100
AcDbCircle
 10
171.9432091200409
 20
333.4270280126536
 30
0.0
 40
110.0
100
AcDbArc
 50
62.68316681274598
 51
63.1769434282969
  0
ARC
  5
F42
330
A
100
AcDbEntity
  8
03
100
AcDbCircle
 10
387.5008873201235
 20
191.7740692586972
 30
0.0
 40
230.0
100
AcDbArc
 50
196.3157365964266
 51
201.050532154118
  0
ARC
  5
F43
330
A
100
AcDbEntity
  8
03
100
AcDbCircle
 10
387.5008873201235
 20
191.7740692586972
 30
0.0
 40
90.0
100
AcDbArc
 50
215.7747150832419
 51
223.8338177331275
  0
ARC
  5
F44
330
A
100
AcDbEntity
  8
03
100
AcDbCircle
 10
387.5008873201235
 20
191.7740692586972
 30
0.0
 40
100.0
100
AcDbArc
 50
211.7450005332642
 51
229.5174506505516
  0
ARC
  5
F45
330
A
100
AcDbEntity
  8
03
100
AcDbCircle
 10
387.5008873201235
 20
191.7740692586972
 30
0.0
 40
110.0
100
AcDbArc
 50
208.5750077274901
 51
228.680208917699
  0
ARC
  5
F46
330
A
100
AcDbEntity
  8
03
100
AcDbCircle
 10
387.5008873201235
 20
191.7740692586972
 30
0.0
 40
120.0
100
AcDbArc
 50
206.005012043263
 51
223.5075195543942
  0
ARC
  5
F47
330
A
100
AcDbEntity
  8
03
100
AcDbCircle
 10
387.5008873201235
 20
191.7740692586972
 30
0.0
 40
130.0
100
AcDbArc
 50
203.8737614992613
 51
219.4564917285739
  0
ARC
  5
F48
330
A
100
AcDbEntity
  8
03
100
AcDbCircle
 10
387.5008873201235
 20
191.7740692586972
 30
0.0
 40
140.0
100
AcDbArc
 50
202.0746373421345
 51
216.1640907493743
  0
ARC
  5
F49
330
A
100
AcDbEntity
  8
03
100
AcDbCircle
 10
387.5008873201235
 20
191.7740692586972
 30
0.0
 40
150.0
100
AcDbArc
 50
200.5337958233229
 51
213.4191550724561
  0
ARC
  5
F4A
330
A
100
AcDbEntity
  8
03
100
AcDbCircle
 10
387.5008873201235
 20
191.7740692586972
 30
0.0
 40
160.0
100
AcDbArc
 50
199.1982211337401
 51
211.0868857090712
  0
ARC
  5
F4B
330
A
100
AcDbEntity
  8
03
100
AcDbCircle
 10
387.5008873201235
 20
191.7740692586972
 30
0.0
 40
160.0
100
AcDbArc
 50
199.1982211337401
 51
211.0868857090712
  0
ARC
  5
F4C
330
A
100
AcDbEntity
  8
03
100
AcDbCircle
 10
387.5008873201235
 20
191.7740692586972
 30
0.0
 40
170.0
100
AcDbArc
 50
198.0287364830782
 51
209.0756859554306
  0
ARC
  5
F4D
330
A
100
AcDbEntity
  8
03
100
AcDbCircle
 10
387.5008873201235
 20
191.7740692586972
 30
0.0
 40
180.0
100
AcDbArc
 50
196.9956947101834
 51
207.320438522834
  0
ARC
  5
F4E
330
A
100
AcDbEntity
  8
03
100
AcDbCircle
 10
387.5008873201235
 20
191.7740692586972
 30
0.0
 40
190.0
100
AcDbArc
 50
196.0762065842584
 51
205.7732286897767
  0
ARC
  5
F4F
330
A
100
AcDbEntity
  8
03
100
AcDbCircle
 10
387.5008873201235
 20
191.7740692586972
 30
0.0
 40
200.0
100
AcDbArc
 50
195.252295122783
 51
204.3978251271461
  0
ARC
  5
F50
330
A
100
AcDbEntity
  8
03
100
AcDbCircle
 10
387.5008873201235
 20
191.7740692586972
 30
0.0
 40
210.0
100
AcDbArc
 50
194.5096301650064
 51
203.1662152190476
  0
ARC
  5
F51
330
A
100
AcDbEntity
  8
03
100
AcDbCircle
 10
387.5008873201235
 20
191.7740692586972
 30
0.0
 40
220.0
100
AcDbArc
 50
193.8366388871955
 51
202.0563354503801
  0
ARC
  5
F52
330
A
100
AcDbEntity
  8
03
100
AcDbCircle
 10
387.5008873201235
 20
191.7740692586972
 30
0.0
 40
240.0
100
AcDbArc
 50
192.66351081092
 51
200.134487011616
  0
ARC
  5
F53
330
A
100
AcDbEntity
  8
03
100
AcDbCircle
 10
387.5008873201235
 20
191.7740692586972
 30
0.0
 40
250.0
100
AcDbArc
 50
192.1490698308243
 51
199.296448421346
  0
ARC
  5
F54
330
A
100
AcDbEntity
  8
03
100
AcDbCircle
 10
387.5008873201235
 20
191.7740692586972
 30
0.0
 40
260.0
100
AcDbArc
 50
191.9567485725515
 51
198.5266699997008
  0
ARC
  5
F7F
330
A
100
AcDbEntity
  8
03
100
AcDbCircle
 10
64.31256010434987
 20
410.4633004134782
 30
0.0
 40
270.0
100
AcDbArc
 50
20.30546895213038
 51
27.26691053793095
  0
ARC
  5
F80
330
A
100
AcDbEntity
  8
03
100
AcDbCircle
 10
64.31256010434987
 20
410.4633004134782
 30
0.0
 40
260.0
100
AcDbArc
 50
21.12306166885487
 51
28.40864381097885
  0
ARC
  5
F84
330
A
100
AcDbEntity
  8
03
100
AcDbCircle
 10
64.31256010434987
 20
410.4633004134782
 30
0.0
 40
280.0
100
AcDbArc
 50
22.94960527784213
 51
26.21714167638089
  0
ARC
  5
F86
330
A
100
AcDbEntity
  8
03
100
AcDbCircle
 10
64.31256010434987
 20
410.4633004134782
 30
0.0
 40
160.0
100
AcDbArc
 50
35.84574049672212
 51
48.14161419630398
  0
ARC
  5
F87
330
A
100
AcDbEntity
  8
03
100
AcDbCircle
 10
64.31256010434987
 20
410.4633004134782
 30
0.0
 40
160.0
100
AcDbArc
 50
35.84574049672212
 51
48.14161419630398
  0
ARC
  5
F88
330
A
100
AcDbEntity
  8
03
100
AcDbCircle
 10
64.31256010434987
 20
410.4633004134782
 30
0.0
 40
150.0
100
AcDbArc
 50
38.65615893867418
 51
44.62024502103163
  0
ARC
  5
F89
330
A
100
AcDbEntity
  8
03
100
AcDbCircle
 10
64.31256010434987
 20
410.4633004134782
 30
0.0
 40
210.0
100
AcDbArc
 50
26.49855367125482
 51
36.08837190276427
  0
ARC
  5
F8A
330
A
100
AcDbEntity
  8
03
100
AcDbCircle
 10
64.31256010434987
 20
410.4633004134782
 30
0.0
 40
200.0
100
AcDbArc
 50
27.93593351785818
 51
38.2055112072987
  0
ARC
  5
F8B
330
A
100
AcDbEntity
  8
03
100
AcDbCircle
 10
64.31256010434987
 20
410.4633004134782
 30
0.0
 40
240.0
100
AcDbArc
 50
22.97959742551032
 51
31.02441721414777
  0
ARC
  5
F8C
330
A
100
AcDbEntity
  8
03
100
AcDbCircle
 10
64.31256010434987
 20
410.4633004134782
 30
0.0
 40
230.0
100
AcDbArc
 50
24.04019182805529
 51
32.53482687517184
  0
ARC
  5
F8D
330
A
100
AcDbEntity
  8
03
100
AcDbCircle
 10
64.31256010434987
 20
410.4633004134782
 30
0.0
 40
250.0
100
AcDbArc
 50
22.01116027390107
 51
29.6557181512858
  0
ARC
  5
F8E
330
A
100
AcDbEntity
  8
03
100
AcDbCircle
 10
64.31256010434987
 20
410.4633004134782
 30
0.0
 40
220.0
100
AcDbArc
 50
25.20729739118706
 51
34.21210929960218
  0
ARC
  5
F8F
330
A
100
AcDbEntity
  8
03
100
AcDbCircle
 10
64.31256010434987
 20
410.4633004134782
 30
0.0
 40
180.0
100
AcDbArc
 50
31.36833021999646
 51
43.40922029854637
  0
ARC
  5
F90
330
A
100
AcDbEntity
  8
03
100
AcDbCircle
 10
64.31256010434987
 20
410.4633004134782
 30
0.0
 40
190.0
100
AcDbArc
 50
29.54724260165977
 51
40.61974021013882
  0
ARC
  5
F91
330
A
100
AcDbEntity
  8
03
100
AcDbCircle
 10
64.31256010434987
 20
410.4633004134782
 30
0.0
 40
170.0
100
AcDbArc
 50
33.4464673257666
 51
46.68792575692958
  0
ARC
  5
F92
330
A
100
AcDbEntity
  8
03
100
AcDbCircle
 10
64.31256010434987
 20
410.4633004134782
 30
0.0
 40
130.0
100
AcDbArc
 50
46.11598937243452
 51
58.32311605261693
  0
ARC
  5
F93
330
A
100
AcDbEntity
  8
03
100
AcDbCircle
 10
64.31256010434987
 20
410.4633004134782
 30
0.0
 40
140.0
100
AcDbArc
 50
47.39774855936768
 51
60.8157830675131
  0
ARC
  5
F96
330
A
100
AcDbEntity
  8
03
100
AcDbCircle
 10
64.31256010434987
 20
410.4633004134782
 30
0.0
 40
120.0
100
AcDbArc
 50
51.33448989993616
 51
55.32720836467543
  0
ARC
  5
F9B
330
A
100
AcDbEntity
  8
03
100
AcDbCircle
 10
64.31256010434987
 20
410.4633004134782
 30
0.0
 40
150.0
100
AcDbArc
 50
50.81858499390217
 51
55.55254774337045
  0
ARC
  5
FC8
330
A
100
AcDbEntity
  8
06
100
AcDbCircle
 10
122.7158260553504
 20
136.7535650239145
 30
0.0
 40
190.0
100
AcDbArc
 50
52.80394198189546
 51
66.79525695122896
  0
ARC
  5
FC9
330
A
100
AcDbEntity
  8
06
100
AcDbCircle
 10
122.7158260553504
 20
136.7535650239145
 30
0.0
 40
200.0
100
AcDbArc
 50
54.94817796272894
 51
61.28646072136246
  0
ARC
  5
FCA
330
A
100
AcDbEntity
  8
06
100
AcDbCircle
 10
122.7158260553504
 20
136.7535650239145
 30
0.0
 40
210.0
100
AcDbArc
 50
58.45560011964892
 51
61.91517781376464
  0
ARC
  5
FD2
330
A
100
AcDbEntity
  8
06
100
AcDbCircle
 10
171.9432091200409
 20
333.4270280126536
 30
0.0
 40
170.0
100
AcDbArc
 50
67.28830555492861
 51
80.507734881388
  0
ARC
  5
FD7
330
A
100
AcDbEntity
  8
06
100
AcDbCircle
 10
171.9432091200409
 20
333.4270280126536
 30
0.0
 40
150.0
100
AcDbArc
 50
64.0508321700881
 51
80.1594472352527
  0
ARC
  5
FD8
330
A
100
AcDbEntity
  8
06
100
AcDbCircle
 10
171.9432091200409
 20
333.4270280126536
 30
0.0
 40
160.0
100
AcDbArc
 50
65.78101606843119
 51
80.78003061826956
  0
ARC
  5
FD9
330
A
100
AcDbEntity
  8
06
100
AcDbCircle
 10
171.9432091200409
 20
333.4270280126536
 30
0.0
 40
160.0
100
AcDbArc
 50
65.78101606843119
 51
80.78003061826956
  0
ARC
  5
FE2
330
A
100
AcDbEntity
  8
06
100
AcDbCircle
 10
171.9432091200409
 20
333.4270280126536
 30
0.0
 40
110.0
100
AcDbArc
 50
67.75861679715697
 51
76.5230080450037
  0
ARC
  5
FE3
330
A
100
AcDbEntity
  8
03
100
AcDbCircle
 10
15.14831575469451
 20
111.7271797812289
 30
0.0
 40
220.0
100
AcDbArc
 50
49.13859629035771
 51
56.18561530768293
  0
ARC
  5
FE4
330
A
100
AcDbEntity
  8
03
100
AcDbCircle
 10
15.14831575469451
 20
111.7271797812289
 30
0.0
 40
230.0
100
AcDbArc
 50
51.26005119990932
 51
57.83844352450653
  0
ARC
  5
FE5
330
A
100
AcDbEntity
  8
03
100
AcDbCircle
 10
15.14831575469451
 20
111.7271797812289
 30
0.0
 40
240.0
100
AcDbArc
 50
53.15071127536871
 51
59.32758570896439
  0
ARC
  5
FE6
330
A
100
AcDbEntity
  8
03
100
AcDbCircle
 10
15.14831575469451
 20
111.7271797812289
 30
0.0
 40
250.0
100
AcDbArc
 50
54.84966961553348
 51
58.182496209279
  0
ARC
  5
FE7
330
A
100
AcDbEntity
  8
06
100
AcDbCircle
 10
171.9432091200409
 20
333.4270280126536
 30
0.0
 40
120.0
100
AcDbArc
 50
66.12664176595014
 51
77.66462200111736
  0
ARC
  5
FE9
330
A
100
AcDbEntity
  8
06
100
AcDbCircle
 10
122.7158260553504
 20
136.7535650239145
 30
0.0
 40
200.0
100
AcDbArc
 50
62.97899640134482
 51
67.9663664237828
  0
MTEXT
  5
11C8
330
A
100
AcDbEntity
  8
MOJI
100
AcDbMText
 10
359.9999999999972
 20
29.00000000000005
 30
0.0
 40
7.0
 41
49.99999999999994
 71
     5
 72
     1
  1
よこ断面図　
  7
0_80
1001
ACAD
1000
MTEXTBEGIN
1070
    73
1070
     1
1070
    44
1040
1.0
1070
    74
1070
     0
1000
MTEXTEND
1000
MTEXTBEGIN
1070
    73
1070
     1
1070
    44
1040
1.0
1070
    74
1070
     0
1000
MTEXTEND
  0
MTEXT
  5
11C9
330
A
100
AcDbEntity
  8
MOJI
100
AcDbMText
 10
309.9999999999969
 20
29.00000000000005
 30
0.0
 40
7.0
 41
50.0
 71
     5
 72
     1
  1
図番２－２
  7
0_80
1001
ACAD
1000
MTEXTBEGIN
1070
    73
1070
     1
1070
    44
1040
1.0
1070
    74
1070
     0
1000
MTEXTEND
1000
MTEXTBEGIN
1070
    73
1070
     1
1070
    44
1040
1.0
1070
    74
1070
     0
1000
MTEXTEND
  0
MTEXT
  5
11CA
330
A
100
AcDbEntity
  8
MOJI
100
AcDbMText
 10
254.9999999999998
 20
29.00000000000005
 30
0.0
 40
7.0
 41
60.0
 71
     5
 72
     1
  1
片引き又は両引き
  7
0_80
1001
ACAD
1000
MTEXTBEGIN
1070
    73
1070
     1
1070
    44
1040
1.0
1070
    74
1070
     0
1000
MTEXTEND
1000
MTEXTBEGIN
1070
    73
1070
     1
1070
    44
1040
1.0
1070
    74
1070
     0
1000
MTEXTEND
  0
LINE
  5
11CB
330
A
100
AcDbEntity
  8
SAISEN
100
AcDbLine
 10
144.999999999997
 20
42.00000000000017
 30
0.0
 11
144.999999999997
 21
17.0
 31
0.0
  0
LINE
  5
11CC
330
A
100
AcDbEntity
  8
SAISEN
100
AcDbLine
 10
224.9999999999969
 20
42.00000000000017
 30
0.0
 11
224.9999999999969
 21
17.0
 31
0.0
  0
LINE
  5
11CD
330
A
100
AcDbEntity
  8
SAISEN
100
AcDbLine
 10
284.9999999999969
 20
42.00000000000017
 30
0.0
 11
284.9999999999969
 21
17.0
 31
0.0
  0
MTEXT
  5
11CE
330
A
100
AcDbEntity
  8
MOJI
100
AcDbMText
 10
89.99999999999705
 20
29.50000000000011
 30
0.0
 40
7.0
 41
110.0
 71
     5
 72
     1
  1
木製建具直付け台板納り
  7
0_8
1001
ACAD
1000
MTEXTBEGIN
1070
    73
1070
     1
1070
    44
1040
1.0
1070
    74
1070
     0
1000
MTEXTEND
1000
MTEXTBEGIN
1070
    73
1070
     1
1070
    44
1040
1.0
1070
    74
1070
     0
1000
MTEXTEND
  0
MTEXT
  5
11CF
330
A
100
AcDbEntity
  8
MOJI
100
AcDbMText
 10
184.9999999999969
 20
29.50000000000011
 30
0.0
 40
7.0
 41
80.0
 71
     5
 72
     1
  1
Ｄ３台板
  7
0_8
1001
ACAD
1000
MTEXTBEGIN
1070
    73
1070
     1
1070
    44
1040
1.0
1070
    74
1070
     0
1000
MTEXTEND
1000
MTEXTBEGIN
1070
    73
1070
     1
1070
    44
1040
1.0
1070
    74
1070
     0
1000
MTEXTEND
  0
POLYLINE
  5
11D0
330
A
100
AcDbEntity
  8
SAISEN
100
AcDb2dPolyline
 66
     1
 10
0.0
 20
0.0
 30
0.0
 70
     1
  0
VERTEX
  5
1235
330
11D0
100
AcDbEntity
  8
SAISEN
100
AcDbVertex
100
AcDb2dVertex
 10
34.99999999999703
 20
17.0
 30
0.0
  0
VERTEX
  5
1236
330
11D0
100
AcDbEntity
  8
SAISEN
100
AcDbVertex
100
AcDb2dVertex
 10
384.999999999997
 20
17.0
 30
0.0
  0
VERTEX
  5
1237
330
11D0
100
AcDbEntity
  8
SAISEN
100
AcDbVertex
100
AcDb2dVertex
 10
384.999999999997
 20
42.00000000000017
 30
0.0
  0
VERTEX
  5
1238
330
11D0
100
AcDbEntity
  8
SAISEN
100
AcDbVertex
100
AcDb2dVertex
 10
34.99999999999703
 20
42.00000000000017
 30
0.0
  0
SEQEND
  5
1239
330
11D0
100
AcDbEntity
  8
SAISEN
  0
VIEWPORT
  5
AC7
102
{ACAD_XDICTIONARY
360
1214
102
}
330
B
100
AcDbEntity
 67
     1
  8
0
100
AcDbViewport
 10
198.0508299538852
 20
285.1874487354477
 30
0.0
 40
1078.343208727591
 41
628.3535021666721
 68
     1
 69
     1
1001
ACAD
1000
MVIEW
1002
{
1070
    16
1010
0.0
1020
0.0
1030
0.0
1010
0.0
1020
0.0
1030
1.0
1040
0.0
1040
628.3535021666721
1040
198.0508299538852
1040
285.1874487354477
1040
50.0
1040
0.0
1040
0.0
1070
     0
1070
   100
1070
     1
1070
     1
1070
     0
1070
     0
1070
     0
1070
     0
1040
0.0
1040
0.0
1040
0.0
1040
10.0
1040
10.0
1040
10.0
1040
10.0
1070
     0
1002
{
1002
}
1002
}
  0
VIEWPORT
  5
11FC
102
{ACAD_XDICTIONARY
360
121A
102
}
330
B
100
AcDbEntity
 67
     1
  8
DEFPOINTS
100
AcDbViewport
 10
198.0508309076477
 20
285.1874477816852
 30
0.0
 40
396.4883172119752
 41
570.409736121624
 68
     2
 69
     2
1001
ACAD
1000
MVIEW
1002
{
1070
    16
1010
0.0
1020
0.0
1030
0.0
1010
0.0
1020
0.0
1030
1.0
1040
0.0
1040
570.409736121624
1040
209.5
1040
296.9166666666666
1040
50.0
1040
0.0
1040
0.0
1070
     0
1070
   100
1070
     1
1070
     1
1070
     0
1070
     0
1070
     0
1070
     0
1040
0.0
1040
0.0
1040
0.0
1040
1.0
1040
1.0
1040
0.0
1040
0.0
1070
     0
1002
{
1002
}
1002
}
  0
ENDSEC
  0
SECTION
  2
OBJECTS
  0
DICTIONARY
  5
19
330
0
100
AcDbDictionary
  3
ACAD_COLOR
350
84C
  3
ACAD_GROUP
350
1A
  3
ACAD_LAYOUT
350
475
  3
ACAD_MATERIAL
350
84B
  3
ACAD_MLINESTYLE
350
1B
  3
ACAD_PLOTSETTINGS
350
476
  3
ACADDIM
350
83B
  3
ASE_INDEX_DICTIONARY
350
11D1
  3
DWGPROPS
350
1210
1001
ACAD
1000
TREAT_AS_HARD
1070
     0
1000
TREAT_AS_HARD
1070
     0
  0
DICTIONARY
  5
11B8
330
2
100
AcDbDictionary
  3
ACAD_LAYERSTATES
350
11B9
1001
ACAD
1000
TREAT_AS_HARD
1070
     1
  0
DICTIONARY
  5
10F3
330
A
100
AcDbDictionary
  3
ACAD_LAYOUTSELFREF
350
1222
1001
ACAD
1000
TREAT_AS_HARD
1070
     1
  0
DICTIONARY
  5
10F5
330
B
100
AcDbDictionary
  3
ACAD_LAYOUTSELFREF
350
1223
1001
ACAD
1000
TREAT_AS_HARD
1070
     1
  0
DICTIONARY
  5
1214
330
AC7
100
AcDbDictionary
  3
ACAD_XREC_ROUNDTRIP
350
1215
1001
ACAD
1000
TREAT_AS_HARD
1070
     1
  0
DICTIONARY
  5
121A
330
11FC
100
AcDbDictionary
  3
ACAD_XREC_ROUNDTRIP
350
121B
1001
ACAD
1000
TREAT_AS_HARD
1070
     1
  0
DICTIONARY
  5
84C
102
{ACAD_REACTORS
330
19
102
}
330
19
100
AcDbDictionary
1001
ACAD
1000
TREAT_AS_HARD
1070
     0
1000
TREAT_AS_HARD
1070
     0
  0
DICTIONARY
  5
1A
102
{ACAD_REACTORS
330
19
102
}
330
19
100
AcDbDictionary
  3
*A1
350
EFB
  3
*A10
350
F7E
  3
*A11
350
F97
  3
*A12
350
F98
  3
*A13
350
FAA
  3
*A14
350
FB9
  3
*A2
350
FC6
  3
*A3
350
FE8
  3
*A4
350
FEB
  3
*A5
350
FEC
  3
*A6
350
F02
  3
*A7
350
F2E
  3
*A8
350
F37
  3
*A9
350
F3E
  3
DAGROUP2AC
350
2AC
  3
DAGROUP2B2
350
2B2
  3
DAGROUP2B8
350
2B8
  3
DAGROUP2BE
350
2BE
  3
DAGROUP2C4
350
2C4
  3
DAGROUP2CA
350
2CA
  3
DAGROUP2D0
350
2D0
  3
DAGROUP2D4
350
2D4
  3
DAGROUP2D8
350
2D8
  3
DAGROUP2DC
350
2DC
  3
DAGROUP2E0
350
2E0
  3
DAGROUP2E4
350
2E4
1001
ACAD
1000
TREAT_AS_HARD
1070
     0
1000
TREAT_AS_HARD
1070
     0
  0
DICTIONARY
  5
475
102
{ACAD_REACTORS
330
19
102
}
330
19
100
AcDbDictionary
1001
ACAD
1000
TREAT_AS_HARD
1070
     0
1000
TREAT_AS_HARD
1070
     0
  0
DICTIONARY
  5
84B
102
{ACAD_REACTORS
330
19
102
}
330
19
100
AcDbDictionary
1001
ACAD
1000
TREAT_AS_HARD
1070
     0
1000
TREAT_AS_HARD
1070
     0
  0
DICTIONARY
  5
1B
102
{ACAD_REACTORS
330
19
102
}
330
19
100
AcDbDictionary
  3
STANDARD
350
1C
1001
ACAD
1000
TREAT_AS_HARD
1070
     0
1000
TREAT_AS_HARD
1070
     0
  0
DICTIONARY
  5
476
102
{ACAD_REACTORS
330
19
102
}
330
19
100
AcDbDictionary
1001
ACAD
1000
TREAT_AS_HARD
1070
     0
1000
TREAT_AS_HARD
1070
     0
  0
XRECORD
  5
83B
102
{ACAD_REACTORS
330
19
102
}
330
19
100
AcDbXrecord
 90
   990106
  3
OPEN
 60
     0
 61
     0
 62
     4
 63
     4
 64
     1
 65
     0
 66
     0
 67
     3
 68
     1
 69
     0
 70
     0
 71
     0
 72
     0
 40
0.0
170
     2
340
83E
  0
DICTIONARY
  5
11D1
102
{ACAD_REACTORS
330
19
102
}
330
19
100
AcDbDictionary
  3
ASEBLOCKHIERARCHYINDEXRECORD
350
11D2
1001
DCO15
1040
1508667699.515
1001
ACAD
1000
TREAT_AS_HARD
1070
     0
  0
XRECORD
  5
1210
102
{ACAD_REACTORS
330
19
102
}
330
19
100
AcDbXrecord
  1
DWGPROPS COOKIE
  2

  3

  4

  6

  7

  8
watanabe
  9

300
=
301
=
302
=
303
=
304
=
305
=
306
=
307
=
308
=
309
=
 40
0.2470349305555556
 41
2444972.375
 42
2453265.756617476
  1

 90
        0
  0
DICTIONARY
  5
11B9
102
{ACAD_REACTORS
330
11B8
102
}
330
11B8
100
AcDbDictionary
1001
ACAD
1000
TREAT_AS_HARD
1070
     0
  0
XRECORD
  5
1222
102
{ACAD_REACTORS
330
10F3
102
}
330
10F3
100
AcDbXrecord
340
A
  0
XRECORD
  5
1223
102
{ACAD_REACTORS
330
10F5
102
}
330
10F5
100
AcDbXrecord
340
B
  0
XRECORD
  5
1215
102
{ACAD_REACTORS
330
1214
102
}
330
1214
100
AcDbXrecord
102
SHADEPLOT
 70
     0
  0
XRECORD
  5
121B
102
{ACAD_REACTORS
330
121A
102
}
330
121A
100
AcDbXrecord
102
SHADEPLOT
 70
     0
  0
GROUP
  5
EFB
102
{ACAD_REACTORS
330
1A
102
}
330
1A
100
AcDbGroup
300

 70
     1
 71
     1
  0
GROUP
  5
F7E
102
{ACAD_REACTORS
330
1A
102
}
330
1A
100
AcDbGroup
300

 70
     1
 71
     1
340
F47
340
F4E
340
F4F
340
F4A
340
F4B
340
F4D
340
F4C
340
F49
340
F48
340
F44
340
F45
340
F46
340
F43
340
F53
340
F54
340
F51
340
F52
340
F42
340
F50
  0
GROUP
  5
F97
102
{ACAD_REACTORS
330
1A
102
}
330
1A
100
AcDbGroup
300

 70
     1
 71
     1
  0
GROUP
  5
F98
102
{ACAD_REACTORS
330
1A
102
}
330
1A
100
AcDbGroup
300

 70
     1
 71
     1
340
F84
340
F80
340
F7F
340
F8C
340
F8B
340
F8D
340
F96
340
F88
340
F87
340
F86
340
F8A
340
F89
340
F8F
340
F90
340
F91
340
F93
340
F92
340
F8E
  0
GROUP
  5
FAA
102
{ACAD_REACTORS
330
1A
102
}
330
1A
100
AcDbGroup
300

 70
     1
 71
     1
  0
GROUP
  5
FB9
102
{ACAD_REACTORS
330
1A
102
}
330
1A
100
AcDbGroup
300

 70
     1
 71
     1
  0
GROUP
  5
FC6
102
{ACAD_REACTORS
330
1A
102
}
330
1A
100
AcDbGroup
300

 70
     1
 71
     1
  0
GROUP
  5
FE8
102
{ACAD_REACTORS
330
1A
102
}
330
1A
100
AcDbGroup
300

 70
     1
 71
     1
340
FD9
340
FD8
340
FD7
340
FD2
340
EEE
340
EED
340
EEF
340
EF0
340
FE7
340
FE2
  0
GROUP
  5
FEB
102
{ACAD_REACTORS
330
1A
102
}
330
1A
100
AcDbGroup
300

 70
     1
 71
     1
340
FCA
340
FC8
340
EE8
340
EEA
340
EEB
340
EE9
340
EEC
340
FC9
340
FE9
  0
GROUP
  5
FEC
102
{ACAD_REACTORS
330
1A
102
}
330
1A
100
AcDbGroup
300

 70
     1
 71
     1
340
EE3
340
EE2
340
EE1
340
EE0
340
EDF
340
EE4
340
EE6
340
EE5
340
FE6
340
FE5
340
FE4
340
FE3
340
EE7
  0
GROUP
  5
F02
102
{ACAD_REACTORS
330
1A
102
}
330
1A
100
AcDbGroup
300

 70
     1
 71
     1
  0
GROUP
  5
F2E
102
{ACAD_REACTORS
330
1A
102
}
330
1A
100
AcDbGroup
300

 70
     1
 71
     1
  0
GROUP
  5
F37
102
{ACAD_REACTORS
330
1A
102
}
330
1A
100
AcDbGroup
300

 70
     1
 71
     1
  0
GROUP
  5
F3E
102
{ACAD_REACTORS
330
1A
102
}
330
1A
100
AcDbGroup
300

 70
     1
 71
     1
  0
GROUP
  5
2AC
102
{ACAD_REACTORS
330
1A
102
}
330
1A
100
AcDbGroup
300

 70
     0
 71
     1
  0
GROUP
  5
2B2
102
{ACAD_REACTORS
330
1A
102
}
330
1A
100
AcDbGroup
300

 70
     0
 71
     1
  0
GROUP
  5
2B8
102
{ACAD_REACTORS
330
1A
102
}
330
1A
100
AcDbGroup
300

 70
     0
 71
     1
  0
GROUP
  5
2BE
102
{ACAD_REACTORS
330
1A
102
}
330
1A
100
AcDbGroup
300

 70
     0
 71
     1
  0
GROUP
  5
2C4
102
{ACAD_REACTORS
330
1A
102
}
330
1A
100
AcDbGroup
300

 70
     0
 71
     1
  0
GROUP
  5
2CA
102
{ACAD_REACTORS
330
1A
102
}
330
1A
100
AcDbGroup
300

 70
     0
 71
     1
  0
GROUP
  5
2D0
102
{ACAD_REACTORS
330
1A
102
}
330
1A
100
AcDbGroup
300

 70
     0
 71
     1
  0
GROUP
  5
2D4
102
{ACAD_REACTORS
330
1A
102
}
330
1A
100
AcDbGroup
300

 70
     0
 71
     1
  0
GROUP
  5
2D8
102
{ACAD_REACTORS
330
1A
102
}
330
1A
100
AcDbGroup
300

 70
     0
 71
     1
  0
GROUP
  5
2DC
102
{ACAD_REACTORS
330
1A
102
}
330
1A
100
AcDbGroup
300

 70
     0
 71
     1
  0
GROUP
  5
2E0
102
{ACAD_REACTORS
330
1A
102
}
330
1A
100
AcDbGroup
300

 70
     0
 71
     1
  0
GROUP
  5
2E4
102
{ACAD_REACTORS
330
1A
102
}
330
1A
100
AcDbGroup
300

 70
     0
 71
     1
  0
MLINESTYLE
  5
1C
102
{ACAD_REACTORS
330
1B
102
}
330
1B
100
AcDbMlineStyle
  2
STANDARD
 70
     0
  3

 62
     0
 51
90.00000000000019
 52
90.00000000000019
 71
     2
 49
0.5
 62
   256
  6
BYLAYER
 49
-0.5
 62
   256
  6
BYLAYER
  0
XRECORD
  5
11D2
102
{ACAD_REACTORS
330
11D1
102
}
330
11D1
100
AcDbXrecord
330
9B2
330
9F2
330
B08
330
1101
330
1102
330
110C
330
110D
330
1115
330
1116
330
1120
330
1121
330
1129
330
112A
330
1134
330
1135
330
113D
330
113E
330
1145
330
1146
330
114E
330
114F
330
1157
330
1158
330
1161
330
1162
330
1169
330
116A
  0
ENDSEC
  0
EOF
