  0
SECTION
  2
HEADER
  9
$ACADVER
  1
AC1012
  9
$DWGCODEPAGE
  3
dos932
  9
$INSBASE
 10
0.0
 20
0.0
 30
0.0
  9
$EXTMIN
 10
0.0
 20
0.0
 30
0.0
  9
$EXTMAX
 10
420.0
 20
594.0
 30
0.0
  9
$LIMMIN
 10
0.0
 20
0.0
  9
$LIMMAX
 10
420.0
 20
594.0
  9
$ORTHOMODE
 70
     1
  9
$REGENMODE
 70
     1
  9
$FILLMODE
 70
     1
  9
$QTEXTMODE
 70
     0
  9
$MIRRTEXT
 70
     1
  9
$DRAGMODE
 70
     2
  9
$LTSCALE
 40
0.5
  9
$OSMODE
 70
    37
  9
$ATTMODE
 70
     1
  9
$TEXTSIZE
 40
6.0
  9
$TRACEWID
 40
0.05
  9
$TEXTSTYLE
  7
STANDARD
  9
$CLAYER
  8
DEFPOINTS
  9
$CELTYPE
  6
BYLAYER
  9
$CECOLOR
 62
   256
  9
$CELTSCALE
 40
1.0
  9
$DELOBJ
 70
     1
  9
$DISPSILH
 70
     0
  9
$DIMSCALE
 40
2.0
  9
$DIMASZ
 40
2.5
  9
$DIMEXO
 40
1.5
  9
$DIMDLI
 40
0.0
  9
$DIMRND
 40
0.0
  9
$DIMDLE
 40
0.0
  9
$DIMEXE
 40
1.0
  9
$DIMTP
 40
0.0
  9
$DIMTM
 40
0.0
  9
$DIMTXT
 40
2.5
  9
$DIMCEN
 40
0.0
  9
$DIMTSZ
 40
0.0
  9
$DIMTOL
 70
     0
  9
$DIMLIM
 70
     0
  9
$DIMTIH
 70
     0
  9
$DIMTOH
 70
     0
  9
$DIMSE1
 70
     0
  9
$DIMSE2
 70
     0
  9
$DIMTAD
 70
     1
  9
$DIMZIN
 70
     8
  9
$DIMBLK
  1
OPEN30
  9
$DIMASO
 70
     1
  9
$DIMSHO
 70
     1
  9
$DIMPOST
  1

  9
$DIMAPOST
  1

  9
$DIMALT
 70
     0
  9
$DIMALTD
 70
     2
  9
$DIMALTF
 40
25.4
  9
$DIMLFAC
 40
1.0
  9
$DIMTOFL
 70
     1
  9
$DIMTVP
 40
0.0
  9
$DIMTIX
 70
     1
  9
$DIMSOXD
 70
     0
  9
$DIMSAH
 70
     0
  9
$DIMBLK1
  1

  9
$DIMBLK2
  1

  9
$DIMSTYLE
  2
SUNPOU_2
  9
$DIMCLRD
 70
   256
  9
$DIMCLRE
 70
   256
  9
$DIMCLRT
 70
   256
  9
$DIMTFAC
 40
1.0
  9
$DIMGAP
 40
1.0
  9
$DIMJUST
 70
     0
  9
$DIMSD1
 70
     0
  9
$DIMSD2
 70
     0
  9
$DIMTOLJ
 70
     1
  9
$DIMTZIN
 70
     0
  9
$DIMALTZ
 70
     0
  9
$DIMALTTZ
 70
     0
  9
$DIMFIT
 70
     3
  9
$DIMUPT
 70
     0
  9
$DIMUNIT
 70
     2
  9
$DIMDEC
 70
     1
  9
$DIMTDEC
 70
     1
  9
$DIMALTU
 70
     2
  9
$DIMALTTD
 70
     2
  9
$DIMTXSTY
  7
SUNPOU
  9
$DIMAUNIT
 70
     0
  9
$LUNITS
 70
     2
  9
$LUPREC
 70
     4
  9
$SKETCHINC
 40
0.1
  9
$FILLETRAD
 40
0.0
  9
$AUNITS
 70
     0
  9
$AUPREC
 70
     0
  9
$MENU
  1
acad
  9
$ELEVATION
 40
0.0
  9
$PELEVATION
 40
0.0
  9
$THICKNESS
 40
0.0
  9
$LIMCHECK
 70
     0
  9
$BLIPMODE
 70
     0
  9
$CHAMFERA
 40
0.0
  9
$CHAMFERB
 40
0.0
  9
$CHAMFERC
 40
0.0
  9
$CHAMFERD
 40
0.0
  9
$SKPOLY
 70
     0
  9
$TDCREATE
 40
2444972.375000000
  9
$TDUPDATE
 40
2453266.436421793
  9
$TDINDWG
 40
0.1362140046
  9
$TDUSRTIMER
 40
0.1362140046
  9
$USRTIMER
 70
     1
  9
$ANGBASE
 50
0.0
  9
$ANGDIR
 70
     0
  9
$PDMODE
 70
     0
  9
$PDSIZE
 40
1.0
  9
$PLINEWID
 40
0.0
  9
$COORDS
 70
     1
  9
$SPLFRAME
 70
     0
  9
$SPLINETYPE
 70
     6
  9
$SPLINESEGS
 70
     8
  9
$ATTDIA
 70
     0
  9
$ATTREQ
 70
     1
  9
$HANDLING
 70
-16383
  9
$HANDSEED
  5
FC8
  9
$SURFTAB1
 70
     6
  9
$SURFTAB2
 70
     6
  9
$SURFTYPE
 70
     6
  9
$SURFU
 70
     6
  9
$SURFV
 70
     6
  9
$UCSNAME
  2

  9
$UCSORG
 10
0.0
 20
0.0
 30
0.0
  9
$UCSXDIR
 10
1.0
 20
0.0
 30
0.0
  9
$UCSYDIR
 10
0.0
 20
1.0
 30
0.0
  9
$PUCSNAME
  2

  9
$PUCSORG
 10
0.0
 20
0.0
 30
0.0
  9
$PUCSXDIR
 10
1.0
 20
0.0
 30
0.0
  9
$PUCSYDIR
 10
0.0
 20
1.0
 30
0.0
  9
$USERI1
 70
     0
  9
$USERI2
 70
     0
  9
$USERI3
 70
     0
  9
$USERI4
 70
     0
  9
$USERI5
 70
     0
  9
$USERR1
 40
0.0
  9
$USERR2
 40
0.0
  9
$USERR3
 40
0.0
  9
$USERR4
 40
0.0
  9
$USERR5
 40
0.0
  9
$WORLDVIEW
 70
     1
  9
$SHADEDGE
 70
     3
  9
$SHADEDIF
 70
    70
  9
$TILEMODE
 70
     1
  9
$MAXACTVP
 70
    16
  9
$PINSBASE
 10
0.0
 20
0.0
 30
0.0
  9
$PLIMCHECK
 70
     0
  9
$PEXTMIN
 10
-0.1933276983398855
 20
-0.0174202791267817
 30
-0.0015258207003583
  9
$PEXTMAX
 10
396.2949895136353
 20
570.3923158424973
 30
0.0000000349246037
  9
$PLIMMIN
 10
-11.94191342824453
 20
-11.7660021939814
  9
$PLIMMAX
 10
408.0435733360148
 20
582.1408996648767
  9
$UNITMODE
 70
     0
  9
$VISRETAIN
 70
     0
  9
$PLINEGEN
 70
     1
  9
$PSLTSCALE
 70
     0
  9
$TREEDEPTH
 70
  3020
  9
$PICKSTYLE
 70
     1
  9
$CMLSTYLE
  2
STANDARD
  9
$CMLJUST
 70
     0
  9
$CMLSCALE
 40
1.0
  9
$SAVEIMAGES
 70
     1
  0
ENDSEC
  0
SECTION
  2
CLASSES
  0
CLASS
  1
LWPOLYLINE
  2
AcDbPolyline
  3
AutoCAD 2000
 90
    32768
280
     0
281
     1
  0
CLASS
  1
IMAGE
  2
AcDbRasterImage
  3
ISM
 90
    32895
280
     0
281
     1
  0
CLASS
  1
OLE2FRAME
  2
AcDbOle2Frame
  3
AutoCAD 2000
 90
    32768
280
     0
281
     1
  0
CLASS
  1
HATCH
  2
AcDbHatch
  3
AutoCAD 2000
 90
    32768
280
     0
281
     1
  0
CLASS
  1
DICTIONARYVAR
  2
AcDbDictionaryVar
  3
AutoCAD 2000
 90
    32768
280
     0
281
     0
  0
CLASS
  1
RASTERVARIABLES
  2
AcDbRasterVariables
  3
ISM
 90
    32768
280
     0
281
     0
  0
CLASS
  1
IMAGEDEF
  2
AcDbRasterImageDef
  3
ISM
 90
    32768
280
     0
281
     0
  0
CLASS
  1
IMAGEDEF_REACTOR
  2
AcDbRasterImageDefReactor
  3
ISM
 90
    32769
280
     0
281
     0
  0
CLASS
  1
IDBUFFER
  2
AcDbIdBuffer
  3
AutoCAD 2000
 90
    32768
280
     0
281
     0
  0
CLASS
  1
SPATIAL_FILTER
  2
AcDbSpatialFilter
  3
AutoCAD 2000
 90
    32768
280
     0
281
     0
  0
CLASS
  1
XRECORD
  2
AcDbXrecord
  3
AutoCAD 2000
 90
    32768
280
     0
281
     0
  0
CLASS
  1
SORTENTSTABLE
  2
AcDbSortentsTable
  3
AutoCAD 2000
 90
    32768
280
     0
281
     0
  0
CLASS
  1
LAYER_INDEX
  2
AcDbLayerIndex
  3
AutoCAD 2000
 90
    32768
280
     0
281
     0
  0
CLASS
  1
SPATIAL_INDEX
  2
AcDbSpatialIndex
  3
AutoCAD 2000
 90
    32768
280
     0
281
     0
  0
CLASS
  1
OBJECT_PTR
  2
CAseDLPNTableRecord
  3
ASE-LPNTableRecord
 90
    32769
280
     0
281
     0
  0
CLASS
  1
LAYOUT
  2
AcDbLayout
  3
AutoCAD 2000
 90
    32768
280
     0
281
     0
  0
CLASS
  1
PLOTSETTINGS
  2
AcDbPlotSettings
  3
AutoCAD 2000
 90
    32768
280
     0
281
     0
  0
CLASS
  1
ACDBDICTIONARYWDFLT
  2
AcDbDictionaryWithDefault
  3
AutoCAD 2000
 90
    32768
280
     0
281
     0
  0
CLASS
  1
ACDBPLACEHOLDER
  2
AcDbPlaceHolder
  3
AutoCAD 2000
 90
    32768
280
     0
281
     0
  0
CLASS
  1
VBA_PROJECT
  2
AcDbVbaProject
  3
acad
 90
    32768
280
     0
281
     0
  0
CLASS
  1
WIPEOUT
  2
AcDbWipeout
  3
"WipeOut|Product Desc: Object Enabler for WipeOut entity^I^I^I^I^I^I|Company: Autodesk, Inc.^I^I^I^I^I^I|WEB Address: www.autodesk.com"
 90
    32895
280
     0
281
     1
  0
CLASS
  1
WIPEOUTVARIABLES
  2
AcDbWipeoutVariables
  3
"WipeOut|Product Desc:     WipeOut Dbx Application|Company:          Autodesk, Inc.|WEB Address:      www.autodesk.com"
 90
    32768
280
     0
281
     0
  0
CLASS
  1
RTEXT
  2
RText
  3
RText|AutoCAD Express Tool|expresstools@autodesk.com
 90
    32768
280
     0
281
     1
  0
CLASS
  1
ARCALIGNEDTEXT
  2
AcDbArcAlignedText
  3
ATEXT|AutoCAD Express Tool|expresstools@autodesk.com
 90
    32768
280
     0
281
     1
  0
CLASS
  1
LONG_TRANSACTION
  2
AcDbLongTransaction
  3
AutoCAD 2000
 90
    32768
280
     0
281
     0
  0
CLASS
  1
LWPOLYLINE
  2
AcDbPolyline
  3
AutoCAD 2000
 90
    32768
280
     0
281
     1
  0
CLASS
  1
HATCH
  2
AcDbHatch
  3
AutoCAD 2000
 90
    32768
280
     0
281
     1
  0
CLASS
  1
XRECORD
  2
AcDbXrecord
  3
AutoCAD 2000
 90
    32768
280
     0
281
     0
  0
CLASS
  1
LONG_TRANSACTION
  2
AcDbLongTransaction
  3
AutoCAD 2000
 90
    32768
280
     0
281
     0
  0
CLASS
  1
LWPOLYLINE
  2
AcDbPolyline
  3
AutoCAD 2000
 90
    32768
280
     0
281
     1
  0
CLASS
  1
HATCH
  2
AcDbHatch
  3
AutoCAD 2000
 90
    32768
280
     0
281
     1
  0
CLASS
  1
XRECORD
  2
AcDbXrecord
  3
AutoCAD 2000
 90
    32768
280
     0
281
     0
  0
CLASS
  1
LONG_TRANSACTION
  2
AcDbLongTransaction
  3
AutoCAD 2000
 90
    32768
280
     0
281
     0
  0
CLASS
  1
LWPOLYLINE
  2
AcDbPolyline
  3
AutoCAD 2000
 90
    32768
280
     0
281
     1
  0
CLASS
  1
HATCH
  2
AcDbHatch
  3
AutoCAD 2000
 90
    32768
280
     0
281
     1
  0
CLASS
  1
XRECORD
  2
AcDbXrecord
  3
AutoCAD 2000
 90
    32768
280
     0
281
     0
  0
ENDSEC
  0
SECTION
  2
TABLES
  0
TABLE
  2
VPORT
  5
7
330
0
100
AcDbSymbolTable
 70
     2
  0
VPORT
  5
FA4
330
7
100
AcDbSymbolTableRecord
100
AcDbViewportTableRecord
  2
*ACTIVE
 70
     0
 10
0.0
 20
0.0
 11
1.0
 21
1.0
 12
228.3534136753863
 22
297.000001383014
 13
0.0
 23
0.0
 14
1.0
 24
1.0
 15
0.0
 25
0.0
 16
0.0
 26
0.0
 36
1.0
 17
0.0
 27
0.0
 37
0.0
 40
600.7147815685658
 41
1.780442804428044
 42
50.0
 43
0.0
 44
0.0
 50
0.0
 51
0.0
 71
     0
 72
   100
 73
     1
 74
     1
 75
     0
 76
     0
 77
     0
 78
     0
  0
ENDTAB
  0
TABLE
  2
LTYPE
  5
4
330
0
100
AcDbSymbolTable
 70
     4
  0
LTYPE
  5
11
330
4
100
AcDbSymbolTableRecord
100
AcDbLinetypeTableRecord
  2
BYBLOCK
 70
     0
  3

 72
    65
 73
     0
 40
0.0
  0
LTYPE
  5
12
330
4
100
AcDbSymbolTableRecord
100
AcDbLinetypeTableRecord
  2
BYLAYER
 70
     0
  3

 72
    65
 73
     0
 40
0.0
  0
LTYPE
  5
13
330
4
100
AcDbSymbolTableRecord
100
AcDbLinetypeTableRecord
  2
CONTINUOUS
 70
     0
  3
Solid line
 72
    65
 73
     0
 40
0.0
  0
LTYPE
  5
7CE
330
4
100
AcDbSymbolTableRecord
100
AcDbLinetypeTableRecord
  2
CENTER2
 70
     0
  3
Center (.5x) ___ _ ___ _ ___ _ ___ _ ___ _ ___
 72
    65
 73
     4
 40
28.57499999999999
 49
19.05
 74
     0
 49
-3.174999999999998
 74
     0
 49
3.174999999999998
 74
     0
 49
-3.174999999999998
 74
     0
  0
LTYPE
  5
7CF
330
4
100
AcDbSymbolTableRecord
100
AcDbLinetypeTableRecord
  2
DASHED2
 70
     0
  3
Dashed (.5x) _ _ _ _ _ _ _ _ _ _ _ _ _ _ _ _ _
 72
    65
 73
     2
 40
9.524999999999996
 49
6.349999999999997
 74
     0
 49
-3.174999999999998
 74
     0
  0
LTYPE
  5
7D0
330
4
100
AcDbSymbolTableRecord
100
AcDbLinetypeTableRecord
  2
PHANTOM2
 70
     0
  3
Phantom (.5x) ___ _ _ ___ _ _ ___ _ _ ___ _ _
 72
    65
 73
     6
 40
31.75
 49
15.875
 74
     0
 49
-3.174999999999998
 74
     0
 49
3.174999999999998
 74
     0
 49
-3.174999999999998
 74
     0
 49
3.174999999999998
 74
     0
 49
-3.174999999999998
 74
     0
  0
ENDTAB
  0
TABLE
  2
LAYER
  5
2
102
{ACAD_XDICTIONARY
360
EEF
102
}
330
0
100
AcDbSymbolTable
 70
    13
  0
LAYER
  5
14
330
2
100
AcDbSymbolTableRecord
100
AcDbLayerTableRecord
  2
0
 70
     0
 62
     7
  6
CONTINUOUS
  0
LAYER
  5
38
330
2
100
AcDbSymbolTableRecord
100
AcDbLayerTableRecord
  2
DEFPOINTS
 70
     0
 62
     7
  6
CONTINUOUS
  0
LAYER
  5
7D1
330
2
100
AcDbSymbolTableRecord
100
AcDbLayerTableRecord
  2
02
 70
     0
 62
     2
  6
CONTINUOUS
  0
LAYER
  5
7D2
330
2
100
AcDbSymbolTableRecord
100
AcDbLayerTableRecord
  2
03
 70
     0
 62
     3
  6
CONTINUOUS
  0
LAYER
  5
7D3
330
2
100
AcDbSymbolTableRecord
100
AcDbLayerTableRecord
  2
04
 70
     0
 62
     4
  6
CONTINUOUS
  0
LAYER
  5
7D4
330
2
100
AcDbSymbolTableRecord
100
AcDbLayerTableRecord
  2
06
 70
     0
 62
     6
  6
CONTINUOUS
  0
LAYER
  5
7D6
330
2
100
AcDbSymbolTableRecord
100
AcDbLayerTableRecord
  2
CHUSIN
 70
     0
 62
     6
  6
CENTER2
  0
LAYER
  5
7D7
330
2
100
AcDbSymbolTableRecord
100
AcDbLayerTableRecord
  2
KAKURE
 70
     0
 62
     6
  6
DASHED2
  0
LAYER
  5
7D8
330
2
100
AcDbSymbolTableRecord
100
AcDbLayerTableRecord
  2
MOJI
 70
     0
 62
     3
  6
CONTINUOUS
  0
LAYER
  5
7D9
330
2
100
AcDbSymbolTableRecord
100
AcDbLayerTableRecord
  2
SOUZOU
 70
     0
 62
     6
  6
PHANTOM2
  0
LAYER
  5
7DA
330
2
100
AcDbSymbolTableRecord
100
AcDbLayerTableRecord
  2
SUNPOU
 70
     0
 62
     6
  6
CONTINUOUS
  0
LAYER
  5
7DB
330
2
100
AcDbSymbolTableRecord
100
AcDbLayerTableRecord
  2
SAISEN
 70
     0
 62
     3
  6
CONTINUOUS
  0
LAYER
  5
C1D
330
2
100
AcDbSymbolTableRecord
100
AcDbLayerTableRecord
  2
HIKIDASI
 70
     0
 62
     6
  6
CONTINUOUS
  0
ENDTAB
  0
TABLE
  2
STYLE
  5
3
330
0
100
AcDbSymbolTable
 70
     4
  0
STYLE
  5
17
330
3
100
AcDbSymbolTableRecord
100
AcDbTextStyleTableRecord
  2
STANDARD
 70
     0
 40
0.0
 41
0.8
 50
0.0
 71
     0
 42
6.0
  3
txt.shx
  4
bigfont.shx
  0
STYLE
  5
7E6
330
3
100
AcDbSymbolTableRecord
100
AcDbTextStyleTableRecord
  2
SUNPOU
 70
     0
 40
0.0
 41
0.8
 50
0.0
 71
     0
 42
3.5
  3
txt.shx
  4
extfont.shx
  0
STYLE
  5
7F1
330
3
100
AcDbSymbolTableRecord
100
AcDbTextStyleTableRecord
  2
0_8
 70
     0
 40
0.0
 41
0.8
 50
0.0
 71
     0
 42
6.0
  3
txt.shx
  4
extfont.shx
  0
STYLE
  5
EED
330
3
100
AcDbSymbolTableRecord
100
AcDbTextStyleTableRecord
  2
0_80
 70
     0
 40
0.0
 41
0.8
 50
0.0
 71
     0
 42
16.8
  3
txt.shx
  4
extfont.shx
  0
ENDTAB
  0
TABLE
  2
VIEW
  5
5
330
0
100
AcDbSymbolTable
 70
     1
  0
VIEW
  5
3B
330
5
100
AcDbSymbolTableRecord
100
AcDbViewTableRecord
  2
QQQQ
 70
     0
 40
682.2269999999997
 10
-5.525000000000003
 20
-0.3000000000000114
 41
462.93975
 11
0.0
 21
0.0
 31
1.0
 12
100.0
 22
100.0
 32
0.0
 42
50.0
 43
0.0
 44
0.0
 50
0.0
 71
     0
  0
ENDTAB
  0
TABLE
  2
UCS
  5
6
330
0
100
AcDbSymbolTable
 70
     0
  0
ENDTAB
  0
TABLE
  2
APPID
  5
8
330
0
100
AcDbSymbolTable
 70
     3
  0
APPID
  5
16
330
8
100
AcDbSymbolTableRecord
100
AcDbRegAppTableRecord
  2
ACAD
 70
     0
  0
APPID
  5
E48
330
8
100
AcDbSymbolTableRecord
100
AcDbRegAppTableRecord
  2
DCO15
 70
     0
  0
APPID
  5
EAB
330
8
100
AcDbSymbolTableRecord
100
AcDbRegAppTableRecord
  2
CONTENTBLOCKICON
 70
     0
  0
ENDTAB
  0
TABLE
  2
DIMSTYLE
  5
9
330
0
100
AcDbSymbolTable
 70
     3
  0
DIMSTYLE
105
7E7
102
{ACAD_REACTORS
330
7F7
330
804
330
813
330
84D
330
85C
330
869
330
878
330
885
330
8B3
330
8C2
330
8D8
330
91D
330
92A
330
937
330
903
330
910
102
}
330
9
100
AcDbSymbolTableRecord
100
AcDbDimStyleTableRecord
  2
SUNPOU_2
 70
     0
  3

  4

  5
OPEN30
  6

  7

 40
2.0
 41
2.5
 42
1.5
 43
0.0
 44
1.0
 45
0.0
 46
0.0
 47
0.0
 48
0.0
140
2.5
141
0.0
142
0.0
143
25.4
144
1.0
145
0.0
146
1.0
147
1.0
 71
     0
 72
     0
 73
     0
 74
     0
 75
     0
 76
     0
 77
     1
 78
     8
170
     0
171
     2
172
     1
173
     0
174
     1
175
     0
176
   256
177
   256
178
   256
270
     2
271
     1
272
     1
273
     2
274
     2
340
7E6
275
     0
280
     0
281
     0
282
     0
283
     1
284
     0
285
     0
286
     0
287
     3
288
     0
  0
DIMSTYLE
105
7EC
102
{ACAD_REACTORS
330
988
330
9B6
330
9C5
330
9D4
330
9E1
330
9FB
330
96C
330
97B
102
}
330
9
100
AcDbSymbolTableRecord
100
AcDbDimStyleTableRecord
  2
SUNPOU_2_10
 70
     0
  3

  4

  5
OPEN30
  6

  7

 40
2.0
 41
2.5
 42
1.5
 43
0.0
 44
1.0
 45
0.0
 46
0.0
 47
0.0
 48
0.0
140
2.5
141
0.0
142
0.0
143
25.4
144
10.0
145
0.0
146
1.0
147
1.0
 71
     0
 72
     0
 73
     0
 74
     0
 75
     0
 76
     0
 77
     1
 78
     8
170
     0
171
     2
172
     1
173
     0
174
     1
175
     0
176
   256
177
   256
178
   256
270
     2
271
     1
272
     1
273
     2
274
     2
340
7E6
275
     0
280
     0
281
     0
282
     0
283
     1
284
     0
285
     0
286
     0
287
     3
288
     0
  0
DIMSTYLE
105
C1E
330
9
100
AcDbSymbolTableRecord
100
AcDbDimStyleTableRecord
  2
STANDARD
 70
     0
  3

  4

  5

  6

  7

 40
1.0
 41
0.18
 42
0.0625
 43
0.38
 44
0.18
 45
0.0
 46
0.0
 47
0.0
 48
0.0
140
0.18
141
0.09
142
0.0
143
25.4
144
1.0
145
0.0
146
1.0
147
0.09
 71
     0
 72
     0
 73
     1
 74
     1
 75
     0
 76
     0
 77
     0
 78
     0
170
     0
171
     2
172
     0
173
     0
174
     0
175
     0
176
     0
177
     0
178
     0
270
     2
271
     4
272
     4
273
     2
274
     2
340
17
275
     0
280
     0
281
     0
282
     0
283
     1
284
     0
285
     0
286
     0
287
     3
288
     0
  0
ENDTAB
  0
TABLE
  2
BLOCK_RECORD
  5
1
330
0
100
AcDbSymbolTable
 70
    26
  0
BLOCK_RECORD
  5
A
102
{ACAD_XDICTIONARY
360
EA7
102
}
330
1
100
AcDbSymbolTableRecord
100
AcDbBlockTableRecord
  2
*MODEL_SPACE
  0
BLOCK_RECORD
  5
B
102
{ACAD_XDICTIONARY
360
EA9
102
}
330
1
100
AcDbSymbolTableRecord
100
AcDbBlockTableRecord
  2
*PAPER_SPACE
  0
BLOCK_RECORD
  5
7E0
330
1
100
AcDbSymbolTableRecord
100
AcDbBlockTableRecord
  2
_OPEN30
1001
CONTENTBLOCKICON
1071
        0
1004
2800000020000000200000000100080000000000000400000000000000000000000000000000000000000000000080000080000000808000800000008000800080800000C0C0C000C0DCC000F0CAA6000020400000206000002080000020A0000020C0000020E00000400000004020000040400000406000004080000040A0
1004
000040C0000040E00000600000006020000060400000606000006080000060A0000060C0000060E00000800000008020000080400000806000008080000080A0000080C0000080E00000A0000000A0200000A0400000A0600000A0800000A0A00000A0C00000A0E00000C0000000C0200000C0400000C0600000C0800000C0
1004
A00000C0C00000C0E00000E0000000E0200000E0400000E0600000E0800000E0A00000E0C00000E0E00040000000400020004000400040006000400080004000A0004000C0004000E00040200000402020004020400040206000402080004020A0004020C0004020E000404000004040200040404000404060004040800040
1004
40A0004040C0004040E00040600000406020004060400040606000406080004060A0004060C0004060E00040800000408020004080400040806000408080004080A0004080C0004080E00040A0000040A0200040A0400040A0600040A0800040A0A00040A0C00040A0E00040C0000040C0200040C0400040C0600040C08000
1004
40C0A00040C0C00040C0E00040E0000040E0200040E0400040E0600040E0800040E0A00040E0C00040E0E00080000000800020008000400080006000800080008000A0008000C0008000E00080200000802020008020400080206000802080008020A0008020C0008020E00080400000804020008040400080406000804080
1004
008040A0008040C0008040E00080600000806020008060400080606000806080008060A0008060C0008060E00080800000808020008080400080806000808080008080A0008080C0008080E00080A0000080A0200080A0400080A0600080A0800080A0A00080A0C00080A0E00080C0000080C0200080C0400080C0600080C0
1004
800080C0A00080C0C00080C0E00080E0000080E0200080E0400080E0600080E0800080E0A00080E0C00080E0E000C0000000C0002000C0004000C0006000C0008000C000A000C000C000C000E000C0200000C0202000C0204000C0206000C0208000C020A000C020C000C020E000C0400000C0402000C0404000C0406000C0
1004
408000C040A000C040C000C040E000C0600000C0602000C0604000C0606000C0608000C060A000C060C000C060E000C0800000C0802000C0804000C0806000C0808000C080A000C080C000C080E000C0A00000C0A02000C0A04000C0A06000C0A08000C0A0A000C0A0C000C0A0E000C0C00000C0C02000C0C04000C0C06000
1004
C0C08000C0C0A000F0FBFF00A4A0A000808080000000FF0000FF000000FFFF00FF000000FF00FF00FFFF0000FFFFFF0000000000000000000000000000000000000000000000000000000000000000000000000000000000000000000000000000000000000000000000000000000000000000000000000000000000000000
1004
00000000000000000000000000000000000000000000000000000000000000000000000000000000000000000000000000000000000000000000000000000000000000000000000000000000000000000000000000000000000000000000000000000000000000000000000000000000000000000000000000000000000000
1004
000000000000000000000000000000000000000000000000000000000000000000000000000000000000000000000000000000FFFF0000000000000000000000000000000000000000000000000000000000000000FFFFFFFF0000000000000000000000000000000000000000000000000000000000000000FFFFFFFF0000
1004
000000000000000000000000000000000000000000000000000000000000FFFFFF0000000000000000000000000000000000000000000000000000000000000000FFFFFFFF0000000000000000000000000000000000000000000000000000000000000000FFFFFF0000000000000000000000000000000000000000000000
1004
000000000000000000FFFFFFFF0000000000000000000000000000000000000000000000000000000000000000FFFFFFFF00000000FFFFFFFFFFFFFFFFFFFFFFFFFFFFFFFFFFFFFFFFFFFFFFFFFFFFFFFFFFFF00000000000000000000000000000000000000000000000000FFFFFFFF000000000000000000000000000000
1004
000000000000000000FFFFFFFF000000000000000000000000000000000000000000000000FFFFFFFF000000000000000000000000000000000000000000000000FFFFFFFF000000000000000000000000000000000000000000000000FFFFFFFF000000000000000000000000000000000000000000000000FFFFFFFF0000
1004
0000000000000000000000000000000000000000000000FFFFFF0000000000000000000000000000000000000000000000000000000000000000000000000000000000000000000000000000000000000000000000000000000000000000000000000000000000000000000000000000000000000000000000000000000000
1004
00000000000000000000000000000000000000000000000000000000000000000000000000000000000000000000000000000000000000000000000000000000000000000000000000000000000000000000000000000000000000000000000000000000000000000000000000000000000000000000000000000000000000
1004
0000000000000000000000000000000000000000000000000000000000000000000000000000000000000000000000000000000000000000
  0
BLOCK_RECORD
  5
7F8
330
1
100
AcDbSymbolTableRecord
100
AcDbBlockTableRecord
  2
*D1
  0
BLOCK_RECORD
  5
805
330
1
100
AcDbSymbolTableRecord
100
AcDbBlockTableRecord
  2
*D2
  0
BLOCK_RECORD
  5
814
330
1
100
AcDbSymbolTableRecord
100
AcDbBlockTableRecord
  2
*D3
  0
BLOCK_RECORD
  5
84E
330
1
100
AcDbSymbolTableRecord
100
AcDbBlockTableRecord
  2
*D4
  0
BLOCK_RECORD
  5
85D
330
1
100
AcDbSymbolTableRecord
100
AcDbBlockTableRecord
  2
*D5
  0
BLOCK_RECORD
  5
86A
330
1
100
AcDbSymbolTableRecord
100
AcDbBlockTableRecord
  2
*D6
  0
BLOCK_RECORD
  5
879
330
1
100
AcDbSymbolTableRecord
100
AcDbBlockTableRecord
  2
*D7
  0
BLOCK_RECORD
  5
886
330
1
100
AcDbSymbolTableRecord
100
AcDbBlockTableRecord
  2
*D8
  0
BLOCK_RECORD
  5
8B4
330
1
100
AcDbSymbolTableRecord
100
AcDbBlockTableRecord
  2
*D9
  0
BLOCK_RECORD
  5
8C3
330
1
100
AcDbSymbolTableRecord
100
AcDbBlockTableRecord
  2
*D10
  0
BLOCK_RECORD
  5
8D9
330
1
100
AcDbSymbolTableRecord
100
AcDbBlockTableRecord
  2
*D11
  0
BLOCK_RECORD
  5
904
330
1
100
AcDbSymbolTableRecord
100
AcDbBlockTableRecord
  2
*D12
  0
BLOCK_RECORD
  5
911
330
1
100
AcDbSymbolTableRecord
100
AcDbBlockTableRecord
  2
*D13
  0
BLOCK_RECORD
  5
91E
330
1
100
AcDbSymbolTableRecord
100
AcDbBlockTableRecord
  2
*D14
  0
BLOCK_RECORD
  5
92B
330
1
100
AcDbSymbolTableRecord
100
AcDbBlockTableRecord
  2
*D15
  0
BLOCK_RECORD
  5
938
330
1
100
AcDbSymbolTableRecord
100
AcDbBlockTableRecord
  2
*D16
  0
BLOCK_RECORD
  5
96D
330
1
100
AcDbSymbolTableRecord
100
AcDbBlockTableRecord
  2
*D17
  0
BLOCK_RECORD
  5
97C
330
1
100
AcDbSymbolTableRecord
100
AcDbBlockTableRecord
  2
*D18
  0
BLOCK_RECORD
  5
989
330
1
100
AcDbSymbolTableRecord
100
AcDbBlockTableRecord
  2
*D19
  0
BLOCK_RECORD
  5
9B7
330
1
100
AcDbSymbolTableRecord
100
AcDbBlockTableRecord
  2
*D20
  0
BLOCK_RECORD
  5
9C6
330
1
100
AcDbSymbolTableRecord
100
AcDbBlockTableRecord
  2
*D21
  0
BLOCK_RECORD
  5
9D5
330
1
100
AcDbSymbolTableRecord
100
AcDbBlockTableRecord
  2
*D22
  0
BLOCK_RECORD
  5
9E2
330
1
100
AcDbSymbolTableRecord
100
AcDbBlockTableRecord
  2
*D23
  0
BLOCK_RECORD
  5
9FC
330
1
100
AcDbSymbolTableRecord
100
AcDbBlockTableRecord
  2
*D24
  0
BLOCK_RECORD
  5
B28
330
1
100
AcDbSymbolTableRecord
100
AcDbBlockTableRecord
  2
_DOTSMALL
  0
ENDTAB
  0
ENDSEC
  0
SECTION
  2
BLOCKS
  0
BLOCK
  5
D
330
A
100
AcDbEntity
  8
0
100
AcDbBlockBegin
  2
*MODEL_SPACE
 70
     0
 10
0.0
 20
0.0
 30
0.0
  3
*MODEL_SPACE
  1

  0
ENDBLK
  5
E
330
A
100
AcDbEntity
  8
0
100
AcDbBlockEnd
  0
BLOCK
  5
F
330
B
100
AcDbEntity
 67
     1
  8
0
100
AcDbBlockBegin
  2
*PAPER_SPACE
 70
     0
 10
0.0
 20
0.0
 30
0.0
  3
*PAPER_SPACE
  1

  0
ENDBLK
  5
10
330
B
100
AcDbEntity
 67
     1
  8
0
100
AcDbBlockEnd
  0
BLOCK
  5
7E4
330
7E0
100
AcDbEntity
  8
0
100
AcDbBlockBegin
  2
_OPEN30
 70
     0
 10
0.0
 20
0.0
 30
0.0
  3
_OPEN30
  1

  0
LINE
  5
7E1
330
7E0
100
AcDbEntity
  8
0
  6
BYBLOCK
 62
     0
100
AcDbLine
 10
-1.0
 20
0.26794919
 30
0.0
 11
0.0
 21
0.0
 31
0.0
  0
LINE
  5
7E2
330
7E0
100
AcDbEntity
  8
0
  6
BYBLOCK
 62
     0
100
AcDbLine
 10
0.0
 20
0.0
 30
0.0
 11
-1.0
 21
-0.26794919
 31
0.0
  0
LINE
  5
7E3
330
7E0
100
AcDbEntity
  8
0
  6
BYBLOCK
 62
     0
100
AcDbLine
 10
0.0
 20
0.0
 30
0.0
 11
-1.0
 21
0.0
 31
0.0
  0
ENDBLK
  5
7E5
330
7E0
100
AcDbEntity
  8
0
100
AcDbBlockEnd
  0
BLOCK
  5
802
330
7F8
100
AcDbEntity
  8
0
100
AcDbBlockBegin
  2
*D1
 70
     1
 10
0.0
 20
0.0
 30
0.0
  3
*D1
  1

  0
LINE
  5
EB1
330
7F8
100
AcDbEntity
  8
SUNPOU
100
AcDbLine
 10
332.3391783033088
 20
452.9776530783169
 30
0.0
 11
351.6330017343057
 21
452.9776530783169
 31
0.0
  0
LINE
  5
EB2
330
7F8
100
AcDbEntity
  8
SUNPOU
100
AcDbLine
 10
324.3391783033088
 20
466.977653078317
 30
0.0
 11
351.6330017343057
 21
466.977653078317
 31
0.0
  0
LINE
  5
EB3
330
7F8
100
AcDbEntity
  8
SUNPOU
100
AcDbLine
 10
349.6330017343057
 20
457.9776530783169
 30
0.0
 11
349.6330017343057
 21
466.977653078317
 31
0.0
  0
INSERT
  5
EB4
330
7F8
100
AcDbEntity
  8
SUNPOU
100
AcDbBlockReference
  2
_OPEN30
 10
349.6330017343057
 20
452.9776530783169
 30
0.0
 41
5.0
 42
5.0
 43
5.0
 50
270.0
  0
INSERT
  5
EB5
330
7F8
100
AcDbEntity
  8
SUNPOU
100
AcDbBlockReference
  2
_DOTSMALL
 10
349.6330017343057
 20
466.977653078317
 30
0.0
 41
5.0
 42
5.0
 43
5.0
 50
90.0
  0
MTEXT
  5
EB6
330
7F8
100
AcDbEntity
  8
SUNPOU
100
AcDbMText
 10
345.1330017343055
 20
462.477653078317
 30
0.0
 40
5.0
 41
0.0
 71
     5
 72
     1
  1
\A1;14
  7
SUNPOU
 11
0.0000000000000001
 21
1.0
 31
0.0
1001
ACAD
1000
MTEXTBEGIN
1070
    73
1070
     1
1070
    44
1040
1.0
1070
    74
1070
     0
1000
MTEXTEND
1000
MTEXTBEGIN
1070
    73
1070
     1
1070
    44
1040
1.0
1070
    74
1070
     0
1000
MTEXTEND
  0
POINT
  5
EB7
330
7F8
100
AcDbEntity
  8
DEFPOINTS
 62
     0
100
AcDbPoint
 10
329.339178303309
 20
452.9776530783169
 30
0.0
  0
POINT
  5
EB8
330
7F8
100
AcDbEntity
  8
DEFPOINTS
 62
     0
100
AcDbPoint
 10
321.339178303309
 20
466.977653078317
 30
0.0
  0
POINT
  5
EB9
330
7F8
100
AcDbEntity
  8
DEFPOINTS
 62
     0
100
AcDbPoint
 10
349.6330017343057
 20
466.977653078317
 30
0.0
  0
ENDBLK
  5
803
330
7F8
100
AcDbEntity
  8
0
100
AcDbBlockEnd
  0
BLOCK
  5
811
330
805
100
AcDbEntity
  8
0
100
AcDbBlockBegin
  2
*D2
 70
     1
 10
0.0
 20
0.0
 30
0.0
  3
*D2
  1

  0
LINE
  5
EBA
330
805
100
AcDbEntity
  8
SUNPOU
100
AcDbLine
 10
324.3391783033088
 20
466.977653078317
 30
0.0
 11
351.6330017343057
 21
466.977653078317
 31
0.0
  0
LINE
  5
EBB
330
805
100
AcDbEntity
  8
SUNPOU
100
AcDbLine
 10
324.3391783033088
 20
471.9776530783168
 30
0.0
 11
351.6330017343057
 21
471.9776530783168
 31
0.0
  0
LINE
  5
EBC
330
805
100
AcDbEntity
  8
SUNPOU
100
AcDbLine
 10
349.6330017343057
 20
466.977653078317
 30
0.0
 11
349.6330017343057
 21
471.9776530783168
 31
0.0
  0
MTEXT
  5
EBD
330
805
100
AcDbEntity
  8
SUNPOU
100
AcDbMText
 10
354.1330017343056
 20
469.477653078317
 30
0.0
 40
5.0
 41
0.0
 71
     5
 72
     1
  1
\A1;5
  7
SUNPOU
 11
0.0000000000000001
 21
1.0
 31
0.0
1001
ACAD
1000
MTEXTBEGIN
1070
    73
1070
     1
1070
    44
1040
1.0
1070
    74
1070
     0
1000
MTEXTEND
1000
MTEXTBEGIN
1070
    73
1070
     1
1070
    44
1040
1.0
1070
    74
1070
     0
1000
MTEXTEND
  0
INSERT
  5
EBE
330
805
100
AcDbEntity
  8
SUNPOU
100
AcDbBlockReference
  2
_DOTSMALL
 10
349.6330017343057
 20
466.977653078317
 30
0.0
 41
5.0
 42
5.0
 43
5.0
 50
270.0
  0
INSERT
  5
EBF
330
805
100
AcDbEntity
  8
SUNPOU
100
AcDbBlockReference
  2
_DOTSMALL
 10
349.6330017343057
 20
471.9776530783168
 30
0.0
 41
5.0
 42
5.0
 43
5.0
 50
90.0
  0
POINT
  5
EC0
330
805
100
AcDbEntity
  8
DEFPOINTS
 62
     0
100
AcDbPoint
 10
321.339178303309
 20
466.977653078317
 30
0.0
  0
POINT
  5
EC1
330
805
100
AcDbEntity
  8
DEFPOINTS
 62
     0
100
AcDbPoint
 10
321.339178303309
 20
471.9776530783168
 30
0.0
  0
POINT
  5
EC2
330
805
100
AcDbEntity
  8
DEFPOINTS
 62
     0
100
AcDbPoint
 10
349.6330017343057
 20
471.9776530783168
 30
0.0
  0
ENDBLK
  5
812
330
805
100
AcDbEntity
  8
0
100
AcDbBlockEnd
  0
BLOCK
  5
820
330
814
100
AcDbEntity
  8
0
100
AcDbBlockBegin
  2
*D3
 70
     1
 10
0.0
 20
0.0
 30
0.0
  3
*D3
  1

  0
LINE
  5
FAD
330
814
100
AcDbEntity
  8
SUNPOU
100
AcDbLine
 10
324.3391783033089
 20
471.9776530783168
 30
0.0
 11
351.6330017343057
 21
471.9776530783168
 31
0.0
  0
LINE
  5
FAE
330
814
100
AcDbEntity
  8
SUNPOU
100
AcDbLine
 10
332.3391783033089
 20
485.9776530783169
 30
0.0
 11
351.6330017343057
 21
485.9776530783169
 31
0.0
  0
LINE
  5
FAF
330
814
100
AcDbEntity
  8
SUNPOU
100
AcDbLine
 10
349.6330017343057
 20
471.9776530783168
 30
0.0
 11
349.6330017343057
 21
480.9776530783168
 31
0.0
  0
INSERT
  5
FB0
330
814
100
AcDbEntity
  8
SUNPOU
100
AcDbBlockReference
  2
_DOTSMALL
 10
349.6330017343057
 20
471.9776530783168
 30
0.0
 41
5.0
 42
5.0
 43
5.0
 50
270.0
  0
INSERT
  5
FB1
330
814
100
AcDbEntity
  8
SUNPOU
100
AcDbBlockReference
  2
_OPEN30
 10
349.6330017343057
 20
485.9776530783169
 30
0.0
 41
5.0
 42
5.0
 43
5.0
 50
90.0
  0
MTEXT
  5
FB2
330
814
100
AcDbEntity
  8
SUNPOU
100
AcDbMText
 10
345.1330017343056
 20
476.4776530783168
 30
0.0
 40
5.0
 41
0.0
 71
     5
 72
     1
  1
\A1;14
  7
SUNPOU
 11
0.0000000000000001
 21
1.0
 31
0.0
  0
POINT
  5
FB3
330
814
100
AcDbEntity
  8
DEFPOINTS
 62
     0
100
AcDbPoint
 10
321.339178303309
 20
471.9776530783168
 30
0.0
  0
POINT
  5
FB4
330
814
100
AcDbEntity
  8
DEFPOINTS
 62
     0
100
AcDbPoint
 10
329.339178303309
 20
485.9776530783169
 30
0.0
  0
POINT
  5
FB5
330
814
100
AcDbEntity
  8
DEFPOINTS
 62
     0
100
AcDbPoint
 10
349.6330017343057
 20
485.9776530783169
 30
0.0
  0
ENDBLK
  5
821
330
814
100
AcDbEntity
  8
0
100
AcDbBlockEnd
  0
BLOCK
  5
85A
330
84E
100
AcDbEntity
  8
0
100
AcDbBlockBegin
  2
*D4
 70
     1
 10
0.0
 20
0.0
 30
0.0
  3
*D4
  1

  0
LINE
  5
84F
330
84E
100
AcDbEntity
  8
SUNPOU
100
AcDbLine
 10
174.3391783033088
 20
383.4776530783169
 30
0.0
 11
192.7219160415374
 21
383.4776530783169
 31
0.0
  0
LINE
  5
850
330
84E
100
AcDbEntity
  8
SUNPOU
100
AcDbLine
 10
182.3391783033089
 20
397.4776530783169
 30
0.0
 11
192.7219160415374
 21
397.4776530783169
 31
0.0
  0
LINE
  5
851
330
84E
100
AcDbEntity
  8
SUNPOU
100
AcDbLine
 10
190.7219160415374
 20
378.4776530783169
 30
0.0
 11
190.7219160415374
 21
373.4776530783169
 31
0.0
  0
LINE
  5
852
330
84E
100
AcDbEntity
  8
SUNPOU
100
AcDbLine
 10
190.7219160415374
 20
402.4776530783169
 30
0.0
 11
190.7219160415374
 21
407.4776530783169
 31
0.0
  0
LINE
  5
853
330
84E
100
AcDbEntity
  8
SUNPOU
100
AcDbLine
 10
190.7219160415374
 20
383.4776530783169
 30
0.0
 11
190.7219160415374
 21
397.4776530783169
 31
0.0
  0
INSERT
  5
854
330
84E
100
AcDbEntity
  8
SUNPOU
100
AcDbBlockReference
  2
_OPEN30
 10
190.7219160415374
 20
383.4776530783169
 30
0.0
 41
5.0
 42
5.0
 43
5.0
 50
90.0
  0
INSERT
  5
855
330
84E
100
AcDbEntity
  8
SUNPOU
100
AcDbBlockReference
  2
_OPEN30
 10
190.7219160415374
 20
397.4776530783169
 30
0.0
 41
5.0
 42
5.0
 43
5.0
 50
270.0
  0
MTEXT
  5
856
330
84E
100
AcDbEntity
  8
SUNPOU
100
AcDbMText
 10
186.2219160415373
 20
390.477653078317
 30
0.0
 40
5.0
 41
0.0
 71
     5
 72
     1
  1
\A1;14
  7
SUNPOU
 11
0.0000000000000001
 21
1.0
 31
0.0
1001
ACAD
1000
MTEXTBEGIN
1070
    73
1070
     1
1070
    44
1040
1.0
1070
    74
1070
     0
1000
MTEXTEND
1000
MTEXTBEGIN
1070
    73
1070
     1
1070
    44
1040
1.0
1070
    74
1070
     0
1000
MTEXTEND
  0
POINT
  5
857
330
84E
100
AcDbEntity
  8
DEFPOINTS
 62
     0
100
AcDbPoint
 10
171.3391783033088
 20
383.4776530783169
 30
0.0
  0
POINT
  5
858
330
84E
100
AcDbEntity
  8
DEFPOINTS
 62
     0
100
AcDbPoint
 10
179.3391783033088
 20
397.4776530783169
 30
0.0
  0
POINT
  5
859
330
84E
100
AcDbEntity
  8
DEFPOINTS
 62
     0
100
AcDbPoint
 10
190.7219160415374
 20
397.4776530783169
 30
0.0
  0
ENDBLK
  5
85B
330
84E
100
AcDbEntity
  8
0
100
AcDbBlockEnd
  0
BLOCK
  5
867
330
85D
100
AcDbEntity
  8
0
100
AcDbBlockBegin
  2
*D5
 70
     1
 10
0.0
 20
0.0
 30
0.0
  3
*D5
  1

  0
LINE
  5
85E
330
85D
100
AcDbEntity
  8
SUNPOU
100
AcDbLine
 10
174.3391783033088
 20
383.4776530783169
 30
0.0
 11
203.0116695747631
 21
383.4776530783169
 31
0.0
  0
LINE
  5
85F
330
85D
100
AcDbEntity
  8
SUNPOU
100
AcDbLine
 10
185.0204778058195
 20
453.4776530783169
 30
0.0
 11
203.0116695747631
 21
453.4776530783169
 31
0.0
  0
LINE
  5
860
330
85D
100
AcDbEntity
  8
SUNPOU
100
AcDbLine
 10
201.0116695747631
 20
388.4776530783168
 30
0.0
 11
201.0116695747631
 21
448.4776530783169
 31
0.0
  0
INSERT
  5
861
330
85D
100
AcDbEntity
  8
SUNPOU
100
AcDbBlockReference
  2
_OPEN30
 10
201.0116695747631
 20
383.4776530783169
 30
0.0
 41
5.0
 42
5.0
 43
5.0
 50
270.0
  0
INSERT
  5
862
330
85D
100
AcDbEntity
  8
SUNPOU
100
AcDbBlockReference
  2
_OPEN30
 10
201.0116695747631
 20
453.4776530783169
 30
0.0
 41
5.0
 42
5.0
 43
5.0
 50
90.0
  0
MTEXT
  5
863
330
85D
100
AcDbEntity
  8
SUNPOU
100
AcDbMText
 10
196.5116695747631
 20
418.477653078317
 30
0.0
 40
5.0
 41
0.0
 71
     5
 72
     1
  1
\A1;70
  7
SUNPOU
 11
0.0000000000000001
 21
1.0
 31
0.0
1001
ACAD
1000
MTEXTBEGIN
1070
    73
1070
     1
1070
    44
1040
1.0
1070
    74
1070
     0
1000
MTEXTEND
1000
MTEXTBEGIN
1070
    73
1070
     1
1070
    44
1040
1.0
1070
    74
1070
     0
1000
MTEXTEND
  0
POINT
  5
864
330
85D
100
AcDbEntity
  8
DEFPOINTS
 62
     0
100
AcDbPoint
 10
171.3391783033088
 20
383.4776530783169
 30
0.0
  0
POINT
  5
865
330
85D
100
AcDbEntity
  8
DEFPOINTS
 62
     0
100
AcDbPoint
 10
182.0204778058195
 20
453.4776530783169
 30
0.0
  0
POINT
  5
866
330
85D
100
AcDbEntity
  8
DEFPOINTS
 62
     0
100
AcDbPoint
 10
201.0116695747631
 20
453.4776530783169
 30
0.0
  0
ENDBLK
  5
868
330
85D
100
AcDbEntity
  8
0
100
AcDbBlockEnd
  0
BLOCK
  5
876
330
86A
100
AcDbEntity
  8
0
100
AcDbBlockBegin
  2
*D6
 70
     1
 10
0.0
 20
0.0
 30
0.0
  3
*D6
  1

  0
LINE
  5
8A8
330
86A
100
AcDbEntity
  8
SUNPOU
100
AcDbLine
 10
169.8391783033089
 20
380.4776530783168
 30
0.0
 11
226.9826719086783
 21
380.4776530783168
 31
0.0
  0
LINE
  5
8A9
330
86A
100
AcDbEntity
  8
SUNPOU
100
AcDbLine
 10
174.3391783033088
 20
383.4776530783169
 30
0.0
 11
226.9826719086783
 21
383.4776530783169
 31
0.0
  0
LINE
  5
8AA
330
86A
100
AcDbEntity
  8
SUNPOU
100
AcDbLine
 10
224.9826719086783
 20
375.4776530783169
 30
0.0
 11
224.9826719086783
 21
370.4776530783169
 31
0.0
  0
LINE
  5
8AB
330
86A
100
AcDbEntity
  8
SUNPOU
100
AcDbLine
 10
224.9826719086783
 20
388.4776530783168
 30
0.0
 11
224.9826719086783
 21
393.4776530783169
 31
0.0
  0
MTEXT
  5
8AC
330
86A
100
AcDbEntity
  8
SUNPOU
100
AcDbMText
 10
220.482671908678
 20
373.4510814324266
 30
0.0
 40
5.0
 41
0.0
 71
     5
 72
     1
  1
\A1;3
  7
SUNPOU
 11
0.0000000000000001
 21
1.0
 31
0.0
1001
ACAD
1000
MTEXTBEGIN
1070
    73
1070
     1
1070
    44
1040
1.0
1070
    74
1070
     0
1000
MTEXTEND
1000
MTEXTBEGIN
1070
    73
1070
     1
1070
    44
1040
1.0
1070
    74
1070
     0
1000
MTEXTEND
  0
LINE
  5
8AD
330
86A
100
AcDbEntity
  8
SUNPOU
100
AcDbLine
 10
224.9826719086783
 20
380.4776530783168
 30
0.0
 11
224.9826719086783
 21
383.4776530783169
 31
0.0
  0
INSERT
  5
8AE
330
86A
100
AcDbEntity
  8
SUNPOU
100
AcDbBlockReference
  2
_OPEN30
 10
224.9826719086783
 20
380.4776530783168
 30
0.0
 41
5.0
 42
5.0
 43
5.0
 50
90.0
  0
INSERT
  5
8AF
330
86A
100
AcDbEntity
  8
SUNPOU
100
AcDbBlockReference
  2
_OPEN30
 10
224.9826719086783
 20
383.4776530783169
 30
0.0
 41
5.0
 42
5.0
 43
5.0
 50
270.0
  0
POINT
  5
8B0
330
86A
100
AcDbEntity
  8
DEFPOINTS
 62
     0
100
AcDbPoint
 10
166.8391783033088
 20
380.4776530783168
 30
0.0
  0
POINT
  5
8B1
330
86A
100
AcDbEntity
  8
DEFPOINTS
 62
     0
100
AcDbPoint
 10
171.3391783033088
 20
383.4776530783169
 30
0.0
  0
POINT
  5
8B2
330
86A
100
AcDbEntity
  8
DEFPOINTS
 62
     0
100
AcDbPoint
 10
224.9826719086783
 20
383.4776530783169
 30
0.0
  0
ENDBLK
  5
877
330
86A
100
AcDbEntity
  8
0
100
AcDbBlockEnd
  0
BLOCK
  5
883
330
879
100
AcDbEntity
  8
0
100
AcDbBlockBegin
  2
*D7
 70
     1
 10
0.0
 20
0.0
 30
0.0
  3
*D7
  1

  0
LINE
  5
89F
330
879
100
AcDbEntity
  8
SUNPOU
100
AcDbLine
 10
174.3391783033088
 20
383.4776530783169
 30
0.0
 11
226.9826719086783
 21
383.4776530783169
 31
0.0
  0
LINE
  5
8A0
330
879
100
AcDbEntity
  8
SUNPOU
100
AcDbLine
 10
175.3391783033088
 20
555.4776530783168
 30
0.0
 11
226.9826719086783
 21
555.4776530783168
 31
0.0
  0
LINE
  5
8A1
330
879
100
AcDbEntity
  8
SUNPOU
100
AcDbLine
 10
224.9826719086783
 20
388.4776530783168
 30
0.0
 11
224.9826719086783
 21
550.4776530783168
 31
0.0
  0
INSERT
  5
8A2
330
879
100
AcDbEntity
  8
SUNPOU
100
AcDbBlockReference
  2
_OPEN30
 10
224.9826719086783
 20
383.4776530783169
 30
0.0
 41
5.0
 42
5.0
 43
5.0
 50
270.0
  0
INSERT
  5
8A3
330
879
100
AcDbEntity
  8
SUNPOU
100
AcDbBlockReference
  2
_OPEN30
 10
224.9826719086783
 20
555.4776530783168
 30
0.0
 41
5.0
 42
5.0
 43
5.0
 50
90.0
  0
MTEXT
  5
8A4
330
879
100
AcDbEntity
  8
SUNPOU
100
AcDbMText
 10
220.482671908678
 20
469.4776530783169
 30
0.0
 40
5.0
 41
0.0
 71
     5
 72
     1
  1
\A1;DW
  7
SUNPOU
 11
0.0000000000000001
 21
1.0
 31
0.0
1001
ACAD
1000
MTEXTBEGIN
1070
    73
1070
     1
1070
    44
1040
1.0
1070
    74
1070
     0
1000
MTEXTEND
1000
MTEXTBEGIN
1070
    73
1070
     1
1070
    44
1040
1.0
1070
    74
1070
     0
1000
MTEXTEND
  0
POINT
  5
8A5
330
879
100
AcDbEntity
  8
DEFPOINTS
 62
     0
100
AcDbPoint
 10
171.3391783033088
 20
383.4776530783169
 30
0.0
  0
POINT
  5
8A6
330
879
100
AcDbEntity
  8
DEFPOINTS
 62
     0
100
AcDbPoint
 10
172.3391783033088
 20
555.4776530783168
 30
0.0
  0
POINT
  5
8A7
330
879
100
AcDbEntity
  8
DEFPOINTS
 62
     0
100
AcDbPoint
 10
224.9826719086783
 20
555.4776530783168
 30
0.0
  0
ENDBLK
  5
884
330
879
100
AcDbEntity
  8
0
100
AcDbBlockEnd
  0
BLOCK
  5
892
330
886
100
AcDbEntity
  8
0
100
AcDbBlockBegin
  2
*D8
 70
     1
 10
0.0
 20
0.0
 30
0.0
  3
*D8
  1

  0
LINE
  5
894
330
886
100
AcDbEntity
  8
SUNPOU
100
AcDbLine
 10
175.3391783033088
 20
555.4776530783168
 30
0.0
 11
226.9826719086783
 21
555.4776530783168
 31
0.0
  0
LINE
  5
895
330
886
100
AcDbEntity
  8
SUNPOU
100
AcDbLine
 10
169.8391783033089
 20
558.477653078317
 30
0.0
 11
226.9826719086783
 21
558.477653078317
 31
0.0
  0
LINE
  5
896
330
886
100
AcDbEntity
  8
SUNPOU
100
AcDbLine
 10
224.9826719086783
 20
550.4776530783168
 30
0.0
 11
224.9826719086783
 21
545.4776530783171
 31
0.0
  0
LINE
  5
897
330
886
100
AcDbEntity
  8
SUNPOU
100
AcDbLine
 10
224.9826719086783
 20
563.4776530783167
 30
0.0
 11
224.9826719086783
 21
568.4776530783167
 31
0.0
  0
MTEXT
  5
898
330
886
100
AcDbEntity
  8
SUNPOU
100
AcDbMText
 10
220.482671908678
 20
565.9739857874017
 30
0.0
 40
5.0
 41
0.0
 71
     5
 72
     1
  1
\A1;3
  7
SUNPOU
 11
0.0000000000000001
 21
1.0
 31
0.0
1001
ACAD
1000
MTEXTBEGIN
1070
    73
1070
     1
1070
    44
1040
1.0
1070
    74
1070
     0
1000
MTEXTEND
1000
MTEXTBEGIN
1070
    73
1070
     1
1070
    44
1040
1.0
1070
    74
1070
     0
1000
MTEXTEND
  0
LINE
  5
899
330
886
100
AcDbEntity
  8
SUNPOU
100
AcDbLine
 10
224.9826719086783
 20
555.4776530783168
 30
0.0
 11
224.9826719086783
 21
558.477653078317
 31
0.0
  0
INSERT
  5
89A
330
886
100
AcDbEntity
  8
SUNPOU
100
AcDbBlockReference
  2
_OPEN30
 10
224.9826719086783
 20
555.4776530783168
 30
0.0
 41
5.0
 42
5.0
 43
5.0
 50
90.0
  0
INSERT
  5
89B
330
886
100
AcDbEntity
  8
SUNPOU
100
AcDbBlockReference
  2
_OPEN30
 10
224.9826719086783
 20
558.477653078317
 30
0.0
 41
5.0
 42
5.0
 43
5.0
 50
270.0
  0
POINT
  5
89C
330
886
100
AcDbEntity
  8
DEFPOINTS
 62
     0
100
AcDbPoint
 10
172.3391783033088
 20
555.4776530783168
 30
0.0
  0
POINT
  5
89D
330
886
100
AcDbEntity
  8
DEFPOINTS
 62
     0
100
AcDbPoint
 10
166.8391783033088
 20
558.477653078317
 30
0.0
  0
POINT
  5
89E
330
886
100
AcDbEntity
  8
DEFPOINTS
 62
     0
100
AcDbPoint
 10
224.9826719086783
 20
558.477653078317
 30
0.0
  0
ENDBLK
  5
893
330
886
100
AcDbEntity
  8
0
100
AcDbBlockEnd
  0
BLOCK
  5
8C0
330
8B4
100
AcDbEntity
  8
0
100
AcDbBlockBegin
  2
*D9
 70
     1
 10
0.0
 20
0.0
 30
0.0
  3
*D9
  1

  0
LINE
  5
8B5
330
8B4
100
AcDbEntity
  8
SUNPOU
100
AcDbLine
 10
182.4637006300206
 20
541.4934070766292
 30
0.0
 11
192.7219160415374
 21
541.4934070766292
 31
0.0
  0
LINE
  5
8B6
330
8B4
100
AcDbEntity
  8
SUNPOU
100
AcDbLine
 10
174.3391783033088
 20
555.4776530783168
 30
0.0
 11
192.7219160415374
 21
555.4776530783168
 31
0.0
  0
LINE
  5
8B7
330
8B4
100
AcDbEntity
  8
SUNPOU
100
AcDbLine
 10
190.7219160415374
 20
536.4934070766294
 30
0.0
 11
190.7219160415374
 21
531.4934070766294
 31
0.0
  0
LINE
  5
8B8
330
8B4
100
AcDbEntity
  8
SUNPOU
100
AcDbLine
 10
190.7219160415374
 20
560.4776530783168
 30
0.0
 11
190.7219160415374
 21
565.4776530783167
 31
0.0
  0
LINE
  5
8B9
330
8B4
100
AcDbEntity
  8
SUNPOU
100
AcDbLine
 10
190.7219160415374
 20
541.4934070766292
 30
0.0
 11
190.7219160415374
 21
555.4776530783168
 31
0.0
  0
INSERT
  5
8BA
330
8B4
100
AcDbEntity
  8
SUNPOU
100
AcDbBlockReference
  2
_OPEN30
 10
190.7219160415374
 20
541.4934070766292
 30
0.0
 41
5.0
 42
5.0
 43
5.0
 50
90.0
  0
INSERT
  5
8BB
330
8B4
100
AcDbEntity
  8
SUNPOU
100
AcDbBlockReference
  2
_OPEN30
 10
190.7219160415374
 20
555.4776530783168
 30
0.0
 41
5.0
 42
5.0
 43
5.0
 50
270.0
  0
MTEXT
  5
8BC
330
8B4
100
AcDbEntity
  8
SUNPOU
100
AcDbMText
 10
186.2219160415373
 20
548.4855300774731
 30
0.0
 40
5.0
 41
0.0
 71
     5
 72
     1
  1
\A1;14
  7
SUNPOU
 11
0.0000000000000001
 21
1.0
 31
0.0
1001
ACAD
1000
MTEXTBEGIN
1070
    73
1070
     1
1070
    44
1040
1.0
1070
    74
1070
     0
1000
MTEXTEND
1000
MTEXTBEGIN
1070
    73
1070
     1
1070
    44
1040
1.0
1070
    74
1070
     0
1000
MTEXTEND
  0
POINT
  5
8BD
330
8B4
100
AcDbEntity
  8
DEFPOINTS
 62
     0
100
AcDbPoint
 10
179.4637006300206
 20
541.4934070766292
 30
0.0
  0
POINT
  5
8BE
330
8B4
100
AcDbEntity
  8
DEFPOINTS
 62
     0
100
AcDbPoint
 10
171.3391783033088
 20
555.4776530783168
 30
0.0
  0
POINT
  5
8BF
330
8B4
100
AcDbEntity
  8
DEFPOINTS
 62
     0
100
AcDbPoint
 10
190.7219160415374
 20
555.4776530783168
 30
0.0
  0
ENDBLK
  5
8C1
330
8B4
100
AcDbEntity
  8
0
100
AcDbBlockEnd
  0
BLOCK
  5
8CD
330
8C3
100
AcDbEntity
  8
0
100
AcDbBlockBegin
  2
*D10
 70
     1
 10
0.0
 20
0.0
 30
0.0
  3
*D10
  1

  0
LINE
  5
8CF
330
8C3
100
AcDbEntity
  8
SUNPOU
100
AcDbLine
 10
233.9039792580559
 20
380.477653078317
 30
0.0
 11
234.9039792580559
 21
380.477653078317
 31
0.0
  0
LINE
  5
8D0
330
8C3
100
AcDbEntity
  8
SUNPOU
100
AcDbLine
 10
239.9039792580559
 20
558.477653078317
 30
0.0
 11
238.9039792580559
 21
558.477653078317
 31
0.0
  0
LINE
  5
8D1
330
8C3
100
AcDbEntity
  8
SUNPOU
100
AcDbLine
 10
236.9039792580559
 20
385.4776530783169
 30
0.0
 11
236.9039792580559
 21
553.4776530783168
 31
0.0
  0
INSERT
  5
8D2
330
8C3
100
AcDbEntity
  8
SUNPOU
100
AcDbBlockReference
  2
_OPEN30
 10
236.9039792580559
 20
380.477653078317
 30
0.0
 41
5.0
 42
5.0
 43
5.0
 50
270.0
  0
INSERT
  5
8D3
330
8C3
100
AcDbEntity
  8
SUNPOU
100
AcDbBlockReference
  2
_OPEN30
 10
236.9039792580559
 20
558.477653078317
 30
0.0
 41
5.0
 42
5.0
 43
5.0
 50
90.0
  0
MTEXT
  5
8D4
330
8C3
100
AcDbEntity
  8
SUNPOU
100
AcDbMText
 10
232.4039792580559
 20
469.477653078317
 30
0.0
 40
5.0
 41
0.0
 71
     5
 72
     1
  1
\A1;W
  7
SUNPOU
 11
0.0000000000000001
 21
1.0
 31
0.0
1001
ACAD
1000
MTEXTBEGIN
1070
    73
1070
     1
1070
    44
1040
1.0
1070
    74
1070
     0
1000
MTEXTEND
1000
MTEXTBEGIN
1070
    73
1070
     1
1070
    44
1040
1.0
1070
    74
1070
     0
1000
MTEXTEND
  0
POINT
  5
8D5
330
8C3
100
AcDbEntity
  8
DEFPOINTS
 62
     0
100
AcDbPoint
 10
236.9039792580559
 20
380.477653078317
 30
0.0
  0
POINT
  5
8D6
330
8C3
100
AcDbEntity
  8
DEFPOINTS
 62
     0
100
AcDbPoint
 10
236.9039792580559
 20
558.477653078317
 30
0.0
  0
POINT
  5
8D7
330
8C3
100
AcDbEntity
  8
DEFPOINTS
 62
     0
100
AcDbPoint
 10
236.9039792580559
 20
558.477653078317
 30
0.0
  0
ENDBLK
  5
8CE
330
8C3
100
AcDbEntity
  8
0
100
AcDbBlockEnd
  0
BLOCK
  5
8E3
330
8D9
100
AcDbEntity
  8
0
100
AcDbBlockBegin
  2
*D11
 70
     1
 10
0.0
 20
0.0
 30
0.0
  3
*D11
  1

  0
LINE
  5
8FA
330
8D9
100
AcDbEntity
  8
SUNPOU
100
AcDbLine
 10
147.8391783033089
 20
399.9776530783169
 30
0.0
 11
147.8391783033089
 21
412.015039613267
 31
0.0
  0
LINE
  5
8FB
330
8D9
100
AcDbEntity
  8
SUNPOU
100
AcDbLine
 10
179.8391783033089
 20
399.9776530783167
 30
0.0
 11
179.8391783033089
 21
412.015039613267
 31
0.0
  0
LINE
  5
8FC
330
8D9
100
AcDbEntity
  8
SUNPOU
100
AcDbLine
 10
152.8391783033089
 20
410.0150396132669
 30
0.0
 11
174.8391783033089
 21
410.0150396132669
 31
0.0
  0
MTEXT
  5
8FD
330
8D9
100
AcDbEntity
  8
SUNPOU
100
AcDbMText
 10
163.8391783033088
 20
405.515039613267
 30
0.0
 40
5.0
 41
0.0
 71
     5
 72
     1
  1
\A1;32
  7
SUNPOU
 11
-1.0
 21
0.0000000000000001
 31
0.0
1001
ACAD
1000
MTEXTBEGIN
1070
    73
1070
     1
1070
    44
1040
1.0
1070
    74
1070
     0
1000
MTEXTEND
1000
MTEXTBEGIN
1070
    73
1070
     1
1070
    44
1040
1.0
1070
    74
1070
     0
1000
MTEXTEND
  0
INSERT
  5
8FE
330
8D9
100
AcDbEntity
  8
SUNPOU
100
AcDbBlockReference
  2
_OPEN30
 10
147.8391783033089
 20
410.0150396132669
 30
0.0
 41
5.0
 42
5.0
 43
5.0
 50
180.0
  0
INSERT
  5
8FF
330
8D9
100
AcDbEntity
  8
SUNPOU
100
AcDbBlockReference
  2
_OPEN30
 10
179.8391783033089
 20
410.0150396132669
 30
0.0
 41
5.0
 42
5.0
 43
5.0
  0
POINT
  5
900
330
8D9
100
AcDbEntity
  8
DEFPOINTS
 62
     0
100
AcDbPoint
 10
147.8391783033089
 20
396.9776530783168
 30
0.0
  0
POINT
  5
901
330
8D9
100
AcDbEntity
  8
DEFPOINTS
 62
     0
100
AcDbPoint
 10
179.8391783033089
 20
396.9776530783166
 30
0.0
  0
POINT
  5
902
330
8D9
100
AcDbEntity
  8
DEFPOINTS
 62
     0
100
AcDbPoint
 10
179.8391783033089
 20
410.0150396132669
 30
0.0
  0
ENDBLK
  5
8E4
330
8D9
100
AcDbEntity
  8
0
100
AcDbBlockEnd
  0
BLOCK
  5
90E
330
904
100
AcDbEntity
  8
0
100
AcDbBlockBegin
  2
*D12
 70
     1
 10
0.0
 20
0.0
 30
0.0
  3
*D12
  1

  0
LINE
  5
963
330
904
100
AcDbEntity
  8
SUNPOU
100
AcDbLine
 10
78.35392012039806
 20
320.3028064992611
 30
0.0
 11
78.35392012039806
 21
332.3198603464481
 31
0.0
  0
LINE
  5
964
330
904
100
AcDbEntity
  8
SUNPOU
100
AcDbLine
 10
160.3539201203981
 20
312.3028064992611
 30
0.0
 11
160.3539201203981
 21
332.3198603464481
 31
0.0
  0
LINE
  5
965
330
904
100
AcDbEntity
  8
SUNPOU
100
AcDbLine
 10
83.35392012039806
 20
330.3198603464481
 30
0.0
 11
155.3539201203981
 21
330.3198603464481
 31
0.0
  0
MTEXT
  5
966
330
904
100
AcDbEntity
  8
SUNPOU
100
AcDbMText
 10
119.353920120398
 20
325.8198603464481
 30
0.0
 40
5.0
 41
0.0
 71
     5
 72
     1
  1
\A1;82
  7
SUNPOU
 11
-1.0
 21
0.0000000000000001
 31
0.0
1001
ACAD
1000
MTEXTBEGIN
1070
    73
1070
     1
1070
    44
1040
1.0
1070
    74
1070
     0
1000
MTEXTEND
1000
MTEXTBEGIN
1070
    73
1070
     1
1070
    44
1040
1.0
1070
    74
1070
     0
1000
MTEXTEND
  0
INSERT
  5
967
330
904
100
AcDbEntity
  8
SUNPOU
100
AcDbBlockReference
  2
_OPEN30
 10
78.35392012039806
 20
330.3198603464481
 30
0.0
 41
5.0
 42
5.0
 43
5.0
 50
180.0
  0
INSERT
  5
968
330
904
100
AcDbEntity
  8
SUNPOU
100
AcDbBlockReference
  2
_OPEN30
 10
160.3539201203981
 20
330.3198603464481
 30
0.0
 41
5.0
 42
5.0
 43
5.0
  0
POINT
  5
969
330
904
100
AcDbEntity
  8
DEFPOINTS
 62
     0
100
AcDbPoint
 10
78.35392012039806
 20
317.3028064992611
 30
0.0
  0
POINT
  5
96A
330
904
100
AcDbEntity
  8
DEFPOINTS
 62
     0
100
AcDbPoint
 10
160.3539201203981
 20
309.3028064992612
 30
0.0
  0
POINT
  5
96B
330
904
100
AcDbEntity
  8
DEFPOINTS
 62
     0
100
AcDbPoint
 10
160.3539201203981
 20
330.3198603464481
 30
0.0
  0
ENDBLK
  5
90F
330
904
100
AcDbEntity
  8
0
100
AcDbBlockEnd
  0
BLOCK
  5
91B
330
911
100
AcDbEntity
  8
0
100
AcDbBlockBegin
  2
*D13
 70
     1
 10
0.0
 20
0.0
 30
0.0
  3
*D13
  1

  0
LINE
  5
95A
330
911
100
AcDbEntity
  8
SUNPOU
100
AcDbLine
 10
273.9298816588594
 20
312.3028064992611
 30
0.0
 11
273.9298816588594
 21
332.3198603464481
 31
0.0
  0
LINE
  5
95B
330
911
100
AcDbEntity
  8
SUNPOU
100
AcDbLine
 10
355.9298816588594
 20
320.3028064992611
 30
0.0
 11
355.9298816588594
 21
332.3198603464481
 31
0.0
  0
LINE
  5
95C
330
911
100
AcDbEntity
  8
SUNPOU
100
AcDbLine
 10
278.9298816588594
 20
330.3198603464481
 30
0.0
 11
350.9298816588594
 21
330.3198603464481
 31
0.0
  0
MTEXT
  5
95D
330
911
100
AcDbEntity
  8
SUNPOU
100
AcDbMText
 10
314.9298816588593
 20
325.8198603464481
 30
0.0
 40
5.0
 41
0.0
 71
     5
 72
     1
  1
\A1;82
  7
SUNPOU
 11
-1.0
 21
0.0000000000000001
 31
0.0
1001
ACAD
1000
MTEXTBEGIN
1070
    73
1070
     1
1070
    44
1040
1.0
1070
    74
1070
     0
1000
MTEXTEND
1000
MTEXTBEGIN
1070
    73
1070
     1
1070
    44
1040
1.0
1070
    74
1070
     0
1000
MTEXTEND
  0
INSERT
  5
95E
330
911
100
AcDbEntity
  8
SUNPOU
100
AcDbBlockReference
  2
_OPEN30
 10
273.9298816588594
 20
330.3198603464481
 30
0.0
 41
5.0
 42
5.0
 43
5.0
 50
180.0
  0
INSERT
  5
95F
330
911
100
AcDbEntity
  8
SUNPOU
100
AcDbBlockReference
  2
_OPEN30
 10
355.9298816588594
 20
330.3198603464481
 30
0.0
 41
5.0
 42
5.0
 43
5.0
  0
POINT
  5
960
330
911
100
AcDbEntity
  8
DEFPOINTS
 62
     0
100
AcDbPoint
 10
273.9298816588594
 20
309.3028064992611
 30
0.0
  0
POINT
  5
961
330
911
100
AcDbEntity
  8
DEFPOINTS
 62
     0
100
AcDbPoint
 10
355.9298816588594
 20
317.3028064992613
 30
0.0
  0
POINT
  5
962
330
911
100
AcDbEntity
  8
DEFPOINTS
 62
     0
100
AcDbPoint
 10
355.9298816588594
 20
330.3198603464481
 30
0.0
  0
ENDBLK
  5
91C
330
911
100
AcDbEntity
  8
0
100
AcDbBlockEnd
  0
BLOCK
  5
928
330
91E
100
AcDbEntity
  8
0
100
AcDbBlockBegin
  2
*D14
 70
     1
 10
0.0
 20
0.0
 30
0.0
  3
*D14
  1

  0
LINE
  5
D49
330
91E
100
AcDbEntity
  8
SUNPOU
100
AcDbLine
 10
163.3539201203981
 20
293.3028064992603
 30
0.0
 11
172.3861814336784
 21
293.3028064992603
 31
0.0
  0
LINE
  5
D4A
330
91E
100
AcDbEntity
  8
SUNPOU
100
AcDbLine
 10
163.0393195133098
 20
309.3028064992611
 30
0.0
 11
172.3861814336784
 21
309.3028064992611
 31
0.0
  0
LINE
  5
D4B
330
91E
100
AcDbEntity
  8
SUNPOU
100
AcDbLine
 10
170.3861814336784
 20
298.3028064992605
 30
0.0
 11
170.3861814336784
 21
304.3028064992611
 31
0.0
  0
INSERT
  5
D4C
330
91E
100
AcDbEntity
  8
SUNPOU
100
AcDbBlockReference
  2
_OPEN30
 10
170.3861814336784
 20
293.3028064992603
 30
0.0
 41
5.0
 42
5.0
 43
5.0
 50
270.0
  0
INSERT
  5
D4D
330
91E
100
AcDbEntity
  8
SUNPOU
100
AcDbBlockReference
  2
_OPEN30
 10
170.3861814336784
 20
309.3028064992611
 30
0.0
 41
5.0
 42
5.0
 43
5.0
 50
90.0
  0
MTEXT
  5
D4E
330
91E
100
AcDbEntity
  8
SUNPOU
100
AcDbMText
 10
165.8861814336785
 20
301.3028064992608
 30
0.0
 40
5.0
 41
0.0
 71
     5
 72
     1
  1
\A1;16
  7
SUNPOU
 11
0.0000000000000001
 21
1.0
 31
0.0
1001
ACAD
1000
MTEXTBEGIN
1070
    73
1070
     1
1070
    44
1040
1.0
1070
    74
1070
     0
1000
MTEXTEND
1000
MTEXTBEGIN
1070
    73
1070
     1
1070
    44
1040
1.0
1070
    74
1070
     0
1000
MTEXTEND
  0
POINT
  5
D4F
330
91E
100
AcDbEntity
  8
DEFPOINTS
 62
     0
100
AcDbPoint
 10
160.3539201203981
 20
293.3028064992603
 30
0.0
  0
POINT
  5
D50
330
91E
100
AcDbEntity
  8
DEFPOINTS
 62
     0
100
AcDbPoint
 10
160.0393195133098
 20
309.3028064992611
 30
0.0
  0
POINT
  5
D51
330
91E
100
AcDbEntity
  8
DEFPOINTS
 62
     0
100
AcDbPoint
 10
170.3861814336784
 20
309.3028064992611
 30
0.0
  0
ENDBLK
  5
929
330
91E
100
AcDbEntity
  8
0
100
AcDbBlockEnd
  0
BLOCK
  5
935
330
92B
100
AcDbEntity
  8
0
100
AcDbBlockBegin
  2
*D15
 70
     1
 10
0.0
 20
0.0
 30
0.0
  3
*D15
  1

  0
LINE
  5
92C
330
92B
100
AcDbEntity
  8
SUNPOU
100
AcDbLine
 10
158.3539201203981
 20
287.3028064992611
 30
0.0
 11
187.4829653735201
 21
287.3028064992611
 31
0.0
  0
LINE
  5
92D
330
92B
100
AcDbEntity
  8
SUNPOU
100
AcDbLine
 10
158.3539201203981
 20
315.3028064992611
 30
0.0
 11
187.4829653735201
 21
315.3028064992611
 31
0.0
  0
LINE
  5
92E
330
92B
100
AcDbEntity
  8
SUNPOU
100
AcDbLine
 10
185.4829653735201
 20
292.3028064992611
 30
0.0
 11
185.4829653735201
 21
310.3028064992611
 31
0.0
  0
INSERT
  5
92F
330
92B
100
AcDbEntity
  8
SUNPOU
100
AcDbBlockReference
  2
_OPEN30
 10
185.4829653735201
 20
287.3028064992611
 30
0.0
 41
5.0
 42
5.0
 43
5.0
 50
270.0
  0
INSERT
  5
930
330
92B
100
AcDbEntity
  8
SUNPOU
100
AcDbBlockReference
  2
_OPEN30
 10
185.4829653735201
 20
315.3028064992611
 30
0.0
 41
5.0
 42
5.0
 43
5.0
 50
90.0
  0
MTEXT
  5
931
330
92B
100
AcDbEntity
  8
SUNPOU
100
AcDbMText
 10
180.98296537352
 20
301.3028064992611
 30
0.0
 40
5.0
 41
0.0
 71
     5
 72
     1
  1
\A1;28
  7
SUNPOU
 11
0.0000000000000001
 21
1.0
 31
0.0
1001
ACAD
1000
MTEXTBEGIN
1070
    73
1070
     1
1070
    44
1040
1.0
1070
    74
1070
     0
1000
MTEXTEND
1000
MTEXTBEGIN
1070
    73
1070
     1
1070
    44
1040
1.0
1070
    74
1070
     0
1000
MTEXTEND
  0
POINT
  5
932
330
92B
100
AcDbEntity
  8
DEFPOINTS
 62
     0
100
AcDbPoint
 10
155.3539201203981
 20
287.3028064992611
 30
0.0
  0
POINT
  5
933
330
92B
100
AcDbEntity
  8
DEFPOINTS
 62
     0
100
AcDbPoint
 10
155.3539201203981
 20
315.3028064992611
 30
0.0
  0
POINT
  5
934
330
92B
100
AcDbEntity
  8
DEFPOINTS
 62
     0
100
AcDbPoint
 10
185.4829653735201
 20
315.3028064992611
 30
0.0
  0
ENDBLK
  5
936
330
92B
100
AcDbEntity
  8
0
100
AcDbBlockEnd
  0
BLOCK
  5
942
330
938
100
AcDbEntity
  8
0
100
AcDbBlockBegin
  2
*D16
 70
     1
 10
0.0
 20
0.0
 30
0.0
  3
*D16
  1

  0
LINE
  5
939
330
938
100
AcDbEntity
  8
SUNPOU
100
AcDbLine
 10
195.051785032443
 20
285.3028064992611
 30
0.0
 11
196.0517850324432
 21
285.3028064992611
 31
0.0
  0
LINE
  5
93A
330
938
100
AcDbEntity
  8
SUNPOU
100
AcDbLine
 10
195.051785032443
 20
317.3028064992611
 30
0.0
 11
196.0517850324432
 21
317.3028064992611
 31
0.0
  0
LINE
  5
93B
330
938
100
AcDbEntity
  8
SUNPOU
100
AcDbLine
 10
198.0517850324432
 20
290.3028064992611
 30
0.0
 11
198.0517850324432
 21
312.3028064992611
 31
0.0
  0
INSERT
  5
93C
330
938
100
AcDbEntity
  8
SUNPOU
100
AcDbBlockReference
  2
_OPEN30
 10
198.0517850324432
 20
285.3028064992611
 30
0.0
 41
5.0
 42
5.0
 43
5.0
 50
270.0
  0
INSERT
  5
93D
330
938
100
AcDbEntity
  8
SUNPOU
100
AcDbBlockReference
  2
_OPEN30
 10
198.0517850324432
 20
317.3028064992611
 30
0.0
 41
5.0
 42
5.0
 43
5.0
 50
90.0
  0
MTEXT
  5
93E
330
938
100
AcDbEntity
  8
SUNPOU
100
AcDbMText
 10
193.5517850324432
 20
301.3028064992611
 30
0.0
 40
5.0
 41
0.0
 71
     5
 72
     1
  1
\A1;32
  7
SUNPOU
 11
0.0000000000000001
 21
1.0
 31
0.0
1001
ACAD
1000
MTEXTBEGIN
1070
    73
1070
     1
1070
    44
1040
1.0
1070
    74
1070
     0
1000
MTEXTEND
1000
MTEXTBEGIN
1070
    73
1070
     1
1070
    44
1040
1.0
1070
    74
1070
     0
1000
MTEXTEND
  0
POINT
  5
93F
330
938
100
AcDbEntity
  8
DEFPOINTS
 62
     0
100
AcDbPoint
 10
198.0517850324432
 20
285.3028064992611
 30
0.0
  0
POINT
  5
940
330
938
100
AcDbEntity
  8
DEFPOINTS
 62
     0
100
AcDbPoint
 10
198.0517850324432
 20
317.3028064992611
 30
0.0
  0
POINT
  5
941
330
938
100
AcDbEntity
  8
DEFPOINTS
 62
     0
100
AcDbPoint
 10
198.0517850324432
 20
317.3028064992611
 30
0.0
  0
ENDBLK
  5
943
330
938
100
AcDbEntity
  8
0
100
AcDbBlockEnd
  0
BLOCK
  5
979
330
96D
100
AcDbEntity
  8
0
100
AcDbBlockBegin
  2
*D17
 70
     1
 10
0.0
 20
0.0
 30
0.0
  3
*D17
  1

  0
LINE
  5
AD4
330
96D
100
AcDbEntity
  8
SUNPOU
100
AcDbLine
 10
89.66345404996891
 20
189.0347561593196
 30
0.0
 11
89.66345404996891
 21
207.482757255161
 31
0.0
  0
LINE
  5
AD5
330
96D
100
AcDbEntity
  8
SUNPOU
100
AcDbLine
 10
89.96345404996892
 20
188.5347561593194
 30
0.0
 11
89.96345404996892
 21
207.482757255161
 31
0.0
  0
LINE
  5
AD6
330
96D
100
AcDbEntity
  8
SUNPOU
100
AcDbLine
 10
84.66345404996891
 20
205.482757255161
 30
0.0
 11
79.66345404996892
 21
205.482757255161
 31
0.0
  0
LINE
  5
AD7
330
96D
100
AcDbEntity
  8
SUNPOU
100
AcDbLine
 10
94.96345404996892
 20
205.482757255161
 30
0.0
 11
99.96345404996894
 21
205.482757255161
 31
0.0
  0
MTEXT
  5
AD8
330
96D
100
AcDbEntity
  8
SUNPOU
100
AcDbMText
 10
82.05248769963828
 20
200.982757255161
 30
0.0
 40
5.0
 41
0.0
 71
     5
 72
     1
  1
\A1;3
  7
SUNPOU
 11
-1.0
 21
0.0000000000000001
 31
0.0
1001
ACAD
1000
MTEXTBEGIN
1070
    73
1070
     1
1070
    44
1040
1.0
1070
    74
1070
     0
1000
MTEXTEND
1000
MTEXTBEGIN
1070
    73
1070
     1
1070
    44
1040
1.0
1070
    74
1070
     0
1000
MTEXTEND
  0
LINE
  5
AD9
330
96D
100
AcDbEntity
  8
SUNPOU
100
AcDbLine
 10
89.66345404996891
 20
205.482757255161
 30
0.0
 11
89.96345404996892
 21
205.482757255161
 31
0.0
  0
INSERT
  5
ADA
330
96D
100
AcDbEntity
  8
SUNPOU
100
AcDbBlockReference
  2
_OPEN30
 10
89.66345404996891
 20
205.482757255161
 30
0.0
 41
5.0
 42
5.0
 43
5.0
  0
INSERT
  5
ADB
330
96D
100
AcDbEntity
  8
SUNPOU
100
AcDbBlockReference
  2
_OPEN30
 10
89.96345404996892
 20
205.482757255161
 30
0.0
 41
5.0
 42
5.0
 43
5.0
 50
180.0
  0
POINT
  5
ADC
330
96D
100
AcDbEntity
  8
DEFPOINTS
 62
     0
100
AcDbPoint
 10
89.66345404996891
 20
186.0347561593196
 30
0.0
  0
POINT
  5
ADD
330
96D
100
AcDbEntity
  8
DEFPOINTS
 62
     0
100
AcDbPoint
 10
89.96345404996892
 20
185.5347561593195
 30
0.0
  0
POINT
  5
ADE
330
96D
100
AcDbEntity
  8
DEFPOINTS
 62
     0
100
AcDbPoint
 10
89.96345404996892
 20
205.482757255161
 30
0.0
  0
ENDBLK
  5
97A
330
96D
100
AcDbEntity
  8
0
100
AcDbBlockEnd
  0
BLOCK
  5
986
330
97C
100
AcDbEntity
  8
0
100
AcDbBlockBegin
  2
*D18
 70
     1
 10
0.0
 20
0.0
 30
0.0
  3
*D18
  1

  0
LINE
  5
AE8
330
97C
100
AcDbEntity
  8
SUNPOU
100
AcDbLine
 10
89.96345404996892
 20
188.5347561593194
 30
0.0
 11
89.96345404996892
 21
207.482757255161
 31
0.0
  0
LINE
  5
AE9
330
97C
100
AcDbEntity
  8
SUNPOU
100
AcDbLine
 10
303.3634540499688
 20
188.5347561593194
 30
0.0
 11
303.3634540499688
 21
207.482757255161
 31
0.0
  0
LINE
  5
AEA
330
97C
100
AcDbEntity
  8
SUNPOU
100
AcDbLine
 10
94.96345404996892
 20
205.482757255161
 30
0.0
 11
298.3634540499688
 21
205.482757255161
 31
0.0
  0
MTEXT
  5
AEB
330
97C
100
AcDbEntity
  8
SUNPOU
100
AcDbMText
 10
196.6634540499689
 20
200.982757255161
 30
0.0
 40
5.0
 41
0.0
 71
     5
 72
     1
  1
\A1;DH
  7
SUNPOU
 11
-1.0
 21
0.0000000000000001
 31
0.0
1001
ACAD
1000
MTEXTBEGIN
1070
    73
1070
     1
1070
    44
1040
1.0
1070
    74
1070
     0
1000
MTEXTEND
1000
MTEXTBEGIN
1070
    73
1070
     1
1070
    44
1040
1.0
1070
    74
1070
     0
1000
MTEXTEND
  0
INSERT
  5
AEC
330
97C
100
AcDbEntity
  8
SUNPOU
100
AcDbBlockReference
  2
_OPEN30
 10
89.96345404996892
 20
205.482757255161
 30
0.0
 41
5.0
 42
5.0
 43
5.0
 50
180.0
  0
INSERT
  5
AED
330
97C
100
AcDbEntity
  8
SUNPOU
100
AcDbBlockReference
  2
_OPEN30
 10
303.3634540499688
 20
205.482757255161
 30
0.0
 41
5.0
 42
5.0
 43
5.0
  0
POINT
  5
AEE
330
97C
100
AcDbEntity
  8
DEFPOINTS
 62
     0
100
AcDbPoint
 10
89.96345404996892
 20
185.5347561593195
 30
0.0
  0
POINT
  5
AEF
330
97C
100
AcDbEntity
  8
DEFPOINTS
 62
     0
100
AcDbPoint
 10
303.3634540499688
 20
185.5347561593195
 30
0.0
  0
POINT
  5
AF0
330
97C
100
AcDbEntity
  8
DEFPOINTS
 62
     0
100
AcDbPoint
 10
303.3634540499688
 20
205.482757255161
 30
0.0
  0
ENDBLK
  5
987
330
97C
100
AcDbEntity
  8
0
100
AcDbBlockEnd
  0
BLOCK
  5
995
330
989
100
AcDbEntity
  8
0
100
AcDbBlockBegin
  2
*D19
 70
     1
 10
0.0
 20
0.0
 30
0.0
  3
*D19
  1

  0
LINE
  5
AFC
330
989
100
AcDbEntity
  8
SUNPOU
100
AcDbLine
 10
303.3634540499688
 20
188.5347561593194
 30
0.0
 11
303.3634540499688
 21
207.482757255161
 31
0.0
  0
LINE
  5
AFD
330
989
100
AcDbEntity
  8
SUNPOU
100
AcDbLine
 10
304.3634540499688
 20
189.0347561593195
 30
0.0
 11
304.3634540499688
 21
207.482757255161
 31
0.0
  0
LINE
  5
AFE
330
989
100
AcDbEntity
  8
SUNPOU
100
AcDbLine
 10
298.3634540499688
 20
205.482757255161
 30
0.0
 11
293.3634540499688
 21
205.482757255161
 31
0.0
  0
LINE
  5
AFF
330
989
100
AcDbEntity
  8
SUNPOU
100
AcDbLine
 10
309.3634540499688
 20
205.482757255161
 30
0.0
 11
314.3634540499689
 21
205.482757255161
 31
0.0
  0
MTEXT
  5
B00
330
989
100
AcDbEntity
  8
SUNPOU
100
AcDbMText
 10
312.6764477730389
 20
200.982757255161
 30
0.0
 40
5.0
 41
0.0
 71
     5
 72
     1
  1
\A1;10
  7
SUNPOU
 11
-1.0
 21
0.0000000000000001
 31
0.0
1001
ACAD
1000
MTEXTBEGIN
1070
    73
1070
     1
1070
    44
1040
1.0
1070
    74
1070
     0
1000
MTEXTEND
1000
MTEXTBEGIN
1070
    73
1070
     1
1070
    44
1040
1.0
1070
    74
1070
     0
1000
MTEXTEND
  0
LINE
  5
B01
330
989
100
AcDbEntity
  8
SUNPOU
100
AcDbLine
 10
303.3634540499688
 20
205.482757255161
 30
0.0
 11
304.3634540499688
 21
205.482757255161
 31
0.0
  0
INSERT
  5
B02
330
989
100
AcDbEntity
  8
SUNPOU
100
AcDbBlockReference
  2
_OPEN30
 10
303.3634540499688
 20
205.482757255161
 30
0.0
 41
5.0
 42
5.0
 43
5.0
  0
INSERT
  5
B03
330
989
100
AcDbEntity
  8
SUNPOU
100
AcDbBlockReference
  2
_OPEN30
 10
304.3634540499688
 20
205.482757255161
 30
0.0
 41
5.0
 42
5.0
 43
5.0
 50
180.0
  0
POINT
  5
B04
330
989
100
AcDbEntity
  8
DEFPOINTS
 62
     0
100
AcDbPoint
 10
303.3634540499688
 20
185.5347561593195
 30
0.0
  0
POINT
  5
B05
330
989
100
AcDbEntity
  8
DEFPOINTS
 62
     0
100
AcDbPoint
 10
304.3634540499688
 20
186.0347561593195
 30
0.0
  0
POINT
  5
B06
330
989
100
AcDbEntity
  8
DEFPOINTS
 62
     0
100
AcDbPoint
 10
304.3634540499688
 20
205.482757255161
 30
0.0
  0
ENDBLK
  5
996
330
989
100
AcDbEntity
  8
0
100
AcDbBlockEnd
  0
BLOCK
  5
9C3
330
9B7
100
AcDbEntity
  8
0
100
AcDbBlockBegin
  2
*D20
 70
     1
 10
0.0
 20
0.0
 30
0.0
  3
*D20
  1

  0
LINE
  5
A3F
330
9B7
100
AcDbEntity
  8
SUNPOU
100
AcDbLine
 10
306.3634540499688
 20
94.13475615931956
 30
0.0
 11
321.6272519155505
 21
94.13475615931956
 31
0.0
  0
LINE
  5
A40
330
9B7
100
AcDbEntity
  8
SUNPOU
100
AcDbLine
 10
311.3634540499688
 20
101.1347561593195
 30
0.0
 11
321.6272519155505
 21
101.1347561593195
 31
0.0
  0
LINE
  5
A41
330
9B7
100
AcDbEntity
  8
SUNPOU
100
AcDbLine
 10
319.6272519155505
 20
89.13475615931956
 30
0.0
 11
319.6272519155505
 21
84.13475615931956
 31
0.0
  0
LINE
  5
A42
330
9B7
100
AcDbEntity
  8
SUNPOU
100
AcDbLine
 10
319.6272519155505
 20
106.1347561593193
 30
0.0
 11
319.6272519155505
 21
111.1347561593194
 31
0.0
  0
MTEXT
  5
A43
330
9B7
100
AcDbEntity
  8
SUNPOU
100
AcDbMText
 10
315.1272519155505
 20
110.5189187928806
 30
0.0
 40
5.0
 41
0.0
 71
     5
 72
     1
  1
\A1;70
  7
SUNPOU
 11
0.0000000000000001
 21
1.0
 31
0.0
1001
ACAD
1000
MTEXTBEGIN
1070
    73
1070
     1
1070
    44
1040
1.0
1070
    74
1070
     0
1000
MTEXTEND
1000
MTEXTBEGIN
1070
    73
1070
     1
1070
    44
1040
1.0
1070
    74
1070
     0
1000
MTEXTEND
  0
LINE
  5
A44
330
9B7
100
AcDbEntity
  8
SUNPOU
100
AcDbLine
 10
319.6272519155505
 20
94.13475615931956
 30
0.0
 11
319.6272519155505
 21
101.1347561593195
 31
0.0
  0
INSERT
  5
A45
330
9B7
100
AcDbEntity
  8
SUNPOU
100
AcDbBlockReference
  2
_OPEN30
 10
319.6272519155505
 20
94.13475615931956
 30
0.0
 41
5.0
 42
5.0
 43
5.0
 50
90.0
  0
INSERT
  5
A46
330
9B7
100
AcDbEntity
  8
SUNPOU
100
AcDbBlockReference
  2
_OPEN30
 10
319.6272519155505
 20
101.1347561593195
 30
0.0
 41
5.0
 42
5.0
 43
5.0
 50
270.0
  0
POINT
  5
A47
330
9B7
100
AcDbEntity
  8
DEFPOINTS
 62
     0
100
AcDbPoint
 10
303.3634540499688
 20
94.13475615931956
 30
0.0
  0
POINT
  5
A48
330
9B7
100
AcDbEntity
  8
DEFPOINTS
 62
     0
100
AcDbPoint
 10
308.3634540499688
 20
101.1347561593195
 30
0.0
  0
POINT
  5
A49
330
9B7
100
AcDbEntity
  8
DEFPOINTS
 62
     0
100
AcDbPoint
 10
319.6272519155505
 20
101.1347561593195
 30
0.0
  0
ENDBLK
  5
9C4
330
9B7
100
AcDbEntity
  8
0
100
AcDbBlockEnd
  0
BLOCK
  5
9D2
330
9C6
100
AcDbEntity
  8
0
100
AcDbBlockBegin
  2
*D21
 70
     1
 10
0.0
 20
0.0
 30
0.0
  3
*D21
  1

  0
LINE
  5
A13
330
9C6
100
AcDbEntity
  8
SUNPOU
100
AcDbLine
 10
307.3634540499688
 20
93.63475615931955
 30
0.0
 11
337.9636901278328
 21
93.63475615931955
 31
0.0
  0
LINE
  5
A14
330
9C6
100
AcDbEntity
  8
SUNPOU
100
AcDbLine
 10
306.3634540499688
 20
94.13475615931956
 30
0.0
 11
337.9636901278328
 21
94.13475615931956
 31
0.0
  0
LINE
  5
A15
330
9C6
100
AcDbEntity
  8
SUNPOU
100
AcDbLine
 10
335.9636901278328
 20
88.63475615931955
 30
0.0
 11
335.9636901278328
 21
83.63475615931955
 31
0.0
  0
LINE
  5
A16
330
9C6
100
AcDbEntity
  8
SUNPOU
100
AcDbLine
 10
335.9636901278328
 20
99.13475615931956
 30
0.0
 11
335.9636901278328
 21
104.1347561593193
 31
0.0
  0
MTEXT
  5
A17
330
9C6
100
AcDbEntity
  8
SUNPOU
100
AcDbMText
 10
331.4636901278328
 20
85.76024700903962
 30
0.0
 40
5.0
 41
0.0
 71
     5
 72
     1
  1
\A1;5
  7
SUNPOU
 11
0.0000000000000001
 21
1.0
 31
0.0
1001
ACAD
1000
MTEXTBEGIN
1070
    73
1070
     1
1070
    44
1040
1.0
1070
    74
1070
     0
1000
MTEXTEND
1000
MTEXTBEGIN
1070
    73
1070
     1
1070
    44
1040
1.0
1070
    74
1070
     0
1000
MTEXTEND
  0
LINE
  5
A18
330
9C6
100
AcDbEntity
  8
SUNPOU
100
AcDbLine
 10
335.9636901278328
 20
93.63475615931955
 30
0.0
 11
335.9636901278328
 21
94.13475615931956
 31
0.0
  0
INSERT
  5
A19
330
9C6
100
AcDbEntity
  8
SUNPOU
100
AcDbBlockReference
  2
_OPEN30
 10
335.9636901278328
 20
93.63475615931955
 30
0.0
 41
5.0
 42
5.0
 43
5.0
 50
90.0
  0
INSERT
  5
A1A
330
9C6
100
AcDbEntity
  8
SUNPOU
100
AcDbBlockReference
  2
_OPEN30
 10
335.9636901278328
 20
94.13475615931956
 30
0.0
 41
5.0
 42
5.0
 43
5.0
 50
270.0
  0
POINT
  5
A1B
330
9C6
100
AcDbEntity
  8
DEFPOINTS
 62
     0
100
AcDbPoint
 10
304.3634540499688
 20
93.63475615931955
 30
0.0
  0
POINT
  5
A1C
330
9C6
100
AcDbEntity
  8
DEFPOINTS
 62
     0
100
AcDbPoint
 10
303.3634540499688
 20
94.13475615931956
 30
0.0
  0
POINT
  5
A1D
330
9C6
100
AcDbEntity
  8
DEFPOINTS
 62
     0
100
AcDbPoint
 10
335.9636901278328
 20
94.13475615931956
 30
0.0
  0
ENDBLK
  5
9D3
330
9C6
100
AcDbEntity
  8
0
100
AcDbBlockEnd
  0
BLOCK
  5
9DF
330
9D5
100
AcDbEntity
  8
0
100
AcDbBlockBegin
  2
*D22
 70
     1
 10
0.0
 20
0.0
 30
0.0
  3
*D22
  1

  0
LINE
  5
A0A
330
9D5
100
AcDbEntity
  8
SUNPOU
100
AcDbLine
 10
306.3634540499688
 20
94.13475615931956
 30
0.0
 11
337.9636901278328
 21
94.13475615931956
 31
0.0
  0
LINE
  5
A0B
330
9D5
100
AcDbEntity
  8
SUNPOU
100
AcDbLine
 10
306.3634540499688
 20
185.5347561593195
 30
0.0
 11
337.9636901278331
 21
185.5347561593195
 31
0.0
  0
LINE
  5
A0C
330
9D5
100
AcDbEntity
  8
SUNPOU
100
AcDbLine
 10
335.9636901278328
 20
99.13475615931956
 30
0.0
 11
335.9636901278331
 21
180.5347561593195
 31
0.0
  0
INSERT
  5
A0D
330
9D5
100
AcDbEntity
  8
SUNPOU
100
AcDbBlockReference
  2
_OPEN30
 10
335.9636901278328
 20
94.13475615931956
 30
0.0
 41
5.0
 42
5.0
 43
5.0
 50
270.0
  0
INSERT
  5
A0E
330
9D5
100
AcDbEntity
  8
SUNPOU
100
AcDbBlockReference
  2
_OPEN30
 10
335.9636901278331
 20
185.5347561593195
 30
0.0
 41
5.0
 42
5.0
 43
5.0
 50
90.0
  0
MTEXT
  5
A0F
330
9D5
100
AcDbEntity
  8
SUNPOU
100
AcDbMText
 10
331.4636901278328
 20
139.8347561593193
 30
0.0
 40
5.0
 41
0.0
 71
     5
 72
     1
  1
\A1;DW
  7
SUNPOU
 11
0.0000000000000001
 21
1.0
 31
0.0
1001
ACAD
1000
MTEXTBEGIN
1070
    73
1070
     1
1070
    44
1040
1.0
1070
    74
1070
     0
1000
MTEXTEND
1000
MTEXTBEGIN
1070
    73
1070
     1
1070
    44
1040
1.0
1070
    74
1070
     0
1000
MTEXTEND
  0
POINT
  5
A10
330
9D5
100
AcDbEntity
  8
DEFPOINTS
 62
     0
100
AcDbPoint
 10
303.3634540499688
 20
94.13475615931956
 30
0.0
  0
POINT
  5
A11
330
9D5
100
AcDbEntity
  8
DEFPOINTS
 62
     0
100
AcDbPoint
 10
303.3634540499688
 20
185.5347561593195
 30
0.0
  0
POINT
  5
A12
330
9D5
100
AcDbEntity
  8
DEFPOINTS
 62
     0
100
AcDbPoint
 10
335.9636901278331
 20
185.5347561593195
 30
0.0
  0
ENDBLK
  5
9E0
330
9D5
100
AcDbEntity
  8
0
100
AcDbBlockEnd
  0
BLOCK
  5
9EE
330
9E2
100
AcDbEntity
  8
0
100
AcDbBlockBegin
  2
*D23
 70
     1
 10
0.0
 20
0.0
 30
0.0
  3
*D23
  1

  0
LINE
  5
9F0
330
9E2
100
AcDbEntity
  8
SUNPOU
100
AcDbLine
 10
306.3634540499688
 20
185.5347561593195
 30
0.0
 11
337.9636901278331
 21
185.5347561593195
 31
0.0
  0
LINE
  5
9F1
330
9E2
100
AcDbEntity
  8
SUNPOU
100
AcDbLine
 10
307.3634540499688
 20
186.0347561593195
 30
0.0
 11
337.9636901278331
 21
186.0347561593195
 31
0.0
  0
LINE
  5
9F2
330
9E2
100
AcDbEntity
  8
SUNPOU
100
AcDbLine
 10
335.9636901278331
 20
180.5347561593195
 30
0.0
 11
335.9636901278331
 21
175.5347561593195
 31
0.0
  0
LINE
  5
9F3
330
9E2
100
AcDbEntity
  8
SUNPOU
100
AcDbLine
 10
335.9636901278331
 20
191.0347561593195
 30
0.0
 11
335.9636901278331
 21
196.0347561593195
 31
0.0
  0
MTEXT
  5
9F4
330
9E2
100
AcDbEntity
  8
SUNPOU
100
AcDbMText
 10
331.4636901278328
 20
194.1023492168233
 30
0.0
 40
5.0
 41
0.0
 71
     5
 72
     1
  1
\A1;5
  7
SUNPOU
 11
0.0000000000000001
 21
1.0
 31
0.0
1001
ACAD
1000
MTEXTBEGIN
1070
    73
1070
     1
1070
    44
1040
1.0
1070
    74
1070
     0
1000
MTEXTEND
1000
MTEXTBEGIN
1070
    73
1070
     1
1070
    44
1040
1.0
1070
    74
1070
     0
1000
MTEXTEND
  0
LINE
  5
9F5
330
9E2
100
AcDbEntity
  8
SUNPOU
100
AcDbLine
 10
335.9636901278331
 20
185.5347561593195
 30
0.0
 11
335.9636901278331
 21
186.0347561593195
 31
0.0
  0
INSERT
  5
9F6
330
9E2
100
AcDbEntity
  8
SUNPOU
100
AcDbBlockReference
  2
_OPEN30
 10
335.9636901278331
 20
185.5347561593195
 30
0.0
 41
5.0
 42
5.0
 43
5.0
 50
90.0
  0
INSERT
  5
9F7
330
9E2
100
AcDbEntity
  8
SUNPOU
100
AcDbBlockReference
  2
_OPEN30
 10
335.9636901278331
 20
186.0347561593195
 30
0.0
 41
5.0
 42
5.0
 43
5.0
 50
270.0
  0
POINT
  5
9F8
330
9E2
100
AcDbEntity
  8
DEFPOINTS
 62
     0
100
AcDbPoint
 10
303.3634540499688
 20
185.5347561593195
 30
0.0
  0
POINT
  5
9F9
330
9E2
100
AcDbEntity
  8
DEFPOINTS
 62
     0
100
AcDbPoint
 10
304.3634540499688
 20
186.0347561593195
 30
0.0
  0
POINT
  5
9FA
330
9E2
100
AcDbEntity
  8
DEFPOINTS
 62
     0
100
AcDbPoint
 10
335.9636901278331
 20
186.0347561593195
 30
0.0
  0
ENDBLK
  5
9EF
330
9E2
100
AcDbEntity
  8
0
100
AcDbBlockEnd
  0
BLOCK
  5
A08
330
9FC
100
AcDbEntity
  8
0
100
AcDbBlockBegin
  2
*D24
 70
     1
 10
0.0
 20
0.0
 30
0.0
  3
*D24
  1

  0
LINE
  5
A29
330
9FC
100
AcDbEntity
  8
SUNPOU
100
AcDbLine
 10
312.0634540499688
 20
176.5347561593195
 30
0.0
 11
321.6272519155505
 21
176.5347561593195
 31
0.0
  0
LINE
  5
A2A
330
9FC
100
AcDbEntity
  8
SUNPOU
100
AcDbLine
 10
306.3634540499688
 20
185.5347561593195
 30
0.0
 11
321.6272519155505
 21
185.5347561593195
 31
0.0
  0
LINE
  5
A2B
330
9FC
100
AcDbEntity
  8
SUNPOU
100
AcDbLine
 10
319.6272519155505
 20
171.5347561593195
 30
0.0
 11
319.6272519155505
 21
166.5347561593194
 31
0.0
  0
LINE
  5
A2C
330
9FC
100
AcDbEntity
  8
SUNPOU
100
AcDbLine
 10
319.6272519155505
 20
190.5347561593194
 30
0.0
 11
319.6272519155505
 21
195.5347561593194
 31
0.0
  0
MTEXT
  5
A2D
330
9FC
100
AcDbEntity
  8
SUNPOU
100
AcDbMText
 10
315.1272519155505
 20
167.2162788933847
 30
0.0
 40
5.0
 41
0.0
 71
     5
 72
     1
  1
\A1;90
  7
SUNPOU
 11
0.0000000000000001
 21
1.0
 31
0.0
1001
ACAD
1000
MTEXTBEGIN
1070
    73
1070
     1
1070
    44
1040
1.0
1070
    74
1070
     0
1000
MTEXTEND
1000
MTEXTBEGIN
1070
    73
1070
     1
1070
    44
1040
1.0
1070
    74
1070
     0
1000
MTEXTEND
  0
LINE
  5
A2E
330
9FC
100
AcDbEntity
  8
SUNPOU
100
AcDbLine
 10
319.6272519155505
 20
176.5347561593195
 30
0.0
 11
319.6272519155505
 21
185.5347561593195
 31
0.0
  0
INSERT
  5
A2F
330
9FC
100
AcDbEntity
  8
SUNPOU
100
AcDbBlockReference
  2
_OPEN30
 10
319.6272519155505
 20
176.5347561593195
 30
0.0
 41
5.0
 42
5.0
 43
5.0
 50
90.0
  0
INSERT
  5
A30
330
9FC
100
AcDbEntity
  8
SUNPOU
100
AcDbBlockReference
  2
_OPEN30
 10
319.6272519155505
 20
185.5347561593195
 30
0.0
 41
5.0
 42
5.0
 43
5.0
 50
270.0
  0
POINT
  5
A31
330
9FC
100
AcDbEntity
  8
DEFPOINTS
 62
     0
100
AcDbPoint
 10
309.0634540499688
 20
176.5347561593195
 30
0.0
  0
POINT
  5
A32
330
9FC
100
AcDbEntity
  8
DEFPOINTS
 62
     0
100
AcDbPoint
 10
303.3634540499688
 20
185.5347561593195
 30
0.0
  0
POINT
  5
A33
330
9FC
100
AcDbEntity
  8
DEFPOINTS
 62
     0
100
AcDbPoint
 10
319.6272519155505
 20
185.5347561593195
 30
0.0
  0
ENDBLK
  5
A09
330
9FC
100
AcDbEntity
  8
0
100
AcDbBlockEnd
  0
BLOCK
  5
B2A
330
B28
100
AcDbEntity
  8
0
100
AcDbBlockBegin
  2
_DOTSMALL
 70
     0
 10
0.0
 20
0.0
 30
0.0
  3
_DOTSMALL
  1

  0
POLYLINE
  5
B29
330
B28
100
AcDbEntity
  8
0
  6
BYBLOCK
 62
     0
100
AcDb2dPolyline
 66
     1
 10
0.0
 20
0.0
 30
0.0
 70
     1
 40
0.5
 41
0.5
  0
VERTEX
  5
FB6
330
B29
100
AcDbEntity
  8
0
  6
BYBLOCK
 62
     0
100
AcDbVertex
100
AcDb2dVertex
 10
-0.0625
 20
0.0
 30
0.0
 42
1.0
  0
VERTEX
  5
FB7
330
B29
100
AcDbEntity
  8
0
  6
BYBLOCK
 62
     0
100
AcDbVertex
100
AcDb2dVertex
 10
0.0625
 20
0.0
 30
0.0
 42
1.0
  0
SEQEND
  5
FB8
330
B29
100
AcDbEntity
  8
0
  6
BYBLOCK
 62
     0
  0
ENDBLK
  5
B2B
330
B28
100
AcDbEntity
  8
0
100
AcDbBlockEnd
  0
ENDSEC
  0
SECTION
  2
ENTITIES
  0
CIRCLE
  5
16C
330
A
100
AcDbEntity
  8
03
100
AcDbCircle
 10
300.3634540499688
 20
179.2347561593194
 30
0.0
 40
1.5
  0
CIRCLE
  5
16D
330
A
100
AcDbEntity
  8
03
100
AcDbCircle
 10
300.3634540499688
 20
179.2347561593194
 30
0.0
 40
2.0
  0
ARC
  5
1B4
330
A
100
AcDbEntity
  8
04
100
AcDbCircle
 10
178.8391783033089
 20
552.6856384196951
 30
0.0
 40
1.0
100
AcDbArc
 50
0.0000000000001088
 51
76.75948008481305
  0
ARC
  5
1CE
330
A
100
AcDbEntity
  8
04
100
AcDbCircle
 10
148.8391783033089
 20
552.6856384196951
 30
0.0
 40
1.0
100
AcDbArc
 50
103.2405199151871
 51
180.0
  0
ARC
  5
1D8
330
A
100
AcDbEntity
  8
04
100
AcDbCircle
 10
328.8391783033088
 20
474.7696677369388
 30
0.0
 40
1.0
100
AcDbArc
 50
283.2405199151867
 51
359.9999999999998
  0
ARC
  5
1F2
330
A
100
AcDbEntity
  8
04
100
AcDbCircle
 10
298.8391783033088
 20
474.769667736939
 30
0.0
 40
1.0
100
AcDbArc
 50
179.9999999999999
 51
256.7594800848128
  0
ARC
  5
1FC
330
A
100
AcDbEntity
  8
04
100
AcDbCircle
 10
328.8391783033088
 20
464.1856384196951
 30
0.0
 40
1.0
100
AcDbArc
 50
0.0000000000001168
 51
76.75948008481305
  0
ARC
  5
216
330
A
100
AcDbEntity
  8
04
100
AcDbCircle
 10
298.8391783033088
 20
464.1856384196951
 30
0.0
 40
1.0
100
AcDbArc
 50
103.2405199151871
 51
180.0
  0
ARC
  5
220
330
A
100
AcDbEntity
  8
04
100
AcDbCircle
 10
178.8391783033089
 20
386.2696677369388
 30
0.0
 40
1.0
100
AcDbArc
 50
283.2405199151867
 51
359.9999999999998
  0
ARC
  5
238
330
A
100
AcDbEntity
  8
04
100
AcDbCircle
 10
148.8391783033089
 20
386.2696677369388
 30
0.0
 40
1.0
100
AcDbArc
 50
179.9999999999999
 51
256.7594800848128
  0
ARC
  5
267
330
A
100
AcDbEntity
  8
04
100
AcDbCircle
 10
278.9298816588594
 20
292.3028064992611
 30
0.0
 40
5.0
100
AcDbArc
 50
180.0
 51
270.0
  0
ARC
  5
268
330
A
100
AcDbEntity
  8
04
100
AcDbCircle
 10
278.9298816588594
 20
310.3028064992611
 30
0.0
 40
5.0
100
AcDbArc
 50
90.0
 51
180.0
  0
ARC
  5
269
330
A
100
AcDbEntity
  8
04
100
AcDbCircle
 10
355.4298816588594
 20
314.8028064992611
 30
0.0
 40
0.5
100
AcDbArc
 50
0.0
 51
90.0
  0
ARC
  5
26A
330
A
100
AcDbEntity
  8
04
100
AcDbCircle
 10
355.4298816588594
 20
287.8028064992611
 30
0.0
 40
0.5
100
AcDbArc
 50
270.0
 51
0.0
  0
ARC
  5
285
330
A
100
AcDbEntity
  8
04
100
AcDbCircle
 10
155.3539201203981
 20
310.3028064992611
 30
0.0
 40
5.0
100
AcDbArc
 50
0.0
 51
90.0
  0
ARC
  5
286
330
A
100
AcDbEntity
  8
04
100
AcDbCircle
 10
155.3539201203981
 20
292.3028064992611
 30
0.0
 40
5.0
100
AcDbArc
 50
270.0
 51
0.0
  0
ARC
  5
287
330
A
100
AcDbEntity
  8
04
100
AcDbCircle
 10
78.85392012039812
 20
287.8028064992608
 30
0.0
 40
0.5
100
AcDbArc
 50
180.0
 51
270.0
  0
ARC
  5
288
330
A
100
AcDbEntity
  8
04
100
AcDbCircle
 10
78.85392012039812
 20
314.802806499261
 30
0.0
 40
0.5
100
AcDbArc
 50
90.0
 51
180.0
  0
ARC
  5
29E
330
A
100
AcDbEntity
  8
03
100
AcDbCircle
 10
170.3391783033088
 20
553.4776530783168
 30
0.0
 40
0.5
100
AcDbArc
 50
0.0
 51
90.0
  0
ARC
  5
29F
330
A
100
AcDbEntity
  8
03
100
AcDbCircle
 10
157.3391783033089
 20
553.4776530783168
 30
0.0
 40
0.5
100
AcDbArc
 50
90.0
 51
180.0
  0
ARC
  5
2AF
330
A
100
AcDbEntity
  8
03
100
AcDbCircle
 10
155.8391783033088
 20
556.1005023719395
 30
0.0
 40
0.5
100
AcDbArc
 50
105.9453959009271
 51
180.0
  0
ARC
  5
2B0
330
A
100
AcDbEntity
  8
03
100
AcDbCircle
 10
171.8391783033089
 20
556.1005023719395
 30
0.0
 40
0.5
100
AcDbArc
 50
0.0
 51
74.05460409907354
  0
ARC
  5
2C4
330
A
100
AcDbEntity
  8
03
100
AcDbCircle
 10
320.3391783033088
 20
474.4776530783169
 30
0.0
 40
0.5
100
AcDbArc
 50
270.0
 51
0.0
  0
ARC
  5
2C5
330
A
100
AcDbEntity
  8
03
100
AcDbCircle
 10
307.3391783033088
 20
474.4776530783169
 30
0.0
 40
0.5
100
AcDbArc
 50
180.0
 51
270.0
  0
ARC
  5
2E8
330
A
100
AcDbEntity
  8
03
100
AcDbCircle
 10
320.3391783033088
 20
464.4776530783167
 30
0.0
 40
0.5
100
AcDbArc
 50
0.000000000000008
 51
90.00000000000005
  0
ARC
  5
2E9
330
A
100
AcDbEntity
  8
03
100
AcDbCircle
 10
307.3391783033088
 20
464.4776530783167
 30
0.0
 40
0.5
100
AcDbArc
 50
90.00000000000005
 51
180.0
  0
ARC
  5
2F9
330
A
100
AcDbEntity
  8
03
100
AcDbCircle
 10
305.8391783033088
 20
467.1005023719398
 30
0.0
 40
0.5
100
AcDbArc
 50
105.9453959009244
 51
180.0
  0
ARC
  5
2FA
330
A
100
AcDbEntity
  8
03
100
AcDbCircle
 10
305.8391783033088
 20
471.8548037846942
 30
0.0
 40
0.5
100
AcDbArc
 50
180.0
 51
254.054604099076
  0
ARC
  5
2FB
330
A
100
AcDbEntity
  8
03
100
AcDbCircle
 10
321.8391783033088
 20
471.8548037846942
 30
0.0
 40
0.5
100
AcDbArc
 50
285.9453959009229
 51
0.0
  0
ARC
  5
2FC
330
A
100
AcDbEntity
  8
03
100
AcDbCircle
 10
321.8391783033088
 20
467.1005023719397
 30
0.0
 40
0.5
100
AcDbArc
 50
0.0
 51
74.05460409907869
  0
ARC
  5
30E
330
A
100
AcDbEntity
  8
03
100
AcDbCircle
 10
170.3391783033088
 20
385.4776530783169
 30
0.0
 40
0.5
100
AcDbArc
 50
270.0
 51
0.0
  0
ARC
  5
30F
330
A
100
AcDbEntity
  8
03
100
AcDbCircle
 10
157.3391783033088
 20
385.4776530783169
 30
0.0
 40
0.5
100
AcDbArc
 50
180.0
 51
270.0
  0
ARC
  5
31F
330
A
100
AcDbEntity
  8
03
100
AcDbCircle
 10
155.8391783033087
 20
382.8548037846942
 30
0.0
 40
0.5
100
AcDbArc
 50
180.0
 51
254.0546040990725
  0
ARC
  5
320
330
A
100
AcDbEntity
  8
03
100
AcDbCircle
 10
171.8391783033089
 20
382.8548037846942
 30
0.0
 40
0.5
100
AcDbArc
 50
285.9453959009263
 51
0.0
  0
ARC
  5
337
330
A
100
AcDbEntity
  8
03
100
AcDbCircle
 10
362.9298816588594
 20
330.3028064992612
 30
0.0
 40
2.0
100
AcDbArc
 50
90.0
 51
180.0
  0
ARC
  5
338
330
A
100
AcDbEntity
  8
03
100
AcDbCircle
 10
362.9298816588594
 20
272.3028064992615
 30
0.0
 40
2.0
100
AcDbArc
 50
180.0
 51
269.9999999999999
  0
ARC
  5
339
330
A
100
AcDbEntity
  8
03
100
AcDbCircle
 10
360.9298816588594
 20
288.3028064992613
 30
0.0
 40
2.0
100
AcDbArc
 50
180.0
 51
269.9999999999999
  0
ARC
  5
33A
330
A
100
AcDbEntity
  8
03
100
AcDbCircle
 10
360.9298816588594
 20
314.3028064992613
 30
0.0
 40
2.0
100
AcDbArc
 50
90.0
 51
180.0
  0
ARC
  5
366
330
A
100
AcDbEntity
  8
04
100
AcDbCircle
 10
148.3391783033088
 20
541.977653078317
 30
0.0
 40
0.5
100
AcDbArc
 50
180.0
 51
270.0
  0
ARC
  5
367
330
A
100
AcDbEntity
  8
04
100
AcDbCircle
 10
179.3391783033088
 20
541.977653078317
 30
0.0
 40
0.5
100
AcDbArc
 50
270.0
 51
0.0
  0
ARC
  5
36C
330
A
100
AcDbEntity
  8
04
100
AcDbCircle
 10
298.339178303309
 20
453.4776530783169
 30
0.0
 40
0.5
100
AcDbArc
 50
180.0
 51
270.0
  0
ARC
  5
36D
330
A
100
AcDbEntity
  8
04
100
AcDbCircle
 10
329.339178303309
 20
453.4776530783169
 30
0.0
 40
0.5
100
AcDbArc
 50
270.0
 51
0.0
  0
ARC
  5
36E
330
A
100
AcDbEntity
  8
04
100
AcDbCircle
 10
329.339178303309
 20
485.4776530783167
 30
0.0
 40
0.5
100
AcDbArc
 50
0.0
 51
90.0
  0
ARC
  5
36F
330
A
100
AcDbEntity
  8
04
100
AcDbCircle
 10
298.339178303309
 20
485.4776530783167
 30
0.0
 40
0.5
100
AcDbArc
 50
90.0
 51
180.0
  0
ARC
  5
372
330
A
100
AcDbEntity
  8
04
100
AcDbCircle
 10
148.3391783033088
 20
396.9776530783168
 30
0.0
 40
0.5
100
AcDbArc
 50
90.0
 51
180.0
  0
ARC
  5
373
330
A
100
AcDbEntity
  8
04
100
AcDbCircle
 10
179.3391783033088
 20
396.9776530783168
 30
0.0
 40
0.5
100
AcDbArc
 50
0.0
 51
90.0
  0
CIRCLE
  5
381
330
A
100
AcDbEntity
  8
SOUZOU
100
AcDbCircle
 10
163.8391783033088
 20
453.4776530783169
 30
0.0
 40
6.350000000000001
  0
TEXT
  5
39B
330
A
100
AcDbEntity
  8
MOJI
100
AcDbText
 10
383.8700492249781
 20
284.7102716649293
 30
0.0
 40
6.0
  1
フロアヒンジ
 50
90.0
 41
0.8
  7
0_8
 72
     2
 11
383.8700492249781
 21
317.6702716649293
 31
0.0
100
AcDbText
 73
     1
  0
TEXT
  5
3A2
330
A
100
AcDbEntity
  8
MOJI
100
AcDbText
 10
65.46276314473804
 20
281.292604895868
 30
0.0
 40
6.0
  1
トップピボット
 50
90.0
 41
0.8
  7
0_8
 72
     2
 11
65.46276314473804
 21
319.372604895868
 31
0.0
100
AcDbText
 73
     1
  0
LINE
  5
460
330
A
100
AcDbEntity
  8
04
100
AcDbLine
 10
295.1634540499687
 20
184.1347561593194
 30
0.0
 11
295.1634540499686
 21
95.53475615931956
 31
0.0
  0
LINE
  5
461
330
A
100
AcDbEntity
  8
04
100
AcDbLine
 10
98.16345404996894
 20
184.1347561593194
 30
0.0
 11
98.16345404996894
 21
95.53475615931956
 31
0.0
  0
LINE
  5
462
330
A
100
AcDbEntity
  8
04
100
AcDbLine
 10
89.96345404996892
 20
184.1347561593194
 30
0.0
 11
303.3634540499688
 21
184.1347561593194
 31
0.0
  0
LINE
  5
463
330
A
100
AcDbEntity
  8
04
100
AcDbLine
 10
89.96345404996892
 20
95.53475615931956
 30
0.0
 11
303.3634540499688
 21
95.53475615931956
 31
0.0
  0
LINE
  5
464
330
A
100
AcDbEntity
  8
04
100
AcDbLine
 10
303.3634540499688
 20
185.5347561593195
 30
0.0
 11
89.96345404996892
 21
185.5347561593195
 31
0.0
  0
LINE
  5
465
330
A
100
AcDbEntity
  8
04
100
AcDbLine
 10
89.96345404996892
 20
94.13475615931956
 30
0.0
 11
303.3634540499688
 21
94.13475615931956
 31
0.0
  0
LINE
  5
466
330
A
100
AcDbEntity
  8
04
100
AcDbLine
 10
89.96345404996892
 20
185.5347561593195
 30
0.0
 11
89.96345404996892
 21
94.13475615931956
 31
0.0
  0
LINE
  5
467
330
A
100
AcDbEntity
  8
04
100
AcDbLine
 10
303.3634540499688
 20
94.13475615931956
 30
0.0
 11
303.3634540499688
 21
185.5347561593195
 31
0.0
  0
LINE
  5
4DE
330
A
100
AcDbEntity
  8
SOUZOU
100
AcDbLine
 10
278.2178777518379
 20
163.9948716827575
 30
0.0
 11
303.3634540499688
 21
185.5347561593195
 31
0.0
  0
LINE
  5
4DF
330
A
100
AcDbEntity
  8
SOUZOU
100
AcDbLine
 10
196.6634540499689
 20
94.13475615931956
 30
0.0
 11
264.7461624047469
 21
152.4549018352959
 31
0.0
  0
LINE
  5
4E0
330
A
100
AcDbEntity
  8
SOUZOU
100
AcDbLine
 10
89.96345404996892
 20
185.5347561593195
 30
0.0
 11
196.6634540499689
 21
94.13475615931956
 31
0.0
  0
LINE
  5
4E1
330
A
100
AcDbEntity
  8
KAKURE
100
AcDbLine
 10
308.3634540499688
 20
101.1347561593195
 30
0.0
 11
288.3634540499688
 21
101.1347561593195
 31
0.0
  0
LINE
  5
4E2
330
A
100
AcDbEntity
  8
KAKURE
100
AcDbLine
 10
84.96345404996892
 20
101.1347561593195
 30
0.0
 11
104.9634540499689
 21
101.1347561593195
 31
0.0
  0
LINE
  5
4E3
330
A
100
AcDbEntity
  8
CHUSIN
100
AcDbLine
 10
145.4768228245479
 20
453.4776530783169
 30
0.0
 11
182.0204778058195
 21
453.4776530783169
 31
0.0
  0
LINE
  5
4E4
330
A
100
AcDbEntity
  8
04
100
AcDbLine
 10
148.3391783033088
 20
397.4776530783169
 30
0.0
 11
149.8391783033089
 21
397.4776530783169
 31
0.0
  0
LINE
  5
4E5
330
A
100
AcDbEntity
  8
04
100
AcDbLine
 10
179.3391783033088
 20
397.4776530783169
 30
0.0
 11
177.8391783033089
 21
397.4776530783169
 31
0.0
  0
LINE
  5
4E6
330
A
100
AcDbEntity
  8
04
100
AcDbLine
 10
298.339178303309
 20
452.9776530783169
 30
0.0
 11
299.8391783033088
 21
452.9776530783169
 31
0.0
  0
LINE
  5
4E7
330
A
100
AcDbEntity
  8
04
100
AcDbLine
 10
329.339178303309
 20
452.9776530783169
 30
0.0
 11
327.8391783033088
 21
452.9776530783169
 31
0.0
  0
LINE
  5
4E8
330
A
100
AcDbEntity
  8
04
100
AcDbLine
 10
327.8391783033088
 20
485.9776530783169
 30
0.0
 11
329.339178303309
 21
485.9776530783169
 31
0.0
  0
LINE
  5
4E9
330
A
100
AcDbEntity
  8
04
100
AcDbLine
 10
298.339178303309
 20
485.9776530783169
 30
0.0
 11
299.8391783033088
 21
485.9776530783169
 31
0.0
  0
LINE
  5
4EA
330
A
100
AcDbEntity
  8
04
100
AcDbLine
 10
148.3391783033088
 20
541.4776530783171
 30
0.0
 11
149.8391783033089
 21
541.4776530783171
 31
0.0
  0
LINE
  5
4EB
330
A
100
AcDbEntity
  8
04
100
AcDbLine
 10
179.3391783033088
 20
541.4776530783171
 30
0.0
 11
177.8391783033089
 21
541.4776530783171
 31
0.0
  0
LINE
  5
4EC
330
A
100
AcDbEntity
  8
SOUZOU
100
AcDbLine
 10
291.4995030472157
 20
469.4776530783169
 30
0.0
 11
338.9937884873454
 21
469.4776530783169
 31
0.0
  0
LINE
  5
4ED
330
A
100
AcDbEntity
  8
02
100
AcDbLine
 10
317.3391783033088
 20
457.977653078317
 30
0.0
 11
317.3391783033088
 21
399.4776530783169
 31
0.0
  0
LINE
  5
4EE
330
A
100
AcDbEntity
  8
02
100
AcDbLine
 10
310.3391783033088
 20
457.977653078317
 30
0.0
 11
310.3391783033088
 21
399.4776530783169
 31
0.0
  0
LINE
  5
4EF
330
A
100
AcDbEntity
  8
02
100
AcDbLine
 10
317.3391783033088
 20
480.9776530783167
 30
0.0
 11
317.3391783033088
 21
539.4776530783168
 31
0.0
  0
LINE
  5
4F0
330
A
100
AcDbEntity
  8
02
100
AcDbLine
 10
310.3391783033088
 20
480.9776530783167
 30
0.0
 11
310.3391783033088
 21
539.4776530783168
 31
0.0
  0
LINE
  5
4F1
330
A
100
AcDbEntity
  8
02
100
AcDbLine
 10
167.3391783033089
 20
486.9776530783169
 30
0.0
 11
167.3391783033089
 21
546.4776530783168
 31
0.0
  0
LINE
  5
4F2
330
A
100
AcDbEntity
  8
02
100
AcDbLine
 10
167.3391783033089
 20
392.4776530783169
 30
0.0
 11
167.3391783033089
 21
481.9776530783169
 31
0.0
  0
LINE
  5
4F3
330
A
100
AcDbEntity
  8
02
100
AcDbLine
 10
160.3391783033089
 20
486.9776530783169
 30
0.0
 11
160.3391783033089
 21
546.4776530783168
 31
0.0
  0
LINE
  5
4F4
330
A
100
AcDbEntity
  8
02
100
AcDbLine
 10
160.3391783033089
 20
392.4776530783169
 30
0.0
 11
160.3391783033089
 21
481.9776530783169
 31
0.0
  0
LINE
  5
4F5
330
A
100
AcDbEntity
  8
SOUZOU
100
AcDbLine
 10
113.8391783033089
 20
558.477653078317
 30
0.0
 11
213.8391783033088
 21
558.477653078317
 31
0.0
  0
LINE
  5
4F6
330
A
100
AcDbEntity
  8
SOUZOU
 48
0.5
100
AcDbLine
 10
213.8391783033088
 20
567.8801810574944
 30
0.0
 11
213.8391783033088
 21
558.477653078317
 31
0.0
  0
LINE
  5
4F7
330
A
100
AcDbEntity
  8
SOUZOU
 48
0.5
100
AcDbLine
 10
113.8391783033089
 20
567.8801810574944
 30
0.0
 11
113.8391783033089
 21
558.477653078317
 31
0.0
  0
LINE
  5
4F8
330
A
100
AcDbEntity
  8
SOUZOU
 48
0.4
100
AcDbLine
 10
211.8391783033088
 20
560.4776530783168
 30
0.0
 11
211.8391783033088
 21
567.8801810574944
 31
0.0
  0
LINE
  5
4F9
330
A
100
AcDbEntity
  8
SOUZOU
100
AcDbLine
 10
115.8391783033089
 20
560.4776530783168
 30
0.0
 11
211.8391783033088
 21
560.4776530783168
 31
0.0
  0
LINE
  5
4FA
330
A
100
AcDbEntity
  8
SOUZOU
 48
0.4
100
AcDbLine
 10
115.8391783033089
 20
567.8801810574944
 30
0.0
 11
115.8391783033089
 21
560.4776530783168
 31
0.0
  0
LINE
  5
4FB
330
A
100
AcDbEntity
  8
SOUZOU
 48
0.4
100
AcDbLine
 10
211.8391783033088
 20
378.4776530783169
 30
0.0
 11
211.8391783033088
 21
371.0751250991394
 31
0.0
  0
LINE
  5
4FC
330
A
100
AcDbEntity
  8
SOUZOU
100
AcDbLine
 10
115.8391783033089
 20
378.477653078317
 30
0.0
 11
211.8391783033088
 21
378.4776530783169
 31
0.0
  0
LINE
  5
4FD
330
A
100
AcDbEntity
  8
SOUZOU
 48
0.4
100
AcDbLine
 10
115.8391783033089
 20
371.0751250991394
 30
0.0
 11
115.8391783033089
 21
378.477653078317
 31
0.0
  0
LINE
  5
4FE
330
A
100
AcDbEntity
  8
SOUZOU
100
AcDbLine
 10
113.8391783033089
 20
380.477653078317
 30
0.0
 11
213.8391783033088
 21
380.4776530783168
 31
0.0
  0
LINE
  5
4FF
330
A
100
AcDbEntity
  8
SOUZOU
 48
0.5
100
AcDbLine
 10
213.8391783033088
 20
371.0751250991394
 30
0.0
 11
213.8391783033088
 21
380.4776530783168
 31
0.0
  0
LINE
  5
500
330
A
100
AcDbEntity
  8
SOUZOU
 48
0.5
100
AcDbLine
 10
113.8391783033089
 20
371.0751250991394
 30
0.0
 11
113.8391783033089
 21
380.477653078317
 31
0.0
  0
LINE
  5
501
330
A
100
AcDbEntity
  8
KAKURE
100
AcDbLine
 10
367.4298816588594
 20
381.3028064992614
 30
0.0
 11
389.5600337623971
 21
381.3028064992614
 31
0.0
  0
LINE
  5
502
330
A
100
AcDbEntity
  8
KAKURE
100
AcDbLine
 10
389.5600337623971
 20
221.3028064992613
 30
0.0
 11
367.4298816588594
 21
221.3028064992613
 31
0.0
  0
LINE
  5
503
330
A
100
AcDbEntity
  8
KAKURE
100
AcDbLine
 10
367.4298816588594
 20
211.3028064992614
 30
0.0
 11
365.9298816588594
 21
211.3028064992614
 31
0.0
  0
LINE
  5
504
330
A
100
AcDbEntity
  8
KAKURE
100
AcDbLine
 10
367.4298816588594
 20
391.3028064992614
 30
0.0
 11
367.4298816588594
 21
211.3028064992614
 31
0.0
  0
LINE
  5
505
330
A
100
AcDbEntity
  8
KAKURE
100
AcDbLine
 10
365.9298816588594
 20
391.3028064992614
 30
0.0
 11
367.4298816588594
 21
391.3028064992614
 31
0.0
  0
LINE
  5
506
330
A
100
AcDbEntity
  8
KAKURE
100
AcDbLine
 10
67.63292738980837
 20
314.2028064992611
 30
0.0
 11
75.35392012039804
 21
314.2028064992611
 31
0.0
  0
LINE
  5
507
330
A
100
AcDbEntity
  8
KAKURE
100
AcDbLine
 10
35.35392012039803
 20
314.2028064992611
 30
0.0
 11
57.67492000874657
 21
314.2028064992611
 31
0.0
  0
LINE
  5
508
330
A
100
AcDbEntity
  8
KAKURE
100
AcDbLine
 10
57.67492000874657
 20
288.2028064992611
 30
0.0
 11
35.35392012039803
 21
288.2028064992611
 31
0.0
  0
LINE
  5
509
330
A
100
AcDbEntity
  8
KAKURE
100
AcDbLine
 10
75.35392012039804
 20
288.2028064992611
 30
0.0
 11
67.63292738980837
 21
288.2028064992611
 31
0.0
  0
LINE
  5
50A
330
A
100
AcDbEntity
  8
KAKURE
100
AcDbLine
 10
35.35392012039803
 20
288.2028064992611
 30
0.0
 11
35.35392012039803
 21
314.2028064992611
 31
0.0
  0
LINE
  5
50B
330
A
100
AcDbEntity
  8
KAKURE
100
AcDbLine
 10
75.35392012039804
 20
317.3028064992611
 30
0.0
 11
75.35392012039804
 21
287.3028064992611
 31
0.0
  0
LINE
  5
50C
330
A
100
AcDbEntity
  8
KAKURE
100
AcDbLine
 10
35.35392012039803
 20
336.2557808124821
 30
0.0
 11
75.35392012039804
 21
336.2557808124821
 31
0.0
  0
LINE
  5
50D
330
A
100
AcDbEntity
  8
KAKURE
100
AcDbLine
 10
75.35392012039804
 20
266.255780812482
 30
0.0
 11
35.35392012039803
 21
266.255780812482
 31
0.0
  0
LINE
  5
50E
330
A
100
AcDbEntity
  8
03
100
AcDbLine
 10
223.953127601933
 20
336.3028064992612
 30
0.0
 11
365.9298816588594
 21
336.3028064992612
 31
0.0
  0
LINE
  5
50F
330
A
100
AcDbEntity
  8
03
100
AcDbLine
 10
253.8391783033091
 20
481.9776530783169
 30
0.0
 11
253.8391783033091
 21
380.477653078317
 31
0.0
  0
LINE
  5
510
330
A
100
AcDbEntity
  8
03
100
AcDbLine
 10
73.83917830330895
 20
380.477653078317
 30
0.0
 11
73.83917830330895
 21
481.9776530783169
 31
0.0
  0
LINE
  5
511
330
A
100
AcDbEntity
  8
03
100
AcDbLine
 10
253.8391783033091
 20
380.477653078317
 30
0.0
 11
73.83917830330895
 21
380.477653078317
 31
0.0
  0
LINE
  5
512
330
A
100
AcDbEntity
  8
03
100
AcDbLine
 10
358.9298816588594
 20
296.3028064992613
 30
0.0
 11
355.9298816588594
 21
296.3028064992608
 31
0.0
  0
LINE
  5
513
330
A
100
AcDbEntity
  8
03
100
AcDbLine
 10
355.9298816588594
 20
306.3028064992608
 30
0.0
 11
358.9298816588594
 21
306.3028064992613
 31
0.0
  0
LINE
  5
514
330
A
100
AcDbEntity
  8
03
100
AcDbLine
 10
223.953127601933
 20
266.3028064992614
 30
0.0
 11
365.9298816588594
 21
266.3028064992614
 31
0.0
  0
LINE
  5
515
330
A
100
AcDbEntity
  8
03
100
AcDbLine
 10
360.9298816588594
 20
330.3028064992612
 30
0.0
 11
360.9298816588594
 21
272.3028064992615
 31
0.0
  0
LINE
  5
516
330
A
100
AcDbEntity
  8
03
100
AcDbLine
 10
365.9298816588594
 20
270.3028064992614
 30
0.0
 11
362.9298816588594
 21
270.3028064992615
 31
0.0
  0
LINE
  5
517
330
A
100
AcDbEntity
  8
03
100
AcDbLine
 10
362.9298816588594
 20
332.3028064992612
 30
0.0
 11
365.9298816588594
 21
332.3028064992612
 31
0.0
  0
LINE
  5
518
330
A
100
AcDbEntity
  8
03
100
AcDbLine
 10
358.9298816588594
 20
288.3028064992613
 30
0.0
 11
358.9298816588594
 21
314.3028064992613
 31
0.0
  0
LINE
  5
519
330
A
100
AcDbEntity
  8
03
100
AcDbLine
 10
365.9298816588594
 20
408.0728391191156
 30
0.0
 11
365.9298816588594
 21
201.3685456298998
 31
0.0
  0
LINE
  5
51A
330
A
100
AcDbEntity
  8
03
100
AcDbLine
 10
76.35392012039805
 20
295.0528064992612
 30
0.0
 11
78.35392012039806
 21
295.0528064992612
 31
0.0
  0
LINE
  5
51B
330
A
100
AcDbEntity
  8
03
100
AcDbLine
 10
78.35392012039806
 20
307.5528064992611
 30
0.0
 11
76.35392012039805
 21
307.552806499261
 31
0.0
  0
LINE
  5
51C
330
A
100
AcDbEntity
  8
03
100
AcDbLine
 10
76.35392012039805
 20
286.2028064992611
 30
0.0
 11
75.35392012039804
 21
286.2028064992611
 31
0.0
  0
LINE
  5
51D
330
A
100
AcDbEntity
  8
03
100
AcDbLine
 10
76.35392012039805
 20
316.2028064992611
 30
0.0
 11
76.35392012039805
 21
286.2028064992611
 31
0.0
  0
LINE
  5
51E
330
A
100
AcDbEntity
  8
03
100
AcDbLine
 10
75.35392012039804
 20
316.2028064992611
 30
0.0
 11
76.35392012039805
 21
316.2028064992606
 31
0.0
  0
LINE
  5
51F
330
A
100
AcDbEntity
  8
03
100
AcDbLine
 10
75.35392012039804
 20
336.2557808124821
 30
0.0
 11
218.9531276019331
 21
336.2557808124821
 31
0.0
  0
LINE
  5
520
330
A
100
AcDbEntity
  8
03
100
AcDbLine
 10
75.35392012039804
 20
346.5612998522895
 30
0.0
 11
75.35392012039804
 21
253.597987330632
 31
0.0
  0
LINE
  5
521
330
A
100
AcDbEntity
  8
03
100
AcDbLine
 10
75.35392012039804
 20
266.255780812482
 30
0.0
 11
218.9531276019331
 21
266.255780812482
 31
0.0
  0
LINE
  5
522
330
A
100
AcDbEntity
  8
03
100
AcDbLine
 10
57.66345404996894
 20
189.0347561593195
 30
0.0
 11
57.66345404996892
 21
90.63475615931954
 31
0.0
  0
LINE
  5
523
330
A
100
AcDbEntity
  8
03
100
AcDbLine
 10
60.66345404996894
 20
186.0347561593196
 30
0.0
 11
60.66345404996892
 21
93.63475615931955
 31
0.0
  0
LINE
  5
524
330
A
100
AcDbEntity
  8
03
100
AcDbLine
 10
89.66345404996891
 20
93.63475615931955
 30
0.0
 11
89.66345404996895
 21
186.0347561593196
 31
0.0
  0
LINE
  5
525
330
A
100
AcDbEntity
  8
03
100
AcDbLine
 10
82.66345404996895
 20
186.0347561593196
 30
0.0
 11
82.66345404996892
 21
93.63475615931955
 31
0.0
  0
LINE
  5
526
330
A
100
AcDbEntity
  8
03
100
AcDbLine
 10
57.66345404996892
 20
93.63475615931955
 30
0.0
 11
304.3634540499688
 21
93.63475615931955
 31
0.0
  0
LINE
  5
527
330
A
100
AcDbEntity
  8
03
100
AcDbLine
 10
304.3634540499688
 20
90.63475615931954
 30
0.0
 11
57.66345404996892
 21
90.63475615931954
 31
0.0
  0
LINE
  5
528
330
A
100
AcDbEntity
  8
03
100
AcDbLine
 10
304.3634540499688
 20
90.63475615931954
 30
0.0
 11
304.3634540499688
 21
189.0347561593195
 31
0.0
  0
LINE
  5
529
330
A
100
AcDbEntity
  8
03
100
AcDbLine
 10
57.66345404996894
 20
189.0347561593195
 30
0.0
 11
304.3634540499688
 21
189.0347561593195
 31
0.0
  0
LINE
  5
52A
330
A
100
AcDbEntity
  8
03
100
AcDbLine
 10
304.3634540499688
 20
186.0347561593195
 30
0.0
 11
57.66345404996894
 21
186.0347561593196
 31
0.0
  0
LINE
  5
52B
330
A
100
AcDbEntity
  8
03
100
AcDbLine
 10
158.8391783033086
 20
381.4776530783169
 30
0.0
 11
155.70181773936
 21
382.3740418108736
 31
0.0
  0
LINE
  5
52C
330
A
100
AcDbEntity
  8
03
100
AcDbLine
 10
158.8391783033086
 20
382.9776530783169
 30
0.0
 11
155.3391783033086
 21
383.4776530783169
 31
0.0
  0
LINE
  5
52D
330
A
100
AcDbEntity
  8
03
100
AcDbLine
 10
155.3391783033086
 20
383.4776530783169
 30
0.0
 11
155.3391783033086
 21
382.8548037846942
 31
0.0
  0
LINE
  5
52E
330
A
100
AcDbEntity
  8
03
100
AcDbLine
 10
168.8391783033089
 20
381.4776530783169
 30
0.0
 11
171.9765388672574
 21
382.3740418108736
 31
0.0
  0
LINE
  5
52F
330
A
100
AcDbEntity
  8
03
100
AcDbLine
 10
168.8391783033089
 20
382.9776530783169
 30
0.0
 11
172.3391783033088
 21
383.4776530783169
 31
0.0
  0
LINE
  5
530
330
A
100
AcDbEntity
  8
03
100
AcDbLine
 10
172.3391783033088
 20
383.4776530783169
 30
0.0
 11
172.3391783033088
 21
382.8548037846942
 31
0.0
  0
LINE
  5
531
330
A
100
AcDbEntity
  8
03
100
AcDbLine
 10
160.8391783033088
 20
381.4776530783169
 30
0.0
 11
158.8391783033086
 21
381.4776530783169
 31
0.0
  0
LINE
  5
532
330
A
100
AcDbEntity
  8
03
100
AcDbLine
 10
168.8391783033089
 20
381.4776530783169
 30
0.0
 11
166.8391783033088
 21
381.4776530783169
 31
0.0
  0
LINE
  5
533
330
A
100
AcDbEntity
  8
03
100
AcDbLine
 10
166.8391783033088
 20
384.7776530783168
 30
0.0
 11
166.8391783033088
 21
381.4776530783169
 31
0.0
  0
LINE
  5
534
330
A
100
AcDbEntity
  8
03
100
AcDbLine
 10
160.8391783033088
 20
384.7776530783168
 30
0.0
 11
160.8391783033088
 21
381.4776530783169
 31
0.0
  0
LINE
  5
535
330
A
100
AcDbEntity
  8
03
100
AcDbLine
 10
167.6391783033089
 20
384.7776530783168
 30
0.0
 11
166.8391783033088
 21
384.7776530783168
 31
0.0
  0
LINE
  5
536
330
A
100
AcDbEntity
  8
03
100
AcDbLine
 10
160.0391783033088
 20
384.7776530783168
 30
0.0
 11
160.8391783033088
 21
384.7776530783168
 31
0.0
  0
LINE
  5
537
330
A
100
AcDbEntity
  8
03
100
AcDbLine
 10
167.6391783033089
 20
385.4776530783169
 30
0.0
 11
160.0391783033088
 21
385.4776530783169
 31
0.0
  0
LINE
  5
538
330
A
100
AcDbEntity
  8
03
100
AcDbLine
 10
160.0391783033088
 20
385.4776530783169
 30
0.0
 11
160.0391783033088
 21
384.7776530783168
 31
0.0
  0
LINE
  5
539
330
A
100
AcDbEntity
  8
03
100
AcDbLine
 10
167.6391783033089
 20
385.4776530783169
 30
0.0
 11
167.6391783033089
 21
384.7776530783168
 31
0.0
  0
LINE
  5
53A
330
A
100
AcDbEntity
  8
03
100
AcDbLine
 10
170.8391783033088
 20
386.4776530783169
 30
0.0
 11
156.8391783033088
 21
386.4776530783169
 31
0.0
  0
LINE
  5
53B
330
A
100
AcDbEntity
  8
03
100
AcDbLine
 10
170.8391783033088
 20
385.4776530783169
 30
0.0
 11
170.8391783033088
 21
386.4776530783169
 31
0.0
  0
LINE
  5
53C
330
A
100
AcDbEntity
  8
03
100
AcDbLine
 10
168.8391783033089
 20
384.9776530783169
 30
0.0
 11
170.3391783033088
 21
384.9776530783169
 31
0.0
  0
LINE
  5
53D
330
A
100
AcDbEntity
  8
03
100
AcDbLine
 10
168.8391783033089
 20
382.9776530783169
 30
0.0
 11
168.8391783033089
 21
384.9776530783169
 31
0.0
  0
LINE
  5
53E
330
A
100
AcDbEntity
  8
03
100
AcDbLine
 10
156.8391783033088
 20
385.4776530783169
 30
0.0
 11
156.8391783033088
 21
386.4776530783169
 31
0.0
  0
LINE
  5
53F
330
A
100
AcDbEntity
  8
03
100
AcDbLine
 10
158.8391783033088
 20
384.9776530783169
 30
0.0
 11
157.3391783033088
 21
384.9776530783169
 31
0.0
  0
LINE
  5
540
330
A
100
AcDbEntity
  8
03
100
AcDbLine
 10
158.8391783033088
 20
382.9776530783169
 30
0.0
 11
158.8391783033088
 21
384.9776530783169
 31
0.0
  0
LINE
  5
541
330
A
100
AcDbEntity
  8
04
100
AcDbLine
 10
163.8391783033088
 20
391.177653078317
 30
0.0
 11
164.1391783033088
 21
391.4776530783169
 31
0.0
  0
LINE
  5
542
330
A
100
AcDbEntity
  8
04
100
AcDbLine
 10
163.5391783033089
 20
391.4776530783169
 30
0.0
 11
163.8391783033088
 21
391.177653078317
 31
0.0
  0
LINE
  5
543
330
A
100
AcDbEntity
  8
04
100
AcDbLine
 10
163.8391783033088
 20
387.2776530783168
 30
0.0
 11
164.1391783033089
 21
386.9776530783169
 31
0.0
  0
LINE
  5
544
330
A
100
AcDbEntity
  8
04
100
AcDbLine
 10
163.539178303309
 20
386.9776530783169
 30
0.0
 11
163.8391783033088
 21
387.2776530783168
 31
0.0
  0
LINE
  5
545
330
A
100
AcDbEntity
  8
04
100
AcDbLine
 10
171.8391783033089
 20
392.9776530783169
 30
0.0
 11
171.8391783033089
 21
391.4776530783169
 31
0.0
  0
LINE
  5
546
330
A
100
AcDbEntity
  8
04
100
AcDbLine
 10
170.8391783033088
 20
392.9776530783169
 30
0.0
 11
171.8391783033089
 21
392.9776530783169
 31
0.0
  0
LINE
  5
547
330
A
100
AcDbEntity
  8
04
100
AcDbLine
 10
155.8391783033088
 20
392.9776530783169
 30
0.0
 11
155.8391783033088
 21
391.4776530783169
 31
0.0
  0
LINE
  5
548
330
A
100
AcDbEntity
  8
04
100
AcDbLine
 10
156.8391783033088
 20
392.9776530783169
 30
0.0
 11
155.8391783033088
 21
392.9776530783169
 31
0.0
  0
LINE
  5
549
330
A
100
AcDbEntity
  8
04
100
AcDbLine
 10
164.1391783033088
 20
391.4776530783169
 30
0.0
 11
171.8391783033089
 21
391.4776530783169
 31
0.0
  0
LINE
  5
54A
330
A
100
AcDbEntity
  8
04
100
AcDbLine
 10
155.8391783033088
 20
391.4776530783169
 30
0.0
 11
163.5391783033089
 21
391.4776530783169
 31
0.0
  0
LINE
  5
54B
330
A
100
AcDbEntity
  8
03
100
AcDbLine
 10
308.8391783033088
 20
468.4776530783167
 30
0.0
 11
305.70181773936
 21
467.5812643457602
 31
0.0
  0
LINE
  5
54C
330
A
100
AcDbEntity
  8
03
100
AcDbLine
 10
308.8391783033088
 20
466.977653078317
 30
0.0
 11
308.3391783033088
 21
466.9062245068882
 31
0.0
  0
LINE
  5
54D
330
A
100
AcDbEntity
  8
03
100
AcDbLine
 10
305.3391783033088
 20
466.7423589606698
 30
0.0
 11
305.3391783033088
 21
467.1005023719398
 31
0.0
  0
LINE
  5
54E
330
A
100
AcDbEntity
  8
03
100
AcDbLine
 10
318.839178303309
 20
468.4776530783167
 30
0.0
 11
321.9765388672576
 21
467.5812643457602
 31
0.0
  0
LINE
  5
54F
330
A
100
AcDbEntity
  8
03
100
AcDbLine
 10
318.839178303309
 20
466.977653078317
 30
0.0
 11
319.339178303309
 21
466.9062245068882
 31
0.0
  0
LINE
  5
550
330
A
100
AcDbEntity
  8
03
100
AcDbLine
 10
322.3391783033088
 20
466.7423589606698
 30
0.0
 11
322.3391783033088
 21
467.1005023719397
 31
0.0
  0
LINE
  5
551
330
A
100
AcDbEntity
  8
03
100
AcDbLine
 10
310.839178303309
 20
468.4776530783167
 30
0.0
 11
308.8391783033086
 21
468.4776530783167
 31
0.0
  0
LINE
  5
552
330
A
100
AcDbEntity
  8
03
100
AcDbLine
 10
318.839178303309
 20
468.4776530783167
 30
0.0
 11
316.839178303309
 21
468.4776530783167
 31
0.0
  0
LINE
  5
553
330
A
100
AcDbEntity
  8
03
100
AcDbLine
 10
316.839178303309
 20
465.177653078317
 30
0.0
 11
316.839178303309
 21
468.4776530783167
 31
0.0
  0
LINE
  5
554
330
A
100
AcDbEntity
  8
03
100
AcDbLine
 10
310.839178303309
 20
465.177653078317
 30
0.0
 11
310.839178303309
 21
468.4776530783167
 31
0.0
  0
LINE
  5
555
330
A
100
AcDbEntity
  8
03
100
AcDbLine
 10
317.639178303309
 20
465.177653078317
 30
0.0
 11
316.839178303309
 21
465.177653078317
 31
0.0
  0
LINE
  5
556
330
A
100
AcDbEntity
  8
03
100
AcDbLine
 10
310.0391783033088
 20
465.177653078317
 30
0.0
 11
310.839178303309
 21
465.177653078317
 31
0.0
  0
LINE
  5
557
330
A
100
AcDbEntity
  8
03
100
AcDbLine
 10
317.639178303309
 20
464.4776530783167
 30
0.0
 11
310.0391783033088
 21
464.4776530783167
 31
0.0
  0
LINE
  5
558
330
A
100
AcDbEntity
  8
03
100
AcDbLine
 10
310.0391783033088
 20
464.4776530783167
 30
0.0
 11
310.0391783033088
 21
465.177653078317
 31
0.0
  0
LINE
  5
559
330
A
100
AcDbEntity
  8
03
100
AcDbLine
 10
317.639178303309
 20
464.4776530783167
 30
0.0
 11
317.639178303309
 21
465.177653078317
 31
0.0
  0
LINE
  5
55A
330
A
100
AcDbEntity
  8
03
100
AcDbLine
 10
320.8391783033088
 20
463.4776530783168
 30
0.0
 11
306.8391783033088
 21
463.4776530783168
 31
0.0
  0
LINE
  5
55B
330
A
100
AcDbEntity
  8
03
100
AcDbLine
 10
320.8391783033088
 20
464.4776530783167
 30
0.0
 11
320.8391783033088
 21
463.4776530783168
 31
0.0
  0
LINE
  5
55C
330
A
100
AcDbEntity
  8
03
100
AcDbLine
 10
318.839178303309
 20
464.9776530783169
 30
0.0
 11
320.3391783033088
 21
464.9776530783169
 31
0.0
  0
LINE
  5
55D
330
A
100
AcDbEntity
  8
03
100
AcDbLine
 10
318.839178303309
 20
466.977653078317
 30
0.0
 11
318.839178303309
 21
464.9776530783169
 31
0.0
  0
LINE
  5
55E
330
A
100
AcDbEntity
  8
03
100
AcDbLine
 10
306.8391783033088
 20
464.4776530783167
 30
0.0
 11
306.8391783033088
 21
463.4776530783168
 31
0.0
  0
LINE
  5
55F
330
A
100
AcDbEntity
  8
03
100
AcDbLine
 10
308.8391783033088
 20
464.9776530783169
 30
0.0
 11
307.3391783033088
 21
464.9776530783169
 31
0.0
  0
LINE
  5
560
330
A
100
AcDbEntity
  8
03
100
AcDbLine
 10
308.8391783033088
 20
466.977653078317
 30
0.0
 11
308.8391783033088
 21
464.9776530783169
 31
0.0
  0
LINE
  5
561
330
A
100
AcDbEntity
  8
04
100
AcDbLine
 10
313.8391783033088
 20
459.2776530783168
 30
0.0
 11
314.1391783033089
 21
458.9776530783169
 31
0.0
  0
LINE
  5
562
330
A
100
AcDbEntity
  8
04
100
AcDbLine
 10
313.5391783033088
 20
458.9776530783169
 30
0.0
 11
313.8391783033088
 21
459.2776530783168
 31
0.0
  0
LINE
  5
563
330
A
100
AcDbEntity
  8
04
100
AcDbLine
 10
313.8391783033088
 20
463.1776530783167
 30
0.0
 11
314.1391783033089
 21
463.4776530783168
 31
0.0
  0
LINE
  5
564
330
A
100
AcDbEntity
  8
04
100
AcDbLine
 10
313.5391783033088
 20
463.4776530783168
 30
0.0
 11
313.8391783033088
 21
463.1776530783167
 31
0.0
  0
LINE
  5
565
330
A
100
AcDbEntity
  8
04
100
AcDbLine
 10
321.8391783033088
 20
457.4776530783169
 30
0.0
 11
321.8391783033088
 21
458.9776530783169
 31
0.0
  0
LINE
  5
566
330
A
100
AcDbEntity
  8
04
100
AcDbLine
 10
320.8391783033088
 20
457.4776530783169
 30
0.0
 11
321.8391783033088
 21
457.4776530783169
 31
0.0
  0
LINE
  5
567
330
A
100
AcDbEntity
  8
04
100
AcDbLine
 10
305.8391783033088
 20
457.4776530783169
 30
0.0
 11
305.8391783033088
 21
458.9776530783169
 31
0.0
  0
LINE
  5
568
330
A
100
AcDbEntity
  8
04
100
AcDbLine
 10
306.8391783033088
 20
457.4776530783169
 30
0.0
 11
305.8391783033088
 21
457.4776530783169
 31
0.0
  0
LINE
  5
569
330
A
100
AcDbEntity
  8
04
100
AcDbLine
 10
314.1391783033089
 20
458.9776530783169
 30
0.0
 11
321.8391783033088
 21
458.9776530783169
 31
0.0
  0
LINE
  5
56A
330
A
100
AcDbEntity
  8
04
100
AcDbLine
 10
305.8391783033088
 20
458.9776530783169
 30
0.0
 11
313.5391783033088
 21
458.9776530783169
 31
0.0
  0
LINE
  5
56B
330
A
100
AcDbEntity
  8
03
100
AcDbLine
 10
327.8391783033088
 20
453.977653078317
 30
0.0
 11
327.8391783033088
 21
399.4776530783169
 31
0.0
  0
LINE
  5
56C
330
A
100
AcDbEntity
  8
03
100
AcDbLine
 10
299.8391783033088
 20
453.977653078317
 30
0.0
 11
299.8391783033088
 21
399.4776530783169
 31
0.0
  0
LINE
  5
56D
330
A
100
AcDbEntity
  8
03
100
AcDbLine
 10
308.8391783033088
 20
470.477653078317
 30
0.0
 11
305.70181773936
 21
471.3740418108736
 31
0.0
  0
LINE
  5
56E
330
A
100
AcDbEntity
  8
03
100
AcDbLine
 10
308.8391783033088
 20
471.9776530783168
 30
0.0
 11
308.3391783033088
 21
472.0490816497456
 31
0.0
  0
LINE
  5
56F
330
A
100
AcDbEntity
  8
03
100
AcDbLine
 10
305.3391783033087
 20
472.2129471959641
 30
0.0
 11
305.3391783033088
 21
471.8548037846942
 31
0.0
  0
LINE
  5
570
330
A
100
AcDbEntity
  8
03
100
AcDbLine
 10
318.839178303309
 20
470.477653078317
 30
0.0
 11
321.9765388672576
 21
471.3740418108736
 31
0.0
  0
LINE
  5
571
330
A
100
AcDbEntity
  8
03
100
AcDbLine
 10
318.839178303309
 20
471.9776530783168
 30
0.0
 11
319.339178303309
 21
472.0490816497456
 31
0.0
  0
LINE
  5
572
330
A
100
AcDbEntity
  8
03
100
AcDbLine
 10
322.3391783033088
 20
472.212947195964
 30
0.0
 11
322.3391783033088
 21
471.8548037846942
 31
0.0
  0
LINE
  5
573
330
A
100
AcDbEntity
  8
03
100
AcDbLine
 10
310.839178303309
 20
470.477653078317
 30
0.0
 11
308.8391783033086
 21
470.477653078317
 31
0.0
  0
LINE
  5
574
330
A
100
AcDbEntity
  8
03
100
AcDbLine
 10
318.839178303309
 20
470.477653078317
 30
0.0
 11
316.839178303309
 21
470.477653078317
 31
0.0
  0
LINE
  5
575
330
A
100
AcDbEntity
  8
03
100
AcDbLine
 10
316.839178303309
 20
473.7776530783167
 30
0.0
 11
316.839178303309
 21
470.477653078317
 31
0.0
  0
LINE
  5
576
330
A
100
AcDbEntity
  8
03
100
AcDbLine
 10
310.839178303309
 20
473.7776530783167
 30
0.0
 11
310.839178303309
 21
470.477653078317
 31
0.0
  0
LINE
  5
577
330
A
100
AcDbEntity
  8
03
100
AcDbLine
 10
317.639178303309
 20
473.7776530783167
 30
0.0
 11
316.839178303309
 21
473.7776530783167
 31
0.0
  0
LINE
  5
578
330
A
100
AcDbEntity
  8
03
100
AcDbLine
 10
310.0391783033088
 20
473.7776530783167
 30
0.0
 11
310.839178303309
 21
473.7776530783167
 31
0.0
  0
LINE
  5
579
330
A
100
AcDbEntity
  8
03
100
AcDbLine
 10
317.639178303309
 20
474.4776530783169
 30
0.0
 11
310.0391783033088
 21
474.4776530783169
 31
0.0
  0
LINE
  5
57A
330
A
100
AcDbEntity
  8
03
100
AcDbLine
 10
310.0391783033088
 20
474.4776530783169
 30
0.0
 11
310.0391783033088
 21
473.7776530783167
 31
0.0
  0
LINE
  5
57B
330
A
100
AcDbEntity
  8
03
100
AcDbLine
 10
317.639178303309
 20
474.4776530783169
 30
0.0
 11
317.639178303309
 21
473.7776530783167
 31
0.0
  0
LINE
  5
57C
330
A
100
AcDbEntity
  8
03
100
AcDbLine
 10
320.8391783033088
 20
475.4776530783169
 30
0.0
 11
306.8391783033088
 21
475.4776530783169
 31
0.0
  0
LINE
  5
57D
330
A
100
AcDbEntity
  8
03
100
AcDbLine
 10
320.8391783033088
 20
474.4776530783169
 30
0.0
 11
320.8391783033088
 21
475.4776530783169
 31
0.0
  0
LINE
  5
57E
330
A
100
AcDbEntity
  8
03
100
AcDbLine
 10
318.839178303309
 20
473.9776530783169
 30
0.0
 11
320.3391783033088
 21
473.9776530783169
 31
0.0
  0
LINE
  5
57F
330
A
100
AcDbEntity
  8
03
100
AcDbLine
 10
318.839178303309
 20
471.9776530783168
 30
0.0
 11
318.839178303309
 21
473.9776530783169
 31
0.0
  0
LINE
  5
580
330
A
100
AcDbEntity
  8
03
100
AcDbLine
 10
306.8391783033088
 20
474.4776530783169
 30
0.0
 11
306.8391783033088
 21
475.4776530783169
 31
0.0
  0
LINE
  5
581
330
A
100
AcDbEntity
  8
03
100
AcDbLine
 10
308.8391783033088
 20
473.9776530783169
 30
0.0
 11
307.3391783033088
 21
473.9776530783169
 31
0.0
  0
LINE
  5
582
330
A
100
AcDbEntity
  8
03
100
AcDbLine
 10
308.8391783033088
 20
471.9776530783168
 30
0.0
 11
308.8391783033088
 21
473.9776530783169
 31
0.0
  0
LINE
  5
583
330
A
100
AcDbEntity
  8
04
100
AcDbLine
 10
313.8391783033088
 20
479.6776530783168
 30
0.0
 11
314.1391783033089
 21
479.9776530783169
 31
0.0
  0
LINE
  5
584
330
A
100
AcDbEntity
  8
04
100
AcDbLine
 10
313.5391783033088
 20
479.9776530783169
 30
0.0
 11
313.8391783033088
 21
479.6776530783168
 31
0.0
  0
LINE
  5
585
330
A
100
AcDbEntity
  8
04
100
AcDbLine
 10
313.8391783033088
 20
475.7776530783168
 30
0.0
 11
314.1391783033089
 21
475.4776530783169
 31
0.0
  0
LINE
  5
586
330
A
100
AcDbEntity
  8
04
100
AcDbLine
 10
313.5391783033088
 20
475.4776530783169
 30
0.0
 11
313.8391783033088
 21
475.7776530783168
 31
0.0
  0
LINE
  5
587
330
A
100
AcDbEntity
  8
04
100
AcDbLine
 10
321.8391783033088
 20
481.4776530783169
 30
0.0
 11
321.8391783033088
 21
479.9776530783169
 31
0.0
  0
LINE
  5
588
330
A
100
AcDbEntity
  8
04
100
AcDbLine
 10
320.8391783033088
 20
481.4776530783169
 30
0.0
 11
321.8391783033088
 21
481.4776530783169
 31
0.0
  0
LINE
  5
589
330
A
100
AcDbEntity
  8
04
100
AcDbLine
 10
305.8391783033088
 20
481.4776530783169
 30
0.0
 11
305.8391783033088
 21
479.9776530783169
 31
0.0
  0
LINE
  5
58A
330
A
100
AcDbEntity
  8
04
100
AcDbLine
 10
306.8391783033088
 20
481.4776530783169
 30
0.0
 11
305.8391783033088
 21
481.4776530783169
 31
0.0
  0
LINE
  5
58B
330
A
100
AcDbEntity
  8
04
100
AcDbLine
 10
314.1391783033089
 20
479.9776530783169
 30
0.0
 11
321.8391783033088
 21
479.9776530783169
 31
0.0
  0
LINE
  5
58C
330
A
100
AcDbEntity
  8
04
100
AcDbLine
 10
305.8391783033088
 20
479.9776530783169
 30
0.0
 11
313.5391783033088
 21
479.9776530783169
 31
0.0
  0
LINE
  5
58D
330
A
100
AcDbEntity
  8
03
100
AcDbLine
 10
327.8391783033088
 20
484.9776530783167
 30
0.0
 11
327.8391783033088
 21
539.4776530783168
 31
0.0
  0
LINE
  5
58E
330
A
100
AcDbEntity
  8
03
100
AcDbLine
 10
299.8391783033088
 20
484.9776530783167
 30
0.0
 11
299.8391783033088
 21
539.4776530783168
 31
0.0
  0
LINE
  5
58F
330
A
100
AcDbEntity
  8
03
100
AcDbLine
 10
158.8391783033088
 20
557.4776530783168
 30
0.0
 11
155.70181773936
 21
556.5812643457602
 31
0.0
  0
LINE
  5
590
330
A
100
AcDbEntity
  8
03
100
AcDbLine
 10
158.8391783033088
 20
555.9776530783168
 30
0.0
 11
155.3391783033088
 21
555.4776530783168
 31
0.0
  0
LINE
  5
591
330
A
100
AcDbEntity
  8
03
100
AcDbLine
 10
155.3391783033088
 20
555.4776530783168
 30
0.0
 11
155.3391783033088
 21
556.1005023719395
 31
0.0
  0
LINE
  5
592
330
A
100
AcDbEntity
  8
03
100
AcDbLine
 10
168.8391783033089
 20
557.4776530783168
 30
0.0
 11
171.9765388672574
 21
556.5812643457602
 31
0.0
  0
LINE
  5
593
330
A
100
AcDbEntity
  8
03
100
AcDbLine
 10
168.8391783033089
 20
555.9776530783168
 30
0.0
 11
172.3391783033088
 21
555.4776530783168
 31
0.0
  0
LINE
  5
594
330
A
100
AcDbEntity
  8
03
100
AcDbLine
 10
172.3391783033088
 20
555.4776530783168
 30
0.0
 11
172.3391783033088
 21
556.1005023719395
 31
0.0
  0
LINE
  5
595
330
A
100
AcDbEntity
  8
03
100
AcDbLine
 10
160.8391783033088
 20
557.4776530783168
 30
0.0
 11
158.8391783033086
 21
557.4776530783168
 31
0.0
  0
LINE
  5
596
330
A
100
AcDbEntity
  8
03
100
AcDbLine
 10
168.8391783033089
 20
557.4776530783168
 30
0.0
 11
166.8391783033088
 21
557.4776530783168
 31
0.0
  0
LINE
  5
597
330
A
100
AcDbEntity
  8
03
100
AcDbLine
 10
166.8391783033088
 20
554.1776530783169
 30
0.0
 11
166.8391783033088
 21
557.4776530783168
 31
0.0
  0
LINE
  5
598
330
A
100
AcDbEntity
  8
03
100
AcDbLine
 10
160.8391783033088
 20
554.1776530783169
 30
0.0
 11
160.8391783033088
 21
557.4776530783168
 31
0.0
  0
LINE
  5
599
330
A
100
AcDbEntity
  8
03
100
AcDbLine
 10
167.6391783033089
 20
554.1776530783169
 30
0.0
 11
166.8391783033088
 21
554.1776530783169
 31
0.0
  0
LINE
  5
59A
330
A
100
AcDbEntity
  8
03
100
AcDbLine
 10
160.0391783033088
 20
554.1776530783169
 30
0.0
 11
160.8391783033088
 21
554.1776530783169
 31
0.0
  0
LINE
  5
59B
330
A
100
AcDbEntity
  8
03
100
AcDbLine
 10
167.6391783033089
 20
553.4776530783168
 30
0.0
 11
160.0391783033088
 21
553.4776530783168
 31
0.0
  0
LINE
  5
59C
330
A
100
AcDbEntity
  8
03
100
AcDbLine
 10
160.0391783033088
 20
553.4776530783168
 30
0.0
 11
160.0391783033088
 21
554.1776530783169
 31
0.0
  0
LINE
  5
59D
330
A
100
AcDbEntity
  8
03
100
AcDbLine
 10
167.6391783033089
 20
553.4776530783168
 30
0.0
 11
167.6391783033089
 21
554.1776530783169
 31
0.0
  0
LINE
  5
59E
330
A
100
AcDbEntity
  8
03
100
AcDbLine
 10
170.8391783033088
 20
552.4776530783168
 30
0.0
 11
156.8391783033089
 21
552.4776530783168
 31
0.0
  0
LINE
  5
59F
330
A
100
AcDbEntity
  8
03
100
AcDbLine
 10
170.8391783033088
 20
553.4776530783168
 30
0.0
 11
170.8391783033088
 21
552.4776530783168
 31
0.0
  0
LINE
  5
5A0
330
A
100
AcDbEntity
  8
03
100
AcDbLine
 10
168.8391783033089
 20
553.9776530783171
 30
0.0
 11
170.3391783033088
 21
553.9776530783171
 31
0.0
  0
LINE
  5
5A1
330
A
100
AcDbEntity
  8
03
100
AcDbLine
 10
168.8391783033089
 20
555.9776530783168
 30
0.0
 11
168.8391783033089
 21
553.9776530783171
 31
0.0
  0
LINE
  5
5A2
330
A
100
AcDbEntity
  8
03
100
AcDbLine
 10
156.8391783033089
 20
553.4776530783168
 30
0.0
 11
156.8391783033089
 21
552.4776530783168
 31
0.0
  0
LINE
  5
5A3
330
A
100
AcDbEntity
  8
03
100
AcDbLine
 10
158.8391783033088
 20
553.9776530783171
 30
0.0
 11
157.3391783033089
 21
553.9776530783171
 31
0.0
  0
LINE
  5
5A4
330
A
100
AcDbEntity
  8
03
100
AcDbLine
 10
158.8391783033088
 20
555.9776530783168
 30
0.0
 11
158.8391783033088
 21
553.9776530783171
 31
0.0
  0
LINE
  5
5A5
330
A
100
AcDbEntity
  8
04
100
AcDbLine
 10
163.8391783033088
 20
547.7776530783168
 30
0.0
 11
164.1391783033088
 21
547.4776530783168
 31
0.0
  0
LINE
  5
5A6
330
A
100
AcDbEntity
  8
04
100
AcDbLine
 10
163.5391783033089
 20
547.4776530783168
 30
0.0
 11
163.8391783033088
 21
547.7776530783168
 31
0.0
  0
LINE
  5
5A7
330
A
100
AcDbEntity
  8
04
100
AcDbLine
 10
163.8391783033088
 20
551.677653078317
 30
0.0
 11
164.1391783033089
 21
551.9776530783168
 31
0.0
  0
LINE
  5
5A8
330
A
100
AcDbEntity
  8
04
100
AcDbLine
 10
163.539178303309
 20
551.9776530783168
 30
0.0
 11
163.8391783033088
 21
551.677653078317
 31
0.0
  0
LINE
  5
5A9
330
A
100
AcDbEntity
  8
04
100
AcDbLine
 10
171.8391783033089
 20
545.977653078317
 30
0.0
 11
171.8391783033089
 21
547.4776530783168
 31
0.0
  0
LINE
  5
5AA
330
A
100
AcDbEntity
  8
04
100
AcDbLine
 10
170.8391783033088
 20
545.977653078317
 30
0.0
 11
171.8391783033089
 21
545.977653078317
 31
0.0
  0
LINE
  5
5AB
330
A
100
AcDbEntity
  8
04
100
AcDbLine
 10
155.8391783033088
 20
545.977653078317
 30
0.0
 11
155.8391783033088
 21
547.4776530783168
 31
0.0
  0
LINE
  5
5AC
330
A
100
AcDbEntity
  8
04
100
AcDbLine
 10
156.8391783033088
 20
545.977653078317
 30
0.0
 11
155.8391783033088
 21
545.977653078317
 31
0.0
  0
LINE
  5
5AD
330
A
100
AcDbEntity
  8
04
100
AcDbLine
 10
164.1391783033088
 20
547.4776530783168
 30
0.0
 11
171.8391783033089
 21
547.4776530783168
 31
0.0
  0
LINE
  5
5AE
330
A
100
AcDbEntity
  8
04
100
AcDbLine
 10
155.8391783033088
 20
547.4776530783168
 30
0.0
 11
163.5391783033089
 21
547.4776530783168
 31
0.0
  0
LINE
  5
5AF
330
A
100
AcDbEntity
  8
03
100
AcDbLine
 10
177.8391783033089
 20
486.9776530783169
 30
0.0
 11
177.8391783033089
 21
542.4776530783169
 31
0.0
  0
LINE
  5
5B0
330
A
100
AcDbEntity
  8
03
100
AcDbLine
 10
177.8391783033089
 20
396.4776530783169
 30
0.0
 11
177.8391783033089
 21
481.9776530783169
 31
0.0
  0
LINE
  5
5B1
330
A
100
AcDbEntity
  8
03
100
AcDbLine
 10
149.8391783033089
 20
486.9776530783169
 30
0.0
 11
149.8391783033089
 21
542.4776530783169
 31
0.0
  0
LINE
  5
5B2
330
A
100
AcDbEntity
  8
03
100
AcDbLine
 10
149.8391783033089
 20
396.4776530783169
 30
0.0
 11
149.8391783033089
 21
481.9776530783169
 31
0.0
  0
LINE
  5
5BE
330
A
100
AcDbEntity
  8
03
100
AcDbLine
 10
78.35392012039806
 20
285.3028064992608
 30
0.0
 11
78.35392012039811
 21
289.5028064992608
 31
0.0
  0
LINE
  5
5C6
330
A
100
AcDbEntity
  8
04
100
AcDbLine
 10
155.3539201203981
 20
287.3028064992611
 30
0.0
 11
78.85392012039812
 21
287.3028064992611
 31
0.0
  0
LINE
  5
5C7
330
A
100
AcDbEntity
  8
04
100
AcDbLine
 10
160.3539201203981
 20
292.3028064992611
 30
0.0
 11
160.3539201203981
 21
293.3028064992612
 31
0.0
  0
LINE
  5
5CA
330
A
100
AcDbEntity
  8
03
100
AcDbLine
 10
78.35392012039806
 20
317.3028064992608
 30
0.0
 11
78.35392012039811
 21
313.1028064992611
 31
0.0
  0
LINE
  5
5CB
330
A
100
AcDbEntity
  8
04
100
AcDbLine
 10
155.3539201203981
 20
315.3028064992611
 30
0.0
 11
78.85392012039812
 21
315.3028064992611
 31
0.0
  0
LINE
  5
5CC
330
A
100
AcDbEntity
  8
04
100
AcDbLine
 10
160.3539201203981
 20
310.3028064992611
 30
0.0
 11
160.3539201203981
 21
309.3028064992612
 31
0.0
  0
LINE
  5
5D8
330
A
100
AcDbEntity
  8
03
100
AcDbLine
 10
355.9298816588594
 20
317.3028064992613
 30
0.0
 11
355.929881658859
 21
285.3028064992613
 31
0.0
  0
LINE
  5
5E1
330
A
100
AcDbEntity
  8
04
100
AcDbLine
 10
278.9298816588594
 20
315.3028064992611
 30
0.0
 11
355.4298816588594
 21
315.3028064992611
 31
0.0
  0
LINE
  5
5E2
330
A
100
AcDbEntity
  8
04
100
AcDbLine
 10
273.9298816588594
 20
310.3028064992611
 30
0.0
 11
273.9298816588594
 21
309.3028064992611
 31
0.0
  0
LINE
  5
5E6
330
A
100
AcDbEntity
  8
04
100
AcDbLine
 10
278.9298816588594
 20
287.3028064992611
 30
0.0
 11
355.4298816588594
 21
287.3028064992611
 31
0.0
  0
LINE
  5
5E7
330
A
100
AcDbEntity
  8
04
100
AcDbLine
 10
273.9298816588594
 20
292.3028064992611
 30
0.0
 11
273.9298816588594
 21
293.3028064992611
 31
0.0
  0
LINE
  5
5F2
330
A
100
AcDbEntity
  8
06
100
AcDbLine
 10
166.8391783033088
 20
380.4776530783168
 30
0.0
 11
160.8391783033088
 21
380.4776530783168
 31
0.0
  0
LINE
  5
5F4
330
A
100
AcDbEntity
  8
SAISEN
100
AcDbLine
 10
78.38524263019313
 20
136.7061489834354
 30
0.0
 11
65.8012475439339
 21
149.2901440696948
 31
0.0
  0
LINE
  5
5F5
330
A
100
AcDbEntity
  8
SAISEN
100
AcDbLine
 10
61.83013834574072
 20
149.0186125807685
 30
0.0
 11
79.22605303347943
 21
131.62269789303
 31
0.0
  0
LINE
  5
5F6
330
A
100
AcDbEntity
  8
SAISEN
100
AcDbLine
 10
63.96629466315701
 20
142.6398155762331
 30
0.0
 11
74.65343331360609
 21
131.952676925784
 31
0.0
  0
LINE
  5
5F7
330
A
100
AcDbEntity
  8
SAISEN
100
AcDbLine
 10
215.5185802697181
 20
129.4980633716106
 30
0.0
 11
183.9444514493014
 21
161.0721921920275
 31
0.0
  0
LINE
  5
5F8
330
A
100
AcDbEntity
  8
SAISEN
100
AcDbLine
 10
179.6046767022304
 20
156.9266855648598
 30
0.0
 11
212.1275121248082
 21
124.403850142282
 31
0.0
  0
LINE
  5
5F9
330
A
100
AcDbEntity
  8
SAISEN
100
AcDbLine
 10
177.2259970457901
 20
163.5480059084194
 30
0.0
 11
217.2259970457901
 21
123.5480059084195
 31
0.0
  0
LINE
  5
5FA
330
A
100
AcDbEntity
  8
04
100
AcDbLine
 10
156.339178303309
 20
383.4776530783169
 30
0.0
 11
158.3391783033088
 21
383.4776530783169
 31
0.0
  0
LINE
  5
5FB
330
A
100
AcDbEntity
  8
04
100
AcDbLine
 10
156.339178303309
 20
383.4776530783169
 30
0.0
 11
148.6101389695834
 21
385.2962505686052
 31
0.0
  0
LINE
  5
600
330
A
100
AcDbEntity
  8
04
100
AcDbLine
 10
147.8391783033089
 20
396.9776530783168
 30
0.0
 11
147.8391783033089
 21
386.2696677369388
 31
0.0
  0
LINE
  5
601
330
A
100
AcDbEntity
  8
04
100
AcDbLine
 10
171.3391783033088
 20
383.4776530783169
 30
0.0
 11
169.3391783033089
 21
383.4776530783169
 31
0.0
  0
LINE
  5
602
330
A
100
AcDbEntity
  8
04
100
AcDbLine
 10
164.1391783033089
 20
386.9776530783169
 30
0.0
 11
165.3391783033089
 21
386.9776530783169
 31
0.0
  0
LINE
  5
603
330
A
100
AcDbEntity
  8
04
100
AcDbLine
 10
162.3391783033089
 20
386.9776530783169
 30
0.0
 11
163.539178303309
 21
386.9776530783169
 31
0.0
  0
LINE
  5
604
330
A
100
AcDbEntity
  8
04
100
AcDbLine
 10
165.8391783033088
 20
387.4776530783169
 30
0.0
 11
165.3391783033089
 21
386.9776530783169
 31
0.0
  0
LINE
  5
605
330
A
100
AcDbEntity
  8
04
100
AcDbLine
 10
161.8391783033088
 20
387.4776530783169
 30
0.0
 11
162.3391783033089
 21
386.9776530783169
 31
0.0
  0
LINE
  5
606
330
A
100
AcDbEntity
  8
04
100
AcDbLine
 10
161.8391783033088
 20
387.4776530783169
 30
0.0
 11
158.3391783033088
 21
387.4776530783169
 31
0.0
  0
LINE
  5
607
330
A
100
AcDbEntity
  8
04
100
AcDbLine
 10
169.3391783033089
 20
387.4776530783169
 30
0.0
 11
165.8391783033088
 21
387.4776530783169
 31
0.0
  0
LINE
  5
608
330
A
100
AcDbEntity
  8
04
100
AcDbLine
 10
169.3391783033089
 20
386.9776530783169
 30
0.0
 11
169.3391783033089
 21
387.4776530783169
 31
0.0
  0
LINE
  5
609
330
A
100
AcDbEntity
  8
04
100
AcDbLine
 10
158.3391783033088
 20
386.9776530783169
 30
0.0
 11
158.3391783033088
 21
387.4776530783169
 31
0.0
  0
LINE
  5
60A
330
A
100
AcDbEntity
  8
04
100
AcDbLine
 10
158.3391783033088
 20
386.9776530783169
 30
0.0
 11
156.3391783033089
 21
386.9776530783169
 31
0.0
  0
LINE
  5
60B
330
A
100
AcDbEntity
  8
04
100
AcDbLine
 10
171.3391783033088
 20
386.9776530783169
 30
0.0
 11
169.3391783033089
 21
386.9776530783169
 31
0.0
  0
LINE
  5
60C
330
A
100
AcDbEntity
  8
04
100
AcDbLine
 10
171.3391783033088
 20
384.9776530783169
 30
0.0
 11
171.3391783033088
 21
386.9776530783169
 31
0.0
  0
LINE
  5
60D
330
A
100
AcDbEntity
  8
04
100
AcDbLine
 10
169.3391783033089
 20
384.9776530783169
 30
0.0
 11
171.3391783033088
 21
384.9776530783169
 31
0.0
  0
LINE
  5
60E
330
A
100
AcDbEntity
  8
04
100
AcDbLine
 10
169.3391783033089
 20
383.4776530783169
 30
0.0
 11
169.3391783033089
 21
384.9776530783169
 31
0.0
  0
LINE
  5
60F
330
A
100
AcDbEntity
  8
04
100
AcDbLine
 10
156.3391783033089
 20
384.9776530783169
 30
0.0
 11
156.3391783033089
 21
386.9776530783169
 31
0.0
  0
LINE
  5
610
330
A
100
AcDbEntity
  8
04
100
AcDbLine
 10
158.3391783033088
 20
384.9776530783169
 30
0.0
 11
156.3391783033089
 21
384.9776530783169
 31
0.0
  0
LINE
  5
611
330
A
100
AcDbEntity
  8
04
100
AcDbLine
 10
158.3391783033088
 20
383.4776530783169
 30
0.0
 11
158.3391783033088
 21
384.9776530783169
 31
0.0
  0
LINE
  5
612
330
A
100
AcDbEntity
  8
04
100
AcDbLine
 10
171.3391783033088
 20
383.4776530783169
 30
0.0
 11
179.0682176370344
 21
385.2962505686052
 31
0.0
  0
LINE
  5
617
330
A
100
AcDbEntity
  8
04
100
AcDbLine
 10
170.8391783033088
 20
396.4776530783169
 30
0.0
 11
177.8391783033089
 21
396.4776530783169
 31
0.0
  0
LINE
  5
618
330
A
100
AcDbEntity
  8
04
100
AcDbLine
 10
149.8391783033089
 20
396.4776530783169
 30
0.0
 11
156.8391783033089
 21
396.4776530783169
 31
0.0
  0
LINE
  5
619
330
A
100
AcDbEntity
  8
04
100
AcDbLine
 10
179.8391783033089
 20
396.9776530783168
 30
0.0
 11
179.8391783033089
 21
386.2696677369388
 31
0.0
  0
LINE
  5
61A
330
A
100
AcDbEntity
  8
04
100
AcDbLine
 10
306.3391783033091
 20
466.977653078317
 30
0.0
 11
308.3391783033088
 21
466.977653078317
 31
0.0
  0
LINE
  5
61B
330
A
100
AcDbEntity
  8
04
100
AcDbLine
 10
306.3391783033091
 20
466.977653078317
 30
0.0
 11
298.6101389695834
 21
465.1590555880286
 31
0.0
  0
LINE
  5
620
330
A
100
AcDbEntity
  8
04
100
AcDbLine
 10
297.8391783033088
 20
453.4776530783169
 30
0.0
 11
297.8391783033088
 21
464.1856384196951
 31
0.0
  0
LINE
  5
621
330
A
100
AcDbEntity
  8
04
100
AcDbLine
 10
321.339178303309
 20
466.977653078317
 30
0.0
 11
319.339178303309
 21
466.977653078317
 31
0.0
  0
LINE
  5
622
330
A
100
AcDbEntity
  8
04
100
AcDbLine
 10
314.1391783033089
 20
463.4776530783168
 30
0.0
 11
315.3391783033088
 21
463.4776530783168
 31
0.0
  0
LINE
  5
623
330
A
100
AcDbEntity
  8
04
100
AcDbLine
 10
312.3391783033088
 20
463.4776530783168
 30
0.0
 11
313.5391783033088
 21
463.4776530783168
 31
0.0
  0
LINE
  5
624
330
A
100
AcDbEntity
  8
04
100
AcDbLine
 10
315.8391783033088
 20
462.9776530783169
 30
0.0
 11
315.3391783033088
 21
463.4776530783168
 31
0.0
  0
LINE
  5
625
330
A
100
AcDbEntity
  8
04
100
AcDbLine
 10
311.8391783033088
 20
462.9776530783169
 30
0.0
 11
312.3391783033088
 21
463.4776530783168
 31
0.0
  0
LINE
  5
626
330
A
100
AcDbEntity
  8
04
100
AcDbLine
 10
311.8391783033088
 20
462.9776530783169
 30
0.0
 11
308.3391783033088
 21
462.9776530783169
 31
0.0
  0
LINE
  5
627
330
A
100
AcDbEntity
  8
04
100
AcDbLine
 10
319.339178303309
 20
462.9776530783169
 30
0.0
 11
315.8391783033088
 21
462.9776530783169
 31
0.0
  0
LINE
  5
628
330
A
100
AcDbEntity
  8
04
100
AcDbLine
 10
319.339178303309
 20
463.4776530783168
 30
0.0
 11
319.339178303309
 21
462.9776530783169
 31
0.0
  0
LINE
  5
629
330
A
100
AcDbEntity
  8
04
100
AcDbLine
 10
308.3391783033088
 20
463.4776530783168
 30
0.0
 11
308.3391783033088
 21
462.9776530783169
 31
0.0
  0
LINE
  5
62A
330
A
100
AcDbEntity
  8
04
100
AcDbLine
 10
320.8391783033088
 20
453.977653078317
 30
0.0
 11
320.8391783033088
 21
457.4776530783169
 31
0.0
  0
LINE
  5
62B
330
A
100
AcDbEntity
  8
04
100
AcDbLine
 10
306.839178303309
 20
453.977653078317
 30
0.0
 11
306.839178303309
 21
457.4776530783169
 31
0.0
  0
LINE
  5
62C
330
A
100
AcDbEntity
  8
04
100
AcDbLine
 10
308.3391783033088
 20
463.4776530783168
 30
0.0
 11
306.339178303309
 21
463.4776530783168
 31
0.0
  0
LINE
  5
62D
330
A
100
AcDbEntity
  8
04
100
AcDbLine
 10
321.339178303309
 20
463.4776530783168
 30
0.0
 11
319.339178303309
 21
463.4776530783168
 31
0.0
  0
LINE
  5
62E
330
A
100
AcDbEntity
  8
04
100
AcDbLine
 10
321.339178303309
 20
465.4776530783169
 30
0.0
 11
321.339178303309
 21
463.4776530783168
 31
0.0
  0
LINE
  5
62F
330
A
100
AcDbEntity
  8
04
100
AcDbLine
 10
319.339178303309
 20
465.4776530783169
 30
0.0
 11
321.339178303309
 21
465.4776530783169
 31
0.0
  0
LINE
  5
630
330
A
100
AcDbEntity
  8
04
100
AcDbLine
 10
319.339178303309
 20
466.977653078317
 30
0.0
 11
319.339178303309
 21
465.4776530783169
 31
0.0
  0
LINE
  5
631
330
A
100
AcDbEntity
  8
04
100
AcDbLine
 10
306.339178303309
 20
465.4776530783169
 30
0.0
 11
306.339178303309
 21
463.4776530783168
 31
0.0
  0
LINE
  5
632
330
A
100
AcDbEntity
  8
04
100
AcDbLine
 10
308.3391783033088
 20
465.4776530783169
 30
0.0
 11
306.339178303309
 21
465.4776530783169
 31
0.0
  0
LINE
  5
633
330
A
100
AcDbEntity
  8
04
100
AcDbLine
 10
308.3391783033088
 20
466.977653078317
 30
0.0
 11
308.3391783033088
 21
465.4776530783169
 31
0.0
  0
LINE
  5
634
330
A
100
AcDbEntity
  8
04
100
AcDbLine
 10
321.339178303309
 20
466.977653078317
 30
0.0
 11
329.0682176370343
 21
465.1590555880286
 31
0.0
  0
LINE
  5
639
330
A
100
AcDbEntity
  8
04
100
AcDbLine
 10
320.8391783033088
 20
453.977653078317
 30
0.0
 11
327.8391783033088
 21
453.977653078317
 31
0.0
  0
LINE
  5
63A
330
A
100
AcDbEntity
  8
04
100
AcDbLine
 10
299.8391783033088
 20
453.977653078317
 30
0.0
 11
306.839178303309
 21
453.977653078317
 31
0.0
  0
LINE
  5
63B
330
A
100
AcDbEntity
  8
04
100
AcDbLine
 10
329.8391783033088
 20
453.4776530783169
 30
0.0
 11
329.8391783033088
 21
464.1856384196951
 31
0.0
  0
LINE
  5
63C
330
A
100
AcDbEntity
  8
04
100
AcDbLine
 10
306.3391783033091
 20
471.9776530783168
 30
0.0
 11
308.3391783033088
 21
471.9776530783168
 31
0.0
  0
LINE
  5
63D
330
A
100
AcDbEntity
  8
04
100
AcDbLine
 10
306.3391783033091
 20
471.9776530783168
 30
0.0
 11
298.6101389695834
 21
473.7962505686052
 31
0.0
  0
LINE
  5
642
330
A
100
AcDbEntity
  8
04
100
AcDbLine
 10
297.8391783033088
 20
485.4776530783167
 30
0.0
 11
297.8391783033088
 21
474.769667736939
 31
0.0
  0
LINE
  5
643
330
A
100
AcDbEntity
  8
04
100
AcDbLine
 10
321.339178303309
 20
471.9776530783168
 30
0.0
 11
319.339178303309
 21
471.9776530783168
 31
0.0
  0
LINE
  5
644
330
A
100
AcDbEntity
  8
04
100
AcDbLine
 10
314.1391783033089
 20
475.4776530783169
 30
0.0
 11
315.3391783033088
 21
475.4776530783169
 31
0.0
  0
LINE
  5
645
330
A
100
AcDbEntity
  8
04
100
AcDbLine
 10
312.3391783033088
 20
475.4776530783169
 30
0.0
 11
313.5391783033088
 21
475.4776530783169
 31
0.0
  0
LINE
  5
646
330
A
100
AcDbEntity
  8
04
100
AcDbLine
 10
315.8391783033088
 20
475.9776530783168
 30
0.0
 11
315.3391783033088
 21
475.4776530783169
 31
0.0
  0
LINE
  5
647
330
A
100
AcDbEntity
  8
04
100
AcDbLine
 10
311.8391783033088
 20
475.9776530783168
 30
0.0
 11
312.3391783033088
 21
475.4776530783169
 31
0.0
  0
LINE
  5
648
330
A
100
AcDbEntity
  8
04
100
AcDbLine
 10
311.8391783033088
 20
475.9776530783168
 30
0.0
 11
308.3391783033088
 21
475.9776530783168
 31
0.0
  0
LINE
  5
649
330
A
100
AcDbEntity
  8
04
100
AcDbLine
 10
319.339178303309
 20
475.9776530783168
 30
0.0
 11
315.8391783033088
 21
475.9776530783168
 31
0.0
  0
LINE
  5
64A
330
A
100
AcDbEntity
  8
04
100
AcDbLine
 10
319.339178303309
 20
475.4776530783169
 30
0.0
 11
319.339178303309
 21
475.9776530783168
 31
0.0
  0
LINE
  5
64B
330
A
100
AcDbEntity
  8
04
100
AcDbLine
 10
308.3391783033088
 20
475.4776530783169
 30
0.0
 11
308.3391783033088
 21
475.9776530783168
 31
0.0
  0
LINE
  5
64C
330
A
100
AcDbEntity
  8
03
100
AcDbLine
 10
320.8391783033088
 20
539.4776530783168
 30
0.0
 11
320.8391783033088
 21
481.4776530783169
 31
0.0
  0
LINE
  5
64D
330
A
100
AcDbEntity
  8
03
100
AcDbLine
 10
306.8391783033094
 20
539.4776530783168
 30
0.0
 11
306.839178303309
 21
481.4776530783169
 31
0.0
  0
LINE
  5
64E
330
A
100
AcDbEntity
  8
04
100
AcDbLine
 10
308.3391783033088
 20
475.4776530783169
 30
0.0
 11
306.339178303309
 21
475.4776530783169
 31
0.0
  0
LINE
  5
64F
330
A
100
AcDbEntity
  8
04
100
AcDbLine
 10
321.339178303309
 20
475.4776530783169
 30
0.0
 11
319.339178303309
 21
475.4776530783169
 31
0.0
  0
LINE
  5
650
330
A
100
AcDbEntity
  8
04
100
AcDbLine
 10
321.339178303309
 20
473.4776530783169
 30
0.0
 11
321.339178303309
 21
475.4776530783169
 31
0.0
  0
LINE
  5
651
330
A
100
AcDbEntity
  8
04
100
AcDbLine
 10
319.339178303309
 20
473.4776530783169
 30
0.0
 11
321.339178303309
 21
473.4776530783169
 31
0.0
  0
LINE
  5
652
330
A
100
AcDbEntity
  8
04
100
AcDbLine
 10
319.339178303309
 20
471.9776530783168
 30
0.0
 11
319.339178303309
 21
473.4776530783169
 31
0.0
  0
LINE
  5
653
330
A
100
AcDbEntity
  8
04
100
AcDbLine
 10
306.339178303309
 20
473.4776530783169
 30
0.0
 11
306.339178303309
 21
475.4776530783169
 31
0.0
  0
LINE
  5
654
330
A
100
AcDbEntity
  8
04
100
AcDbLine
 10
308.3391783033088
 20
473.4776530783169
 30
0.0
 11
306.339178303309
 21
473.4776530783169
 31
0.0
  0
LINE
  5
655
330
A
100
AcDbEntity
  8
04
100
AcDbLine
 10
308.3391783033088
 20
471.9776530783168
 30
0.0
 11
308.3391783033088
 21
473.4776530783169
 31
0.0
  0
LINE
  5
656
330
A
100
AcDbEntity
  8
04
100
AcDbLine
 10
321.339178303309
 20
471.9776530783168
 30
0.0
 11
329.0682176370343
 21
473.7962505686052
 31
0.0
  0
LINE
  5
65B
330
A
100
AcDbEntity
  8
04
100
AcDbLine
 10
320.8391783033088
 20
484.9776530783167
 30
0.0
 11
327.8391783033088
 21
484.9776530783167
 31
0.0
  0
LINE
  5
65C
330
A
100
AcDbEntity
  8
04
100
AcDbLine
 10
299.8391783033088
 20
484.9776530783167
 30
0.0
 11
306.839178303309
 21
484.9776530783167
 31
0.0
  0
LINE
  5
65D
330
A
100
AcDbEntity
  8
04
100
AcDbLine
 10
329.8391783033088
 20
485.4776530783167
 30
0.0
 11
329.8391783033088
 21
474.7696677369388
 31
0.0
  0
LINE
  5
65E
330
A
100
AcDbEntity
  8
04
100
AcDbLine
 10
156.3391783033091
 20
555.4776530783168
 30
0.0
 11
158.339178303309
 21
555.4776530783168
 31
0.0
  0
LINE
  5
65F
330
A
100
AcDbEntity
  8
04
100
AcDbLine
 10
156.3391783033091
 20
555.4776530783168
 30
0.0
 11
148.6101389695834
 21
553.6590555880287
 31
0.0
  0
LINE
  5
664
330
A
100
AcDbEntity
  8
04
100
AcDbLine
 10
147.8391783033089
 20
541.977653078317
 30
0.0
 11
147.8391783033089
 21
552.6856384196951
 31
0.0
  0
LINE
  5
665
330
A
100
AcDbEntity
  8
04
100
AcDbLine
 10
171.3391783033088
 20
555.4776530783168
 30
0.0
 11
169.339178303309
 21
555.4776530783168
 31
0.0
  0
LINE
  5
666
330
A
100
AcDbEntity
  8
04
100
AcDbLine
 10
164.1391783033089
 20
551.9776530783168
 30
0.0
 11
165.339178303309
 21
551.9776530783168
 31
0.0
  0
LINE
  5
667
330
A
100
AcDbEntity
  8
04
100
AcDbLine
 10
162.339178303309
 20
551.9776530783168
 30
0.0
 11
163.539178303309
 21
551.9776530783168
 31
0.0
  0
LINE
  5
668
330
A
100
AcDbEntity
  8
04
100
AcDbLine
 10
165.839178303309
 20
551.4776530783168
 30
0.0
 11
165.339178303309
 21
551.9776530783168
 31
0.0
  0
LINE
  5
669
330
A
100
AcDbEntity
  8
04
100
AcDbLine
 10
161.839178303309
 20
551.4776530783168
 30
0.0
 11
162.339178303309
 21
551.9776530783168
 31
0.0
  0
LINE
  5
66A
330
A
100
AcDbEntity
  8
04
100
AcDbLine
 10
161.839178303309
 20
551.4776530783168
 30
0.0
 11
158.339178303309
 21
551.4776530783168
 31
0.0
  0
LINE
  5
66B
330
A
100
AcDbEntity
  8
04
100
AcDbLine
 10
169.339178303309
 20
551.4776530783168
 30
0.0
 11
165.839178303309
 21
551.4776530783168
 31
0.0
  0
LINE
  5
66C
330
A
100
AcDbEntity
  8
04
100
AcDbLine
 10
169.339178303309
 20
551.9776530783168
 30
0.0
 11
169.339178303309
 21
551.4776530783168
 31
0.0
  0
LINE
  5
66D
330
A
100
AcDbEntity
  8
04
100
AcDbLine
 10
158.339178303309
 20
551.9776530783168
 30
0.0
 11
158.339178303309
 21
551.4776530783168
 31
0.0
  0
LINE
  5
66E
330
A
100
AcDbEntity
  8
03
100
AcDbLine
 10
170.839178303309
 20
486.9776530783169
 30
0.0
 11
170.839178303309
 21
545.977653078317
 31
0.0
  0
LINE
  5
66F
330
A
100
AcDbEntity
  8
03
100
AcDbLine
 10
156.8391783033091
 20
486.9776530783169
 30
0.0
 11
156.8391783033089
 21
545.977653078317
 31
0.0
  0
LINE
  5
670
330
A
100
AcDbEntity
  8
04
100
AcDbLine
 10
158.339178303309
 20
551.9776530783168
 30
0.0
 11
156.339178303309
 21
551.9776530783168
 31
0.0
  0
LINE
  5
671
330
A
100
AcDbEntity
  8
04
100
AcDbLine
 10
171.339178303309
 20
551.9776530783168
 30
0.0
 11
169.339178303309
 21
551.9776530783168
 31
0.0
  0
LINE
  5
672
330
A
100
AcDbEntity
  8
04
100
AcDbLine
 10
171.339178303309
 20
553.9776530783171
 30
0.0
 11
171.339178303309
 21
551.9776530783168
 31
0.0
  0
LINE
  5
673
330
A
100
AcDbEntity
  8
04
100
AcDbLine
 10
169.339178303309
 20
553.9776530783171
 30
0.0
 11
171.339178303309
 21
553.9776530783171
 31
0.0
  0
LINE
  5
674
330
A
100
AcDbEntity
  8
04
100
AcDbLine
 10
169.339178303309
 20
555.4776530783168
 30
0.0
 11
169.339178303309
 21
553.9776530783171
 31
0.0
  0
LINE
  5
675
330
A
100
AcDbEntity
  8
04
100
AcDbLine
 10
156.339178303309
 20
553.9776530783171
 30
0.0
 11
156.339178303309
 21
551.9776530783168
 31
0.0
  0
LINE
  5
676
330
A
100
AcDbEntity
  8
04
100
AcDbLine
 10
158.339178303309
 20
553.9776530783171
 30
0.0
 11
156.339178303309
 21
553.9776530783171
 31
0.0
  0
LINE
  5
677
330
A
100
AcDbEntity
  8
04
100
AcDbLine
 10
158.339178303309
 20
555.4776530783168
 30
0.0
 11
158.339178303309
 21
553.9776530783171
 31
0.0
  0
LINE
  5
678
330
A
100
AcDbEntity
  8
04
100
AcDbLine
 10
171.3391783033088
 20
555.4776530783168
 30
0.0
 11
179.0682176370344
 21
553.6590555880287
 31
0.0
  0
LINE
  5
67D
330
A
100
AcDbEntity
  8
04
100
AcDbLine
 10
170.839178303309
 20
542.4776530783169
 30
0.0
 11
177.8391783033089
 21
542.4776530783169
 31
0.0
  0
LINE
  5
67E
330
A
100
AcDbEntity
  8
04
100
AcDbLine
 10
149.8391783033089
 20
542.4776530783169
 30
0.0
 11
156.839178303309
 21
542.4776530783169
 31
0.0
  0
LINE
  5
67F
330
A
100
AcDbEntity
  8
04
100
AcDbLine
 10
179.8391783033089
 20
541.977653078317
 30
0.0
 11
179.8391783033089
 21
552.6856384196951
 31
0.0
  0
LINE
  5
680
330
A
100
AcDbEntity
  8
03
100
AcDbLine
 10
170.839178303309
 20
481.9776530783169
 30
0.0
 11
170.8391783033088
 21
392.9776530783169
 31
0.0
  0
LINE
  5
681
330
A
100
AcDbEntity
  8
03
100
AcDbLine
 10
156.8391783033091
 20
481.9776530783169
 30
0.0
 11
156.8391783033088
 21
392.9776530783169
 31
0.0
  0
LINE
  5
6A2
330
A
100
AcDbEntity
  8
03
100
AcDbLine
 10
218.9531276019331
 20
317.3028064992611
 30
0.0
 11
78.35392012039806
 21
317.3028064992611
 31
0.0
  0
LINE
  5
6A3
330
A
100
AcDbEntity
  8
03
100
AcDbLine
 10
355.9298816588594
 20
317.3028064992613
 30
0.0
 11
223.9531276019329
 21
317.3028064992611
 31
0.0
  0
LINE
  5
6A4
330
A
100
AcDbEntity
  8
03
100
AcDbLine
 10
218.9531276019331
 20
285.3028064992611
 30
0.0
 11
78.35392012039806
 21
285.3028064992611
 31
0.0
  0
LINE
  5
6A5
330
A
100
AcDbEntity
  8
03
100
AcDbLine
 10
355.9298816588594
 20
285.3028064992613
 30
0.0
 11
223.953127601933
 21
285.3028064992611
 31
0.0
  0
LINE
  5
6A6
330
A
100
AcDbEntity
  8
02
100
AcDbLine
 10
199.6305447383731
 20
296.3028064992611
 30
0.0
 11
218.9531276019331
 21
296.3028064992611
 31
0.0
  0
LINE
  5
6A7
330
A
100
AcDbEntity
  8
02
100
AcDbLine
 10
186.9722035719081
 20
296.3028064992611
 30
0.0
 11
189.5942885278188
 21
296.3028064992611
 31
0.0
  0
LINE
  5
6A8
330
A
100
AcDbEntity
  8
02
100
AcDbLine
 10
189.5942885278186
 20
306.3028064992611
 30
0.0
 11
186.9722035719081
 21
306.3028064992611
 31
0.0
  0
LINE
  5
6A9
330
A
100
AcDbEntity
  8
02
100
AcDbLine
 10
218.9531276019331
 20
306.3028064992611
 30
0.0
 11
199.6305447383731
 21
306.3028064992611
 31
0.0
  0
LINE
  5
6AA
330
A
100
AcDbEntity
  8
02
100
AcDbLine
 10
176.5742804708829
 20
306.3028064992611
 30
0.0
 11
174.1330289602074
 21
306.3028064992611
 31
0.0
  0
LINE
  5
6AB
330
A
100
AcDbEntity
  8
02
100
AcDbLine
 10
174.1330289602074
 20
296.3028064992611
 30
0.0
 11
176.5742804708831
 21
296.3028064992611
 31
0.0
  0
LINE
  5
6AC
330
A
100
AcDbEntity
  8
02
100
AcDbLine
 10
162.9213553556239
 20
306.3028064992611
 30
0.0
 11
137.3539201203981
 21
306.3028064992611
 31
0.0
  0
LINE
  5
6AD
330
A
100
AcDbEntity
  8
02
100
AcDbLine
 10
137.3539201203981
 20
296.3028064992611
 30
0.0
 11
162.9213553556239
 21
296.3028064992611
 31
0.0
  0
LINE
  5
6AE
330
A
100
AcDbEntity
  8
02
100
AcDbLine
 10
137.3539201203981
 20
306.3028064992611
 30
0.0
 11
137.3539201203981
 21
296.3028064992611
 31
0.0
  0
LINE
  5
6AF
330
A
100
AcDbEntity
  8
02
100
AcDbLine
 10
296.9298816588592
 20
306.3028064992611
 30
0.0
 11
223.953127601933
 21
306.3028064992611
 31
0.0
  0
LINE
  5
6B0
330
A
100
AcDbEntity
  8
02
100
AcDbLine
 10
296.9298816588592
 20
296.3028064992611
 30
0.0
 11
296.9298816588592
 21
306.3028064992611
 31
0.0
  0
LINE
  5
6B1
330
A
100
AcDbEntity
  8
02
100
AcDbLine
 10
223.953127601933
 20
296.3028064992611
 30
0.0
 11
296.9298816588592
 21
296.3028064992611
 31
0.0
  0
LINE
  5
6B2
330
A
100
AcDbEntity
  8
SOUZOU
100
AcDbLine
 10
188.9937884873454
 20
380.4776530783168
 30
0.0
 11
128.0324276259007
 21
380.4776530783168
 31
0.0
  0
LINE
  5
6B3
330
A
100
AcDbEntity
  8
SOUZOU
100
AcDbLine
 10
188.9937884873454
 20
558.477653078317
 30
0.0
 11
128.0324276259007
 21
558.477653078317
 31
0.0
  0
LINE
  5
6B4
330
A
100
AcDbEntity
  8
02
100
AcDbLine
 10
199.6305447383731
 20
297.3028064992611
 30
0.0
 11
218.9531276019331
 21
297.3028064992611
 31
0.0
  0
LINE
  5
6B5
330
A
100
AcDbEntity
  8
02
100
AcDbLine
 10
186.9722035719081
 20
297.3028064992611
 30
0.0
 11
189.5942885278188
 21
297.3028064992611
 31
0.0
  0
LINE
  5
6B6
330
A
100
AcDbEntity
  8
02
100
AcDbLine
 10
199.6305447383731
 20
305.3028064992612
 30
0.0
 11
218.9531276019331
 21
305.3028064992612
 31
0.0
  0
LINE
  5
6B7
330
A
100
AcDbEntity
  8
02
100
AcDbLine
 10
186.9722035719081
 20
305.3028064992612
 30
0.0
 11
189.5942885278186
 21
305.3028064992612
 31
0.0
  0
LINE
  5
6B8
330
A
100
AcDbEntity
  8
02
100
AcDbLine
 10
174.1330289602074
 20
305.3028064992612
 30
0.0
 11
176.5742804708829
 21
305.3028064992612
 31
0.0
  0
LINE
  5
6B9
330
A
100
AcDbEntity
  8
02
100
AcDbLine
 10
174.1330289602074
 20
297.3028064992611
 30
0.0
 11
176.5742804708831
 21
297.3028064992611
 31
0.0
  0
LINE
  5
6BA
330
A
100
AcDbEntity
  8
02
100
AcDbLine
 10
137.3539201203981
 20
305.3028064992612
 30
0.0
 11
162.9213553556239
 21
305.3028064992612
 31
0.0
  0
LINE
  5
6BB
330
A
100
AcDbEntity
  8
02
100
AcDbLine
 10
137.3539201203981
 20
297.3028064992611
 30
0.0
 11
162.9213553556239
 21
297.3028064992611
 31
0.0
  0
LINE
  5
6BC
330
A
100
AcDbEntity
  8
03
100
AcDbLine
 10
305.0634540499688
 20
178.0347561593194
 30
0.0
 11
303.3634540499688
 21
178.0347561593194
 31
0.0
  0
LINE
  5
6BD
330
A
100
AcDbEntity
  8
03
100
AcDbLine
 10
305.0634540499688
 20
175.0347561593194
 30
0.0
 11
303.3634540499688
 21
175.0347561593194
 31
0.0
  0
LINE
  5
6BE
330
A
100
AcDbEntity
  8
03
100
AcDbLine
 10
305.0634540499688
 20
175.0347561593194
 30
0.0
 11
305.0634540499688
 21
178.0347561593194
 31
0.0
  0
LINE
  5
6BF
330
A
100
AcDbEntity
  8
02
100
AcDbLine
 10
158.8391783033088
 20
392.4776530783169
 30
0.0
 11
168.8391783033089
 21
392.4776530783169
 31
0.0
  0
LINE
  5
6CB
330
A
100
AcDbEntity
  8
06
100
AcDbLine
 10
160.8391783033088
 20
380.4776530783168
 30
0.0
 11
160.8391783033088
 21
384.9776530783169
 31
0.0
  0
LINE
  5
6CC
330
A
100
AcDbEntity
  8
06
100
AcDbLine
 10
166.8391783033088
 20
384.9776530783169
 30
0.0
 11
166.8391783033088
 21
380.4776530783168
 31
0.0
  0
LINE
  5
6CD
330
A
100
AcDbEntity
  8
06
100
AcDbLine
 10
160.3391783033089
 20
384.9776530783169
 30
0.0
 11
160.3391783033089
 21
385.4776530783169
 31
0.0
  0
LINE
  5
6CE
330
A
100
AcDbEntity
  8
06
100
AcDbLine
 10
167.3391783033089
 20
384.9776530783169
 30
0.0
 11
160.3391783033089
 21
384.9776530783169
 31
0.0
  0
LINE
  5
6CF
330
A
100
AcDbEntity
  8
06
100
AcDbLine
 10
167.3391783033089
 20
385.4776530783169
 30
0.0
 11
167.3391783033089
 21
384.9776530783169
 31
0.0
  0
LINE
  5
6D0
330
A
100
AcDbEntity
  8
06
100
AcDbLine
 10
160.3391783033089
 20
385.4776530783169
 30
0.0
 11
167.3391783033089
 21
385.4776530783169
 31
0.0
  0
LINE
  5
6D1
330
A
100
AcDbEntity
  8
02
100
AcDbLine
 10
308.839178303309
 20
457.977653078317
 30
0.0
 11
318.839178303309
 21
457.977653078317
 31
0.0
  0
LINE
  5
6D2
330
A
100
AcDbEntity
  8
02
100
AcDbLine
 10
318.8391783033088
 20
399.4776530783169
 30
0.0
 11
318.839178303309
 21
457.977653078317
 31
0.0
  0
LINE
  5
6D3
330
A
100
AcDbEntity
  8
02
100
AcDbLine
 10
308.839178303309
 20
457.977653078317
 30
0.0
 11
308.839178303309
 21
399.4776530783169
 31
0.0
  0
LINE
  5
6DF
330
A
100
AcDbEntity
  8
06
100
AcDbLine
 10
310.839178303309
 20
469.4776530783169
 30
0.0
 11
310.839178303309
 21
464.9776530783169
 31
0.0
  0
LINE
  5
6E0
330
A
100
AcDbEntity
  8
06
100
AcDbLine
 10
316.839178303309
 20
469.4776530783169
 30
0.0
 11
310.839178303309
 21
469.4776530783169
 31
0.0
  0
LINE
  5
6E1
330
A
100
AcDbEntity
  8
06
100
AcDbLine
 10
316.839178303309
 20
464.9776530783169
 30
0.0
 11
316.839178303309
 21
469.4776530783169
 31
0.0
  0
LINE
  5
6E2
330
A
100
AcDbEntity
  8
06
100
AcDbLine
 10
310.3391783033088
 20
464.9776530783169
 30
0.0
 11
310.3391783033088
 21
464.4776530783167
 31
0.0
  0
LINE
  5
6E3
330
A
100
AcDbEntity
  8
06
100
AcDbLine
 10
317.3391783033088
 20
464.9776530783169
 30
0.0
 11
310.3391783033088
 21
464.9776530783169
 31
0.0
  0
LINE
  5
6E4
330
A
100
AcDbEntity
  8
06
100
AcDbLine
 10
317.3391783033088
 20
464.4776530783167
 30
0.0
 11
317.3391783033088
 21
464.9776530783169
 31
0.0
  0
LINE
  5
6E5
330
A
100
AcDbEntity
  8
06
100
AcDbLine
 10
310.3391783033088
 20
464.4776530783167
 30
0.0
 11
317.3391783033088
 21
464.4776530783167
 31
0.0
  0
LINE
  5
6E6
330
A
100
AcDbEntity
  8
02
100
AcDbLine
 10
308.839178303309
 20
480.9776530783167
 30
0.0
 11
318.839178303309
 21
480.9776530783167
 31
0.0
  0
LINE
  5
6E7
330
A
100
AcDbEntity
  8
02
100
AcDbLine
 10
318.839178303309
 20
539.4776530783168
 30
0.0
 11
318.839178303309
 21
480.9776530783167
 31
0.0
  0
LINE
  5
6E8
330
A
100
AcDbEntity
  8
02
100
AcDbLine
 10
308.839178303309
 20
480.9776530783167
 30
0.0
 11
308.839178303309
 21
539.4776530783168
 31
0.0
  0
LINE
  5
6F4
330
A
100
AcDbEntity
  8
06
100
AcDbLine
 10
310.839178303309
 20
469.4776530783169
 30
0.0
 11
310.839178303309
 21
473.9776530783169
 31
0.0
  0
LINE
  5
6F5
330
A
100
AcDbEntity
  8
06
100
AcDbLine
 10
316.839178303309
 20
469.4776530783169
 30
0.0
 11
310.839178303309
 21
469.4776530783169
 31
0.0
  0
LINE
  5
6F6
330
A
100
AcDbEntity
  8
06
100
AcDbLine
 10
316.839178303309
 20
473.9776530783169
 30
0.0
 11
316.839178303309
 21
469.4776530783169
 31
0.0
  0
LINE
  5
6F7
330
A
100
AcDbEntity
  8
06
100
AcDbLine
 10
310.3391783033088
 20
473.9776530783169
 30
0.0
 11
310.3391783033088
 21
474.4776530783169
 31
0.0
  0
LINE
  5
6F8
330
A
100
AcDbEntity
  8
06
100
AcDbLine
 10
317.3391783033088
 20
473.9776530783169
 30
0.0
 11
310.3391783033088
 21
473.9776530783169
 31
0.0
  0
LINE
  5
6F9
330
A
100
AcDbEntity
  8
06
100
AcDbLine
 10
317.3391783033088
 20
474.4776530783169
 30
0.0
 11
317.3391783033088
 21
473.9776530783169
 31
0.0
  0
LINE
  5
6FA
330
A
100
AcDbEntity
  8
06
100
AcDbLine
 10
310.3391783033088
 20
474.4776530783169
 30
0.0
 11
317.3391783033088
 21
474.4776530783169
 31
0.0
  0
LINE
  5
6FB
330
A
100
AcDbEntity
  8
02
100
AcDbLine
 10
158.8391783033088
 20
546.4776530783168
 30
0.0
 11
168.8391783033089
 21
546.4776530783168
 31
0.0
  0
LINE
  5
707
330
A
100
AcDbEntity
  8
06
100
AcDbLine
 10
160.8391783033088
 20
558.477653078317
 30
0.0
 11
160.8391783033088
 21
553.9776530783171
 31
0.0
  0
LINE
  5
708
330
A
100
AcDbEntity
  8
06
100
AcDbLine
 10
166.8391783033088
 20
558.477653078317
 30
0.0
 11
160.8391783033088
 21
558.477653078317
 31
0.0
  0
LINE
  5
709
330
A
100
AcDbEntity
  8
06
100
AcDbLine
 10
166.8391783033088
 20
553.9776530783171
 30
0.0
 11
166.8391783033088
 21
558.477653078317
 31
0.0
  0
LINE
  5
70A
330
A
100
AcDbEntity
  8
06
100
AcDbLine
 10
160.3391783033089
 20
553.9776530783171
 30
0.0
 11
160.3391783033089
 21
553.4776530783168
 31
0.0
  0
LINE
  5
70B
330
A
100
AcDbEntity
  8
06
100
AcDbLine
 10
167.3391783033089
 20
553.9776530783171
 30
0.0
 11
160.3391783033089
 21
553.9776530783171
 31
0.0
  0
LINE
  5
70C
330
A
100
AcDbEntity
  8
06
100
AcDbLine
 10
167.3391783033089
 20
553.4776530783168
 30
0.0
 11
167.3391783033089
 21
553.9776530783171
 31
0.0
  0
LINE
  5
70D
330
A
100
AcDbEntity
  8
06
100
AcDbLine
 10
160.3391783033089
 20
553.4776530783168
 30
0.0
 11
167.3391783033089
 21
553.4776530783168
 31
0.0
  0
LINE
  5
70E
330
A
100
AcDbEntity
  8
SAISEN
100
AcDbLine
 10
260.0324963072377
 20
486.9776530783169
 30
0.0
 11
63.99113737075332
 21
486.9776530783169
 31
0.0
  0
LINE
  5
70F
330
A
100
AcDbEntity
  8
SAISEN
100
AcDbLine
 10
63.99113737075332
 20
481.9776530783169
 30
0.0
 11
260.0324963072377
 21
481.9776530783169
 31
0.0
  0
LINE
  5
710
330
A
100
AcDbEntity
  8
02
100
AcDbLine
 10
168.8391783033089
 20
481.9776530783169
 30
0.0
 11
168.8391783033089
 21
392.4776530783169
 31
0.0
  0
LINE
  5
711
330
A
100
AcDbEntity
  8
02
100
AcDbLine
 10
168.8391783033089
 20
546.4776530783168
 30
0.0
 11
168.8391783033089
 21
486.9776530783169
 31
0.0
  0
LINE
  5
712
330
A
100
AcDbEntity
  8
02
100
AcDbLine
 10
158.8391783033088
 20
486.9776530783169
 30
0.0
 11
158.8391783033088
 21
546.4776530783168
 31
0.0
  0
LINE
  5
713
330
A
100
AcDbEntity
  8
02
100
AcDbLine
 10
158.8391783033088
 20
392.4776530783169
 30
0.0
 11
158.8391783033088
 21
481.9776530783169
 31
0.0
  0
LINE
  5
714
330
A
100
AcDbEntity
  8
03
100
AcDbLine
 10
78.35392012039811
 20
313.1028064992611
 30
0.0
 11
78.35392012039811
 21
289.5028064992608
 31
0.0
  0
LINE
  5
715
330
A
100
AcDbEntity
  8
SAISEN
100
AcDbLine
 10
223.9531276019329
 20
322.3028064992611
 30
0.0
 11
223.953127601933
 21
280.302806499261
 31
0.0
  0
LINE
  5
716
330
A
100
AcDbEntity
  8
SAISEN
100
AcDbLine
 10
218.9531276019331
 20
280.302806499261
 30
0.0
 11
218.9531276019331
 21
322.3028064992611
 31
0.0
  0
LINE
  5
717
330
A
100
AcDbEntity
  8
02
100
AcDbLine
 10
223.953127601933
 20
305.3028064992611
 30
0.0
 11
296.9298816588592
 21
305.3028064992611
 31
0.0
  0
LINE
  5
718
330
A
100
AcDbEntity
  8
02
100
AcDbLine
 10
223.9531276019329
 20
297.3028064992611
 30
0.0
 11
296.9298816588592
 21
297.3028064992611
 31
0.0
  0
LINE
  5
719
330
A
100
AcDbEntity
  8
CHUSIN
100
AcDbLine
 10
313.8391783033088
 20
546.8944946586864
 30
0.0
 11
313.8391783033088
 21
391.7696584590876
 31
0.0
  0
LINE
  5
71A
330
A
100
AcDbEntity
  8
CHUSIN
100
AcDbLine
 10
163.8391783033088
 20
564.4291377981922
 30
0.0
 11
163.8391783033088
 21
374.6916836698539
 31
0.0
  0
LINE
  5
71B
330
A
100
AcDbEntity
  8
CHUSIN
100
AcDbLine
 10
74.33842921914664
 20
301.3028064992611
 30
0.0
 11
390.983166796912
 21
301.3028064992611
 31
0.0
  0
POLYLINE
  5
7F6
330
A
100
AcDbEntity
  8
DEFPOINTS
100
AcDb2dPolyline
 66
     1
 10
0.0
 20
0.0
 30
0.0
 70
     1
  0
VERTEX
  5
FA8
330
7F6
100
AcDbEntity
  8
DEFPOINTS
100
AcDbVertex
100
AcDb2dVertex
 10
0.0
 20
0.0
 30
0.0
  0
VERTEX
  5
FA9
330
7F6
100
AcDbEntity
  8
DEFPOINTS
100
AcDbVertex
100
AcDb2dVertex
 10
420.0
 20
0.0
 30
0.0
  0
VERTEX
  5
FAA
330
7F6
100
AcDbEntity
  8
DEFPOINTS
100
AcDbVertex
100
AcDb2dVertex
 10
420.0
 20
594.0
 30
0.0
  0
VERTEX
  5
FAB
330
7F6
100
AcDbEntity
  8
DEFPOINTS
100
AcDbVertex
100
AcDb2dVertex
 10
0.0
 20
594.0
 30
0.0
  0
SEQEND
  5
FAC
330
7F6
100
AcDbEntity
  8
DEFPOINTS
  0
DIMENSION
  5
7F7
330
A
100
AcDbEntity
  8
SUNPOU
100
AcDbDimension
  2
*D1
 10
349.6330017343057
 20
466.977653078317
 30
0.0
 11
345.1330017343055
 21
462.477653078317
 31
0.0
 70
    32
  3
SUNPOU_2
100
AcDbAlignedDimension
 13
329.339178303309
 23
452.9776530783169
 33
0.0
 14
321.339178303309
 24
466.977653078317
 34
0.0
 50
90.0
100
AcDbRotatedDimension
1001
ACAD
1000
DSTYLE
1002
{
1070
     7
1000
DOTSMALL
1070
     5
1000

1070
   173
1070
     1
1070
     6
1000
OPEN30
1002
}
  0
DIMENSION
  5
804
330
A
100
AcDbEntity
  8
SUNPOU
100
AcDbDimension
  2
*D2
 10
349.6330017343057
 20
471.9776530783168
 30
0.0
 11
354.1330017343056
 21
469.477653078317
 31
0.0
 70
   160
  3
SUNPOU_2
100
AcDbAlignedDimension
 13
321.339178303309
 23
466.977653078317
 33
0.0
 14
321.339178303309
 24
471.9776530783168
 34
0.0
 50
90.0
100
AcDbRotatedDimension
1001
ACAD
1000
DSTYLE
1002
{
1070
     6
1000
DOTSMALL
1070
     5
1000

1070
   173
1070
     1
1070
     7
1000
DOTSMALL
1002
}
  0
DIMENSION
  5
813
330
A
100
AcDbEntity
  8
SUNPOU
100
AcDbDimension
  2
*D3
 10
349.6330017343057
 20
485.9776530783169
 30
0.0
 11
345.1330017343056
 21
476.4776530783168
 31
0.0
 70
    32
  3
SUNPOU_2
100
AcDbAlignedDimension
 13
321.339178303309
 23
471.9776530783168
 33
0.0
 14
329.339178303309
 24
485.9776530783169
 34
0.0
 50
90.0
100
AcDbRotatedDimension
1001
ACAD
1000
DSTYLE
1002
{
1070
   287
1070
     5
1070
   287
1070
     5
1070
     7
1000
OPEN30
1070
     5
1000

1070
   173
1070
     1
1070
     6
1000
DOTSMALL
1070
   175
1070
     0
1070
   174
1070
     1
1070
   279
1070
     2
1070
   289
1070
     3
1070
   172
1070
     1
1002
}
  0
DIMENSION
  5
84D
330
A
100
AcDbEntity
  8
SUNPOU
100
AcDbDimension
  2
*D4
 10
190.7219160415374
 20
397.4776530783169
 30
0.0
 11
186.2219160415373
 21
390.477653078317
 31
0.0
 70
    32
  3
SUNPOU_2
100
AcDbAlignedDimension
 13
171.3391783033088
 23
383.4776530783169
 33
0.0
 14
179.3391783033088
 24
397.4776530783169
 34
0.0
 50
90.0
100
AcDbRotatedDimension
  0
DIMENSION
  5
85C
330
A
100
AcDbEntity
  8
SUNPOU
100
AcDbDimension
  2
*D5
 10
201.0116695747631
 20
453.4776530783169
 30
0.0
 11
196.5116695747631
 21
418.477653078317
 31
0.0
 70
    32
  3
SUNPOU_2
100
AcDbAlignedDimension
 13
171.3391783033088
 23
383.4776530783169
 33
0.0
 14
182.0204778058195
 24
453.4776530783169
 34
0.0
 50
90.0
100
AcDbRotatedDimension
  0
DIMENSION
  5
869
330
A
100
AcDbEntity
  8
SUNPOU
100
AcDbDimension
  2
*D6
 10
224.9826719086783
 20
383.4776530783169
 30
0.0
 11
220.482671908678
 21
373.4510814324266
 31
0.0
 70
   160
  3
SUNPOU_2
100
AcDbAlignedDimension
 13
166.8391783033088
 23
380.4776530783168
 33
0.0
 14
171.3391783033088
 24
383.4776530783169
 34
0.0
 50
90.0
100
AcDbRotatedDimension
  0
DIMENSION
  5
878
330
A
100
AcDbEntity
  8
SUNPOU
100
AcDbDimension
  2
*D7
 10
224.9826719086783
 20
555.4776530783168
 30
0.0
 11
220.482671908678
 21
469.4776530783169
 31
0.0
 70
    32
  1
DW
  3
SUNPOU_2
100
AcDbAlignedDimension
 13
171.3391783033088
 23
383.4776530783169
 33
0.0
 14
172.3391783033088
 24
555.4776530783168
 34
0.0
 50
90.0
100
AcDbRotatedDimension
  0
DIMENSION
  5
885
330
A
100
AcDbEntity
  8
SUNPOU
100
AcDbDimension
  2
*D8
 10
224.9826719086783
 20
558.477653078317
 30
0.0
 11
220.482671908678
 21
565.9739857874017
 31
0.0
 70
   160
  3
SUNPOU_2
100
AcDbAlignedDimension
 13
172.3391783033088
 23
555.4776530783168
 33
0.0
 14
166.8391783033088
 24
558.477653078317
 34
0.0
 50
90.0
100
AcDbRotatedDimension
  0
DIMENSION
  5
8B3
330
A
100
AcDbEntity
  8
SUNPOU
100
AcDbDimension
  2
*D9
 10
190.7219160415374
 20
555.4776530783168
 30
0.0
 11
186.2219160415373
 21
548.4855300774731
 31
0.0
 70
    32
  3
SUNPOU_2
100
AcDbAlignedDimension
 13
179.4637006300206
 23
541.4934070766292
 33
0.0
 14
171.3391783033088
 24
555.4776530783168
 34
0.0
 50
90.0
100
AcDbRotatedDimension
  0
DIMENSION
  5
8C2
330
A
100
AcDbEntity
  8
SUNPOU
100
AcDbDimension
  2
*D10
 10
236.9039792580559
 20
558.477653078317
 30
0.0
 11
232.4039792580559
 21
469.477653078317
 31
0.0
 70
    32
  1
W
  3
SUNPOU_2
100
AcDbAlignedDimension
 13
236.9039792580559
 23
380.477653078317
 33
0.0
 14
236.9039792580559
 24
558.477653078317
 34
0.0
 50
90.0
100
AcDbRotatedDimension
  0
DIMENSION
  5
8D8
330
A
100
AcDbEntity
  8
SUNPOU
100
AcDbDimension
  2
*D11
 10
179.8391783033089
 20
410.0150396132669
 30
0.0
 11
163.8391783033088
 21
405.515039613267
 31
0.0
 70
   160
 53
180.0
  3
SUNPOU_2
100
AcDbAlignedDimension
 13
147.8391783033089
 23
396.9776530783168
 33
0.0
 14
179.8391783033089
 24
396.9776530783166
 34
0.0
100
AcDbRotatedDimension
  0
DIMENSION
  5
903
330
A
100
AcDbEntity
  8
SUNPOU
100
AcDbDimension
  2
*D12
 10
160.3539201203981
 20
330.3198603464481
 30
0.0
 11
119.353920120398
 21
325.8198603464481
 31
0.0
 70
   160
 53
180.0
  3
SUNPOU_2
100
AcDbAlignedDimension
 13
78.35392012039806
 23
317.3028064992611
 33
0.0
 14
160.3539201203981
 24
309.3028064992612
 34
0.0
100
AcDbRotatedDimension
  0
DIMENSION
  5
910
330
A
100
AcDbEntity
  8
SUNPOU
100
AcDbDimension
  2
*D13
 10
355.9298816588594
 20
330.3198603464481
 30
0.0
 11
314.9298816588593
 21
325.8198603464481
 31
0.0
 70
   160
 53
180.0
  3
SUNPOU_2
100
AcDbAlignedDimension
 13
273.9298816588594
 23
309.3028064992611
 33
0.0
 14
355.9298816588594
 24
317.3028064992613
 34
0.0
100
AcDbRotatedDimension
  0
DIMENSION
  5
91D
330
A
100
AcDbEntity
  8
SUNPOU
100
AcDbDimension
  2
*D14
 10
170.3861814336784
 20
309.3028064992611
 30
0.0
 11
165.8861814336785
 21
301.3028064992608
 31
0.0
 70
    32
  3
SUNPOU_2
100
AcDbAlignedDimension
 13
160.3539201203981
 23
293.3028064992603
 33
0.0
 14
160.0393195133098
 24
309.3028064992611
 34
0.0
 50
90.0
100
AcDbRotatedDimension
  0
DIMENSION
  5
92A
330
A
100
AcDbEntity
  8
SUNPOU
100
AcDbDimension
  2
*D15
 10
185.4829653735201
 20
315.3028064992611
 30
0.0
 11
180.98296537352
 21
301.3028064992611
 31
0.0
 70
    32
  3
SUNPOU_2
100
AcDbAlignedDimension
 13
155.3539201203981
 23
287.3028064992611
 33
0.0
 14
155.3539201203981
 24
315.3028064992611
 34
0.0
 50
90.0
100
AcDbRotatedDimension
  0
DIMENSION
  5
937
330
A
100
AcDbEntity
  8
SUNPOU
100
AcDbDimension
  2
*D16
 10
198.0517850324432
 20
317.3028064992611
 30
0.0
 11
193.5517850324432
 21
301.3028064992611
 31
0.0
 70
    32
  3
SUNPOU_2
100
AcDbAlignedDimension
 13
198.0517850324432
 23
285.3028064992611
 33
0.0
 14
198.0517850324432
 24
317.3028064992611
 34
0.0
 50
90.0
100
AcDbRotatedDimension
  0
DIMENSION
  5
96C
330
A
100
AcDbEntity
  8
SUNPOU
100
AcDbDimension
  2
*D17
 10
89.96345404996892
 20
205.482757255161
 30
0.0
 11
82.05248769963828
 21
200.982757255161
 31
0.0
 70
   160
 53
180.0
  3
SUNPOU_2_10
100
AcDbAlignedDimension
 13
89.66345404996891
 23
186.0347561593196
 33
0.0
 14
89.96345404996892
 24
185.5347561593195
 34
0.0
100
AcDbRotatedDimension
  0
DIMENSION
  5
97B
330
A
100
AcDbEntity
  8
SUNPOU
100
AcDbDimension
  2
*D18
 10
303.3634540499688
 20
205.482757255161
 30
0.0
 11
196.6634540499689
 21
200.982757255161
 31
0.0
 70
   160
  1
DH
 53
180.0
  3
SUNPOU_2_10
100
AcDbAlignedDimension
 13
89.96345404996892
 23
185.5347561593195
 33
0.0
 14
303.3634540499688
 24
185.5347561593195
 34
0.0
100
AcDbRotatedDimension
  0
DIMENSION
  5
988
330
A
100
AcDbEntity
  8
SUNPOU
100
AcDbDimension
  2
*D19
 10
304.3634540499688
 20
205.482757255161
 30
0.0
 11
312.6764477730389
 21
200.982757255161
 31
0.0
 70
   160
 53
180.0
  3
SUNPOU_2_10
100
AcDbAlignedDimension
 13
303.3634540499688
 23
185.5347561593195
 33
0.0
 14
304.3634540499688
 24
186.0347561593195
 34
0.0
100
AcDbRotatedDimension
  0
DIMENSION
  5
9B6
330
A
100
AcDbEntity
  8
SUNPOU
100
AcDbDimension
  2
*D20
 10
319.6272519155505
 20
101.1347561593195
 30
0.0
 11
315.1272519155505
 21
110.5189187928806
 31
0.0
 70
   160
  3
SUNPOU_2_10
100
AcDbAlignedDimension
 13
303.3634540499688
 23
94.13475615931956
 33
0.0
 14
308.3634540499688
 24
101.1347561593195
 34
0.0
 50
90.0
100
AcDbRotatedDimension
  0
DIMENSION
  5
9C5
330
A
100
AcDbEntity
  8
SUNPOU
100
AcDbDimension
  2
*D21
 10
335.9636901278328
 20
94.13475615931956
 30
0.0
 11
331.4636901278328
 21
85.76024700903962
 31
0.0
 70
   160
  3
SUNPOU_2_10
100
AcDbAlignedDimension
 13
304.3634540499688
 23
93.63475615931955
 33
0.0
 14
303.3634540499688
 24
94.13475615931956
 34
0.0
 50
90.0
100
AcDbRotatedDimension
  0
DIMENSION
  5
9D4
330
A
100
AcDbEntity
  8
SUNPOU
100
AcDbDimension
  2
*D22
 10
335.9636901278331
 20
185.5347561593195
 30
0.0
 11
331.4636901278328
 21
139.8347561593193
 31
0.0
 70
    32
  1
DW
  3
SUNPOU_2_10
100
AcDbAlignedDimension
 13
303.3634540499688
 23
94.13475615931956
 33
0.0
 14
303.3634540499688
 24
185.5347561593195
 34
0.0
 50
90.0
100
AcDbRotatedDimension
  0
DIMENSION
  5
9E1
330
A
100
AcDbEntity
  8
SUNPOU
100
AcDbDimension
  2
*D23
 10
335.9636901278331
 20
186.0347561593195
 30
0.0
 11
331.4636901278328
 21
194.1023492168233
 31
0.0
 70
   160
  3
SUNPOU_2_10
100
AcDbAlignedDimension
 13
303.3634540499688
 23
185.5347561593195
 33
0.0
 14
304.3634540499688
 24
186.0347561593195
 34
0.0
 50
90.0
100
AcDbRotatedDimension
  0
DIMENSION
  5
9FB
330
A
100
AcDbEntity
  8
SUNPOU
100
AcDbDimension
  2
*D24
 10
319.6272519155505
 20
185.5347561593195
 30
0.0
 11
315.1272519155505
 21
167.2162788933847
 31
0.0
 70
   160
  3
SUNPOU_2_10
100
AcDbAlignedDimension
 13
309.0634540499688
 23
176.5347561593195
 33
0.0
 14
303.3634540499688
 24
185.5347561593195
 34
0.0
 50
90.0
100
AcDbRotatedDimension
  0
TEXT
  5
B10
330
A
100
AcDbEntity
  8
MOJI
100
AcDbText
 10
273.5200826337131
 20
106.769229237146
 30
0.0
 40
6.0
  1
強化ガラス 10mm,12mm
 50
90.0
 41
0.8
  7
0_8
 11
273.5200826337131
 21
106.769229237146
 31
0.0
100
AcDbText
 73
     1
  0
LINE
  5
C09
330
A
100
AcDbEntity
  8
SAISEN
100
AcDbLine
 10
359.3734232280393
 20
124.0206794682422
 30
0.0
 11
389.3734232280393
 21
124.0206794682422
 31
0.0
  0
LINE
  5
C0F
330
A
100
AcDbEntity
  8
SAISEN
100
AcDbLine
 10
379.3734232280393
 20
84.02067946824223
 30
0.0
 11
379.3734232280393
 21
188.3217312922088
 31
0.0
  0
LINE
  5
C10
330
A
100
AcDbEntity
  8
SAISEN
100
AcDbLine
 10
369.3734232280393
 20
188.3217312922088
 30
0.0
 11
369.3734232280393
 21
84.02067946824223
 31
0.0
  0
MTEXT
  5
C11
330
A
100
AcDbEntity
  8
MOJI
100
AcDbMText
 10
364.3734232280393
 20
104.0206794682422
 30
0.0
 40
6.0
 41
40.0
 71
     5
 72
     1
  1
ガラス厚mm
  7
0_8
 11
0.0000000000000001
 21
1.0
 31
0.0
1001
ACAD
1000
MTEXTBEGIN
1070
    73
1070
     1
1070
    44
1040
1.0
1070
    74
1070
     0
1000
MTEXTEND
1000
MTEXTBEGIN
1070
    73
1070
     1
1070
    44
1040
1.0
1070
    74
1070
     0
1000
MTEXTEND
  0
MTEXT
  5
C12
330
A
100
AcDbEntity
  8
MOJI
100
AcDbMText
 10
374.3734232280393
 20
104.0206794682422
 30
0.0
 40
6.0
 41
40.0
 71
     5
 72
     1
  1
10
  7
0_8
 11
0.0000000000000001
 21
1.0
 31
0.0
1001
ACAD
1000
MTEXTBEGIN
1070
    73
1070
     1
1070
    44
1040
1.0
1070
    74
1070
     0
1000
MTEXTEND
1000
MTEXTBEGIN
1070
    73
1070
     1
1070
    44
1040
1.0
1070
    74
1070
     0
1000
MTEXTEND
  0
MTEXT
  5
C13
330
A
100
AcDbEntity
  8
MOJI
100
AcDbMText
 10
384.3734232280393
 20
104.0206794682422
 30
0.0
 40
6.0
 41
40.0
 71
     5
 72
     1
  1
12
  7
0_8
 11
0.0000000000000001
 21
1.0
 31
0.0
1001
ACAD
1000
MTEXTBEGIN
1070
    73
1070
     1
1070
    44
1040
1.0
1070
    74
1070
     0
1000
MTEXTEND
1000
MTEXTBEGIN
1070
    73
1070
     1
1070
    44
1040
1.0
1070
    74
1070
     0
1000
MTEXTEND
  0
MTEXT
  5
C14
330
A
100
AcDbEntity
  8
MOJI
100
AcDbMText
 10
354.3734232280393
 20
136.1712053802255
 30
0.0
 40
6.0
 41
104.3011
 71
     5
 72
     1
  1
最大寸法 mm
  7
0_8
 11
0.0000000000000001
 21
1.0
 31
0.0
1001
ACAD
1000
MTEXTBEGIN
1070
    73
1070
     1
1070
    44
1040
1.0
1070
    74
1070
     0
1000
MTEXTEND
1000
MTEXTBEGIN
1070
    73
1070
     1
1070
    44
1040
1.0
1070
    74
1070
     0
1000
MTEXTEND
  0
MTEXT
  5
C15
330
A
100
AcDbEntity
  8
MOJI
100
AcDbMText
 10
374.3734232280393
 20
156.1712053802255
 30
0.0
 40
6.0
 41
64.3011
 71
     5
 72
     1
  1
1000×2200
  7
0_8
 11
0.0000000000000001
 21
1.0
 31
0.0
1001
ACAD
1000
MTEXTBEGIN
1070
    73
1070
     1
1070
    44
1040
1.0
1070
    74
1070
     0
1000
MTEXTEND
1000
MTEXTBEGIN
1070
    73
1070
     1
1070
    44
1040
1.0
1070
    74
1070
     0
1000
MTEXTEND
  0
MTEXT
  5
C16
330
A
100
AcDbEntity
  8
MOJI
100
AcDbMText
 10
384.3734232280393
 20
156.1712053802255
 30
0.0
 40
6.0
 41
64.3011
 71
     5
 72
     1
  1
1200×2500
  7
0_8
 11
0.0000000000000001
 21
1.0
 31
0.0
1001
ACAD
1000
MTEXTBEGIN
1070
    73
1070
     1
1070
    44
1040
1.0
1070
    74
1070
     0
1000
MTEXTEND
1000
MTEXTBEGIN
1070
    73
1070
     1
1070
    44
1040
1.0
1070
    74
1070
     0
1000
MTEXTEND
  0
MTEXT
  5
C17
330
A
100
AcDbEntity
  8
MOJI
100
AcDbMText
 10
364.3734232280393
 20
156.1712053802255
 30
0.0
 40
6.0
 41
64.30105182396665
 71
     5
 72
     1
  1
 DW×DH
  7
0_8
 11
0.0000000000000001
 21
1.0
 31
0.0
1001
ACAD
1000
MTEXTBEGIN
1070
    73
1070
     1
1070
    44
1040
1.0
1070
    74
1070
     0
1000
MTEXTEND
1000
MTEXTBEGIN
1070
    73
1070
     1
1070
    44
1040
1.0
1070
    74
1070
     0
1000
MTEXTEND
  0
POLYLINE
  5
C1B
330
A
100
AcDbEntity
  8
SAISEN
100
AcDb2dPolyline
 66
     1
 10
0.0
 20
0.0
 30
0.0
 70
     1
  0
VERTEX
  5
FB9
330
C1B
100
AcDbEntity
  8
SAISEN
100
AcDbVertex
100
AcDb2dVertex
 10
359.3734232280393
 20
84.02067946824223
 30
0.0
  0
VERTEX
  5
FBA
330
C1B
100
AcDbEntity
  8
SAISEN
100
AcDbVertex
100
AcDb2dVertex
 10
389.3734232280393
 20
84.02067946824223
 30
0.0
  0
VERTEX
  5
FBB
330
C1B
100
AcDbEntity
  8
SAISEN
100
AcDbVertex
100
AcDb2dVertex
 10
389.3734232280393
 20
188.3217312922088
 30
0.0
  0
VERTEX
  5
FBC
330
C1B
100
AcDbEntity
  8
SAISEN
100
AcDbVertex
100
AcDb2dVertex
 10
359.3734232280393
 20
188.3217312922088
 30
0.0
  0
SEQEND
  5
FBD
330
C1B
100
AcDbEntity
  8
SAISEN
  0
POLYLINE
  5
C25
330
A
100
AcDbEntity
  8
SAISEN
100
AcDb2dPolyline
 66
     1
 10
0.0
 20
0.0
 30
0.0
 70
     1
  0
VERTEX
  5
FBE
330
C25
100
AcDbEntity
  8
SAISEN
100
AcDbVertex
100
AcDb2dVertex
 10
26.6841949778434
 20
122.9101181683899
 30
0.0
  0
VERTEX
  5
FBF
330
C25
100
AcDbEntity
  8
SAISEN
100
AcDbVertex
100
AcDb2dVertex
 10
36.68419497784341
 20
122.9101181683899
 30
0.0
  0
VERTEX
  5
FC0
330
C25
100
AcDbEntity
  8
SAISEN
100
AcDbVertex
100
AcDb2dVertex
 10
36.68419497784341
 20
152.9101181683899
 30
0.0
  0
VERTEX
  5
FC1
330
C25
100
AcDbEntity
  8
SAISEN
100
AcDbVertex
100
AcDb2dVertex
 10
26.6841949778434
 20
152.9101181683899
 30
0.0
  0
SEQEND
  5
FC2
330
C25
100
AcDbEntity
  8
SAISEN
  0
MTEXT
  5
C26
330
A
100
AcDbEntity
  8
MOJI
100
AcDbMText
 10
31.6841949778434
 20
137.9101181683899
 30
0.0
 40
6.0
 41
30.0
 71
     5
 72
     1
  1
姿　図
  7
0_8
 11
0.0000000000000001
 21
1.0
 31
0.0
1001
ACAD
1000
MTEXTBEGIN
1070
    73
1070
     1
1070
    44
1040
1.0
1070
    74
1070
     0
1000
MTEXTEND
1000
MTEXTBEGIN
1070
    73
1070
     1
1070
    44
1040
1.0
1070
    74
1070
     0
1000
MTEXTEND
  0
ARC
  5
CD6
330
A
100
AcDbEntity
  8
03
100
AcDbCircle
 10
272.6872409717385
 20
307.8028064992616
 30
0.0
 40
1.947859306338554
100
AcDbArc
 50
309.6392722377821
 51
50.36072776221579
  0
ARC
  5
CD7
330
A
100
AcDbEntity
  8
03
100
AcDbCircle
 10
272.6872409717423
 20
294.8028064992612
 30
0.0
 40
1.947859306335609
100
AcDbArc
 50
309.6392722377061
 51
50.36072776229055
  0
ARC
  5
CD8
330
A
100
AcDbEntity
  8
03
100
AcDbCircle
 10
161.5965608075178
 20
307.8028064992616
 30
0.0
 40
1.947859306338554
100
AcDbArc
 50
129.6392722377841
 51
230.3607277622179
  0
ARC
  5
CD9
330
A
100
AcDbEntity
  8
03
100
AcDbCircle
 10
161.5965608075138
 20
294.8028064992612
 30
0.0
 40
1.947859306335609
100
AcDbArc
 50
129.6392722377094
 51
230.3607277622937
  0
LINE
  5
D45
330
A
100
AcDbEntity
  8
03
100
AcDbLine
 10
160.3539201203981
 20
309.3028064992631
 30
0.0
 11
218.9531276019331
 21
309.3028064992631
 31
0.0
  0
LINE
  5
D46
330
A
100
AcDbEntity
  8
03
100
AcDbLine
 10
160.3539201203981
 20
293.3028064992603
 30
0.0
 11
218.9531276019331
 21
293.3028064992606
 31
0.0
  0
LINE
  5
D47
330
A
100
AcDbEntity
  8
03
100
AcDbLine
 10
273.9298816588594
 20
309.302806499261
 30
0.0
 11
223.9531276019329
 21
309.3028064992608
 31
0.0
  0
LINE
  5
D48
330
A
100
AcDbEntity
  8
03
100
AcDbLine
 10
273.9298816588588
 20
293.302806499261
 30
0.0
 11
223.9531276019329
 21
293.3028064992608
 31
0.0
  0
LINE
  5
D86
330
A
100
AcDbEntity
  8
04
100
AcDbLine
 10
133.3539201203981
 20
309.3028064992612
 30
0.0
 11
133.3539201203981
 21
293.3028064992612
 31
0.0
  0
LINE
  5
D87
330
A
100
AcDbEntity
  8
04
100
AcDbLine
 10
160.3539201203981
 20
309.3028064992612
 30
0.0
 11
133.3539201203981
 21
309.3028064992612
 31
0.0
  0
LINE
  5
D88
330
A
100
AcDbEntity
  8
04
100
AcDbLine
 10
160.3539201203981
 20
293.3028064992612
 30
0.0
 11
133.3539201203981
 21
293.3028064992612
 31
0.0
  0
LINE
  5
D91
330
A
100
AcDbEntity
  8
04
100
AcDbLine
 10
273.9298816588606
 20
309.302806499261
 30
0.0
 11
300.9298816588592
 21
309.302806499261
 31
0.0
  0
LINE
  5
D92
330
A
100
AcDbEntity
  8
04
100
AcDbLine
 10
300.9298816588592
 20
309.302806499261
 30
0.0
 11
300.9298816588592
 21
293.3028064992611
 31
0.0
  0
LINE
  5
D93
330
A
100
AcDbEntity
  8
04
100
AcDbLine
 10
273.9298816588586
 20
293.302806499261
 30
0.0
 11
300.9298816588592
 21
293.3028064992611
 31
0.0
  0
CIRCLE
  5
E11
330
A
100
AcDbEntity
  8
SAISEN
100
AcDbCircle
 10
391.0976380784321
 20
52.54302641223159
 30
0.0
 40
5.0
  0
TEXT
  5
E12
330
A
100
AcDbEntity
  8
MOJI
100
AcDbText
 10
388.0488190392161
 20
48.27151320611588
 30
0.0
 40
8.0
  1
Ｓ
 41
0.8
  7
0_8
 11
388.0488190392161
 21
56.27151320611588
 31
0.0
100
AcDbText
 73
     3
  0
LINE
  5
E38
330
A
100
AcDbEntity
  8
04
100
AcDbLine
 10
156.8391783033088
 20
545.977653078317
 30
0.0
 11
156.839178303309
 21
542.4776530783169
 31
0.0
  0
LINE
  5
E39
330
A
100
AcDbEntity
  8
04
100
AcDbLine
 10
149.8391783033089
 20
542.4776530783169
 30
0.0
 11
149.8391783033089
 21
541.4776530783171
 31
0.0
  0
LINE
  5
E3A
330
A
100
AcDbEntity
  8
04
100
AcDbLine
 10
170.8391783033088
 20
545.977653078317
 30
0.0
 11
170.839178303309
 21
542.4776530783169
 31
0.0
  0
LINE
  5
E3B
330
A
100
AcDbEntity
  8
04
100
AcDbLine
 10
177.8391783033089
 20
542.4776530783169
 30
0.0
 11
177.8391783033089
 21
541.4776530783171
 31
0.0
  0
LINE
  5
E3C
330
A
100
AcDbEntity
  8
04
100
AcDbLine
 10
149.8391783033089
 20
397.4776530783169
 30
0.0
 11
149.8391783033089
 21
396.4776530783169
 31
0.0
  0
LINE
  5
E3D
330
A
100
AcDbEntity
  8
04
100
AcDbLine
 10
156.8391783033089
 20
396.4776530783169
 30
0.0
 11
156.8391783033088
 21
392.9776530783169
 31
0.0
  0
LINE
  5
E3E
330
A
100
AcDbEntity
  8
04
100
AcDbLine
 10
170.8391783033088
 20
396.4776530783169
 30
0.0
 11
170.8391783033088
 21
392.9776530783169
 31
0.0
  0
LINE
  5
E3F
330
A
100
AcDbEntity
  8
04
100
AcDbLine
 10
177.8391783033089
 20
397.4776530783169
 30
0.0
 11
177.8391783033089
 21
396.4776530783169
 31
0.0
  0
LINE
  5
E40
330
A
100
AcDbEntity
  8
04
100
AcDbLine
 10
299.8391783033088
 20
485.9776530783169
 30
0.0
 11
299.8391783033088
 21
484.9776530783167
 31
0.0
  0
LINE
  5
E41
330
A
100
AcDbEntity
  8
04
100
AcDbLine
 10
306.839178303309
 20
484.9776530783167
 30
0.0
 11
306.839178303309
 21
481.4776530783169
 31
0.0
  0
LINE
  5
E42
330
A
100
AcDbEntity
  8
04
100
AcDbLine
 10
320.8391783033088
 20
484.9776530783167
 30
0.0
 11
320.8391783033088
 21
481.4776530783169
 31
0.0
  0
LINE
  5
E43
330
A
100
AcDbEntity
  8
04
100
AcDbLine
 10
327.8391783033088
 20
485.9776530783169
 30
0.0
 11
327.8391783033088
 21
484.9776530783167
 31
0.0
  0
LINE
  5
E44
330
A
100
AcDbEntity
  8
04
100
AcDbLine
 10
299.8391783033088
 20
453.977653078317
 30
0.0
 11
299.8391783033088
 21
452.9776530783169
 31
0.0
  0
LINE
  5
E45
330
A
100
AcDbEntity
  8
04
100
AcDbLine
 10
327.8391783033088
 20
453.977653078317
 30
0.0
 11
327.8391783033088
 21
452.9776530783169
 31
0.0
  0
LEADER
  5
E80
330
A
100
AcDbEntity
  8
HIKIDASI
100
AcDbLeader
  3
SUNPOU_2_10
 73
     0
 75
     1
 40
5.0
 41
31.73333333333333
 76
     3
 10
131.6910091741462
 20
287.3028064992611
 30
0.0
 10
98.76126465419114
 20
268.4446986574615
 30
0.0
 10
98.76126465419114
 20
263.4446986574615
 30
0.0
340
E81
211
0.0000000000000001
221
1.0
231
0.0
213
2.040124763877428
223
0.0
233
0.0
1001
ACAD
1000
DSTYLE
1002
{
1070
     5
1000
OPEN30
1070
    77
1070
     1
1070
   147
1040
1.0
1070
   342
1005
7E0
1002
}
1000
LEANOF
1010
2.040124763877428
1020
0.0
1030
0.0
1000
LEANOF
1010
2.040124763877428
1020
0.0
1030
0.0
1000
LEANOF
1010
2.040124763877428
1020
0.0
1030
0.0
  0
MTEXT
  5
E81
330
A
100
AcDbEntity
  8
HIKIDASI
100
AcDbMText
 10
94.72113989031369
 20
261.4446986574615
 30
0.0
 40
5.0
 41
0.0
 71
     9
 72
     1
  1
アルミフレーム
  7
SUNPOU
 11
0.0000000000000001
 21
1.0
 31
0.0
1001
ACAD
1000
MTEXTBEGIN
1070
    73
1070
     1
1070
    44
1040
1.0
1070
    74
1070
     0
1000
MTEXTEND
1000
MTEXTBEGIN
1070
    73
1070
     1
1070
    44
1040
1.0
1070
    74
1070
     0
1000
MTEXTEND
  0
MTEXT
  5
E82
330
A
100
AcDbEntity
  8
HIKIDASI
100
AcDbMText
 10
338.2321563786764
 20
354.6753310864831
 30
0.0
 40
5.0
 41
0.0
 71
     7
 72
     1
  1
フロアプレート\P（SUS-304）
  7
SUNPOU
 11
0.0000000000000001
 21
1.0
 31
0.0
1001
ACAD
1000
MTEXTBEGIN
1070
    73
1070
     1
1070
    44
1040
1.0
1070
    74
1070
     0
1000
MTEXTEND
1000
MTEXTBEGIN
1070
    73
1070
     1
1070
    44
1040
1.0
1070
    74
1070
     0
1000
MTEXTEND
  0
LEADER
  5
E83
330
A
100
AcDbEntity
  8
HIKIDASI
100
AcDbLeader
  3
SUNPOU_2_10
 73
     0
 74
     0
 75
     1
 40
13.33333333333333
 41
33.2
 76
     3
 10
365.9298816588594
 20
338.4875258368807
 30
0.0
 10
331.3184967948505
 20
347.6753310864831
 30
0.0
 10
331.3184967948505
 20
352.6753310864831
 30
0.0
340
E82
211
0.0000000000000001
221
1.0
231
0.0
213
-8.913659583825847
223
0.0
233
0.0
1001
ACAD
1000
DSTYLE
1002
{
1070
     5
1000
OPEN30
1070
    77
1070
     1
1070
   147
1040
1.0
1070
   342
1005
7E0
1002
}
1000
LEANOF
1010
-8.913659583825847
1020
0.0
1030
0.0
1000
LEANOF
1010
-8.913659583825847
1020
0.0
1030
0.0
1000
LEANOF
1010
-8.913659583825847
1020
0.0
1030
0.0
  0
MTEXT
  5
EFD
330
A
100
AcDbEntity
  8
MOJI
100
AcDbMText
 10
359.9999999999998
 20
31.99999999999953
 30
0.0
 40
6.0
 41
49.99999999999993
 71
     5
 72
     1
  1
姿図･たて断面図\Pよこ断面図　 　
  7
0_80
1001
ACAD
1000
MTEXTBEGIN
1070
    73
1070
     1
1070
    44
1040
1.0
1070
    74
1070
     0
1000
MTEXTEND
1000
MTEXTBEGIN
1070
    73
1070
     1
1070
    44
1040
1.0
1070
    74
1070
     0
1000
MTEXTEND
  0
MTEXT
  5
EFE
330
A
100
AcDbEntity
  8
MOJI
100
AcDbMText
 10
309.9999999999996
 20
31.5
 30
0.0
 40
7.0
 41
50.0
 71
     5
 72
     1
  1
図番２０－７
  7
0_80
1001
ACAD
1000
MTEXTBEGIN
1070
    73
1070
     1
1070
    44
1040
1.0
1070
    74
1070
     0
1000
MTEXTEND
1000
MTEXTBEGIN
1070
    73
1070
     1
1070
    44
1040
1.0
1070
    74
1070
     0
1000
MTEXTEND
  0
MTEXT
  5
EFF
330
A
100
AcDbEntity
  8
MOJI
100
AcDbMText
 10
185.0
 20
32.0
 30
0.0
 40
7.0
 41
80.0
 71
     5
 72
     1
  1
スイングドア
  7
0_8
1001
ACAD
1000
MTEXTBEGIN
1070
    73
1070
     1
1070
    44
1040
1.0
1070
    74
1070
     0
1000
MTEXTEND
1000
MTEXTBEGIN
1070
    73
1070
     1
1070
    44
1040
1.0
1070
    74
1070
     0
1000
MTEXTEND
  0
POLYLINE
  5
F00
330
A
100
AcDbEntity
  8
SAISEN
100
AcDb2dPolyline
 66
     1
 10
0.0
 20
0.0
 30
0.0
 70
     1
  0
VERTEX
  5
FC3
330
F00
100
AcDbEntity
  8
SAISEN
100
AcDbVertex
100
AcDb2dVertex
 10
35.0
 20
20.0
 30
0.0
  0
VERTEX
  5
FC4
330
F00
100
AcDbEntity
  8
SAISEN
100
AcDbVertex
100
AcDb2dVertex
 10
385.0
 20
20.0
 30
0.0
  0
VERTEX
  5
FC5
330
F00
100
AcDbEntity
  8
SAISEN
100
AcDbVertex
100
AcDb2dVertex
 10
385.0
 20
44.0
 30
0.0
  0
VERTEX
  5
FC6
330
F00
100
AcDbEntity
  8
SAISEN
100
AcDbVertex
100
AcDb2dVertex
 10
35.0
 20
44.0
 30
0.0
  0
SEQEND
  5
FC7
330
F00
100
AcDbEntity
  8
SAISEN
  0
MTEXT
  5
F01
330
A
100
AcDbEntity
  8
MOJI
100
AcDbMText
 10
90.0
 20
32.0
 30
0.0
 40
7.0
 41
110.0
 71
     5
 72
     1
  1
アルクラッセ･ドア
  7
0_8
1001
ACAD
1000
MTEXTBEGIN
1070
    73
1070
     1
1070
    44
1040
1.0
1070
    74
1070
     0
1000
MTEXTEND
1000
MTEXTBEGIN
1070
    73
1070
     1
1070
    44
1040
1.0
1070
    74
1070
     0
1000
MTEXTEND
  0
LINE
  5
F02
330
A
100
AcDbEntity
  8
SAISEN
100
AcDbLine
 10
144.9999999999999
 20
44.0
 30
0.0
 11
144.9999999999999
 21
20.0
 31
0.0
  0
LINE
  5
F03
330
A
100
AcDbEntity
  8
SAISEN
100
AcDbLine
 10
285.0
 20
44.0
 30
0.0
 11
285.0
 21
20.0
 31
0.0
  0
VIEWPORT
  5
DE2
102
{ACAD_XDICTIONARY
360
F97
102
}
330
B
100
AcDbEntity
 67
     1
  8
0
100
AcDbViewport
 10
198.0508299538852
 20
285.1874487354476
 30
0.0
 40
1080.347564134147
 41
628.3535021666721
 68
     1
 69
     1
1001
ACAD
1000
MVIEW
1002
{
1070
    16
1010
0.0
1020
0.0
1030
0.0
1010
0.0
1020
0.0
1030
1.0
1040
0.0
1040
628.3535021666721
1040
198.0508299538852
1040
285.1874487354476
1040
50.0
1040
0.0
1040
0.0
1070
     0
1070
   100
1070
     1
1070
     1
1070
     0
1070
     0
1070
     0
1070
     0
1040
0.0
1040
0.0
1040
0.0
1040
10.0
1040
10.0
1040
10.0
1040
10.0
1070
     0
1002
{
1002
}
1002
}
  0
VIEWPORT
  5
F1C
102
{ACAD_XDICTIONARY
360
F99
102
}
330
B
100
AcDbEntity
 67
     1
  8
DEFPOINTS
100
AcDbViewport
 10
198.0508309076476
 20
285.1874477816851
 30
0.0
 40
396.4883172119752
 41
570.409736121624
 68
     2
 69
     2
1001
ACAD
1000
MVIEW
1002
{
1070
    16
1010
0.0
1020
0.0
1030
0.0
1010
0.0
1020
0.0
1030
1.0
1040
0.0
1040
570.409736121624
1040
210.0
1040
297.0
1040
50.0
1040
0.0
1040
0.0
1070
     0
1070
   100
1070
     1
1070
     1
1070
     0
1070
     0
1070
     0
1070
     0
1040
0.0
1040
0.0
1040
0.0
1040
1.0
1040
1.0
1040
0.0
1040
0.0
1070
     0
1002
{
1002
}
1002
}
  0
ENDSEC
  0
SECTION
  2
OBJECTS
  0
DICTIONARY
  5
19
330
0
100
AcDbDictionary
  3
ACAD_COLOR
350
C45
  3
ACAD_GROUP
350
1A
  3
ACAD_LAYOUT
350
3B1
  3
ACAD_MATERIAL
350
C44
  3
ACAD_MLINESTYLE
350
1B
  3
ACAD_PLOTSETTINGS
350
3B2
  3
ACADDIM
350
C28
  3
ASE_INDEX_DICTIONARY
350
F70
1001
ACAD
1000
TREAT_AS_HARD
1070
     0
1000
TREAT_AS_HARD
1070
     0
1000
TREAT_AS_HARD
1070
     0
  0
DICTIONARY
  5
EEF
330
2
100
AcDbDictionary
  3
ACAD_LAYERSTATES
350
EF0
1001
ACAD
1000
TREAT_AS_HARD
1070
     1
1000
TREAT_AS_HARD
1070
     1
  0
DICTIONARY
  5
EA7
330
A
100
AcDbDictionary
  3
ACAD_LAYOUTSELFREF
350
FA5
1001
ACAD
1000
TREAT_AS_HARD
1070
     1
1000
TREAT_AS_HARD
1070
     1
  0
DICTIONARY
  5
EA9
330
B
100
AcDbDictionary
  3
ACAD_LAYOUTSELFREF
350
FA6
1001
ACAD
1000
TREAT_AS_HARD
1070
     1
1000
TREAT_AS_HARD
1070
     1
  0
DICTIONARY
  5
F97
330
DE2
100
AcDbDictionary
  3
ACAD_XREC_ROUNDTRIP
350
F98
1001
ACAD
1000
TREAT_AS_HARD
1070
     1
  0
DICTIONARY
  5
F99
330
F1C
100
AcDbDictionary
  3
ACAD_XREC_ROUNDTRIP
350
F9A
1001
ACAD
1000
TREAT_AS_HARD
1070
     1
  0
DICTIONARY
  5
C45
102
{ACAD_REACTORS
330
19
102
}
330
19
100
AcDbDictionary
1001
ACAD
1000
TREAT_AS_HARD
1070
     0
1000
TREAT_AS_HARD
1070
     0
1000
TREAT_AS_HARD
1070
     0
  0
DICTIONARY
  5
1A
102
{ACAD_REACTORS
330
19
102
}
330
19
100
AcDbDictionary
1001
ACAD
1000
TREAT_AS_HARD
1070
     0
1000
TREAT_AS_HARD
1070
     0
1000
TREAT_AS_HARD
1070
     0
  0
DICTIONARY
  5
3B1
102
{ACAD_REACTORS
330
19
102
}
330
19
100
AcDbDictionary
1001
ACAD
1000
TREAT_AS_HARD
1070
     0
1000
TREAT_AS_HARD
1070
     0
1000
TREAT_AS_HARD
1070
     0
  0
DICTIONARY
  5
C44
102
{ACAD_REACTORS
330
19
102
}
330
19
100
AcDbDictionary
1001
ACAD
1000
TREAT_AS_HARD
1070
     0
1000
TREAT_AS_HARD
1070
     0
1000
TREAT_AS_HARD
1070
     0
  0
DICTIONARY
  5
1B
102
{ACAD_REACTORS
330
19
102
}
330
19
100
AcDbDictionary
  3
STANDARD
350
1C
1001
ACAD
1000
TREAT_AS_HARD
1070
     0
1000
TREAT_AS_HARD
1070
     0
1000
TREAT_AS_HARD
1070
     0
  0
DICTIONARY
  5
3B2
102
{ACAD_REACTORS
330
19
102
}
330
19
100
AcDbDictionary
1001
ACAD
1000
TREAT_AS_HARD
1070
     0
1000
TREAT_AS_HARD
1070
     0
1000
TREAT_AS_HARD
1070
     0
  0
XRECORD
  5
C28
102
{ACAD_REACTORS
330
19
102
}
330
19
100
AcDbXrecord
 90
   990106
  3

 60
     0
 61
     0
 62
     4
 63
     4
 64
     1
 65
     0
 66
     0
 67
     3
 68
     1
 69
     0
 70
     0
 71
     0
 72
     0
 40
0.0
170
     2
340
0
  0
DICTIONARY
  5
F70
102
{ACAD_REACTORS
330
19
102
}
330
19
100
AcDbDictionary
  3
ASEBLOCKHIERARCHYINDEXRECORD
350
F71
1001
DCO15
1040
1508820673.499999
1001
ACAD
1000
TREAT_AS_HARD
1070
     0
  0
DICTIONARY
  5
EF0
102
{ACAD_REACTORS
330
EEF
102
}
330
EEF
100
AcDbDictionary
1001
ACAD
1000
TREAT_AS_HARD
1070
     0
1000
TREAT_AS_HARD
1070
     0
  0
XRECORD
  5
FA5
102
{ACAD_REACTORS
330
EA7
102
}
330
EA7
100
AcDbXrecord
340
A
  0
XRECORD
  5
FA6
102
{ACAD_REACTORS
330
EA9
102
}
330
EA9
100
AcDbXrecord
340
B
  0
XRECORD
  5
F98
102
{ACAD_REACTORS
330
F97
102
}
330
F97
100
AcDbXrecord
102
SHADEPLOT
 70
     0
  0
XRECORD
  5
F9A
102
{ACAD_REACTORS
330
F99
102
}
330
F99
100
AcDbXrecord
102
SHADEPLOT
 70
     0
  0
MLINESTYLE
  5
1C
102
{ACAD_REACTORS
330
1B
102
}
330
1B
100
AcDbMlineStyle
  2
STANDARD
 70
     0
  3

 62
     0
 51
90.0
 52
90.0
 71
     2
 49
0.5
 62
   256
  6
BYLAYER
 49
-0.5
 62
   256
  6
BYLAYER
  0
XRECORD
  5
F71
102
{ACAD_REACTORS
330
F70
102
}
330
F70
100
AcDbXrecord
330
EB4
330
EB5
330
EBE
330
EBF
330
F4B
330
F4C
330
854
330
855
330
861
330
862
330
8AE
330
8AF
330
8A2
330
8A3
330
89A
330
89B
330
8BA
330
8BB
330
8D2
330
8D3
330
8FE
330
8FF
330
967
330
968
330
95E
330
95F
330
D4C
330
D4D
330
92F
330
930
330
93C
330
93D
330
ADA
330
ADB
330
AEC
330
AED
330
B02
330
B03
330
A45
330
A46
330
A19
330
A1A
330
A0D
330
A0E
330
9F6
330
9F7
330
A2F
330
A30
  0
ENDSEC
  0
EOF
