  0
SECTION
  2
HEADER
  9
$ACADVER
  1
AC1012
  9
$DWGCODEPAGE
  3
dos932
  9
$INSBASE
 10
0.0
 20
0.0
 30
0.0
  9
$EXTMIN
 10
0.0
 20
0.0
 30
0.0
  9
$EXTMAX
 10
420.0
 20
594.0
 30
0.0
  9
$LIMMIN
 10
0.0
 20
0.0
  9
$LIMMAX
 10
420.0
 20
594.0
  9
$ORTHOMODE
 70
     1
  9
$REGENMODE
 70
     1
  9
$FILLMODE
 70
     1
  9
$QTEXTMODE
 70
     0
  9
$MIRRTEXT
 70
     1
  9
$DRAGMODE
 70
     2
  9
$LTSCALE
 40
0.5
  9
$OSMODE
 70
    37
  9
$ATTMODE
 70
     1
  9
$TEXTSIZE
 40
7.0
  9
$TRACEWID
 40
0.05
  9
$TEXTSTYLE
  7
STANDARD
  9
$CLAYER
  8
DEFPOINTS
  9
$CELTYPE
  6
BYLAYER
  9
$CECOLOR
 62
   256
  9
$CELTSCALE
 40
1.0
  9
$DELOBJ
 70
     1
  9
$DISPSILH
 70
     0
  9
$DIMSCALE
 40
2.0
  9
$DIMASZ
 40
2.5
  9
$DIMEXO
 40
1.5
  9
$DIMDLI
 40
0.0
  9
$DIMRND
 40
0.0
  9
$DIMDLE
 40
0.0
  9
$DIMEXE
 40
1.0
  9
$DIMTP
 40
0.0
  9
$DIMTM
 40
0.0
  9
$DIMTXT
 40
2.5
  9
$DIMCEN
 40
0.0
  9
$DIMTSZ
 40
0.0
  9
$DIMTOL
 70
     0
  9
$DIMLIM
 70
     0
  9
$DIMTIH
 70
     0
  9
$DIMTOH
 70
     0
  9
$DIMSE1
 70
     0
  9
$DIMSE2
 70
     0
  9
$DIMTAD
 70
     1
  9
$DIMZIN
 70
     8
  9
$DIMBLK
  1
OPEN30
  9
$DIMASO
 70
     1
  9
$DIMSHO
 70
     1
  9
$DIMPOST
  1

  9
$DIMAPOST
  1

  9
$DIMALT
 70
     0
  9
$DIMALTD
 70
     2
  9
$DIMALTF
 40
25.4
  9
$DIMLFAC
 40
1.0
  9
$DIMTOFL
 70
     1
  9
$DIMTVP
 40
0.0
  9
$DIMTIX
 70
     1
  9
$DIMSOXD
 70
     0
  9
$DIMSAH
 70
     0
  9
$DIMBLK1
  1

  9
$DIMBLK2
  1

  9
$DIMSTYLE
  2
SUNPOU_2
  9
$DIMCLRD
 70
   256
  9
$DIMCLRE
 70
   256
  9
$DIMCLRT
 70
   256
  9
$DIMTFAC
 40
1.0
  9
$DIMGAP
 40
1.0
  9
$DIMJUST
 70
     0
  9
$DIMSD1
 70
     0
  9
$DIMSD2
 70
     0
  9
$DIMTOLJ
 70
     1
  9
$DIMTZIN
 70
     0
  9
$DIMALTZ
 70
     0
  9
$DIMALTTZ
 70
     0
  9
$DIMFIT
 70
     3
  9
$DIMUPT
 70
     0
  9
$DIMUNIT
 70
     2
  9
$DIMDEC
 70
     1
  9
$DIMTDEC
 70
     1
  9
$DIMALTU
 70
     2
  9
$DIMALTTD
 70
     2
  9
$DIMTXSTY
  7
SUNPOU
  9
$DIMAUNIT
 70
     0
  9
$LUNITS
 70
     2
  9
$LUPREC
 70
     4
  9
$SKETCHINC
 40
0.1
  9
$FILLETRAD
 40
0.0
  9
$AUNITS
 70
     0
  9
$AUPREC
 70
     0
  9
$MENU
  1
acad
  9
$ELEVATION
 40
0.0
  9
$PELEVATION
 40
0.0
  9
$THICKNESS
 40
0.0
  9
$LIMCHECK
 70
     0
  9
$BLIPMODE
 70
     0
  9
$CHAMFERA
 40
0.0
  9
$CHAMFERB
 40
0.0
  9
$CHAMFERC
 40
0.0
  9
$CHAMFERD
 40
0.0
  9
$SKPOLY
 70
     0
  9
$TDCREATE
 40
2444972.375000000
  9
$TDUPDATE
 40
2453266.435990486
  9
$TDINDWG
 40
0.2785635417
  9
$TDUSRTIMER
 40
0.2785635417
  9
$USRTIMER
 70
     1
  9
$ANGBASE
 50
0.0
  9
$ANGDIR
 70
     0
  9
$PDMODE
 70
     0
  9
$PDSIZE
 40
1.0
  9
$PLINEWID
 40
0.0
  9
$COORDS
 70
     1
  9
$SPLFRAME
 70
     0
  9
$SPLINETYPE
 70
     6
  9
$SPLINESEGS
 70
     8
  9
$ATTDIA
 70
     0
  9
$ATTREQ
 70
     1
  9
$HANDLING
 70
-16383
  9
$HANDSEED
  5
1465
  9
$SURFTAB1
 70
     6
  9
$SURFTAB2
 70
     6
  9
$SURFTYPE
 70
     6
  9
$SURFU
 70
     6
  9
$SURFV
 70
     6
  9
$UCSNAME
  2

  9
$UCSORG
 10
0.0
 20
0.0
 30
0.0
  9
$UCSXDIR
 10
1.0
 20
0.0
 30
0.0
  9
$UCSYDIR
 10
0.0
 20
1.0
 30
0.0
  9
$PUCSNAME
  2

  9
$PUCSORG
 10
0.0
 20
0.0
 30
0.0
  9
$PUCSXDIR
 10
1.0
 20
0.0
 30
0.0
  9
$PUCSYDIR
 10
0.0
 20
1.0
 30
0.0
  9
$USERI1
 70
     0
  9
$USERI2
 70
     0
  9
$USERI3
 70
     0
  9
$USERI4
 70
     0
  9
$USERI5
 70
     0
  9
$USERR1
 40
0.0
  9
$USERR2
 40
0.0
  9
$USERR3
 40
0.0
  9
$USERR4
 40
0.0
  9
$USERR5
 40
0.0
  9
$WORLDVIEW
 70
     1
  9
$SHADEDGE
 70
     3
  9
$SHADEDIF
 70
    70
  9
$TILEMODE
 70
     1
  9
$MAXACTVP
 70
    16
  9
$PINSBASE
 10
0.0
 20
0.0
 30
0.0
  9
$PLIMCHECK
 70
     0
  9
$PEXTMIN
 10
-0.1733110541584324
 20
-0.0174202791267817
 30
-0.0015258207003583
  9
$PEXTMAX
 10
396.2783471947428
 20
570.3923158424973
 30
0.0000000349246037
  9
$PLIMMIN
 10
-11.92081052010078
 20
-11.74491593037189
  9
$PLIMMAX
 10
408.0258447533366
 20
582.1070738157216
  9
$UNITMODE
 70
     0
  9
$VISRETAIN
 70
     0
  9
$PLINEGEN
 70
     1
  9
$PSLTSCALE
 70
     0
  9
$TREEDEPTH
 70
  3020
  9
$PICKSTYLE
 70
     1
  9
$CMLSTYLE
  2
STANDARD
  9
$CMLJUST
 70
     0
  9
$CMLSCALE
 40
1.0
  9
$SAVEIMAGES
 70
     1
  0
ENDSEC
  0
SECTION
  2
CLASSES
  0
CLASS
  1
LWPOLYLINE
  2
AcDbPolyline
  3
AutoCAD 2000
 90
    32768
280
     0
281
     1
  0
CLASS
  1
IMAGE
  2
AcDbRasterImage
  3
ISM
 90
    32895
280
     0
281
     1
  0
CLASS
  1
OLE2FRAME
  2
AcDbOle2Frame
  3
AutoCAD 2000
 90
    32768
280
     0
281
     1
  0
CLASS
  1
HATCH
  2
AcDbHatch
  3
AutoCAD 2000
 90
    32768
280
     0
281
     1
  0
CLASS
  1
DICTIONARYVAR
  2
AcDbDictionaryVar
  3
AutoCAD 2000
 90
    32768
280
     0
281
     0
  0
CLASS
  1
RASTERVARIABLES
  2
AcDbRasterVariables
  3
ISM
 90
    32768
280
     0
281
     0
  0
CLASS
  1
IMAGEDEF
  2
AcDbRasterImageDef
  3
ISM
 90
    32768
280
     0
281
     0
  0
CLASS
  1
IMAGEDEF_REACTOR
  2
AcDbRasterImageDefReactor
  3
ISM
 90
    32769
280
     0
281
     0
  0
CLASS
  1
IDBUFFER
  2
AcDbIdBuffer
  3
AutoCAD 2000
 90
    32768
280
     0
281
     0
  0
CLASS
  1
SPATIAL_FILTER
  2
AcDbSpatialFilter
  3
AutoCAD 2000
 90
    32768
280
     0
281
     0
  0
CLASS
  1
XRECORD
  2
AcDbXrecord
  3
AutoCAD 2000
 90
    32768
280
     0
281
     0
  0
CLASS
  1
SORTENTSTABLE
  2
AcDbSortentsTable
  3
AutoCAD 2000
 90
    32768
280
     0
281
     0
  0
CLASS
  1
LAYER_INDEX
  2
AcDbLayerIndex
  3
AutoCAD 2000
 90
    32768
280
     0
281
     0
  0
CLASS
  1
SPATIAL_INDEX
  2
AcDbSpatialIndex
  3
AutoCAD 2000
 90
    32768
280
     0
281
     0
  0
CLASS
  1
OBJECT_PTR
  2
CAseDLPNTableRecord
  3
ASE-LPNTableRecord
 90
    32769
280
     0
281
     0
  0
CLASS
  1
LAYOUT
  2
AcDbLayout
  3
AutoCAD 2000
 90
    32768
280
     0
281
     0
  0
CLASS
  1
PLOTSETTINGS
  2
AcDbPlotSettings
  3
AutoCAD 2000
 90
    32768
280
     0
281
     0
  0
CLASS
  1
ACDBDICTIONARYWDFLT
  2
AcDbDictionaryWithDefault
  3
AutoCAD 2000
 90
    32768
280
     0
281
     0
  0
CLASS
  1
ACDBPLACEHOLDER
  2
AcDbPlaceHolder
  3
AutoCAD 2000
 90
    32768
280
     0
281
     0
  0
CLASS
  1
VBA_PROJECT
  2
AcDbVbaProject
  3
acad
 90
    32768
280
     0
281
     0
  0
CLASS
  1
WIPEOUT
  2
AcDbWipeout
  3
"WipeOut|Product Desc: Object Enabler for WipeOut entity^I^I^I^I^I^I|Company: Autodesk, Inc.^I^I^I^I^I^I|WEB Address: www.autodesk.com"
 90
    32895
280
     0
281
     1
  0
CLASS
  1
WIPEOUTVARIABLES
  2
AcDbWipeoutVariables
  3
"WipeOut|Product Desc:     WipeOut Dbx Application|Company:          Autodesk, Inc.|WEB Address:      www.autodesk.com"
 90
    32768
280
     0
281
     0
  0
CLASS
  1
RTEXT
  2
RText
  3
RText|AutoCAD Express Tool|expresstools@autodesk.com
 90
    32768
280
     0
281
     1
  0
CLASS
  1
ARCALIGNEDTEXT
  2
AcDbArcAlignedText
  3
ATEXT|AutoCAD Express Tool|expresstools@autodesk.com
 90
    32768
280
     0
281
     1
  0
CLASS
  1
LONG_TRANSACTION
  2
AcDbLongTransaction
  3
AutoCAD 2000
 90
    32768
280
     0
281
     0
  0
CLASS
  1
LWPOLYLINE
  2
AcDbPolyline
  3
AutoCAD 2000
 90
    32768
280
     0
281
     1
  0
CLASS
  1
HATCH
  2
AcDbHatch
  3
AutoCAD 2000
 90
    32768
280
     0
281
     1
  0
CLASS
  1
XRECORD
  2
AcDbXrecord
  3
AutoCAD 2000
 90
    32768
280
     0
281
     0
  0
CLASS
  1
LONG_TRANSACTION
  2
AcDbLongTransaction
  3
AutoCAD 2000
 90
    32768
280
     0
281
     0
  0
CLASS
  1
LWPOLYLINE
  2
AcDbPolyline
  3
AutoCAD 2000
 90
    32768
280
     0
281
     1
  0
CLASS
  1
HATCH
  2
AcDbHatch
  3
AutoCAD 2000
 90
    32768
280
     0
281
     1
  0
CLASS
  1
XRECORD
  2
AcDbXrecord
  3
AutoCAD 2000
 90
    32768
280
     0
281
     0
  0
CLASS
  1
LONG_TRANSACTION
  2
AcDbLongTransaction
  3
AutoCAD 2000
 90
    32768
280
     0
281
     0
  0
CLASS
  1
LWPOLYLINE
  2
AcDbPolyline
  3
AutoCAD 2000
 90
    32768
280
     0
281
     1
  0
CLASS
  1
HATCH
  2
AcDbHatch
  3
AutoCAD 2000
 90
    32768
280
     0
281
     1
  0
CLASS
  1
XRECORD
  2
AcDbXrecord
  3
AutoCAD 2000
 90
    32768
280
     0
281
     0
  0
ENDSEC
  0
SECTION
  2
TABLES
  0
TABLE
  2
VPORT
  5
7
330
0
100
AcDbSymbolTable
 70
     2
  0
VPORT
  5
1444
330
7
100
AcDbSymbolTableRecord
100
AcDbViewportTableRecord
  2
*ACTIVE
 70
     0
 10
0.0
 20
0.0
 11
1.0
 21
1.0
 12
228.3534136753863
 22
297.000001383014
 13
0.0
 23
0.0
 14
1.0
 24
1.0
 15
0.0
 25
0.0
 16
0.0
 26
0.0
 36
1.0
 17
0.0
 27
0.0
 37
0.0
 40
600.8398807032122
 41
1.780442804428044
 42
50.0
 43
0.0
 44
0.0
 50
0.0
 51
0.0
 71
     0
 72
   100
 73
     1
 74
     1
 75
     0
 76
     0
 77
     0
 78
     0
  0
ENDTAB
  0
TABLE
  2
LTYPE
  5
4
330
0
100
AcDbSymbolTable
 70
     4
  0
LTYPE
  5
11
330
4
100
AcDbSymbolTableRecord
100
AcDbLinetypeTableRecord
  2
BYBLOCK
 70
     0
  3

 72
    65
 73
     0
 40
0.0
  0
LTYPE
  5
12
330
4
100
AcDbSymbolTableRecord
100
AcDbLinetypeTableRecord
  2
BYLAYER
 70
     0
  3

 72
    65
 73
     0
 40
0.0
  0
LTYPE
  5
13
330
4
100
AcDbSymbolTableRecord
100
AcDbLinetypeTableRecord
  2
CONTINUOUS
 70
     0
  3
Solid line
 72
    65
 73
     0
 40
0.0
  0
LTYPE
  5
AD8
330
4
100
AcDbSymbolTableRecord
100
AcDbLinetypeTableRecord
  2
CENTER2
 70
     0
  3
Center (.5x) ___ _ ___ _ ___ _ ___ _ ___ _ ___
 72
    65
 73
     4
 40
28.57499999999999
 49
19.05
 74
     0
 49
-3.174999999999998
 74
     0
 49
3.174999999999998
 74
     0
 49
-3.174999999999998
 74
     0
  0
LTYPE
  5
AD9
330
4
100
AcDbSymbolTableRecord
100
AcDbLinetypeTableRecord
  2
DASHED2
 70
     0
  3
Dashed (.5x) _ _ _ _ _ _ _ _ _ _ _ _ _ _ _ _ _
 72
    65
 73
     2
 40
9.524999999999996
 49
6.349999999999997
 74
     0
 49
-3.174999999999998
 74
     0
  0
LTYPE
  5
132D
330
4
100
AcDbSymbolTableRecord
100
AcDbLinetypeTableRecord
  2
PHANTOM2
 70
     0
  3
Phantom (.5x) ___ _ _ ___ _ _ ___ _ _ ___ _ _
 72
    65
 73
     6
 40
31.75
 49
15.875
 74
     0
 49
-3.174999999999998
 74
     0
 49
3.174999999999998
 74
     0
 49
-3.174999999999998
 74
     0
 49
3.174999999999998
 74
     0
 49
-3.174999999999998
 74
     0
  0
ENDTAB
  0
TABLE
  2
LAYER
  5
2
102
{ACAD_XDICTIONARY
360
1398
102
}
330
0
100
AcDbSymbolTable
 70
    13
  0
LAYER
  5
14
330
2
100
AcDbSymbolTableRecord
100
AcDbLayerTableRecord
  2
0
 70
     0
 62
     7
  6
CONTINUOUS
  0
LAYER
  5
4F4
330
2
100
AcDbSymbolTableRecord
100
AcDbLayerTableRecord
  2
DEFPOINTS
 70
     0
 62
     7
  6
CONTINUOUS
  0
LAYER
  5
ADB
330
2
100
AcDbSymbolTableRecord
100
AcDbLayerTableRecord
  2
03
 70
     0
 62
     3
  6
CONTINUOUS
  0
LAYER
  5
ADC
330
2
100
AcDbSymbolTableRecord
100
AcDbLayerTableRecord
  2
04
 70
     0
 62
     4
  6
CONTINUOUS
  0
LAYER
  5
ADD
330
2
100
AcDbSymbolTableRecord
100
AcDbLayerTableRecord
  2
06
 70
     0
 62
     6
  6
CONTINUOUS
  0
LAYER
  5
ADE
330
2
100
AcDbSymbolTableRecord
100
AcDbLayerTableRecord
  2
CHUSIN
 70
     0
 62
     6
  6
CENTER2
  0
LAYER
  5
ADF
330
2
100
AcDbSymbolTableRecord
100
AcDbLayerTableRecord
  2
HIKIDASI
 70
     0
 62
     6
  6
CONTINUOUS
  0
LAYER
  5
AE0
330
2
100
AcDbSymbolTableRecord
100
AcDbLayerTableRecord
  2
KAKURE
 70
     0
 62
     6
  6
DASHED2
  0
LAYER
  5
AE1
330
2
100
AcDbSymbolTableRecord
100
AcDbLayerTableRecord
  2
MOJI
 70
     0
 62
     3
  6
CONTINUOUS
  0
LAYER
  5
AE3
330
2
100
AcDbSymbolTableRecord
100
AcDbLayerTableRecord
  2
SUNPOU
 70
     0
 62
     6
  6
CONTINUOUS
  0
LAYER
  5
AE4
330
2
100
AcDbSymbolTableRecord
100
AcDbLayerTableRecord
  2
SAISEN
 70
     0
 62
     3
  6
CONTINUOUS
  0
LAYER
  5
1305
330
2
100
AcDbSymbolTableRecord
100
AcDbLayerTableRecord
  2
02
 70
     0
 62
     2
  6
CONTINUOUS
  0
LAYER
  5
132E
330
2
100
AcDbSymbolTableRecord
100
AcDbLayerTableRecord
  2
SOUZOU
 70
     0
 62
     6
  6
PHANTOM2
  0
ENDTAB
  0
TABLE
  2
STYLE
  5
3
330
0
100
AcDbSymbolTable
 70
     4
  0
STYLE
  5
17
330
3
100
AcDbSymbolTableRecord
100
AcDbTextStyleTableRecord
  2
STANDARD
 70
     0
 40
0.0
 41
0.9
 50
0.0
 71
     0
 42
7.0
  3
txt.shx
  4
bigfont.shx
  0
STYLE
  5
AC3
330
3
100
AcDbSymbolTableRecord
100
AcDbTextStyleTableRecord
  2
0_8
 70
     0
 40
0.0
 41
0.8
 50
0.0
 71
     0
 42
6.0
  3
txt.shx
  4
extfont.shx
  0
STYLE
  5
AC9
330
3
100
AcDbSymbolTableRecord
100
AcDbTextStyleTableRecord
  2
SUNPOU
 70
     0
 40
0.0
 41
0.8
 50
0.0
 71
     0
 42
3.5
  3
txt.shx
  4
extfont.shx
  0
STYLE
  5
1396
330
3
100
AcDbSymbolTableRecord
100
AcDbTextStyleTableRecord
  2
0_80
 70
     0
 40
0.0
 41
0.8
 50
0.0
 71
     0
 42
16.8
  3
txt.shx
  4
extfont.shx
  0
ENDTAB
  0
TABLE
  2
VIEW
  5
5
330
0
100
AcDbSymbolTable
 70
     1
  0
VIEW
  5
3A
330
5
100
AcDbSymbolTableRecord
100
AcDbViewTableRecord
  2
QQQQ
 70
     0
 40
682.2269999999997
 10
-5.525000000000003
 20
-0.3000000000000114
 41
462.93975
 11
0.0
 21
0.0
 31
1.0
 12
100.0
 22
100.0
 32
0.0
 42
50.0
 43
0.0
 44
0.0
 50
0.0
 71
     0
  0
ENDTAB
  0
TABLE
  2
UCS
  5
6
330
0
100
AcDbSymbolTable
 70
     0
  0
ENDTAB
  0
TABLE
  2
APPID
  5
8
330
0
100
AcDbSymbolTable
 70
     2
  0
APPID
  5
16
330
8
100
AcDbSymbolTableRecord
100
AcDbRegAppTableRecord
  2
ACAD
 70
     0
  0
APPID
  5
AEE
330
8
100
AcDbSymbolTableRecord
100
AcDbRegAppTableRecord
  2
DCO15
 70
     0
  0
ENDTAB
  0
TABLE
  2
DIMSTYLE
  5
9
330
0
100
AcDbSymbolTable
 70
     3
  0
DIMSTYLE
105
18
330
9
100
AcDbSymbolTableRecord
100
AcDbDimStyleTableRecord
  2
STANDARD
 70
     0
  3

  4

  5

  6

  7

 40
1.0
 41
0.18
 42
0.0625
 43
0.38
 44
0.18
 45
0.0
 46
0.0
 47
0.0
 48
0.0
140
0.18
141
0.09
142
0.0
143
25.4
144
1.0
145
0.0
146
1.0
147
0.09
 71
     0
 72
     0
 73
     1
 74
     1
 75
     0
 76
     0
 77
     0
 78
     0
170
     0
171
     2
172
     0
173
     0
174
     0
175
     0
176
     0
177
     0
178
     0
270
     2
271
     4
272
     4
273
     2
274
     2
340
17
275
     0
280
     0
281
     0
282
     0
283
     1
284
     0
285
     0
286
     0
287
     3
288
     0
  0
DIMSTYLE
105
ACE
102
{ACAD_REACTORS
330
B06
330
B13
330
B22
330
B59
330
B68
330
B75
330
B82
330
B8F
330
BAE
330
BBB
330
BCA
330
BD7
330
BE4
330
BF1
330
C27
330
BFE
330
C18
330
C0B
330
C34
330
C8F
330
C75
102
}
330
9
100
AcDbSymbolTableRecord
100
AcDbDimStyleTableRecord
  2
SUNPOU_2
 70
     0
  3

  4

  5
OPEN30
  6

  7

 40
2.0
 41
2.5
 42
1.5
 43
0.0
 44
1.0
 45
0.0
 46
0.0
 47
0.0
 48
0.0
140
2.5
141
0.0
142
0.0
143
25.4
144
1.0
145
0.0
146
1.0
147
1.0
 71
     0
 72
     0
 73
     0
 74
     0
 75
     0
 76
     0
 77
     1
 78
     8
170
     0
171
     2
172
     1
173
     0
174
     1
175
     0
176
   256
177
   256
178
   256
270
     2
271
     1
272
     1
273
     2
274
     2
340
AC9
275
     0
280
     0
281
     0
282
     0
283
     1
284
     0
285
     0
286
     0
287
     3
288
     0
  0
DIMSTYLE
105
AD3
102
{ACAD_REACTORS
330
CD5
330
CEF
330
CFE
330
D0B
330
D39
330
C9C
102
}
330
9
100
AcDbSymbolTableRecord
100
AcDbDimStyleTableRecord
  2
SUNPOU_2_10
 70
     0
  3

  4

  5
OPEN30
  6

  7

 40
2.0
 41
2.5
 42
1.5
 43
0.0
 44
1.0
 45
0.0
 46
0.0
 47
0.0
 48
0.0
140
2.5
141
0.0
142
0.0
143
25.4
144
10.0
145
0.0
146
1.0
147
1.0
 71
     0
 72
     0
 73
     0
 74
     0
 75
     0
 76
     0
 77
     1
 78
     8
170
     0
171
     2
172
     1
173
     0
174
     1
175
     0
176
   256
177
   256
178
   256
270
     2
271
     1
272
     1
273
     2
274
     2
340
AC9
275
     0
280
     0
281
     0
282
     0
283
     1
284
     0
285
     0
286
     0
287
     3
288
     0
  0
ENDTAB
  0
TABLE
  2
BLOCK_RECORD
  5
1
330
0
100
AcDbSymbolTable
 70
    28
  0
BLOCK_RECORD
  5
A
102
{ACAD_XDICTIONARY
360
1365
102
}
330
1
100
AcDbSymbolTableRecord
100
AcDbBlockTableRecord
  2
*MODEL_SPACE
  0
BLOCK_RECORD
  5
B
102
{ACAD_XDICTIONARY
360
1367
102
}
330
1
100
AcDbSymbolTableRecord
100
AcDbBlockTableRecord
  2
*PAPER_SPACE
  0
BLOCK_RECORD
  5
43
330
1
100
AcDbSymbolTableRecord
100
AcDbBlockTableRecord
  2
_OPEN30
  0
BLOCK_RECORD
  5
B07
330
1
100
AcDbSymbolTableRecord
100
AcDbBlockTableRecord
  2
*D1
  0
BLOCK_RECORD
  5
B14
330
1
100
AcDbSymbolTableRecord
100
AcDbBlockTableRecord
  2
*D2
  0
BLOCK_RECORD
  5
B23
330
1
100
AcDbSymbolTableRecord
100
AcDbBlockTableRecord
  2
*D3
  0
BLOCK_RECORD
  5
B5A
330
1
100
AcDbSymbolTableRecord
100
AcDbBlockTableRecord
  2
*D4
  0
BLOCK_RECORD
  5
B69
330
1
100
AcDbSymbolTableRecord
100
AcDbBlockTableRecord
  2
*D5
  0
BLOCK_RECORD
  5
B76
330
1
100
AcDbSymbolTableRecord
100
AcDbBlockTableRecord
  2
*D6
  0
BLOCK_RECORD
  5
B83
330
1
100
AcDbSymbolTableRecord
100
AcDbBlockTableRecord
  2
*D7
  0
BLOCK_RECORD
  5
B90
330
1
100
AcDbSymbolTableRecord
100
AcDbBlockTableRecord
  2
*D8
  0
BLOCK_RECORD
  5
BAF
330
1
100
AcDbSymbolTableRecord
100
AcDbBlockTableRecord
  2
*D9
  0
BLOCK_RECORD
  5
BBC
330
1
100
AcDbSymbolTableRecord
100
AcDbBlockTableRecord
  2
*D10
  0
BLOCK_RECORD
  5
BCB
330
1
100
AcDbSymbolTableRecord
100
AcDbBlockTableRecord
  2
*D11
  0
BLOCK_RECORD
  5
BD8
330
1
100
AcDbSymbolTableRecord
100
AcDbBlockTableRecord
  2
*D12
  0
BLOCK_RECORD
  5
BE5
330
1
100
AcDbSymbolTableRecord
100
AcDbBlockTableRecord
  2
*D13
  0
BLOCK_RECORD
  5
BF2
330
1
100
AcDbSymbolTableRecord
100
AcDbBlockTableRecord
  2
*D14
  0
BLOCK_RECORD
  5
BFF
330
1
100
AcDbSymbolTableRecord
100
AcDbBlockTableRecord
  2
*D15
  0
BLOCK_RECORD
  5
C0C
330
1
100
AcDbSymbolTableRecord
100
AcDbBlockTableRecord
  2
*D16
  0
BLOCK_RECORD
  5
C19
330
1
100
AcDbSymbolTableRecord
100
AcDbBlockTableRecord
  2
*D17
  0
BLOCK_RECORD
  5
C28
330
1
100
AcDbSymbolTableRecord
100
AcDbBlockTableRecord
  2
*D18
  0
BLOCK_RECORD
  5
C35
330
1
100
AcDbSymbolTableRecord
100
AcDbBlockTableRecord
  2
*D19
  0
BLOCK_RECORD
  5
C76
330
1
100
AcDbSymbolTableRecord
100
AcDbBlockTableRecord
  2
*D20
  0
BLOCK_RECORD
  5
C90
330
1
100
AcDbSymbolTableRecord
100
AcDbBlockTableRecord
  2
*D21
  0
BLOCK_RECORD
  5
C9D
330
1
100
AcDbSymbolTableRecord
100
AcDbBlockTableRecord
  2
*D22
  0
BLOCK_RECORD
  5
CD6
330
1
100
AcDbSymbolTableRecord
100
AcDbBlockTableRecord
  2
*D23
  0
BLOCK_RECORD
  5
CF0
330
1
100
AcDbSymbolTableRecord
100
AcDbBlockTableRecord
  2
*D24
  0
BLOCK_RECORD
  5
CFF
330
1
100
AcDbSymbolTableRecord
100
AcDbBlockTableRecord
  2
*D25
  0
BLOCK_RECORD
  5
D0C
330
1
100
AcDbSymbolTableRecord
100
AcDbBlockTableRecord
  2
*D26
  0
BLOCK_RECORD
  5
D3A
330
1
100
AcDbSymbolTableRecord
100
AcDbBlockTableRecord
  2
*D27
  0
ENDTAB
  0
ENDSEC
  0
SECTION
  2
BLOCKS
  0
BLOCK
  5
D
330
A
100
AcDbEntity
  8
0
100
AcDbBlockBegin
  2
*MODEL_SPACE
 70
     0
 10
0.0
 20
0.0
 30
0.0
  3
*MODEL_SPACE
  1

  0
ENDBLK
  5
E
330
A
100
AcDbEntity
  8
0
100
AcDbBlockEnd
  0
BLOCK
  5
F
330
B
100
AcDbEntity
 67
     1
  8
0
100
AcDbBlockBegin
  2
*PAPER_SPACE
 70
     0
 10
0.0
 20
0.0
 30
0.0
  3
*PAPER_SPACE
  1

  0
ENDBLK
  5
10
330
B
100
AcDbEntity
 67
     1
  8
0
100
AcDbBlockEnd
  0
BLOCK
  5
11C
330
43
100
AcDbEntity
  8
0
100
AcDbBlockBegin
  2
_OPEN30
 70
     0
 10
0.0
 20
0.0
 30
0.0
  3
_OPEN30
  1

  0
LINE
  5
11D
330
43
100
AcDbEntity
  8
0
  6
CONTINUOUS
 62
     0
100
AcDbLine
 10
0.0
 20
0.0
 30
0.0
 11
-0.9659258262890679
 21
0.2588190451025207
 31
0.0
  0
LINE
  5
11E
330
43
100
AcDbEntity
  8
0
  6
CONTINUOUS
 62
     0
100
AcDbLine
 10
0.0
 20
0.0
 30
0.0
 11
-0.9659258262890679
 21
-0.2588190451025207
 31
0.0
  0
LINE
  5
11F
330
43
100
AcDbEntity
  8
0
  6
CONTINUOUS
 62
     0
100
AcDbLine
 10
0.0
 20
0.0
 30
0.0
 11
-0.9659258262890679
 21
0.0
 31
0.0
  0
ENDBLK
  5
120
330
43
100
AcDbEntity
  8
0
100
AcDbBlockEnd
  0
BLOCK
  5
B11
330
B07
100
AcDbEntity
  8
0
100
AcDbBlockBegin
  2
*D1
 70
     1
 10
0.0
 20
0.0
 30
0.0
  3
*D1
  1

  0
LINE
  5
B08
330
B07
100
AcDbEntity
  8
SUNPOU
100
AcDbLine
 10
207.2194357366774
 20
524.0847632668203
 30
0.0
 11
217.2529430195603
 21
524.0847632668203
 31
0.0
  0
LINE
  5
B09
330
B07
100
AcDbEntity
  8
SUNPOU
100
AcDbLine
 10
207.2194357366773
 20
549.0847632668203
 30
0.0
 11
217.2529430195603
 21
549.0847632668203
 31
0.0
  0
LINE
  5
B0A
330
B07
100
AcDbEntity
  8
SUNPOU
100
AcDbLine
 10
215.2529430195603
 20
529.0847632668203
 30
0.0
 11
215.2529430195603
 21
544.0847632668203
 31
0.0
  0
INSERT
  5
B0B
330
B07
100
AcDbEntity
  8
SUNPOU
100
AcDbBlockReference
  2
_OPEN30
 10
215.2529430195603
 20
524.0847632668203
 30
0.0
 41
5.0
 42
5.0
 43
5.0
 50
270.0
  0
INSERT
  5
B0C
330
B07
100
AcDbEntity
  8
SUNPOU
100
AcDbBlockReference
  2
_OPEN30
 10
215.2529430195603
 20
549.0847632668203
 30
0.0
 41
5.0
 42
5.0
 43
5.0
 50
90.0
  0
MTEXT
  5
B0D
330
B07
100
AcDbEntity
  8
SUNPOU
100
AcDbMText
 10
210.7529430195604
 20
536.5847632668203
 30
0.0
 40
5.0
 41
0.0
 71
     5
 72
     1
  1
\A1;25
  7
SUNPOU
 11
0.0000000000000001
 21
1.0
 31
0.0
1001
ACAD
1000
MTEXTBEGIN
1070
    73
1070
     1
1070
    44
1040
1.0
1070
    74
1070
     0
1000
MTEXTEND
1000
MTEXTBEGIN
1070
    73
1070
     1
1070
    44
1040
1.0
1070
    74
1070
     0
1000
MTEXTEND
  0
POINT
  5
B0E
330
B07
100
AcDbEntity
  8
DEFPOINTS
 62
     0
100
AcDbPoint
 10
204.2194357366773
 20
524.0847632668203
 30
0.0
  0
POINT
  5
B0F
330
B07
100
AcDbEntity
  8
DEFPOINTS
 62
     0
100
AcDbPoint
 10
204.2194357366773
 20
549.0847632668203
 30
0.0
  0
POINT
  5
B10
330
B07
100
AcDbEntity
  8
DEFPOINTS
 62
     0
100
AcDbPoint
 10
215.2529430195603
 20
549.0847632668203
 30
0.0
  0
ENDBLK
  5
B12
330
B07
100
AcDbEntity
  8
0
100
AcDbBlockEnd
  0
BLOCK
  5
B20
330
B14
100
AcDbEntity
  8
0
100
AcDbBlockBegin
  2
*D2
 70
     1
 10
0.0
 20
0.0
 30
0.0
  3
*D2
  1

  0
LINE
  5
B15
330
B14
100
AcDbEntity
  8
SUNPOU
100
AcDbLine
 10
207.2194357366773
 20
549.0847632668203
 30
0.0
 11
217.2529430195603
 21
549.0847632668203
 31
0.0
  0
LINE
  5
B16
330
B14
100
AcDbEntity
  8
SUNPOU
100
AcDbLine
 10
194.2194357366773
 20
554.0847632668203
 30
0.0
 11
217.2529430195603
 21
554.0847632668203
 31
0.0
  0
LINE
  5
B17
330
B14
100
AcDbEntity
  8
SUNPOU
100
AcDbLine
 10
215.2529430195603
 20
544.0847632668203
 30
0.0
 11
215.2529430195603
 21
539.0847632668203
 31
0.0
  0
LINE
  5
B18
330
B14
100
AcDbEntity
  8
SUNPOU
100
AcDbLine
 10
215.2529430195603
 20
559.0847632668203
 30
0.0
 11
215.2529430195603
 21
564.0847632668202
 31
0.0
  0
LINE
  5
B19
330
B14
100
AcDbEntity
  8
SUNPOU
100
AcDbLine
 10
215.2529430195603
 20
549.0847632668203
 30
0.0
 11
215.2529430195603
 21
554.0847632668203
 31
0.0
  0
INSERT
  5
B1A
330
B14
100
AcDbEntity
  8
SUNPOU
100
AcDbBlockReference
  2
_OPEN30
 10
215.2529430195603
 20
549.0847632668203
 30
0.0
 41
5.0
 42
5.0
 43
5.0
 50
90.0
  0
INSERT
  5
B1B
330
B14
100
AcDbEntity
  8
SUNPOU
100
AcDbBlockReference
  2
_OPEN30
 10
215.2529430195603
 20
554.0847632668203
 30
0.0
 41
5.0
 42
5.0
 43
5.0
 50
270.0
  0
MTEXT
  5
B1C
330
B14
100
AcDbEntity
  8
SUNPOU
100
AcDbMText
 10
210.7529430195604
 20
551.5847632668203
 30
0.0
 40
5.0
 41
0.0
 71
     5
 72
     1
  1
\A1;5
  7
SUNPOU
 11
0.0000000000000001
 21
1.0
 31
0.0
1001
ACAD
1000
MTEXTBEGIN
1070
    73
1070
     1
1070
    44
1040
1.0
1070
    74
1070
     0
1000
MTEXTEND
1000
MTEXTBEGIN
1070
    73
1070
     1
1070
    44
1040
1.0
1070
    74
1070
     0
1000
MTEXTEND
  0
POINT
  5
B1D
330
B14
100
AcDbEntity
  8
DEFPOINTS
 62
     0
100
AcDbPoint
 10
204.2194357366773
 20
549.0847632668203
 30
0.0
  0
POINT
  5
B1E
330
B14
100
AcDbEntity
  8
DEFPOINTS
 62
     0
100
AcDbPoint
 10
191.2194357366773
 20
554.0847632668203
 30
0.0
  0
POINT
  5
B1F
330
B14
100
AcDbEntity
  8
DEFPOINTS
 62
     0
100
AcDbPoint
 10
215.2529430195603
 20
554.0847632668203
 30
0.0
  0
ENDBLK
  5
B21
330
B14
100
AcDbEntity
  8
0
100
AcDbBlockEnd
  0
BLOCK
  5
B2D
330
B23
100
AcDbEntity
  8
0
100
AcDbBlockBegin
  2
*D3
 70
     1
 10
0.0
 20
0.0
 30
0.0
  3
*D3
  1

  0
LINE
  5
B43
330
B23
100
AcDbEntity
  8
SUNPOU
100
AcDbLine
 10
172.2194357366771
 20
361.4872912459978
 30
0.0
 11
172.2194357366771
 21
379.1787744505616
 31
0.0
  0
LINE
  5
B44
330
B23
100
AcDbEntity
  8
SUNPOU
100
AcDbLine
 10
204.2194357366772
 20
361.4872912459978
 30
0.0
 11
204.2194357366772
 21
379.1787744505616
 31
0.0
  0
LINE
  5
B45
330
B23
100
AcDbEntity
  8
SUNPOU
100
AcDbLine
 10
177.2194357366771
 20
377.1787744505616
 30
0.0
 11
199.2194357366772
 21
377.1787744505616
 31
0.0
  0
MTEXT
  5
B46
330
B23
100
AcDbEntity
  8
SUNPOU
100
AcDbMText
 10
192.894150275024
 20
381.6787744505615
 30
0.0
 40
5.0
 41
0.0
 71
     5
 72
     1
  1
\A1;32
  7
SUNPOU
1001
ACAD
1000
MTEXTBEGIN
1070
    73
1070
     1
1070
    44
1040
1.0
1070
    74
1070
     0
1000
MTEXTEND
1000
MTEXTBEGIN
1070
    73
1070
     1
1070
    44
1040
1.0
1070
    74
1070
     0
1000
MTEXTEND
  0
INSERT
  5
B47
330
B23
100
AcDbEntity
  8
SUNPOU
100
AcDbBlockReference
  2
_OPEN30
 10
172.2194357366771
 20
377.1787744505616
 30
0.0
 41
5.0
 42
5.0
 43
5.0
 50
180.0
  0
INSERT
  5
B48
330
B23
100
AcDbEntity
  8
SUNPOU
100
AcDbBlockReference
  2
_OPEN30
 10
204.2194357366772
 20
377.1787744505616
 30
0.0
 41
5.0
 42
5.0
 43
5.0
  0
POINT
  5
B49
330
B23
100
AcDbEntity
  8
DEFPOINTS
 62
     0
100
AcDbPoint
 10
172.2194357366771
 20
358.4872912459978
 30
0.0
  0
POINT
  5
B4A
330
B23
100
AcDbEntity
  8
DEFPOINTS
 62
     0
100
AcDbPoint
 10
204.2194357366772
 20
358.4872912459978
 30
0.0
  0
POINT
  5
B4B
330
B23
100
AcDbEntity
  8
DEFPOINTS
 62
     0
100
AcDbPoint
 10
204.2194357366772
 20
377.1787744505616
 30
0.0
  0
ENDBLK
  5
B2E
330
B23
100
AcDbEntity
  8
0
100
AcDbBlockEnd
  0
BLOCK
  5
B66
330
B5A
100
AcDbEntity
  8
0
100
AcDbBlockBegin
  2
*D4
 70
     1
 10
0.0
 20
0.0
 30
0.0
  3
*D4
  1

  0
LINE
  5
B5B
330
B5A
100
AcDbEntity
  8
SUNPOU
100
AcDbLine
 10
194.219435736677
 20
328.4872912459978
 30
0.0
 11
217.2529430195603
 21
328.4872912459978
 31
0.0
  0
LINE
  5
B5C
330
B5A
100
AcDbEntity
  8
SUNPOU
100
AcDbLine
 10
207.219435736677
 20
333.4872912459978
 30
0.0
 11
217.2529430195603
 21
333.4872912459978
 31
0.0
  0
LINE
  5
B5D
330
B5A
100
AcDbEntity
  8
SUNPOU
100
AcDbLine
 10
215.2529430195603
 20
323.4872912459978
 30
0.0
 11
215.2529430195603
 21
318.4872912459979
 31
0.0
  0
LINE
  5
B5E
330
B5A
100
AcDbEntity
  8
SUNPOU
100
AcDbLine
 10
215.2529430195603
 20
338.4872912459978
 30
0.0
 11
215.2529430195603
 21
343.4872912459979
 31
0.0
  0
LINE
  5
B5F
330
B5A
100
AcDbEntity
  8
SUNPOU
100
AcDbLine
 10
215.2529430195603
 20
328.4872912459978
 30
0.0
 11
215.2529430195603
 21
333.4872912459978
 31
0.0
  0
INSERT
  5
B60
330
B5A
100
AcDbEntity
  8
SUNPOU
100
AcDbBlockReference
  2
_OPEN30
 10
215.2529430195603
 20
328.4872912459978
 30
0.0
 41
5.0
 42
5.0
 43
5.0
 50
90.0
  0
INSERT
  5
B61
330
B5A
100
AcDbEntity
  8
SUNPOU
100
AcDbBlockReference
  2
_OPEN30
 10
215.2529430195603
 20
333.4872912459978
 30
0.0
 41
5.0
 42
5.0
 43
5.0
 50
270.0
  0
MTEXT
  5
B62
330
B5A
100
AcDbEntity
  8
SUNPOU
100
AcDbMText
 10
210.7529430195604
 20
330.9872912459979
 30
0.0
 40
5.0
 41
0.0
 71
     5
 72
     1
  1
\A1;5
  7
SUNPOU
 11
0.0000000000000001
 21
1.0
 31
0.0
1001
ACAD
1000
MTEXTBEGIN
1070
    73
1070
     1
1070
    44
1040
1.0
1070
    74
1070
     0
1000
MTEXTEND
1000
MTEXTBEGIN
1070
    73
1070
     1
1070
    44
1040
1.0
1070
    74
1070
     0
1000
MTEXTEND
  0
POINT
  5
B63
330
B5A
100
AcDbEntity
  8
DEFPOINTS
 62
     0
100
AcDbPoint
 10
191.219435736677
 20
328.4872912459978
 30
0.0
  0
POINT
  5
B64
330
B5A
100
AcDbEntity
  8
DEFPOINTS
 62
     0
100
AcDbPoint
 10
204.2194357366772
 20
333.4872912459978
 30
0.0
  0
POINT
  5
B65
330
B5A
100
AcDbEntity
  8
DEFPOINTS
 62
     0
100
AcDbPoint
 10
215.2529430195603
 20
333.4872912459978
 30
0.0
  0
ENDBLK
  5
B67
330
B5A
100
AcDbEntity
  8
0
100
AcDbBlockEnd
  0
BLOCK
  5
B73
330
B69
100
AcDbEntity
  8
0
100
AcDbBlockBegin
  2
*D5
 70
     1
 10
0.0
 20
0.0
 30
0.0
  3
*D5
  1

  0
LINE
  5
B6A
330
B69
100
AcDbEntity
  8
SUNPOU
100
AcDbLine
 10
207.219435736677
 20
333.4872912459978
 30
0.0
 11
217.2529430195603
 21
333.4872912459978
 31
0.0
  0
LINE
  5
B6B
330
B69
100
AcDbEntity
  8
SUNPOU
100
AcDbLine
 10
207.219435736677
 20
358.4872912459978
 30
0.0
 11
217.2529430195603
 21
358.4872912459978
 31
0.0
  0
LINE
  5
B6C
330
B69
100
AcDbEntity
  8
SUNPOU
100
AcDbLine
 10
215.2529430195603
 20
338.4872912459978
 30
0.0
 11
215.2529430195603
 21
353.4872912459978
 31
0.0
  0
INSERT
  5
B6D
330
B69
100
AcDbEntity
  8
SUNPOU
100
AcDbBlockReference
  2
_OPEN30
 10
215.2529430195603
 20
333.4872912459978
 30
0.0
 41
5.0
 42
5.0
 43
5.0
 50
270.0
  0
INSERT
  5
B6E
330
B69
100
AcDbEntity
  8
SUNPOU
100
AcDbBlockReference
  2
_OPEN30
 10
215.2529430195603
 20
358.4872912459978
 30
0.0
 41
5.0
 42
5.0
 43
5.0
 50
90.0
  0
MTEXT
  5
B6F
330
B69
100
AcDbEntity
  8
SUNPOU
100
AcDbMText
 10
210.7529430195604
 20
345.9872912459978
 30
0.0
 40
5.0
 41
0.0
 71
     5
 72
     1
  1
\A1;25
  7
SUNPOU
 11
0.0000000000000001
 21
1.0
 31
0.0
1001
ACAD
1000
MTEXTBEGIN
1070
    73
1070
     1
1070
    44
1040
1.0
1070
    74
1070
     0
1000
MTEXTEND
1000
MTEXTBEGIN
1070
    73
1070
     1
1070
    44
1040
1.0
1070
    74
1070
     0
1000
MTEXTEND
  0
POINT
  5
B70
330
B69
100
AcDbEntity
  8
DEFPOINTS
 62
     0
100
AcDbPoint
 10
204.2194357366772
 20
333.4872912459978
 30
0.0
  0
POINT
  5
B71
330
B69
100
AcDbEntity
  8
DEFPOINTS
 62
     0
100
AcDbPoint
 10
204.2194357366772
 20
358.4872912459978
 30
0.0
  0
POINT
  5
B72
330
B69
100
AcDbEntity
  8
DEFPOINTS
 62
     0
100
AcDbPoint
 10
215.2529430195603
 20
358.4872912459978
 30
0.0
  0
ENDBLK
  5
B74
330
B69
100
AcDbEntity
  8
0
100
AcDbBlockEnd
  0
BLOCK
  5
B80
330
B76
100
AcDbEntity
  8
0
100
AcDbBlockBegin
  2
*D6
 70
     1
 10
0.0
 20
0.0
 30
0.0
  3
*D6
  1

  0
LINE
  5
B77
330
B76
100
AcDbEntity
  8
SUNPOU
100
AcDbLine
 10
207.219435736677
 20
333.4872912459978
 30
0.0
 11
229.4274366652238
 21
333.4872912459978
 31
0.0
  0
LINE
  5
B78
330
B76
100
AcDbEntity
  8
SUNPOU
100
AcDbLine
 10
202.2194357366771
 20
428.4872912459978
 30
0.0
 11
229.4274366652238
 21
428.4872912459978
 31
0.0
  0
LINE
  5
B79
330
B76
100
AcDbEntity
  8
SUNPOU
100
AcDbLine
 10
227.4274366652238
 20
338.4872912459978
 30
0.0
 11
227.4274366652238
 21
423.4872912459977
 31
0.0
  0
INSERT
  5
B7A
330
B76
100
AcDbEntity
  8
SUNPOU
100
AcDbBlockReference
  2
_OPEN30
 10
227.4274366652238
 20
333.4872912459978
 30
0.0
 41
5.0
 42
5.0
 43
5.0
 50
270.0
  0
INSERT
  5
B7B
330
B76
100
AcDbEntity
  8
SUNPOU
100
AcDbBlockReference
  2
_OPEN30
 10
227.4274366652238
 20
428.4872912459978
 30
0.0
 41
5.0
 42
5.0
 43
5.0
 50
90.0
  0
MTEXT
  5
B7C
330
B76
100
AcDbEntity
  8
SUNPOU
100
AcDbMText
 10
222.9274366652237
 20
380.9872912459978
 30
0.0
 40
5.0
 41
0.0
 71
     5
 72
     1
  1
\A1;95
  7
SUNPOU
 11
0.0000000000000001
 21
1.0
 31
0.0
1001
ACAD
1000
MTEXTBEGIN
1070
    73
1070
     1
1070
    44
1040
1.0
1070
    74
1070
     0
1000
MTEXTEND
1000
MTEXTBEGIN
1070
    73
1070
     1
1070
    44
1040
1.0
1070
    74
1070
     0
1000
MTEXTEND
  0
POINT
  5
B7D
330
B76
100
AcDbEntity
  8
DEFPOINTS
 62
     0
100
AcDbPoint
 10
204.2194357366772
 20
333.4872912459978
 30
0.0
  0
POINT
  5
B7E
330
B76
100
AcDbEntity
  8
DEFPOINTS
 62
     0
100
AcDbPoint
 10
199.2194357366772
 20
428.4872912459978
 30
0.0
  0
POINT
  5
B7F
330
B76
100
AcDbEntity
  8
DEFPOINTS
 62
     0
100
AcDbPoint
 10
227.4274366652238
 20
428.4872912459978
 30
0.0
  0
ENDBLK
  5
B81
330
B76
100
AcDbEntity
  8
0
100
AcDbBlockEnd
  0
BLOCK
  5
B8D
330
B83
100
AcDbEntity
  8
0
100
AcDbBlockBegin
  2
*D7
 70
     1
 10
0.0
 20
0.0
 30
0.0
  3
*D7
  1

  0
LINE
  5
B9C
330
B83
100
AcDbEntity
  8
SUNPOU
100
AcDbLine
 10
207.219435736677
 20
333.4872912459978
 30
0.0
 11
242.0703387523595
 21
333.4872912459978
 31
0.0
  0
LINE
  5
B9D
330
B83
100
AcDbEntity
  8
SUNPOU
100
AcDbLine
 10
207.2194357366774
 20
549.0847632668203
 30
0.0
 11
242.0703387523595
 21
549.0847632668203
 31
0.0
  0
LINE
  5
B9E
330
B83
100
AcDbEntity
  8
SUNPOU
100
AcDbLine
 10
240.0703387523595
 20
338.4872912459978
 30
0.0
 11
240.0703387523595
 21
544.0847632668203
 31
0.0
  0
INSERT
  5
B9F
330
B83
100
AcDbEntity
  8
SUNPOU
100
AcDbBlockReference
  2
_OPEN30
 10
240.0703387523595
 20
333.4872912459978
 30
0.0
 41
5.0
 42
5.0
 43
5.0
 50
270.0
  0
INSERT
  5
BA0
330
B83
100
AcDbEntity
  8
SUNPOU
100
AcDbBlockReference
  2
_OPEN30
 10
240.0703387523595
 20
549.0847632668203
 30
0.0
 41
5.0
 42
5.0
 43
5.0
 50
90.0
  0
MTEXT
  5
BA1
330
B83
100
AcDbEntity
  8
SUNPOU
100
AcDbMText
 10
235.5703387523595
 20
441.2860272564091
 30
0.0
 40
5.0
 41
0.0
 71
     5
 72
     1
  1
\A1;DW
  7
SUNPOU
 11
0.0000000000000001
 21
1.0
 31
0.0
1001
ACAD
1000
MTEXTBEGIN
1070
    73
1070
     1
1070
    44
1040
1.0
1070
    74
1070
     0
1000
MTEXTEND
1000
MTEXTBEGIN
1070
    73
1070
     1
1070
    44
1040
1.0
1070
    74
1070
     0
1000
MTEXTEND
  0
POINT
  5
BA2
330
B83
100
AcDbEntity
  8
DEFPOINTS
 62
     0
100
AcDbPoint
 10
204.2194357366772
 20
333.4872912459978
 30
0.0
  0
POINT
  5
BA3
330
B83
100
AcDbEntity
  8
DEFPOINTS
 62
     0
100
AcDbPoint
 10
204.2194357366773
 20
549.0847632668203
 30
0.0
  0
POINT
  5
BA4
330
B83
100
AcDbEntity
  8
DEFPOINTS
 62
     0
100
AcDbPoint
 10
240.0703387523595
 20
549.0847632668203
 30
0.0
  0
ENDBLK
  5
B8E
330
B83
100
AcDbEntity
  8
0
100
AcDbBlockEnd
  0
BLOCK
  5
B9A
330
B90
100
AcDbEntity
  8
0
100
AcDbBlockBegin
  2
*D8
 70
     1
 10
0.0
 20
0.0
 30
0.0
  3
*D8
  1

  0
LINE
  5
BA5
330
B90
100
AcDbEntity
  8
SUNPOU
100
AcDbLine
 10
194.219435736677
 20
328.4872912459978
 30
0.0
 11
254.1322165051965
 21
328.4872912459978
 31
0.0
  0
LINE
  5
BA6
330
B90
100
AcDbEntity
  8
SUNPOU
100
AcDbLine
 10
241.2194357366771
 20
554.0847632668203
 30
0.0
 11
254.1322165051965
 21
554.0847632668203
 31
0.0
  0
LINE
  5
BA7
330
B90
100
AcDbEntity
  8
SUNPOU
100
AcDbLine
 10
252.1322165051965
 20
333.4872912459978
 30
0.0
 11
252.1322165051965
 21
549.0847632668203
 31
0.0
  0
INSERT
  5
BA8
330
B90
100
AcDbEntity
  8
SUNPOU
100
AcDbBlockReference
  2
_OPEN30
 10
252.1322165051965
 20
328.4872912459978
 30
0.0
 41
5.0
 42
5.0
 43
5.0
 50
270.0
  0
INSERT
  5
BA9
330
B90
100
AcDbEntity
  8
SUNPOU
100
AcDbBlockReference
  2
_OPEN30
 10
252.1322165051965
 20
554.0847632668203
 30
0.0
 41
5.0
 42
5.0
 43
5.0
 50
90.0
  0
MTEXT
  5
BAA
330
B90
100
AcDbEntity
  8
SUNPOU
100
AcDbMText
 10
247.6322165051966
 20
441.2860272564091
 30
0.0
 40
5.0
 41
0.0
 71
     5
 72
     1
  1
\A1;W
  7
SUNPOU
 11
0.0000000000000001
 21
1.0
 31
0.0
1001
ACAD
1000
MTEXTBEGIN
1070
    73
1070
     1
1070
    44
1040
1.0
1070
    74
1070
     0
1000
MTEXTEND
1000
MTEXTBEGIN
1070
    73
1070
     1
1070
    44
1040
1.0
1070
    74
1070
     0
1000
MTEXTEND
  0
POINT
  5
BAB
330
B90
100
AcDbEntity
  8
DEFPOINTS
 62
     0
100
AcDbPoint
 10
191.219435736677
 20
328.4872912459978
 30
0.0
  0
POINT
  5
BAC
330
B90
100
AcDbEntity
  8
DEFPOINTS
 62
     0
100
AcDbPoint
 10
238.219435736677
 20
554.0847632668203
 30
0.0
  0
POINT
  5
BAD
330
B90
100
AcDbEntity
  8
DEFPOINTS
 62
     0
100
AcDbPoint
 10
252.1322165051965
 20
554.0847632668203
 30
0.0
  0
ENDBLK
  5
B9B
330
B90
100
AcDbEntity
  8
0
100
AcDbBlockEnd
  0
BLOCK
  5
BB9
330
BAF
100
AcDbEntity
  8
0
100
AcDbBlockBegin
  2
*D9
 70
     1
 10
0.0
 20
0.0
 30
0.0
  3
*D9
  1

  0
LINE
  5
BB0
330
BAF
100
AcDbEntity
  8
SUNPOU
100
AcDbLine
 10
348.0144230769232
 20
401.1525420824552
 30
0.0
 11
359.2850812407681
 21
401.1525420824552
 31
0.0
  0
LINE
  5
BB1
330
BAF
100
AcDbEntity
  8
SUNPOU
100
AcDbLine
 10
348.0144230769232
 20
426.1525420824552
 30
0.0
 11
359.2850812407681
 21
426.1525420824552
 31
0.0
  0
LINE
  5
BB2
330
BAF
100
AcDbEntity
  8
SUNPOU
100
AcDbLine
 10
357.2850812407679
 20
406.1525420824552
 30
0.0
 11
357.2850812407679
 21
421.1525420824552
 31
0.0
  0
INSERT
  5
BB3
330
BAF
100
AcDbEntity
  8
SUNPOU
100
AcDbBlockReference
  2
_OPEN30
 10
357.2850812407679
 20
401.1525420824552
 30
0.0
 41
5.0
 42
5.0
 43
5.0
 50
270.0
  0
INSERT
  5
BB4
330
BAF
100
AcDbEntity
  8
SUNPOU
100
AcDbBlockReference
  2
_OPEN30
 10
357.2850812407679
 20
426.1525420824552
 30
0.0
 41
5.0
 42
5.0
 43
5.0
 50
90.0
  0
MTEXT
  5
BB5
330
BAF
100
AcDbEntity
  8
SUNPOU
100
AcDbMText
 10
352.7850812407679
 20
413.6525420824552
 30
0.0
 40
5.0
 41
0.0
 71
     5
 72
     1
  1
\A1;25
  7
SUNPOU
 11
0.0000000000000001
 21
1.0
 31
0.0
1001
ACAD
1000
MTEXTBEGIN
1070
    73
1070
     1
1070
    44
1040
1.0
1070
    74
1070
     0
1000
MTEXTEND
1000
MTEXTBEGIN
1070
    73
1070
     1
1070
    44
1040
1.0
1070
    74
1070
     0
1000
MTEXTEND
  0
POINT
  5
BB6
330
BAF
100
AcDbEntity
  8
DEFPOINTS
 62
     0
100
AcDbPoint
 10
345.0144230769232
 20
401.1525420824552
 30
0.0
  0
POINT
  5
BB7
330
BAF
100
AcDbEntity
  8
DEFPOINTS
 62
     0
100
AcDbPoint
 10
345.0144230769232
 20
426.1525420824552
 30
0.0
  0
POINT
  5
BB8
330
BAF
100
AcDbEntity
  8
DEFPOINTS
 62
     0
100
AcDbPoint
 10
357.2850812407679
 20
426.1525420824552
 30
0.0
  0
ENDBLK
  5
BBA
330
BAF
100
AcDbEntity
  8
0
100
AcDbBlockEnd
  0
BLOCK
  5
BC8
330
BBC
100
AcDbEntity
  8
0
100
AcDbBlockBegin
  2
*D10
 70
     1
 10
0.0
 20
0.0
 30
0.0
  3
*D10
  1

  0
LINE
  5
BBD
330
BBC
100
AcDbEntity
  8
SUNPOU
100
AcDbLine
 10
348.0144230769232
 20
426.1525420824552
 30
0.0
 11
359.2850812407681
 21
426.1525420824552
 31
0.0
  0
LINE
  5
BBE
330
BBC
100
AcDbEntity
  8
SUNPOU
100
AcDbLine
 10
348.0144230769232
 20
431.1525420824552
 30
0.0
 11
359.2850812407681
 21
431.1525420824552
 31
0.0
  0
LINE
  5
BBF
330
BBC
100
AcDbEntity
  8
SUNPOU
100
AcDbLine
 10
357.2850812407679
 20
421.1525420824552
 30
0.0
 11
357.2850812407679
 21
416.1525420824553
 31
0.0
  0
LINE
  5
BC0
330
BBC
100
AcDbEntity
  8
SUNPOU
100
AcDbLine
 10
357.2850812407679
 20
436.1525420824553
 30
0.0
 11
357.2850812407679
 21
441.1525420824553
 31
0.0
  0
LINE
  5
BC1
330
BBC
100
AcDbEntity
  8
SUNPOU
100
AcDbLine
 10
357.2850812407679
 20
426.1525420824552
 30
0.0
 11
357.2850812407679
 21
431.1525420824552
 31
0.0
  0
INSERT
  5
BC2
330
BBC
100
AcDbEntity
  8
SUNPOU
100
AcDbBlockReference
  2
_OPEN30
 10
357.2850812407679
 20
426.1525420824552
 30
0.0
 41
5.0
 42
5.0
 43
5.0
 50
90.0
  0
INSERT
  5
BC3
330
BBC
100
AcDbEntity
  8
SUNPOU
100
AcDbBlockReference
  2
_OPEN30
 10
357.2850812407679
 20
431.1525420824552
 30
0.0
 41
5.0
 42
5.0
 43
5.0
 50
270.0
  0
MTEXT
  5
BC4
330
BBC
100
AcDbEntity
  8
SUNPOU
100
AcDbMText
 10
352.7850812407679
 20
428.6525420824553
 30
0.0
 40
5.0
 41
0.0
 71
     5
 72
     1
  1
\A1;5
  7
SUNPOU
 11
0.0000000000000001
 21
1.0
 31
0.0
1001
ACAD
1000
MTEXTBEGIN
1070
    73
1070
     1
1070
    44
1040
1.0
1070
    74
1070
     0
1000
MTEXTEND
1000
MTEXTBEGIN
1070
    73
1070
     1
1070
    44
1040
1.0
1070
    74
1070
     0
1000
MTEXTEND
  0
POINT
  5
BC5
330
BBC
100
AcDbEntity
  8
DEFPOINTS
 62
     0
100
AcDbPoint
 10
345.0144230769232
 20
426.1525420824552
 30
0.0
  0
POINT
  5
BC6
330
BBC
100
AcDbEntity
  8
DEFPOINTS
 62
     0
100
AcDbPoint
 10
345.0144230769232
 20
431.1525420824552
 30
0.0
  0
POINT
  5
BC7
330
BBC
100
AcDbEntity
  8
DEFPOINTS
 62
     0
100
AcDbPoint
 10
357.2850812407679
 20
431.1525420824552
 30
0.0
  0
ENDBLK
  5
BC9
330
BBC
100
AcDbEntity
  8
0
100
AcDbBlockEnd
  0
BLOCK
  5
BD5
330
BCB
100
AcDbEntity
  8
0
100
AcDbBlockBegin
  2
*D11
 70
     1
 10
0.0
 20
0.0
 30
0.0
  3
*D11
  1

  0
LINE
  5
BCC
330
BCB
100
AcDbEntity
  8
SUNPOU
100
AcDbLine
 10
348.0144230769232
 20
431.1525420824552
 30
0.0
 11
359.2850812407681
 21
431.1525420824552
 31
0.0
  0
LINE
  5
BCD
330
BCB
100
AcDbEntity
  8
SUNPOU
100
AcDbLine
 10
348.0144230769232
 20
456.1525420824552
 30
0.0
 11
359.2850812407681
 21
456.1525420824552
 31
0.0
  0
LINE
  5
BCE
330
BCB
100
AcDbEntity
  8
SUNPOU
100
AcDbLine
 10
357.2850812407679
 20
436.1525420824553
 30
0.0
 11
357.2850812407679
 21
451.1525420824552
 31
0.0
  0
INSERT
  5
BCF
330
BCB
100
AcDbEntity
  8
SUNPOU
100
AcDbBlockReference
  2
_OPEN30
 10
357.2850812407679
 20
431.1525420824552
 30
0.0
 41
5.0
 42
5.0
 43
5.0
 50
270.0
  0
INSERT
  5
BD0
330
BCB
100
AcDbEntity
  8
SUNPOU
100
AcDbBlockReference
  2
_OPEN30
 10
357.2850812407679
 20
456.1525420824552
 30
0.0
 41
5.0
 42
5.0
 43
5.0
 50
90.0
  0
MTEXT
  5
BD1
330
BCB
100
AcDbEntity
  8
SUNPOU
100
AcDbMText
 10
352.7850812407679
 20
443.6525420824552
 30
0.0
 40
5.0
 41
0.0
 71
     5
 72
     1
  1
\A1;25
  7
SUNPOU
 11
0.0000000000000001
 21
1.0
 31
0.0
1001
ACAD
1000
MTEXTBEGIN
1070
    73
1070
     1
1070
    44
1040
1.0
1070
    74
1070
     0
1000
MTEXTEND
1000
MTEXTBEGIN
1070
    73
1070
     1
1070
    44
1040
1.0
1070
    74
1070
     0
1000
MTEXTEND
  0
POINT
  5
BD2
330
BCB
100
AcDbEntity
  8
DEFPOINTS
 62
     0
100
AcDbPoint
 10
345.0144230769232
 20
431.1525420824552
 30
0.0
  0
POINT
  5
BD3
330
BCB
100
AcDbEntity
  8
DEFPOINTS
 62
     0
100
AcDbPoint
 10
345.0144230769232
 20
456.1525420824552
 30
0.0
  0
POINT
  5
BD4
330
BCB
100
AcDbEntity
  8
DEFPOINTS
 62
     0
100
AcDbPoint
 10
357.2850812407679
 20
456.1525420824552
 30
0.0
  0
ENDBLK
  5
BD6
330
BCB
100
AcDbEntity
  8
0
100
AcDbBlockEnd
  0
BLOCK
  5
BE2
330
BD8
100
AcDbEntity
  8
0
100
AcDbBlockBegin
  2
*D12
 70
     1
 10
0.0
 20
0.0
 30
0.0
  3
*D12
  1

  0
LINE
  5
BD9
330
BD8
100
AcDbEntity
  8
SUNPOU
100
AcDbLine
 10
161.7692820110923
 20
241.019525936888
 30
0.0
 11
172.3511928740879
 21
241.019525936888
 31
0.0
  0
LINE
  5
BDA
330
BD8
100
AcDbEntity
  8
SUNPOU
100
AcDbLine
 10
161.769282011093
 20
257.0195259368882
 30
0.0
 11
172.3511928740879
 21
257.0195259368882
 31
0.0
  0
LINE
  5
BDB
330
BD8
100
AcDbEntity
  8
SUNPOU
100
AcDbLine
 10
170.351192874088
 20
246.0195259368882
 30
0.0
 11
170.351192874088
 21
252.0195259368883
 31
0.0
  0
INSERT
  5
BDC
330
BD8
100
AcDbEntity
  8
SUNPOU
100
AcDbBlockReference
  2
_OPEN30
 10
170.351192874088
 20
241.019525936888
 30
0.0
 41
5.0
 42
5.0
 43
5.0
 50
270.0
  0
INSERT
  5
BDD
330
BD8
100
AcDbEntity
  8
SUNPOU
100
AcDbBlockReference
  2
_OPEN30
 10
170.351192874088
 20
257.0195259368882
 30
0.0
 41
5.0
 42
5.0
 43
5.0
 50
90.0
  0
MTEXT
  5
BDE
330
BD8
100
AcDbEntity
  8
SUNPOU
100
AcDbMText
 10
165.8511928740878
 20
249.019525936888
 30
0.0
 40
5.0
 41
0.0
 71
     5
 72
     1
  1
\A1;16
  7
SUNPOU
 11
0.0000000000000001
 21
1.0
 31
0.0
1001
ACAD
1000
MTEXTBEGIN
1070
    73
1070
     1
1070
    44
1040
1.0
1070
    74
1070
     0
1000
MTEXTEND
1000
MTEXTBEGIN
1070
    73
1070
     1
1070
    44
1040
1.0
1070
    74
1070
     0
1000
MTEXTEND
  0
POINT
  5
BDF
330
BD8
100
AcDbEntity
  8
DEFPOINTS
 62
     0
100
AcDbPoint
 10
158.7692820110923
 20
241.019525936888
 30
0.0
  0
POINT
  5
BE0
330
BD8
100
AcDbEntity
  8
DEFPOINTS
 62
     0
100
AcDbPoint
 10
158.7692820110929
 20
257.0195259368882
 30
0.0
  0
POINT
  5
BE1
330
BD8
100
AcDbEntity
  8
DEFPOINTS
 62
     0
100
AcDbPoint
 10
170.351192874088
 20
257.0195259368882
 30
0.0
  0
ENDBLK
  5
BE3
330
BD8
100
AcDbEntity
  8
0
100
AcDbBlockEnd
  0
BLOCK
  5
BEF
330
BE5
100
AcDbEntity
  8
0
100
AcDbBlockBegin
  2
*D13
 70
     1
 10
0.0
 20
0.0
 30
0.0
  3
*D13
  1

  0
LINE
  5
BE6
330
BE5
100
AcDbEntity
  8
SUNPOU
100
AcDbLine
 10
161.0192820110924
 20
234.519525936888
 30
0.0
 11
184.3511928740879
 21
234.519525936888
 31
0.0
  0
LINE
  5
BE7
330
BE5
100
AcDbEntity
  8
SUNPOU
100
AcDbLine
 10
161.0192820110924
 20
263.5195259368882
 30
0.0
 11
184.3511928740879
 21
263.5195259368882
 31
0.0
  0
LINE
  5
BE8
330
BE5
100
AcDbEntity
  8
SUNPOU
100
AcDbLine
 10
182.3511928740878
 20
239.5195259368882
 30
0.0
 11
182.3511928740878
 21
258.5195259368882
 31
0.0
  0
INSERT
  5
BE9
330
BE5
100
AcDbEntity
  8
SUNPOU
100
AcDbBlockReference
  2
_OPEN30
 10
182.3511928740878
 20
234.519525936888
 30
0.0
 41
5.0
 42
5.0
 43
5.0
 50
270.0
  0
INSERT
  5
BEA
330
BE5
100
AcDbEntity
  8
SUNPOU
100
AcDbBlockReference
  2
_OPEN30
 10
182.3511928740878
 20
263.5195259368882
 30
0.0
 41
5.0
 42
5.0
 43
5.0
 50
90.0
  0
MTEXT
  5
BEB
330
BE5
100
AcDbEntity
  8
SUNPOU
100
AcDbMText
 10
177.8511928740879
 20
249.0195259368883
 30
0.0
 40
5.0
 41
0.0
 71
     5
 72
     1
  1
\A1;29
  7
SUNPOU
 11
0.0000000000000001
 21
1.0
 31
0.0
1001
ACAD
1000
MTEXTBEGIN
1070
    73
1070
     1
1070
    44
1040
1.0
1070
    74
1070
     0
1000
MTEXTEND
1000
MTEXTBEGIN
1070
    73
1070
     1
1070
    44
1040
1.0
1070
    74
1070
     0
1000
MTEXTEND
  0
POINT
  5
BEC
330
BE5
100
AcDbEntity
  8
DEFPOINTS
 62
     0
100
AcDbPoint
 10
158.0192820110924
 20
234.519525936888
 30
0.0
  0
POINT
  5
BED
330
BE5
100
AcDbEntity
  8
DEFPOINTS
 62
     0
100
AcDbPoint
 10
158.0192820110924
 20
263.5195259368882
 30
0.0
  0
POINT
  5
BEE
330
BE5
100
AcDbEntity
  8
DEFPOINTS
 62
     0
100
AcDbPoint
 10
182.3511928740878
 20
263.5195259368882
 30
0.0
  0
ENDBLK
  5
BF0
330
BE5
100
AcDbEntity
  8
0
100
AcDbBlockEnd
  0
BLOCK
  5
BFC
330
BF2
100
AcDbEntity
  8
0
100
AcDbBlockBegin
  2
*D14
 70
     1
 10
0.0
 20
0.0
 30
0.0
  3
*D14
  1

  0
LINE
  5
BF3
330
BF2
100
AcDbEntity
  8
SUNPOU
100
AcDbLine
 10
191.3511928740879
 20
233.0195259368883
 30
0.0
 11
192.3511928740879
 21
233.0195259368883
 31
0.0
  0
LINE
  5
BF4
330
BF2
100
AcDbEntity
  8
SUNPOU
100
AcDbLine
 10
191.3511928740879
 20
265.0195259368882
 30
0.0
 11
192.3511928740879
 21
265.0195259368882
 31
0.0
  0
LINE
  5
BF5
330
BF2
100
AcDbEntity
  8
SUNPOU
100
AcDbLine
 10
194.3511928740879
 20
238.019525936888
 30
0.0
 11
194.3511928740879
 21
260.0195259368882
 31
0.0
  0
INSERT
  5
BF6
330
BF2
100
AcDbEntity
  8
SUNPOU
100
AcDbBlockReference
  2
_OPEN30
 10
194.3511928740879
 20
233.0195259368883
 30
0.0
 41
5.0
 42
5.0
 43
5.0
 50
270.0
  0
INSERT
  5
BF7
330
BF2
100
AcDbEntity
  8
SUNPOU
100
AcDbBlockReference
  2
_OPEN30
 10
194.3511928740879
 20
265.0195259368882
 30
0.0
 41
5.0
 42
5.0
 43
5.0
 50
90.0
  0
MTEXT
  5
BF8
330
BF2
100
AcDbEntity
  8
SUNPOU
100
AcDbMText
 10
189.8511928740878
 20
249.0195259368883
 30
0.0
 40
5.0
 41
0.0
 71
     5
 72
     1
  1
\A1;32
  7
SUNPOU
 11
0.0000000000000001
 21
1.0
 31
0.0
1001
ACAD
1000
MTEXTBEGIN
1070
    73
1070
     1
1070
    44
1040
1.0
1070
    74
1070
     0
1000
MTEXTEND
1000
MTEXTBEGIN
1070
    73
1070
     1
1070
    44
1040
1.0
1070
    74
1070
     0
1000
MTEXTEND
  0
POINT
  5
BF9
330
BF2
100
AcDbEntity
  8
DEFPOINTS
 62
     0
100
AcDbPoint
 10
194.3511928740879
 20
233.0195259368883
 30
0.0
  0
POINT
  5
BFA
330
BF2
100
AcDbEntity
  8
DEFPOINTS
 62
     0
100
AcDbPoint
 10
194.3511928740879
 20
265.0195259368882
 30
0.0
  0
POINT
  5
BFB
330
BF2
100
AcDbEntity
  8
DEFPOINTS
 62
     0
100
AcDbPoint
 10
194.3511928740879
 20
265.0195259368882
 30
0.0
  0
ENDBLK
  5
BFD
330
BF2
100
AcDbEntity
  8
0
100
AcDbBlockEnd
  0
BLOCK
  5
C09
330
BFF
100
AcDbEntity
  8
0
100
AcDbBlockBegin
  2
*D15
 70
     1
 10
0.0
 20
0.0
 30
0.0
  3
*D15
  1

  0
LINE
  5
F1A
330
BFF
100
AcDbEntity
  8
SUNPOU
100
AcDbLine
 10
73.7692820110924
 20
268.0195259368882
 30
0.0
 11
73.7692820110924
 21
294.3559822747415
 31
0.0
  0
LINE
  5
F1B
330
BFF
100
AcDbEntity
  8
SUNPOU
100
AcDbLine
 10
158.7692820110924
 20
265.7695259368882
 30
0.0
 11
158.7692820110924
 21
294.3559822747415
 31
0.0
  0
LINE
  5
F1C
330
BFF
100
AcDbEntity
  8
SUNPOU
100
AcDbLine
 10
78.7692820110924
 20
292.3559822747415
 30
0.0
 11
153.7692820110924
 21
292.3559822747415
 31
0.0
  0
MTEXT
  5
F1D
330
BFF
100
AcDbEntity
  8
SUNPOU
100
AcDbMText
 10
116.2692820110924
 20
287.8559822747415
 30
0.0
 40
5.0
 41
0.0
 71
     5
 72
     1
  1
\A1;85
  7
SUNPOU
 11
-1.0
 21
0.0000000000000001
 31
0.0
1001
ACAD
1000
MTEXTBEGIN
1070
    73
1070
     1
1070
    44
1040
1.0
1070
    74
1070
     0
1000
MTEXTEND
1000
MTEXTBEGIN
1070
    73
1070
     1
1070
    44
1040
1.0
1070
    74
1070
     0
1000
MTEXTEND
  0
INSERT
  5
F1E
330
BFF
100
AcDbEntity
  8
SUNPOU
100
AcDbBlockReference
  2
_OPEN30
 10
73.7692820110924
 20
292.3559822747415
 30
0.0
 41
5.0
 42
5.0
 43
5.0
 50
180.0
  0
INSERT
  5
F1F
330
BFF
100
AcDbEntity
  8
SUNPOU
100
AcDbBlockReference
  2
_OPEN30
 10
158.7692820110924
 20
292.3559822747415
 30
0.0
 41
5.0
 42
5.0
 43
5.0
  0
POINT
  5
F20
330
BFF
100
AcDbEntity
  8
DEFPOINTS
 62
     0
100
AcDbPoint
 10
73.7692820110924
 20
265.0195259368882
 30
0.0
  0
POINT
  5
F21
330
BFF
100
AcDbEntity
  8
DEFPOINTS
 62
     0
100
AcDbPoint
 10
158.7692820110924
 20
262.7695259368882
 30
0.0
  0
POINT
  5
F22
330
BFF
100
AcDbEntity
  8
DEFPOINTS
 62
     0
100
AcDbPoint
 10
158.7692820110924
 20
292.3559822747415
 30
0.0
  0
ENDBLK
  5
C0A
330
BFF
100
AcDbEntity
  8
0
100
AcDbBlockEnd
  0
BLOCK
  5
C16
330
C0C
100
AcDbEntity
  8
0
100
AcDbBlockBegin
  2
*D16
 70
     1
 10
0.0
 20
0.0
 30
0.0
  3
*D16
  1

  0
LINE
  5
F2D
330
C0C
100
AcDbEntity
  8
SUNPOU
100
AcDbLine
 10
266.3538836313043
 20
265.8830401281314
 30
0.0
 11
266.3538836313043
 21
294.3559822747415
 31
0.0
  0
LINE
  5
F2E
330
C0C
100
AcDbEntity
  8
SUNPOU
100
AcDbLine
 10
351.3452435495536
 20
268.0195259368882
 30
0.0
 11
351.3452435495536
 21
294.3559822747415
 31
0.0
  0
LINE
  5
F2F
330
C0C
100
AcDbEntity
  8
SUNPOU
100
AcDbLine
 10
271.3538836313046
 20
292.3559822747415
 30
0.0
 11
346.3452435495536
 21
292.3559822747415
 31
0.0
  0
MTEXT
  5
F30
330
C0C
100
AcDbEntity
  8
SUNPOU
100
AcDbMText
 10
308.849563590429
 20
287.8559822747415
 30
0.0
 40
5.0
 41
0.0
 71
     5
 72
     1
  1
\A1;85
  7
SUNPOU
 11
-1.0
 21
0.0000000000000001
 31
0.0
1001
ACAD
1000
MTEXTBEGIN
1070
    73
1070
     1
1070
    44
1040
1.0
1070
    74
1070
     0
1000
MTEXTEND
1000
MTEXTBEGIN
1070
    73
1070
     1
1070
    44
1040
1.0
1070
    74
1070
     0
1000
MTEXTEND
  0
INSERT
  5
F31
330
C0C
100
AcDbEntity
  8
SUNPOU
100
AcDbBlockReference
  2
_OPEN30
 10
266.3538836313043
 20
292.3559822747415
 30
0.0
 41
5.0
 42
5.0
 43
5.0
 50
180.0
  0
INSERT
  5
F32
330
C0C
100
AcDbEntity
  8
SUNPOU
100
AcDbBlockReference
  2
_OPEN30
 10
351.3452435495536
 20
292.3559822747415
 30
0.0
 41
5.0
 42
5.0
 43
5.0
  0
POINT
  5
F33
330
C0C
100
AcDbEntity
  8
DEFPOINTS
 62
     0
100
AcDbPoint
 10
266.3538836313043
 20
262.8830401281314
 30
0.0
  0
POINT
  5
F34
330
C0C
100
AcDbEntity
  8
DEFPOINTS
 62
     0
100
AcDbPoint
 10
351.3452435495536
 20
265.0195259368882
 30
0.0
  0
POINT
  5
F35
330
C0C
100
AcDbEntity
  8
DEFPOINTS
 62
     0
100
AcDbPoint
 10
351.3452435495536
 20
292.3559822747415
 30
0.0
  0
ENDBLK
  5
C17
330
C0C
100
AcDbEntity
  8
0
100
AcDbBlockEnd
  0
BLOCK
  5
C25
330
C19
100
AcDbEntity
  8
0
100
AcDbBlockBegin
  2
*D17
 70
     1
 10
0.0
 20
0.0
 30
0.0
  3
*D17
  1

  0
LINE
  5
EEB
330
C19
100
AcDbEntity
  8
SUNPOU
100
AcDbLine
 10
70.7692820110924
 20
266.9195259368883
 30
0.0
 11
70.7692820110924
 21
307.1802067946823
 31
0.0
  0
LINE
  5
EEC
330
C19
100
AcDbEntity
  8
SUNPOU
100
AcDbLine
 10
73.7692820110924
 20
268.0195259368882
 30
0.0
 11
73.7692820110924
 21
307.1802067946823
 31
0.0
  0
LINE
  5
EED
330
C19
100
AcDbEntity
  8
SUNPOU
100
AcDbLine
 10
65.7692820110924
 20
305.1802067946823
 30
0.0
 11
60.7692820110924
 21
305.1802067946823
 31
0.0
  0
LINE
  5
EEE
330
C19
100
AcDbEntity
  8
SUNPOU
100
AcDbLine
 10
78.7692820110924
 20
305.1802067946823
 30
0.0
 11
83.7692820110924
 21
305.1802067946823
 31
0.0
  0
MTEXT
  5
EEF
330
C19
100
AcDbEntity
  8
SUNPOU
100
AcDbMText
 10
63.15669412347779
 20
300.6802067946823
 30
0.0
 40
5.0
 41
0.0
 71
     5
 72
     1
  1
\A1;3
  7
SUNPOU
 11
-1.0
 21
0.0000000000000001
 31
0.0
1001
ACAD
1000
MTEXTBEGIN
1070
    73
1070
     1
1070
    44
1040
1.0
1070
    74
1070
     0
1000
MTEXTEND
1000
MTEXTBEGIN
1070
    73
1070
     1
1070
    44
1040
1.0
1070
    74
1070
     0
1000
MTEXTEND
  0
LINE
  5
EF0
330
C19
100
AcDbEntity
  8
SUNPOU
100
AcDbLine
 10
70.7692820110924
 20
305.1802067946823
 30
0.0
 11
73.7692820110924
 21
305.1802067946823
 31
0.0
  0
INSERT
  5
EF1
330
C19
100
AcDbEntity
  8
SUNPOU
100
AcDbBlockReference
  2
_OPEN30
 10
70.7692820110924
 20
305.1802067946823
 30
0.0
 41
5.0
 42
5.0
 43
5.0
  0
INSERT
  5
EF2
330
C19
100
AcDbEntity
  8
SUNPOU
100
AcDbBlockReference
  2
_OPEN30
 10
73.7692820110924
 20
305.1802067946823
 30
0.0
 41
5.0
 42
5.0
 43
5.0
 50
180.0
  0
POINT
  5
EF3
330
C19
100
AcDbEntity
  8
DEFPOINTS
 62
     0
100
AcDbPoint
 10
70.7692820110924
 20
263.9195259368883
 30
0.0
  0
POINT
  5
EF4
330
C19
100
AcDbEntity
  8
DEFPOINTS
 62
     0
100
AcDbPoint
 10
73.7692820110924
 20
265.0195259368882
 30
0.0
  0
POINT
  5
EF5
330
C19
100
AcDbEntity
  8
DEFPOINTS
 62
     0
100
AcDbPoint
 10
73.7692820110924
 20
305.1802067946823
 30
0.0
  0
ENDBLK
  5
C26
330
C19
100
AcDbEntity
  8
0
100
AcDbBlockEnd
  0
BLOCK
  5
C32
330
C28
100
AcDbEntity
  8
0
100
AcDbBlockBegin
  2
*D18
 70
     1
 10
0.0
 20
0.0
 30
0.0
  3
*D18
  1

  0
LINE
  5
ED7
330
C28
100
AcDbEntity
  8
SUNPOU
100
AcDbLine
 10
73.7692820110924
 20
268.0195259368882
 30
0.0
 11
73.7692820110924
 21
307.1802067946823
 31
0.0
  0
LINE
  5
ED8
330
C28
100
AcDbEntity
  8
SUNPOU
100
AcDbLine
 10
351.3452435495536
 20
268.0195259368882
 30
0.0
 11
351.3452435495536
 21
307.1802067946823
 31
0.0
  0
LINE
  5
ED9
330
C28
100
AcDbEntity
  8
SUNPOU
100
AcDbLine
 10
78.7692820110924
 20
305.1802067946823
 30
0.0
 11
346.3452435495536
 21
305.1802067946823
 31
0.0
  0
MTEXT
  5
EDA
330
C28
100
AcDbEntity
  8
SUNPOU
100
AcDbMText
 10
212.5572627803228
 20
300.6802067946823
 30
0.0
 40
5.0
 41
0.0
 71
     5
 72
     1
  1
\A1;DH
  7
SUNPOU
 11
-1.0
 21
0.0000000000000001
 31
0.0
1001
ACAD
1000
MTEXTBEGIN
1070
    73
1070
     1
1070
    44
1040
1.0
1070
    74
1070
     0
1000
MTEXTEND
1000
MTEXTBEGIN
1070
    73
1070
     1
1070
    44
1040
1.0
1070
    74
1070
     0
1000
MTEXTEND
  0
INSERT
  5
EDB
330
C28
100
AcDbEntity
  8
SUNPOU
100
AcDbBlockReference
  2
_OPEN30
 10
73.7692820110924
 20
305.1802067946823
 30
0.0
 41
5.0
 42
5.0
 43
5.0
 50
180.0
  0
INSERT
  5
EDC
330
C28
100
AcDbEntity
  8
SUNPOU
100
AcDbBlockReference
  2
_OPEN30
 10
351.3452435495536
 20
305.1802067946823
 30
0.0
 41
5.0
 42
5.0
 43
5.0
  0
POINT
  5
EDD
330
C28
100
AcDbEntity
  8
DEFPOINTS
 62
     0
100
AcDbPoint
 10
73.7692820110924
 20
265.0195259368882
 30
0.0
  0
POINT
  5
EDE
330
C28
100
AcDbEntity
  8
DEFPOINTS
 62
     0
100
AcDbPoint
 10
351.3452435495536
 20
265.0195259368882
 30
0.0
  0
POINT
  5
EDF
330
C28
100
AcDbEntity
  8
DEFPOINTS
 62
     0
100
AcDbPoint
 10
351.3452435495536
 20
305.1802067946823
 30
0.0
  0
ENDBLK
  5
C33
330
C28
100
AcDbEntity
  8
0
100
AcDbBlockEnd
  0
BLOCK
  5
C41
330
C35
100
AcDbEntity
  8
0
100
AcDbBlockBegin
  2
*D19
 70
     1
 10
0.0
 20
0.0
 30
0.0
  3
*D19
  1

  0
LINE
  5
EE0
330
C35
100
AcDbEntity
  8
SUNPOU
100
AcDbLine
 10
351.3452435495536
 20
268.0195259368882
 30
0.0
 11
351.3452435495536
 21
307.1802067946823
 31
0.0
  0
LINE
  5
EE1
330
C35
100
AcDbEntity
  8
SUNPOU
100
AcDbLine
 10
361.3452435495537
 20
287.0195259368882
 30
0.0
 11
361.3452435495537
 21
307.1802067946823
 31
0.0
  0
LINE
  5
EE2
330
C35
100
AcDbEntity
  8
SUNPOU
100
AcDbLine
 10
346.3452435495536
 20
305.1802067946823
 30
0.0
 11
341.3452435495536
 21
305.1802067946823
 31
0.0
  0
LINE
  5
EE3
330
C35
100
AcDbEntity
  8
SUNPOU
100
AcDbLine
 10
366.3452435495536
 20
305.1802067946823
 30
0.0
 11
371.3452435495536
 21
305.1802067946823
 31
0.0
  0
MTEXT
  5
EE4
330
C35
100
AcDbEntity
  8
SUNPOU
100
AcDbMText
 10
356.3452435495536
 20
300.6802067946823
 30
0.0
 40
5.0
 41
0.0
 71
     5
 72
     1
  1
\A1;10
  7
SUNPOU
 11
-1.0
 21
0.0000000000000001
 31
0.0
1001
ACAD
1000
MTEXTBEGIN
1070
    73
1070
     1
1070
    44
1040
1.0
1070
    74
1070
     0
1000
MTEXTEND
1000
MTEXTBEGIN
1070
    73
1070
     1
1070
    44
1040
1.0
1070
    74
1070
     0
1000
MTEXTEND
  0
LINE
  5
EE5
330
C35
100
AcDbEntity
  8
SUNPOU
100
AcDbLine
 10
351.3452435495536
 20
305.1802067946823
 30
0.0
 11
361.3452435495537
 21
305.1802067946823
 31
0.0
  0
INSERT
  5
EE6
330
C35
100
AcDbEntity
  8
SUNPOU
100
AcDbBlockReference
  2
_OPEN30
 10
351.3452435495536
 20
305.1802067946823
 30
0.0
 41
5.0
 42
5.0
 43
5.0
  0
INSERT
  5
EE7
330
C35
100
AcDbEntity
  8
SUNPOU
100
AcDbBlockReference
  2
_OPEN30
 10
361.3452435495537
 20
305.1802067946823
 30
0.0
 41
5.0
 42
5.0
 43
5.0
 50
180.0
  0
POINT
  5
EE8
330
C35
100
AcDbEntity
  8
DEFPOINTS
 62
     0
100
AcDbPoint
 10
351.3452435495536
 20
265.0195259368882
 30
0.0
  0
POINT
  5
EE9
330
C35
100
AcDbEntity
  8
DEFPOINTS
 62
     0
100
AcDbPoint
 10
361.3452435495537
 20
284.0195259368882
 30
0.0
  0
POINT
  5
EEA
330
C35
100
AcDbEntity
  8
DEFPOINTS
 62
     0
100
AcDbPoint
 10
361.3452435495537
 20
305.1802067946823
 30
0.0
  0
ENDBLK
  5
C42
330
C35
100
AcDbEntity
  8
0
100
AcDbBlockEnd
  0
BLOCK
  5
C82
330
C76
100
AcDbEntity
  8
0
100
AcDbBlockBegin
  2
*D20
 70
     1
 10
0.0
 20
0.0
 30
0.0
  3
*D20
  1

  0
LINE
  5
F4A
330
C76
100
AcDbEntity
  8
SUNPOU
100
AcDbLine
 10
83.46928201109241
 20
167.2943043480261
 30
0.0
 11
83.46928201109241
 21
180.7423054438674
 31
0.0
  0
LINE
  5
F4B
330
C76
100
AcDbEntity
  8
SUNPOU
100
AcDbLine
 10
83.76928201109242
 20
166.794304348026
 30
0.0
 11
83.76928201109242
 21
180.7423054438674
 31
0.0
  0
LINE
  5
F4C
330
C76
100
AcDbEntity
  8
SUNPOU
100
AcDbLine
 10
78.46928201109242
 20
178.7423054438676
 30
0.0
 11
73.46928201109242
 21
178.7423054438676
 31
0.0
  0
LINE
  5
F4D
330
C76
100
AcDbEntity
  8
SUNPOU
100
AcDbLine
 10
88.76928201109242
 20
178.7423054438676
 30
0.0
 11
93.76928201109242
 21
178.7423054438676
 31
0.0
  0
MTEXT
  5
F4E
330
C76
100
AcDbEntity
  8
SUNPOU
100
AcDbMText
 10
75.74563675526859
 20
174.2423054438676
 30
0.0
 40
5.0
 41
0.0
 71
     5
 72
     1
  1
\A1;0.3
  7
SUNPOU
 11
-1.0
 21
0.0000000000000001
 31
0.0
1001
ACAD
1000
MTEXTBEGIN
1070
    73
1070
     1
1070
    44
1040
1.0
1070
    74
1070
     0
1000
MTEXTEND
1000
MTEXTBEGIN
1070
    73
1070
     1
1070
    44
1040
1.0
1070
    74
1070
     0
1000
MTEXTEND
  0
LINE
  5
F4F
330
C76
100
AcDbEntity
  8
SUNPOU
100
AcDbLine
 10
83.46928201109241
 20
178.7423054438676
 30
0.0
 11
83.76928201109242
 21
178.7423054438676
 31
0.0
  0
INSERT
  5
F50
330
C76
100
AcDbEntity
  8
SUNPOU
100
AcDbBlockReference
  2
_OPEN30
 10
83.46928201109241
 20
178.7423054438676
 30
0.0
 41
5.0
 42
5.0
 43
5.0
  0
INSERT
  5
F51
330
C76
100
AcDbEntity
  8
SUNPOU
100
AcDbBlockReference
  2
_OPEN30
 10
83.76928201109242
 20
178.7423054438676
 30
0.0
 41
5.0
 42
5.0
 43
5.0
 50
180.0
  0
POINT
  5
F52
330
C76
100
AcDbEntity
  8
DEFPOINTS
 62
     0
100
AcDbPoint
 10
83.46928201109241
 20
164.294304348026
 30
0.0
  0
POINT
  5
F53
330
C76
100
AcDbEntity
  8
DEFPOINTS
 62
     0
100
AcDbPoint
 10
83.76928201109242
 20
163.794304348026
 30
0.0
  0
POINT
  5
F54
330
C76
100
AcDbEntity
  8
DEFPOINTS
 62
     0
100
AcDbPoint
 10
83.76928201109242
 20
178.7423054438676
 30
0.0
  0
ENDBLK
  5
C83
330
C76
100
AcDbEntity
  8
0
100
AcDbBlockEnd
  0
BLOCK
  5
C9A
330
C90
100
AcDbEntity
  8
0
100
AcDbBlockBegin
  2
*D21
 70
     1
 10
0.0
 20
0.0
 30
0.0
  3
*D21
  1

  0
LINE
  5
F41
330
C90
100
AcDbEntity
  8
SUNPOU
100
AcDbLine
 10
83.76928201109242
 20
166.794304348026
 30
0.0
 11
83.76928201109242
 21
180.7423054438674
 31
0.0
  0
LINE
  5
F42
330
C90
100
AcDbEntity
  8
SUNPOU
100
AcDbLine
 10
297.1692820110923
 20
166.794304348026
 30
0.0
 11
297.1692820110923
 21
180.7423054438674
 31
0.0
  0
LINE
  5
F43
330
C90
100
AcDbEntity
  8
SUNPOU
100
AcDbLine
 10
88.76928201109242
 20
178.7423054438676
 30
0.0
 11
292.1692820110923
 21
178.7423054438676
 31
0.0
  0
MTEXT
  5
F44
330
C90
100
AcDbEntity
  8
SUNPOU
100
AcDbMText
 10
190.4692820110923
 20
174.2423054438676
 30
0.0
 40
5.0
 41
0.0
 71
     5
 72
     1
  1
\A1;DH
  7
SUNPOU
 11
-1.0
 21
0.0000000000000001
 31
0.0
1001
ACAD
1000
MTEXTBEGIN
1070
    73
1070
     1
1070
    44
1040
1.0
1070
    74
1070
     0
1000
MTEXTEND
1000
MTEXTBEGIN
1070
    73
1070
     1
1070
    44
1040
1.0
1070
    74
1070
     0
1000
MTEXTEND
  0
INSERT
  5
F45
330
C90
100
AcDbEntity
  8
SUNPOU
100
AcDbBlockReference
  2
_OPEN30
 10
83.76928201109242
 20
178.7423054438676
 30
0.0
 41
5.0
 42
5.0
 43
5.0
 50
180.0
  0
INSERT
  5
F46
330
C90
100
AcDbEntity
  8
SUNPOU
100
AcDbBlockReference
  2
_OPEN30
 10
297.1692820110923
 20
178.7423054438676
 30
0.0
 41
5.0
 42
5.0
 43
5.0
  0
POINT
  5
F47
330
C90
100
AcDbEntity
  8
DEFPOINTS
 62
     0
100
AcDbPoint
 10
83.76928201109242
 20
163.794304348026
 30
0.0
  0
POINT
  5
F48
330
C90
100
AcDbEntity
  8
DEFPOINTS
 62
     0
100
AcDbPoint
 10
297.1692820110923
 20
163.794304348026
 30
0.0
  0
POINT
  5
F49
330
C90
100
AcDbEntity
  8
DEFPOINTS
 62
     0
100
AcDbPoint
 10
297.1692820110923
 20
178.7423054438676
 30
0.0
  0
ENDBLK
  5
C9B
330
C90
100
AcDbEntity
  8
0
100
AcDbBlockEnd
  0
BLOCK
  5
CA9
330
C9D
100
AcDbEntity
  8
0
100
AcDbBlockBegin
  2
*D22
 70
     1
 10
0.0
 20
0.0
 30
0.0
  3
*D22
  1

  0
LINE
  5
F36
330
C9D
100
AcDbEntity
  8
SUNPOU
100
AcDbLine
 10
297.1692820110923
 20
166.794304348026
 30
0.0
 11
297.1692820110923
 21
180.7423054438674
 31
0.0
  0
LINE
  5
F37
330
C9D
100
AcDbEntity
  8
SUNPOU
100
AcDbLine
 10
298.1692820110923
 20
170.294304348026
 30
0.0
 11
298.1692820110923
 21
180.7423054438674
 31
0.0
  0
LINE
  5
F38
330
C9D
100
AcDbEntity
  8
SUNPOU
100
AcDbLine
 10
292.1692820110923
 20
178.7423054438676
 30
0.0
 11
287.1692820110924
 21
178.7423054438676
 31
0.0
  0
LINE
  5
F39
330
C9D
100
AcDbEntity
  8
SUNPOU
100
AcDbLine
 10
303.1692820110923
 20
178.7423054438676
 30
0.0
 11
308.1692820110923
 21
178.7423054438676
 31
0.0
  0
MTEXT
  5
F3A
330
C9D
100
AcDbEntity
  8
SUNPOU
100
AcDbMText
 10
305.9950124385304
 20
174.2423054438676
 30
0.0
 40
5.0
 41
0.0
 71
     5
 72
     1
  1
\A1;10
  7
SUNPOU
 11
-1.0
 21
0.0000000000000001
 31
0.0
1001
ACAD
1000
MTEXTBEGIN
1070
    73
1070
     1
1070
    44
1040
1.0
1070
    74
1070
     0
1000
MTEXTEND
1000
MTEXTBEGIN
1070
    73
1070
     1
1070
    44
1040
1.0
1070
    74
1070
     0
1000
MTEXTEND
  0
LINE
  5
F3B
330
C9D
100
AcDbEntity
  8
SUNPOU
100
AcDbLine
 10
297.1692820110923
 20
178.7423054438676
 30
0.0
 11
298.1692820110923
 21
178.7423054438676
 31
0.0
  0
INSERT
  5
F3C
330
C9D
100
AcDbEntity
  8
SUNPOU
100
AcDbBlockReference
  2
_OPEN30
 10
297.1692820110923
 20
178.7423054438676
 30
0.0
 41
5.0
 42
5.0
 43
5.0
  0
INSERT
  5
F3D
330
C9D
100
AcDbEntity
  8
SUNPOU
100
AcDbBlockReference
  2
_OPEN30
 10
298.1692820110923
 20
178.7423054438676
 30
0.0
 41
5.0
 42
5.0
 43
5.0
 50
180.0
  0
POINT
  5
F3E
330
C9D
100
AcDbEntity
  8
DEFPOINTS
 62
     0
100
AcDbPoint
 10
297.1692820110923
 20
163.794304348026
 30
0.0
  0
POINT
  5
F3F
330
C9D
100
AcDbEntity
  8
DEFPOINTS
 62
     0
100
AcDbPoint
 10
298.1692820110923
 20
167.2943043480261
 30
0.0
  0
POINT
  5
F40
330
C9D
100
AcDbEntity
  8
DEFPOINTS
 62
     0
100
AcDbPoint
 10
298.1692820110923
 20
178.7423054438676
 30
0.0
  0
ENDBLK
  5
CAA
330
C9D
100
AcDbEntity
  8
0
100
AcDbBlockEnd
  0
BLOCK
  5
CE2
330
CD6
100
AcDbEntity
  8
0
100
AcDbBlockBegin
  2
*D23
 70
     1
 10
0.0
 20
0.0
 30
0.0
  3
*D23
  1

  0
LINE
  5
CE4
330
CD6
100
AcDbEntity
  8
SUNPOU
100
AcDbLine
 10
111.4519940915805
 20
71.89430434802625
 30
0.0
 11
110.4519940915805
 21
71.89430434802625
 31
0.0
  0
LINE
  5
CE5
330
CD6
100
AcDbEntity
  8
SUNPOU
100
AcDbLine
 10
100.1692820110922
 20
81.89430434802625
 30
0.0
 11
110.4519940915805
 21
81.89430434802625
 31
0.0
  0
LINE
  5
CE6
330
CD6
100
AcDbEntity
  8
SUNPOU
100
AcDbLine
 10
108.4519940915805
 20
66.89430434802625
 30
0.0
 11
108.4519940915805
 21
61.89430434802624
 31
0.0
  0
LINE
  5
CE7
330
CD6
100
AcDbEntity
  8
SUNPOU
100
AcDbLine
 10
108.4519940915805
 20
86.89430434802625
 30
0.0
 11
108.4519940915805
 21
91.89430434802623
 31
0.0
  0
MTEXT
  5
CE8
330
CD6
100
AcDbEntity
  8
SUNPOU
100
AcDbMText
 10
103.9519940915805
 20
96.26692462131245
 30
0.0
 40
5.0
 41
0.0
 71
     5
 72
     1
  1
\A1;100
  7
SUNPOU
 11
0.0000000000000001
 21
1.0
 31
0.0
1001
ACAD
1000
MTEXTBEGIN
1070
    73
1070
     1
1070
    44
1040
1.0
1070
    74
1070
     0
1000
MTEXTEND
1000
MTEXTBEGIN
1070
    73
1070
     1
1070
    44
1040
1.0
1070
    74
1070
     0
1000
MTEXTEND
  0
LINE
  5
CE9
330
CD6
100
AcDbEntity
  8
SUNPOU
100
AcDbLine
 10
108.4519940915805
 20
71.89430434802625
 30
0.0
 11
108.4519940915805
 21
81.89430434802625
 31
0.0
  0
INSERT
  5
CEA
330
CD6
100
AcDbEntity
  8
SUNPOU
100
AcDbBlockReference
  2
_OPEN30
 10
108.4519940915805
 20
71.89430434802625
 30
0.0
 41
5.0
 42
5.0
 43
5.0
 50
90.0
  0
INSERT
  5
CEB
330
CD6
100
AcDbEntity
  8
SUNPOU
100
AcDbBlockReference
  2
_OPEN30
 10
108.4519940915805
 20
81.89430434802625
 30
0.0
 41
5.0
 42
5.0
 43
5.0
 50
270.0
  0
POINT
  5
CEC
330
CD6
100
AcDbEntity
  8
DEFPOINTS
 62
     0
100
AcDbPoint
 10
108.4519940915805
 20
71.89430434802625
 30
0.0
  0
POINT
  5
CED
330
CD6
100
AcDbEntity
  8
DEFPOINTS
 62
     0
100
AcDbPoint
 10
97.16928201109242
 20
81.89430434802625
 30
0.0
  0
POINT
  5
CEE
330
CD6
100
AcDbEntity
  8
DEFPOINTS
 62
     0
100
AcDbPoint
 10
108.4519940915805
 20
81.89430434802625
 30
0.0
  0
ENDBLK
  5
CE3
330
CD6
100
AcDbEntity
  8
0
100
AcDbBlockEnd
  0
BLOCK
  5
CFC
330
CF0
100
AcDbEntity
  8
0
100
AcDbBlockBegin
  2
*D24
 70
     1
 10
0.0
 20
0.0
 30
0.0
  3
*D24
  1

  0
LINE
  5
D2E
330
CF0
100
AcDbEntity
  8
SUNPOU
100
AcDbLine
 10
301.1692820110923
 20
71.89430434802625
 30
0.0
 11
327.7386550759303
 21
71.89430434802625
 31
0.0
  0
LINE
  5
D2F
330
CF0
100
AcDbEntity
  8
SUNPOU
100
AcDbLine
 10
300.1692820110923
 20
72.39430434802625
 30
0.0
 11
327.7386550759303
 21
72.39430434802625
 31
0.0
  0
LINE
  5
D30
330
CF0
100
AcDbEntity
  8
SUNPOU
100
AcDbLine
 10
325.7386550759303
 20
66.89430434802625
 30
0.0
 11
325.7386550759303
 21
61.89430434802623
 31
0.0
  0
LINE
  5
D31
330
CF0
100
AcDbEntity
  8
SUNPOU
100
AcDbLine
 10
325.7386550759303
 20
77.39430434802625
 30
0.0
 11
325.7386550759303
 21
82.39430434802626
 31
0.0
  0
MTEXT
  5
D32
330
CF0
100
AcDbEntity
  8
SUNPOU
100
AcDbMText
 10
321.2386550759303
 20
64.27879631144015
 30
0.0
 40
5.0
 41
0.0
 71
     5
 72
     1
  1
\A1;5
  7
SUNPOU
 11
0.0000000000000001
 21
1.0
 31
0.0
1001
ACAD
1000
MTEXTBEGIN
1070
    73
1070
     1
1070
    44
1040
1.0
1070
    74
1070
     0
1000
MTEXTEND
1000
MTEXTBEGIN
1070
    73
1070
     1
1070
    44
1040
1.0
1070
    74
1070
     0
1000
MTEXTEND
  0
LINE
  5
D33
330
CF0
100
AcDbEntity
  8
SUNPOU
100
AcDbLine
 10
325.7386550759303
 20
71.89430434802625
 30
0.0
 11
325.7386550759303
 21
72.39430434802625
 31
0.0
  0
INSERT
  5
D34
330
CF0
100
AcDbEntity
  8
SUNPOU
100
AcDbBlockReference
  2
_OPEN30
 10
325.7386550759303
 20
71.89430434802625
 30
0.0
 41
5.0
 42
5.0
 43
5.0
 50
90.0
  0
INSERT
  5
D35
330
CF0
100
AcDbEntity
  8
SUNPOU
100
AcDbBlockReference
  2
_OPEN30
 10
325.7386550759303
 20
72.39430434802625
 30
0.0
 41
5.0
 42
5.0
 43
5.0
 50
270.0
  0
POINT
  5
D36
330
CF0
100
AcDbEntity
  8
DEFPOINTS
 62
     0
100
AcDbPoint
 10
298.1692820110923
 20
71.89430434802625
 30
0.0
  0
POINT
  5
D37
330
CF0
100
AcDbEntity
  8
DEFPOINTS
 62
     0
100
AcDbPoint
 10
297.1692820110923
 20
72.39430434802625
 30
0.0
  0
POINT
  5
D38
330
CF0
100
AcDbEntity
  8
DEFPOINTS
 62
     0
100
AcDbPoint
 10
325.7386550759303
 20
72.39430434802625
 30
0.0
  0
ENDBLK
  5
CFD
330
CF0
100
AcDbEntity
  8
0
100
AcDbBlockEnd
  0
BLOCK
  5
D09
330
CFF
100
AcDbEntity
  8
0
100
AcDbBlockBegin
  2
*D25
 70
     1
 10
0.0
 20
0.0
 30
0.0
  3
*D25
  1

  0
LINE
  5
D25
330
CFF
100
AcDbEntity
  8
SUNPOU
100
AcDbLine
 10
300.1692820110923
 20
72.39430434802625
 30
0.0
 11
327.7386550759303
 21
72.39430434802625
 31
0.0
  0
LINE
  5
D26
330
CFF
100
AcDbEntity
  8
SUNPOU
100
AcDbLine
 10
300.1692820110923
 20
163.794304348026
 30
0.0
 11
327.7386550759303
 21
163.794304348026
 31
0.0
  0
LINE
  5
D27
330
CFF
100
AcDbEntity
  8
SUNPOU
100
AcDbLine
 10
325.7386550759303
 20
77.39430434802625
 30
0.0
 11
325.7386550759303
 21
158.794304348026
 31
0.0
  0
INSERT
  5
D28
330
CFF
100
AcDbEntity
  8
SUNPOU
100
AcDbBlockReference
  2
_OPEN30
 10
325.7386550759303
 20
72.39430434802625
 30
0.0
 41
5.0
 42
5.0
 43
5.0
 50
270.0
  0
INSERT
  5
D29
330
CFF
100
AcDbEntity
  8
SUNPOU
100
AcDbBlockReference
  2
_OPEN30
 10
325.7386550759303
 20
163.794304348026
 30
0.0
 41
5.0
 42
5.0
 43
5.0
 50
90.0
  0
MTEXT
  5
D2A
330
CFF
100
AcDbEntity
  8
SUNPOU
100
AcDbMText
 10
321.2386550759303
 20
118.0943043480263
 30
0.0
 40
5.0
 41
0.0
 71
     5
 72
     1
  1
\A1;DW
  7
SUNPOU
 11
0.0000000000000001
 21
1.0
 31
0.0
1001
ACAD
1000
MTEXTBEGIN
1070
    73
1070
     1
1070
    44
1040
1.0
1070
    74
1070
     0
1000
MTEXTEND
1000
MTEXTBEGIN
1070
    73
1070
     1
1070
    44
1040
1.0
1070
    74
1070
     0
1000
MTEXTEND
  0
POINT
  5
D2B
330
CFF
100
AcDbEntity
  8
DEFPOINTS
 62
     0
100
AcDbPoint
 10
297.1692820110923
 20
72.39430434802625
 30
0.0
  0
POINT
  5
D2C
330
CFF
100
AcDbEntity
  8
DEFPOINTS
 62
     0
100
AcDbPoint
 10
297.1692820110923
 20
163.794304348026
 30
0.0
  0
POINT
  5
D2D
330
CFF
100
AcDbEntity
  8
DEFPOINTS
 62
     0
100
AcDbPoint
 10
325.7386550759303
 20
163.794304348026
 30
0.0
  0
ENDBLK
  5
D0A
330
CFF
100
AcDbEntity
  8
0
100
AcDbBlockEnd
  0
BLOCK
  5
D18
330
D0C
100
AcDbEntity
  8
0
100
AcDbBlockBegin
  2
*D26
 70
     1
 10
0.0
 20
0.0
 30
0.0
  3
*D26
  1

  0
LINE
  5
D1A
330
D0C
100
AcDbEntity
  8
SUNPOU
100
AcDbLine
 10
300.1692820110923
 20
163.794304348026
 30
0.0
 11
327.7386550759303
 21
163.794304348026
 31
0.0
  0
LINE
  5
D1B
330
D0C
100
AcDbEntity
  8
SUNPOU
100
AcDbLine
 10
301.1692820110923
 20
164.294304348026
 30
0.0
 11
327.7386550759303
 21
164.294304348026
 31
0.0
  0
LINE
  5
D1C
330
D0C
100
AcDbEntity
  8
SUNPOU
100
AcDbLine
 10
325.7386550759303
 20
158.794304348026
 30
0.0
 11
325.7386550759303
 21
153.7943043480261
 31
0.0
  0
LINE
  5
D1D
330
D0C
100
AcDbEntity
  8
SUNPOU
100
AcDbLine
 10
325.7386550759303
 20
169.294304348026
 30
0.0
 11
325.7386550759303
 21
174.294304348026
 31
0.0
  0
MTEXT
  5
D1E
330
D0C
100
AcDbEntity
  8
SUNPOU
100
AcDbMText
 10
321.2386550759303
 20
171.5964129076533
 30
0.0
 40
5.0
 41
0.0
 71
     5
 72
     1
  1
\A1;5
  7
SUNPOU
 11
0.0000000000000001
 21
1.0
 31
0.0
1001
ACAD
1000
MTEXTBEGIN
1070
    73
1070
     1
1070
    44
1040
1.0
1070
    74
1070
     0
1000
MTEXTEND
1000
MTEXTBEGIN
1070
    73
1070
     1
1070
    44
1040
1.0
1070
    74
1070
     0
1000
MTEXTEND
  0
LINE
  5
D1F
330
D0C
100
AcDbEntity
  8
SUNPOU
100
AcDbLine
 10
325.7386550759303
 20
163.794304348026
 30
0.0
 11
325.7386550759303
 21
164.294304348026
 31
0.0
  0
INSERT
  5
D20
330
D0C
100
AcDbEntity
  8
SUNPOU
100
AcDbBlockReference
  2
_OPEN30
 10
325.7386550759303
 20
163.794304348026
 30
0.0
 41
5.0
 42
5.0
 43
5.0
 50
90.0
  0
INSERT
  5
D21
330
D0C
100
AcDbEntity
  8
SUNPOU
100
AcDbBlockReference
  2
_OPEN30
 10
325.7386550759303
 20
164.294304348026
 30
0.0
 41
5.0
 42
5.0
 43
5.0
 50
270.0
  0
POINT
  5
D22
330
D0C
100
AcDbEntity
  8
DEFPOINTS
 62
     0
100
AcDbPoint
 10
297.1692820110923
 20
163.794304348026
 30
0.0
  0
POINT
  5
D23
330
D0C
100
AcDbEntity
  8
DEFPOINTS
 62
     0
100
AcDbPoint
 10
298.1692820110923
 20
164.294304348026
 30
0.0
  0
POINT
  5
D24
330
D0C
100
AcDbEntity
  8
DEFPOINTS
 62
     0
100
AcDbPoint
 10
325.7386550759303
 20
164.294304348026
 30
0.0
  0
ENDBLK
  5
D19
330
D0C
100
AcDbEntity
  8
0
100
AcDbBlockEnd
  0
BLOCK
  5
D46
330
D3A
100
AcDbEntity
  8
0
100
AcDbBlockBegin
  2
*D27
 70
     1
 10
0.0
 20
0.0
 30
0.0
  3
*D27
  1

  0
LINE
  5
D3B
330
D3A
100
AcDbEntity
  8
SUNPOU
100
AcDbLine
 10
300.1692820110923
 20
72.39430434802625
 30
0.0
 11
317.5332437847798
 21
72.39430434802625
 31
0.0
  0
LINE
  5
D3C
330
D3A
100
AcDbEntity
  8
SUNPOU
100
AcDbLine
 10
310.1692820110923
 20
81.89430434802625
 30
0.0
 11
317.5332437847798
 21
81.89430434802625
 31
0.0
  0
LINE
  5
D3D
330
D3A
100
AcDbEntity
  8
SUNPOU
100
AcDbLine
 10
315.5332437847798
 20
67.39430434802625
 30
0.0
 11
315.5332437847798
 21
62.39430434802624
 31
0.0
  0
LINE
  5
D3E
330
D3A
100
AcDbEntity
  8
SUNPOU
100
AcDbLine
 10
315.5332437847798
 20
86.89430434802625
 30
0.0
 11
315.5332437847798
 21
91.89430434802623
 31
0.0
  0
LINE
  5
D3F
330
D3A
100
AcDbEntity
  8
SUNPOU
100
AcDbLine
 10
315.5332437847798
 20
72.39430434802625
 30
0.0
 11
315.5332437847798
 21
81.89430434802625
 31
0.0
  0
INSERT
  5
D40
330
D3A
100
AcDbEntity
  8
SUNPOU
100
AcDbBlockReference
  2
_OPEN30
 10
315.5332437847798
 20
72.39430434802625
 30
0.0
 41
5.0
 42
5.0
 43
5.0
 50
90.0
  0
INSERT
  5
D41
330
D3A
100
AcDbEntity
  8
SUNPOU
100
AcDbBlockReference
  2
_OPEN30
 10
315.5332437847798
 20
81.89430434802625
 30
0.0
 41
5.0
 42
5.0
 43
5.0
 50
270.0
  0
MTEXT
  5
D42
330
D3A
100
AcDbEntity
  8
SUNPOU
100
AcDbMText
 10
311.0332437847798
 20
77.14430434802631
 30
0.0
 40
5.0
 41
0.0
 71
     5
 72
     1
  1
\A1;95
  7
SUNPOU
 11
0.0000000000000001
 21
1.0
 31
0.0
1001
ACAD
1000
MTEXTBEGIN
1070
    73
1070
     1
1070
    44
1040
1.0
1070
    74
1070
     0
1000
MTEXTEND
1000
MTEXTBEGIN
1070
    73
1070
     1
1070
    44
1040
1.0
1070
    74
1070
     0
1000
MTEXTEND
  0
POINT
  5
D43
330
D3A
100
AcDbEntity
  8
DEFPOINTS
 62
     0
100
AcDbPoint
 10
297.1692820110923
 20
72.39430434802625
 30
0.0
  0
POINT
  5
D44
330
D3A
100
AcDbEntity
  8
DEFPOINTS
 62
     0
100
AcDbPoint
 10
307.1692820110923
 20
81.89430434802625
 30
0.0
  0
POINT
  5
D45
330
D3A
100
AcDbEntity
  8
DEFPOINTS
 62
     0
100
AcDbPoint
 10
315.5332437847798
 20
81.89430434802625
 30
0.0
  0
ENDBLK
  5
D47
330
D3A
100
AcDbEntity
  8
0
100
AcDbBlockEnd
  0
ENDSEC
  0
SECTION
  2
ENTITIES
  0
ARC
  5
243
330
A
100
AcDbEntity
  8
06
100
AcDbCircle
 10
178.2194357366773
 20
332.4872912459978
 30
0.0
 40
0.5
100
AcDbArc
 50
180.0000000000011
 51
269.9999999999999
  0
ARC
  5
249
330
A
100
AcDbEntity
  8
06
100
AcDbCircle
 10
181.219435736677
 20
333.9872912459978
 30
0.0
 40
0.5
100
AcDbArc
 50
269.9999999999999
 51
0.0000000000010392
  0
ARC
  5
24B
330
A
100
AcDbEntity
  8
06
100
AcDbCircle
 10
181.219435736677
 20
337.4872912459975
 30
0.0
 40
0.5
100
AcDbArc
 50
0.0000000000033955
 51
90.0
  0
ARC
  5
250
330
A
100
AcDbEntity
  8
06
100
AcDbCircle
 10
198.2194357366768
 20
332.4872912459978
 30
0.0
 40
0.5
100
AcDbArc
 50
270.0
 51
359.9999999999988
  0
ARC
  5
256
330
A
100
AcDbEntity
  8
06
100
AcDbCircle
 10
195.219435736677
 20
333.9872912459978
 30
0.0
 40
0.5
100
AcDbArc
 50
179.9999999999988
 51
270.0
  0
ARC
  5
258
330
A
100
AcDbEntity
  8
06
100
AcDbCircle
 10
195.2194357366771
 20
337.4872912459975
 30
0.0
 40
0.5
100
AcDbArc
 50
90.0
 51
179.9999999999965
  0
ARC
  5
26D
330
A
100
AcDbEntity
  8
06
100
AcDbCircle
 10
319.0144230769234
 20
430.1525420824552
 30
0.0
 40
0.5
100
AcDbArc
 50
180.0000000000011
 51
269.9999999999999
  0
ARC
  5
273
330
A
100
AcDbEntity
  8
06
100
AcDbCircle
 10
322.0144230769233
 20
431.6525420824553
 30
0.0
 40
0.5
100
AcDbArc
 50
269.9999999999999
 51
0.0000000000010392
  0
ARC
  5
275
330
A
100
AcDbEntity
  8
06
100
AcDbCircle
 10
322.0144230769231
 20
435.1525420824549
 30
0.0
 40
0.5
100
AcDbArc
 50
0.0000000000033955
 51
90.0
  0
ARC
  5
27A
330
A
100
AcDbEntity
  8
06
100
AcDbCircle
 10
339.0144230769227
 20
430.1525420824552
 30
0.0
 40
0.5
100
AcDbArc
 50
270.0
 51
359.9999999999988
  0
ARC
  5
280
330
A
100
AcDbEntity
  8
06
100
AcDbCircle
 10
336.0144230769228
 20
431.6525420824553
 30
0.0
 40
0.5
100
AcDbArc
 50
179.9999999999988
 51
270.0
  0
ARC
  5
282
330
A
100
AcDbEntity
  8
06
100
AcDbCircle
 10
336.0144230769231
 20
435.1525420824549
 30
0.0
 40
0.5
100
AcDbArc
 50
90.0
 51
179.9999999999965
  0
ARC
  5
296
330
A
100
AcDbEntity
  8
06
100
AcDbCircle
 10
178.2194357366775
 20
550.0847632668203
 30
0.0
 40
0.5
100
AcDbArc
 50
89.99999999999998
 51
179.9999999999988
  0
ARC
  5
29C
330
A
100
AcDbEntity
  8
06
100
AcDbCircle
 10
181.2194357366775
 20
548.5847632668203
 30
0.0
 40
0.5
100
AcDbArc
 50
359.9999999999988
 51
90.0
  0
ARC
  5
29E
330
A
100
AcDbEntity
  8
06
100
AcDbCircle
 10
181.2194357366774
 20
545.0847632668207
 30
0.0
 40
0.5
100
AcDbArc
 50
269.9999999999999
 51
359.9999999999965
  0
ARC
  5
2A3
330
A
100
AcDbEntity
  8
06
100
AcDbCircle
 10
198.2194357366772
 20
550.0847632668203
 30
0.0
 40
0.5
100
AcDbArc
 50
0.0000000000010546
 51
89.99999999999992
  0
ARC
  5
2A9
330
A
100
AcDbEntity
  8
06
100
AcDbCircle
 10
195.2194357366773
 20
548.5847632668203
 30
0.0
 40
0.5
100
AcDbArc
 50
89.99999999999992
 51
180.0000000000009
  0
ARC
  5
2AB
330
A
100
AcDbEntity
  8
06
100
AcDbCircle
 10
195.2194357366774
 20
545.0847632668207
 30
0.0
 40
0.5
100
AcDbArc
 50
180.0000000000032
 51
269.9999999999999
  0
ARC
  5
2C0
330
A
100
AcDbEntity
  8
06
100
AcDbCircle
 10
319.0144230769234
 20
427.1525420824552
 30
0.0
 40
0.5
100
AcDbArc
 50
89.99999999999998
 51
179.9999999999988
  0
ARC
  5
2C6
330
A
100
AcDbEntity
  8
06
100
AcDbCircle
 10
322.0144230769233
 20
425.6525420824551
 30
0.0
 40
0.5
100
AcDbArc
 50
359.9999999999988
 51
90.0
  0
ARC
  5
2C8
330
A
100
AcDbEntity
  8
06
100
AcDbCircle
 10
322.0144230769231
 20
422.1525420824555
 30
0.0
 40
0.5
100
AcDbArc
 50
269.9999999999999
 51
359.9999999999965
  0
ARC
  5
2CD
330
A
100
AcDbEntity
  8
06
100
AcDbCircle
 10
339.0144230769227
 20
427.1525420824552
 30
0.0
 40
0.5
100
AcDbArc
 50
0.0000000000010546
 51
89.99999999999992
  0
ARC
  5
2D3
330
A
100
AcDbEntity
  8
06
100
AcDbCircle
 10
336.0144230769228
 20
425.6525420824551
 30
0.0
 40
0.5
100
AcDbArc
 50
89.99999999999992
 51
180.0000000000009
  0
ARC
  5
2D5
330
A
100
AcDbEntity
  8
06
100
AcDbCircle
 10
336.0144230769231
 20
422.1525420824555
 30
0.0
 40
0.5
100
AcDbArc
 50
180.0000000000032
 51
269.9999999999999
  0
CIRCLE
  5
392
330
A
100
AcDbEntity
  8
03
100
AcDbCircle
 10
294.7692820110924
 20
157.094304348026
 30
0.0
 40
1.5
  0
ARC
  5
39B
330
A
100
AcDbEntity
  8
06
100
AcDbCircle
 10
325.014423076923
 20
398.3241149577091
 30
0.0
 40
3.0
100
AcDbArc
 50
89.99999999999833
 51
109.4712206344889
  0
ARC
  5
39C
330
A
100
AcDbEntity
  8
06
100
AcDbCircle
 10
333.0144230769231
 20
398.3241149577091
 30
0.0
 40
3.0
100
AcDbArc
 50
70.52877936550752
 51
89.99999999999833
  0
ARC
  5
39D
330
A
100
AcDbEntity
  8
06
100
AcDbCircle
 10
325.014423076923
 20
458.9809692072015
 30
0.0
 40
3.0
100
AcDbArc
 50
250.5287793655109
 51
270.0000000000016
  0
ARC
  5
39E
330
A
100
AcDbEntity
  8
06
100
AcDbCircle
 10
333.0144230769231
 20
458.9809692072015
 30
0.0
 40
3.0
100
AcDbArc
 50
270.0000000000016
 51
289.4712206344923
  0
ARC
  5
3C7
330
A
100
AcDbEntity
  8
06
100
AcDbCircle
 10
184.219435736677
 20
361.315718370744
 30
0.0
 40
3.0
100
AcDbArc
 50
250.5287793655092
 51
269.999999999998
  0
ARC
  5
3C8
330
A
100
AcDbEntity
  8
06
100
AcDbCircle
 10
192.2194357366771
 20
361.315718370744
 30
0.0
 40
3.0
100
AcDbArc
 50
269.9999999999976
 51
289.4712206344903
  0
ARC
  5
3F1
330
A
100
AcDbEntity
  8
06
100
AcDbCircle
 10
184.2194357366773
 20
521.2563361420742
 30
0.0
 40
3.0
100
AcDbArc
 50
89.99999999999934
 51
109.4712206344905
  0
ARC
  5
3F2
330
A
100
AcDbEntity
  8
06
100
AcDbCircle
 10
192.2194357366773
 20
521.2563361420742
 30
0.0
 40
3.0
100
AcDbArc
 50
70.52877936550955
 51
89.99999999999927
  0
ARC
  5
425
330
A
100
AcDbEntity
  8
06
100
AcDbCircle
 10
165.937612315319
 20
254.4992252937459
 30
0.0
 40
7.598478445209736
100
AcDbArc
 50
160.628925355313
 51
191.2293176877163
  0
ARC
  5
426
330
A
100
AcDbEntity
  8
06
100
AcDbCircle
 10
165.8403498229579
 20
243.5195259368883
 30
0.0
 40
7.500000000000131
100
AcDbArc
 50
168.74445401872
 51
199.4712206344905
  0
ARC
  5
432
330
A
100
AcDbEntity
  8
03
100
AcDbCircle
 10
358.3452435495536
 20
278.0195259368883
 30
0.0
 40
2.0
100
AcDbArc
 50
90.0
 51
180.0
  0
ARC
  5
433
330
A
100
AcDbEntity
  8
03
100
AcDbCircle
 10
358.3452435495536
 20
220.0195259368884
 30
0.0
 40
2.0
100
AcDbArc
 50
180.0
 51
269.9999999999999
  0
ARC
  5
434
330
A
100
AcDbEntity
  8
03
100
AcDbCircle
 10
356.3452435495536
 20
236.019525936888
 30
0.0
 40
2.0
100
AcDbArc
 50
180.0
 51
269.9999999999999
  0
ARC
  5
435
330
A
100
AcDbEntity
  8
03
100
AcDbCircle
 10
356.3452435495536
 20
262.0195259368883
 30
0.0
 40
2.0
100
AcDbArc
 50
90.0
 51
180.0
  0
ARC
  5
44E
330
A
100
AcDbEntity
  8
04
100
AcDbCircle
 10
158.0192820110924
 20
235.2695259368882
 30
0.0
 40
0.75
100
AcDbArc
 50
269.9999999999999
 51
0.0000000000002398
  0
ARC
  5
451
330
A
100
AcDbEntity
  8
04
100
AcDbCircle
 10
158.0192820110924
 20
262.7695259368882
 30
0.0
 40
0.75
100
AcDbArc
 50
359.9999999999973
 51
90.0
  0
ARC
  5
475
330
A
100
AcDbEntity
  8
06
100
AcDbCircle
 10
259.2094172636866
 20
254.4880290528447
 30
0.0
 40
7.571558178868771
100
AcDbArc
 50
348.8166125263562
 51
19.53258631976475
  0
ARC
  5
476
330
A
100
AcDbEntity
  8
06
100
AcDbCircle
 10
259.5385801471683
 20
243.5005368398394
 30
0.0
 40
7.244727860584838
100
AcDbArc
 50
339.9733349482296
 51
11.81099039856047
  0
ARC
  5
487
330
A
100
AcDbEntity
  8
04
100
AcDbCircle
 10
267.0952435495536
 20
235.2695259368882
 30
0.0
 40
0.75
100
AcDbArc
 50
179.9999999999998
 51
270.0
  0
ARC
  5
48A
330
A
100
AcDbEntity
  8
04
100
AcDbCircle
 10
267.0952435495536
 20
262.7695259368882
 30
0.0
 40
0.75
100
AcDbArc
 50
90.0
 51
180.0000000000025
  0
CIRCLE
  5
4B0
330
A
100
AcDbEntity
  8
KAKURE
100
AcDbCircle
 10
188.219435736677
 20
428.4872912459978
 30
0.0
 40
6.25
  0
TEXT
  5
4C0
330
A
100
AcDbEntity
  8
MOJI
100
AcDbText
 10
380.2187444490056
 20
232.1009775427675
 30
0.0
 40
6.0
  1
フロアヒンジ
 50
90.0
 41
0.8
  7
0_8
 11
380.2187444490056
 21
232.1009775427675
 31
0.0
100
AcDbText
 73
     1
  0
TEXT
  5
4C1
330
A
100
AcDbEntity
  8
MOJI
100
AcDbText
 10
62.18204965532895
 20
229.3108856540011
 30
0.0
 40
6.0
  1
トップピボット
 50
90.0
 41
0.8
  7
0_8
 11
62.18204965532895
 21
229.3108856540011
 31
0.0
100
AcDbText
 73
     1
  0
TEXT
  5
563
330
A
100
AcDbEntity
  8
MOJI
100
AcDbText
 10
181.3500814901138
 20
85.44326628568359
 30
0.0
 40
6.0
  1
強化ガラス 8mm,10mm
 50
90.0
 41
0.8
  7
0_8
 11
181.3500814901138
 21
85.44326628568359
 31
0.0
100
AcDbText
 73
     1
  0
LINE
  5
6BF
330
A
100
AcDbEntity
  8
KAKURE
100
AcDbLine
 10
63.04828928050273
 20
261.9195259368883
 30
0.0
 11
70.7692820110924
 21
261.9195259368883
 31
0.0
  0
LINE
  5
6C0
330
A
100
AcDbEntity
  8
KAKURE
100
AcDbLine
 10
30.7692820110924
 20
261.9195259368883
 30
0.0
 11
53.09028189944092
 21
261.9195259368883
 31
0.0
  0
LINE
  5
6C1
330
A
100
AcDbEntity
  8
KAKURE
100
AcDbLine
 10
53.09028189944092
 20
235.9195259368882
 30
0.0
 11
30.7692820110924
 21
235.9195259368882
 31
0.0
  0
LINE
  5
6C2
330
A
100
AcDbEntity
  8
KAKURE
100
AcDbLine
 10
70.7692820110924
 20
235.9195259368882
 30
0.0
 11
63.04828928050273
 21
235.9195259368882
 31
0.0
  0
LINE
  5
6C3
330
A
100
AcDbEntity
  8
KAKURE
100
AcDbLine
 10
30.7692820110924
 20
235.9195259368882
 30
0.0
 11
30.7692820110924
 21
261.9195259368883
 31
0.0
  0
LINE
  5
6C4
330
A
100
AcDbEntity
  8
KAKURE
100
AcDbLine
 10
396.5999999999998
 20
169.0195259368881
 30
0.0
 11
362.8452435495536
 21
169.0195259368881
 31
0.0
  0
LINE
  5
6C5
330
A
100
AcDbEntity
  8
KAKURE
100
AcDbLine
 10
362.8452435495536
 20
329.0195259368883
 30
0.0
 11
396.6
 21
329.0195259368883
 31
0.0
  0
LINE
  5
6C6
330
A
100
AcDbEntity
  8
KAKURE
100
AcDbLine
 10
362.8452435495536
 20
339.0195259368883
 30
0.0
 11
362.8452435495536
 21
165.2046845326015
 31
0.0
  0
LINE
  5
6C7
330
A
100
AcDbEntity
  8
KAKURE
100
AcDbLine
 10
361.3452435495537
 20
339.0195259368883
 30
0.0
 11
362.8452435495536
 21
339.0195259368883
 31
0.0
  0
LINE
  5
6C8
330
A
100
AcDbEntity
  8
KAKURE
100
AcDbLine
 10
70.7692820110924
 20
265.0195259368882
 30
0.0
 11
70.7692820110924
 21
235.019525936888
 31
0.0
  0
LINE
  5
6C9
330
A
100
AcDbEntity
  8
KAKURE
100
AcDbLine
 10
70.7692820110924
 20
213.9725002501091
 30
0.0
 11
30.7692820110924
 21
213.9725002501091
 31
0.0
  0
LINE
  5
6CA
330
A
100
AcDbEntity
  8
KAKURE
100
AcDbLine
 10
30.7692820110924
 20
283.9725002501093
 30
0.0
 11
70.7692820110924
 21
283.9725002501091
 31
0.0
  0
LINE
  5
6CB
330
A
100
AcDbEntity
  8
CHUSIN
100
AcDbLine
 10
169.8429927530095
 20
90.06293450912052
 30
0.0
 11
83.76928201109242
 21
163.794304348026
 31
0.0
  0
LINE
  5
6CC
330
A
100
AcDbEntity
  8
CHUSIN
100
AcDbLine
 10
190.4692820110923
 20
72.39430434802625
 30
0.0
 11
182.9172593796163
 21
78.86342214106196
 31
0.0
  0
LINE
  5
6CD
330
A
100
AcDbEntity
  8
SOUZOU
100
AcDbLine
 10
236.219435736677
 20
556.0847632668203
 30
0.0
 11
236.219435736677
 21
571.1081560481487
 31
0.0
  0
LINE
  5
6CE
330
A
100
AcDbEntity
  8
SOUZOU
100
AcDbLine
 10
140.2194357366767
 20
556.0847632668203
 30
0.0
 11
236.219435736677
 21
556.0847632668203
 31
0.0
  0
LINE
  5
6CF
330
A
100
AcDbEntity
  8
SOUZOU
100
AcDbLine
 10
140.2194357366771
 20
571.1081560481487
 30
0.0
 11
140.2194357366767
 21
556.0847632668203
 31
0.0
  0
LINE
  5
6D0
330
A
100
AcDbEntity
  8
SOUZOU
100
AcDbLine
 10
236.219435736677
 20
326.4872912459978
 30
0.0
 11
236.219435736677
 21
319.0847632668202
 31
0.0
  0
LINE
  5
6D1
330
A
100
AcDbEntity
  8
SOUZOU
100
AcDbLine
 10
140.2194357366771
 20
326.4872912459978
 30
0.0
 11
236.219435736677
 21
326.4872912459978
 31
0.0
  0
LINE
  5
6D2
330
A
100
AcDbEntity
  8
SOUZOU
100
AcDbLine
 10
140.2194357366771
 20
319.0847632668202
 30
0.0
 11
140.2194357366771
 21
326.4872912459978
 31
0.0
  0
LINE
  5
6D3
330
A
100
AcDbEntity
  8
CHUSIN
100
AcDbLine
 10
190.4692820110923
 20
72.39430434802625
 30
0.0
 11
297.1692820110923
 21
163.794304348026
 31
0.0
  0
LINE
  5
6D4
330
A
100
AcDbEntity
  8
SOUZOU
100
AcDbLine
 10
138.2194357366768
 20
328.4872912459978
 30
0.0
 11
238.219435736677
 21
328.4872912459978
 31
0.0
  0
LINE
  5
6D5
330
A
100
AcDbEntity
  8
SOUZOU
100
AcDbLine
 10
238.219435736677
 20
319.0847632668202
 30
0.0
 11
238.219435736677
 21
328.4872912459978
 31
0.0
  0
LINE
  5
6D6
330
A
100
AcDbEntity
  8
SOUZOU
100
AcDbLine
 10
138.2194357366768
 20
319.0847632668202
 30
0.0
 11
138.2194357366768
 21
328.4872912459978
 31
0.0
  0
LINE
  5
6D7
330
A
100
AcDbEntity
  8
SOUZOU
100
AcDbLine
 10
238.219435736677
 20
554.0847632668203
 30
0.0
 11
138.2194357366768
 21
554.0847632668203
 31
0.0
  0
LINE
  5
6D8
330
A
100
AcDbEntity
  8
SOUZOU
100
AcDbLine
 10
238.219435736677
 20
571.1081560481487
 30
0.0
 11
238.219435736677
 21
554.0847632668203
 31
0.0
  0
LINE
  5
6D9
330
A
100
AcDbEntity
  8
SOUZOU
100
AcDbLine
 10
138.2194357366768
 20
554.0847632668203
 30
0.0
 11
138.2194357366768
 21
571.1081560481487
 31
0.0
  0
LINE
  5
6E5
330
A
100
AcDbEntity
  8
03
100
AcDbLine
 10
219.3684894926274
 20
214.0195259368883
 30
0.0
 11
361.3452435495537
 21
214.019525936888
 31
0.0
  0
LINE
  5
6E6
330
A
100
AcDbEntity
  8
03
100
AcDbLine
 10
219.3684894926274
 20
284.0195259368882
 30
0.0
 11
361.3452435495537
 21
284.0195259368882
 31
0.0
  0
LINE
  5
6E7
330
A
100
AcDbEntity
  8
03
100
AcDbLine
 10
351.3452435495536
 20
233.019525936888
 30
0.0
 11
351.3452435495536
 21
265.0195259368882
 31
0.0
  0
LINE
  5
6E8
330
A
100
AcDbEntity
  8
03
100
AcDbLine
 10
219.3684894926274
 20
265.0195259368882
 30
0.0
 11
351.3452435495536
 21
265.0195259368882
 31
0.0
  0
LINE
  5
6E9
330
A
100
AcDbEntity
  8
04
100
AcDbLine
 10
267.0952435495536
 20
263.5195259368882
 30
0.0
 11
351.3452435495536
 21
263.5195259368882
 31
0.0
  0
LINE
  5
6EA
330
A
100
AcDbEntity
  8
03
100
AcDbLine
 10
219.3684894926274
 20
233.0195259368883
 30
0.0
 11
351.3452435495536
 21
233.019525936888
 31
0.0
  0
LINE
  5
6EB
330
A
100
AcDbEntity
  8
04
100
AcDbLine
 10
267.0952435495536
 20
234.519525936888
 30
0.0
 11
351.3452435495536
 21
234.519525936888
 31
0.0
  0
LINE
  5
6FA
330
A
100
AcDbEntity
  8
04
100
AcDbLine
 10
266.3452435495536
 20
262.7695259368882
 30
0.0
 11
266.3452435495539
 21
257.0195259368883
 31
0.0
  0
LINE
  5
6FC
330
A
100
AcDbEntity
  8
04
100
AcDbLine
 10
266.3452435495538
 20
241.0195259368883
 30
0.0
 11
266.3452435495536
 21
235.2695259368883
 31
0.0
  0
LINE
  5
71A
330
A
100
AcDbEntity
  8
03
100
AcDbLine
 10
73.7692820110924
 20
233.0195259368883
 30
0.0
 11
73.7692820110924
 21
265.0195259368882
 31
0.0
  0
LINE
  5
71B
330
A
100
AcDbEntity
  8
03
100
AcDbLine
 10
214.3684894926274
 20
265.0195259368882
 30
0.0
 11
73.7692820110924
 21
265.0195259368882
 31
0.0
  0
LINE
  5
71C
330
A
100
AcDbEntity
  8
04
100
AcDbLine
 10
158.0192820110924
 20
263.5195259368882
 30
0.0
 11
73.7692820110924
 21
263.5195259368882
 31
0.0
  0
LINE
  5
71D
330
A
100
AcDbEntity
  8
03
100
AcDbLine
 10
214.3684894926274
 20
233.0195259368883
 30
0.0
 11
73.7692820110924
 21
233.0195259368883
 31
0.0
  0
LINE
  5
71E
330
A
100
AcDbEntity
  8
04
100
AcDbLine
 10
158.0192820110924
 20
234.519525936888
 30
0.0
 11
73.7692820110924
 21
234.5195259368883
 31
0.0
  0
LINE
  5
72C
330
A
100
AcDbEntity
  8
03
100
AcDbLine
 10
54.46928201109241
 20
164.294304348026
 30
0.0
 11
54.46928201109241
 21
71.89430434802625
 31
0.0
  0
LINE
  5
72D
330
A
100
AcDbEntity
  8
03
100
AcDbLine
 10
71.7692820110924
 20
242.7695259368884
 30
0.0
 11
73.76928201109243
 21
242.769525936888
 31
0.0
  0
LINE
  5
72E
330
A
100
AcDbEntity
  8
03
100
AcDbLine
 10
73.76928201109243
 20
255.269525936888
 30
0.0
 11
71.7692820110924
 21
255.269525936888
 31
0.0
  0
LINE
  5
730
330
A
100
AcDbEntity
  8
03
100
AcDbLine
 10
278.219435736677
 20
328.4872912459978
 30
0.0
 11
98.21943573667708
 21
328.4872912459978
 31
0.0
  0
LINE
  5
731
330
A
100
AcDbEntity
  8
03
100
AcDbLine
 10
278.219435736677
 20
463.4872912459978
 30
0.0
 11
278.219435736677
 21
328.4872912459978
 31
0.0
  0
LINE
  5
732
330
A
100
AcDbEntity
  8
SAISEN
100
AcDbLine
 10
88.21943573667711
 20
463.4872912459978
 30
0.0
 11
288.2194357366771
 21
463.4872912459978
 31
0.0
  0
LINE
  5
733
330
A
100
AcDbEntity
  8
03
100
AcDbLine
 10
98.21943573667708
 20
328.4872912459978
 30
0.0
 11
98.21943573667713
 21
463.4872912459978
 31
0.0
  0
LINE
  5
734
330
A
100
AcDbEntity
  8
03
100
AcDbLine
 10
356.3452435495536
 20
278.0195259368883
 30
0.0
 11
356.3452435495536
 21
220.0195259368884
 31
0.0
  0
LINE
  5
735
330
A
100
AcDbEntity
  8
03
100
AcDbLine
 10
51.46928201109242
 20
167.2943043480261
 30
0.0
 11
51.46928201109242
 21
68.89430434802625
 31
0.0
  0
LINE
  5
736
330
A
100
AcDbEntity
  8
03
100
AcDbLine
 10
76.46928201109242
 20
164.294304348026
 30
0.0
 11
76.46928201109242
 21
71.89430434802625
 31
0.0
  0
LINE
  5
737
330
A
100
AcDbEntity
  8
03
100
AcDbLine
 10
298.1692820110923
 20
59.09430434802622
 30
0.0
 11
298.1692820110923
 21
200.7287876962286
 31
0.0
  0
LINE
  5
738
330
A
100
AcDbEntity
  8
03
100
AcDbLine
 10
298.1692820110923
 20
68.89430434802625
 30
0.0
 11
51.46928201109242
 21
68.89430434802625
 31
0.0
  0
LINE
  5
739
330
A
100
AcDbEntity
  8
03
100
AcDbLine
 10
51.46928201109242
 20
71.89430434802625
 30
0.0
 11
298.1692820110923
 21
71.89430434802625
 31
0.0
  0
LINE
  5
73A
330
A
100
AcDbEntity
  8
03
100
AcDbLine
 10
298.1692820110923
 20
164.294304348026
 30
0.0
 11
51.46928201109242
 21
164.294304348026
 31
0.0
  0
LINE
  5
73B
330
A
100
AcDbEntity
  8
03
100
AcDbLine
 10
51.46928201109242
 20
167.2943043480261
 30
0.0
 11
298.1692820110923
 21
167.2943043480261
 31
0.0
  0
LINE
  5
73C
330
A
100
AcDbEntity
  8
03
100
AcDbLine
 10
83.46928201109241
 20
71.89430434802625
 30
0.0
 11
83.46928201109241
 21
164.294304348026
 31
0.0
  0
LINE
  5
73D
330
A
100
AcDbEntity
  8
03
100
AcDbLine
 10
70.7692820110924
 20
213.9725002501091
 30
0.0
 11
214.3684894926274
 21
213.9725002501091
 31
0.0
  0
LINE
  5
73E
330
A
100
AcDbEntity
  8
03
100
AcDbLine
 10
70.7692820110924
 20
283.9725002501091
 30
0.0
 11
214.3684894926274
 21
283.9725002501091
 31
0.0
  0
LINE
  5
740
330
A
100
AcDbEntity
  8
04
100
AcDbLine
 10
158.7692820110924
 20
262.7695259368882
 30
0.0
 11
158.769282011092
 21
257.0195259368883
 31
0.0
  0
LINE
  5
742
330
A
100
AcDbEntity
  8
04
100
AcDbLine
 10
158.7692820110923
 20
241.0195259368883
 30
0.0
 11
158.7692820110924
 21
235.2695259368883
 31
0.0
  0
LINE
  5
760
330
A
100
AcDbEntity
  8
03
100
AcDbLine
 10
71.7692820110924
 20
233.9195259368882
 30
0.0
 11
70.7692820110924
 21
233.9195259368882
 31
0.0
  0
LINE
  5
761
330
A
100
AcDbEntity
  8
03
100
AcDbLine
 10
71.7692820110924
 20
263.9195259368883
 30
0.0
 11
71.7692820110924
 21
233.9195259368882
 31
0.0
  0
LINE
  5
762
330
A
100
AcDbEntity
  8
03
100
AcDbLine
 10
70.7692820110924
 20
263.9195259368883
 30
0.0
 11
71.7692820110924
 21
263.9195259368877
 31
0.0
  0
LINE
  5
763
330
A
100
AcDbEntity
  8
03
100
AcDbLine
 10
70.7692820110924
 20
322.8459891784483
 30
0.0
 11
70.7692820110924
 21
201.3147067682593
 31
0.0
  0
LINE
  5
764
330
A
100
AcDbEntity
  8
03
100
AcDbLine
 10
361.3452435495537
 20
355.7895585567426
 30
0.0
 11
361.3452435495537
 21
165.2046845326015
 31
0.0
  0
LINE
  5
765
330
A
100
AcDbEntity
  8
03
100
AcDbLine
 10
361.3452435495537
 20
218.0195259368883
 30
0.0
 11
358.3452435495536
 21
218.0195259368884
 31
0.0
  0
LINE
  5
766
330
A
100
AcDbEntity
  8
03
100
AcDbLine
 10
358.3452435495536
 20
280.0195259368883
 30
0.0
 11
361.3452435495537
 21
280.0195259368883
 31
0.0
  0
LINE
  5
767
330
A
100
AcDbEntity
  8
03
100
AcDbLine
 10
354.3452435495536
 20
236.019525936888
 30
0.0
 11
354.3452435495536
 21
262.0195259368883
 31
0.0
  0
LINE
  5
768
330
A
100
AcDbEntity
  8
03
100
AcDbLine
 10
354.3452435495536
 20
244.0195259368882
 30
0.0
 11
351.3452435495536
 21
244.0195259368877
 31
0.0
  0
LINE
  5
769
330
A
100
AcDbEntity
  8
03
100
AcDbLine
 10
351.3452435495538
 20
254.0195259368877
 30
0.0
 11
354.3452435495536
 21
254.0195259368883
 31
0.0
  0
LINE
  5
76A
330
A
100
AcDbEntity
  8
SAISEN
100
AcDbLine
 10
88.21943573667711
 20
468.4872912459978
 30
0.0
 11
288.2194357366771
 21
468.4872912459978
 31
0.0
  0
LINE
  5
76B
330
A
100
AcDbEntity
  8
SAISEN
100
AcDbLine
 10
219.3684894926274
 20
292.5597117326164
 30
0.0
 11
219.3684894926274
 21
208.2214214794898
 31
0.0
  0
LINE
  5
76C
330
A
100
AcDbEntity
  8
SAISEN
100
AcDbLine
 10
214.3684894926274
 20
208.2214214794898
 30
0.0
 11
214.3684894926274
 21
292.5597117326164
 31
0.0
  0
LINE
  5
76D
330
A
100
AcDbEntity
  8
03
100
AcDbLine
 10
202.2194357366771
 20
468.4872912459978
 30
0.0
 11
202.2194357366771
 21
524.0847632668203
 31
0.0
  0
LINE
  5
76E
330
A
100
AcDbEntity
  8
03
100
AcDbLine
 10
202.2194357366771
 20
358.4872912459978
 30
0.0
 11
202.2194357366771
 21
463.4872912459978
 31
0.0
  0
LINE
  5
76F
330
A
100
AcDbEntity
  8
03
100
AcDbLine
 10
174.2194357366773
 20
463.4872912459978
 30
0.0
 11
174.2194357366773
 21
358.4872912459978
 31
0.0
  0
LINE
  5
770
330
A
100
AcDbEntity
  8
03
100
AcDbLine
 10
174.2194357366773
 20
524.0847632668203
 30
0.0
 11
174.2194357366773
 21
468.4872912459978
 31
0.0
  0
LINE
  5
771
330
A
100
AcDbEntity
  8
03
100
AcDbLine
 10
203.7428323609145
 20
524.5613666425831
 30
0.0
 11
202.7194357366774
 21
525.5847632668205
 31
0.0
  0
LINE
  5
772
330
A
100
AcDbEntity
  8
03
100
AcDbLine
 10
203.7050651316208
 20
548.5703926617638
 30
0.0
 11
202.7194357366774
 21
547.5847632668203
 31
0.0
  0
LINE
  5
773
330
A
100
AcDbEntity
  8
03
100
AcDbLine
 10
172.7054809197636
 20
524.5708084499067
 30
0.0
 11
173.7194357366774
 21
525.5847632668205
 31
0.0
  0
LINE
  5
774
330
A
100
AcDbEntity
  8
03
100
AcDbLine
 10
172.6582718831463
 20
548.6459271203512
 30
0.0
 11
173.7194357366773
 21
547.5847632668203
 31
0.0
  0
LINE
  5
78C
330
A
100
AcDbEntity
  8
04
100
AcDbLine
 10
193.2194357366773
 20
524.0847632668203
 30
0.0
 11
204.2194357366773
 21
524.0847632668203
 31
0.0
  0
LINE
  5
78D
330
A
100
AcDbEntity
  8
04
100
AcDbLine
 10
202.7194357366773
 20
525.5847632668205
 30
0.0
 11
193.2194357366773
 21
525.5847632668205
 31
0.0
  0
LINE
  5
78E
330
A
100
AcDbEntity
  8
04
100
AcDbLine
 10
202.7194357366773
 20
547.5847632668203
 30
0.0
 11
202.7194357366773
 21
525.5847632668205
 31
0.0
  0
LINE
  5
78F
330
A
100
AcDbEntity
  8
04
100
AcDbLine
 10
195.2194357366773
 20
547.5847632668203
 30
0.0
 11
202.7194357366773
 21
547.5847632668203
 31
0.0
  0
LINE
  5
790
330
A
100
AcDbEntity
  8
04
100
AcDbLine
 10
204.2194357366773
 20
549.0847632668203
 30
0.0
 11
195.2194357366773
 21
549.0847632668203
 31
0.0
  0
LINE
  5
791
330
A
100
AcDbEntity
  8
04
100
AcDbLine
 10
204.2194357366773
 20
524.0847632668203
 30
0.0
 11
204.2194357366773
 21
549.0847632668203
 31
0.0
  0
LINE
  5
792
330
A
100
AcDbEntity
  8
04
100
AcDbLine
 10
183.2194357366773
 20
524.0847632668203
 30
0.0
 11
172.2194357366773
 21
524.0847632668203
 31
0.0
  0
LINE
  5
793
330
A
100
AcDbEntity
  8
04
100
AcDbLine
 10
173.7194357366773
 20
525.5847632668205
 30
0.0
 11
183.2194357366773
 21
525.5847632668205
 31
0.0
  0
LINE
  5
794
330
A
100
AcDbEntity
  8
04
100
AcDbLine
 10
173.7194357366773
 20
547.5847632668203
 30
0.0
 11
173.7194357366773
 21
525.5847632668205
 31
0.0
  0
LINE
  5
795
330
A
100
AcDbEntity
  8
04
100
AcDbLine
 10
181.2194357366773
 20
547.5847632668203
 30
0.0
 11
173.7194357366773
 21
547.5847632668203
 31
0.0
  0
LINE
  5
796
330
A
100
AcDbEntity
  8
04
100
AcDbLine
 10
172.2194357366773
 20
549.0847632668203
 30
0.0
 11
181.2194357366773
 21
549.0847632668203
 31
0.0
  0
LINE
  5
797
330
A
100
AcDbEntity
  8
04
100
AcDbLine
 10
172.2194357366773
 20
524.0847632668203
 30
0.0
 11
172.2194357366773
 21
549.0847632668203
 31
0.0
  0
LINE
  5
798
330
A
100
AcDbEntity
  8
03
100
AcDbLine
 10
203.7428323609144
 20
358.0106878702348
 30
0.0
 11
202.7194357366771
 21
356.9872912459978
 31
0.0
  0
LINE
  5
799
330
A
100
AcDbEntity
  8
03
100
AcDbLine
 10
203.7050651316206
 20
334.0016618510542
 30
0.0
 11
202.7194357366771
 21
334.9872912459979
 31
0.0
  0
LINE
  5
79A
330
A
100
AcDbEntity
  8
03
100
AcDbLine
 10
172.7054809197634
 20
358.0012460629116
 30
0.0
 11
173.719435736677
 21
356.9872912459978
 31
0.0
  0
LINE
  5
79B
330
A
100
AcDbEntity
  8
03
100
AcDbLine
 10
172.658271883146
 20
333.9261273924668
 30
0.0
 11
173.719435736677
 21
334.9872912459979
 31
0.0
  0
LINE
  5
7B3
330
A
100
AcDbEntity
  8
04
100
AcDbLine
 10
193.219435736677
 20
358.4872912459978
 30
0.0
 11
204.2194357366772
 21
358.4872912459978
 31
0.0
  0
LINE
  5
7B4
330
A
100
AcDbEntity
  8
04
100
AcDbLine
 10
202.7194357366771
 20
356.9872912459978
 30
0.0
 11
193.219435736677
 21
356.9872912459978
 31
0.0
  0
LINE
  5
7B5
330
A
100
AcDbEntity
  8
04
100
AcDbLine
 10
202.7194357366771
 20
334.9872912459979
 30
0.0
 11
202.7194357366771
 21
356.9872912459978
 31
0.0
  0
LINE
  5
7B6
330
A
100
AcDbEntity
  8
04
100
AcDbLine
 10
195.2194357366771
 20
334.9872912459979
 30
0.0
 11
202.7194357366771
 21
334.9872912459979
 31
0.0
  0
LINE
  5
7B7
330
A
100
AcDbEntity
  8
04
100
AcDbLine
 10
204.2194357366772
 20
333.4872912459978
 30
0.0
 11
195.2194357366771
 21
333.4872912459978
 31
0.0
  0
LINE
  5
7B8
330
A
100
AcDbEntity
  8
04
100
AcDbLine
 10
204.2194357366772
 20
358.4872912459978
 30
0.0
 11
204.2194357366772
 21
333.4872912459978
 31
0.0
  0
LINE
  5
7B9
330
A
100
AcDbEntity
  8
04
100
AcDbLine
 10
183.219435736677
 20
358.4872912459978
 30
0.0
 11
172.2194357366771
 21
358.4872912459978
 31
0.0
  0
LINE
  5
7BA
330
A
100
AcDbEntity
  8
04
100
AcDbLine
 10
173.719435736677
 20
356.9872912459978
 30
0.0
 11
183.219435736677
 21
356.9872912459978
 31
0.0
  0
LINE
  5
7BB
330
A
100
AcDbEntity
  8
04
100
AcDbLine
 10
173.719435736677
 20
334.9872912459979
 30
0.0
 11
173.719435736677
 21
356.9872912459978
 31
0.0
  0
LINE
  5
7BC
330
A
100
AcDbEntity
  8
04
100
AcDbLine
 10
181.219435736677
 20
334.9872912459979
 30
0.0
 11
173.719435736677
 21
334.9872912459979
 31
0.0
  0
LINE
  5
7BD
330
A
100
AcDbEntity
  8
04
100
AcDbLine
 10
172.2194357366771
 20
333.4872912459978
 30
0.0
 11
181.219435736677
 21
333.4872912459978
 31
0.0
  0
LINE
  5
7BE
330
A
100
AcDbEntity
  8
04
100
AcDbLine
 10
172.2194357366771
 20
358.4872912459978
 30
0.0
 11
172.2194357366771
 21
333.4872912459978
 31
0.0
  0
LINE
  5
7BF
330
A
100
AcDbEntity
  8
03
100
AcDbLine
 10
344.5491498699485
 20
455.6872688754806
 30
0.0
 11
343.5144230769231
 21
454.6525420824552
 31
0.0
  0
LINE
  5
7C0
330
A
100
AcDbEntity
  8
03
100
AcDbLine
 10
344.5491498699485
 20
431.6178152894297
 30
0.0
 11
343.5144230769231
 21
432.6525420824553
 31
0.0
  0
LINE
  5
7C1
330
A
100
AcDbEntity
  8
03
100
AcDbLine
 10
344.5132710021192
 20
401.653694157259
 30
0.0
 11
343.5144230769231
 21
402.6525420824553
 31
0.0
  0
LINE
  5
7C2
330
A
100
AcDbEntity
  8
03
100
AcDbLine
 10
344.5132710021192
 20
425.6513900076515
 30
0.0
 11
343.5144230769231
 21
424.6525420824553
 31
0.0
  0
LINE
  5
7C3
330
A
100
AcDbEntity
  8
03
100
AcDbLine
 10
313.4796962838978
 20
401.6178152894299
 30
0.0
 11
314.5144230769231
 21
402.6525420824553
 31
0.0
  0
LINE
  5
7C4
330
A
100
AcDbEntity
  8
03
100
AcDbLine
 10
313.4796962838978
 20
425.6872688754806
 30
0.0
 11
314.5144230769231
 21
424.6525420824553
 31
0.0
  0
LINE
  5
7C5
330
A
100
AcDbEntity
  8
03
100
AcDbLine
 10
313.5155751517268
 20
431.6536941572591
 30
0.0
 11
314.5144230769231
 21
432.6525420824553
 31
0.0
  0
LINE
  5
7C6
330
A
100
AcDbEntity
  8
03
100
AcDbLine
 10
313.5511988809403
 20
455.615766278438
 30
0.0
 11
314.5144230769231
 21
454.6525420824552
 31
0.0
  0
LINE
  5
7C7
330
A
100
AcDbEntity
  8
04
100
AcDbLine
 10
288.7692820110924
 20
74.89430434802625
 30
0.0
 11
288.7692820110924
 21
161.294304348026
 31
0.0
  0
LINE
  5
7C8
330
A
100
AcDbEntity
  8
04
100
AcDbLine
 10
92.26928201109236
 20
74.89430434802625
 30
0.0
 11
92.26928201109242
 21
161.294304348026
 31
0.0
  0
LINE
  5
7C9
330
A
100
AcDbEntity
  8
04
100
AcDbLine
 10
83.76928201109242
 20
161.294304348026
 30
0.0
 11
297.1692820110923
 21
161.294304348026
 31
0.0
  0
LINE
  5
7CA
330
A
100
AcDbEntity
  8
04
100
AcDbLine
 10
83.76928201109237
 20
74.89430434802625
 30
0.0
 11
297.1692820110923
 21
74.89430434802625
 31
0.0
  0
LINE
  5
7CB
330
A
100
AcDbEntity
  8
04
100
AcDbLine
 10
297.1692820110923
 20
72.39430434802625
 30
0.0
 11
83.76928201109237
 21
72.39430434802625
 31
0.0
  0
LINE
  5
7CC
330
A
100
AcDbEntity
  8
04
100
AcDbLine
 10
297.1692820110923
 20
163.794304348026
 30
0.0
 11
297.1692820110923
 21
72.39430434802625
 31
0.0
  0
LINE
  5
7CD
330
A
100
AcDbEntity
  8
04
100
AcDbLine
 10
83.76928201109242
 20
163.794304348026
 30
0.0
 11
297.1692820110923
 21
163.794304348026
 31
0.0
  0
LINE
  5
7CE
330
A
100
AcDbEntity
  8
04
100
AcDbLine
 10
83.76928201109237
 20
72.39430434802625
 30
0.0
 11
83.76928201109242
 21
163.794304348026
 31
0.0
  0
LINE
  5
7EE
330
A
100
AcDbEntity
  8
04
100
AcDbLine
 10
336.0144230769231
 20
432.6525420824553
 30
0.0
 11
336.0144230769231
 21
431.1525420824552
 31
0.0
  0
LINE
  5
7EF
330
A
100
AcDbEntity
  8
04
100
AcDbLine
 10
343.5144230769231
 20
432.6525420824553
 30
0.0
 11
336.0144230769231
 21
432.6525420824553
 31
0.0
  0
LINE
  5
7F0
330
A
100
AcDbEntity
  8
04
100
AcDbLine
 10
343.5144230769231
 20
454.6525420824552
 30
0.0
 11
343.5144230769231
 21
432.6525420824553
 31
0.0
  0
LINE
  5
7F1
330
A
100
AcDbEntity
  8
04
100
AcDbLine
 10
334.0144230769231
 20
454.6525420824552
 30
0.0
 11
343.5144230769231
 21
454.6525420824552
 31
0.0
  0
LINE
  5
7F2
330
A
100
AcDbEntity
  8
04
100
AcDbLine
 10
314.5144230769231
 20
454.6525420824552
 30
0.0
 11
324.0144230769231
 21
454.6525420824552
 31
0.0
  0
LINE
  5
7F3
330
A
100
AcDbEntity
  8
04
100
AcDbLine
 10
314.5144230769231
 20
432.6525420824553
 30
0.0
 11
314.5144230769231
 21
454.6525420824552
 31
0.0
  0
LINE
  5
7F4
330
A
100
AcDbEntity
  8
04
100
AcDbLine
 10
322.0144230769231
 20
432.6525420824553
 30
0.0
 11
314.5144230769231
 21
432.6525420824553
 31
0.0
  0
LINE
  5
7F5
330
A
100
AcDbEntity
  8
04
100
AcDbLine
 10
322.0144230769231
 20
431.1525420824552
 30
0.0
 11
322.0144230769231
 21
432.6525420824553
 31
0.0
  0
LINE
  5
7F6
330
A
100
AcDbEntity
  8
04
100
AcDbLine
 10
313.0144230769231
 20
431.1525420824552
 30
0.0
 11
322.0144230769231
 21
431.1525420824552
 31
0.0
  0
LINE
  5
7F7
330
A
100
AcDbEntity
  8
04
100
AcDbLine
 10
313.0144230769231
 20
456.1525420824552
 30
0.0
 11
313.0144230769231
 21
431.1525420824552
 31
0.0
  0
LINE
  5
7F8
330
A
100
AcDbEntity
  8
04
100
AcDbLine
 10
324.0144230769231
 20
456.1525420824552
 30
0.0
 11
313.0144230769231
 21
456.1525420824552
 31
0.0
  0
LINE
  5
7F9
330
A
100
AcDbEntity
  8
04
100
AcDbLine
 10
345.0144230769232
 20
456.1525420824552
 30
0.0
 11
334.0144230769231
 21
456.1525420824552
 31
0.0
  0
LINE
  5
7FA
330
A
100
AcDbEntity
  8
04
100
AcDbLine
 10
345.0144230769232
 20
431.1525420824552
 30
0.0
 11
345.0144230769232
 21
456.1525420824552
 31
0.0
  0
LINE
  5
7FB
330
A
100
AcDbEntity
  8
04
100
AcDbLine
 10
336.0144230769231
 20
431.1525420824552
 30
0.0
 11
345.0144230769232
 21
431.1525420824552
 31
0.0
  0
LINE
  5
80F
330
A
100
AcDbEntity
  8
04
100
AcDbLine
 10
334.0144230769231
 20
401.1525420824552
 30
0.0
 11
345.0144230769232
 21
401.1525420824552
 31
0.0
  0
LINE
  5
810
330
A
100
AcDbEntity
  8
04
100
AcDbLine
 10
343.5144230769231
 20
402.6525420824553
 30
0.0
 11
334.0144230769231
 21
402.6525420824553
 31
0.0
  0
LINE
  5
811
330
A
100
AcDbEntity
  8
04
100
AcDbLine
 10
343.5144230769231
 20
424.6525420824553
 30
0.0
 11
343.5144230769231
 21
402.6525420824553
 31
0.0
  0
LINE
  5
812
330
A
100
AcDbEntity
  8
04
100
AcDbLine
 10
336.0144230769231
 20
424.6525420824553
 30
0.0
 11
343.5144230769231
 21
424.6525420824553
 31
0.0
  0
LINE
  5
813
330
A
100
AcDbEntity
  8
04
100
AcDbLine
 10
345.0144230769232
 20
426.1525420824552
 30
0.0
 11
336.0144230769231
 21
426.1525420824552
 31
0.0
  0
LINE
  5
814
330
A
100
AcDbEntity
  8
04
100
AcDbLine
 10
345.0144230769232
 20
401.1525420824552
 30
0.0
 11
345.0144230769232
 21
426.1525420824552
 31
0.0
  0
LINE
  5
815
330
A
100
AcDbEntity
  8
04
100
AcDbLine
 10
324.0144230769231
 20
401.1525420824552
 30
0.0
 11
313.0144230769231
 21
401.1525420824552
 31
0.0
  0
LINE
  5
817
330
A
100
AcDbEntity
  8
04
100
AcDbLine
 10
314.5144230769231
 20
402.6525420824553
 30
0.0
 11
324.0144230769231
 21
402.6525420824553
 31
0.0
  0
LINE
  5
818
330
A
100
AcDbEntity
  8
04
100
AcDbLine
 10
314.5144230769231
 20
424.6525420824553
 30
0.0
 11
314.5144230769231
 21
402.6525420824553
 31
0.0
  0
LINE
  5
819
330
A
100
AcDbEntity
  8
04
100
AcDbLine
 10
322.0144230769231
 20
424.6525420824553
 30
0.0
 11
314.5144230769231
 21
424.6525420824553
 31
0.0
  0
LINE
  5
81A
330
A
100
AcDbEntity
  8
04
100
AcDbLine
 10
322.0144230769231
 20
426.1525420824552
 30
0.0
 11
322.0144230769231
 21
424.6525420824553
 31
0.0
  0
LINE
  5
81B
330
A
100
AcDbEntity
  8
04
100
AcDbLine
 10
313.0144230769231
 20
426.1525420824552
 30
0.0
 11
322.0144230769231
 21
426.1525420824552
 31
0.0
  0
LINE
  5
81C
330
A
100
AcDbEntity
  8
04
100
AcDbLine
 10
313.0144230769231
 20
401.1525420824552
 30
0.0
 11
313.0144230769231
 21
426.1525420824552
 31
0.0
  0
LINE
  5
81D
330
A
100
AcDbEntity
  8
02
100
AcDbLine
 10
184.2194357366773
 20
468.4872912459978
 30
0.0
 11
184.2194357366773
 21
534.3847632668204
 31
0.0
  0
LINE
  5
81E
330
A
100
AcDbEntity
  8
02
100
AcDbLine
 10
184.2194357366773
 20
348.1872912459978
 30
0.0
 11
184.2194357366773
 21
463.4872912459978
 31
0.0
  0
LINE
  5
81F
330
A
100
AcDbEntity
  8
02
100
AcDbLine
 10
184.8194357366773
 20
468.4872912459978
 30
0.0
 11
184.8194357366773
 21
534.3847632668204
 31
0.0
  0
LINE
  5
820
330
A
100
AcDbEntity
  8
02
100
AcDbLine
 10
184.8194357366774
 20
348.1872912459978
 30
0.0
 11
184.8194357366773
 21
463.4872912459978
 31
0.0
  0
LINE
  5
821
330
A
100
AcDbEntity
  8
02
100
AcDbLine
 10
191.6194357366773
 20
463.4872912459978
 30
0.0
 11
191.6194357366773
 21
387.6872532177341
 31
0.0
  0
LINE
  5
822
330
A
100
AcDbEntity
  8
02
100
AcDbLine
 10
191.6194357366773
 20
534.3847632668204
 30
0.0
 11
191.6194357366773
 21
468.4872912459978
 31
0.0
  0
LINE
  5
823
330
A
100
AcDbEntity
  8
02
100
AcDbLine
 10
192.2194357366773
 20
463.4872912459978
 30
0.0
 11
192.2194357366773
 21
387.6872532177342
 31
0.0
  0
LINE
  5
824
330
A
100
AcDbEntity
  8
02
100
AcDbLine
 10
192.2194357366773
 20
534.3847632668204
 30
0.0
 11
192.2194357366773
 21
468.4872912459978
 31
0.0
  0
LINE
  5
82B
330
A
100
AcDbEntity
  8
02
100
AcDbLine
 10
195.79857660803
 20
253.0195259368883
 30
0.0
 11
214.3684894926274
 21
253.0195259368883
 31
0.0
  0
LINE
  5
82C
330
A
100
AcDbEntity
  8
02
100
AcDbLine
 10
184.3511928740879
 20
253.0195259368883
 30
0.0
 11
185.6414663622935
 21
253.0195259368883
 31
0.0
  0
LINE
  5
82D
330
A
100
AcDbEntity
  8
02
100
AcDbLine
 10
185.6414663622935
 20
252.4195259368883
 30
0.0
 11
184.3511928740879
 21
252.4195259368883
 31
0.0
  0
LINE
  5
82E
330
A
100
AcDbEntity
  8
02
100
AcDbLine
 10
214.3684894926274
 20
252.4195259368883
 30
0.0
 11
195.79857660803
 21
252.4195259368883
 31
0.0
  0
LINE
  5
82F
330
A
100
AcDbEntity
  8
02
100
AcDbLine
 10
195.79857660803
 20
245.5834153631484
 30
0.0
 11
214.3684894926274
 21
245.5834153631484
 31
0.0
  0
LINE
  5
830
330
A
100
AcDbEntity
  8
02
100
AcDbLine
 10
184.3511928740879
 20
245.5834153631484
 30
0.0
 11
185.6414663622935
 21
245.5834153631484
 31
0.0
  0
LINE
  5
831
330
A
100
AcDbEntity
  8
02
100
AcDbLine
 10
185.6414663622935
 20
244.9834153631484
 30
0.0
 11
184.3511928740879
 21
244.9834153631484
 31
0.0
  0
LINE
  5
832
330
A
100
AcDbEntity
  8
02
100
AcDbLine
 10
214.3684894926274
 20
244.9834153631484
 30
0.0
 11
195.79857660803
 21
244.9834153631484
 31
0.0
  0
LINE
  5
833
330
A
100
AcDbEntity
  8
02
100
AcDbLine
 10
174.0645450069378
 20
244.9834153631484
 30
0.0
 11
172.3511928740879
 21
244.9834153631484
 31
0.0
  0
LINE
  5
834
330
A
100
AcDbEntity
  8
02
100
AcDbLine
 10
172.3511928740879
 20
245.5834153631484
 30
0.0
 11
174.0645450069378
 21
245.5834153631484
 31
0.0
  0
LINE
  5
835
330
A
100
AcDbEntity
  8
02
100
AcDbLine
 10
174.0645450069378
 20
252.4195259368883
 30
0.0
 11
172.3511928740879
 21
252.4195259368883
 31
0.0
  0
LINE
  5
836
330
A
100
AcDbEntity
  8
02
100
AcDbLine
 10
172.3511928740879
 20
253.0195259368883
 30
0.0
 11
174.0645450069378
 21
253.0195259368883
 31
0.0
  0
LINE
  5
837
330
A
100
AcDbEntity
  8
02
100
AcDbLine
 10
161.3954612595675
 20
244.9834153631484
 30
0.0
 11
134.0692820110922
 21
244.9834153631484
 31
0.0
  0
LINE
  5
838
330
A
100
AcDbEntity
  8
02
100
AcDbLine
 10
134.0692820110922
 20
245.5834153631484
 30
0.0
 11
161.3954612595675
 21
245.5834153631484
 31
0.0
  0
LINE
  5
839
330
A
100
AcDbEntity
  8
02
100
AcDbLine
 10
161.3954612595675
 20
252.4195259368883
 30
0.0
 11
134.0692820110922
 21
252.4195259368883
 31
0.0
  0
LINE
  5
83A
330
A
100
AcDbEntity
  8
02
100
AcDbLine
 10
134.0692820110922
 20
253.0195259368883
 30
0.0
 11
161.3954612595675
 21
253.0195259368883
 31
0.0
  0
LINE
  5
848
330
A
100
AcDbEntity
  8
02
100
AcDbLine
 10
291.0452435495538
 20
245.5834153631484
 30
0.0
 11
219.3684894926274
 21
245.5834153631484
 31
0.0
  0
LINE
  5
849
330
A
100
AcDbEntity
  8
02
100
AcDbLine
 10
219.3684894926274
 20
252.4195259368883
 30
0.0
 11
291.0452435495538
 21
252.4195259368883
 31
0.0
  0
LINE
  5
84A
330
A
100
AcDbEntity
  8
02
100
AcDbLine
 10
219.3684894926274
 20
244.9834153631484
 30
0.0
 11
291.0452435495538
 21
244.9834153631484
 31
0.0
  0
LINE
  5
84B
330
A
100
AcDbEntity
  8
02
100
AcDbLine
 10
291.0452435495538
 20
253.0195259368883
 30
0.0
 11
219.3684894926274
 21
253.0195259368883
 31
0.0
  0
LINE
  5
84C
330
A
100
AcDbEntity
  8
02
100
AcDbLine
 10
291.0452435495538
 20
244.9834153631484
 30
0.0
 11
291.0452435495538
 21
253.0195259368883
 31
0.0
  0
LINE
  5
84F
330
A
100
AcDbEntity
  8
SAISEN
100
AcDbLine
 10
72.19107059131662
 20
114.9656971721423
 30
0.0
 11
59.60707550505739
 21
127.5496922584015
 31
0.0
  0
LINE
  5
850
330
A
100
AcDbEntity
  8
SAISEN
100
AcDbLine
 10
57.77212262428051
 20
120.8993637649398
 30
0.0
 11
68.45926127472957
 21
110.2122251144908
 31
0.0
  0
LINE
  5
851
330
A
100
AcDbEntity
  8
SAISEN
100
AcDbLine
 10
55.63596630686422
 20
127.2781607694754
 30
0.0
 11
73.03188099460292
 21
109.8822460817366
 31
0.0
  0
LINE
  5
85F
330
A
100
AcDbEntity
  8
02
100
AcDbLine
 10
184.2194357366773
 20
534.3847632668204
 30
0.0
 11
192.2194357366774
 21
534.3847632668204
 31
0.0
  0
LINE
  5
860
330
A
100
AcDbEntity
  8
02
100
AcDbLine
 10
191.619435736677
 20
371.4588014014986
 30
0.0
 11
191.619435736677
 21
348.1872912459978
 31
0.0
  0
LINE
  5
862
330
A
100
AcDbEntity
  8
02
100
AcDbLine
 10
192.2194357366771
 20
348.1872912459978
 30
0.0
 11
184.219435736677
 21
348.1872912459978
 31
0.0
  0
LINE
  5
863
330
A
100
AcDbEntity
  8
02
100
AcDbLine
 10
192.2194357366771
 20
371.4588014014986
 30
0.0
 11
192.2194357366771
 21
348.1872912459978
 31
0.0
  0
LINE
  5
865
330
A
100
AcDbEntity
  8
02
100
AcDbLine
 10
134.0692820110922
 20
244.9834153631484
 30
0.0
 11
134.0692820110922
 21
253.0195259368883
 31
0.0
  0
LINE
  5
866
330
A
100
AcDbEntity
  8
02
100
AcDbLine
 10
332.4144230769231
 20
381.4525420824553
 30
0.0
 11
332.4144230769231
 21
411.4525420824553
 31
0.0
  0
LINE
  5
867
330
A
100
AcDbEntity
  8
02
100
AcDbLine
 10
325.6144230769231
 20
411.4525420824553
 30
0.0
 11
325.6144230769231
 21
381.4525420824553
 31
0.0
  0
LINE
  5
868
330
A
100
AcDbEntity
  8
02
100
AcDbLine
 10
333.0144230769231
 20
411.4525420824553
 30
0.0
 11
333.0144230769231
 21
381.4525420824553
 31
0.0
  0
LINE
  5
869
330
A
100
AcDbEntity
  8
02
100
AcDbLine
 10
325.0144230769231
 20
411.4525420824553
 30
0.0
 11
333.0144230769231
 21
411.4525420824553
 31
0.0
  0
LINE
  5
86A
330
A
100
AcDbEntity
  8
02
100
AcDbLine
 10
325.0144230769231
 20
381.4525420824553
 30
0.0
 11
325.0144230769231
 21
411.4525420824553
 31
0.0
  0
LINE
  5
86B
330
A
100
AcDbEntity
  8
02
100
AcDbLine
 10
332.4144230769231
 20
475.8525420824552
 30
0.0
 11
332.4144230769231
 21
445.8525420824551
 31
0.0
  0
LINE
  5
86C
330
A
100
AcDbEntity
  8
02
100
AcDbLine
 10
325.6144230769231
 20
445.8525420824551
 30
0.0
 11
325.6144230769231
 21
475.8525420824552
 31
0.0
  0
LINE
  5
86D
330
A
100
AcDbEntity
  8
02
100
AcDbLine
 10
333.0144230769231
 20
445.8525420824551
 30
0.0
 11
325.0144230769231
 21
445.8525420824551
 31
0.0
  0
LINE
  5
86E
330
A
100
AcDbEntity
  8
02
100
AcDbLine
 10
333.0144230769231
 20
475.8525420824552
 30
0.0
 11
333.0144230769231
 21
445.8525420824551
 31
0.0
  0
LINE
  5
86F
330
A
100
AcDbEntity
  8
02
100
AcDbLine
 10
325.0144230769231
 20
445.8525420824551
 30
0.0
 11
325.0144230769231
 21
475.8525420824552
 31
0.0
  0
LINE
  5
870
330
A
100
AcDbEntity
  8
06
100
AcDbLine
 10
332.0144230769231
 20
428.6525420824553
 30
0.0
 11
326.0144230769231
 21
428.6525420824553
 31
0.0
  0
LINE
  5
87A
330
A
100
AcDbEntity
  8
06
100
AcDbLine
 10
332.5144230769231
 20
423.1525420824552
 30
0.0
 11
325.5144230769228
 21
423.1525420824552
 31
0.0
  0
LINE
  5
87B
330
A
100
AcDbEntity
  8
06
100
AcDbLine
 10
332.5144230769231
 20
422.6525420824552
 30
0.0
 11
332.5144230769231
 21
423.1525420824552
 31
0.0
  0
LINE
  5
87C
330
A
100
AcDbEntity
  8
06
100
AcDbLine
 10
325.5144230769228
 20
422.6525420824552
 30
0.0
 11
332.5144230769231
 21
422.6525420824552
 31
0.0
  0
LINE
  5
87D
330
A
100
AcDbEntity
  8
06
100
AcDbLine
 10
325.5144230769228
 20
423.1525420824552
 30
0.0
 11
325.5144230769228
 21
422.6525420824552
 31
0.0
  0
LINE
  5
87E
330
A
100
AcDbEntity
  8
06
100
AcDbLine
 10
332.0144230769228
 20
423.1525420824552
 30
0.0
 11
332.0144230769231
 21
431.1525420824552
 31
0.0
  0
LINE
  5
87F
330
A
100
AcDbEntity
  8
06
100
AcDbLine
 10
326.0144230769231
 20
431.1525420824552
 30
0.0
 11
326.0144230769231
 21
423.1525420824552
 31
0.0
  0
LINE
  5
880
330
A
100
AcDbEntity
  8
06
100
AcDbLine
 10
338.5144230769231
 20
421.6525420824551
 30
0.0
 11
338.5144230769231
 21
419.6525420824553
 31
0.0
  0
LINE
  5
881
330
A
100
AcDbEntity
  8
06
100
AcDbLine
 10
336.0144230769231
 20
421.6525420824555
 30
0.0
 11
338.5144230769231
 21
421.6525420824551
 31
0.0
  0
LINE
  5
882
330
A
100
AcDbEntity
  8
06
100
AcDbLine
 10
335.514423076923
 20
425.6525420824551
 30
0.0
 11
335.5144230769231
 21
422.1525420824555
 31
0.0
  0
LINE
  5
883
330
A
100
AcDbEntity
  8
06
100
AcDbLine
 10
339.5144230769231
 20
426.1525420824552
 30
0.0
 11
336.0144230769228
 21
426.1525420824552
 31
0.0
  0
LINE
  5
884
330
A
100
AcDbEntity
  8
06
100
AcDbLine
 10
332.0144230769231
 20
423.1525420824552
 30
0.0
 11
333.0144230769231
 21
423.1525420824552
 31
0.0
  0
LINE
  5
885
330
A
100
AcDbEntity
  8
06
100
AcDbLine
 10
333.0144230769231
 20
422.4525420824552
 30
0.0
 11
329.0144230769231
 21
422.4525420824552
 31
0.0
  0
LINE
  5
886
330
A
100
AcDbEntity
  8
06
100
AcDbLine
 10
333.0144230769231
 20
423.1525420824552
 30
0.0
 11
333.0144230769231
 21
422.4525420824552
 31
0.0
  0
LINE
  5
887
330
A
100
AcDbEntity
  8
06
100
AcDbLine
 10
332.0144230769231
 20
427.6525420824553
 30
0.0
 11
339.0144230769227
 21
427.6525420824553
 31
0.0
  0
LINE
  5
888
330
A
100
AcDbEntity
  8
06
100
AcDbLine
 10
338.5144230769228
 20
419.6525420824553
 30
0.0
 11
329.0144230769231
 21
419.6525420824553
 31
0.0
  0
LINE
  5
889
330
A
100
AcDbEntity
  8
06
100
AcDbLine
 10
339.5144230769228
 20
427.1525420824552
 30
0.0
 11
339.5144230769231
 21
426.1525420824552
 31
0.0
  0
LINE
  5
88A
330
A
100
AcDbEntity
  8
06
100
AcDbLine
 10
319.5144230769231
 20
421.6525420824551
 30
0.0
 11
319.5144230769231
 21
419.6525420824553
 31
0.0
  0
LINE
  5
88B
330
A
100
AcDbEntity
  8
06
100
AcDbLine
 10
322.0144230769231
 20
421.6525420824555
 30
0.0
 11
319.5144230769231
 21
421.6525420824551
 31
0.0
  0
LINE
  5
88C
330
A
100
AcDbEntity
  8
06
100
AcDbLine
 10
322.5144230769233
 20
425.6525420824551
 30
0.0
 11
322.5144230769231
 21
422.1525420824555
 31
0.0
  0
LINE
  5
88D
330
A
100
AcDbEntity
  8
06
100
AcDbLine
 10
318.5144230769231
 20
426.1525420824552
 30
0.0
 11
322.0144230769233
 21
426.1525420824552
 31
0.0
  0
LINE
  5
88E
330
A
100
AcDbEntity
  8
06
100
AcDbLine
 10
326.0144230769231
 20
423.1525420824552
 30
0.0
 11
325.0144230769231
 21
423.1525420824552
 31
0.0
  0
LINE
  5
88F
330
A
100
AcDbEntity
  8
06
100
AcDbLine
 10
325.0144230769231
 20
422.4525420824552
 30
0.0
 11
329.0144230769231
 21
422.4525420824552
 31
0.0
  0
LINE
  5
890
330
A
100
AcDbEntity
  8
06
100
AcDbLine
 10
325.0144230769231
 20
423.1525420824552
 30
0.0
 11
325.0144230769231
 21
422.4525420824552
 31
0.0
  0
LINE
  5
891
330
A
100
AcDbEntity
  8
06
100
AcDbLine
 10
326.0144230769231
 20
427.6525420824553
 30
0.0
 11
319.0144230769234
 21
427.6525420824553
 31
0.0
  0
LINE
  5
892
330
A
100
AcDbEntity
  8
06
100
AcDbLine
 10
319.5144230769233
 20
419.6525420824553
 30
0.0
 11
329.0144230769231
 21
419.6525420824553
 31
0.0
  0
LINE
  5
893
330
A
100
AcDbEntity
  8
06
100
AcDbLine
 10
318.5144230769235
 20
427.1525420824552
 30
0.0
 11
318.5144230769231
 21
426.1525420824552
 31
0.0
  0
LINE
  5
89D
330
A
100
AcDbEntity
  8
06
100
AcDbLine
 10
191.7194357366773
 20
546.0847632668203
 30
0.0
 11
184.7194357366774
 21
546.0847632668206
 31
0.0
  0
LINE
  5
89E
330
A
100
AcDbEntity
  8
06
100
AcDbLine
 10
191.7194357366773
 20
545.5847632668203
 30
0.0
 11
191.7194357366773
 21
546.0847632668203
 31
0.0
  0
LINE
  5
89F
330
A
100
AcDbEntity
  8
06
100
AcDbLine
 10
184.7194357366774
 20
545.5847632668206
 30
0.0
 11
191.7194357366773
 21
545.5847632668203
 31
0.0
  0
LINE
  5
8A0
330
A
100
AcDbEntity
  8
06
100
AcDbLine
 10
184.7194357366774
 20
546.0847632668206
 30
0.0
 11
184.7194357366774
 21
545.5847632668206
 31
0.0
  0
LINE
  5
8A1
330
A
100
AcDbEntity
  8
06
100
AcDbLine
 10
191.2194357366773
 20
554.0847632668203
 30
0.0
 11
185.2194357366773
 21
554.0847632668203
 31
0.0
  0
LINE
  5
8A2
330
A
100
AcDbEntity
  8
06
100
AcDbLine
 10
191.2194357366773
 20
546.0847632668203
 30
0.0
 11
191.2194357366773
 21
554.0847632668203
 31
0.0
  0
LINE
  5
8A3
330
A
100
AcDbEntity
  8
06
100
AcDbLine
 10
185.2194357366773
 20
554.0847632668203
 30
0.0
 11
185.2194357366773
 21
546.0847632668203
 31
0.0
  0
LINE
  5
8A4
330
A
100
AcDbEntity
  8
06
100
AcDbLine
 10
197.7194357366775
 20
544.5847632668203
 30
0.0
 11
197.7194357366774
 21
542.5847632668203
 31
0.0
  0
LINE
  5
8A5
330
A
100
AcDbEntity
  8
06
100
AcDbLine
 10
195.2194357366774
 20
544.5847632668207
 30
0.0
 11
197.7194357366775
 21
544.5847632668203
 31
0.0
  0
LINE
  5
8A6
330
A
100
AcDbEntity
  8
06
100
AcDbLine
 10
194.7194357366773
 20
548.5847632668203
 30
0.0
 11
194.7194357366774
 21
545.0847632668206
 31
0.0
  0
LINE
  5
8A7
330
A
100
AcDbEntity
  8
06
100
AcDbLine
 10
198.7194357366774
 20
549.0847632668203
 30
0.0
 11
195.2194357366773
 21
549.0847632668203
 31
0.0
  0
LINE
  5
8A8
330
A
100
AcDbEntity
  8
06
100
AcDbLine
 10
191.2194357366774
 20
546.0847632668203
 30
0.0
 11
192.2194357366774
 21
546.0847632668203
 31
0.0
  0
LINE
  5
8A9
330
A
100
AcDbEntity
  8
06
100
AcDbLine
 10
192.2194357366774
 20
545.3847632668205
 30
0.0
 11
188.2194357366774
 21
545.3847632668205
 31
0.0
  0
LINE
  5
8AA
330
A
100
AcDbEntity
  8
06
100
AcDbLine
 10
192.2194357366774
 20
546.0847632668203
 30
0.0
 11
192.2194357366774
 21
545.3847632668205
 31
0.0
  0
LINE
  5
8AB
330
A
100
AcDbEntity
  8
06
100
AcDbLine
 10
191.2194357366774
 20
550.5847632668203
 30
0.0
 11
198.2194357366772
 21
550.5847632668205
 31
0.0
  0
LINE
  5
8AC
330
A
100
AcDbEntity
  8
06
100
AcDbLine
 10
197.719435736677
 20
542.5847632668203
 30
0.0
 11
188.2194357366774
 21
542.5847632668205
 31
0.0
  0
LINE
  5
8AD
330
A
100
AcDbEntity
  8
06
100
AcDbLine
 10
198.7194357366771
 20
550.0847632668203
 30
0.0
 11
198.7194357366774
 21
549.0847632668203
 31
0.0
  0
LINE
  5
8AE
330
A
100
AcDbEntity
  8
06
100
AcDbLine
 10
178.7194357366774
 20
544.5847632668203
 30
0.0
 11
178.7194357366774
 21
542.5847632668205
 31
0.0
  0
LINE
  5
8AF
330
A
100
AcDbEntity
  8
06
100
AcDbLine
 10
181.2194357366774
 20
544.5847632668207
 30
0.0
 11
178.7194357366774
 21
544.5847632668203
 31
0.0
  0
LINE
  5
8B0
330
A
100
AcDbEntity
  8
06
100
AcDbLine
 10
181.7194357366775
 20
548.5847632668203
 30
0.0
 11
181.7194357366774
 21
545.0847632668206
 31
0.0
  0
LINE
  5
8B1
330
A
100
AcDbEntity
  8
06
100
AcDbLine
 10
177.7194357366774
 20
549.0847632668203
 30
0.0
 11
181.2194357366775
 21
549.0847632668203
 31
0.0
  0
LINE
  5
8B2
330
A
100
AcDbEntity
  8
06
100
AcDbLine
 10
185.2194357366774
 20
546.0847632668203
 30
0.0
 11
184.2194357366773
 21
546.0847632668203
 31
0.0
  0
LINE
  5
8B3
330
A
100
AcDbEntity
  8
06
100
AcDbLine
 10
184.2194357366773
 20
545.3847632668205
 30
0.0
 11
188.2194357366774
 21
545.3847632668205
 31
0.0
  0
LINE
  5
8B4
330
A
100
AcDbEntity
  8
06
100
AcDbLine
 10
184.2194357366773
 20
546.0847632668203
 30
0.0
 11
184.2194357366773
 21
545.3847632668205
 31
0.0
  0
LINE
  5
8B5
330
A
100
AcDbEntity
  8
06
100
AcDbLine
 10
185.2194357366774
 20
550.5847632668205
 30
0.0
 11
178.2194357366775
 21
550.5847632668205
 31
0.0
  0
LINE
  5
8B6
330
A
100
AcDbEntity
  8
06
100
AcDbLine
 10
178.7194357366777
 20
542.5847632668203
 30
0.0
 11
188.2194357366774
 21
542.5847632668205
 31
0.0
  0
LINE
  5
8B7
330
A
100
AcDbEntity
  8
06
100
AcDbLine
 10
177.7194357366775
 20
550.0847632668206
 30
0.0
 11
177.7194357366774
 21
549.0847632668203
 31
0.0
  0
LINE
  5
8C1
330
A
100
AcDbEntity
  8
06
100
AcDbLine
 10
332.5144230769231
 20
434.1525420824551
 30
0.0
 11
325.5144230769231
 21
434.1525420824551
 31
0.0
  0
LINE
  5
8C2
330
A
100
AcDbEntity
  8
06
100
AcDbLine
 10
332.5144230769231
 20
434.6525420824552
 30
0.0
 11
332.5144230769231
 21
434.1525420824551
 31
0.0
  0
LINE
  5
8C3
330
A
100
AcDbEntity
  8
06
100
AcDbLine
 10
325.5144230769231
 20
434.6525420824552
 30
0.0
 11
332.5144230769231
 21
434.6525420824552
 31
0.0
  0
LINE
  5
8C4
330
A
100
AcDbEntity
  8
06
100
AcDbLine
 10
325.5144230769231
 20
434.1525420824551
 30
0.0
 11
325.5144230769231
 21
434.6525420824552
 31
0.0
  0
LINE
  5
8C5
330
A
100
AcDbEntity
  8
06
100
AcDbLine
 10
332.0144230769231
 20
434.1525420824551
 30
0.0
 11
332.0144230769228
 21
426.1525420824552
 31
0.0
  0
LINE
  5
8C6
330
A
100
AcDbEntity
  8
06
100
AcDbLine
 10
326.0144230769231
 20
426.1525420824552
 30
0.0
 11
326.0144230769231
 21
434.1525420824551
 31
0.0
  0
LINE
  5
8C7
330
A
100
AcDbEntity
  8
06
100
AcDbLine
 10
338.5144230769231
 20
435.6525420824552
 30
0.0
 11
338.5144230769231
 21
437.6525420824552
 31
0.0
  0
LINE
  5
8C8
330
A
100
AcDbEntity
  8
06
100
AcDbLine
 10
336.0144230769231
 20
435.6525420824548
 30
0.0
 11
338.5144230769231
 21
435.6525420824552
 31
0.0
  0
LINE
  5
8C9
330
A
100
AcDbEntity
  8
06
100
AcDbLine
 10
335.514423076923
 20
431.6525420824553
 30
0.0
 11
335.5144230769231
 21
435.1525420824549
 31
0.0
  0
LINE
  5
8CA
330
A
100
AcDbEntity
  8
06
100
AcDbLine
 10
339.5144230769231
 20
431.1525420824552
 30
0.0
 11
336.0144230769228
 21
431.1525420824552
 31
0.0
  0
LINE
  5
8CB
330
A
100
AcDbEntity
  8
06
100
AcDbLine
 10
332.0144230769231
 20
434.1525420824551
 30
0.0
 11
333.0144230769231
 21
434.1525420824551
 31
0.0
  0
LINE
  5
8CC
330
A
100
AcDbEntity
  8
06
100
AcDbLine
 10
333.0144230769231
 20
434.8525420824552
 30
0.0
 11
329.0144230769231
 21
434.8525420824552
 31
0.0
  0
LINE
  5
8CD
330
A
100
AcDbEntity
  8
06
100
AcDbLine
 10
333.0144230769231
 20
434.1525420824551
 30
0.0
 11
333.0144230769231
 21
434.8525420824552
 31
0.0
  0
LINE
  5
8CE
330
A
100
AcDbEntity
  8
06
100
AcDbLine
 10
332.0144230769231
 20
429.6525420824552
 30
0.0
 11
339.0144230769227
 21
429.6525420824552
 31
0.0
  0
LINE
  5
8CF
330
A
100
AcDbEntity
  8
06
100
AcDbLine
 10
338.5144230769228
 20
437.6525420824552
 30
0.0
 11
329.0144230769231
 21
437.6525420824552
 31
0.0
  0
LINE
  5
8D0
330
A
100
AcDbEntity
  8
06
100
AcDbLine
 10
339.5144230769228
 20
430.1525420824552
 30
0.0
 11
339.5144230769231
 21
431.1525420824552
 31
0.0
  0
LINE
  5
8D1
330
A
100
AcDbEntity
  8
06
100
AcDbLine
 10
319.5144230769231
 20
435.6525420824552
 30
0.0
 11
319.5144230769231
 21
437.6525420824552
 31
0.0
  0
LINE
  5
8D2
330
A
100
AcDbEntity
  8
06
100
AcDbLine
 10
322.0144230769231
 20
435.6525420824548
 30
0.0
 11
319.5144230769231
 21
435.6525420824552
 31
0.0
  0
LINE
  5
8D3
330
A
100
AcDbEntity
  8
06
100
AcDbLine
 10
322.5144230769233
 20
431.6525420824553
 30
0.0
 11
322.5144230769231
 21
435.1525420824549
 31
0.0
  0
LINE
  5
8D4
330
A
100
AcDbEntity
  8
06
100
AcDbLine
 10
318.5144230769231
 20
431.1525420824552
 30
0.0
 11
322.0144230769233
 21
431.1525420824552
 31
0.0
  0
LINE
  5
8D5
330
A
100
AcDbEntity
  8
06
100
AcDbLine
 10
326.0144230769231
 20
434.1525420824551
 30
0.0
 11
325.0144230769231
 21
434.1525420824551
 31
0.0
  0
LINE
  5
8D6
330
A
100
AcDbEntity
  8
06
100
AcDbLine
 10
325.0144230769231
 20
434.8525420824552
 30
0.0
 11
329.0144230769231
 21
434.8525420824552
 31
0.0
  0
LINE
  5
8D7
330
A
100
AcDbEntity
  8
06
100
AcDbLine
 10
325.0144230769231
 20
434.1525420824551
 30
0.0
 11
325.0144230769231
 21
434.8525420824552
 31
0.0
  0
LINE
  5
8D8
330
A
100
AcDbEntity
  8
06
100
AcDbLine
 10
326.0144230769231
 20
429.6525420824552
 30
0.0
 11
319.0144230769234
 21
429.6525420824552
 31
0.0
  0
LINE
  5
8D9
330
A
100
AcDbEntity
  8
06
100
AcDbLine
 10
319.5144230769233
 20
437.6525420824552
 30
0.0
 11
329.0144230769231
 21
437.6525420824552
 31
0.0
  0
LINE
  5
8DA
330
A
100
AcDbEntity
  8
06
100
AcDbLine
 10
318.5144230769233
 20
430.1525420824552
 30
0.0
 11
318.5144230769231
 21
431.1525420824552
 31
0.0
  0
LINE
  5
8E4
330
A
100
AcDbEntity
  8
06
100
AcDbLine
 10
191.719435736677
 20
336.4872912459978
 30
0.0
 11
184.719435736677
 21
336.4872912459978
 31
0.0
  0
LINE
  5
8E5
330
A
100
AcDbEntity
  8
06
100
AcDbLine
 10
191.719435736677
 20
336.9872912459978
 30
0.0
 11
191.719435736677
 21
336.4872912459978
 31
0.0
  0
LINE
  5
8E6
330
A
100
AcDbEntity
  8
06
100
AcDbLine
 10
184.719435736677
 20
336.9872912459978
 30
0.0
 11
191.719435736677
 21
336.9872912459978
 31
0.0
  0
LINE
  5
8E7
330
A
100
AcDbEntity
  8
06
100
AcDbLine
 10
184.719435736677
 20
336.4872912459978
 30
0.0
 11
184.719435736677
 21
336.9872912459978
 31
0.0
  0
LINE
  5
8E8
330
A
100
AcDbEntity
  8
06
100
AcDbLine
 10
191.219435736677
 20
328.4872912459978
 30
0.0
 11
185.219435736677
 21
328.4872912459978
 31
0.0
  0
LINE
  5
8E9
330
A
100
AcDbEntity
  8
06
100
AcDbLine
 10
191.219435736677
 20
336.4872912459978
 30
0.0
 11
191.219435736677
 21
328.4872912459978
 31
0.0
  0
LINE
  5
8EA
330
A
100
AcDbEntity
  8
06
100
AcDbLine
 10
185.219435736677
 20
328.4872912459978
 30
0.0
 11
185.219435736677
 21
336.4872912459978
 31
0.0
  0
LINE
  5
8EB
330
A
100
AcDbEntity
  8
06
100
AcDbLine
 10
197.719435736677
 20
337.9872912459978
 30
0.0
 11
197.719435736677
 21
339.9872912459978
 31
0.0
  0
LINE
  5
8EC
330
A
100
AcDbEntity
  8
06
100
AcDbLine
 10
195.2194357366771
 20
337.9872912459976
 30
0.0
 11
197.719435736677
 21
337.9872912459978
 31
0.0
  0
LINE
  5
8ED
330
A
100
AcDbEntity
  8
06
100
AcDbLine
 10
194.719435736677
 20
333.9872912459978
 30
0.0
 11
194.719435736677
 21
337.4872912459975
 31
0.0
  0
LINE
  5
8EE
330
A
100
AcDbEntity
  8
06
100
AcDbLine
 10
198.7194357366771
 20
333.4872912459978
 30
0.0
 11
195.219435736677
 21
333.4872912459978
 31
0.0
  0
LINE
  5
8EF
330
A
100
AcDbEntity
  8
06
100
AcDbLine
 10
191.2194357366771
 20
336.4872912459978
 30
0.0
 11
192.2194357366771
 21
336.4872912459978
 31
0.0
  0
LINE
  5
8F0
330
A
100
AcDbEntity
  8
06
100
AcDbLine
 10
192.2194357366771
 20
337.1872912459978
 30
0.0
 11
188.219435736677
 21
337.1872912459978
 31
0.0
  0
LINE
  5
8F1
330
A
100
AcDbEntity
  8
06
100
AcDbLine
 10
192.2194357366771
 20
336.4872912459978
 30
0.0
 11
192.2194357366771
 21
337.1872912459978
 31
0.0
  0
LINE
  5
8F2
330
A
100
AcDbEntity
  8
06
100
AcDbLine
 10
191.2194357366771
 20
331.9872912459978
 30
0.0
 11
198.2194357366768
 21
331.9872912459978
 31
0.0
  0
LINE
  5
8F3
330
A
100
AcDbEntity
  8
06
100
AcDbLine
 10
197.7194357366768
 20
339.9872912459978
 30
0.0
 11
188.219435736677
 21
339.9872912459978
 31
0.0
  0
LINE
  5
8F4
330
A
100
AcDbEntity
  8
06
100
AcDbLine
 10
198.7194357366768
 20
332.4872912459978
 30
0.0
 11
198.7194357366771
 21
333.4872912459978
 31
0.0
  0
LINE
  5
8F5
330
A
100
AcDbEntity
  8
06
100
AcDbLine
 10
178.7194357366771
 20
337.9872912459978
 30
0.0
 11
178.7194357366771
 21
339.9872912459978
 31
0.0
  0
LINE
  5
8F6
330
A
100
AcDbEntity
  8
06
100
AcDbLine
 10
181.219435736677
 20
337.9872912459976
 30
0.0
 11
178.7194357366771
 21
337.9872912459978
 31
0.0
  0
LINE
  5
8F7
330
A
100
AcDbEntity
  8
06
100
AcDbLine
 10
181.7194357366771
 20
333.9872912459978
 30
0.0
 11
181.7194357366771
 21
337.4872912459975
 31
0.0
  0
LINE
  5
8F8
330
A
100
AcDbEntity
  8
06
100
AcDbLine
 10
177.7194357366771
 20
333.4872912459978
 30
0.0
 11
181.219435736677
 21
333.4872912459978
 31
0.0
  0
LINE
  5
8F9
330
A
100
AcDbEntity
  8
06
100
AcDbLine
 10
185.219435736677
 20
336.4872912459978
 30
0.0
 11
184.219435736677
 21
336.4872912459978
 31
0.0
  0
LINE
  5
8FA
330
A
100
AcDbEntity
  8
06
100
AcDbLine
 10
184.219435736677
 20
337.1872912459978
 30
0.0
 11
188.219435736677
 21
337.1872912459978
 31
0.0
  0
LINE
  5
8FB
330
A
100
AcDbEntity
  8
06
100
AcDbLine
 10
184.219435736677
 20
336.4872912459978
 30
0.0
 11
184.219435736677
 21
337.1872912459978
 31
0.0
  0
LINE
  5
8FC
330
A
100
AcDbEntity
  8
06
100
AcDbLine
 10
185.219435736677
 20
331.9872912459978
 30
0.0
 11
178.2194357366773
 21
331.9872912459978
 31
0.0
  0
LINE
  5
8FD
330
A
100
AcDbEntity
  8
06
100
AcDbLine
 10
178.7194357366774
 20
339.9872912459978
 30
0.0
 11
188.219435736677
 21
339.9872912459978
 31
0.0
  0
LINE
  5
8FE
330
A
100
AcDbEntity
  8
06
100
AcDbLine
 10
177.7194357366773
 20
332.4872912459978
 30
0.0
 11
177.7194357366771
 21
333.4872912459978
 31
0.0
  0
LINE
  5
92B
330
A
100
AcDbEntity
  8
SAISEN
100
AcDbLine
 10
213.3543435543562
 20
108.0947523252128
 30
0.0
 11
192.714469264984
 21
128.7346266145849
 31
0.0
  0
LINE
  5
92C
330
A
100
AcDbEntity
  8
SAISEN
100
AcDbLine
 10
188.4718285778649
 20
124.4919859274654
 30
0.0
 11
210.5136895603636
 21
102.4501249449667
 31
0.0
  0
LINE
  5
92D
330
A
100
AcDbEntity
  8
SAISEN
100
AcDbLine
 10
187.4246117015055
 20
129.7818434909441
 30
0.0
 11
215.6754526282996
 21
101.53100256415
 31
0.0
  0
LINE
  5
92F
330
A
100
AcDbEntity
  8
CHUSIN
100
AcDbLine
 10
82.1692820110924
 20
81.89430434802625
 30
0.0
 11
97.16928201109242
 21
81.89430434802625
 31
0.0
  0
LINE
  5
930
330
A
100
AcDbEntity
  8
CHUSIN
100
AcDbLine
 10
287.1692820110924
 20
81.89430434802625
 30
0.0
 11
307.1692820110923
 21
81.89430434802625
 31
0.0
  0
LINE
  5
931
330
A
100
AcDbEntity
  8
CHUSIN
100
AcDbLine
 10
199.2194357366772
 20
428.4872912459978
 30
0.0
 11
179.2194357366771
 21
428.4872912459978
 31
0.0
  0
LINE
  5
936
330
A
100
AcDbEntity
  8
CHUSIN
100
AcDbLine
 10
188.219435736677
 20
318.5610178977156
 30
0.0
 11
188.2194357366773
 21
558.8844470257081
 31
0.0
  0
LINE
  5
937
330
A
100
AcDbEntity
  8
CHUSIN
 48
0.5
100
AcDbLine
 10
294.7692820110924
 20
160.9933925431685
 30
0.0
 11
294.7692820110924
 21
152.2820329959339
 31
0.0
  0
LINE
  5
938
330
A
100
AcDbEntity
  8
CHUSIN
 48
0.5
100
AcDbLine
 10
287.8379197363713
 20
157.094304348026
 30
0.0
 11
299.3974098911323
 21
157.094304348026
 31
0.0
  0
LINE
  5
93B
330
A
100
AcDbEntity
  8
CHUSIN
100
AcDbLine
 10
329.0144230769231
 20
377.8779120296738
 30
0.0
 11
329.0144230769231
 21
482.568671632079
 31
0.0
  0
LINE
  5
93E
330
A
100
AcDbEntity
  8
CHUSIN
100
AcDbLine
 10
65.15273423894118
 20
249.019525936888
 30
0.0
 11
364.4030674369802
 21
249.019525936888
 31
0.0
  0
LINE
  5
959
330
A
100
AcDbEntity
  8
06
100
AcDbLine
 10
178.7292027367018
 20
337.9872912459978
 30
0.0
 11
178.7194357366771
 21
337.9970582460226
 31
0.0
  0
LINE
  5
975
330
A
100
AcDbEntity
  8
06
100
AcDbLine
 10
319.524190076948
 20
435.6525420824552
 30
0.0
 11
319.5144230769231
 21
435.66230908248
 31
0.0
  0
LINE
  5
991
330
A
100
AcDbEntity
  8
06
100
AcDbLine
 10
178.7292027367022
 20
544.5847632668203
 30
0.0
 11
178.7194357366774
 21
544.5749962667955
 31
0.0
  0
LINE
  5
9AD
330
A
100
AcDbEntity
  8
06
100
AcDbLine
 10
319.524190076948
 20
421.6525420824551
 30
0.0
 11
319.5144230769231
 21
421.6427750824305
 31
0.0
  0
POLYLINE
  5
AE9
330
A
100
AcDbEntity
  8
DEFPOINTS
100
AcDb2dPolyline
 66
     1
 10
0.0
 20
0.0
 30
0.0
 70
     1
  0
VERTEX
  5
1447
330
AE9
100
AcDbEntity
  8
DEFPOINTS
100
AcDbVertex
100
AcDb2dVertex
 10
0.0
 20
0.0
 30
0.0
  0
VERTEX
  5
1448
330
AE9
100
AcDbEntity
  8
DEFPOINTS
100
AcDbVertex
100
AcDb2dVertex
 10
420.0
 20
0.0
 30
0.0
  0
VERTEX
  5
1449
330
AE9
100
AcDbEntity
  8
DEFPOINTS
100
AcDbVertex
100
AcDb2dVertex
 10
420.0
 20
594.0
 30
0.0
  0
VERTEX
  5
144A
330
AE9
100
AcDbEntity
  8
DEFPOINTS
100
AcDbVertex
100
AcDb2dVertex
 10
0.0
 20
594.0
 30
0.0
  0
SEQEND
  5
144B
330
AE9
100
AcDbEntity
  8
DEFPOINTS
  0
DIMENSION
  5
B06
330
A
100
AcDbEntity
  8
SUNPOU
100
AcDbDimension
  2
*D1
 10
215.2529430195603
 20
549.0847632668203
 30
0.0
 11
210.7529430195604
 21
536.5847632668203
 31
0.0
 70
    32
  3
SUNPOU_2
100
AcDbAlignedDimension
 13
204.2194357366773
 23
524.0847632668203
 33
0.0
 14
204.2194357366773
 24
549.0847632668203
 34
0.0
 50
90.0
100
AcDbRotatedDimension
  0
DIMENSION
  5
B13
330
A
100
AcDbEntity
  8
SUNPOU
100
AcDbDimension
  2
*D2
 10
215.2529430195603
 20
554.0847632668203
 30
0.0
 11
210.7529430195604
 21
551.5847632668203
 31
0.0
 70
    32
  3
SUNPOU_2
100
AcDbAlignedDimension
 13
204.2194357366773
 23
549.0847632668203
 33
0.0
 14
191.2194357366773
 24
554.0847632668203
 34
0.0
 50
90.0
100
AcDbRotatedDimension
  0
DIMENSION
  5
B22
330
A
100
AcDbEntity
  8
SUNPOU
100
AcDbDimension
  2
*D3
 10
204.2194357366772
 20
377.1787744505616
 30
0.0
 11
192.894150275024
 21
381.6787744505615
 31
0.0
 70
   160
  3
SUNPOU_2
100
AcDbAlignedDimension
 13
172.2194357366771
 23
358.4872912459978
 33
0.0
 14
204.2194357366772
 24
358.4872912459978
 34
0.0
100
AcDbRotatedDimension
  0
DIMENSION
  5
B59
330
A
100
AcDbEntity
  8
SUNPOU
100
AcDbDimension
  2
*D4
 10
215.2529430195603
 20
333.4872912459978
 30
0.0
 11
210.7529430195604
 21
330.9872912459979
 31
0.0
 70
    32
  3
SUNPOU_2
100
AcDbAlignedDimension
 13
191.219435736677
 23
328.4872912459978
 33
0.0
 14
204.2194357366772
 24
333.4872912459978
 34
0.0
 50
90.0
100
AcDbRotatedDimension
  0
DIMENSION
  5
B68
330
A
100
AcDbEntity
  8
SUNPOU
100
AcDbDimension
  2
*D5
 10
215.2529430195603
 20
358.4872912459978
 30
0.0
 11
210.7529430195604
 21
345.9872912459978
 31
0.0
 70
    32
  3
SUNPOU_2
100
AcDbAlignedDimension
 13
204.2194357366772
 23
333.4872912459978
 33
0.0
 14
204.2194357366772
 24
358.4872912459978
 34
0.0
 50
90.0
100
AcDbRotatedDimension
  0
DIMENSION
  5
B75
330
A
100
AcDbEntity
  8
SUNPOU
100
AcDbDimension
  2
*D6
 10
227.4274366652238
 20
428.4872912459978
 30
0.0
 11
222.9274366652237
 21
380.9872912459978
 31
0.0
 70
    32
  3
SUNPOU_2
100
AcDbAlignedDimension
 13
204.2194357366772
 23
333.4872912459978
 33
0.0
 14
199.2194357366772
 24
428.4872912459978
 34
0.0
 50
90.0
100
AcDbRotatedDimension
  0
DIMENSION
  5
B82
330
A
100
AcDbEntity
  8
SUNPOU
100
AcDbDimension
  2
*D7
 10
240.0703387523595
 20
549.0847632668203
 30
0.0
 11
235.5703387523595
 21
441.2860272564091
 31
0.0
 70
    32
  1
DW
  3
SUNPOU_2
100
AcDbAlignedDimension
 13
204.2194357366772
 23
333.4872912459978
 33
0.0
 14
204.2194357366773
 24
549.0847632668203
 34
0.0
 50
90.0
100
AcDbRotatedDimension
  0
DIMENSION
  5
B8F
330
A
100
AcDbEntity
  8
SUNPOU
100
AcDbDimension
  2
*D8
 10
252.1322165051965
 20
554.0847632668203
 30
0.0
 11
247.6322165051966
 21
441.2860272564091
 31
0.0
 70
    32
  1
W
  3
SUNPOU_2
100
AcDbAlignedDimension
 13
191.219435736677
 23
328.4872912459978
 33
0.0
 14
238.219435736677
 24
554.0847632668203
 34
0.0
 50
90.0
100
AcDbRotatedDimension
  0
DIMENSION
  5
BAE
330
A
100
AcDbEntity
  8
SUNPOU
100
AcDbDimension
  2
*D9
 10
357.2850812407679
 20
426.1525420824552
 30
0.0
 11
352.7850812407679
 21
413.6525420824552
 31
0.0
 70
    32
  3
SUNPOU_2
100
AcDbAlignedDimension
 13
345.0144230769232
 23
401.1525420824552
 33
0.0
 14
345.0144230769232
 24
426.1525420824552
 34
0.0
 50
90.0
100
AcDbRotatedDimension
  0
DIMENSION
  5
BBB
330
A
100
AcDbEntity
  8
SUNPOU
100
AcDbDimension
  2
*D10
 10
357.2850812407679
 20
431.1525420824552
 30
0.0
 11
352.7850812407679
 21
428.6525420824553
 31
0.0
 70
    32
  3
SUNPOU_2
100
AcDbAlignedDimension
 13
345.0144230769232
 23
426.1525420824552
 33
0.0
 14
345.0144230769232
 24
431.1525420824552
 34
0.0
 50
90.0
100
AcDbRotatedDimension
  0
DIMENSION
  5
BCA
330
A
100
AcDbEntity
  8
SUNPOU
100
AcDbDimension
  2
*D11
 10
357.2850812407679
 20
456.1525420824552
 30
0.0
 11
352.7850812407679
 21
443.6525420824552
 31
0.0
 70
    32
  3
SUNPOU_2
100
AcDbAlignedDimension
 13
345.0144230769232
 23
431.1525420824552
 33
0.0
 14
345.0144230769232
 24
456.1525420824552
 34
0.0
 50
90.0
100
AcDbRotatedDimension
  0
DIMENSION
  5
BD7
330
A
100
AcDbEntity
  8
SUNPOU
100
AcDbDimension
  2
*D12
 10
170.351192874088
 20
257.0195259368882
 30
0.0
 11
165.8511928740878
 21
249.019525936888
 31
0.0
 70
    32
  3
SUNPOU_2
100
AcDbAlignedDimension
 13
158.7692820110923
 23
241.019525936888
 33
0.0
 14
158.7692820110929
 24
257.0195259368882
 34
0.0
 50
90.0
100
AcDbRotatedDimension
  0
DIMENSION
  5
BE4
330
A
100
AcDbEntity
  8
SUNPOU
100
AcDbDimension
  2
*D13
 10
182.3511928740878
 20
263.5195259368882
 30
0.0
 11
177.8511928740879
 21
249.0195259368883
 31
0.0
 70
    32
  3
SUNPOU_2
100
AcDbAlignedDimension
 13
158.0192820110924
 23
234.519525936888
 33
0.0
 14
158.0192820110924
 24
263.5195259368882
 34
0.0
 50
90.0
100
AcDbRotatedDimension
  0
DIMENSION
  5
BF1
330
A
100
AcDbEntity
  8
SUNPOU
100
AcDbDimension
  2
*D14
 10
194.3511928740879
 20
265.0195259368882
 30
0.0
 11
189.8511928740878
 21
249.0195259368883
 31
0.0
 70
    32
  3
SUNPOU_2
100
AcDbAlignedDimension
 13
194.3511928740879
 23
233.0195259368883
 33
0.0
 14
194.3511928740879
 24
265.0195259368882
 34
0.0
 50
90.0
100
AcDbRotatedDimension
  0
DIMENSION
  5
BFE
330
A
100
AcDbEntity
  8
SUNPOU
100
AcDbDimension
  2
*D15
 10
158.7692820110924
 20
292.3559822747415
 30
0.0
 11
116.2692820110924
 21
287.8559822747415
 31
0.0
 70
   160
 53
180.0
  3
SUNPOU_2
100
AcDbAlignedDimension
 13
73.7692820110924
 23
265.0195259368882
 33
0.0
 14
158.7692820110924
 24
262.7695259368882
 34
0.0
100
AcDbRotatedDimension
  0
DIMENSION
  5
C0B
330
A
100
AcDbEntity
  8
SUNPOU
100
AcDbDimension
  2
*D16
 10
351.3452435495536
 20
292.3559822747415
 30
0.0
 11
308.849563590429
 21
287.8559822747415
 31
0.0
 70
   160
 53
180.0
  3
SUNPOU_2
100
AcDbAlignedDimension
 13
266.3538836313043
 23
262.8830401281314
 33
0.0
 14
351.3452435495536
 24
265.0195259368882
 34
0.0
100
AcDbRotatedDimension
  0
DIMENSION
  5
C18
330
A
100
AcDbEntity
  8
SUNPOU
100
AcDbDimension
  2
*D17
 10
73.7692820110924
 20
305.1802067946823
 30
0.0
 11
63.15669412347779
 21
300.6802067946823
 31
0.0
 70
   160
 53
180.0
  3
SUNPOU_2
100
AcDbAlignedDimension
 13
70.7692820110924
 23
263.9195259368883
 33
0.0
 14
73.7692820110924
 24
265.0195259368882
 34
0.0
100
AcDbRotatedDimension
  0
DIMENSION
  5
C27
330
A
100
AcDbEntity
  8
SUNPOU
100
AcDbDimension
  2
*D18
 10
351.3452435495536
 20
305.1802067946823
 30
0.0
 11
212.5572627803228
 21
300.6802067946823
 31
0.0
 70
   160
  1
DH
 53
180.0
  3
SUNPOU_2
100
AcDbAlignedDimension
 13
73.7692820110924
 23
265.0195259368882
 33
0.0
 14
351.3452435495536
 24
265.0195259368882
 34
0.0
100
AcDbRotatedDimension
  0
DIMENSION
  5
C34
330
A
100
AcDbEntity
  8
SUNPOU
100
AcDbDimension
  2
*D19
 10
361.3452435495537
 20
305.1802067946823
 30
0.0
 11
356.3452435495536
 21
300.6802067946823
 31
0.0
 70
   160
 53
180.0
  3
SUNPOU_2
100
AcDbAlignedDimension
 13
351.3452435495536
 23
265.0195259368882
 33
0.0
 14
361.3452435495537
 24
284.0195259368882
 34
0.0
100
AcDbRotatedDimension
  0
DIMENSION
  5
C75
330
A
100
AcDbEntity
  8
SUNPOU
100
AcDbDimension
  2
*D20
 10
83.76928201109242
 20
178.7423054438676
 30
0.0
 11
75.74563675526859
 21
174.2423054438676
 31
0.0
 70
   160
 53
180.0
  3
SUNPOU_2
100
AcDbAlignedDimension
 13
83.46928201109241
 23
164.294304348026
 33
0.0
 14
83.76928201109242
 24
163.794304348026
 34
0.0
100
AcDbRotatedDimension
  0
DIMENSION
  5
C8F
330
A
100
AcDbEntity
  8
SUNPOU
100
AcDbDimension
  2
*D21
 10
297.1692820110923
 20
178.7423054438676
 30
0.0
 11
190.4692820110923
 21
174.2423054438676
 31
0.0
 70
   160
  1
DH
 53
180.0
  3
SUNPOU_2
100
AcDbAlignedDimension
 13
83.76928201109242
 23
163.794304348026
 33
0.0
 14
297.1692820110923
 24
163.794304348026
 34
0.0
100
AcDbRotatedDimension
  0
DIMENSION
  5
C9C
330
A
100
AcDbEntity
  8
SUNPOU
100
AcDbDimension
  2
*D22
 10
298.1692820110923
 20
178.7423054438676
 30
0.0
 11
305.9950124385304
 21
174.2423054438676
 31
0.0
 70
   160
 53
180.0
  3
SUNPOU_2_10
100
AcDbAlignedDimension
 13
297.1692820110923
 23
163.794304348026
 33
0.0
 14
298.1692820110923
 24
167.2943043480261
 34
0.0
100
AcDbRotatedDimension
  0
DIMENSION
  5
CD5
330
A
100
AcDbEntity
  8
SUNPOU
100
AcDbDimension
  2
*D23
 10
108.4519940915805
 20
81.89430434802625
 30
0.0
 11
103.9519940915805
 21
96.26692462131245
 31
0.0
 70
   160
  3
SUNPOU_2_10
100
AcDbAlignedDimension
 13
108.4519940915805
 23
71.89430434802625
 33
0.0
 14
97.16928201109242
 24
81.89430434802625
 34
0.0
 50
90.0
100
AcDbRotatedDimension
  0
DIMENSION
  5
CEF
330
A
100
AcDbEntity
  8
SUNPOU
100
AcDbDimension
  2
*D24
 10
325.7386550759303
 20
72.39430434802625
 30
0.0
 11
321.2386550759303
 21
64.27879631144015
 31
0.0
 70
   160
  3
SUNPOU_2_10
100
AcDbAlignedDimension
 13
298.1692820110923
 23
71.89430434802625
 33
0.0
 14
297.1692820110923
 24
72.39430434802625
 34
0.0
 50
90.0
100
AcDbRotatedDimension
  0
DIMENSION
  5
CFE
330
A
100
AcDbEntity
  8
SUNPOU
100
AcDbDimension
  2
*D25
 10
325.7386550759303
 20
163.794304348026
 30
0.0
 11
321.2386550759303
 21
118.0943043480263
 31
0.0
 70
    32
  1
DW
  3
SUNPOU_2_10
100
AcDbAlignedDimension
 13
297.1692820110923
 23
72.39430434802625
 33
0.0
 14
297.1692820110923
 24
163.794304348026
 34
0.0
 50
90.0
100
AcDbRotatedDimension
  0
DIMENSION
  5
D0B
330
A
100
AcDbEntity
  8
SUNPOU
100
AcDbDimension
  2
*D26
 10
325.7386550759303
 20
164.294304348026
 30
0.0
 11
321.2386550759303
 21
171.5964129076533
 31
0.0
 70
   160
  3
SUNPOU_2_10
100
AcDbAlignedDimension
 13
297.1692820110923
 23
163.794304348026
 33
0.0
 14
298.1692820110923
 24
164.294304348026
 34
0.0
 50
90.0
100
AcDbRotatedDimension
  0
DIMENSION
  5
D39
330
A
100
AcDbEntity
  8
SUNPOU
100
AcDbDimension
  2
*D27
 10
315.5332437847798
 20
81.89430434802625
 30
0.0
 11
311.0332437847798
 21
77.14430434802631
 31
0.0
 70
    32
  3
SUNPOU_2_10
100
AcDbAlignedDimension
 13
297.1692820110923
 23
72.39430434802625
 33
0.0
 14
307.1692820110923
 24
81.89430434802625
 34
0.0
 50
90.0
100
AcDbRotatedDimension
  0
MTEXT
  5
D4F
330
A
100
AcDbEntity
  8
MOJI
100
AcDbMText
 10
46.46928201109242
 20
190.2906158166649
 30
0.0
 40
6.0
 41
40.0
 71
     5
 72
     1
  1
たて断面図
  7
0_8
 11
0.0000000000000001
 21
1.0
 31
0.0
1001
ACAD
1000
MTEXTBEGIN
1070
    73
1070
     1
1070
    44
1040
1.0
1070
    74
1070
     0
1000
MTEXTEND
1000
MTEXTBEGIN
1070
    73
1070
     1
1070
    44
1040
1.0
1070
    74
1070
     0
1000
MTEXTEND
  0
POLYLINE
  5
D50
330
A
100
AcDbEntity
  8
SAISEN
100
AcDb2dPolyline
 66
     1
 10
0.0
 20
0.0
 30
0.0
 70
     1
  0
VERTEX
  5
144C
330
D50
100
AcDbEntity
  8
SAISEN
100
AcDbVertex
100
AcDb2dVertex
 10
41.46928201109242
 20
170.2906158166649
 30
0.0
  0
VERTEX
  5
144D
330
D50
100
AcDbEntity
  8
SAISEN
100
AcDbVertex
100
AcDb2dVertex
 10
51.46928201109242
 20
170.2906158166649
 30
0.0
  0
VERTEX
  5
144E
330
D50
100
AcDbEntity
  8
SAISEN
100
AcDbVertex
100
AcDb2dVertex
 10
51.46928201109242
 20
210.2906158166649
 30
0.0
  0
VERTEX
  5
144F
330
D50
100
AcDbEntity
  8
SAISEN
100
AcDbVertex
100
AcDb2dVertex
 10
41.46928201109242
 20
210.2906158166649
 30
0.0
  0
SEQEND
  5
1450
330
D50
100
AcDbEntity
  8
SAISEN
  0
LINE
  5
D69
330
A
100
AcDbEntity
  8
SAISEN
100
AcDbLine
 10
347.8803545051698
 20
158.0964727988558
 30
0.0
 11
377.8803545051699
 21
158.0964727988559
 31
0.0
  0
LINE
  5
D6A
330
A
100
AcDbEntity
  8
SAISEN
100
AcDbLine
 10
347.8803545051698
 20
103.7954209748892
 30
0.0
 11
377.8803545051699
 21
103.7954209748892
 31
0.0
  0
LINE
  5
D6B
330
A
100
AcDbEntity
  8
SAISEN
100
AcDbLine
 10
347.8803545051698
 20
63.79542097488922
 30
0.0
 11
377.8803545051699
 21
63.79542097488922
 31
0.0
  0
LINE
  5
D6C
330
A
100
AcDbEntity
  8
SAISEN
100
AcDbLine
 10
347.8803545051698
 20
63.79542097488922
 30
0.0
 11
347.8803545051698
 21
158.0964727988558
 31
0.0
  0
LINE
  5
D6D
330
A
100
AcDbEntity
  8
SAISEN
100
AcDbLine
 10
377.8803545051697
 20
158.0964727988558
 30
0.0
 11
377.8803545051697
 21
63.79542097488922
 31
0.0
  0
LINE
  5
D6E
330
A
100
AcDbEntity
  8
SAISEN
100
AcDbLine
 10
367.8803545051698
 20
63.79542097488922
 30
0.0
 11
367.8803545051698
 21
158.0964727988558
 31
0.0
  0
LINE
  5
D70
330
A
100
AcDbEntity
  8
SAISEN
100
AcDbLine
 10
357.8803545051698
 20
158.0964727988558
 30
0.0
 11
357.8803545051698
 21
63.79542097488922
 31
0.0
  0
MTEXT
  5
D71
330
A
100
AcDbEntity
  8
MOJI
100
AcDbMText
 10
352.8803545051697
 20
83.79542097488922
 30
0.0
 40
6.0
 41
40.0
 71
     5
 72
     1
  1
ガラス厚mm
  7
0_8
 11
0.0000000000000001
 21
1.0
 31
0.0
1001
ACAD
1000
MTEXTBEGIN
1070
    73
1070
     1
1070
    44
1040
1.0
1070
    74
1070
     0
1000
MTEXTEND
1000
MTEXTBEGIN
1070
    73
1070
     1
1070
    44
1040
1.0
1070
    74
1070
     0
1000
MTEXTEND
  0
MTEXT
  5
D73
330
A
100
AcDbEntity
  8
MOJI
100
AcDbMText
 10
362.8803545051697
 20
83.79542097488922
 30
0.0
 40
6.0
 41
40.0
 71
     5
 72
     1
  1
8
  7
0_8
 11
0.0000000000000001
 21
1.0
 31
0.0
1001
ACAD
1000
MTEXTBEGIN
1070
    73
1070
     1
1070
    44
1040
1.0
1070
    74
1070
     0
1000
MTEXTEND
1000
MTEXTBEGIN
1070
    73
1070
     1
1070
    44
1040
1.0
1070
    74
1070
     0
1000
MTEXTEND
  0
MTEXT
  5
D74
330
A
100
AcDbEntity
  8
MOJI
100
AcDbMText
 10
372.8803545051698
 20
83.79542097488922
 30
0.0
 40
6.0
 41
40.0
 71
     5
 72
     1
  1
10
  7
0_8
 11
0.0000000000000001
 21
1.0
 31
0.0
1001
ACAD
1000
MTEXTBEGIN
1070
    73
1070
     1
1070
    44
1040
1.0
1070
    74
1070
     0
1000
MTEXTEND
1000
MTEXTBEGIN
1070
    73
1070
     1
1070
    44
1040
1.0
1070
    74
1070
     0
1000
MTEXTEND
  0
LINE
  5
D75
330
A
100
AcDbEntity
  8
SAISEN
100
AcDbLine
 10
377.8803545051697
 20
63.79542097488922
 30
0.0
 11
377.8803545051697
 21
158.0964727988558
 31
0.0
  0
MTEXT
  5
D77
330
A
100
AcDbEntity
  8
MOJI
100
AcDbMText
 10
362.8803545051697
 20
130.9459468868723
 30
0.0
 40
6.0
 41
49.30105182396673
 71
     5
 72
     1
  1
1000×2500
  7
0_8
 11
0.0000000000000001
 21
1.0
 31
0.0
1001
ACAD
1000
MTEXTBEGIN
1070
    73
1070
     1
1070
    44
1040
1.0
1070
    74
1070
     0
1000
MTEXTEND
1000
MTEXTBEGIN
1070
    73
1070
     1
1070
    44
1040
1.0
1070
    74
1070
     0
1000
MTEXTEND
  0
MTEXT
  5
D78
330
A
100
AcDbEntity
  8
MOJI
100
AcDbMText
 10
372.8803545051698
 20
130.9459468868723
 30
0.0
 40
6.0
 41
49.30105182396673
 71
     5
 72
     1
  1
1200×2500
  7
0_8
 11
0.0000000000000001
 21
1.0
 31
0.0
1001
ACAD
1000
MTEXTBEGIN
1070
    73
1070
     1
1070
    44
1040
1.0
1070
    74
1070
     0
1000
MTEXTEND
1000
MTEXTBEGIN
1070
    73
1070
     1
1070
    44
1040
1.0
1070
    74
1070
     0
1000
MTEXTEND
  0
MTEXT
  5
D79
330
A
100
AcDbEntity
  8
MOJI
100
AcDbMText
 10
352.8803545051697
 20
130.9459468868723
 30
0.0
 40
6.0
 41
49.3010518239667
 71
     5
 72
     1
  1
 DW×DH
  7
0_8
 11
0.0000000000000001
 21
1.0
 31
0.0
1001
ACAD
1000
MTEXTBEGIN
1070
    73
1070
     1
1070
    44
1040
1.0
1070
    74
1070
     0
1000
MTEXTEND
1000
MTEXTBEGIN
1070
    73
1070
     1
1070
    44
1040
1.0
1070
    74
1070
     0
1000
MTEXTEND
  0
MTEXT
  5
D7A
330
A
100
AcDbEntity
  8
MOJI
100
AcDbMText
 10
342.8803545051698
 20
110.9459468868725
 30
0.0
 40
6.0
 41
89.30105182396667
 71
     5
 72
     1
  1
最大寸法mm
  7
0_8
 11
0.0000000000000001
 21
1.0
 31
0.0
1001
ACAD
1000
MTEXTBEGIN
1070
    73
1070
     1
1070
    44
1040
1.0
1070
    74
1070
     0
1000
MTEXTEND
1000
MTEXTBEGIN
1070
    73
1070
     1
1070
    44
1040
1.0
1070
    74
1070
     0
1000
MTEXTEND
  0
POLYLINE
  5
D82
330
A
100
AcDbEntity
  8
SAISEN
100
AcDb2dPolyline
 66
     1
 10
0.0
 20
0.0
 30
0.0
 70
     1
  0
VERTEX
  5
1451
330
D82
100
AcDbEntity
  8
SAISEN
100
AcDbVertex
100
AcDb2dVertex
 10
366.1176377626363
 20
393.9706996855901
 30
0.0
  0
VERTEX
  5
1452
330
D82
100
AcDbEntity
  8
SAISEN
100
AcDbVertex
100
AcDb2dVertex
 10
376.1176377626363
 20
393.9706996855901
 30
0.0
  0
VERTEX
  5
1453
330
D82
100
AcDbEntity
  8
SAISEN
100
AcDbVertex
100
AcDb2dVertex
 10
376.1176377626363
 20
433.9706996855904
 30
0.0
  0
VERTEX
  5
1454
330
D82
100
AcDbEntity
  8
SAISEN
100
AcDbVertex
100
AcDb2dVertex
 10
366.1176377626363
 20
433.9706996855904
 30
0.0
  0
SEQEND
  5
1455
330
D82
100
AcDbEntity
  8
SAISEN
  0
MTEXT
  5
D83
330
A
100
AcDbEntity
  8
MOJI
100
AcDbMText
 10
371.1176377626363
 20
413.9706996855903
 30
0.0
 40
6.0
 41
40.0
 71
     5
 72
     1
  1
両開き戸先部
  7
0_8
 11
0.0000000000000001
 21
1.0
 31
0.0
1001
ACAD
1000
MTEXTBEGIN
1070
    73
1070
     1
1070
    44
1040
1.0
1070
    74
1070
     0
1000
MTEXTEND
1000
MTEXTBEGIN
1070
    73
1070
     1
1070
    44
1040
1.0
1070
    74
1070
     0
1000
MTEXTEND
  0
TEXT
  5
D8A
330
A
100
AcDbEntity
  8
MOJI
100
AcDbText
 10
386.8753387280394
 20
401.1760101266379
 30
0.0
 40
6.0
  1
両開きドア合わせ部詳細
 50
90.0
 41
0.8
 11
383.8753387280394
 21
401.1760101266379
 31
0.0
100
AcDbText
 73
     2
  0
LINE
  5
D8B
330
A
100
AcDbEntity
  8
SAISEN
100
AcDbLine
 10
389.4753387280396
 20
395.1292233347596
 30
0.0
 11
389.4753387280394
 21
470.6493447349314
 31
0.0
  0
LEADER
  5
D9E
330
A
100
AcDbEntity
  8
HIKIDASI
100
AcDbLeader
  3
SUNPOU_2
 73
     0
 74
     0
 75
     1
 40
5.0
 41
12.79999999999999
 76
     3
 10
179.2194357366771
 20
428.4872912459978
 30
0.0
 10
159.475337200665
 20
439.7696293861077
 30
0.0
 10
159.475337200665
 20
444.7696293861077
 30
0.0
340
D9F
211
0.0000000000000001
221
1.0
231
0.0
1001
ACAD
1000
DSTYLE
1002
{
1070
     5
1000
OPEN30
1070
    77
1070
     1
1070
   147
1040
1.0
1070
   341
1005
43
1070
   342
1005
43
1002
}
1000
LEANOF
1010
0.0
1020
0.0
1030
0.0
1000
LEANOF
1010
0.0
1020
0.0
1030
0.0
1000
LEANOF
1010
0.0
1020
0.0
1030
0.0
  0
MTEXT
  5
D9F
330
A
100
AcDbEntity
  8
HIKIDASI
100
AcDbMText
 10
157.4753372006649
 20
446.7696293861076
 30
0.0
 40
5.0
 41
0.0
 71
     7
 72
     1
  1
吊り芯
  7
SUNPOU
 11
0.0000000000000001
 21
1.0
 31
0.0
1001
ACAD
1000
MTEXTBEGIN
1070
    73
1070
     1
1070
    44
1040
1.0
1070
    74
1070
     0
1000
MTEXTEND
1000
MTEXTBEGIN
1070
    73
1070
     1
1070
    44
1040
1.0
1070
    74
1070
     0
1000
MTEXTEND
  0
LEADER
  5
DA2
330
A
100
AcDbEntity
  8
HIKIDASI
100
AcDbLeader
  3
SUNPOU_2
 73
     0
 74
     0
 75
     1
 40
5.0
 41
68.6666666666667
 76
     3
 10
271.8220132358063
 20
352.9007072814288
 30
0.0
 10
288.4503657262277
 20
362.4038596600714
 30
0.0
 10
288.4503657262277
 20
367.4038596600714
 30
0.0
340
DA3
211
0.0000000000000001
221
1.0
231
0.0
1001
ACAD
1000
DSTYLE
1002
{
1070
     5
1000
OPEN30
1070
    77
1070
     1
1070
   147
1040
1.0
1070
   342
1005
43
1002
}
1000
LEANOF
1010
0.0
1020
0.0
1030
0.0
1000
LEANOF
1010
0.0
1020
0.0
1030
0.0
1000
LEANOF
1010
0.0
1020
0.0
1030
0.0
  0
MTEXT
  5
DA3
330
A
100
AcDbEntity
  8
HIKIDASI
100
AcDbMText
 10
286.4503657262277
 20
369.4038596600714
 30
0.0
 40
5.0
 41
0.0
 71
     7
 72
     1
  1
フロアプレート（SUS-304）
  7
SUNPOU
 11
0.0000000000000001
 21
1.0
 31
0.0
1001
ACAD
1000
MTEXTBEGIN
1070
    73
1070
     1
1070
    44
1040
1.0
1070
    74
1070
     0
1000
MTEXTEND
1000
MTEXTBEGIN
1070
    73
1070
     1
1070
    44
1040
1.0
1070
    74
1070
     0
1000
MTEXTEND
  0
TEXT
  5
DB1
330
A
100
AcDbEntity
  8
MOJI
100
AcDbText
 10
292.7986648656436
 20
188.0310165493719
 30
0.0
 40
5.0
  1
Ｆ.Ｌ
 50
90.0
 41
0.8
  7
0_8
 11
290.2986648656436
 21
188.0310165493719
 31
0.0
100
AcDbText
 73
     2
  0
MTEXT
  5
DB8
330
A
100
AcDbEntity
  8
MOJI
100
AcDbMText
 10
62.03084560907154
 20
395.9872912459978
 30
0.0
 40
6.0
 41
60.0
 71
     5
 72
     1
  1
フロアヒンジ芯寸法
  7
SUNPOU
 11
0.0000000000000001
 21
1.0
 31
0.0
1001
ACAD
1000
MTEXTBEGIN
1070
    73
1070
     1
1070
    44
1040
1.0
1070
    74
1070
     0
1000
MTEXTEND
1000
MTEXTBEGIN
1070
    73
1070
     1
1070
    44
1040
1.0
1070
    74
1070
     0
1000
MTEXTEND
  0
POLYLINE
  5
DB9
330
A
100
AcDbEntity
  8
SAISEN
100
AcDb2dPolyline
 66
     1
 10
0.0
 20
0.0
 30
0.0
 70
     1
  0
VERTEX
  5
1456
330
DB9
100
AcDbEntity
  8
SAISEN
100
AcDbVertex
100
AcDb2dVertex
 10
57.03084560907154
 20
365.9872912459978
 30
0.0
  0
VERTEX
  5
1457
330
DB9
100
AcDbEntity
  8
SAISEN
100
AcDbVertex
100
AcDb2dVertex
 10
67.03084560907154
 20
365.9872912459978
 30
0.0
  0
VERTEX
  5
1458
330
DB9
100
AcDbEntity
  8
SAISEN
100
AcDbVertex
100
AcDb2dVertex
 10
67.03084560907154
 20
425.9872912459978
 30
0.0
  0
VERTEX
  5
1459
330
DB9
100
AcDbEntity
  8
SAISEN
100
AcDbVertex
100
AcDb2dVertex
 10
57.03084560907161
 20
425.9872912459978
 30
0.0
  0
SEQEND
  5
145A
330
DB9
100
AcDbEntity
  8
SAISEN
  0
POLYLINE
  5
DBE
330
A
100
AcDbEntity
  8
SAISEN
100
AcDb2dPolyline
 66
     1
 10
0.0
 20
0.0
 30
0.0
 70
     1
  0
VERTEX
  5
145B
330
DBE
100
AcDbEntity
  8
SAISEN
100
AcDbVertex
100
AcDb2dVertex
 10
30.95184638109307
 20
88.09430434802626
 30
0.0
  0
VERTEX
  5
145C
330
DBE
100
AcDbEntity
  8
SAISEN
100
AcDbVertex
100
AcDb2dVertex
 10
40.95184638109308
 20
88.09430434802626
 30
0.0
  0
VERTEX
  5
145D
330
DBE
100
AcDbEntity
  8
SAISEN
100
AcDbVertex
100
AcDb2dVertex
 10
40.95184638109308
 20
148.094304348026
 30
0.0
  0
VERTEX
  5
145E
330
DBE
100
AcDbEntity
  8
SAISEN
100
AcDbVertex
100
AcDb2dVertex
 10
30.95184638109314
 20
148.094304348026
 30
0.0
  0
SEQEND
  5
145F
330
DBE
100
AcDbEntity
  8
SAISEN
  0
MTEXT
  5
DBF
330
A
100
AcDbEntity
  8
MOJI
100
AcDbMText
 10
35.95184638109307
 20
118.094304348026
 30
0.0
 40
6.0
 41
60.0
 71
     5
 72
     1
  1
姿図 S＝1/10
  7
SUNPOU
 11
0.0000000000000001
 21
1.0
 31
0.0
1001
ACAD
1000
MTEXTBEGIN
1070
    73
1070
     1
1070
    44
1040
1.0
1070
    74
1070
     0
1000
MTEXTEND
1000
MTEXTBEGIN
1070
    73
1070
     1
1070
    44
1040
1.0
1070
    74
1070
     0
1000
MTEXTEND
  0
LINE
  5
FCD
330
A
100
AcDbEntity
  8
04
100
AcDbLine
 10
181.2194357366773
 20
547.5847632668203
 30
0.0
 11
181.2194357366773
 21
549.0847632668203
 31
0.0
  0
LINE
  5
FCE
330
A
100
AcDbEntity
  8
04
100
AcDbLine
 10
195.2194357366773
 20
547.5847632668203
 30
0.0
 11
195.2194357366774
 21
549.0847632668203
 31
0.0
  0
LINE
  5
1008
330
A
100
AcDbEntity
  8
04
100
AcDbLine
 10
181.219435736677
 20
334.9872912459979
 30
0.0
 11
181.219435736677
 21
333.4872912459978
 31
0.0
  0
LINE
  5
1009
330
A
100
AcDbEntity
  8
04
100
AcDbLine
 10
195.2194357366771
 20
334.9872912459979
 30
0.0
 11
195.2194357366771
 21
333.4872912459978
 31
0.0
  0
LINE
  5
10D4
330
A
100
AcDbEntity
  8
04
100
AcDbLine
 10
336.0144230769231
 20
424.6525420824553
 30
0.0
 11
336.0144230769231
 21
426.1525420824552
 31
0.0
  0
LINE
  5
1200
330
A
100
AcDbEntity
  8
04
100
AcDbLine
 10
158.7692820110923
 20
257.0195259368882
 30
0.0
 11
130.2692820110924
 21
257.0195259368882
 31
0.0
  0
LINE
  5
1201
330
A
100
AcDbEntity
  8
04
100
AcDbLine
 10
130.2692820110924
 20
257.0195259368882
 30
0.0
 11
130.2692820110922
 21
241.0195259368883
 31
0.0
  0
LINE
  5
1202
330
A
100
AcDbEntity
  8
04
100
AcDbLine
 10
130.2692820110922
 20
241.0195259368883
 30
0.0
 11
158.7692820110923
 21
241.0195259368883
 31
0.0
  0
LINE
  5
1203
330
A
100
AcDbEntity
  8
04
100
AcDbLine
 10
266.3452435495538
 20
257.0195259368882
 30
0.0
 11
294.8452435495537
 21
257.0195259368882
 31
0.0
  0
LINE
  5
1204
330
A
100
AcDbEntity
  8
04
100
AcDbLine
 10
294.8452435495537
 20
257.0195259368882
 30
0.0
 11
294.8452435495537
 21
241.0195259368883
 31
0.0
  0
LINE
  5
1205
330
A
100
AcDbEntity
  8
04
100
AcDbLine
 10
294.8452435495537
 20
241.0195259368883
 30
0.0
 11
266.3452435495538
 21
241.0195259368883
 31
0.0
  0
LINE
  5
127E
330
A
100
AcDbEntity
  8
04
100
AcDbLine
 10
183.2194357366773
 20
525.5847632668205
 30
0.0
 11
183.2194357366773
 21
524.0847632668205
 31
0.0
  0
LINE
  5
127F
330
A
100
AcDbEntity
  8
04
100
AcDbLine
 10
193.2194357366773
 20
525.5847632668205
 30
0.0
 11
193.2194357366773
 21
524.0847632668205
 31
0.0
  0
LINE
  5
1280
330
A
100
AcDbEntity
  8
04
100
AcDbLine
 10
183.219435736677
 20
356.9872912459978
 30
0.0
 11
183.219435736677
 21
358.4872912459978
 31
0.0
  0
LINE
  5
1281
330
A
100
AcDbEntity
  8
04
100
AcDbLine
 10
193.219435736677
 20
356.9872912459978
 30
0.0
 11
193.219435736677
 21
358.4872912459978
 31
0.0
  0
LINE
  5
1282
330
A
100
AcDbEntity
  8
04
100
AcDbLine
 10
324.0144230769231
 20
454.6525420824552
 30
0.0
 11
324.0144230769228
 21
456.1525420824552
 31
0.0
  0
LINE
  5
1284
330
A
100
AcDbEntity
  8
04
100
AcDbLine
 10
334.0144230769231
 20
454.6525420824552
 30
0.0
 11
334.0144230769231
 21
456.1525420824552
 31
0.0
  0
LINE
  5
1285
330
A
100
AcDbEntity
  8
04
100
AcDbLine
 10
324.0144230769231
 20
402.6525420824553
 30
0.0
 11
324.0144230769231
 21
401.1525420824552
 31
0.0
  0
LINE
  5
1286
330
A
100
AcDbEntity
  8
04
100
AcDbLine
 10
334.0144230769231
 20
402.6525420824553
 30
0.0
 11
334.0144230769231
 21
401.1525420824552
 31
0.0
  0
CIRCLE
  5
12E1
330
A
100
AcDbEntity
  8
SAISEN
100
AcDbCircle
 10
391.0976380784321
 20
52.54302641223159
 30
0.0
 40
5.0
  0
TEXT
  5
12E2
330
A
100
AcDbEntity
  8
MOJI
100
AcDbText
 10
388.0488190392161
 20
48.27151320611588
 30
0.0
 40
8.0
  1
Ｓ
 41
0.8
  7
0_8
 11
388.0488190392161
 21
56.27151320611588
 31
0.0
100
AcDbText
 73
     3
  0
MTEXT
  5
13A7
330
A
100
AcDbEntity
  8
MOJI
100
AcDbMText
 10
309.9999999999996
 20
31.5
 30
0.0
 40
7.0
 41
50.0
 71
     5
 72
     1
  1
図番２０－３
  7
0_80
1001
ACAD
1000
MTEXTBEGIN
1070
    73
1070
     1
1070
    44
1040
1.0
1070
    74
1070
     0
1000
MTEXTEND
1000
MTEXTBEGIN
1070
    73
1070
     1
1070
    44
1040
1.0
1070
    74
1070
     0
1000
MTEXTEND
  0
LINE
  5
13A8
330
A
100
AcDbEntity
  8
SAISEN
100
AcDbLine
 10
285.0
 20
44.0
 30
0.0
 11
285.0
 21
20.0
 31
0.0
  0
LINE
  5
13A9
330
A
100
AcDbEntity
  8
SAISEN
100
AcDbLine
 10
144.9999999999999
 20
44.0
 30
0.0
 11
144.9999999999999
 21
20.0
 31
0.0
  0
MTEXT
  5
13AA
330
A
100
AcDbEntity
  8
MOJI
100
AcDbMText
 10
185.0
 20
32.0
 30
0.0
 40
7.0
 41
80.0
 71
     5
 72
     1
  1
スイングドア
  7
0_8
1001
ACAD
1000
MTEXTBEGIN
1070
    73
1070
     1
1070
    44
1040
1.0
1070
    74
1070
     0
1000
MTEXTEND
1000
MTEXTBEGIN
1070
    73
1070
     1
1070
    44
1040
1.0
1070
    74
1070
     0
1000
MTEXTEND
  0
MTEXT
  5
13AB
330
A
100
AcDbEntity
  8
MOJI
100
AcDbMText
 10
90.0
 20
32.0
 30
0.0
 40
7.0
 41
110.0
 71
     5
 72
     1
  1
スリムセナージ･ドアI型
  7
0_8
1001
ACAD
1000
MTEXTBEGIN
1070
    73
1070
     1
1070
    44
1040
1.0
1070
    74
1070
     0
1000
MTEXTEND
1000
MTEXTBEGIN
1070
    73
1070
     1
1070
    44
1040
1.0
1070
    74
1070
     0
1000
MTEXTEND
  0
POLYLINE
  5
13AC
330
A
100
AcDbEntity
  8
SAISEN
100
AcDb2dPolyline
 66
     1
 10
0.0
 20
0.0
 30
0.0
 70
     1
  0
VERTEX
  5
1460
330
13AC
100
AcDbEntity
  8
SAISEN
100
AcDbVertex
100
AcDb2dVertex
 10
35.0
 20
20.0
 30
0.0
  0
VERTEX
  5
1461
330
13AC
100
AcDbEntity
  8
SAISEN
100
AcDbVertex
100
AcDb2dVertex
 10
385.0
 20
20.0
 30
0.0
  0
VERTEX
  5
1462
330
13AC
100
AcDbEntity
  8
SAISEN
100
AcDbVertex
100
AcDb2dVertex
 10
385.0
 20
44.0
 30
0.0
  0
VERTEX
  5
1463
330
13AC
100
AcDbEntity
  8
SAISEN
100
AcDbVertex
100
AcDb2dVertex
 10
35.0
 20
44.0
 30
0.0
  0
SEQEND
  5
1464
330
13AC
100
AcDbEntity
  8
SAISEN
  0
MTEXT
  5
1432
330
A
100
AcDbEntity
  8
MOJI
100
AcDbMText
 10
359.9999999999998
 20
31.99999999999953
 30
0.0
 40
6.0
 41
49.99999999999993
 71
     5
 72
     1
  1
姿図･たて断面図\Pよこ断面図　 　
  7
0_80
1001
ACAD
1000
MTEXTBEGIN
1070
    73
1070
     1
1070
    44
1040
1.0
1070
    74
1070
     0
1000
MTEXTEND
1000
MTEXTBEGIN
1070
    73
1070
     1
1070
    44
1040
1.0
1070
    74
1070
     0
1000
MTEXTEND
  0
VIEWPORT
  5
DC5
102
{ACAD_XDICTIONARY
360
1437
102
}
330
B
100
AcDbEntity
 67
     1
  8
0
100
AcDbViewport
 10
198.0525171166178
 20
285.1810789426748
 30
0.0
 40
1080.24767614315
 41
628.2954051513671
 68
     1
 69
     1
1001
ACAD
1000
MVIEW
1002
{
1070
    16
1010
0.0
1020
0.0
1030
0.0
1010
0.0
1020
0.0
1030
1.0
1040
0.0
1040
628.2954051513671
1040
198.0525171166178
1040
285.1810789426748
1040
50.0
1040
0.0
1040
0.0
1070
     0
1070
   100
1070
     1
1070
     1
1070
     0
1070
     0
1070
     0
1070
     0
1040
0.0
1040
0.0
1040
0.0
1040
10.0
1040
10.0
1040
10.0
1040
10.0
1070
     0
1002
{
1002
}
1002
}
  0
VIEWPORT
  5
13C5
102
{ACAD_XDICTIONARY
360
1439
102
}
330
B
100
AcDbEntity
 67
     1
  8
DEFPOINTS
100
AcDbViewport
 10
198.0525180702922
 20
285.1810779890006
 30
0.0
 40
396.4516582489013
 41
570.3569965362548
 68
     2
 69
     2
1001
ACAD
1000
MVIEW
1002
{
1070
    16
1010
0.0
1020
0.0
1030
0.0
1010
0.0
1020
0.0
1030
1.0
1040
0.0
1040
570.3569965362548
1040
210.0
1040
297.0
1040
50.0
1040
0.0
1040
0.0
1070
     0
1070
   100
1070
     1
1070
     1
1070
     0
1070
     0
1070
     0
1070
     0
1040
0.0
1040
0.0
1040
0.0
1040
1.0
1040
1.0
1040
0.0
1040
0.0
1070
     0
1002
{
1002
}
1002
}
  0
ENDSEC
  0
SECTION
  2
OBJECTS
  0
DICTIONARY
  5
19
330
0
100
AcDbDictionary
  3
ACAD_COLOR
350
4EC
  3
ACAD_GROUP
350
1A
  3
ACAD_LAYOUT
350
4ED
  3
ACAD_MATERIAL
350
4EB
  3
ACAD_MLINESTYLE
350
1B
  3
ACAD_PLOTSETTINGS
350
4EE
  3
ACADDIM
350
D9C
  3
ASE_INDEX_DICTIONARY
350
1416
1001
ACAD
1000
TREAT_AS_HARD
1070
     0
1000
TREAT_AS_HARD
1070
     0
1000
TREAT_AS_HARD
1070
     0
  0
DICTIONARY
  5
1398
330
2
100
AcDbDictionary
  3
ACAD_LAYERSTATES
350
1399
1001
ACAD
1000
TREAT_AS_HARD
1070
     1
1000
TREAT_AS_HARD
1070
     1
  0
DICTIONARY
  5
1365
330
A
100
AcDbDictionary
  3
ACAD_LAYOUTSELFREF
350
1445
1001
ACAD
1000
TREAT_AS_HARD
1070
     1
1000
TREAT_AS_HARD
1070
     1
  0
DICTIONARY
  5
1367
330
B
100
AcDbDictionary
  3
ACAD_LAYOUTSELFREF
350
1446
1001
ACAD
1000
TREAT_AS_HARD
1070
     1
1000
TREAT_AS_HARD
1070
     1
  0
DICTIONARY
  5
1437
330
DC5
100
AcDbDictionary
  3
ACAD_XREC_ROUNDTRIP
350
1438
1001
ACAD
1000
TREAT_AS_HARD
1070
     1
  0
DICTIONARY
  5
1439
330
13C5
100
AcDbDictionary
  3
ACAD_XREC_ROUNDTRIP
350
143A
1001
ACAD
1000
TREAT_AS_HARD
1070
     1
  0
DICTIONARY
  5
4EC
102
{ACAD_REACTORS
330
19
102
}
330
19
100
AcDbDictionary
1001
ACAD
1000
TREAT_AS_HARD
1070
     0
1000
TREAT_AS_HARD
1070
     0
1000
TREAT_AS_HARD
1070
     0
  0
DICTIONARY
  5
1A
102
{ACAD_REACTORS
330
19
102
}
330
19
100
AcDbDictionary
1001
ACAD
1000
TREAT_AS_HARD
1070
     0
1000
TREAT_AS_HARD
1070
     0
1000
TREAT_AS_HARD
1070
     0
  0
DICTIONARY
  5
4ED
102
{ACAD_REACTORS
330
19
102
}
330
19
100
AcDbDictionary
1001
ACAD
1000
TREAT_AS_HARD
1070
     0
1000
TREAT_AS_HARD
1070
     0
1000
TREAT_AS_HARD
1070
     0
  0
DICTIONARY
  5
4EB
102
{ACAD_REACTORS
330
19
102
}
330
19
100
AcDbDictionary
1001
ACAD
1000
TREAT_AS_HARD
1070
     0
1000
TREAT_AS_HARD
1070
     0
1000
TREAT_AS_HARD
1070
     0
  0
DICTIONARY
  5
1B
102
{ACAD_REACTORS
330
19
102
}
330
19
100
AcDbDictionary
  3
STANDARD
350
1C
1001
ACAD
1000
TREAT_AS_HARD
1070
     0
1000
TREAT_AS_HARD
1070
     0
1000
TREAT_AS_HARD
1070
     0
  0
DICTIONARY
  5
4EE
102
{ACAD_REACTORS
330
19
102
}
330
19
100
AcDbDictionary
1001
ACAD
1000
TREAT_AS_HARD
1070
     0
1000
TREAT_AS_HARD
1070
     0
1000
TREAT_AS_HARD
1070
     0
  0
XRECORD
  5
D9C
102
{ACAD_REACTORS
330
19
102
}
330
19
100
AcDbXrecord
 90
   990106
  3
OPEN30
 60
     0
 61
     0
 62
     1
 63
     3
 64
     1
 65
     0
 66
     0
 67
     3
 68
     1
 69
     0
 70
     0
 71
     0
 72
     0
 40
0.0
170
     2
340
DA3
  0
DICTIONARY
  5
1416
102
{ACAD_REACTORS
330
19
102
}
330
19
100
AcDbDictionary
  3
ASEBLOCKHIERARCHYINDEXRECORD
350
1417
1001
DCO15
1040
1508820625.687
1001
ACAD
1000
TREAT_AS_HARD
1070
     0
  0
DICTIONARY
  5
1399
102
{ACAD_REACTORS
330
1398
102
}
330
1398
100
AcDbDictionary
1001
ACAD
1000
TREAT_AS_HARD
1070
     0
1000
TREAT_AS_HARD
1070
     0
  0
XRECORD
  5
1445
102
{ACAD_REACTORS
330
1365
102
}
330
1365
100
AcDbXrecord
340
A
  0
XRECORD
  5
1446
102
{ACAD_REACTORS
330
1367
102
}
330
1367
100
AcDbXrecord
340
B
  0
XRECORD
  5
1438
102
{ACAD_REACTORS
330
1437
102
}
330
1437
100
AcDbXrecord
102
SHADEPLOT
 70
     0
  0
XRECORD
  5
143A
102
{ACAD_REACTORS
330
1439
102
}
330
1439
100
AcDbXrecord
102
SHADEPLOT
 70
     0
  0
MLINESTYLE
  5
1C
102
{ACAD_REACTORS
330
1B
102
}
330
1B
100
AcDbMlineStyle
  2
STANDARD
 70
     0
  3

 62
     0
 51
90.0
 52
90.0
 71
     2
 49
0.5
 62
   256
  6
BYLAYER
 49
-0.5
 62
   256
  6
BYLAYER
  0
XRECORD
  5
1417
102
{ACAD_REACTORS
330
1416
102
}
330
1416
100
AcDbXrecord
330
B0B
330
B0C
330
B1A
330
B1B
330
B47
330
B48
330
B60
330
B61
330
B6D
330
B6E
330
B7A
330
B7B
330
B9F
330
BA0
330
BA8
330
BA9
330
BB3
330
BB4
330
BC2
330
BC3
330
BCF
330
BD0
330
BDC
330
BDD
330
BE9
330
BEA
330
BF6
330
BF7
330
F1E
330
F1F
330
F31
330
F32
330
EF1
330
EF2
330
EDB
330
EDC
330
EE6
330
EE7
330
F50
330
F51
330
F45
330
F46
330
F3C
330
F3D
330
CEA
330
CEB
330
D34
330
D35
330
D28
330
D29
330
D20
330
D21
330
D40
330
D41
  0
ENDSEC
  0
EOF
