  0
SECTION
  2
HEADER
  9
$ACADVER
  1
AC1012
  9
$DWGCODEPAGE
  3
dos932
  9
$INSBASE
 10
0.0
 20
0.0
 30
0.0
  9
$EXTMIN
 10
-0.0064041928748111
 20
-0.0101898665566296
 30
-0.0000000000112498
  9
$EXTMAX
 10
420.0064100605656
 20
594.0044892171322
 30
0.0000000000002956
  9
$LIMMIN
 10
0.0
 20
0.0
  9
$LIMMAX
 10
420.0
 20
594.0
  9
$ORTHOMODE
 70
     0
  9
$REGENMODE
 70
     1
  9
$FILLMODE
 70
     1
  9
$QTEXTMODE
 70
     0
  9
$MIRRTEXT
 70
     1
  9
$DRAGMODE
 70
     2
  9
$LTSCALE
 40
0.3
  9
$OSMODE
 70
  3071
  9
$ATTMODE
 70
     1
  9
$TEXTSIZE
 40
6.0
  9
$TRACEWID
 40
0.05
  9
$TEXTSTYLE
  7
0_8
  9
$CLAYER
  8
DEFPOINTS
  9
$CELTYPE
  6
BYLAYER
  9
$CECOLOR
 62
   256
  9
$CELTSCALE
 40
2.0
  9
$DELOBJ
 70
     1
  9
$DISPSILH
 70
     0
  9
$DIMSCALE
 40
2.0
  9
$DIMASZ
 40
2.5
  9
$DIMEXO
 40
1.5
  9
$DIMDLI
 40
0.0
  9
$DIMRND
 40
0.0
  9
$DIMDLE
 40
0.0
  9
$DIMEXE
 40
1.0
  9
$DIMTP
 40
0.0
  9
$DIMTM
 40
0.0
  9
$DIMTXT
 40
2.5
  9
$DIMCEN
 40
0.0
  9
$DIMTSZ
 40
0.0
  9
$DIMTOL
 70
     0
  9
$DIMLIM
 70
     0
  9
$DIMTIH
 70
     0
  9
$DIMTOH
 70
     0
  9
$DIMSE1
 70
     0
  9
$DIMSE2
 70
     0
  9
$DIMTAD
 70
     1
  9
$DIMZIN
 70
     8
  9
$DIMBLK
  1
OPEN30
  9
$DIMASO
 70
     1
  9
$DIMSHO
 70
     1
  9
$DIMPOST
  1

  9
$DIMAPOST
  1

  9
$DIMALT
 70
     0
  9
$DIMALTD
 70
     2
  9
$DIMALTF
 40
25.4
  9
$DIMLFAC
 40
1.0
  9
$DIMTOFL
 70
     1
  9
$DIMTVP
 40
0.0
  9
$DIMTIX
 70
     1
  9
$DIMSOXD
 70
     0
  9
$DIMSAH
 70
     0
  9
$DIMBLK1
  1

  9
$DIMBLK2
  1

  9
$DIMSTYLE
  2
SUNPOU_2
  9
$DIMCLRD
 70
   256
  9
$DIMCLRE
 70
   256
  9
$DIMCLRT
 70
   256
  9
$DIMTFAC
 40
1.0
  9
$DIMGAP
 40
1.0
  9
$DIMJUST
 70
     0
  9
$DIMSD1
 70
     0
  9
$DIMSD2
 70
     0
  9
$DIMTOLJ
 70
     1
  9
$DIMTZIN
 70
     0
  9
$DIMALTZ
 70
     0
  9
$DIMALTTZ
 70
     0
  9
$DIMFIT
 70
     5
  9
$DIMUPT
 70
     0
  9
$DIMUNIT
 70
     2
  9
$DIMDEC
 70
     2
  9
$DIMTDEC
 70
     2
  9
$DIMALTU
 70
     2
  9
$DIMALTTD
 70
     2
  9
$DIMTXSTY
  7
SUNPOU
  9
$DIMAUNIT
 70
     0
  9
$LUNITS
 70
     2
  9
$LUPREC
 70
     4
  9
$SKETCHINC
 40
0.1
  9
$FILLETRAD
 40
0.0
  9
$AUNITS
 70
     0
  9
$AUPREC
 70
     0
  9
$MENU
  1
acad
  9
$ELEVATION
 40
0.0
  9
$PELEVATION
 40
0.0
  9
$THICKNESS
 40
0.0
  9
$LIMCHECK
 70
     0
  9
$BLIPMODE
 70
     0
  9
$CHAMFERA
 40
0.0
  9
$CHAMFERB
 40
0.0
  9
$CHAMFERC
 40
0.0
  9
$CHAMFERD
 40
0.0
  9
$SKPOLY
 70
     0
  9
$TDCREATE
 40
2444972.375000000
  9
$TDUPDATE
 40
2454040.417056122
  9
$TDINDWG
 40
0.5258564699
  9
$TDUSRTIMER
 40
0.5258564699
  9
$USRTIMER
 70
     1
  9
$ANGBASE
 50
0.0
  9
$ANGDIR
 70
     0
  9
$PDMODE
 70
     0
  9
$PDSIZE
 40
1.0
  9
$PLINEWID
 40
0.0
  9
$COORDS
 70
     0
  9
$SPLFRAME
 70
     0
  9
$SPLINETYPE
 70
     6
  9
$SPLINESEGS
 70
     8
  9
$ATTDIA
 70
     0
  9
$ATTREQ
 70
     1
  9
$HANDLING
 70
     1
  9
$HANDSEED
  5
19A0
  9
$SURFTAB1
 70
     6
  9
$SURFTAB2
 70
     6
  9
$SURFTYPE
 70
     6
  9
$SURFU
 70
     6
  9
$SURFV
 70
     6
  9
$UCSNAME
  2

  9
$UCSORG
 10
0.0
 20
0.0
 30
0.0
  9
$UCSXDIR
 10
1.0
 20
0.0
 30
0.0
  9
$UCSYDIR
 10
0.0
 20
1.0
 30
0.0
  9
$PUCSNAME
  2

  9
$PUCSORG
 10
0.0
 20
0.0
 30
0.0
  9
$PUCSXDIR
 10
1.0
 20
0.0
 30
0.0
  9
$PUCSYDIR
 10
0.0
 20
1.0
 30
0.0
  9
$USERI1
 70
     0
  9
$USERI2
 70
     0
  9
$USERI3
 70
     0
  9
$USERI4
 70
     0
  9
$USERI5
 70
     0
  9
$USERR1
 40
0.0
  9
$USERR2
 40
0.0
  9
$USERR3
 40
0.0
  9
$USERR4
 40
0.0
  9
$USERR5
 40
0.0
  9
$WORLDVIEW
 70
     1
  9
$SHADEDGE
 70
     3
  9
$SHADEDIF
 70
    70
  9
$TILEMODE
 70
     1
  9
$MAXACTVP
 70
    16
  9
$PINSBASE
 10
0.0
 20
0.0
 30
0.0
  9
$PLIMCHECK
 70
     0
  9
$PEXTMIN
 10
-4.969497134662901
 20
-4.851465797667287
 30
-0.0000000349181948
  9
$PEXTMAX
 10
401.071158998143
 20
575.226366034157
 30
0.0000000814935747
  9
$PLIMMIN
 10
-10.95518701497861
 20
-10.80844671881528
  9
$PLIMMAX
 10
408.9914682584589
 20
583.0435430272784
  9
$UNITMODE
 70
     0
  9
$VISRETAIN
 70
     0
  9
$PLINEGEN
 70
     1
  9
$PSLTSCALE
 70
     0
  9
$TREEDEPTH
 70
  3020
  9
$PICKSTYLE
 70
     1
  9
$CMLSTYLE
  2
STANDARD
  9
$CMLJUST
 70
     0
  9
$CMLSCALE
 40
1.0
  9
$SAVEIMAGES
 70
     1
  0
ENDSEC
  0
SECTION
  2
CLASSES
  0
CLASS
  1
LWPOLYLINE
  2
AcDbPolyline
  3
AutoCAD 2000
 90
    32768
280
     0
281
     1
  0
CLASS
  1
IMAGE
  2
AcDbRasterImage
  3
ISM
 90
    32895
280
     0
281
     1
  0
CLASS
  1
OLE2FRAME
  2
AcDbOle2Frame
  3
AutoCAD 2000
 90
    32768
280
     0
281
     1
  0
CLASS
  1
HATCH
  2
AcDbHatch
  3
AutoCAD 2000
 90
    32768
280
     0
281
     1
  0
CLASS
  1
DICTIONARYVAR
  2
AcDbDictionaryVar
  3
AutoCAD 2000
 90
    32768
280
     0
281
     0
  0
CLASS
  1
RASTERVARIABLES
  2
AcDbRasterVariables
  3
ISM
 90
    32768
280
     0
281
     0
  0
CLASS
  1
IMAGEDEF
  2
AcDbRasterImageDef
  3
ISM
 90
    32768
280
     0
281
     0
  0
CLASS
  1
IMAGEDEF_REACTOR
  2
AcDbRasterImageDefReactor
  3
ISM
 90
    32769
280
     0
281
     0
  0
CLASS
  1
IDBUFFER
  2
AcDbIdBuffer
  3
AutoCAD 2000
 90
    32768
280
     0
281
     0
  0
CLASS
  1
SPATIAL_FILTER
  2
AcDbSpatialFilter
  3
AutoCAD 2000
 90
    32768
280
     0
281
     0
  0
CLASS
  1
XRECORD
  2
AcDbXrecord
  3
AutoCAD 2000
 90
    32768
280
     0
281
     0
  0
CLASS
  1
SORTENTSTABLE
  2
AcDbSortentsTable
  3
AutoCAD 2000
 90
    32768
280
     0
281
     0
  0
CLASS
  1
LAYER_INDEX
  2
AcDbLayerIndex
  3
AutoCAD 2000
 90
    32768
280
     0
281
     0
  0
CLASS
  1
SPATIAL_INDEX
  2
AcDbSpatialIndex
  3
AutoCAD 2000
 90
    32768
280
     0
281
     0
  0
CLASS
  1
OBJECT_PTR
  2
CAseDLPNTableRecord
  3
ASE-LPNTableRecord
 90
    32769
280
     0
281
     0
  0
CLASS
  1
ACDBDICTIONARYWDFLT
  2
AcDbDictionaryWithDefault
  3
AutoCAD 2000
 90
    32768
280
     0
281
     0
  0
CLASS
  1
ACDBPLACEHOLDER
  2
AcDbPlaceHolder
  3
AutoCAD 2000
 90
    32768
280
     0
281
     0
  0
CLASS
  1
LAYOUT
  2
AcDbLayout
  3
AutoCAD 2000
 90
    32768
280
     0
281
     0
  0
CLASS
  1
LONG_TRANSACTION
  2
AcDbLongTransaction
  3
AutoCAD 2000
 90
    32768
280
     0
281
     0
  0
CLASS
  1
LWPOLYLINE
  2
AcDbPolyline
  3
AutoCAD 2000
 90
    32768
280
     0
281
     1
  0
CLASS
  1
HATCH
  2
AcDbHatch
  3
AutoCAD 2000
 90
    32768
280
     0
281
     1
  0
CLASS
  1
XRECORD
  2
AcDbXrecord
  3
AutoCAD 2000
 90
    32768
280
     0
281
     0
  0
CLASS
  1
LONG_TRANSACTION
  2
AcDbLongTransaction
  3
AutoCAD 2000
 90
    32768
280
     0
281
     0
  0
CLASS
  1
LWPOLYLINE
  2
AcDbPolyline
  3
AutoCAD 2000
 90
    32768
280
     0
281
     1
  0
CLASS
  1
HATCH
  2
AcDbHatch
  3
AutoCAD 2000
 90
    32768
280
     0
281
     1
  0
CLASS
  1
XRECORD
  2
AcDbXrecord
  3
AutoCAD 2000
 90
    32768
280
     0
281
     0
  0
CLASS
  1
LONG_TRANSACTION
  2
AcDbLongTransaction
  3
AutoCAD 2000
 90
    32768
280
     0
281
     0
  0
CLASS
  1
LWPOLYLINE
  2
AcDbPolyline
  3
AutoCAD 2000
 90
    32768
280
     0
281
     1
  0
CLASS
  1
HATCH
  2
AcDbHatch
  3
AutoCAD 2000
 90
    32768
280
     0
281
     1
  0
CLASS
  1
XRECORD
  2
AcDbXrecord
  3
AutoCAD 2000
 90
    32768
280
     0
281
     0
  0
ENDSEC
  0
SECTION
  2
TABLES
  0
TABLE
  2
VPORT
  5
7
330
0
100
AcDbSymbolTable
 70
     2
  0
VPORT
  5
1984
330
7
100
AcDbSymbolTableRecord
100
AcDbViewportTableRecord
  2
*ACTIVE
 70
     0
 10
0.0
 20
0.0
 11
1.0
 21
1.0
 12
210.0000029338453
 22
296.9971496752877
 13
0.0
 23
0.0
 14
1.0
 24
1.0
 15
0.0
 25
0.0
 16
0.0
 26
0.0
 36
1.0
 17
0.0
 27
0.0
 37
0.0
 40
598.3243381822403
 41
1.458837772397094
 42
50.0
 43
0.0
 44
0.0
 50
0.0
 51
0.0
 71
     0
 72
   100
 73
     1
 74
     1
 75
     0
 76
     0
 77
     0
 78
     0
  0
ENDTAB
  0
TABLE
  2
LTYPE
  5
4
330
0
100
AcDbSymbolTable
 70
     3
  0
LTYPE
  5
11
330
4
100
AcDbSymbolTableRecord
100
AcDbLinetypeTableRecord
  2
BYBLOCK
 70
     0
  3

 72
    65
 73
     0
 40
0.0
  0
LTYPE
  5
12
330
4
100
AcDbSymbolTableRecord
100
AcDbLinetypeTableRecord
  2
BYLAYER
 70
     0
  3

 72
    65
 73
     0
 40
0.0
  0
LTYPE
  5
13
330
4
100
AcDbSymbolTableRecord
100
AcDbLinetypeTableRecord
  2
CONTINUOUS
 70
     0
  3
Solid line
 72
    65
 73
     0
 40
0.0
  0
LTYPE
  5
675
330
4
100
AcDbSymbolTableRecord
100
AcDbLinetypeTableRecord
  2
CENTER2
 70
     0
  3
Center (.5x) ___ _ ___ _ ___ _ ___ _ ___ _ ___
 72
    65
 73
     4
 40
28.57499999999999
 49
19.05
 74
     0
 49
-3.174999999999998
 74
     0
 49
3.174999999999998
 74
     0
 49
-3.174999999999998
 74
     0
  0
LTYPE
  5
676
330
4
100
AcDbSymbolTableRecord
100
AcDbLinetypeTableRecord
  2
DASHED2
 70
     0
  3
Dashed (.5x) _ _ _ _ _ _ _ _ _ _ _ _ _ _ _ _ _
 72
    65
 73
     2
 40
9.524999999999996
 49
6.349999999999997
 74
     0
 49
-3.174999999999998
 74
     0
  0
ENDTAB
  0
TABLE
  2
LAYER
  5
2
102
{ACAD_XDICTIONARY
360
141D
102
}
330
0
100
AcDbSymbolTable
 70
    12
  0
LAYER
  5
14
330
2
100
AcDbSymbolTableRecord
100
AcDbLayerTableRecord
  2
0
 70
     0
 62
     7
  6
CONTINUOUS
  0
LAYER
  5
678
330
2
100
AcDbSymbolTableRecord
100
AcDbLayerTableRecord
  2
DEFPOINTS
 70
     0
 62
     7
  6
CONTINUOUS
  0
LAYER
  5
679
330
2
100
AcDbSymbolTableRecord
100
AcDbLayerTableRecord
  2
03
 70
     0
 62
     3
  6
CONTINUOUS
  0
LAYER
  5
67A
330
2
100
AcDbSymbolTableRecord
100
AcDbLayerTableRecord
  2
04
 70
     0
 62
     4
  6
CONTINUOUS
  0
LAYER
  5
67B
330
2
100
AcDbSymbolTableRecord
100
AcDbLayerTableRecord
  2
06
 70
     0
 62
     6
  6
CONTINUOUS
  0
LAYER
  5
67C
330
2
100
AcDbSymbolTableRecord
100
AcDbLayerTableRecord
  2
CHUSIN
 70
     0
 62
     6
  6
CENTER2
  0
LAYER
  5
67D
330
2
100
AcDbSymbolTableRecord
100
AcDbLayerTableRecord
  2
HIKIDASI
 70
     0
 62
     6
  6
CONTINUOUS
  0
LAYER
  5
67E
330
2
100
AcDbSymbolTableRecord
100
AcDbLayerTableRecord
  2
KAKURE
 70
     0
 62
     6
  6
DASHED2
  0
LAYER
  5
67F
330
2
100
AcDbSymbolTableRecord
100
AcDbLayerTableRecord
  2
MOJI
 70
     0
 62
     3
  6
CONTINUOUS
  0
LAYER
  5
681
330
2
100
AcDbSymbolTableRecord
100
AcDbLayerTableRecord
  2
SUNPOU
 70
     0
 62
     6
  6
CONTINUOUS
  0
LAYER
  5
682
330
2
100
AcDbSymbolTableRecord
100
AcDbLayerTableRecord
  2
SAISEN
 70
     0
 62
     3
  6
CONTINUOUS
  0
LAYER
  5
1386
330
2
100
AcDbSymbolTableRecord
100
AcDbLayerTableRecord
  2
02
 70
     0
 62
     2
  6
CONTINUOUS
  0
ENDTAB
  0
TABLE
  2
STYLE
  5
3
330
0
100
AcDbSymbolTable
 70
     3
  0
STYLE
  5
17
330
3
100
AcDbSymbolTableRecord
100
AcDbTextStyleTableRecord
  2
STANDARD
 70
     0
 40
0.0
 41
0.8
 50
0.0
 71
     0
 42
8.0
  3
txt.shx
  4
bigfont.shx
  0
STYLE
  5
687
330
3
100
AcDbSymbolTableRecord
100
AcDbTextStyleTableRecord
  2
0_8
 70
     0
 40
0.0
 41
0.8
 50
0.0
 71
     0
 42
6.0
  3
txt.shx
  4
extfont.shx
  0
STYLE
  5
68D
330
3
100
AcDbSymbolTableRecord
100
AcDbTextStyleTableRecord
  2
SUNPOU
 70
     0
 40
0.0
 41
0.8
 50
0.0
 71
     0
 42
3.5
  3
txt.shx
  4
extfont.shx
  0
ENDTAB
  0
TABLE
  2
VIEW
  5
5
330
0
100
AcDbSymbolTable
 70
     1
  0
VIEW
  5
135
330
5
100
AcDbSymbolTableRecord
100
AcDbViewTableRecord
  2
QQQQ
 70
     0
 40
560.4560000000015
 10
-1.390789932256409
 20
-5.399999999999295
 41
388.7204360107178
 11
0.0
 21
0.0
 31
1.0
 12
100.0
 22
100.0
 32
0.0
 42
50.0
 43
0.0
 44
0.0
 50
0.0
 71
     0
  0
ENDTAB
  0
TABLE
  2
UCS
  5
6
330
0
100
AcDbSymbolTable
 70
     0
  0
ENDTAB
  0
TABLE
  2
APPID
  5
8
330
0
100
AcDbSymbolTable
 70
     3
  0
APPID
  5
16
330
8
100
AcDbSymbolTableRecord
100
AcDbRegAppTableRecord
  2
ACAD
 70
     0
  0
APPID
  5
F29
330
8
100
AcDbSymbolTableRecord
100
AcDbRegAppTableRecord
  2
DCO15
 70
     0
  0
APPID
  5
13F3
330
8
100
AcDbSymbolTableRecord
100
AcDbRegAppTableRecord
  2
CONTENTBLOCKICON
 70
     0
  0
ENDTAB
  0
TABLE
  2
DIMSTYLE
  5
9
330
0
100
AcDbSymbolTable
 70
     3
  0
DIMSTYLE
105
18
330
9
100
AcDbSymbolTableRecord
100
AcDbDimStyleTableRecord
  2
STANDARD
 70
     0
  3

  4

  5

  6

  7

 40
1.0
 41
0.18
 42
0.0625
 43
0.38
 44
0.18
 45
0.0
 46
0.0
 47
0.0
 48
0.0
140
0.18
141
0.09
142
0.0
143
25.4
144
1.0
145
0.0
146
1.0
147
0.09
 71
     0
 72
     0
 73
     1
 74
     1
 75
     0
 76
     0
 77
     0
 78
     0
170
     0
171
     2
172
     0
173
     0
174
     0
175
     0
176
     0
177
     0
178
     0
270
     2
271
     4
272
     4
273
     2
274
     2
340
17
275
     0
280
     0
281
     0
282
     0
283
     1
284
     0
285
     0
286
     0
287
     3
288
     0
  0
DIMSTYLE
105
698
102
{ACAD_REACTORS
330
69F
330
6AE
330
6BB
330
6C8
330
6FD
330
70C
330
719
330
783
330
7DA
330
7E7
330
7F4
330
813
330
820
330
82D
330
83A
330
847
330
854
330
863
330
934
330
943
330
989
330
99F
330
9AC
330
9DB
330
A36
330
AE5
330
B21
102
}
330
9
100
AcDbSymbolTableRecord
100
AcDbDimStyleTableRecord
  2
SUNPOU_2
 70
     0
  3

  4

  5
OPEN30
  6

  7

 40
2.0
 41
2.5
 42
1.5
 43
0.0
 44
1.0
 45
0.0
 46
0.0
 47
0.0
 48
0.0
140
2.5
141
0.0
142
0.0
143
25.4
144
1.0
145
0.0
146
1.0
147
1.0
 71
     0
 72
     0
 73
     0
 74
     0
 75
     0
 76
     0
 77
     1
 78
     8
170
     0
171
     2
172
     1
173
     0
174
     1
175
     0
176
   256
177
   256
178
   256
270
     2
271
     2
272
     2
273
     2
274
     2
340
68D
275
     0
280
     0
281
     0
282
     0
283
     1
284
     0
285
     0
286
     0
287
     5
288
     0
  0
DIMSTYLE
105
A4D
102
{ACAD_REACTORS
330
7A6
330
7C0
330
790
330
A18
330
A27
102
}
330
9
100
AcDbSymbolTableRecord
100
AcDbDimStyleTableRecord
  2
SUNPOU_2_10
 70
     0
  3

  4

  5
OPEN30
  6

  7

 40
2.0
 41
2.5
 42
1.5
 43
0.0
 44
1.0
 45
0.0
 46
0.0
 47
0.0
 48
0.0
140
2.5
141
0.0
142
0.0
143
25.4
144
10.0
145
0.0
146
1.0
147
1.0
 71
     0
 72
     0
 73
     0
 74
     0
 75
     0
 76
     0
 77
     1
 78
     8
170
     0
171
     2
172
     1
173
     0
174
     1
175
     0
176
   256
177
   256
178
   256
270
     2
271
     2
272
     2
273
     2
274
     2
340
68D
275
     0
280
     0
281
     0
282
     0
283
     1
284
     0
285
     0
286
     0
287
     5
288
     0
  0
ENDTAB
  0
TABLE
  2
BLOCK_RECORD
  5
1
330
0
100
AcDbSymbolTable
 70
    33
  0
BLOCK_RECORD
  5
A
102
{ACAD_XDICTIONARY
360
13EF
102
}
330
1
100
AcDbSymbolTableRecord
100
AcDbBlockTableRecord
  2
*MODEL_SPACE
  0
BLOCK_RECORD
  5
B
102
{ACAD_XDICTIONARY
360
13F1
102
}
330
1
100
AcDbSymbolTableRecord
100
AcDbBlockTableRecord
  2
*PAPER_SPACE
  0
BLOCK_RECORD
  5
692
330
1
100
AcDbSymbolTableRecord
100
AcDbBlockTableRecord
  2
_OPEN30
1001
CONTENTBLOCKICON
1071
        0
1004
2800000020000000200000000100080000000000000400000000000000000000000000000000000000000000000080000080000000808000800000008000800080800000C0C0C000C0DCC000F0CAA6000020400000206000002080000020A0000020C0000020E00000400000004020000040400000406000004080000040A0
1004
000040C0000040E00000600000006020000060400000606000006080000060A0000060C0000060E00000800000008020000080400000806000008080000080A0000080C0000080E00000A0000000A0200000A0400000A0600000A0800000A0A00000A0C00000A0E00000C0000000C0200000C0400000C0600000C0800000C0
1004
A00000C0C00000C0E00000E0000000E0200000E0400000E0600000E0800000E0A00000E0C00000E0E00040000000400020004000400040006000400080004000A0004000C0004000E00040200000402020004020400040206000402080004020A0004020C0004020E000404000004040200040404000404060004040800040
1004
40A0004040C0004040E00040600000406020004060400040606000406080004060A0004060C0004060E00040800000408020004080400040806000408080004080A0004080C0004080E00040A0000040A0200040A0400040A0600040A0800040A0A00040A0C00040A0E00040C0000040C0200040C0400040C0600040C08000
1004
40C0A00040C0C00040C0E00040E0000040E0200040E0400040E0600040E0800040E0A00040E0C00040E0E00080000000800020008000400080006000800080008000A0008000C0008000E00080200000802020008020400080206000802080008020A0008020C0008020E00080400000804020008040400080406000804080
1004
008040A0008040C0008040E00080600000806020008060400080606000806080008060A0008060C0008060E00080800000808020008080400080806000808080008080A0008080C0008080E00080A0000080A0200080A0400080A0600080A0800080A0A00080A0C00080A0E00080C0000080C0200080C0400080C0600080C0
1004
800080C0A00080C0C00080C0E00080E0000080E0200080E0400080E0600080E0800080E0A00080E0C00080E0E000C0000000C0002000C0004000C0006000C0008000C000A000C000C000C000E000C0200000C0202000C0204000C0206000C0208000C020A000C020C000C020E000C0400000C0402000C0404000C0406000C0
1004
408000C040A000C040C000C040E000C0600000C0602000C0604000C0606000C0608000C060A000C060C000C060E000C0800000C0802000C0804000C0806000C0808000C080A000C080C000C080E000C0A00000C0A02000C0A04000C0A06000C0A08000C0A0A000C0A0C000C0A0E000C0C00000C0C02000C0C04000C0C06000
1004
C0C08000C0C0A000F0FBFF00A4A0A000808080000000FF0000FF000000FFFF00FF000000FF00FF00FFFF0000FFFFFF0000000000000000000000000000000000000000000000000000000000000000000000000000000000000000000000000000000000000000000000000000000000000000000000000000000000000000
1004
00000000000000000000000000000000000000000000000000000000000000000000000000000000000000000000000000000000000000000000000000000000000000000000000000000000000000000000000000000000000000000000000000000000000000000000000000000000000000000000000000000000000000
1004
000000000000000000000000000000000000000000000000000000000000000000000000000000000000000000000000000000FFFF0000000000000000000000000000000000000000000000000000000000000000FFFFFFFF0000000000000000000000000000000000000000000000000000000000000000FFFFFFFF0000
1004
000000000000000000000000000000000000000000000000000000000000FFFFFF0000000000000000000000000000000000000000000000000000000000000000FFFFFFFF0000000000000000000000000000000000000000000000000000000000000000FFFFFF0000000000000000000000000000000000000000000000
1004
000000000000000000FFFFFFFF0000000000000000000000000000000000000000000000000000000000000000FFFFFFFF00000000FFFFFFFFFFFFFFFFFFFFFFFFFFFFFFFFFFFFFFFFFFFFFFFFFFFFFFFFFFFF00000000000000000000000000000000000000000000000000FFFFFFFF000000000000000000000000000000
1004
000000000000000000FFFFFFFF000000000000000000000000000000000000000000000000FFFFFFFF000000000000000000000000000000000000000000000000FFFFFFFF000000000000000000000000000000000000000000000000FFFFFFFF000000000000000000000000000000000000000000000000FFFFFFFF0000
1004
0000000000000000000000000000000000000000000000FFFFFF0000000000000000000000000000000000000000000000000000000000000000000000000000000000000000000000000000000000000000000000000000000000000000000000000000000000000000000000000000000000000000000000000000000000
1004
00000000000000000000000000000000000000000000000000000000000000000000000000000000000000000000000000000000000000000000000000000000000000000000000000000000000000000000000000000000000000000000000000000000000000000000000000000000000000000000000000000000000000
1004
0000000000000000000000000000000000000000000000000000000000000000000000000000000000000000000000000000000000000000
  0
BLOCK_RECORD
  5
6A0
330
1
100
AcDbSymbolTableRecord
100
AcDbBlockTableRecord
  2
*D1
  0
BLOCK_RECORD
  5
6AF
330
1
100
AcDbSymbolTableRecord
100
AcDbBlockTableRecord
  2
*D2
  0
BLOCK_RECORD
  5
6BC
330
1
100
AcDbSymbolTableRecord
100
AcDbBlockTableRecord
  2
*D3
  0
BLOCK_RECORD
  5
6C9
330
1
100
AcDbSymbolTableRecord
100
AcDbBlockTableRecord
  2
*D4
  0
BLOCK_RECORD
  5
6FE
330
1
100
AcDbSymbolTableRecord
100
AcDbBlockTableRecord
  2
*D5
  0
BLOCK_RECORD
  5
70D
330
1
100
AcDbSymbolTableRecord
100
AcDbBlockTableRecord
  2
*D6
  0
BLOCK_RECORD
  5
71A
330
1
100
AcDbSymbolTableRecord
100
AcDbBlockTableRecord
  2
*D7
  0
BLOCK_RECORD
  5
784
330
1
100
AcDbSymbolTableRecord
100
AcDbBlockTableRecord
  2
*D8
  0
BLOCK_RECORD
  5
791
330
1
100
AcDbSymbolTableRecord
100
AcDbBlockTableRecord
  2
*D9
  0
BLOCK_RECORD
  5
7A7
330
1
100
AcDbSymbolTableRecord
100
AcDbBlockTableRecord
  2
*D10
  0
BLOCK_RECORD
  5
7C1
330
1
100
AcDbSymbolTableRecord
100
AcDbBlockTableRecord
  2
*D11
  0
BLOCK_RECORD
  5
7DB
330
1
100
AcDbSymbolTableRecord
100
AcDbBlockTableRecord
  2
*D12
  0
BLOCK_RECORD
  5
7E8
330
1
100
AcDbSymbolTableRecord
100
AcDbBlockTableRecord
  2
*D13
  0
BLOCK_RECORD
  5
7F5
330
1
100
AcDbSymbolTableRecord
100
AcDbBlockTableRecord
  2
*D14
  0
BLOCK_RECORD
  5
814
330
1
100
AcDbSymbolTableRecord
100
AcDbBlockTableRecord
  2
*D15
  0
BLOCK_RECORD
  5
821
330
1
100
AcDbSymbolTableRecord
100
AcDbBlockTableRecord
  2
*D16
  0
BLOCK_RECORD
  5
82E
330
1
100
AcDbSymbolTableRecord
100
AcDbBlockTableRecord
  2
*D17
  0
BLOCK_RECORD
  5
83B
330
1
100
AcDbSymbolTableRecord
100
AcDbBlockTableRecord
  2
*D18
  0
BLOCK_RECORD
  5
848
330
1
100
AcDbSymbolTableRecord
100
AcDbBlockTableRecord
  2
*D19
  0
BLOCK_RECORD
  5
855
330
1
100
AcDbSymbolTableRecord
100
AcDbBlockTableRecord
  2
*D20
  0
BLOCK_RECORD
  5
864
330
1
100
AcDbSymbolTableRecord
100
AcDbBlockTableRecord
  2
*D21
  0
BLOCK_RECORD
  5
935
330
1
100
AcDbSymbolTableRecord
100
AcDbBlockTableRecord
  2
*D22
  0
BLOCK_RECORD
  5
944
330
1
100
AcDbSymbolTableRecord
100
AcDbBlockTableRecord
  2
*D23
  0
BLOCK_RECORD
  5
98A
330
1
100
AcDbSymbolTableRecord
100
AcDbBlockTableRecord
  2
*D24
  0
BLOCK_RECORD
  5
9A0
330
1
100
AcDbSymbolTableRecord
100
AcDbBlockTableRecord
  2
*D25
  0
BLOCK_RECORD
  5
9AD
330
1
100
AcDbSymbolTableRecord
100
AcDbBlockTableRecord
  2
*D26
  0
BLOCK_RECORD
  5
9DC
330
1
100
AcDbSymbolTableRecord
100
AcDbBlockTableRecord
  2
*D27
  0
BLOCK_RECORD
  5
A19
330
1
100
AcDbSymbolTableRecord
100
AcDbBlockTableRecord
  2
*D28
  0
BLOCK_RECORD
  5
A28
330
1
100
AcDbSymbolTableRecord
100
AcDbBlockTableRecord
  2
*D29
  0
BLOCK_RECORD
  5
A37
330
1
100
AcDbSymbolTableRecord
100
AcDbBlockTableRecord
  2
*D30
  0
BLOCK_RECORD
  5
AE6
330
1
100
AcDbSymbolTableRecord
100
AcDbBlockTableRecord
  2
*D31
  0
BLOCK_RECORD
  5
B22
330
1
100
AcDbSymbolTableRecord
100
AcDbBlockTableRecord
  2
*D32
  0
ENDTAB
  0
ENDSEC
  0
SECTION
  2
BLOCKS
  0
BLOCK
  5
D
330
A
100
AcDbEntity
  8
0
100
AcDbBlockBegin
  2
*MODEL_SPACE
 70
     0
 10
0.0
 20
0.0
 30
0.0
  3
*MODEL_SPACE
  1

  0
ENDBLK
  5
E
330
A
100
AcDbEntity
  8
0
100
AcDbBlockEnd
  0
BLOCK
  5
F
330
B
100
AcDbEntity
 67
     1
  8
0
100
AcDbBlockBegin
  2
*PAPER_SPACE
 70
     0
 10
0.0
 20
0.0
 30
0.0
  3
*PAPER_SPACE
  1

  0
ENDBLK
  5
10
330
B
100
AcDbEntity
 67
     1
  8
0
100
AcDbBlockEnd
  0
BLOCK
  5
696
330
692
100
AcDbEntity
  8
0
100
AcDbBlockBegin
  2
_OPEN30
 70
     0
 10
0.0
 20
0.0
 30
0.0
  3
_OPEN30
  1

  0
LINE
  5
693
330
692
100
AcDbEntity
  8
0
  6
BYBLOCK
 62
     0
100
AcDbLine
 10
-1.0
 20
0.26794919
 30
0.0
 11
0.0
 21
0.0
 31
0.0
  0
LINE
  5
694
330
692
100
AcDbEntity
  8
0
  6
BYBLOCK
 62
     0
100
AcDbLine
 10
0.0
 20
0.0
 30
0.0
 11
-1.0
 21
-0.26794919
 31
0.0
  0
LINE
  5
695
330
692
100
AcDbEntity
  8
0
  6
BYBLOCK
 62
     0
100
AcDbLine
 10
0.0
 20
0.0
 30
0.0
 11
-1.0
 21
0.0
 31
0.0
  0
ENDBLK
  5
697
330
692
100
AcDbEntity
  8
0
100
AcDbBlockEnd
  0
BLOCK
  5
6AC
330
6A0
100
AcDbEntity
  8
0
100
AcDbBlockBegin
  2
*D1
 70
     1
 10
0.0
 20
0.0
 30
0.0
  3
*D1
  1

  0
LINE
  5
1891
330
6A0
100
AcDbEntity
  8
SUNPOU
 48
2.0
100
AcDbLine
 10
207.0956696787333
 20
448.4579080776223
 30
0.0
 11
244.8956696787333
 21
448.4579080776223
 31
0.0
  0
LINE
  5
1892
330
6A0
100
AcDbEntity
  8
SUNPOU
 48
2.0
100
AcDbLine
 10
222.0956696787334
 20
460.9579080776222
 30
0.0
 11
244.8956696787333
 21
460.9579080776222
 31
0.0
  0
LINE
  5
1893
330
6A0
100
AcDbEntity
  8
SUNPOU
 48
2.0
100
AcDbLine
 10
242.8956696787333
 20
443.4579080776223
 30
0.0
 11
242.8956696787333
 21
438.4579080776222
 31
0.0
  0
LINE
  5
1894
330
6A0
100
AcDbEntity
  8
SUNPOU
 48
2.0
100
AcDbLine
 10
242.8956696787334
 20
465.9579080776222
 30
0.0
 11
242.8956696787334
 21
470.9579080776221
 31
0.0
  0
MTEXT
  5
1895
330
6A0
100
AcDbEntity
  8
SUNPOU
 48
2.0
100
AcDbMText
 10
238.3956696787334
 20
431.124574744289
 30
0.0
 40
5.0
 41
0.0
 71
     5
 72
     1
  1
\A1;12.5
  7
SUNPOU
 11
0.0000000000000001
 21
1.0
 31
0.0
1001
ACAD
1000
MTEXTBEGIN
1070
    73
1070
     1
1070
    44
1040
1.0
1070
    74
1070
     0
1000
MTEXTEND
  0
LINE
  5
1896
330
6A0
100
AcDbEntity
  8
SUNPOU
 48
2.0
100
AcDbLine
 10
242.8956696787334
 20
448.4579080776223
 30
0.0
 11
242.8956696787334
 21
460.9579080776222
 31
0.0
  0
INSERT
  5
1897
330
6A0
100
AcDbEntity
  8
SUNPOU
 48
2.0
100
AcDbBlockReference
  2
_OPEN30
 10
242.8956696787334
 20
448.4579080776223
 30
0.0
 41
5.0
 42
5.0
 43
5.0
 50
90.0
  0
INSERT
  5
1898
330
6A0
100
AcDbEntity
  8
SUNPOU
 48
2.0
100
AcDbBlockReference
  2
_OPEN30
 10
242.8956696787334
 20
460.9579080776222
 30
0.0
 41
5.0
 42
5.0
 43
5.0
 50
270.0
  0
POINT
  5
1899
330
6A0
100
AcDbEntity
  8
DEFPOINTS
 62
     0
 48
2.0
100
AcDbPoint
 10
204.0956696787334
 20
448.4579080776223
 30
0.0
  0
POINT
  5
189A
330
6A0
100
AcDbEntity
  8
DEFPOINTS
 62
     0
 48
2.0
100
AcDbPoint
 10
219.0956696787333
 20
460.9579080776222
 30
0.0
  0
POINT
  5
189B
330
6A0
100
AcDbEntity
  8
DEFPOINTS
 62
     0
 48
2.0
100
AcDbPoint
 10
242.8956696787334
 20
460.9579080776222
 30
0.0
  0
ENDBLK
  5
6AD
330
6A0
100
AcDbEntity
  8
0
100
AcDbBlockEnd
  0
BLOCK
  5
6B9
330
6AF
100
AcDbEntity
  8
0
100
AcDbBlockBegin
  2
*D2
 70
     1
 10
0.0
 20
0.0
 30
0.0
  3
*D2
  1

  0
LINE
  5
175B
330
6AF
100
AcDbEntity
  8
SUNPOU
 48
2.0
100
AcDbLine
 10
222.0956696787334
 20
460.9579080776222
 30
0.0
 11
244.8956696787333
 21
460.9579080776222
 31
0.0
  0
LINE
  5
175C
330
6AF
100
AcDbEntity
  8
SUNPOU
 48
2.0
100
AcDbLine
 10
222.0956696787333
 20
477.9579080776222
 30
0.0
 11
244.8956696787333
 21
477.9579080776222
 31
0.0
  0
LINE
  5
175D
330
6AF
100
AcDbEntity
  8
SUNPOU
 48
2.0
100
AcDbLine
 10
242.8956696787334
 20
465.9579080776222
 30
0.0
 11
242.8956696787334
 21
472.9579080776222
 31
0.0
  0
INSERT
  5
175E
330
6AF
100
AcDbEntity
  8
SUNPOU
 48
2.0
100
AcDbBlockReference
  2
_OPEN30
 10
242.8956696787334
 20
460.9579080776222
 30
0.0
 41
5.0
 42
5.0
 43
5.0
 50
270.0
  0
INSERT
  5
175F
330
6AF
100
AcDbEntity
  8
SUNPOU
 48
2.0
100
AcDbBlockReference
  2
_OPEN30
 10
242.8956696787334
 20
477.9579080776222
 30
0.0
 41
5.0
 42
5.0
 43
5.0
 50
90.0
  0
MTEXT
  5
1760
330
6AF
100
AcDbEntity
  8
SUNPOU
 48
2.0
100
AcDbMText
 10
238.3956696787333
 20
469.4579080776223
 30
0.0
 40
5.0
 41
0.0
 71
     5
 72
     1
  1
\A1;17
  7
SUNPOU
 11
0.0000000000000001
 21
1.0
 31
0.0
1001
ACAD
1000
MTEXTBEGIN
1070
    73
1070
     1
1070
    44
1040
1.0
1070
    74
1070
     0
1000
MTEXTEND
  0
POINT
  5
1761
330
6AF
100
AcDbEntity
  8
DEFPOINTS
 62
     0
 48
2.0
100
AcDbPoint
 10
219.0956696787333
 20
460.9579080776222
 30
0.0
  0
POINT
  5
1762
330
6AF
100
AcDbEntity
  8
DEFPOINTS
 62
     0
 48
2.0
100
AcDbPoint
 10
219.0956696787333
 20
477.9579080776222
 30
0.0
  0
POINT
  5
1763
330
6AF
100
AcDbEntity
  8
DEFPOINTS
 62
     0
 48
2.0
100
AcDbPoint
 10
242.8956696787334
 20
477.9579080776222
 30
0.0
  0
ENDBLK
  5
6BA
330
6AF
100
AcDbEntity
  8
0
100
AcDbBlockEnd
  0
BLOCK
  5
6C6
330
6BC
100
AcDbEntity
  8
0
100
AcDbBlockBegin
  2
*D3
 70
     1
 10
0.0
 20
0.0
 30
0.0
  3
*D3
  1

  0
LINE
  5
1764
330
6BC
100
AcDbEntity
  8
SUNPOU
 48
2.0
100
AcDbLine
 10
222.0956696787333
 20
477.9579080776222
 30
0.0
 11
244.8956696787333
 21
477.9579080776222
 31
0.0
  0
LINE
  5
1765
330
6BC
100
AcDbEntity
  8
SUNPOU
 48
2.0
100
AcDbLine
 10
207.095669678733
 20
498.4579080776221
 30
0.0
 11
244.8956696787333
 21
498.4579080776221
 31
0.0
  0
LINE
  5
1766
330
6BC
100
AcDbEntity
  8
SUNPOU
 48
2.0
100
AcDbLine
 10
242.8956696787334
 20
482.9579080776221
 30
0.0
 11
242.8956696787334
 21
493.4579080776221
 31
0.0
  0
INSERT
  5
1767
330
6BC
100
AcDbEntity
  8
SUNPOU
 48
2.0
100
AcDbBlockReference
  2
_OPEN30
 10
242.8956696787334
 20
477.9579080776222
 30
0.0
 41
5.0
 42
5.0
 43
5.0
 50
270.0
  0
INSERT
  5
1768
330
6BC
100
AcDbEntity
  8
SUNPOU
 48
2.0
100
AcDbBlockReference
  2
_OPEN30
 10
242.8956696787334
 20
498.4579080776221
 30
0.0
 41
5.0
 42
5.0
 43
5.0
 50
90.0
  0
MTEXT
  5
1769
330
6BC
100
AcDbEntity
  8
SUNPOU
 48
2.0
100
AcDbMText
 10
238.3956696787333
 20
488.2079080776223
 30
0.0
 40
5.0
 41
0.0
 71
     5
 72
     1
  1
\A1;20.5
  7
SUNPOU
 11
0.0000000000000001
 21
1.0
 31
0.0
1001
ACAD
1000
MTEXTBEGIN
1070
    73
1070
     1
1070
    44
1040
1.0
1070
    74
1070
     0
1000
MTEXTEND
  0
POINT
  5
176A
330
6BC
100
AcDbEntity
  8
DEFPOINTS
 62
     0
 48
2.0
100
AcDbPoint
 10
219.0956696787333
 20
477.9579080776222
 30
0.0
  0
POINT
  5
176B
330
6BC
100
AcDbEntity
  8
DEFPOINTS
 62
     0
 48
2.0
100
AcDbPoint
 10
204.095669678733
 20
498.4579080776221
 30
0.0
  0
POINT
  5
176C
330
6BC
100
AcDbEntity
  8
DEFPOINTS
 62
     0
 48
2.0
100
AcDbPoint
 10
242.8956696787334
 20
498.4579080776221
 30
0.0
  0
ENDBLK
  5
6C7
330
6BC
100
AcDbEntity
  8
0
100
AcDbBlockEnd
  0
BLOCK
  5
6D3
330
6C9
100
AcDbEntity
  8
0
100
AcDbBlockBegin
  2
*D4
 70
     1
 10
0.0
 20
0.0
 30
0.0
  3
*D4
  1

  0
LINE
  5
176D
330
6C9
100
AcDbEntity
  8
SUNPOU
 48
2.0
100
AcDbLine
 10
207.0956696787334
 20
448.4579080776223
 30
0.0
 11
264.8956696787335
 21
448.4579080776223
 31
0.0
  0
LINE
  5
176E
330
6C9
100
AcDbEntity
  8
SUNPOU
 48
2.0
100
AcDbLine
 10
207.0956696787343
 20
498.4579080776221
 30
0.0
 11
264.8956696787335
 21
498.4579080776221
 31
0.0
  0
LINE
  5
176F
330
6C9
100
AcDbEntity
  8
SUNPOU
 48
2.0
100
AcDbLine
 10
262.8956696787335
 20
453.4579080776222
 30
0.0
 11
262.8956696787335
 21
493.4579080776221
 31
0.0
  0
INSERT
  5
1770
330
6C9
100
AcDbEntity
  8
SUNPOU
 48
2.0
100
AcDbBlockReference
  2
_OPEN30
 10
262.8956696787335
 20
448.4579080776223
 30
0.0
 41
5.0
 42
5.0
 43
5.0
 50
270.0
  0
INSERT
  5
1771
330
6C9
100
AcDbEntity
  8
SUNPOU
 48
2.0
100
AcDbBlockReference
  2
_OPEN30
 10
262.8956696787335
 20
498.4579080776221
 30
0.0
 41
5.0
 42
5.0
 43
5.0
 50
90.0
  0
MTEXT
  5
1772
330
6C9
100
AcDbEntity
  8
SUNPOU
 48
2.0
100
AcDbMText
 10
258.3956696787334
 20
473.4579080776223
 30
0.0
 40
5.0
 41
0.0
 71
     5
 72
     1
  1
\A1;50
  7
SUNPOU
 11
0.0000000000000001
 21
1.0
 31
0.0
1001
ACAD
1000
MTEXTBEGIN
1070
    73
1070
     1
1070
    44
1040
1.0
1070
    74
1070
     0
1000
MTEXTEND
  0
POINT
  5
1773
330
6C9
100
AcDbEntity
  8
DEFPOINTS
 62
     0
 48
2.0
100
AcDbPoint
 10
204.0956696787334
 20
448.4579080776223
 30
0.0
  0
POINT
  5
1774
330
6C9
100
AcDbEntity
  8
DEFPOINTS
 62
     0
 48
2.0
100
AcDbPoint
 10
204.0956696787342
 20
498.4579080776221
 30
0.0
  0
POINT
  5
1775
330
6C9
100
AcDbEntity
  8
DEFPOINTS
 62
     0
 48
2.0
100
AcDbPoint
 10
262.8956696787335
 20
498.4579080776221
 30
0.0
  0
ENDBLK
  5
6D4
330
6C9
100
AcDbEntity
  8
0
100
AcDbBlockEnd
  0
BLOCK
  5
70A
330
6FE
100
AcDbEntity
  8
0
100
AcDbBlockBegin
  2
*D5
 70
     1
 10
0.0
 20
0.0
 30
0.0
  3
*D5
  1

  0
LINE
  5
18E8
330
6FE
100
AcDbEntity
  8
SUNPOU
 48
2.0
100
AcDbLine
 10
265.2861635220115
 20
325.4471110588886
 30
0.0
 11
279.2861635220114
 21
325.4471110588886
 31
0.0
  0
LINE
  5
18E9
330
6FE
100
AcDbEntity
  8
SUNPOU
 48
2.0
100
AcDbLine
 10
263.7861635220114
 20
330.6971110588886
 30
0.0
 11
279.2861635220114
 21
330.6971110588886
 31
0.0
  0
LINE
  5
18EA
330
6FE
100
AcDbEntity
  8
SUNPOU
 48
2.0
100
AcDbLine
 10
277.2861635220114
 20
320.4471110588886
 30
0.0
 11
277.2861635220114
 21
315.4471110588886
 31
0.0
  0
LINE
  5
18EB
330
6FE
100
AcDbEntity
  8
SUNPOU
 48
2.0
100
AcDbLine
 10
277.2861635220114
 20
335.6971110588886
 30
0.0
 11
277.2861635220114
 21
340.6971110588886
 31
0.0
  0
MTEXT
  5
18EC
330
6FE
100
AcDbEntity
  8
SUNPOU
 48
2.0
100
AcDbMText
 10
272.7861635220114
 20
307.4471110588887
 30
0.0
 40
5.0
 41
0.0
 71
     5
 72
     1
  1
\A1;5.25
  7
SUNPOU
 11
0.0000000000000001
 21
1.0
 31
0.0
1001
ACAD
1000
MTEXTBEGIN
1070
    73
1070
     1
1070
    44
1040
1.0
1070
    74
1070
     0
1000
MTEXTEND
  0
LINE
  5
18ED
330
6FE
100
AcDbEntity
  8
SUNPOU
 48
2.0
100
AcDbLine
 10
277.2861635220114
 20
325.4471110588886
 30
0.0
 11
277.2861635220114
 21
330.6971110588886
 31
0.0
  0
INSERT
  5
18EE
330
6FE
100
AcDbEntity
  8
SUNPOU
 48
2.0
100
AcDbBlockReference
  2
_OPEN30
 10
277.2861635220114
 20
325.4471110588886
 30
0.0
 41
5.0
 42
5.0
 43
5.0
 50
90.0
  0
INSERT
  5
18EF
330
6FE
100
AcDbEntity
  8
SUNPOU
 48
2.0
100
AcDbBlockReference
  2
_OPEN30
 10
277.2861635220114
 20
330.6971110588886
 30
0.0
 41
5.0
 42
5.0
 43
5.0
 50
270.0
  0
POINT
  5
18F0
330
6FE
100
AcDbEntity
  8
DEFPOINTS
 62
     0
 48
2.0
100
AcDbPoint
 10
262.2861635220115
 20
325.4471110588886
 30
0.0
  0
POINT
  5
18F1
330
6FE
100
AcDbEntity
  8
DEFPOINTS
 62
     0
 48
2.0
100
AcDbPoint
 10
260.7861635220114
 20
330.6971110588886
 30
0.0
  0
POINT
  5
18F2
330
6FE
100
AcDbEntity
  8
DEFPOINTS
 62
     0
 48
2.0
100
AcDbPoint
 10
277.2861635220114
 20
330.6971110588886
 30
0.0
  0
ENDBLK
  5
70B
330
6FE
100
AcDbEntity
  8
0
100
AcDbBlockEnd
  0
BLOCK
  5
717
330
70D
100
AcDbEntity
  8
0
100
AcDbBlockBegin
  2
*D6
 70
     1
 10
0.0
 20
0.0
 30
0.0
  3
*D6
  1

  0
LINE
  5
1781
330
70D
100
AcDbEntity
  8
SUNPOU
 48
2.0
100
AcDbLine
 10
263.7861635220114
 20
330.6971110588886
 30
0.0
 11
279.2861635220114
 21
330.6971110588886
 31
0.0
  0
LINE
  5
1782
330
70D
100
AcDbEntity
  8
SUNPOU
 48
2.0
100
AcDbLine
 10
263.7861635220114
 20
352.1971110588886
 30
0.0
 11
279.2861635220114
 21
352.1971110588886
 31
0.0
  0
LINE
  5
1783
330
70D
100
AcDbEntity
  8
SUNPOU
 48
2.0
100
AcDbLine
 10
277.2861635220114
 20
335.6971110588886
 30
0.0
 11
277.2861635220114
 21
347.1971110588886
 31
0.0
  0
INSERT
  5
1784
330
70D
100
AcDbEntity
  8
SUNPOU
 48
2.0
100
AcDbBlockReference
  2
_OPEN30
 10
277.2861635220114
 20
330.6971110588886
 30
0.0
 41
5.0
 42
5.0
 43
5.0
 50
270.0
  0
INSERT
  5
1785
330
70D
100
AcDbEntity
  8
SUNPOU
 48
2.0
100
AcDbBlockReference
  2
_OPEN30
 10
277.2861635220114
 20
352.1971110588886
 30
0.0
 41
5.0
 42
5.0
 43
5.0
 50
90.0
  0
MTEXT
  5
1786
330
70D
100
AcDbEntity
  8
SUNPOU
 48
2.0
100
AcDbMText
 10
272.7861635220113
 20
341.4471110588887
 30
0.0
 40
5.0
 41
0.0
 71
     5
 72
     1
  1
\A1;21.5
  7
SUNPOU
 11
0.0000000000000001
 21
1.0
 31
0.0
1001
ACAD
1000
MTEXTBEGIN
1070
    73
1070
     1
1070
    44
1040
1.0
1070
    74
1070
     0
1000
MTEXTEND
  0
POINT
  5
1787
330
70D
100
AcDbEntity
  8
DEFPOINTS
 62
     0
 48
2.0
100
AcDbPoint
 10
260.7861635220114
 20
330.6971110588886
 30
0.0
  0
POINT
  5
1788
330
70D
100
AcDbEntity
  8
DEFPOINTS
 62
     0
 48
2.0
100
AcDbPoint
 10
260.7861635220114
 20
352.1971110588886
 30
0.0
  0
POINT
  5
1789
330
70D
100
AcDbEntity
  8
DEFPOINTS
 62
     0
 48
2.0
100
AcDbPoint
 10
277.2861635220114
 20
352.1971110588886
 30
0.0
  0
ENDBLK
  5
718
330
70D
100
AcDbEntity
  8
0
100
AcDbBlockEnd
  0
BLOCK
  5
726
330
71A
100
AcDbEntity
  8
0
100
AcDbBlockBegin
  2
*D7
 70
     1
 10
0.0
 20
0.0
 30
0.0
  3
*D7
  1

  0
LINE
  5
18DD
330
71A
100
AcDbEntity
  8
SUNPOU
 48
2.0
100
AcDbLine
 10
263.7861635220114
 20
352.1971110588886
 30
0.0
 11
279.2861635220114
 21
352.1971110588886
 31
0.0
  0
LINE
  5
18DE
330
71A
100
AcDbEntity
  8
SUNPOU
 48
2.0
100
AcDbLine
 10
265.2861635220111
 20
357.4471110588886
 30
0.0
 11
279.2861635220114
 21
357.4471110588886
 31
0.0
  0
LINE
  5
18DF
330
71A
100
AcDbEntity
  8
SUNPOU
 48
2.0
100
AcDbLine
 10
277.2861635220114
 20
347.1971110588886
 30
0.0
 11
277.2861635220114
 21
342.1971110588886
 31
0.0
  0
LINE
  5
18E0
330
71A
100
AcDbEntity
  8
SUNPOU
 48
2.0
100
AcDbLine
 10
277.2861635220114
 20
362.4471110588886
 30
0.0
 11
277.2861635220114
 21
367.4471110588886
 31
0.0
  0
MTEXT
  5
18E1
330
71A
100
AcDbEntity
  8
SUNPOU
 48
2.0
100
AcDbMText
 10
272.7861635220114
 20
375.4471110588887
 30
0.0
 40
5.0
 41
0.0
 71
     5
 72
     1
  1
\A1;5.25
  7
SUNPOU
 11
0.0000000000000001
 21
1.0
 31
0.0
1001
ACAD
1000
MTEXTBEGIN
1070
    73
1070
     1
1070
    44
1040
1.0
1070
    74
1070
     0
1000
MTEXTEND
  0
LINE
  5
18E2
330
71A
100
AcDbEntity
  8
SUNPOU
 48
2.0
100
AcDbLine
 10
277.2861635220114
 20
352.1971110588886
 30
0.0
 11
277.2861635220114
 21
357.4471110588886
 31
0.0
  0
INSERT
  5
18E3
330
71A
100
AcDbEntity
  8
SUNPOU
 48
2.0
100
AcDbBlockReference
  2
_OPEN30
 10
277.2861635220114
 20
352.1971110588886
 30
0.0
 41
5.0
 42
5.0
 43
5.0
 50
90.0
  0
INSERT
  5
18E4
330
71A
100
AcDbEntity
  8
SUNPOU
 48
2.0
100
AcDbBlockReference
  2
_OPEN30
 10
277.2861635220114
 20
357.4471110588886
 30
0.0
 41
5.0
 42
5.0
 43
5.0
 50
270.0
  0
POINT
  5
18E5
330
71A
100
AcDbEntity
  8
DEFPOINTS
 62
     0
 48
2.0
100
AcDbPoint
 10
260.7861635220114
 20
352.1971110588886
 30
0.0
  0
POINT
  5
18E6
330
71A
100
AcDbEntity
  8
DEFPOINTS
 62
     0
 48
2.0
100
AcDbPoint
 10
262.2861635220111
 20
357.4471110588886
 30
0.0
  0
POINT
  5
18E7
330
71A
100
AcDbEntity
  8
DEFPOINTS
 62
     0
 48
2.0
100
AcDbPoint
 10
277.2861635220114
 20
357.4471110588886
 30
0.0
  0
ENDBLK
  5
727
330
71A
100
AcDbEntity
  8
0
100
AcDbBlockEnd
  0
BLOCK
  5
78E
330
784
100
AcDbEntity
  8
0
100
AcDbBlockBegin
  2
*D8
 70
     1
 10
0.0
 20
0.0
 30
0.0
  3
*D8
  1

  0
LINE
  5
1795
330
784
100
AcDbEntity
  8
SUNPOU
 48
2.0
100
AcDbLine
 10
265.2861635220114
 20
325.4471110588886
 30
0.0
 11
294.2861635220113
 21
325.4471110588886
 31
0.0
  0
LINE
  5
1796
330
784
100
AcDbEntity
  8
SUNPOU
 48
2.0
100
AcDbLine
 10
265.2861635220113
 20
357.4471110588886
 30
0.0
 11
294.2861635220113
 21
357.4471110588886
 31
0.0
  0
LINE
  5
1797
330
784
100
AcDbEntity
  8
SUNPOU
 48
2.0
100
AcDbLine
 10
292.2861635220113
 20
330.4471110588886
 30
0.0
 11
292.2861635220113
 21
352.4471110588886
 31
0.0
  0
INSERT
  5
1798
330
784
100
AcDbEntity
  8
SUNPOU
 48
2.0
100
AcDbBlockReference
  2
_OPEN30
 10
292.2861635220113
 20
325.4471110588886
 30
0.0
 41
5.0
 42
5.0
 43
5.0
 50
270.0
  0
INSERT
  5
1799
330
784
100
AcDbEntity
  8
SUNPOU
 48
2.0
100
AcDbBlockReference
  2
_OPEN30
 10
292.2861635220113
 20
357.4471110588886
 30
0.0
 41
5.0
 42
5.0
 43
5.0
 50
90.0
  0
MTEXT
  5
179A
330
784
100
AcDbEntity
  8
SUNPOU
 48
2.0
100
AcDbMText
 10
287.7861635220112
 20
341.4471110588887
 30
0.0
 40
5.0
 41
0.0
 71
     5
 72
     1
  1
\A1;32
  7
SUNPOU
 11
0.0000000000000001
 21
1.0
 31
0.0
1001
ACAD
1000
MTEXTBEGIN
1070
    73
1070
     1
1070
    44
1040
1.0
1070
    74
1070
     0
1000
MTEXTEND
  0
POINT
  5
179B
330
784
100
AcDbEntity
  8
DEFPOINTS
 62
     0
 48
2.0
100
AcDbPoint
 10
262.2861635220114
 20
325.4471110588886
 30
0.0
  0
POINT
  5
179C
330
784
100
AcDbEntity
  8
DEFPOINTS
 62
     0
 48
2.0
100
AcDbPoint
 10
262.2861635220114
 20
357.4471110588886
 30
0.0
  0
POINT
  5
179D
330
784
100
AcDbEntity
  8
DEFPOINTS
 62
     0
 48
2.0
100
AcDbPoint
 10
292.2861635220113
 20
357.4471110588886
 30
0.0
  0
ENDBLK
  5
78F
330
784
100
AcDbEntity
  8
0
100
AcDbBlockEnd
  0
BLOCK
  5
79B
330
791
100
AcDbEntity
  8
0
100
AcDbBlockBegin
  2
*D9
 70
     1
 10
0.0
 20
0.0
 30
0.0
  3
*D9
  1

  0
LINE
  5
1747
330
791
100
AcDbEntity
  8
SUNPOU
 48
2.0
100
AcDbLine
 10
249.2861635220119
 20
137.2208336131082
 30
0.0
 11
264.396226415093
 21
137.2208336131082
 31
0.0
  0
LINE
  5
1748
330
791
100
AcDbEntity
  8
SUNPOU
 48
2.0
100
AcDbLine
 10
249.2861635220106
 20
228.6208336131084
 30
0.0
 11
264.396226415093
 21
228.6208336131084
 31
0.0
  0
LINE
  5
1749
330
791
100
AcDbEntity
  8
SUNPOU
 48
2.0
100
AcDbLine
 10
262.396226415093
 20
142.2208336131082
 30
0.0
 11
262.396226415093
 21
223.6208336131084
 31
0.0
  0
INSERT
  5
174A
330
791
100
AcDbEntity
  8
SUNPOU
 48
2.0
100
AcDbBlockReference
  2
_OPEN30
 10
262.396226415093
 20
137.2208336131082
 30
0.0
 41
5.0
 42
5.0
 43
5.0
 50
270.0
  0
INSERT
  5
174B
330
791
100
AcDbEntity
  8
SUNPOU
 48
2.0
100
AcDbBlockReference
  2
_OPEN30
 10
262.396226415093
 20
228.6208336131084
 30
0.0
 41
5.0
 42
5.0
 43
5.0
 50
90.0
  0
MTEXT
  5
174C
330
791
100
AcDbEntity
  8
SUNPOU
 48
2.0
100
AcDbMText
 10
257.8962264150929
 20
182.9208336131083
 30
0.0
 40
5.0
 41
0.0
 71
     5
 72
     1
  1
\A1;DW
  7
SUNPOU
 11
0.0000000000000001
 21
1.0
 31
0.0
1001
ACAD
1000
MTEXTBEGIN
1070
    73
1070
     1
1070
    44
1040
1.0
1070
    74
1070
     0
1000
MTEXTEND
  0
POINT
  5
174D
330
791
100
AcDbEntity
  8
DEFPOINTS
 62
     0
 48
2.0
100
AcDbPoint
 10
246.2861635220119
 20
137.2208336131082
 30
0.0
  0
POINT
  5
174E
330
791
100
AcDbEntity
  8
DEFPOINTS
 62
     0
 48
2.0
100
AcDbPoint
 10
246.2861635220106
 20
228.6208336131084
 30
0.0
  0
POINT
  5
174F
330
791
100
AcDbEntity
  8
DEFPOINTS
 62
     0
 48
2.0
100
AcDbPoint
 10
262.396226415093
 20
228.6208336131084
 30
0.0
  0
ENDBLK
  5
79C
330
791
100
AcDbEntity
  8
0
100
AcDbBlockEnd
  0
BLOCK
  5
7B3
330
7A7
100
AcDbEntity
  8
0
100
AcDbBlockBegin
  2
*D10
 70
     1
 10
0.0
 20
0.0
 30
0.0
  3
*D10
  1

  0
LINE
  5
1731
330
7A7
100
AcDbEntity
  8
SUNPOU
 48
2.0
100
AcDbLine
 10
64.54146417000075
 20
226.1208336131076
 30
0.0
 11
65.54146417000065
 21
226.1208336131076
 31
0.0
  0
LINE
  5
1732
330
7A7
100
AcDbEntity
  8
SUNPOU
 48
2.0
100
AcDbLine
 10
64.54146417000065
 20
228.6208336131076
 30
0.0
 11
65.54146417000065
 21
228.6208336131076
 31
0.0
  0
LINE
  5
1733
330
7A7
100
AcDbEntity
  8
SUNPOU
 48
2.0
100
AcDbLine
 10
67.54146417000064
 20
221.1208336131075
 30
0.0
 11
67.54146417000064
 21
216.1208336131076
 31
0.0
  0
LINE
  5
1734
330
7A7
100
AcDbEntity
  8
SUNPOU
 48
2.0
100
AcDbLine
 10
67.54146417000065
 20
233.6208336131075
 30
0.0
 11
67.54146417000065
 21
238.6208336131076
 31
0.0
  0
MTEXT
  5
1735
330
7A7
100
AcDbEntity
  8
SUNPOU
 48
2.0
100
AcDbMText
 10
63.04146417000064
 20
215.4848993436029
 30
0.0
 40
5.0
 41
0.0
 71
     5
 72
     1
  1
\A1;25
  7
SUNPOU
 11
0.0000000000000001
 21
1.0
 31
0.0
1001
ACAD
1000
MTEXTBEGIN
1070
    73
1070
     1
1070
    44
1040
1.0
1070
    74
1070
     0
1000
MTEXTEND
  0
LINE
  5
1736
330
7A7
100
AcDbEntity
  8
SUNPOU
 48
2.0
100
AcDbLine
 10
67.54146417000065
 20
226.1208336131076
 30
0.0
 11
67.54146417000065
 21
228.6208336131076
 31
0.0
  0
INSERT
  5
1737
330
7A7
100
AcDbEntity
  8
SUNPOU
 48
2.0
100
AcDbBlockReference
  2
_OPEN30
 10
67.54146417000065
 20
226.1208336131076
 30
0.0
 41
5.0
 42
5.0
 43
5.0
 50
90.0
  0
INSERT
  5
1738
330
7A7
100
AcDbEntity
  8
SUNPOU
 48
2.0
100
AcDbBlockReference
  2
_OPEN30
 10
67.54146417000065
 20
228.6208336131076
 30
0.0
 41
5.0
 42
5.0
 43
5.0
 50
270.0
  0
POINT
  5
1739
330
7A7
100
AcDbEntity
  8
DEFPOINTS
 62
     0
 48
2.0
100
AcDbPoint
 10
67.54146417000075
 20
226.1208336131076
 30
0.0
  0
POINT
  5
173A
330
7A7
100
AcDbEntity
  8
DEFPOINTS
 62
     0
 48
2.0
100
AcDbPoint
 10
67.54146417000065
 20
228.6208336131076
 30
0.0
  0
POINT
  5
173B
330
7A7
100
AcDbEntity
  8
DEFPOINTS
 62
     0
 48
2.0
100
AcDbPoint
 10
67.54146417000065
 20
228.6208336131076
 30
0.0
  0
ENDBLK
  5
7B4
330
7A7
100
AcDbEntity
  8
0
100
AcDbBlockEnd
  0
BLOCK
  5
7CD
330
7C1
100
AcDbEntity
  8
0
100
AcDbBlockBegin
  2
*D11
 70
     1
 10
0.0
 20
0.0
 30
0.0
  3
*D11
  1

  0
LINE
  5
173C
330
7C1
100
AcDbEntity
  8
SUNPOU
 48
2.0
100
AcDbLine
 10
64.54146417000081
 20
137.2208336131075
 30
0.0
 11
65.5414641700008
 21
137.2208336131075
 31
0.0
  0
LINE
  5
173D
330
7C1
100
AcDbEntity
  8
SUNPOU
 48
2.0
100
AcDbLine
 10
64.54146417000081
 20
139.7208336131075
 30
0.0
 11
65.5414641700008
 21
139.7208336131075
 31
0.0
  0
LINE
  5
173E
330
7C1
100
AcDbEntity
  8
SUNPOU
 48
2.0
100
AcDbLine
 10
67.54146417000081
 20
132.2208336131075
 30
0.0
 11
67.54146417000081
 21
127.2208336131075
 31
0.0
  0
LINE
  5
173F
330
7C1
100
AcDbEntity
  8
SUNPOU
 48
2.0
100
AcDbLine
 10
67.54146417000081
 20
144.7208336131075
 30
0.0
 11
67.54146417000081
 21
149.7208336131075
 31
0.0
  0
MTEXT
  5
1740
330
7C1
100
AcDbEntity
  8
SUNPOU
 48
2.0
100
AcDbMText
 10
63.0414641700008
 20
127.179610729898
 30
0.0
 40
5.0
 41
0.0
 71
     5
 72
     1
  1
\A1;25
  7
SUNPOU
 11
0.0000000000000001
 21
1.0
 31
0.0
1001
ACAD
1000
MTEXTBEGIN
1070
    73
1070
     1
1070
    44
1040
1.0
1070
    74
1070
     0
1000
MTEXTEND
  0
LINE
  5
1741
330
7C1
100
AcDbEntity
  8
SUNPOU
 48
2.0
100
AcDbLine
 10
67.54146417000081
 20
137.2208336131075
 30
0.0
 11
67.54146417000081
 21
139.7208336131075
 31
0.0
  0
INSERT
  5
1742
330
7C1
100
AcDbEntity
  8
SUNPOU
 48
2.0
100
AcDbBlockReference
  2
_OPEN30
 10
67.54146417000081
 20
137.2208336131075
 30
0.0
 41
5.0
 42
5.0
 43
5.0
 50
90.0
  0
INSERT
  5
1743
330
7C1
100
AcDbEntity
  8
SUNPOU
 48
2.0
100
AcDbBlockReference
  2
_OPEN30
 10
67.54146417000081
 20
139.7208336131075
 30
0.0
 41
5.0
 42
5.0
 43
5.0
 50
270.0
  0
POINT
  5
1744
330
7C1
100
AcDbEntity
  8
DEFPOINTS
 62
     0
 48
2.0
100
AcDbPoint
 10
67.54146417000081
 20
137.2208336131075
 30
0.0
  0
POINT
  5
1745
330
7C1
100
AcDbEntity
  8
DEFPOINTS
 62
     0
 48
2.0
100
AcDbPoint
 10
67.54146417000081
 20
139.7208336131075
 30
0.0
  0
POINT
  5
1746
330
7C1
100
AcDbEntity
  8
DEFPOINTS
 62
     0
 48
2.0
100
AcDbPoint
 10
67.54146417000081
 20
139.7208336131075
 30
0.0
  0
ENDBLK
  5
7CE
330
7C1
100
AcDbEntity
  8
0
100
AcDbBlockEnd
  0
BLOCK
  5
7E5
330
7DB
100
AcDbEntity
  8
0
100
AcDbBlockBegin
  2
*D12
 70
     1
 10
0.0
 20
0.0
 30
0.0
  3
*D12
  1

  0
LINE
  5
179E
330
7DB
100
AcDbEntity
  8
SUNPOU
 48
2.0
100
AcDbLine
 10
318.9849936085223
 20
93.00000000000158
 30
0.0
 11
309.9849936085222
 21
93.00000000000158
 31
0.0
  0
LINE
  5
179F
330
7DB
100
AcDbEntity
  8
SUNPOU
 48
2.0
100
AcDbLine
 10
318.9849936085223
 20
118.0000000000015
 30
0.0
 11
309.9849936085222
 21
118.0000000000015
 31
0.0
  0
LINE
  5
17A0
330
7DB
100
AcDbEntity
  8
SUNPOU
 48
2.0
100
AcDbLine
 10
311.9849936085222
 20
98.00000000000158
 30
0.0
 11
311.9849936085222
 21
113.0000000000014
 31
0.0
  0
INSERT
  5
17A1
330
7DB
100
AcDbEntity
  8
SUNPOU
 48
2.0
100
AcDbBlockReference
  2
_OPEN30
 10
311.9849936085222
 20
93.00000000000158
 30
0.0
 41
5.0
 42
5.0
 43
5.0
 50
270.0
  0
INSERT
  5
17A2
330
7DB
100
AcDbEntity
  8
SUNPOU
 48
2.0
100
AcDbBlockReference
  2
_OPEN30
 10
311.9849936085222
 20
118.0000000000015
 30
0.0
 41
5.0
 42
5.0
 43
5.0
 50
90.0
  0
MTEXT
  5
17A3
330
7DB
100
AcDbEntity
  8
SUNPOU
 48
2.0
100
AcDbMText
 10
307.4849936085222
 20
105.5000000000016
 30
0.0
 40
5.0
 41
0.0
 71
     5
 72
     1
  1
\A1;25
  7
SUNPOU
 11
0.0000000000000001
 21
1.0
 31
0.0
1001
ACAD
1000
MTEXTBEGIN
1070
    73
1070
     1
1070
    44
1040
1.0
1070
    74
1070
     0
1000
MTEXTEND
  0
POINT
  5
17A4
330
7DB
100
AcDbEntity
  8
DEFPOINTS
 62
     0
 48
2.0
100
AcDbPoint
 10
321.9849936085223
 20
93.00000000000158
 30
0.0
  0
POINT
  5
17A5
330
7DB
100
AcDbEntity
  8
DEFPOINTS
 62
     0
 48
2.0
100
AcDbPoint
 10
321.9849936085223
 20
118.0000000000015
 30
0.0
  0
POINT
  5
17A6
330
7DB
100
AcDbEntity
  8
DEFPOINTS
 62
     0
 48
2.0
100
AcDbPoint
 10
311.9849936085222
 20
118.0000000000015
 30
0.0
  0
ENDBLK
  5
7E6
330
7DB
100
AcDbEntity
  8
0
100
AcDbBlockEnd
  0
BLOCK
  5
7F2
330
7E8
100
AcDbEntity
  8
0
100
AcDbBlockBegin
  2
*D13
 70
     1
 10
0.0
 20
0.0
 30
0.0
  3
*D13
  1

  0
LINE
  5
17A7
330
7E8
100
AcDbEntity
  8
SUNPOU
 48
2.0
100
AcDbLine
 10
318.9849936085213
 20
506.0000000000015
 30
0.0
 11
309.9849936085213
 21
506.0000000000015
 31
0.0
  0
LINE
  5
17A8
330
7E8
100
AcDbEntity
  8
SUNPOU
 48
2.0
100
AcDbLine
 10
318.9849936085213
 20
531.0000000000013
 30
0.0
 11
309.9849936085213
 21
531.0000000000013
 31
0.0
  0
LINE
  5
17A9
330
7E8
100
AcDbEntity
  8
SUNPOU
 48
2.0
100
AcDbLine
 10
311.9849936085213
 20
511.0000000000015
 30
0.0
 11
311.9849936085213
 21
526.0000000000013
 31
0.0
  0
INSERT
  5
17AA
330
7E8
100
AcDbEntity
  8
SUNPOU
 48
2.0
100
AcDbBlockReference
  2
_OPEN30
 10
311.9849936085213
 20
506.0000000000015
 30
0.0
 41
5.0
 42
5.0
 43
5.0
 50
270.0
  0
INSERT
  5
17AB
330
7E8
100
AcDbEntity
  8
SUNPOU
 48
2.0
100
AcDbBlockReference
  2
_OPEN30
 10
311.9849936085213
 20
531.0000000000013
 30
0.0
 41
5.0
 42
5.0
 43
5.0
 50
90.0
  0
MTEXT
  5
17AC
330
7E8
100
AcDbEntity
  8
SUNPOU
 48
2.0
100
AcDbMText
 10
307.4849936085212
 20
518.5000000000015
 30
0.0
 40
5.0
 41
0.0
 71
     5
 72
     1
  1
\A1;25
  7
SUNPOU
 11
0.0000000000000001
 21
1.0
 31
0.0
1001
ACAD
1000
MTEXTBEGIN
1070
    73
1070
     1
1070
    44
1040
1.0
1070
    74
1070
     0
1000
MTEXTEND
  0
POINT
  5
17AD
330
7E8
100
AcDbEntity
  8
DEFPOINTS
 62
     0
 48
2.0
100
AcDbPoint
 10
321.9849936085214
 20
506.0000000000015
 30
0.0
  0
POINT
  5
17AE
330
7E8
100
AcDbEntity
  8
DEFPOINTS
 62
     0
 48
2.0
100
AcDbPoint
 10
321.9849936085214
 20
531.0000000000013
 30
0.0
  0
POINT
  5
17AF
330
7E8
100
AcDbEntity
  8
DEFPOINTS
 62
     0
 48
2.0
100
AcDbPoint
 10
311.9849936085213
 20
531.0000000000013
 30
0.0
  0
ENDBLK
  5
7F3
330
7E8
100
AcDbEntity
  8
0
100
AcDbBlockEnd
  0
BLOCK
  5
7FF
330
7F5
100
AcDbEntity
  8
0
100
AcDbBlockBegin
  2
*D14
 70
     1
 10
0.0
 20
0.0
 30
0.0
  3
*D14
  1

  0
LINE
  5
18B9
330
7F5
100
AcDbEntity
  8
SUNPOU
 48
2.0
100
AcDbLine
 10
318.9849936085223
 20
93.00000000000158
 30
0.0
 11
294.4849936085212
 21
93.00000000000158
 31
0.0
  0
LINE
  5
18BA
330
7F5
100
AcDbEntity
  8
SUNPOU
 48
2.0
100
AcDbLine
 10
318.9849936085213
 20
531.0000000000013
 30
0.0
 11
294.4849936085213
 21
531.0000000000013
 31
0.0
  0
LINE
  5
18BB
330
7F5
100
AcDbEntity
  8
SUNPOU
 48
2.0
100
AcDbLine
 10
296.4849936085212
 20
98.00000000000158
 30
0.0
 11
296.4849936085213
 21
526.0000000000013
 31
0.0
  0
MTEXT
  5
18BC
330
7F5
100
AcDbEntity
  8
SUNPOU
 48
2.0
100
AcDbMText
 10
291.9849936085212
 20
287.1003541191038
 30
0.0
 40
5.0
 41
0.0
 71
     5
 72
     1
  1
\A1;DW
  7
SUNPOU
 11
0.0000000000000001
 21
1.0
 31
0.0
1001
ACAD
1000
MTEXTBEGIN
1070
    73
1070
     1
1070
    44
1040
1.0
1070
    74
1070
     0
1000
MTEXTEND
  0
INSERT
  5
18BD
330
7F5
100
AcDbEntity
  8
SUNPOU
 48
2.0
100
AcDbBlockReference
  2
_OPEN30
 10
296.4849936085212
 20
93.00000000000158
 30
0.0
 41
5.0
 42
5.0
 43
5.0
 50
270.0
  0
INSERT
  5
18BE
330
7F5
100
AcDbEntity
  8
SUNPOU
 48
2.0
100
AcDbBlockReference
  2
_OPEN30
 10
296.4849936085213
 20
531.0000000000013
 30
0.0
 41
5.0
 42
5.0
 43
5.0
 50
90.0
  0
POINT
  5
18BF
330
7F5
100
AcDbEntity
  8
DEFPOINTS
 62
     0
 48
2.0
100
AcDbPoint
 10
321.9849936085223
 20
93.00000000000158
 30
0.0
  0
POINT
  5
18C0
330
7F5
100
AcDbEntity
  8
DEFPOINTS
 62
     0
 48
2.0
100
AcDbPoint
 10
321.9849936085214
 20
531.0000000000013
 30
0.0
  0
POINT
  5
18C1
330
7F5
100
AcDbEntity
  8
DEFPOINTS
 62
     0
 48
2.0
100
AcDbPoint
 10
296.4849936085213
 20
531.0000000000013
 30
0.0
  0
ENDBLK
  5
800
330
7F5
100
AcDbEntity
  8
0
100
AcDbBlockEnd
  0
BLOCK
  5
81E
330
814
100
AcDbEntity
  8
0
100
AcDbBlockBegin
  2
*D15
 70
     1
 10
0.0
 20
0.0
 30
0.0
  3
*D15
  1

  0
LINE
  5
17BA
330
814
100
AcDbEntity
  8
SUNPOU
 48
2.0
100
AcDbLine
 10
356.9849936085221
 20
93.00000000000167
 30
0.0
 11
370.984993608522
 21
93.00000000000167
 31
0.0
  0
LINE
  5
17BB
330
814
100
AcDbEntity
  8
SUNPOU
 48
2.0
100
AcDbLine
 10
351.4849936085221
 20
149.5000000000015
 30
0.0
 11
370.9849936085221
 21
149.5000000000015
 31
0.0
  0
LINE
  5
17BC
330
814
100
AcDbEntity
  8
SUNPOU
 48
2.0
100
AcDbLine
 10
368.984993608522
 20
98.00000000000167
 30
0.0
 11
368.9849936085221
 21
144.5000000000016
 31
0.0
  0
INSERT
  5
17BD
330
814
100
AcDbEntity
  8
SUNPOU
 48
2.0
100
AcDbBlockReference
  2
_OPEN30
 10
368.984993608522
 20
93.00000000000167
 30
0.0
 41
5.0
 42
5.0
 43
5.0
 50
270.0
  0
INSERT
  5
17BE
330
814
100
AcDbEntity
  8
SUNPOU
 48
2.0
100
AcDbBlockReference
  2
_OPEN30
 10
368.9849936085221
 20
149.5000000000015
 30
0.0
 41
5.0
 42
5.0
 43
5.0
 50
90.0
  0
MTEXT
  5
17BF
330
814
100
AcDbEntity
  8
SUNPOU
 48
2.0
100
AcDbMText
 10
364.484993608522
 20
121.2500000000017
 30
0.0
 40
5.0
 41
0.0
 71
     5
 72
     1
  1
\A1;56.5
  7
SUNPOU
 11
0.0000000000000001
 21
1.0
 31
0.0
1001
ACAD
1000
MTEXTBEGIN
1070
    73
1070
     1
1070
    44
1040
1.0
1070
    74
1070
     0
1000
MTEXTEND
  0
POINT
  5
17C0
330
814
100
AcDbEntity
  8
DEFPOINTS
 62
     0
 48
2.0
100
AcDbPoint
 10
353.9849936085222
 20
93.00000000000167
 30
0.0
  0
POINT
  5
17C1
330
814
100
AcDbEntity
  8
DEFPOINTS
 62
     0
 48
2.0
100
AcDbPoint
 10
348.4849936085221
 20
149.5000000000015
 30
0.0
  0
POINT
  5
17C2
330
814
100
AcDbEntity
  8
DEFPOINTS
 62
     0
 48
2.0
100
AcDbPoint
 10
368.9849936085221
 20
149.5000000000015
 30
0.0
  0
ENDBLK
  5
81F
330
814
100
AcDbEntity
  8
0
100
AcDbBlockEnd
  0
BLOCK
  5
82B
330
821
100
AcDbEntity
  8
0
100
AcDbBlockBegin
  2
*D16
 70
     1
 10
0.0
 20
0.0
 30
0.0
  3
*D16
  1

  0
LINE
  5
17C3
330
821
100
AcDbEntity
  8
SUNPOU
 48
2.0
100
AcDbLine
 10
351.4849936085221
 20
149.5000000000015
 30
0.0
 11
370.9849936085221
 21
149.5000000000015
 31
0.0
  0
LINE
  5
17C4
330
821
100
AcDbEntity
  8
SUNPOU
 48
2.0
100
AcDbLine
 10
350.8010291595186
 20
168.0000000000019
 30
0.0
 11
370.9849936085221
 21
168.0000000000019
 31
0.0
  0
LINE
  5
17C5
330
821
100
AcDbEntity
  8
SUNPOU
 48
2.0
100
AcDbLine
 10
368.9849936085221
 20
154.5000000000015
 30
0.0
 11
368.9849936085221
 21
163.0000000000018
 31
0.0
  0
INSERT
  5
17C6
330
821
100
AcDbEntity
  8
SUNPOU
 48
2.0
100
AcDbBlockReference
  2
_OPEN30
 10
368.9849936085221
 20
149.5000000000015
 30
0.0
 41
5.0
 42
5.0
 43
5.0
 50
270.0
  0
INSERT
  5
17C7
330
821
100
AcDbEntity
  8
SUNPOU
 48
2.0
100
AcDbBlockReference
  2
_OPEN30
 10
368.9849936085221
 20
168.0000000000019
 30
0.0
 41
5.0
 42
5.0
 43
5.0
 50
90.0
  0
MTEXT
  5
17C8
330
821
100
AcDbEntity
  8
SUNPOU
 48
2.0
100
AcDbMText
 10
364.484993608522
 20
158.7500000000017
 30
0.0
 40
5.0
 41
0.0
 71
     5
 72
     1
  1
\A1;18.5
  7
SUNPOU
 11
0.0000000000000001
 21
1.0
 31
0.0
1001
ACAD
1000
MTEXTBEGIN
1070
    73
1070
     1
1070
    44
1040
1.0
1070
    74
1070
     0
1000
MTEXTEND
  0
POINT
  5
17C9
330
821
100
AcDbEntity
  8
DEFPOINTS
 62
     0
 48
2.0
100
AcDbPoint
 10
348.4849936085221
 20
149.5000000000015
 30
0.0
  0
POINT
  5
17CA
330
821
100
AcDbEntity
  8
DEFPOINTS
 62
     0
 48
2.0
100
AcDbPoint
 10
347.8010291595186
 20
168.0000000000019
 30
0.0
  0
POINT
  5
17CB
330
821
100
AcDbEntity
  8
DEFPOINTS
 62
     0
 48
2.0
100
AcDbPoint
 10
368.9849936085221
 20
168.0000000000019
 30
0.0
  0
ENDBLK
  5
82C
330
821
100
AcDbEntity
  8
0
100
AcDbBlockEnd
  0
BLOCK
  5
838
330
82E
100
AcDbEntity
  8
0
100
AcDbBlockBegin
  2
*D17
 70
     1
 10
0.0
 20
0.0
 30
0.0
  3
*D17
  1

  0
LINE
  5
17CC
330
82E
100
AcDbEntity
  8
SUNPOU
 48
2.0
100
AcDbLine
 10
350.8010291595186
 20
168.0000000000019
 30
0.0
 11
370.9849936085221
 21
168.0000000000019
 31
0.0
  0
LINE
  5
17CD
330
82E
100
AcDbEntity
  8
SUNPOU
 48
2.0
100
AcDbLine
 10
348.0742209834176
 20
358.0000000000016
 30
0.0
 11
370.9849936085221
 21
358.0000000000016
 31
0.0
  0
LINE
  5
17CE
330
82E
100
AcDbEntity
  8
SUNPOU
 48
2.0
100
AcDbLine
 10
368.9849936085221
 20
173.0000000000019
 30
0.0
 11
368.9849936085221
 21
353.0000000000015
 31
0.0
  0
INSERT
  5
17CF
330
82E
100
AcDbEntity
  8
SUNPOU
 48
2.0
100
AcDbBlockReference
  2
_OPEN30
 10
368.9849936085221
 20
168.0000000000019
 30
0.0
 41
5.0
 42
5.0
 43
5.0
 50
270.0
  0
INSERT
  5
17D0
330
82E
100
AcDbEntity
  8
SUNPOU
 48
2.0
100
AcDbBlockReference
  2
_OPEN30
 10
368.9849936085221
 20
358.0000000000016
 30
0.0
 41
5.0
 42
5.0
 43
5.0
 50
90.0
  0
MTEXT
  5
17D1
330
82E
100
AcDbEntity
  8
SUNPOU
 48
2.0
100
AcDbMText
 10
364.484993608522
 20
263.0000000000018
 30
0.0
 40
5.0
 41
0.0
 71
     5
 72
     1
  1
\A1;190
  7
SUNPOU
 11
0.0000000000000001
 21
1.0
 31
0.0
1001
ACAD
1000
MTEXTBEGIN
1070
    73
1070
     1
1070
    44
1040
1.0
1070
    74
1070
     0
1000
MTEXTEND
  0
POINT
  5
17D2
330
82E
100
AcDbEntity
  8
DEFPOINTS
 62
     0
 48
2.0
100
AcDbPoint
 10
347.8010291595186
 20
168.0000000000019
 30
0.0
  0
POINT
  5
17D3
330
82E
100
AcDbEntity
  8
DEFPOINTS
 62
     0
 48
2.0
100
AcDbPoint
 10
345.0742209834176
 20
358.0000000000016
 30
0.0
  0
POINT
  5
17D4
330
82E
100
AcDbEntity
  8
DEFPOINTS
 62
     0
 48
2.0
100
AcDbPoint
 10
368.9849936085221
 20
358.0000000000016
 30
0.0
  0
ENDBLK
  5
839
330
82E
100
AcDbEntity
  8
0
100
AcDbBlockEnd
  0
BLOCK
  5
845
330
83B
100
AcDbEntity
  8
0
100
AcDbBlockBegin
  2
*D18
 70
     1
 10
0.0
 20
0.0
 30
0.0
  3
*D18
  1

  0
LINE
  5
17D5
330
83B
100
AcDbEntity
  8
SUNPOU
 48
2.0
100
AcDbLine
 10
368.4807246998276
 20
89.00000000000177
 30
0.0
 11
386.0807246998272
 21
89.00000000000177
 31
0.0
  0
LINE
  5
17D6
330
83B
100
AcDbEntity
  8
SUNPOU
 48
2.0
100
AcDbLine
 10
361.4201584915059
 20
254.5000000000018
 30
0.0
 11
386.0807246998273
 21
254.5000000000018
 31
0.0
  0
LINE
  5
17D7
330
83B
100
AcDbEntity
  8
SUNPOU
 48
2.0
100
AcDbLine
 10
384.0807246998272
 20
94.00000000000177
 30
0.0
 11
384.0807246998273
 21
249.5000000000018
 31
0.0
  0
INSERT
  5
17D8
330
83B
100
AcDbEntity
  8
SUNPOU
 48
2.0
100
AcDbBlockReference
  2
_OPEN30
 10
384.0807246998272
 20
89.00000000000177
 30
0.0
 41
5.0
 42
5.0
 43
5.0
 50
270.0
  0
INSERT
  5
17D9
330
83B
100
AcDbEntity
  8
SUNPOU
 48
2.0
100
AcDbBlockReference
  2
_OPEN30
 10
384.0807246998273
 20
254.5000000000018
 30
0.0
 41
5.0
 42
5.0
 43
5.0
 50
90.0
  0
MTEXT
  5
17DA
330
83B
100
AcDbEntity
  8
SUNPOU
 48
2.0
100
AcDbMText
 10
379.5807246998272
 20
171.7500000000018
 30
0.0
 40
5.0
 41
0.0
 71
     5
 72
     1
  1
\A1;165.5
  7
SUNPOU
 11
0.0000000000000001
 21
1.0
 31
0.0
1001
ACAD
1000
MTEXTBEGIN
1070
    73
1070
     1
1070
    44
1040
1.0
1070
    74
1070
     0
1000
MTEXTEND
  0
POINT
  5
17DB
330
83B
100
AcDbEntity
  8
DEFPOINTS
 62
     0
 48
2.0
100
AcDbPoint
 10
365.4807246998276
 20
89.00000000000177
 30
0.0
  0
POINT
  5
17DC
330
83B
100
AcDbEntity
  8
DEFPOINTS
 62
     0
 48
2.0
100
AcDbPoint
 10
358.4201584915059
 20
254.5000000000018
 30
0.0
  0
POINT
  5
17DD
330
83B
100
AcDbEntity
  8
DEFPOINTS
 62
     0
 48
2.0
100
AcDbPoint
 10
384.0807246998273
 20
254.5000000000018
 30
0.0
  0
ENDBLK
  5
846
330
83B
100
AcDbEntity
  8
0
100
AcDbBlockEnd
  0
BLOCK
  5
852
330
848
100
AcDbEntity
  8
0
100
AcDbBlockBegin
  2
*D19
 70
     1
 10
0.0
 20
0.0
 30
0.0
  3
*D19
  1

  0
LINE
  5
1888
330
848
100
AcDbEntity
  8
SUNPOU
 48
2.0
100
AcDbLine
 10
87.09566967873326
 20
483.2079080776215
 30
0.0
 11
87.09566967873326
 21
515.457908077622
 31
0.0
  0
LINE
  5
1889
330
848
100
AcDbEntity
  8
SUNPOU
 48
2.0
100
AcDbLine
 10
182.095669678733
 20
488.4579080776218
 30
0.0
 11
182.095669678733
 21
515.457908077622
 31
0.0
  0
LINE
  5
188A
330
848
100
AcDbEntity
  8
SUNPOU
 48
2.0
100
AcDbLine
 10
92.09566967873326
 20
513.457908077622
 30
0.0
 11
177.095669678733
 21
513.457908077622
 31
0.0
  0
MTEXT
  5
188B
330
848
100
AcDbEntity
  8
SUNPOU
 48
2.0
100
AcDbMText
 10
134.595669678733
 20
508.957908077622
 30
0.0
 40
5.0
 41
0.0
 71
     5
 72
     1
  1
\A1;95
  7
SUNPOU
 11
-1.0
 21
0.0000000000000001
 31
0.0
1001
ACAD
1000
MTEXTBEGIN
1070
    73
1070
     1
1070
    44
1040
1.0
1070
    74
1070
     0
1000
MTEXTEND
  0
INSERT
  5
188C
330
848
100
AcDbEntity
  8
SUNPOU
 48
2.0
100
AcDbBlockReference
  2
_OPEN30
 10
87.09566967873326
 20
513.457908077622
 30
0.0
 41
5.0
 42
5.0
 43
5.0
 50
180.0
  0
INSERT
  5
188D
330
848
100
AcDbEntity
  8
SUNPOU
 48
2.0
100
AcDbBlockReference
  2
_OPEN30
 10
182.095669678733
 20
513.457908077622
 30
0.0
 41
5.0
 42
5.0
 43
5.0
  0
POINT
  5
188E
330
848
100
AcDbEntity
  8
DEFPOINTS
 62
     0
 48
2.0
100
AcDbPoint
 10
87.09566967873326
 20
480.2079080776215
 30
0.0
  0
POINT
  5
188F
330
848
100
AcDbEntity
  8
DEFPOINTS
 62
     0
 48
2.0
100
AcDbPoint
 10
182.095669678733
 20
485.4579080776217
 30
0.0
  0
POINT
  5
1890
330
848
100
AcDbEntity
  8
DEFPOINTS
 62
     0
 48
2.0
100
AcDbPoint
 10
182.095669678733
 20
513.457908077622
 30
0.0
  0
ENDBLK
  5
853
330
848
100
AcDbEntity
  8
0
100
AcDbBlockEnd
  0
BLOCK
  5
861
330
855
100
AcDbEntity
  8
0
100
AcDbBlockBegin
  2
*D20
 70
     1
 10
0.0
 20
0.0
 30
0.0
  3
*D20
  1

  0
LINE
  5
1874
330
855
100
AcDbEntity
  8
SUNPOU
 48
2.0
100
AcDbLine
 10
182.095669678733
 20
488.4579080776218
 30
0.0
 11
182.095669678733
 21
515.457908077622
 31
0.0
  0
LINE
  5
1875
330
855
100
AcDbEntity
  8
SUNPOU
 48
2.0
100
AcDbLine
 10
189.0956696787331
 20
500.7079080776222
 30
0.0
 11
189.0956696787331
 21
515.457908077622
 31
0.0
  0
LINE
  5
1876
330
855
100
AcDbEntity
  8
SUNPOU
 48
2.0
100
AcDbLine
 10
177.095669678733
 20
513.457908077622
 30
0.0
 11
172.095669678733
 21
513.457908077622
 31
0.0
  0
LINE
  5
1877
330
855
100
AcDbEntity
  8
SUNPOU
 48
2.0
100
AcDbLine
 10
194.095669678733
 20
513.457908077622
 30
0.0
 11
199.095669678733
 21
513.457908077622
 31
0.0
  0
MTEXT
  5
1878
330
855
100
AcDbEntity
  8
SUNPOU
 48
2.0
100
AcDbMText
 10
185.595669678733
 20
508.957908077622
 30
0.0
 40
5.0
 41
0.0
 71
     5
 72
     1
  1
\A1;7
  7
SUNPOU
 11
-1.0
 21
0.0000000000000001
 31
0.0
1001
ACAD
1000
MTEXTBEGIN
1070
    73
1070
     1
1070
    44
1040
1.0
1070
    74
1070
     0
1000
MTEXTEND
  0
LINE
  5
1879
330
855
100
AcDbEntity
  8
SUNPOU
 48
2.0
100
AcDbLine
 10
182.095669678733
 20
513.457908077622
 30
0.0
 11
189.0956696787331
 21
513.457908077622
 31
0.0
  0
INSERT
  5
187A
330
855
100
AcDbEntity
  8
SUNPOU
 48
2.0
100
AcDbBlockReference
  2
_OPEN30
 10
182.095669678733
 20
513.457908077622
 30
0.0
 41
5.0
 42
5.0
 43
5.0
  0
INSERT
  5
187B
330
855
100
AcDbEntity
  8
SUNPOU
 48
2.0
100
AcDbBlockReference
  2
_OPEN30
 10
189.0956696787331
 20
513.457908077622
 30
0.0
 41
5.0
 42
5.0
 43
5.0
 50
180.0
  0
POINT
  5
187C
330
855
100
AcDbEntity
  8
DEFPOINTS
 62
     0
 48
2.0
100
AcDbPoint
 10
182.095669678733
 20
485.4579080776217
 30
0.0
  0
POINT
  5
187D
330
855
100
AcDbEntity
  8
DEFPOINTS
 62
     0
 48
2.0
100
AcDbPoint
 10
189.0956696787331
 20
497.7079080776221
 30
0.0
  0
POINT
  5
187E
330
855
100
AcDbEntity
  8
DEFPOINTS
 62
     0
 48
2.0
100
AcDbPoint
 10
189.0956696787331
 20
513.457908077622
 30
0.0
  0
ENDBLK
  5
862
330
855
100
AcDbEntity
  8
0
100
AcDbBlockEnd
  0
BLOCK
  5
86E
330
864
100
AcDbEntity
  8
0
100
AcDbBlockBegin
  2
*D21
 70
     1
 10
0.0
 20
0.0
 30
0.0
  3
*D21
  1

  0
LINE
  5
187F
330
864
100
AcDbEntity
  8
SUNPOU
 48
2.0
100
AcDbLine
 10
189.0956696787331
 20
500.7079080776222
 30
0.0
 11
189.0956696787331
 21
515.457908077622
 31
0.0
  0
LINE
  5
1880
330
864
100
AcDbEntity
  8
SUNPOU
 48
2.0
100
AcDbLine
 10
219.0956696787333
 20
480.9579080776222
 30
0.0
 11
219.0956696787333
 21
515.457908077622
 31
0.0
  0
LINE
  5
1881
330
864
100
AcDbEntity
  8
SUNPOU
 48
2.0
100
AcDbLine
 10
194.095669678733
 20
513.457908077622
 30
0.0
 11
214.0956696787333
 21
513.457908077622
 31
0.0
  0
MTEXT
  5
1882
330
864
100
AcDbEntity
  8
SUNPOU
 48
2.0
100
AcDbMText
 10
204.0956696787333
 20
508.957908077622
 30
0.0
 40
5.0
 41
0.0
 71
     5
 72
     1
  1
\A1;30
  7
SUNPOU
 11
-1.0
 21
0.0000000000000001
 31
0.0
1001
ACAD
1000
MTEXTBEGIN
1070
    73
1070
     1
1070
    44
1040
1.0
1070
    74
1070
     0
1000
MTEXTEND
  0
INSERT
  5
1883
330
864
100
AcDbEntity
  8
SUNPOU
 48
2.0
100
AcDbBlockReference
  2
_OPEN30
 10
189.0956696787331
 20
513.457908077622
 30
0.0
 41
5.0
 42
5.0
 43
5.0
 50
180.0
  0
INSERT
  5
1884
330
864
100
AcDbEntity
  8
SUNPOU
 48
2.0
100
AcDbBlockReference
  2
_OPEN30
 10
219.0956696787333
 20
513.457908077622
 30
0.0
 41
5.0
 42
5.0
 43
5.0
  0
POINT
  5
1885
330
864
100
AcDbEntity
  8
DEFPOINTS
 62
     0
 48
2.0
100
AcDbPoint
 10
189.0956696787331
 20
497.7079080776221
 30
0.0
  0
POINT
  5
1886
330
864
100
AcDbEntity
  8
DEFPOINTS
 62
     0
 48
2.0
100
AcDbPoint
 10
219.0956696787333
 20
477.9579080776222
 30
0.0
  0
POINT
  5
1887
330
864
100
AcDbEntity
  8
DEFPOINTS
 62
     0
 48
2.0
100
AcDbPoint
 10
219.0956696787333
 20
513.457908077622
 30
0.0
  0
ENDBLK
  5
86F
330
864
100
AcDbEntity
  8
0
100
AcDbBlockEnd
  0
BLOCK
  5
941
330
935
100
AcDbEntity
  8
0
100
AcDbBlockBegin
  2
*D22
 70
     1
 10
0.0
 20
0.0
 30
0.0
  3
*D22
  1

  0
LINE
  5
18A5
330
935
100
AcDbEntity
  8
SUNPOU
 48
2.0
100
AcDbLine
 10
150.5956696787335
 20
455.7079080776218
 30
0.0
 11
150.5956696787335
 21
436.457908077622
 31
0.0
  0
LINE
  5
18A6
330
935
100
AcDbEntity
  8
SUNPOU
 48
2.0
100
AcDbLine
 10
162.5956696787334
 20
455.9579080776219
 30
0.0
 11
162.5956696787334
 21
436.457908077622
 31
0.0
  0
LINE
  5
18A7
330
935
100
AcDbEntity
  8
SUNPOU
 48
2.0
100
AcDbLine
 10
145.5956696787335
 20
438.4579080776219
 30
0.0
 11
140.5956696787335
 21
438.4579080776219
 31
0.0
  0
LINE
  5
18A8
330
935
100
AcDbEntity
  8
SUNPOU
 48
2.0
100
AcDbLine
 10
167.5956696787334
 20
438.4579080776219
 30
0.0
 11
172.5956696787334
 21
438.4579080776219
 31
0.0
  0
MTEXT
  5
18A9
330
935
100
AcDbEntity
  8
SUNPOU
 48
2.0
100
AcDbMText
 10
156.5956696787334
 20
433.957908077622
 30
0.0
 40
5.0
 41
0.0
 71
     5
 72
     1
  1
\A1;12
  7
SUNPOU
 11
-1.0
 21
0.0000000000000001
 31
0.0
1001
ACAD
1000
MTEXTBEGIN
1070
    73
1070
     1
1070
    44
1040
1.0
1070
    74
1070
     0
1000
MTEXTEND
  0
LINE
  5
18AA
330
935
100
AcDbEntity
  8
SUNPOU
 48
2.0
100
AcDbLine
 10
150.5956696787335
 20
438.4579080776219
 30
0.0
 11
162.5956696787334
 21
438.4579080776219
 31
0.0
  0
INSERT
  5
18AB
330
935
100
AcDbEntity
  8
SUNPOU
 48
2.0
100
AcDbBlockReference
  2
_OPEN30
 10
150.5956696787335
 20
438.4579080776219
 30
0.0
 41
5.0
 42
5.0
 43
5.0
  0
INSERT
  5
18AC
330
935
100
AcDbEntity
  8
SUNPOU
 48
2.0
100
AcDbBlockReference
  2
_OPEN30
 10
162.5956696787334
 20
438.4579080776219
 30
0.0
 41
5.0
 42
5.0
 43
5.0
 50
180.0
  0
POINT
  5
18AD
330
935
100
AcDbEntity
  8
DEFPOINTS
 62
     0
 48
2.0
100
AcDbPoint
 10
150.5956696787335
 20
458.7079080776218
 30
0.0
  0
POINT
  5
18AE
330
935
100
AcDbEntity
  8
DEFPOINTS
 62
     0
 48
2.0
100
AcDbPoint
 10
162.5956696787334
 20
458.957908077622
 30
0.0
  0
POINT
  5
18AF
330
935
100
AcDbEntity
  8
DEFPOINTS
 62
     0
 48
2.0
100
AcDbPoint
 10
162.5956696787334
 20
438.4579080776219
 30
0.0
  0
ENDBLK
  5
942
330
935
100
AcDbEntity
  8
0
100
AcDbBlockEnd
  0
BLOCK
  5
94E
330
944
100
AcDbEntity
  8
0
100
AcDbBlockBegin
  2
*D23
 70
     1
 10
0.0
 20
0.0
 30
0.0
  3
*D23
  1

  0
LINE
  5
189C
330
944
100
AcDbEntity
  8
SUNPOU
 48
2.0
100
AcDbLine
 10
162.5956696787334
 20
455.9579080776219
 30
0.0
 11
162.5956696787334
 21
436.457908077622
 31
0.0
  0
LINE
  5
189D
330
944
100
AcDbEntity
  8
SUNPOU
 48
2.0
100
AcDbLine
 10
182.0956696787334
 20
450.457908077622
 30
0.0
 11
182.0956696787334
 21
436.457908077622
 31
0.0
  0
LINE
  5
189E
330
944
100
AcDbEntity
  8
SUNPOU
 48
2.0
100
AcDbLine
 10
167.5956696787334
 20
438.4579080776219
 30
0.0
 11
177.0956696787334
 21
438.4579080776219
 31
0.0
  0
MTEXT
  5
189F
330
944
100
AcDbEntity
  8
SUNPOU
 48
2.0
100
AcDbMText
 10
172.3456696787334
 20
433.957908077622
 30
0.0
 40
5.0
 41
0.0
 71
     5
 72
     1
  1
\A1;19.5
  7
SUNPOU
 11
-1.0
 21
0.0000000000000001
 31
0.0
1001
ACAD
1000
MTEXTBEGIN
1070
    73
1070
     1
1070
    44
1040
1.0
1070
    74
1070
     0
1000
MTEXTEND
  0
INSERT
  5
18A0
330
944
100
AcDbEntity
  8
SUNPOU
 48
2.0
100
AcDbBlockReference
  2
_OPEN30
 10
162.5956696787334
 20
438.4579080776219
 30
0.0
 41
5.0
 42
5.0
 43
5.0
 50
180.0
  0
INSERT
  5
18A1
330
944
100
AcDbEntity
  8
SUNPOU
 48
2.0
100
AcDbBlockReference
  2
_OPEN30
 10
182.0956696787334
 20
438.4579080776219
 30
0.0
 41
5.0
 42
5.0
 43
5.0
  0
POINT
  5
18A2
330
944
100
AcDbEntity
  8
DEFPOINTS
 62
     0
 48
2.0
100
AcDbPoint
 10
162.5956696787334
 20
458.957908077622
 30
0.0
  0
POINT
  5
18A3
330
944
100
AcDbEntity
  8
DEFPOINTS
 62
     0
 48
2.0
100
AcDbPoint
 10
182.0956696787334
 20
453.457908077622
 30
0.0
  0
POINT
  5
18A4
330
944
100
AcDbEntity
  8
DEFPOINTS
 62
     0
 48
2.0
100
AcDbPoint
 10
182.0956696787334
 20
438.4579080776219
 30
0.0
  0
ENDBLK
  5
94F
330
944
100
AcDbEntity
  8
0
100
AcDbBlockEnd
  0
BLOCK
  5
994
330
98A
100
AcDbEntity
  8
0
100
AcDbBlockBegin
  2
*D24
 70
     1
 10
0.0
 20
0.0
 30
0.0
  3
*D24
  1

  0
LINE
  5
1904
330
98A
100
AcDbEntity
  8
SUNPOU
 48
2.0
100
AcDbLine
 10
56.28616352201124
 20
360.4471110588874
 30
0.0
 11
56.28616352201124
 21
389.4471110588884
 31
0.0
  0
LINE
  5
1905
330
98A
100
AcDbEntity
  8
SUNPOU
 48
2.0
100
AcDbLine
 10
262.2861635220114
 20
360.4471110588886
 30
0.0
 11
262.2861635220114
 21
389.4471110588884
 31
0.0
  0
LINE
  5
1906
330
98A
100
AcDbEntity
  8
SUNPOU
 48
2.0
100
AcDbLine
 10
61.28616352201124
 20
387.4471110588885
 30
0.0
 11
257.2861635220113
 21
387.4471110588885
 31
0.0
  0
MTEXT
  5
1907
330
98A
100
AcDbEntity
  8
SUNPOU
 48
2.0
100
AcDbMText
 10
159.2861635220113
 20
382.9471110588885
 30
0.0
 40
5.0
 41
0.0
 71
     5
 72
     1
  1
\A1;DH
  7
SUNPOU
 11
-1.0
 21
0.0000000000000001
 31
0.0
1001
ACAD
1000
MTEXTBEGIN
1070
    73
1070
     1
1070
    44
1040
1.0
1070
    74
1070
     0
1000
MTEXTEND
  0
INSERT
  5
1908
330
98A
100
AcDbEntity
  8
SUNPOU
 48
2.0
100
AcDbBlockReference
  2
_OPEN30
 10
56.28616352201124
 20
387.4471110588885
 30
0.0
 41
5.0
 42
5.0
 43
5.0
 50
180.0
  0
INSERT
  5
1909
330
98A
100
AcDbEntity
  8
SUNPOU
 48
2.0
100
AcDbBlockReference
  2
_OPEN30
 10
262.2861635220114
 20
387.4471110588885
 30
0.0
 41
5.0
 42
5.0
 43
5.0
  0
POINT
  5
190A
330
98A
100
AcDbEntity
  8
DEFPOINTS
 62
     0
 48
2.0
100
AcDbPoint
 10
56.28616352201124
 20
357.4471110588874
 30
0.0
  0
POINT
  5
190B
330
98A
100
AcDbEntity
  8
DEFPOINTS
 62
     0
 48
2.0
100
AcDbPoint
 10
262.2861635220114
 20
357.4471110588886
 30
0.0
  0
POINT
  5
190C
330
98A
100
AcDbEntity
  8
DEFPOINTS
 62
     0
 48
2.0
100
AcDbPoint
 10
262.2861635220114
 20
387.4471110588885
 30
0.0
  0
ENDBLK
  5
995
330
98A
100
AcDbEntity
  8
0
100
AcDbBlockEnd
  0
BLOCK
  5
9AA
330
9A0
100
AcDbEntity
  8
0
100
AcDbBlockBegin
  2
*D25
 70
     1
 10
0.0
 20
0.0
 30
0.0
  3
*D25
  1

  0
LINE
  5
18CB
330
9A0
100
AcDbEntity
  8
SUNPOU
 48
2.0
100
AcDbLine
 10
56.28616352201124
 20
360.4471110588874
 30
0.0
 11
56.28616352201124
 21
374.4471110588877
 31
0.0
  0
LINE
  5
18CC
330
9A0
100
AcDbEntity
  8
SUNPOU
 48
2.0
100
AcDbLine
 10
141.2861635220114
 20
358.1971110588877
 30
0.0
 11
141.2861635220114
 21
374.4471110588877
 31
0.0
  0
LINE
  5
18CD
330
9A0
100
AcDbEntity
  8
SUNPOU
 48
2.0
100
AcDbLine
 10
61.28616352201124
 20
372.4471110588877
 30
0.0
 11
136.2861635220114
 21
372.4471110588877
 31
0.0
  0
MTEXT
  5
18CE
330
9A0
100
AcDbEntity
  8
SUNPOU
 48
2.0
100
AcDbMText
 10
98.78616352201133
 20
367.9471110588877
 30
0.0
 40
5.0
 41
0.0
 71
     5
 72
     1
  1
\A1;85
  7
SUNPOU
 11
-1.0
 21
0.0000000000000001
 31
0.0
1001
ACAD
1000
MTEXTBEGIN
1070
    73
1070
     1
1070
    44
1040
1.0
1070
    74
1070
     0
1000
MTEXTEND
  0
INSERT
  5
18CF
330
9A0
100
AcDbEntity
  8
SUNPOU
 48
2.0
100
AcDbBlockReference
  2
_OPEN30
 10
56.28616352201124
 20
372.4471110588877
 30
0.0
 41
5.0
 42
5.0
 43
5.0
 50
180.0
  0
INSERT
  5
18D0
330
9A0
100
AcDbEntity
  8
SUNPOU
 48
2.0
100
AcDbBlockReference
  2
_OPEN30
 10
141.2861635220114
 20
372.4471110588877
 30
0.0
 41
5.0
 42
5.0
 43
5.0
  0
POINT
  5
18D1
330
9A0
100
AcDbEntity
  8
DEFPOINTS
 62
     0
 48
2.0
100
AcDbPoint
 10
56.28616352201124
 20
357.4471110588874
 30
0.0
  0
POINT
  5
18D2
330
9A0
100
AcDbEntity
  8
DEFPOINTS
 62
     0
 48
2.0
100
AcDbPoint
 10
141.2861635220114
 20
355.1971110588878
 30
0.0
  0
POINT
  5
18D3
330
9A0
100
AcDbEntity
  8
DEFPOINTS
 62
     0
 48
2.0
100
AcDbPoint
 10
141.2861635220114
 20
372.4471110588877
 30
0.0
  0
ENDBLK
  5
9AB
330
9A0
100
AcDbEntity
  8
0
100
AcDbBlockEnd
  0
BLOCK
  5
9B7
330
9AD
100
AcDbEntity
  8
0
100
AcDbBlockBegin
  2
*D26
 70
     1
 10
0.0
 20
0.0
 30
0.0
  3
*D26
  1

  0
LINE
  5
18C2
330
9AD
100
AcDbEntity
  8
SUNPOU
 48
2.0
100
AcDbLine
 10
167.2861635220113
 20
355.197111058888
 30
0.0
 11
167.2861635220113
 21
374.4471110588877
 31
0.0
  0
LINE
  5
18C3
330
9AD
100
AcDbEntity
  8
SUNPOU
 48
2.0
100
AcDbLine
 10
262.2861635220111
 20
360.4471110588886
 30
0.0
 11
262.2861635220111
 21
374.4471110588877
 31
0.0
  0
LINE
  5
18C4
330
9AD
100
AcDbEntity
  8
SUNPOU
 48
2.0
100
AcDbLine
 10
172.2861635220113
 20
372.4471110588877
 30
0.0
 11
257.2861635220111
 21
372.4471110588877
 31
0.0
  0
MTEXT
  5
18C5
330
9AD
100
AcDbEntity
  8
SUNPOU
 48
2.0
100
AcDbMText
 10
214.7861635220113
 20
367.9471110588877
 30
0.0
 40
5.0
 41
0.0
 71
     5
 72
     1
  1
\A1;95
  7
SUNPOU
 11
-1.0
 21
0.0000000000000001
 31
0.0
1001
ACAD
1000
MTEXTBEGIN
1070
    73
1070
     1
1070
    44
1040
1.0
1070
    74
1070
     0
1000
MTEXTEND
  0
INSERT
  5
18C6
330
9AD
100
AcDbEntity
  8
SUNPOU
 48
2.0
100
AcDbBlockReference
  2
_OPEN30
 10
167.2861635220113
 20
372.4471110588877
 30
0.0
 41
5.0
 42
5.0
 43
5.0
 50
180.0
  0
INSERT
  5
18C7
330
9AD
100
AcDbEntity
  8
SUNPOU
 48
2.0
100
AcDbBlockReference
  2
_OPEN30
 10
262.2861635220111
 20
372.4471110588877
 30
0.0
 41
5.0
 42
5.0
 43
5.0
  0
POINT
  5
18C8
330
9AD
100
AcDbEntity
  8
DEFPOINTS
 62
     0
 48
2.0
100
AcDbPoint
 10
167.2861635220113
 20
352.197111058888
 30
0.0
  0
POINT
  5
18C9
330
9AD
100
AcDbEntity
  8
DEFPOINTS
 62
     0
 48
2.0
100
AcDbPoint
 10
262.2861635220111
 20
357.4471110588886
 30
0.0
  0
POINT
  5
18CA
330
9AD
100
AcDbEntity
  8
DEFPOINTS
 62
     0
 48
2.0
100
AcDbPoint
 10
262.2861635220111
 20
372.4471110588877
 30
0.0
  0
ENDBLK
  5
9B8
330
9AD
100
AcDbEntity
  8
0
100
AcDbBlockEnd
  0
BLOCK
  5
9E6
330
9DC
100
AcDbEntity
  8
0
100
AcDbBlockBegin
  2
*D27
 70
     1
 10
0.0
 20
0.0
 30
0.0
  3
*D27
  1

  0
LINE
  5
18D4
330
9DC
100
AcDbEntity
  8
SUNPOU
 48
2.0
100
AcDbLine
 10
230.7861635220116
 20
327.6971110588885
 30
0.0
 11
230.7861635220116
 21
308.4471110588886
 31
0.0
  0
LINE
  5
18D5
330
9DC
100
AcDbEntity
  8
SUNPOU
 48
2.0
100
AcDbLine
 10
262.2861635220115
 20
322.4471110588886
 30
0.0
 11
262.2861635220115
 21
308.4471110588886
 31
0.0
  0
LINE
  5
18D6
330
9DC
100
AcDbEntity
  8
SUNPOU
 48
2.0
100
AcDbLine
 10
235.7861635220116
 20
310.4471110588886
 30
0.0
 11
257.2861635220115
 21
310.4471110588886
 31
0.0
  0
MTEXT
  5
18D7
330
9DC
100
AcDbEntity
  8
SUNPOU
 48
2.0
100
AcDbMText
 10
246.5361635220117
 20
305.9471110588886
 30
0.0
 40
5.0
 41
0.0
 71
     5
 72
     1
  1
\A1;31.5
  7
SUNPOU
 11
-1.0
 21
0.0000000000000001
 31
0.0
1001
ACAD
1000
MTEXTBEGIN
1070
    73
1070
     1
1070
    44
1040
1.0
1070
    74
1070
     0
1000
MTEXTEND
  0
INSERT
  5
18D8
330
9DC
100
AcDbEntity
  8
SUNPOU
 48
2.0
100
AcDbBlockReference
  2
_OPEN30
 10
230.7861635220116
 20
310.4471110588886
 30
0.0
 41
5.0
 42
5.0
 43
5.0
 50
180.0
  0
INSERT
  5
18D9
330
9DC
100
AcDbEntity
  8
SUNPOU
 48
2.0
100
AcDbBlockReference
  2
_OPEN30
 10
262.2861635220115
 20
310.4471110588886
 30
0.0
 41
5.0
 42
5.0
 43
5.0
  0
POINT
  5
18DA
330
9DC
100
AcDbEntity
  8
DEFPOINTS
 62
     0
 48
2.0
100
AcDbPoint
 10
230.7861635220116
 20
330.6971110588885
 30
0.0
  0
POINT
  5
18DB
330
9DC
100
AcDbEntity
  8
DEFPOINTS
 62
     0
 48
2.0
100
AcDbPoint
 10
262.2861635220115
 20
325.4471110588886
 30
0.0
  0
POINT
  5
18DC
330
9DC
100
AcDbEntity
  8
DEFPOINTS
 62
     0
 48
2.0
100
AcDbPoint
 10
262.2861635220115
 20
310.4471110588886
 30
0.0
  0
ENDBLK
  5
9E7
330
9DC
100
AcDbEntity
  8
0
100
AcDbBlockEnd
  0
BLOCK
  5
A25
330
A19
100
AcDbEntity
  8
0
100
AcDbBlockBegin
  2
*D28
 70
     1
 10
0.0
 20
0.0
 30
0.0
  3
*D28
  1

  0
LINE
  5
1968
330
A19
100
AcDbEntity
  8
SUNPOU
 48
2.0
100
AcDbLine
 10
46.28616352201166
 20
231.6208336131075
 30
0.0
 11
46.28616352201166
 21
243.7087767743248
 31
0.0
  0
LINE
  5
1969
330
A19
100
AcDbEntity
  8
SUNPOU
 48
2.0
100
AcDbLine
 10
54.78616352201182
 20
229.1208336131075
 30
0.0
 11
54.78616352201182
 21
243.7087767743248
 31
0.0
  0
LINE
  5
196A
330
A19
100
AcDbEntity
  8
SUNPOU
 48
2.0
100
AcDbLine
 10
41.28616352201166
 20
241.7087767743248
 30
0.0
 11
36.28616352201165
 21
241.7087767743248
 31
0.0
  0
LINE
  5
196B
330
A19
100
AcDbEntity
  8
SUNPOU
 48
2.0
100
AcDbLine
 10
59.78616352201182
 20
241.7087767743248
 30
0.0
 11
64.78616352201183
 21
241.7087767743248
 31
0.0
  0
MTEXT
  5
196C
330
A19
100
AcDbEntity
  8
SUNPOU
 48
2.0
100
AcDbMText
 10
39.1330665562109
 20
237.2087767743248
 30
0.0
 40
5.0
 41
0.0
 71
     5
 72
     1
  1
\A1;85
  7
SUNPOU
 11
-1.0
 21
0.0000000000000001
 31
0.0
1001
ACAD
1000
MTEXTBEGIN
1070
    73
1070
     1
1070
    44
1040
1.0
1070
    74
1070
     0
1000
MTEXTEND
  0
LINE
  5
196D
330
A19
100
AcDbEntity
  8
SUNPOU
 48
2.0
100
AcDbLine
 10
46.28616352201166
 20
241.7087767743248
 30
0.0
 11
54.78616352201182
 21
241.7087767743248
 31
0.0
  0
INSERT
  5
196E
330
A19
100
AcDbEntity
  8
SUNPOU
 48
2.0
100
AcDbBlockReference
  2
_OPEN30
 10
46.28616352201166
 20
241.7087767743248
 30
0.0
 41
5.0
 42
5.0
 43
5.0
  0
INSERT
  5
196F
330
A19
100
AcDbEntity
  8
SUNPOU
 48
2.0
100
AcDbBlockReference
  2
_OPEN30
 10
54.78616352201182
 20
241.7087767743248
 30
0.0
 41
5.0
 42
5.0
 43
5.0
 50
180.0
  0
POINT
  5
1970
330
A19
100
AcDbEntity
  8
DEFPOINTS
 62
     0
 48
2.0
100
AcDbPoint
 10
46.28616352201166
 20
228.6208336131076
 30
0.0
  0
POINT
  5
1971
330
A19
100
AcDbEntity
  8
DEFPOINTS
 62
     0
 48
2.0
100
AcDbPoint
 10
54.78616352201182
 20
226.1208336131076
 30
0.0
  0
POINT
  5
1972
330
A19
100
AcDbEntity
  8
DEFPOINTS
 62
     0
 48
2.0
100
AcDbPoint
 10
54.78616352201182
 20
241.7087767743248
 30
0.0
  0
ENDBLK
  5
A26
330
A19
100
AcDbEntity
  8
0
100
AcDbBlockEnd
  0
BLOCK
  5
A34
330
A28
100
AcDbEntity
  8
0
100
AcDbBlockBegin
  2
*D29
 70
     1
 10
0.0
 20
0.0
 30
0.0
  3
*D29
  1

  0
LINE
  5
1973
330
A28
100
AcDbEntity
  8
SUNPOU
 48
2.0
100
AcDbLine
 10
236.7861635220116
 20
229.1208336131083
 30
0.0
 11
236.7861635220116
 21
243.7087767743248
 31
0.0
  0
LINE
  5
1974
330
A28
100
AcDbEntity
  8
SUNPOU
 48
2.0
100
AcDbLine
 10
246.2861635220117
 20
231.6208336131083
 30
0.0
 11
246.2861635220117
 21
243.7087767743248
 31
0.0
  0
LINE
  5
1975
330
A28
100
AcDbEntity
  8
SUNPOU
 48
2.0
100
AcDbLine
 10
231.7861635220116
 20
241.7087767743248
 30
0.0
 11
226.7861635220115
 21
241.7087767743248
 31
0.0
  0
LINE
  5
1976
330
A28
100
AcDbEntity
  8
SUNPOU
 48
2.0
100
AcDbLine
 10
251.2861635220116
 20
241.7087767743248
 30
0.0
 11
256.2861635220116
 21
241.7087767743248
 31
0.0
  0
MTEXT
  5
1977
330
A28
100
AcDbEntity
  8
SUNPOU
 48
2.0
100
AcDbMText
 10
253.5010069858803
 20
237.2087767743248
 30
0.0
 40
5.0
 41
0.0
 71
     5
 72
     1
  1
\A1;95
  7
SUNPOU
 11
-1.0
 21
0.0000000000000001
 31
0.0
1001
ACAD
1000
MTEXTBEGIN
1070
    73
1070
     1
1070
    44
1040
1.0
1070
    74
1070
     0
1000
MTEXTEND
  0
LINE
  5
1978
330
A28
100
AcDbEntity
  8
SUNPOU
 48
2.0
100
AcDbLine
 10
236.7861635220116
 20
241.7087767743248
 30
0.0
 11
246.2861635220117
 21
241.7087767743248
 31
0.0
  0
INSERT
  5
1979
330
A28
100
AcDbEntity
  8
SUNPOU
 48
2.0
100
AcDbBlockReference
  2
_OPEN30
 10
236.7861635220116
 20
241.7087767743248
 30
0.0
 41
5.0
 42
5.0
 43
5.0
  0
INSERT
  5
197A
330
A28
100
AcDbEntity
  8
SUNPOU
 48
2.0
100
AcDbBlockReference
  2
_OPEN30
 10
246.2861635220117
 20
241.7087767743248
 30
0.0
 41
5.0
 42
5.0
 43
5.0
 50
180.0
  0
POINT
  5
197B
330
A28
100
AcDbEntity
  8
DEFPOINTS
 62
     0
 48
2.0
100
AcDbPoint
 10
236.7861635220116
 20
226.1208336131083
 30
0.0
  0
POINT
  5
197C
330
A28
100
AcDbEntity
  8
DEFPOINTS
 62
     0
 48
2.0
100
AcDbPoint
 10
246.2861635220117
 20
228.6208336131084
 30
0.0
  0
POINT
  5
197D
330
A28
100
AcDbEntity
  8
DEFPOINTS
 62
     0
 48
2.0
100
AcDbPoint
 10
246.2861635220117
 20
241.7087767743248
 30
0.0
  0
ENDBLK
  5
A35
330
A28
100
AcDbEntity
  8
0
100
AcDbBlockEnd
  0
BLOCK
  5
A41
330
A37
100
AcDbEntity
  8
0
100
AcDbBlockBegin
  2
*D30
 70
     1
 10
0.0
 20
0.0
 30
0.0
  3
*D30
  1

  0
LINE
  5
18FB
330
A37
100
AcDbEntity
  8
SUNPOU
 48
2.0
100
AcDbLine
 10
46.28616352201169
 20
231.6208336131075
 30
0.0
 11
46.28616352201169
 21
253.3345405559673
 31
0.0
  0
LINE
  5
18FC
330
A37
100
AcDbEntity
  8
SUNPOU
 48
2.0
100
AcDbLine
 10
246.2861635220117
 20
231.6208336131078
 30
0.0
 11
246.2861635220117
 21
253.3345405559673
 31
0.0
  0
LINE
  5
18FD
330
A37
100
AcDbEntity
  8
SUNPOU
 48
2.0
100
AcDbLine
 10
51.28616352201169
 20
251.3345405559673
 30
0.0
 11
241.2861635220116
 21
251.3345405559673
 31
0.0
  0
MTEXT
  5
18FE
330
A37
100
AcDbEntity
  8
SUNPOU
 48
2.0
100
AcDbMText
 10
146.2861635220115
 20
246.8345405559673
 30
0.0
 40
5.0
 41
0.0
 71
     5
 72
     1
  1
\A1;DH
  7
SUNPOU
 11
-1.0
 21
0.0000000000000001
 31
0.0
1001
ACAD
1000
MTEXTBEGIN
1070
    73
1070
     1
1070
    44
1040
1.0
1070
    74
1070
     0
1000
MTEXTEND
  0
INSERT
  5
18FF
330
A37
100
AcDbEntity
  8
SUNPOU
 48
2.0
100
AcDbBlockReference
  2
_OPEN30
 10
46.28616352201169
 20
251.3345405559673
 30
0.0
 41
5.0
 42
5.0
 43
5.0
 50
180.0
  0
INSERT
  5
1900
330
A37
100
AcDbEntity
  8
SUNPOU
 48
2.0
100
AcDbBlockReference
  2
_OPEN30
 10
246.2861635220117
 20
251.3345405559673
 30
0.0
 41
5.0
 42
5.0
 43
5.0
  0
POINT
  5
1901
330
A37
100
AcDbEntity
  8
DEFPOINTS
 62
     0
 48
2.0
100
AcDbPoint
 10
46.28616352201169
 20
228.6208336131076
 30
0.0
  0
POINT
  5
1902
330
A37
100
AcDbEntity
  8
DEFPOINTS
 62
     0
 48
2.0
100
AcDbPoint
 10
246.2861635220117
 20
228.6208336131078
 30
0.0
  0
POINT
  5
1903
330
A37
100
AcDbEntity
  8
DEFPOINTS
 62
     0
 48
2.0
100
AcDbPoint
 10
246.2861635220117
 20
251.3345405559673
 30
0.0
  0
ENDBLK
  5
A42
330
A37
100
AcDbEntity
  8
0
100
AcDbBlockEnd
  0
BLOCK
  5
AF0
330
AE6
100
AcDbEntity
  8
0
100
AcDbBlockBegin
  2
*D31
 70
     1
 10
0.0
 20
0.0
 30
0.0
  3
*D31
  1

  0
LINE
  5
18B0
330
AE6
100
AcDbEntity
  8
SUNPOU
 48
2.0
100
AcDbLine
 10
321.9849936085214
 20
534.0000000000014
 30
0.0
 11
321.9849936085214
 21
548.0000000000016
 31
0.0
  0
LINE
  5
18B1
330
AE6
100
AcDbEntity
  8
SUNPOU
 48
2.0
100
AcDbLine
 10
353.9849936085213
 20
534.0000000000014
 30
0.0
 11
353.9849936085213
 21
548.0000000000016
 31
0.0
  0
LINE
  5
18B2
330
AE6
100
AcDbEntity
  8
SUNPOU
 48
2.0
100
AcDbLine
 10
326.9849936085214
 20
546.0000000000015
 30
0.0
 11
348.9849936085213
 21
546.0000000000015
 31
0.0
  0
MTEXT
  5
18B3
330
AE6
100
AcDbEntity
  8
SUNPOU
 48
2.0
100
AcDbMText
 10
337.9849936085213
 20
541.5000000000016
 30
0.0
 40
5.0
 41
0.0
 71
     5
 72
     1
  1
\A1;32
  7
SUNPOU
 11
-1.0
 21
0.0000000000000001
 31
0.0
1001
ACAD
1000
MTEXTBEGIN
1070
    73
1070
     1
1070
    44
1040
1.0
1070
    74
1070
     0
1000
MTEXTEND
  0
INSERT
  5
18B4
330
AE6
100
AcDbEntity
  8
SUNPOU
 48
2.0
100
AcDbBlockReference
  2
_OPEN30
 10
321.9849936085214
 20
546.0000000000015
 30
0.0
 41
5.0
 42
5.0
 43
5.0
 50
180.0
  0
INSERT
  5
18B5
330
AE6
100
AcDbEntity
  8
SUNPOU
 48
2.0
100
AcDbBlockReference
  2
_OPEN30
 10
353.9849936085213
 20
546.0000000000015
 30
0.0
 41
5.0
 42
5.0
 43
5.0
  0
POINT
  5
18B6
330
AE6
100
AcDbEntity
  8
DEFPOINTS
 62
     0
 48
2.0
100
AcDbPoint
 10
321.9849936085214
 20
531.0000000000013
 30
0.0
  0
POINT
  5
18B7
330
AE6
100
AcDbEntity
  8
DEFPOINTS
 62
     0
 48
2.0
100
AcDbPoint
 10
353.9849936085213
 20
531.0000000000013
 30
0.0
  0
POINT
  5
18B8
330
AE6
100
AcDbEntity
  8
DEFPOINTS
 62
     0
 48
2.0
100
AcDbPoint
 10
353.9849936085213
 20
546.0000000000015
 30
0.0
  0
ENDBLK
  5
AF1
330
AE6
100
AcDbEntity
  8
0
100
AcDbBlockEnd
  0
BLOCK
  5
B2E
330
B22
100
AcDbEntity
  8
0
100
AcDbBlockBegin
  2
*D32
 70
     1
 10
0.0
 20
0.0
 30
0.0
  3
*D32
  1

  0
LINE
  5
198D
330
B22
100
AcDbEntity
  8
HIKIDASI
 48
2.0
100
AcDbLine
 10
297.9849936085222
 20
89.00000000000151
 30
0.0
 11
298.9849936085223
 21
89.00000000000151
 31
0.0
  0
LINE
  5
198E
330
B22
100
AcDbEntity
  8
HIKIDASI
 48
2.0
100
AcDbLine
 10
297.9849936085222
 20
93.00000000000585
 30
0.0
 11
298.9849936085223
 21
93.00000000000585
 31
0.0
  0
LINE
  5
198F
330
B22
100
AcDbEntity
  8
HIKIDASI
 48
2.0
100
AcDbLine
 10
300.9849936085223
 20
84.00000000000151
 30
0.0
 11
300.9849936085223
 21
79.00000000000151
 31
0.0
  0
LINE
  5
1990
330
B22
100
AcDbEntity
  8
HIKIDASI
 48
2.0
100
AcDbLine
 10
300.9849936085223
 20
98.00000000000585
 30
0.0
 11
300.9849936085223
 21
103.0000000000058
 31
0.0
  0
LINE
  5
1991
330
B22
100
AcDbEntity
  8
HIKIDASI
 48
2.0
100
AcDbLine
 10
300.9849936085223
 20
91.00000000000369
 30
0.0
 11
291.9849936085223
 21
96.12624912718066
 31
0.0
  0
LINE
  5
1992
330
B22
100
AcDbEntity
  8
HIKIDASI
 48
2.0
100
AcDbLine
 10
291.9849936085223
 20
96.12624912718066
 30
0.0
 11
291.9849936085223
 21
162.1262491271806
 31
0.0
  0
MTEXT
  5
1993
330
B22
100
AcDbEntity
  8
HIKIDASI
 48
2.0
100
AcDbMText
 10
287.0683269418556
 20
129.1262491271807
 30
0.0
 40
5.0
 41
0.0
 71
     5
 72
     1
  1
\A1;2.5（両引き）,4（片引き）
  7
SUNPOU
 11
0.0000000000000001
 21
1.0
 31
0.0
  0
LINE
  5
1994
330
B22
100
AcDbEntity
  8
HIKIDASI
 48
2.0
100
AcDbLine
 10
300.9849936085223
 20
89.00000000000151
 30
0.0
 11
300.9849936085223
 21
93.00000000000585
 31
0.0
  0
LINE
  5
1995
330
B22
100
AcDbEntity
  8
HIKIDASI
 48
2.0
100
AcDbLine
 10
300.9849936085223
 20
89.00000000000151
 30
0.0
 11
300.9849936085223
 21
93.00000000000585
 31
0.0
  0
INSERT
  5
1996
330
B22
100
AcDbEntity
  8
HIKIDASI
 48
2.0
100
AcDbBlockReference
  2
_OPEN30
 10
300.9849936085223
 20
89.00000000000151
 30
0.0
 41
5.0
 42
5.0
 43
5.0
 50
90.0
  0
INSERT
  5
1997
330
B22
100
AcDbEntity
  8
HIKIDASI
 48
2.0
100
AcDbBlockReference
  2
_OPEN30
 10
300.9849936085223
 20
93.00000000000585
 30
0.0
 41
5.0
 42
5.0
 43
5.0
 50
270.0
  0
POINT
  5
1998
330
B22
100
AcDbEntity
  8
DEFPOINTS
 62
     0
 48
2.0
100
AcDbPoint
 10
300.9849936085223
 20
89.00000000000151
 30
0.0
  0
POINT
  5
1999
330
B22
100
AcDbEntity
  8
DEFPOINTS
 62
     0
 48
2.0
100
AcDbPoint
 10
300.9849936085223
 20
93.00000000000585
 30
0.0
  0
POINT
  5
199A
330
B22
100
AcDbEntity
  8
DEFPOINTS
 62
     0
 48
2.0
100
AcDbPoint
 10
300.9849936085223
 20
93.00000000000585
 30
0.0
  0
ENDBLK
  5
B2F
330
B22
100
AcDbEntity
  8
0
100
AcDbBlockEnd
  0
ENDSEC
  0
SECTION
  2
ENTITIES
  0
LINE
  5
148
330
A
100
AcDbEntity
  8
04
100
AcDbLine
 10
260.7861635220114
 20
354.6971110588886
 30
0.0
 11
260.7861635220114
 21
352.1971110588886
 31
0.0
  0
LINE
  5
149
330
A
100
AcDbEntity
  8
04
100
AcDbLine
 10
260.7861635220114
 20
330.6971110588886
 30
0.0
 11
260.7861635220114
 21
328.1971110588886
 31
0.0
  0
LINE
  5
152
330
A
100
AcDbEntity
  8
04
100
AcDbLine
 10
230.7861635220116
 20
330.6971110588885
 30
0.0
 11
230.7861635220115
 21
341.1471110588885
 31
0.0
  0
LINE
  5
153
330
A
100
AcDbEntity
  8
04
100
AcDbLine
 10
230.7861635220115
 20
341.7471110588883
 30
0.0
 11
230.7861635220114
 21
352.1971110588884
 31
0.0
  0
LINE
  5
156
330
A
100
AcDbEntity
  8
04
100
AcDbLine
 10
260.7861635220114
 20
330.6971110588886
 30
0.0
 11
230.7861635220116
 21
330.6971110588885
 31
0.0
  0
LINE
  5
158
330
A
100
AcDbEntity
  8
04
100
AcDbLine
 10
260.7861635220114
 20
352.1971110588886
 30
0.0
 11
230.7861635220114
 21
352.1971110588884
 31
0.0
  0
LINE
  5
175
330
A
100
AcDbEntity
  8
04
100
AcDbLine
 10
230.4861635220115
 20
341.4471110588883
 30
0.0
 11
230.7861635220114
 21
341.7471110588883
 31
0.0
  0
LINE
  5
176
330
A
100
AcDbEntity
  8
04
100
AcDbLine
 10
230.4861635220114
 20
341.4471110588883
 30
0.0
 11
230.7861635220112
 21
341.1471110588885
 31
0.0
  0
LINE
  5
17C
330
A
100
AcDbEntity
  8
03
100
AcDbLine
 10
157.2861635220117
 20
325.447111058888
 30
0.0
 11
262.2861635220114
 21
325.4471110588886
 31
0.0
  0
LINE
  5
17D
330
A
100
AcDbEntity
  8
03
100
AcDbLine
 10
157.6037051564929
 20
357.447111058888
 30
0.0
 11
262.2861635220111
 21
357.4471110588886
 31
0.0
  0
LINE
  5
17E
330
A
100
AcDbEntity
  8
03
100
AcDbLine
 10
262.2861635220114
 20
356.1971110588884
 30
0.0
 11
262.2861635220114
 21
357.4471110588886
 31
0.0
  0
LINE
  5
17F
330
A
100
AcDbEntity
  8
03
100
AcDbLine
 10
262.2861635220115
 20
325.4471110588886
 30
0.0
 11
262.2861635220115
 21
326.6971110588886
 31
0.0
  0
LINE
  5
180
330
A
100
AcDbEntity
  8
04
100
AcDbLine
 10
56.78616352201153
 20
354.1971110588884
 30
0.0
 11
56.78616352201135
 21
354.6971110588886
 31
0.0
  0
LINE
  5
197
330
A
100
AcDbEntity
  8
04
100
AcDbLine
 10
56.78616352201153
 20
328.6971110588885
 30
0.0
 11
56.78616352201153
 21
329.1971110588885
 31
0.0
  0
LINE
  5
1AE
330
A
100
AcDbEntity
  8
04
100
AcDbLine
 10
141.2861635220115
 20
333.4471110588873
 30
0.0
 11
141.2861635220115
 21
327.4471110588896
 31
0.0
  0
LINE
  5
1B0
330
A
100
AcDbEntity
  8
04
100
AcDbLine
 10
141.2861635220114
 20
349.4471110588873
 30
0.0
 11
141.2861635220114
 21
355.4471110588887
 31
0.0
  0
ARC
  5
1D3
330
A
100
AcDbEntity
  8
03
100
AcDbCircle
 10
148.3572313338768
 20
335.9471110588876
 30
0.0
 40
7.5
100
AcDbArc
 50
160.5287793655094
 51
199.4712206344908
  0
ARC
  5
1D4
330
A
100
AcDbEntity
  8
03
100
AcDbCircle
 10
148.3572313338768
 20
346.9471110588878
 30
0.0
 40
7.5
100
AcDbArc
 50
160.5287793655094
 51
199.4712206344908
  0
LINE
  5
1D5
330
A
100
AcDbEntity
  8
04
100
AcDbLine
 10
56.28616352201129
 20
356.1971110588884
 30
0.0
 11
140.5361635220114
 21
356.1971110588887
 31
0.0
  0
ARC
  5
1D6
330
A
100
AcDbEntity
  8
04
100
AcDbCircle
 10
140.5361635220114
 20
355.4471110588887
 30
0.0
 40
0.75
100
AcDbArc
 50
0.0000000000003295
 51
90.00000000000026
  0
LINE
  5
1D7
330
A
100
AcDbEntity
  8
04
100
AcDbLine
 10
140.5361635220117
 20
326.6971110588896
 30
0.0
 11
56.2861635220115
 21
326.6971110588893
 31
0.0
  0
ARC
  5
1D8
330
A
100
AcDbEntity
  8
04
100
AcDbCircle
 10
140.5361635220117
 20
327.4471110588896
 30
0.0
 40
0.75
100
AcDbArc
 50
270.0
 51
0.0000000000007994
  0
LINE
  5
1D9
330
A
100
AcDbEntity
  8
03
100
AcDbLine
 10
56.28616352201127
 20
356.1971110588884
 30
0.0
 11
56.28616352201124
 21
357.4471110588874
 31
0.0
  0
LINE
  5
1DA
330
A
100
AcDbEntity
  8
03
100
AcDbLine
 10
56.28616352201141
 20
326.6971110588893
 30
0.0
 11
56.2861635220115
 21
325.4471110588883
 31
0.0
  0
LINE
  5
1DB
330
A
100
AcDbEntity
  8
03
100
AcDbLine
 10
151.2861635220115
 20
357.4471110588878
 30
0.0
 11
56.28616352201124
 21
357.4471110588874
 31
0.0
  0
LINE
  5
1DC
330
A
100
AcDbEntity
  8
03
100
AcDbLine
 10
151.2861635220115
 20
325.4471110588887
 30
0.0
 11
56.2861635220115
 21
325.4471110588883
 31
0.0
  0
LINE
  5
1DD
330
A
100
AcDbEntity
  8
04
100
AcDbLine
 10
46.28616352201208
 20
137.2208336131074
 30
0.0
 11
46.28616352201169
 21
228.6208336131076
 31
0.0
  0
LINE
  5
1DE
330
A
100
AcDbEntity
  8
04
100
AcDbLine
 10
246.2861635220119
 20
137.2208336131082
 30
0.0
 11
246.2861635220117
 21
228.6208336131084
 31
0.0
  0
LINE
  5
1DF
330
A
100
AcDbEntity
  8
04
100
AcDbLine
 10
46.28616352201208
 20
137.2208336131074
 30
0.0
 11
246.2861635220119
 21
137.2208336131082
 31
0.0
  0
LINE
  5
1E0
330
A
100
AcDbEntity
  8
04
100
AcDbLine
 10
46.28616352201163
 20
228.6208336131076
 30
0.0
 11
246.2861635220117
 21
228.6208336131079
 31
0.0
  0
LINE
  5
1E2
330
A
100
AcDbEntity
  8
04
100
AcDbLine
 10
46.28616352201208
 20
139.7208336131074
 30
0.0
 11
246.2861635220119
 21
139.7208336131084
 31
0.0
  0
LINE
  5
1E3
330
A
100
AcDbEntity
  8
04
100
AcDbLine
 10
46.28616352201186
 20
226.1208336131076
 30
0.0
 11
246.2861635220117
 21
226.1208336131079
 31
0.0
  0
LINE
  5
1E5
330
A
100
AcDbEntity
  8
04
100
AcDbLine
 10
236.7861635220119
 20
139.7208336131082
 30
0.0
 11
236.7861635220116
 21
226.1208336131083
 31
0.0
  0
LINE
  5
1E6
330
A
100
AcDbEntity
  8
04
100
AcDbLine
 10
54.78616352201209
 20
139.7208336131075
 30
0.0
 11
54.78616352201186
 21
226.1208336131076
 31
0.0
  0
LINE
  5
1EB
330
A
100
AcDbEntity
  8
04
100
AcDbLine
 10
180.595669678733
 20
482.7079080776218
 30
0.0
 11
180.595669678733
 21
480.207908077622
 31
0.0
  0
LINE
  5
1EC
330
A
100
AcDbEntity
  8
04
100
AcDbLine
 10
180.5956696787333
 20
458.7079080776218
 30
0.0
 11
180.5956696787333
 21
456.2079080776221
 31
0.0
  0
LINE
  5
1F5
330
A
100
AcDbEntity
  8
04
100
AcDbLine
 10
150.5956696787335
 20
458.7079080776218
 30
0.0
 11
150.5956696787334
 21
469.157908077622
 31
0.0
  0
LINE
  5
1F6
330
A
100
AcDbEntity
  8
04
100
AcDbLine
 10
150.5956696787334
 20
469.7579080776218
 30
0.0
 11
150.5956696787333
 21
480.2079080776218
 31
0.0
  0
LINE
  5
1F9
330
A
100
AcDbEntity
  8
04
100
AcDbLine
 10
180.5956696787333
 20
458.7079080776218
 30
0.0
 11
150.5956696787335
 21
458.7079080776218
 31
0.0
  0
LINE
  5
1FB
330
A
100
AcDbEntity
  8
04
100
AcDbLine
 10
180.595669678733
 20
480.207908077622
 30
0.0
 11
150.5956696787333
 21
480.2079080776218
 31
0.0
  0
LINE
  5
218
330
A
100
AcDbEntity
  8
04
100
AcDbLine
 10
150.2956696787334
 20
469.4579080776218
 30
0.0
 11
150.5956696787333
 21
469.7579080776218
 31
0.0
  0
LINE
  5
219
330
A
100
AcDbEntity
  8
04
100
AcDbLine
 10
150.2956696787333
 20
469.4579080776218
 30
0.0
 11
150.5956696787332
 21
469.157908077622
 31
0.0
  0
LINE
  5
21F
330
A
100
AcDbEntity
  8
03
100
AcDbLine
 10
77.82075471697955
 20
453.4579080776214
 30
0.0
 11
182.0956696787334
 21
453.457908077622
 31
0.0
  0
LINE
  5
220
330
A
100
AcDbEntity
  8
03
100
AcDbLine
 10
77.82075471697942
 20
485.4579080776215
 30
0.0
 11
182.095669678733
 21
485.4579080776217
 31
0.0
  0
LINE
  5
221
330
A
100
AcDbEntity
  8
03
100
AcDbLine
 10
182.095669678733
 20
484.207908077622
 30
0.0
 11
182.095669678733
 21
485.4579080776217
 31
0.0
  0
LINE
  5
222
330
A
100
AcDbEntity
  8
03
100
AcDbLine
 10
182.0956696787335
 20
453.457908077622
 30
0.0
 11
182.0956696787335
 21
454.707908077622
 31
0.0
  0
LINE
  5
223
330
A
100
AcDbEntity
  8
03
100
AcDbLine
 10
189.0956696787334
 20
449.2079080776221
 30
0.0
 11
189.0956696787334
 21
460.2079080776221
 31
0.0
  0
LINE
  5
224
330
A
100
AcDbEntity
  8
03
100
AcDbLine
 10
189.0956696787333
 20
478.7079080776224
 30
0.0
 11
189.0956696787331
 21
497.7079080776221
 31
0.0
  0
LINE
  5
225
330
A
100
AcDbEntity
  8
03
100
AcDbLine
 10
189.845669678733
 20
498.4579080776224
 30
0.0
 11
204.095669678733
 21
498.4579080776221
 31
0.0
  0
ARC
  5
226
330
A
100
AcDbEntity
  8
03
100
AcDbCircle
 10
189.845669678733
 20
497.7079080776221
 30
0.0
 40
0.75
100
AcDbArc
 50
90.00000000000026
 51
180.0000000000003
  0
LINE
  5
227
330
A
100
AcDbEntity
  8
03
100
AcDbLine
 10
219.0956696787333
 20
477.9579080776222
 30
0.0
 11
219.0956696787333
 21
460.9579080776222
 31
0.0
  0
LINE
  5
228
330
A
100
AcDbEntity
  8
03
100
AcDbLine
 10
204.0956696787334
 20
448.4579080776223
 30
0.0
 11
189.8456696787333
 21
448.4579080776221
 31
0.0
  0
ARC
  5
229
330
A
100
AcDbEntity
  8
03
100
AcDbCircle
 10
189.8456696787333
 20
449.2079080776221
 30
0.0
 40
0.75
100
AcDbArc
 50
180.0000000000002
 51
270.0
  0
LINE
  5
22A
330
A
100
AcDbEntity
  8
03
100
AcDbLine
 10
221.8956696787334
 20
449.9579080776221
 30
0.0
 11
190.5956696787334
 21
449.9579080776221
 31
0.0
  0
LINE
  5
22B
330
A
100
AcDbEntity
  8
03
100
AcDbLine
 10
190.5956696787329
 20
496.9579080776224
 30
0.0
 11
221.8956696787329
 21
496.9579080776222
 31
0.0
  0
LINE
  5
22C
330
A
100
AcDbEntity
  8
03
100
AcDbLine
 10
189.8456696787333
 20
460.9579080776224
 30
0.0
 11
219.0956696787333
 21
460.9579080776222
 31
0.0
  0
ARC
  5
22D
330
A
100
AcDbEntity
  8
03
100
AcDbCircle
 10
189.8456696787333
 20
460.2079080776221
 30
0.0
 40
0.75
100
AcDbArc
 50
90.00000000000026
 51
180.0000000000003
  0
LINE
  5
22E
330
A
100
AcDbEntity
  8
03
100
AcDbLine
 10
189.8456696787333
 20
477.9579080776223
 30
0.0
 11
219.0956696787333
 21
477.9579080776222
 31
0.0
  0
ARC
  5
22F
330
A
100
AcDbEntity
  8
03
100
AcDbCircle
 10
189.8456696787333
 20
478.7079080776224
 30
0.0
 40
0.75
100
AcDbArc
 50
180.0000000000003
 51
270.0
  0
LINE
  5
230
330
A
100
AcDbEntity
  8
03
100
AcDbLine
 10
190.5956696787333
 20
479.4579080776222
 30
0.0
 11
219.8456696787334
 21
479.4579080776222
 31
0.0
  0
LINE
  5
231
330
A
100
AcDbEntity
  8
03
100
AcDbLine
 10
190.5956696787334
 20
459.4579080776224
 30
0.0
 11
219.8456696787335
 21
459.4579080776222
 31
0.0
  0
LINE
  5
232
330
A
100
AcDbEntity
  8
03
100
AcDbLine
 10
220.5956696787329
 20
494.6579080776221
 30
0.0
 11
220.5956696787334
 21
452.2579080776222
 31
0.0
  0
ARC
  5
233
330
A
100
AcDbEntity
  8
03
100
AcDbCircle
 10
219.8456696787334
 20
478.7079080776222
 30
0.0
 40
0.75
100
AcDbArc
 50
0.0000000000000241
 51
90.00000000000026
  0
ARC
  5
234
330
A
100
AcDbEntity
  8
03
100
AcDbCircle
 10
219.8456696787335
 20
460.2079080776221
 30
0.0
 40
0.75
100
AcDbArc
 50
270.0
 51
0.0
  0
LINE
  5
235
330
A
100
AcDbEntity
  8
03
100
AcDbLine
 10
222.8956696787331
 20
495.9579080776221
 30
0.0
 11
222.8956696787334
 21
450.9579080776222
 31
0.0
  0
ARC
  5
236
330
A
100
AcDbEntity
  8
03
100
AcDbCircle
 10
221.8956696787334
 20
450.9579080776222
 30
0.0
 40
1.0
100
AcDbArc
 50
270.0
 51
0.0
  0
ARC
  5
237
330
A
100
AcDbEntity
  8
03
100
AcDbCircle
 10
221.8956696787329
 20
495.9579080776221
 30
0.0
 40
1.0
100
AcDbArc
 50
0.0000000000000241
 51
90.00000000000026
  0
LINE
  5
238
330
A
100
AcDbEntity
  8
03
100
AcDbLine
 10
220.5956696787334
 20
452.2579080776222
 30
0.0
 11
190.5956696787334
 21
452.2579080776221
 31
0.0
  0
LINE
  5
239
330
A
100
AcDbEntity
  8
03
100
AcDbLine
 10
190.5956696787329
 20
494.6579080776223
 30
0.0
 11
220.5956696787329
 21
494.6579080776221
 31
0.0
  0
LINE
  5
23A
330
A
100
AcDbEntity
  8
03
100
AcDbLine
 10
190.5956696787334
 20
449.9579080776221
 30
0.0
 11
190.5956696787334
 21
459.4579080776224
 31
0.0
  0
LINE
  5
23B
330
A
100
AcDbEntity
  8
03
100
AcDbLine
 10
190.5956696787333
 20
479.4579080776222
 30
0.0
 11
190.5956696787329
 21
496.9579080776224
 31
0.0
  0
LINE
  5
23C
330
A
100
AcDbEntity
  8
03
100
AcDbLine
 10
204.0956696787334
 20
448.4579080776223
 30
0.0
 11
204.0956696787334
 21
449.9579080776221
 31
0.0
  0
LINE
  5
23D
330
A
100
AcDbEntity
  8
03
100
AcDbLine
 10
204.095669678733
 20
498.4579080776221
 30
0.0
 11
204.095669678733
 21
496.9579080776221
 31
0.0
  0
LINE
  5
23E
330
A
100
AcDbEntity
  8
03
100
AcDbLine
 10
163.3456696787332
 20
479.9579080776218
 30
0.0
 11
181.3456696787326
 21
479.9579080776221
 31
0.0
  0
ARC
  5
23F
330
A
100
AcDbEntity
  8
03
100
AcDbCircle
 10
163.3456696787333
 20
479.2079080776217
 30
0.0
 40
0.75
100
AcDbArc
 50
90.00000000000026
 51
180.0
  0
LINE
  5
240
330
A
100
AcDbEntity
  8
03
100
AcDbLine
 10
182.0956696787328
 20
479.2079080776221
 30
0.0
 11
182.0956696787333
 21
473.9579080776222
 31
0.0
  0
ARC
  5
241
330
A
100
AcDbEntity
  8
03
100
AcDbCircle
 10
181.3456696787326
 20
479.2079080776221
 30
0.0
 40
0.75
100
AcDbArc
 50
0.0000000000034846
 51
90.00000000000026
  0
LINE
  5
242
330
A
100
AcDbEntity
  8
03
100
AcDbLine
 10
182.0956696787333
 20
464.9579080776221
 30
0.0
 11
182.0956696787334
 21
459.7079080776222
 31
0.0
  0
LINE
  5
243
330
A
100
AcDbEntity
  8
03
100
AcDbLine
 10
181.3456696787334
 20
458.957908077622
 30
0.0
 11
163.3456696787334
 21
458.957908077622
 31
0.0
  0
ARC
  5
244
330
A
100
AcDbEntity
  8
03
100
AcDbCircle
 10
181.3456696787334
 20
459.7079080776222
 30
0.0
 40
0.75
100
AcDbArc
 50
270.0
 51
359.9999999999996
  0
ARC
  5
245
330
A
100
AcDbEntity
  8
03
100
AcDbCircle
 10
163.3456696787334
 20
459.707908077622
 30
0.0
 40
0.75
100
AcDbArc
 50
180.0
 51
270.0
  0
LINE
  5
246
330
A
100
AcDbEntity
  8
03
100
AcDbLine
 10
164.0956696787334
 20
460.4579080776217
 30
0.0
 11
164.0956696787333
 21
465.457908077622
 31
0.0
  0
LINE
  5
247
330
A
100
AcDbEntity
  8
03
100
AcDbLine
 10
164.0956696787333
 20
473.457908077622
 30
0.0
 11
164.0956696787333
 21
478.457908077622
 31
0.0
  0
LINE
  5
248
330
A
100
AcDbEntity
  8
03
100
AcDbLine
 10
180.5956696787333
 20
460.4579080776221
 30
0.0
 11
164.0956696787334
 21
460.4579080776217
 31
0.0
  0
LINE
  5
249
330
A
100
AcDbEntity
  8
03
100
AcDbLine
 10
164.0956696787333
 20
478.457908077622
 30
0.0
 11
180.5956696787333
 21
478.4579080776222
 31
0.0
  0
LINE
  5
24A
330
A
100
AcDbEntity
  8
03
100
AcDbLine
 10
180.5956696787329
 20
478.4579080776222
 30
0.0
 11
180.5956696787326
 21
473.9579080776222
 31
0.0
  0
LINE
  5
24B
330
A
100
AcDbEntity
  8
03
100
AcDbLine
 10
180.5956696787329
 20
464.9579080776223
 30
0.0
 11
180.5956696787334
 21
460.4579080776221
 31
0.0
  0
LINE
  5
24C
330
A
100
AcDbEntity
  8
03
100
AcDbLine
 10
180.5956696787329
 20
473.9579080776222
 30
0.0
 11
182.0956696787333
 21
473.957908077622
 31
0.0
  0
LINE
  5
24D
330
A
100
AcDbEntity
  8
03
100
AcDbLine
 10
180.5956696787333
 20
464.9579080776223
 30
0.0
 11
182.0956696787335
 21
464.9579080776218
 31
0.0
  0
LINE
  5
24E
330
A
100
AcDbEntity
  8
03
100
AcDbLine
 10
162.5956696787334
 20
459.3079080776218
 30
0.0
 11
162.5956696787333
 21
478.2079080776218
 31
0.0
  0
LINE
  5
24F
330
A
100
AcDbEntity
  8
03
100
AcDbLine
 10
164.0956696787333
 20
465.457908077622
 30
0.0
 11
164.0956696787333
 21
473.457908077622
 31
0.0
  0
LINE
  5
250
330
A
100
AcDbEntity
  8
03
100
AcDbLine
 10
162.5956696787333
 20
479.2079080776217
 30
0.0
 11
162.5956696787334
 21
459.707908077622
 31
0.0
  0
LINE
  5
251
330
A
100
AcDbEntity
  8
03
100
AcDbLine
 10
174.5956696787335
 20
462.2079080776221
 30
0.0
 11
174.5956696787335
 21
476.7079080776221
 31
0.0
  0
LINE
  5
252
330
A
100
AcDbEntity
  8
03
100
AcDbLine
 10
175.5956696787334
 20
477.7079080776221
 30
0.0
 11
179.1956696787333
 21
477.7079080776221
 31
0.0
  0
ARC
  5
253
330
A
100
AcDbEntity
  8
03
100
AcDbCircle
 10
175.5956696787334
 20
476.7079080776221
 30
0.0
 40
1.0
100
AcDbArc
 50
90.00000000000023
 51
180.0000000000002
  0
LINE
  5
254
330
A
100
AcDbEntity
  8
03
100
AcDbLine
 10
175.5956696787334
 20
461.2079080776221
 30
0.0
 11
179.1956696787333
 21
461.2079080776221
 31
0.0
  0
ARC
  5
255
330
A
100
AcDbEntity
  8
03
100
AcDbCircle
 10
175.5956696787334
 20
462.2079080776221
 30
0.0
 40
1.0
100
AcDbArc
 50
180.0000000000002
 51
269.9999999999999
  0
LINE
  5
256
330
A
100
AcDbEntity
  8
03
100
AcDbLine
 10
175.5956696787334
 20
462.2079080776221
 30
0.0
 11
175.5956696787334
 21
476.7079080776221
 31
0.0
  0
LINE
  5
257
330
A
100
AcDbEntity
  8
03
100
AcDbLine
 10
175.5956696787334
 20
476.7079080776221
 30
0.0
 11
179.1956696787333
 21
476.7079080776221
 31
0.0
  0
LINE
  5
258
330
A
100
AcDbEntity
  8
03
100
AcDbLine
 10
175.5956696787334
 20
462.2079080776221
 30
0.0
 11
179.1956696787333
 21
462.2079080776221
 31
0.0
  0
LINE
  5
259
330
A
100
AcDbEntity
  8
03
100
AcDbLine
 10
179.1956696787333
 20
476.7079080776221
 30
0.0
 11
179.1956696787333
 21
477.7079080776221
 31
0.0
  0
LINE
  5
25A
330
A
100
AcDbEntity
  8
03
100
AcDbLine
 10
179.1956696787333
 20
461.2079080776221
 30
0.0
 11
179.1956696787333
 21
462.2079080776221
 31
0.0
  0
LINE
  5
25B
330
A
100
AcDbEntity
  8
03
100
AcDbLine
 10
323.2349936085223
 20
118.0000000000015
 30
0.0
 11
323.2349936085217
 21
408.0000000000016
 31
0.0
  0
LINE
  5
25C
330
A
100
AcDbEntity
  8
03
100
AcDbLine
 10
323.2349936085216
 20
414.0000000000015
 30
0.0
 11
323.2349936085213
 21
488.0000000000015
 31
0.0
  0
LINE
  5
25D
330
A
100
AcDbEntity
  8
03
100
AcDbLine
 10
323.2349936085213
 20
494.0000000000016
 30
0.0
 11
323.2349936085213
 21
506.0000000000012
 31
0.0
  0
LINE
  5
25E
330
A
100
AcDbEntity
  8
03
100
AcDbLine
 10
352.7349936085223
 20
118.0000000000017
 30
0.0
 11
352.7349936085216
 21
408.0000000000016
 31
0.0
  0
LINE
  5
25F
330
A
100
AcDbEntity
  8
03
100
AcDbLine
 10
352.7349936085216
 20
414.0000000000017
 30
0.0
 11
352.7349936085213
 21
488.0000000000015
 31
0.0
  0
LINE
  5
260
330
A
100
AcDbEntity
  8
03
100
AcDbLine
 10
352.7349936085213
 20
494.0000000000017
 30
0.0
 11
352.7349936085213
 21
506.0000000000017
 31
0.0
  0
LINE
  5
261
330
A
100
AcDbEntity
  8
03
100
AcDbLine
 10
324.7349936085222
 20
118.0000000000015
 30
0.0
 11
324.7349936085216
 21
408.0000000000016
 31
0.0
  0
LINE
  5
262
330
A
100
AcDbEntity
  8
03
100
AcDbLine
 10
324.7349936085216
 20
414.0000000000015
 30
0.0
 11
324.7349936085214
 21
488.0000000000015
 31
0.0
  0
LINE
  5
263
330
A
100
AcDbEntity
  8
03
100
AcDbLine
 10
324.7349936085214
 20
494.0000000000016
 30
0.0
 11
324.7349936085214
 21
506.0000000000012
 31
0.0
  0
LINE
  5
264
330
A
100
AcDbEntity
  8
03
100
AcDbLine
 10
351.2349936085223
 20
118.0000000000017
 30
0.0
 11
351.2349936085216
 21
408.0000000000016
 31
0.0
  0
LINE
  5
265
330
A
100
AcDbEntity
  8
03
100
AcDbLine
 10
351.2349936085216
 20
414.0000000000017
 30
0.0
 11
351.2349936085213
 21
488.0000000000015
 31
0.0
  0
LINE
  5
266
330
A
100
AcDbEntity
  8
03
100
AcDbLine
 10
351.2349936085213
 20
494.0000000000017
 30
0.0
 11
351.2349936085213
 21
506.0000000000017
 31
0.0
  0
LINE
  5
267
330
A
100
AcDbEntity
  8
03
100
AcDbLine
 10
327.2349936085223
 20
118.0000000000015
 30
0.0
 11
327.2349936085216
 21
408.0000000000016
 31
0.0
  0
LINE
  5
268
330
A
100
AcDbEntity
  8
03
100
AcDbLine
 10
327.2349936085216
 20
414.0000000000015
 30
0.0
 11
327.2349936085213
 21
488.0000000000015
 31
0.0
  0
LINE
  5
269
330
A
100
AcDbEntity
  8
03
100
AcDbLine
 10
327.2349936085213
 20
494.0000000000016
 30
0.0
 11
327.2349936085213
 21
506.0000000000015
 31
0.0
  0
LINE
  5
26A
330
A
100
AcDbEntity
  8
03
100
AcDbLine
 10
348.7349936085223
 20
118.0000000000017
 30
0.0
 11
348.7349936085216
 21
408.0000000000016
 31
0.0
  0
LINE
  5
26B
330
A
100
AcDbEntity
  8
03
100
AcDbLine
 10
348.7349936085216
 20
414.0000000000017
 30
0.0
 11
348.7349936085213
 21
488.0000000000015
 31
0.0
  0
LINE
  5
26C
330
A
100
AcDbEntity
  8
03
100
AcDbLine
 10
348.7349936085213
 20
494.0000000000017
 30
0.0
 11
348.7349936085213
 21
506.0000000000017
 31
0.0
  0
LINE
  5
26D
330
A
100
AcDbEntity
  8
03
100
AcDbLine
 10
331.7349936085221
 20
239.2500000000016
 30
0.0
 11
344.234993608522
 21
239.2500000000018
 31
0.0
  0
LINE
  5
26E
330
A
100
AcDbEntity
  8
03
100
AcDbLine
 10
331.7349936085216
 20
269.7500000000014
 30
0.0
 11
344.234993608522
 21
269.7500000000017
 31
0.0
  0
LINE
  5
26F
330
A
100
AcDbEntity
  8
03
100
AcDbLine
 10
331.7349936085221
 20
239.2500000000016
 30
0.0
 11
331.7349936085219
 21
269.7500000000014
 31
0.0
  0
LINE
  5
270
330
A
100
AcDbEntity
  8
03
100
AcDbLine
 10
344.2349936085219
 20
239.2500000000016
 30
0.0
 11
344.2349936085219
 21
269.7500000000018
 31
0.0
  0
CIRCLE
  5
271
330
A
100
AcDbEntity
  8
03
100
AcDbCircle
 10
332.4849936085222
 20
168.0000000000018
 30
0.0
 40
2.099999999999999
  0
CIRCLE
  5
272
330
A
100
AcDbEntity
  8
03
100
AcDbCircle
 10
332.4849936085222
 20
168.0000000000018
 30
0.0
 40
3.0
  0
CIRCLE
  5
273
330
A
100
AcDbEntity
  8
03
100
AcDbCircle
 10
343.4849936085221
 20
168.0000000000019
 30
0.0
 40
2.099999999999999
  0
CIRCLE
  5
274
330
A
100
AcDbEntity
  8
03
100
AcDbCircle
 10
343.4849936085221
 20
168.0000000000019
 30
0.0
 40
3.0
  0
CIRCLE
  5
275
330
A
100
AcDbEntity
  8
03
100
AcDbCircle
 10
337.9849936085216
 20
358.0000000000016
 30
0.0
 40
2.099999999999999
  0
CIRCLE
  5
276
330
A
100
AcDbEntity
  8
03
100
AcDbCircle
 10
337.9849936085216
 20
358.0000000000016
 30
0.0
 40
3.0
  0
CIRCLE
  5
277
330
A
100
AcDbEntity
  8
03
100
AcDbCircle
 10
337.9849936085215
 20
464.0000000000015
 30
0.0
 40
2.099999999999999
  0
CIRCLE
  5
278
330
A
100
AcDbEntity
  8
03
100
AcDbCircle
 10
337.9849936085215
 20
464.0000000000015
 30
0.0
 40
3.0
  0
LINE
  5
279
330
A
100
AcDbEntity
  8
SAISEN
100
AcDbLine
 10
360.852260323489
 20
408.0000000000016
 30
0.0
 11
312.6983037926418
 21
408.0000000000016
 31
0.0
  0
LINE
  5
27A
330
A
100
AcDbEntity
  8
SAISEN
100
AcDbLine
 10
360.852260323489
 20
414.0000000000017
 30
0.0
 11
312.6983037926418
 21
414.0000000000015
 31
0.0
  0
LINE
  5
27B
330
A
100
AcDbEntity
  8
03
100
AcDbLine
 10
323.2349936085216
 20
414.0000000000015
 30
0.0
 11
352.7349936085216
 21
414.0000000000017
 31
0.0
  0
LINE
  5
27C
330
A
100
AcDbEntity
  8
SAISEN
100
AcDbLine
 10
312.6983037926417
 20
488.0000000000015
 30
0.0
 11
360.8522603234888
 21
488.0000000000015
 31
0.0
  0
LINE
  5
27D
330
A
100
AcDbEntity
  8
SAISEN
100
AcDbLine
 10
312.6983037926417
 20
494.0000000000015
 30
0.0
 11
360.8522603234888
 21
494.0000000000017
 31
0.0
  0
LINE
  5
27E
330
A
100
AcDbEntity
  8
04
100
AcDbLine
 10
321.9849936085223
 20
118.0000000000015
 30
0.0
 11
321.9849936085223
 21
93.00000000000158
 31
0.0
  0
LINE
  5
27F
330
A
100
AcDbEntity
  8
04
100
AcDbLine
 10
321.9849936085223
 20
93.00000000000158
 30
0.0
 11
330.9849936085222
 21
93.00000000000158
 31
0.0
  0
LINE
  5
280
330
A
100
AcDbEntity
  8
04
100
AcDbLine
 10
330.9849936085222
 20
94.50000000000164
 30
0.0
 11
323.4849936085223
 21
94.50000000000164
 31
0.0
  0
LINE
  5
281
330
A
100
AcDbEntity
  8
04
100
AcDbLine
 10
323.4849936085223
 20
94.50000000000164
 30
0.0
 11
323.4849936085223
 21
116.5000000000015
 31
0.0
  0
LINE
  5
282
330
A
100
AcDbEntity
  8
04
100
AcDbLine
 10
323.4849936085223
 20
116.5000000000015
 30
0.0
 11
332.9849936085222
 21
116.5000000000015
 31
0.0
  0
LINE
  5
283
330
A
100
AcDbEntity
  8
04
100
AcDbLine
 10
332.9849936085222
 20
118.0000000000015
 30
0.0
 11
321.9849936085223
 21
118.0000000000015
 31
0.0
  0
LINE
  5
284
330
A
100
AcDbEntity
  8
04
100
AcDbLine
 10
353.9849936085222
 20
118.0000000000016
 30
0.0
 11
353.9849936085222
 21
93.00000000000167
 31
0.0
  0
LINE
  5
285
330
A
100
AcDbEntity
  8
04
100
AcDbLine
 10
353.9849936085222
 20
93.00000000000167
 30
0.0
 11
344.9849936085223
 21
93.00000000000158
 31
0.0
  0
LINE
  5
286
330
A
100
AcDbEntity
  8
04
100
AcDbLine
 10
344.9849936085223
 20
94.50000000000164
 30
0.0
 11
352.4849936085225
 21
94.50000000000171
 31
0.0
  0
LINE
  5
287
330
A
100
AcDbEntity
  8
04
100
AcDbLine
 10
352.4849936085225
 20
94.50000000000171
 30
0.0
 11
352.4849936085223
 21
116.5000000000016
 31
0.0
  0
LINE
  5
288
330
A
100
AcDbEntity
  8
04
100
AcDbLine
 10
352.4849936085223
 20
116.5000000000016
 30
0.0
 11
342.9849936085222
 21
116.5000000000015
 31
0.0
  0
LINE
  5
289
330
A
100
AcDbEntity
  8
04
100
AcDbLine
 10
342.9849936085222
 20
118.0000000000015
 30
0.0
 11
353.9849936085222
 21
118.0000000000016
 31
0.0
  0
LINE
  5
28A
330
A
100
AcDbEntity
  8
04
100
AcDbLine
 10
342.9849936085222
 20
118.0000000000015
 30
0.0
 11
342.9849936085222
 21
116.5000000000015
 31
0.0
  0
LINE
  5
28B
330
A
100
AcDbEntity
  8
04
100
AcDbLine
 10
332.9849936085222
 20
118.0000000000015
 30
0.0
 11
332.9849936085222
 21
116.5000000000015
 31
0.0
  0
LINE
  5
28C
330
A
100
AcDbEntity
  8
04
100
AcDbLine
 10
330.9849936085222
 20
93.00000000000158
 30
0.0
 11
330.9849936085222
 21
94.50000000000164
 31
0.0
  0
LINE
  5
28D
330
A
100
AcDbEntity
  8
04
100
AcDbLine
 10
344.9849936085223
 20
93.00000000000158
 30
0.0
 11
344.9849936085223
 21
94.50000000000164
 31
0.0
  0
LINE
  5
28E
330
A
100
AcDbEntity
  8
04
100
AcDbLine
 10
332.9849936085216
 20
506.0000000000015
 30
0.0
 11
321.9849936085214
 21
506.0000000000015
 31
0.0
  0
LINE
  5
28F
330
A
100
AcDbEntity
  8
04
100
AcDbLine
 10
321.9849936085214
 20
506.0000000000015
 30
0.0
 11
321.9849936085214
 21
516.5000000000015
 31
0.0
  0
LINE
  5
290
330
A
100
AcDbEntity
  8
04
100
AcDbLine
 10
321.9849936085214
 20
521.5000000000014
 30
0.0
 11
321.9849936085214
 21
531.0000000000013
 31
0.0
  0
LINE
  5
291
330
A
100
AcDbEntity
  8
04
100
AcDbLine
 10
321.9849936085214
 20
531.0000000000013
 30
0.0
 11
353.9849936085213
 21
531.0000000000013
 31
0.0
  0
LINE
  5
292
330
A
100
AcDbEntity
  8
04
100
AcDbLine
 10
353.9849936085213
 20
531.0000000000013
 30
0.0
 11
353.9849936085216
 21
506.0000000000015
 31
0.0
  0
LINE
  5
293
330
A
100
AcDbEntity
  8
04
100
AcDbLine
 10
353.9849936085216
 20
506.0000000000015
 30
0.0
 11
342.9849936085216
 21
506.0000000000015
 31
0.0
  0
LINE
  5
294
330
A
100
AcDbEntity
  8
04
100
AcDbLine
 10
332.9849936085216
 20
507.5000000000013
 30
0.0
 11
323.4849936085215
 21
507.5000000000016
 31
0.0
  0
LINE
  5
295
330
A
100
AcDbEntity
  8
04
100
AcDbLine
 10
323.4849936085215
 20
507.5000000000016
 30
0.0
 11
323.4849936085215
 21
516.5000000000015
 31
0.0
  0
LINE
  5
296
330
A
100
AcDbEntity
  8
04
100
AcDbLine
 10
323.4849936085215
 20
521.5000000000014
 30
0.0
 11
323.4849936085213
 21
529.5000000000015
 31
0.0
  0
LINE
  5
297
330
A
100
AcDbEntity
  8
04
100
AcDbLine
 10
323.4849936085213
 20
529.5000000000015
 30
0.0
 11
352.4849936085215
 21
529.5000000000015
 31
0.0
  0
LINE
  5
298
330
A
100
AcDbEntity
  8
04
100
AcDbLine
 10
352.4849936085215
 20
529.5000000000015
 30
0.0
 11
352.4849936085215
 21
507.5000000000015
 31
0.0
  0
LINE
  5
299
330
A
100
AcDbEntity
  8
04
100
AcDbLine
 10
352.4849936085215
 20
507.5000000000015
 30
0.0
 11
342.9849936085216
 21
507.5000000000013
 31
0.0
  0
LINE
  5
29A
330
A
100
AcDbEntity
  8
04
100
AcDbLine
 10
342.9849936085216
 20
506.0000000000015
 30
0.0
 11
342.9849936085216
 21
507.5000000000013
 31
0.0
  0
LINE
  5
29B
330
A
100
AcDbEntity
  8
04
100
AcDbLine
 10
332.9849936085214
 20
506.0000000000015
 30
0.0
 11
332.9849936085214
 21
507.5000000000013
 31
0.0
  0
LINE
  5
2A3
330
A
100
AcDbEntity
  8
06
100
AcDbLine
 10
327.4849936085216
 20
529.5000000000015
 30
0.0
 11
327.4849936085213
 21
531.0000000000013
 31
0.0
  0
LINE
  5
2A4
330
A
100
AcDbEntity
  8
06
100
AcDbLine
 10
348.4849936085208
 20
529.5000000000015
 30
0.0
 11
348.4849936085213
 21
531.0000000000017
 31
0.0
  0
LINE
  5
2A5
330
A
100
AcDbEntity
  8
06
100
AcDbLine
 10
327.4849936085221
 20
507.5000000000017
 30
0.0
 11
327.4849936085225
 21
506.0000000000015
 31
0.0
  0
LINE
  5
2A6
330
A
100
AcDbEntity
  8
06
100
AcDbLine
 10
348.4849936085213
 20
507.5000000000017
 30
0.0
 11
348.4849936085215
 21
506.0000000000017
 31
0.0
  0
LINE
  5
2A7
330
A
100
AcDbEntity
  8
06
100
AcDbLine
 10
327.4849936085223
 20
94.50000000000182
 30
0.0
 11
327.4849936085228
 21
93.0000000000018
 31
0.0
  0
LINE
  5
2A8
330
A
100
AcDbEntity
  8
06
100
AcDbLine
 10
348.4849936085223
 20
94.500000000002
 30
0.0
 11
348.4849936085201
 21
93.00000000000164
 31
0.0
  0
LINE
  5
2A9
330
A
100
AcDbEntity
  8
06
100
AcDbLine
 10
327.4849936085223
 20
116.5000000000016
 30
0.0
 11
327.4849936085223
 21
118.0000000000015
 31
0.0
  0
LINE
  5
2AA
330
A
100
AcDbEntity
  8
06
100
AcDbLine
 10
348.4849936085223
 20
116.5000000000016
 30
0.0
 11
348.4849936085223
 21
118.0000000000017
 31
0.0
  0
LINE
  5
2AC
330
A
100
AcDbEntity
  8
CHUSIN
100
AcDbLine
 10
51.82075471698022
 20
341.4471110588871
 30
0.0
 11
262.4800838574409
 21
341.4471110588885
 31
0.0
  0
LINE
  5
2B1
330
A
100
AcDbEntity
  8
CHUSIN
100
AcDbLine
 10
80.82075471697931
 20
469.4579080776215
 30
0.0
 11
230.5058121102005
 21
469.4579080776223
 31
0.0
  0
LINE
  5
2B2
330
A
100
AcDbEntity
  8
CHUSIN
100
AcDbLine
 10
337.9849936085223
 20
84.66140132948519
 30
0.0
 11
337.9849936085213
 21
533.9376877025828
 31
0.0
  0
LINE
  5
2B3
330
A
100
AcDbEntity
  8
CHUSIN
100
AcDbLine
 10
319.1765370923291
 20
254.5000000000015
 30
0.0
 11
357.0201584915058
 21
254.5000000000018
 31
0.0
  0
LINE
  5
2B4
330
A
100
AcDbEntity
  8
CHUSIN
100
AcDbLine
 10
332.4849936085222
 20
161.2898136335504
 30
0.0
 11
332.4849936085221
 21
175.7168002118833
 31
0.0
  0
LINE
  5
2B5
330
A
100
AcDbEntity
  8
CHUSIN
100
AcDbLine
 10
343.4849936085222
 20
161.2898136335505
 30
0.0
 11
343.4849936085221
 21
175.7168002118834
 31
0.0
  0
LINE
  5
2B6
330
A
100
AcDbEntity
  8
CHUSIN
100
AcDbLine
 10
284.6383647798733
 20
89.00000000000162
 30
0.0
 11
364.0807246998276
 21
89.00000000000177
 31
0.0
  0
LINE
  5
2B7
330
A
100
AcDbEntity
  8
CHUSIN
100
AcDbLine
 10
328.4013722126918
 20
168.0000000000018
 30
0.0
 11
347.8010291595186
 21
168.0000000000019
 31
0.0
  0
LINE
  5
2B8
330
A
100
AcDbEntity
  8
CHUSIN
100
AcDbLine
 10
345.0742209834176
 20
358.0000000000016
 30
0.0
 11
330.2360396416986
 21
358.0000000000016
 31
0.0
  0
LINE
  5
2BB
330
A
100
AcDbEntity
  8
CHUSIN
100
AcDbLine
 10
314.0898669439981
 20
519.0000000000012
 30
0.0
 11
328.5343113884428
 21
519.0000000000012
 31
0.0
  0
LINE
  5
2BC
330
A
100
AcDbEntity
  8
CHUSIN
100
AcDbLine
 10
331.7349936085216
 20
269.7500000000014
 30
0.0
 11
344.234993608522
 21
239.2500000000018
 31
0.0
  0
LINE
  5
2BD
330
A
100
AcDbEntity
  8
CHUSIN
100
AcDbLine
 10
344.234993608522
 20
269.7500000000017
 30
0.0
 11
331.7349936085221
 21
239.2500000000016
 31
0.0
  0
LINE
  5
2BE
330
A
100
AcDbEntity
  8
04
100
AcDbLine
 10
168.0361635220115
 20
356.1971110588887
 30
0.0
 11
262.2861635220111
 21
356.1971110588884
 31
0.0
  0
LINE
  5
2BF
330
A
100
AcDbEntity
  8
04
100
AcDbLine
 10
262.2861635220114
 20
326.6971110588886
 30
0.0
 11
168.0361635220114
 21
326.6971110588896
 31
0.0
  0
LINE
  5
2CC
330
A
100
AcDbEntity
  8
04
100
AcDbLine
 10
262.2861635220114
 20
354.6971110588886
 30
0.0
 11
262.2861635220114
 21
356.1971110588884
 31
0.0
  0
LINE
  5
2CD
330
A
100
AcDbEntity
  8
04
100
AcDbLine
 10
262.2861635220115
 20
326.6971110588886
 30
0.0
 11
262.2861635220114
 21
328.1971110588886
 31
0.0
  0
LINE
  5
2CE
330
A
100
AcDbEntity
  8
02
100
AcDbLine
 10
157.2861635220115
 20
338.447111058888
 30
0.0
 11
187.2861635220115
 21
338.4471110588882
 31
0.0
  0
LINE
  5
2CF
330
A
100
AcDbEntity
  8
02
100
AcDbLine
 10
157.2861635220115
 20
344.447111058888
 30
0.0
 11
187.2861635220115
 21
344.447111058888
 31
0.0
  0
LINE
  5
2D0
330
A
100
AcDbEntity
  8
02
100
AcDbLine
 10
157.2861635220115
 20
343.947111058888
 30
0.0
 11
187.2861635220115
 21
343.947111058888
 31
0.0
  0
LINE
  5
2D1
330
A
100
AcDbEntity
  8
02
100
AcDbLine
 10
157.2861635220115
 20
338.947111058888
 30
0.0
 11
187.2861635220115
 21
338.9471110588881
 31
0.0
  0
LINE
  5
2D2
330
A
100
AcDbEntity
  8
02
100
AcDbLine
 10
187.2861635220115
 20
338.4471110588882
 30
0.0
 11
187.2861635220115
 21
344.447111058888
 31
0.0
  0
ARC
  5
2D3
330
A
100
AcDbEntity
  8
03
100
AcDbCircle
 10
157.603705156493
 20
346.947111058888
 30
0.0
 40
9.999999999999904
100
AcDbArc
 50
345.5224878140692
 51
14.47751218592942
  0
ARC
  5
2D4
330
A
100
AcDbEntity
  8
03
100
AcDbCircle
 10
157.6037051564926
 20
335.947111058888
 30
0.0
 40
10.00000000000015
100
AcDbArc
 50
345.5224878140703
 51
14.47751218592937
  0
LINE
  5
2F3
330
A
100
AcDbEntity
  8
02
100
AcDbLine
 10
116.2861635220115
 20
338.4471110588878
 30
0.0
 11
116.2861635220115
 21
344.4471110588878
 31
0.0
  0
LINE
  5
2F4
330
A
100
AcDbEntity
  8
06
100
AcDbLine
 10
56.78616352201135
 20
354.1971110588884
 30
0.0
 11
55.28616352201135
 21
354.1971110588884
 31
0.0
  0
LINE
  5
2F6
330
A
100
AcDbEntity
  8
06
100
AcDbLine
 10
56.78616352201153
 20
329.1971110588885
 30
0.0
 11
55.78616352201152
 21
329.1971110588885
 31
0.0
  0
LINE
  5
2F7
330
A
100
AcDbEntity
  8
06
100
AcDbLine
 10
55.78616352201163
 20
320.9971110588885
 30
0.0
 11
55.78616352201152
 21
329.1971110588885
 31
0.0
  0
LINE
  5
2F8
330
A
100
AcDbEntity
  8
06
100
AcDbLine
 10
55.28616352201135
 20
354.1971110588884
 30
0.0
 11
55.28616352201163
 21
324.1971110588885
 31
0.0
  0
LINE
  5
2F9
330
A
100
AcDbEntity
  8
06
100
AcDbLine
 10
55.28616352201163
 20
324.1971110588885
 30
0.0
 11
55.78616352201163
 21
320.9971110588885
 31
0.0
  0
LINE
  5
333
330
A
100
AcDbEntity
  8
02
100
AcDbLine
 10
151.2861635220115
 20
344.4471110588878
 30
0.0
 11
116.2861635220115
 21
344.4471110588878
 31
0.0
  0
LINE
  5
334
330
A
100
AcDbEntity
  8
02
100
AcDbLine
 10
151.2861635220115
 20
338.4471110588878
 30
0.0
 11
116.2861635220115
 21
338.4471110588878
 31
0.0
  0
LINE
  5
335
330
A
100
AcDbEntity
  8
02
100
AcDbLine
 10
151.2861635220115
 20
338.9471110588877
 30
0.0
 11
116.2861635220115
 21
338.9471110588877
 31
0.0
  0
LINE
  5
336
330
A
100
AcDbEntity
  8
02
100
AcDbLine
 10
151.2861635220115
 20
343.9471110588878
 30
0.0
 11
116.2861635220115
 21
343.9471110588876
 31
0.0
  0
LINE
  5
339
330
A
100
AcDbEntity
  8
SAISEN
100
AcDbLine
 10
151.2861635220118
 20
315.4471110588878
 30
0.0
 11
151.2861635220115
 21
367.4471110588878
 31
0.0
  0
LINE
  5
33A
330
A
100
AcDbEntity
  8
SAISEN
100
AcDbLine
 10
157.2861635220118
 20
315.4471110588878
 30
0.0
 11
157.2861635220115
 21
367.4471110588878
 31
0.0
  0
LINE
  5
342
330
A
100
AcDbEntity
  8
04
100
AcDbLine
 10
87.84566967873358
 20
484.2079080776223
 30
0.0
 11
182.095669678733
 21
484.207908077622
 31
0.0
  0
LINE
  5
343
330
A
100
AcDbEntity
  8
04
100
AcDbLine
 10
182.0956696787334
 20
454.707908077622
 30
0.0
 11
87.8456696787332
 21
454.7079080776232
 31
0.0
  0
LINE
  5
350
330
A
100
AcDbEntity
  8
04
100
AcDbLine
 10
182.0956696787333
 20
482.7079080776218
 30
0.0
 11
182.095669678733
 21
484.207908077622
 31
0.0
  0
LINE
  5
351
330
A
100
AcDbEntity
  8
04
100
AcDbLine
 10
182.0956696787335
 20
454.707908077622
 30
0.0
 11
182.0956696787335
 21
456.2079080776221
 31
0.0
  0
LINE
  5
352
330
A
100
AcDbEntity
  8
03
100
AcDbLine
 10
193.223575758398
 20
452.2579080776221
 30
0.0
 11
195.5215313139536
 21
449.9579080776221
 31
0.0
  0
LINE
  5
353
330
A
100
AcDbEntity
  8
03
100
AcDbLine
 10
194.223575758398
 20
452.2579080776222
 30
0.0
 11
196.5215313139536
 21
449.9579080776221
 31
0.0
  0
LINE
  5
354
330
A
100
AcDbEntity
  8
03
100
AcDbLine
 10
209.5956696787335
 20
452.2579080776223
 30
0.0
 11
211.893625234289
 21
449.9579080776221
 31
0.0
  0
LINE
  5
355
330
A
100
AcDbEntity
  8
03
100
AcDbLine
 10
210.5956696787333
 20
452.2579080776223
 30
0.0
 11
212.893625234289
 21
449.9579080776221
 31
0.0
  0
LINE
  5
356
330
A
100
AcDbEntity
  8
03
100
AcDbLine
 10
194.595669678733
 20
496.9579080776221
 30
0.0
 11
196.8936252342886
 21
494.6579080776221
 31
0.0
  0
LINE
  5
357
330
A
100
AcDbEntity
  8
03
100
AcDbLine
 10
195.595669678733
 20
496.9579080776221
 30
0.0
 11
197.8936252342886
 21
494.6579080776221
 31
0.0
  0
LINE
  5
358
330
A
100
AcDbEntity
  8
03
100
AcDbLine
 10
210.895669678733
 20
496.9579080776222
 30
0.0
 11
213.1936252342885
 21
494.6579080776221
 31
0.0
  0
LINE
  5
359
330
A
100
AcDbEntity
  8
03
100
AcDbLine
 10
211.8956696787331
 20
496.9579080776222
 30
0.0
 11
214.1936252342885
 21
494.6579080776221
 31
0.0
  0
LINE
  5
35A
330
A
100
AcDbEntity
  8
03
100
AcDbLine
 10
220.5956696787334
 20
471.9291182931486
 30
0.0
 11
222.8956696787334
 21
470.3569891376936
 31
0.0
  0
LINE
  5
35B
330
A
100
AcDbEntity
  8
03
100
AcDbLine
 10
220.5956696787334
 20
472.9291182931488
 30
0.0
 11
222.8956696787334
 21
471.3569891376936
 31
0.0
  0
LINE
  5
35C
330
A
100
AcDbEntity
  8
03
100
AcDbLine
 10
199.8456696787334
 20
460.9579080776221
 30
0.0
 11
201.3443363454002
 21
459.4579080776221
 31
0.0
  0
LINE
  5
35D
330
A
100
AcDbEntity
  8
03
100
AcDbLine
 10
199.0956696787334
 20
449.9579080776221
 30
0.0
 11
200.5943363454
 21
448.4579080776223
 31
0.0
  0
LINE
  5
35E
330
A
100
AcDbEntity
  8
03
100
AcDbLine
 10
199.095669678733
 20
498.4579080776221
 30
0.0
 11
200.5943363453998
 21
496.9579080776221
 31
0.0
  0
LINE
  5
35F
330
A
100
AcDbEntity
  8
03
100
AcDbLine
 10
209.8456696787333
 20
479.4579080776222
 30
0.0
 11
211.3443363453999
 21
477.9579080776222
 31
0.0
  0
LINE
  5
360
330
A
100
AcDbEntity
  8
03
100
AcDbLine
 10
189.0956696787334
 20
454.6942821626839
 30
0.0
 11
190.5956696787334
 21
453.5312765489303
 31
0.0
  0
LINE
  5
361
330
A
100
AcDbEntity
  8
03
100
AcDbLine
 10
189.0956696787331
 20
484.2079080776223
 30
0.0
 11
190.5956696787333
 21
483.0449024638686
 31
0.0
  0
LINE
  5
362
330
A
100
AcDbEntity
  8
06
100
AcDbLine
 10
162.5956696787334
 20
458.957908077622
 30
0.0
 11
150.5956696787335
 21
458.957908077622
 31
0.0
  0
LINE
  5
363
330
A
100
AcDbEntity
  8
06
100
AcDbLine
 10
162.5956696787332
 20
479.9579080776218
 30
0.0
 11
150.5956696787333
 21
479.9579080776218
 31
0.0
  0
LINE
  5
364
330
A
100
AcDbEntity
  8
02
100
AcDbLine
 10
76.31145305275897
 20
466.4579080776215
 30
0.0
 11
107.0956696787334
 21
466.4579080776215
 31
0.0
  0
LINE
  5
365
330
A
100
AcDbEntity
  8
02
100
AcDbLine
 10
76.31145305275868
 20
472.4579080776215
 30
0.0
 11
107.0956696787332
 21
472.4579080776216
 31
0.0
  0
LINE
  5
366
330
A
100
AcDbEntity
  8
02
100
AcDbLine
 10
76.31145305275868
 20
471.9579080776215
 30
0.0
 11
107.0956696787332
 21
471.9579080776216
 31
0.0
  0
LINE
  5
367
330
A
100
AcDbEntity
  8
02
100
AcDbLine
 10
76.31145305275897
 20
466.9579080776215
 30
0.0
 11
107.0956696787334
 21
466.9579080776215
 31
0.0
  0
LINE
  5
368
330
A
100
AcDbEntity
  8
02
100
AcDbLine
 10
107.0956696787334
 20
466.4579080776215
 30
0.0
 11
107.0956696787332
 21
472.4579080776216
 31
0.0
  0
LINE
  5
389
330
A
100
AcDbEntity
  8
06
100
AcDbLine
 10
162.5956696787332
 20
479.9579080776218
 30
0.0
 11
162.5956696787334
 21
458.957908077622
 31
0.0
  0
LINE
  5
38A
330
A
100
AcDbEntity
  8
06
100
AcDbLine
 10
150.5956696787333
 20
479.9579080776218
 30
0.0
 11
162.5956696787334
 21
458.957908077622
 31
0.0
  0
LINE
  5
38B
330
A
100
AcDbEntity
  8
06
100
AcDbLine
 10
162.5956696787332
 20
479.9579080776218
 30
0.0
 11
150.5956696787335
 21
458.957908077622
 31
0.0
  0
LINE
  5
38C
330
A
100
AcDbEntity
  8
06
100
AcDbLine
 10
150.5956696787335
 20
458.957908077622
 30
0.0
 11
150.5956696787333
 21
479.9579080776218
 31
0.0
  0
LINE
  5
38D
330
A
100
AcDbEntity
  8
03
100
AcDbLine
 10
178.1104623937573
 20
461.2079080776221
 30
0.0
 11
177.1104623937573
 21
462.2079080776221
 31
0.0
  0
LINE
  5
38E
330
A
100
AcDbEntity
  8
03
100
AcDbLine
 10
175.5956696787334
 20
463.7227007926461
 30
0.0
 11
174.5956696787335
 21
464.7227007926461
 31
0.0
  0
LINE
  5
38F
330
A
100
AcDbEntity
  8
03
100
AcDbLine
 10
175.5956696787334
 20
475.0364092916306
 30
0.0
 11
174.5956696787335
 21
476.0364092916307
 31
0.0
  0
LINE
  5
390
330
A
100
AcDbEntity
  8
SAISEN
100
AcDbLine
 10
111.9772712012347
 20
216.0054807627754
 30
0.0
 11
167.5692145638883
 21
160.4135374001219
 31
0.0
  0
LINE
  5
391
330
A
100
AcDbEntity
  8
SAISEN
100
AcDbLine
 10
126.4512713840199
 20
197.5314805799902
 30
0.0
 11
154.3438588785179
 21
169.6388930854924
 31
0.0
  0
LINE
  5
392
330
A
100
AcDbEntity
  8
SAISEN
100
AcDbLine
 10
130.4512713840199
 20
201.53148057999
 30
0.0
 11
158.343858878518
 21
173.6388930854925
 31
0.0
  0
CIRCLE
  5
3AB
330
A
100
AcDbEntity
  8
06
100
AcDbCircle
 10
332.4849936085216
 20
168.0000000000019
 30
0.0
 40
1.649999999999999
  0
CIRCLE
  5
3AC
330
A
100
AcDbEntity
  8
06
100
AcDbCircle
 10
332.4849936085216
 20
168.0000000000019
 30
0.0
 40
2.0
  0
CIRCLE
  5
3AD
330
A
100
AcDbEntity
  8
06
100
AcDbCircle
 10
343.4849936085222
 20
168.0000000000021
 30
0.0
 40
1.649999999999999
  0
CIRCLE
  5
3AE
330
A
100
AcDbEntity
  8
06
100
AcDbCircle
 10
343.4849936085222
 20
168.0000000000021
 30
0.0
 40
2.0
  0
CIRCLE
  5
3AF
330
A
100
AcDbEntity
  8
06
100
AcDbCircle
 10
337.9849936085216
 20
358.0000000000016
 30
0.0
 40
1.649999999999999
  0
CIRCLE
  5
3B0
330
A
100
AcDbEntity
  8
06
100
AcDbCircle
 10
337.9849936085216
 20
358.0000000000016
 30
0.0
 40
2.0
  0
CIRCLE
  5
3B1
330
A
100
AcDbEntity
  8
06
100
AcDbCircle
 10
337.9849936085215
 20
464.0000000000015
 30
0.0
 40
1.649999999999999
  0
CIRCLE
  5
3B2
330
A
100
AcDbEntity
  8
06
100
AcDbCircle
 10
337.9849936085215
 20
464.0000000000015
 30
0.0
 40
2.0
  0
LINE
  5
3C5
330
A
100
AcDbEntity
  8
06
100
AcDbLine
 10
328.4849936085223
 20
99.50000000000166
 30
0.0
 11
328.4849936085223
 21
97.50000000000177
 31
0.0
  0
ARC
  5
3C6
330
A
100
AcDbEntity
  8
06
100
AcDbCircle
 10
330.9849936085222
 20
93.5000000000017
 30
0.0
 40
0.5
100
AcDbArc
 50
269.9999999999963
 51
359.9999999999997
  0
ARC
  5
3C7
330
A
100
AcDbEntity
  8
06
100
AcDbCircle
 10
330.9849936085222
 20
97.00000000000166
 30
0.0
 40
0.5
100
AcDbArc
 50
359.9999999999988
 51
90.00000000000005
  0
LINE
  5
3C8
330
A
100
AcDbEntity
  8
06
100
AcDbLine
 10
331.0106694218946
 20
93.00000000000158
 30
0.0
 11
327.4849936085225
 21
93.00000000000158
 31
0.0
  0
ARC
  5
3C9
330
A
100
AcDbEntity
  8
06
100
AcDbCircle
 10
327.9849936085228
 20
91.50000000000151
 30
0.0
 40
0.5
100
AcDbArc
 50
180.0000000000061
 51
269.9999999999999
  0
LINE
  5
3CA
330
A
100
AcDbEntity
  8
06
100
AcDbLine
 10
343.9818140717346
 20
91.0000000000017
 30
0.0
 11
347.9849936085221
 21
91.00000000000179
 31
0.0
  0
ARC
  5
3CB
330
A
100
AcDbEntity
  8
06
100
AcDbCircle
 10
347.9849936085223
 20
91.50000000000162
 30
0.0
 40
0.5
100
AcDbArc
 50
269.9999999999999
 51
359.9999999999968
  0
ARC
  5
3CC
330
A
100
AcDbEntity
  8
06
100
AcDbCircle
 10
344.9849936085223
 20
93.5000000000017
 30
0.0
 40
0.5
100
AcDbArc
 50
180.0000000000001
 51
269.9999999999973
  0
ARC
  5
3CD
330
A
100
AcDbEntity
  8
06
100
AcDbCircle
 10
344.9849936085223
 20
97.00000000000166
 30
0.0
 40
0.5
100
AcDbArc
 50
89.99999999999934
 51
180.0000000000006
  0
LINE
  5
3CE
330
A
100
AcDbEntity
  8
06
100
AcDbLine
 10
347.4849936085223
 20
97.50000000000184
 30
0.0
 11
347.4849936085223
 21
99.50000000000173
 31
0.0
  0
ARC
  5
3CF
330
A
100
AcDbEntity
  8
06
100
AcDbCircle
 10
342.9849936085222
 20
91.0000000000017
 30
0.0
 40
0.9999999999999998
100
AcDbArc
 50
1.089776598848612
 51
269.7801583421028
  0
LINE
  5
3D0
330
A
100
AcDbEntity
  8
06
100
AcDbLine
 10
328.4849936085223
 20
97.50000000000177
 30
0.0
 11
330.9890573855091
 21
97.50000000000177
 31
0.0
  0
LINE
  5
3D1
330
A
100
AcDbEntity
  8
06
100
AcDbLine
 10
331.4849936085221
 20
97.11069983644485
 30
0.0
 11
331.4849936085221
 21
93.41541122949314
 31
0.0
  0
LINE
  5
3D2
330
A
100
AcDbEntity
  8
06
100
AcDbLine
 10
327.4849936085225
 20
93.00000000000158
 30
0.0
 11
327.4849936085225
 21
91.38940966679319
 31
0.0
  0
LINE
  5
3D3
330
A
100
AcDbEntity
  8
06
100
AcDbLine
 10
327.9203580855315
 20
91.0000000000017
 30
0.0
 11
331.9850544512557
 21
91.0000000000017
 31
0.0
  0
LINE
  5
3D4
330
A
100
AcDbEntity
  8
06
100
AcDbLine
 10
343.9944201387818
 20
91.0000000000017
 30
0.0
 11
348.0699291682455
 21
91.00000000000179
 31
0.0
  0
LINE
  5
3D5
330
A
100
AcDbEntity
  8
06
100
AcDbLine
 10
348.4849936085223
 20
91.41975561885926
 30
0.0
 11
348.4849936085223
 21
93.00000000000167
 31
0.0
  0
LINE
  5
3D6
330
A
100
AcDbEntity
  8
06
100
AcDbLine
 10
348.4849936085223
 20
93.00000000000167
 30
0.0
 11
344.9578881501356
 21
93.00000000000158
 31
0.0
  0
LINE
  5
3D7
330
A
100
AcDbEntity
  8
06
100
AcDbLine
 10
344.4849936085223
 20
93.41323385110063
 30
0.0
 11
344.4849936085223
 21
97.00000000000166
 31
0.0
  0
LINE
  5
3D8
330
A
100
AcDbEntity
  8
06
100
AcDbLine
 10
344.9849936085223
 20
97.50000000000163
 30
0.0
 11
347.4849936085223
 21
97.50000000000184
 31
0.0
  0
ARC
  5
3D9
330
A
100
AcDbEntity
  8
06
100
AcDbCircle
 10
332.9849936085222
 20
91.0000000000017
 30
0.0
 40
0.9999999999999998
100
AcDbArc
 50
268.5608206497648
 51
182.1466053101533
  0
LINE
  5
3DA
330
A
100
AcDbEntity
  8
06
100
AcDbLine
 10
332.9928487882401
 20
90.00453519012642
 30
0.0
 11
328.6548665896006
 21
87.50000000000204
 31
0.0
  0
LINE
  5
3DB
330
A
100
AcDbEntity
  8
06
100
AcDbLine
 10
335.6739540011634
 20
90.39777146815399
 30
0.0
 11
329.1548665896011
 21
86.63397459621767
 31
0.0
  0
ARC
  5
3DC
330
A
100
AcDbEntity
  8
06
100
AcDbCircle
 10
336.0489540011637
 20
89.74825241531567
 30
0.0
 40
0.75
100
AcDbArc
 50
14.52922472886204
 51
119.9999999999991
  0
ARC
  5
3DD
330
A
100
AcDbEntity
  8
06
100
AcDbCircle
 10
328.9048665896003
 20
87.06698729810971
 30
0.0
 40
0.5
100
AcDbArc
 50
119.9999999999999
 51
209.9999999999796
  0
ARC
  5
3DE
330
A
100
AcDbEntity
  8
06
100
AcDbCircle
 10
337.9849936085221
 20
90.25000000000151
 30
0.0
 40
1.249999999999998
100
AcDbArc
 50
194.5292247288626
 51
345.4707752711232
  0
ARC
  5
3DF
330
A
100
AcDbEntity
  8
06
100
AcDbCircle
 10
339.9210332158808
 20
89.7482524153151
 30
0.0
 40
0.75
100
AcDbArc
 50
60.00000000000348
 51
165.4707752711233
  0
ARC
  5
3E0
330
A
100
AcDbEntity
  8
06
100
AcDbCircle
 10
328.904866589601
 20
87.06698729811
 30
0.0
 40
0.5
100
AcDbArc
 50
209.9999999999868
 51
299.999999999999
  0
LINE
  5
3E1
330
A
100
AcDbEntity
  8
06
100
AcDbLine
 10
342.9782671975713
 20
90.00388349517498
 30
0.0
 11
347.3151206274446
 21
87.50000000000156
 31
0.0
  0
LINE
  5
3E2
330
A
100
AcDbEntity
  8
06
100
AcDbLine
 10
340.2960332158808
 20
90.39777146815373
 30
0.0
 11
346.8151206274445
 21
86.6339745962172
 31
0.0
  0
ARC
  5
3E3
330
A
100
AcDbEntity
  8
06
100
AcDbCircle
 10
347.0651206274445
 20
87.0669872981095
 30
0.0
 40
0.5
100
AcDbArc
 50
240.0000000000033
 51
329.9999999999986
  0
ARC
  5
3E4
330
A
100
AcDbEntity
  8
06
100
AcDbCircle
 10
347.0651206274445
 20
87.0669872981095
 30
0.0
 40
0.5
100
AcDbArc
 50
330.0000000000341
 51
59.99999999999992
  0
LINE
  5
3E5
330
A
100
AcDbEntity
  8
06
100
AcDbLine
 10
332.9979874566323
 20
93.5342407134866
 30
0.0
 11
332.9979874566323
 21
97.03424071348656
 31
0.0
  0
LINE
  5
3E6
330
A
100
AcDbEntity
  8
06
100
AcDbLine
 10
333.4979874566323
 20
93.03424071348649
 30
0.0
 11
342.4979874566322
 21
93.03424071348649
 31
0.0
  0
ARC
  5
3E7
330
A
100
AcDbEntity
  8
06
100
AcDbCircle
 10
333.4979874566323
 20
93.5342407134866
 30
0.0
 40
0.5
100
AcDbArc
 50
180.0000000000004
 51
269.9999999999999
  0
LINE
  5
3E8
330
A
100
AcDbEntity
  8
06
100
AcDbLine
 10
342.9979874566323
 20
93.5342407134866
 30
0.0
 11
342.9979874566323
 21
97.03424071348656
 31
0.0
  0
ARC
  5
3E9
330
A
100
AcDbEntity
  8
06
100
AcDbCircle
 10
342.4979874566322
 20
93.53424071348632
 30
0.0
 40
0.5
100
AcDbArc
 50
269.9999999999999
 51
0.0000000000003197
  0
LINE
  5
3EA
330
A
100
AcDbEntity
  8
06
100
AcDbLine
 10
333.4979874566322
 20
97.53424071348639
 30
0.0
 11
342.4979874566322
 21
97.53424071348669
 31
0.0
  0
ARC
  5
3EB
330
A
100
AcDbEntity
  8
06
100
AcDbCircle
 10
342.4979874566322
 20
97.03424071348656
 30
0.0
 40
0.5
100
AcDbArc
 50
0.0000000000003295
 51
90.00000000000005
  0
ARC
  5
3EC
330
A
100
AcDbEntity
  8
06
100
AcDbCircle
 10
333.4979874566322
 20
97.03424071348656
 30
0.0
 40
0.5
100
AcDbArc
 50
90.00000000000005
 51
180.0000000000018
  0
LINE
  5
419
330
A
100
AcDbEntity
  8
06
100
AcDbLine
 10
324.9849936085215
 20
522.5000000000013
 30
0.0
 11
327.2849936085214
 21
522.5000000000012
 31
0.0
  0
LINE
  5
41A
330
A
100
AcDbEntity
  8
06
100
AcDbLine
 10
327.2849936085214
 20
522.5000000000012
 30
0.0
 11
327.2849936085214
 21
515.5000000000016
 31
0.0
  0
LINE
  5
41B
330
A
100
AcDbEntity
  8
06
100
AcDbLine
 10
327.2849936085214
 20
515.5000000000016
 30
0.0
 11
324.9849936085215
 21
515.5000000000016
 31
0.0
  0
LINE
  5
41C
330
A
100
AcDbEntity
  8
06
100
AcDbLine
 10
324.9849936085215
 20
515.5000000000016
 30
0.0
 11
324.9849936085215
 21
516.3148217501777
 31
0.0
  0
LINE
  5
41D
330
A
100
AcDbEntity
  8
06
100
AcDbLine
 10
321.9849936085214
 20
516.7500000000016
 30
0.0
 11
324.4849936085216
 21
516.7500000000016
 31
0.0
  0
ARC
  5
41E
330
A
100
AcDbEntity
  8
06
100
AcDbCircle
 10
324.4849936085216
 20
516.2500000000013
 30
0.0
 40
0.5
100
AcDbArc
 50
359.9999999999953
 51
90.00000000000005
  0
LINE
  5
41F
330
A
100
AcDbEntity
  8
06
100
AcDbLine
 10
324.9849936085215
 20
522.5000000000013
 30
0.0
 11
324.9849936085215
 21
521.7500000000017
 31
0.0
  0
LINE
  5
420
330
A
100
AcDbEntity
  8
06
100
AcDbLine
 10
321.9849936085214
 20
521.2500000000016
 30
0.0
 11
324.4849936085216
 21
521.2500000000016
 31
0.0
  0
ARC
  5
421
330
A
100
AcDbEntity
  8
06
100
AcDbCircle
 10
324.4849936085216
 20
521.7500000000016
 30
0.0
 40
0.5
100
AcDbArc
 50
269.9999999999999
 51
0.0000000000043965
  0
LINE
  5
422
330
A
100
AcDbEntity
  8
06
100
AcDbLine
 10
318.9849936085216
 20
520.0117766566718
 30
0.0
 11
318.9849936085216
 21
518.0117766566718
 31
0.0
  0
LINE
  5
423
330
A
100
AcDbEntity
  8
06
100
AcDbLine
 10
316.9849936085213
 20
519.0043721133671
 30
0.0
 11
316.9849936085213
 21
519.019181199977
 31
0.0
  0
LINE
  5
424
330
A
100
AcDbEntity
  8
06
100
AcDbLine
 10
318.9849936085216
 20
520.0117766566718
 30
0.0
 11
317.3358561119533
 21
519.4964211889944
 31
0.0
  0
ARC
  5
425
330
A
100
AcDbEntity
  8
06
100
AcDbCircle
 10
317.4849936085215
 20
519.0191811999766
 30
0.0
 40
0.5
100
AcDbArc
 50
107.3540246362628
 51
179.9999999999764
  0
LINE
  5
426
330
A
100
AcDbEntity
  8
06
100
AcDbLine
 10
318.9849936085216
 20
518.0117766566718
 30
0.0
 11
317.3358561119533
 21
518.5271321243495
 31
0.0
  0
ARC
  5
427
330
A
100
AcDbEntity
  8
06
100
AcDbCircle
 10
317.4849936085215
 20
519.004372113367
 30
0.0
 40
0.5
100
AcDbArc
 50
179.9999999999788
 51
252.6459753637345
  0
LINE
  5
428
330
A
100
AcDbEntity
  8
06
100
AcDbLine
 10
317.4849936085215
 20
519.5430266566717
 30
0.0
 11
317.4849936085212
 21
518.4805266566719
 31
0.0
  0
ARC
  5
429
330
A
100
AcDbEntity
  8
06
100
AcDbCircle
 10
316.6051414448864
 20
511.5243717413678
 30
0.0
 40
7.499999999999999
100
AcDbArc
 50
44.16686885306776
 51
71.49945832719547
  0
ARC
  5
42A
330
A
100
AcDbEntity
  8
06
100
AcDbCircle
 10
316.6392325458938
 20
526.5104979480378
 30
0.0
 40
7.499999999999999
100
AcDbArc
 50
288.2261310017247
 51
315.4605876000506
  0
LINE
  5
46D
330
A
100
AcDbEntity
  8
KAKURE
 48
0.5
100
AcDbLine
 10
162.0956696787333
 20
471.457908077622
 30
0.0
 11
162.0956696787333
 21
467.4579080776218
 31
0.0
  0
LINE
  5
46E
330
A
100
AcDbEntity
  8
KAKURE
100
AcDbLine
 10
164.0956696787333
 20
469.457908077622
 30
0.0
 11
163.1956696787334
 21
469.457908077622
 31
0.0
  0
LINE
  5
46F
330
A
100
AcDbEntity
  8
KAKURE
100
AcDbLine
 10
162.0956696787333
 20
467.4579080776218
 30
0.0
 11
144.0956696787333
 21
467.4579080776218
 31
0.0
  0
LINE
  5
470
330
A
100
AcDbEntity
  8
KAKURE
 48
0.5
100
AcDbLine
 10
144.0956696787333
 20
467.4579080776218
 30
0.0
 11
144.0956696787333
 21
471.4579080776218
 31
0.0
  0
LINE
  5
471
330
A
100
AcDbEntity
  8
KAKURE
100
AcDbLine
 10
144.0956696787333
 20
471.4579080776218
 30
0.0
 11
162.0956696787333
 21
471.457908077622
 31
0.0
  0
LINE
  5
472
330
A
100
AcDbEntity
  8
KAKURE
 48
0.5
100
AcDbLine
 10
160.6956696787333
 20
467.4579080776218
 30
0.0
 11
160.6956696787333
 21
471.457908077622
 31
0.0
  0
LINE
  5
473
330
A
100
AcDbEntity
  8
KAKURE
100
AcDbLine
 10
160.6956696787333
 20
467.8079080776218
 30
0.0
 11
144.0956696787333
 21
467.8079080776217
 31
0.0
  0
LINE
  5
474
330
A
100
AcDbEntity
  8
KAKURE
100
AcDbLine
 10
160.6956696787333
 20
471.107908077622
 30
0.0
 11
144.0956696787333
 21
471.1079080776218
 31
0.0
  0
LINE
  5
475
330
A
100
AcDbEntity
  8
KAKURE
 48
0.5
100
AcDbLine
 10
162.0956696787333
 20
471.457908077622
 30
0.0
 11
164.0956696787333
 21
472.4579080776218
 31
0.0
  0
LINE
  5
476
330
A
100
AcDbEntity
  8
KAKURE
 48
0.5
100
AcDbLine
 10
162.0956696787333
 20
467.4579080776218
 30
0.0
 11
164.0956696787333
 21
466.457908077622
 31
0.0
  0
LINE
  5
477
330
A
100
AcDbEntity
  8
KAKURE
100
AcDbLine
 10
342.9849936085222
 20
116.5000000000015
 30
0.0
 11
342.9849936085222
 21
111.5000000000015
 31
0.0
  0
LINE
  5
478
330
A
100
AcDbEntity
  8
KAKURE
100
AcDbLine
 10
342.9849936085222
 20
111.5000000000015
 30
0.0
 11
345.4849936085222
 21
111.5000000000015
 31
0.0
  0
LINE
  5
479
330
A
100
AcDbEntity
  8
KAKURE
100
AcDbLine
 10
345.4849936085222
 20
104.5000000000016
 30
0.0
 11
330.4849936085223
 21
104.5000000000016
 31
0.0
  0
LINE
  5
47A
330
A
100
AcDbEntity
  8
KAKURE
100
AcDbLine
 10
330.4849936085223
 20
104.5000000000016
 30
0.0
 11
330.4849936085222
 21
111.5000000000015
 31
0.0
  0
LINE
  5
47B
330
A
100
AcDbEntity
  8
KAKURE
100
AcDbLine
 10
330.4849936085222
 20
111.5000000000015
 30
0.0
 11
332.9849936085222
 21
111.5000000000015
 31
0.0
  0
LINE
  5
47C
330
A
100
AcDbEntity
  8
KAKURE
100
AcDbLine
 10
332.9849936085222
 20
116.5000000000015
 30
0.0
 11
332.9849936085222
 21
111.5000000000016
 31
0.0
  0
ARC
  5
47D
330
A
100
AcDbEntity
  8
KAKURE
100
AcDbCircle
 10
349.7349936085223
 20
108.0000000000016
 30
0.0
 40
1.75
100
AcDbArc
 50
209.9999999999988
 51
150.1119592010789
  0
LINE
  5
47E
330
A
100
AcDbEntity
  8
KAKURE
100
AcDbLine
 10
345.4849936085253
 20
104.5000000000016
 30
0.0
 11
345.4849936085222
 21
105.5465196796611
 31
0.0
  0
LINE
  5
47F
330
A
100
AcDbEntity
  8
KAKURE
100
AcDbLine
 10
345.4849936085222
 20
111.5000000000015
 30
0.0
 11
345.4849936085223
 21
110.4537386440575
 31
0.0
  0
LINE
  5
480
330
A
100
AcDbEntity
  8
KAKURE
100
AcDbLine
 10
345.60596184096
 20
110.3838976024963
 30
0.0
 11
345.4873905575087
 21
110.4523547649149
 31
0.0
  0
LINE
  5
481
330
A
100
AcDbEntity
  8
KAKURE
100
AcDbLine
 10
345.4849936085222
 20
110.4494807047928
 30
0.0
 11
345.4849936085222
 21
110.5549259177099
 31
0.0
  0
LINE
  5
482
330
A
100
AcDbEntity
  8
KAKURE
100
AcDbLine
 10
348.2194491518995
 20
107.1250000000016
 30
0.0
 11
345.4849936085253
 21
105.5462613559473
 31
0.0
  0
LINE
  5
483
330
A
100
AcDbEntity
  8
KAKURE
100
AcDbLine
 10
345.5973022200744
 20
110.3888972369454
 30
0.0
 11
348.2194491518995
 21
108.8750000000016
 31
0.0
  0
LINE
  5
484
330
A
100
AcDbEntity
  8
KAKURE
100
AcDbLine
 10
323.4849936085223
 20
108.5000000000016
 30
0.0
 11
324.9849936085222
 21
108.5000000000016
 31
0.0
  0
LINE
  5
485
330
A
100
AcDbEntity
  8
KAKURE
100
AcDbLine
 10
324.9849936085222
 20
108.5000000000016
 30
0.0
 11
324.9849936085222
 21
110.0000000000016
 31
0.0
  0
LINE
  5
486
330
A
100
AcDbEntity
  8
KAKURE
100
AcDbLine
 10
324.9849936085222
 20
110.0000000000016
 30
0.0
 11
327.4849936085223
 21
110.0000000000016
 31
0.0
  0
LINE
  5
487
330
A
100
AcDbEntity
  8
KAKURE
100
AcDbLine
 10
327.4849936085223
 20
110.0000000000016
 30
0.0
 11
327.4849936085225
 21
102.0000000000016
 31
0.0
  0
LINE
  5
488
330
A
100
AcDbEntity
  8
KAKURE
100
AcDbLine
 10
327.4849936085225
 20
102.0000000000016
 30
0.0
 11
324.9849936085222
 21
102.0000000000016
 31
0.0
  0
LINE
  5
489
330
A
100
AcDbEntity
  8
KAKURE
100
AcDbLine
 10
324.9849936085222
 20
102.0000000000016
 30
0.0
 11
324.9849936085222
 21
103.5000000000017
 31
0.0
  0
LINE
  5
48A
330
A
100
AcDbEntity
  8
KAKURE
100
AcDbLine
 10
324.9849936085222
 20
103.5000000000017
 30
0.0
 11
323.4849936085223
 21
103.5000000000017
 31
0.0
  0
LINE
  5
48B
330
A
100
AcDbEntity
  8
KAKURE
100
AcDbLine
 10
327.4849936085225
 20
97.00000000000166
 30
0.0
 11
330.9849936085222
 21
97.00000000000166
 31
0.0
  0
LINE
  5
48C
330
A
100
AcDbEntity
  8
KAKURE
100
AcDbLine
 10
344.9849936085223
 20
97.00000000000166
 30
0.0
 11
348.4849936085223
 21
97.00000000000173
 31
0.0
  0
LINE
  5
48D
330
A
100
AcDbEntity
  8
KAKURE
100
AcDbLine
 10
348.4849936085223
 20
97.00000000000173
 30
0.0
 11
348.4849936085223
 21
99.50000000000173
 31
0.0
  0
LINE
  5
48E
330
A
100
AcDbEntity
  8
KAKURE
100
AcDbLine
 10
348.4849936085223
 20
99.50000000000173
 30
0.0
 11
327.4849936085225
 21
99.50000000000166
 31
0.0
  0
LINE
  5
48F
330
A
100
AcDbEntity
  8
KAKURE
100
AcDbLine
 10
330.9849936085222
 20
97.00000000000166
 30
0.0
 11
330.9849936085222
 21
94.50000000000164
 31
0.0
  0
LINE
  5
490
330
A
100
AcDbEntity
  8
KAKURE
100
AcDbLine
 10
327.4849936085225
 20
99.50000000000166
 30
0.0
 11
327.4849936085225
 21
97.00000000000166
 31
0.0
  0
LINE
  5
491
330
A
100
AcDbEntity
  8
KAKURE
100
AcDbLine
 10
345.4849936085222
 20
111.4755370103095
 30
0.0
 11
345.4605306188303
 21
111.5000000000015
 31
0.0
  0
LINE
  5
492
330
A
100
AcDbEntity
  8
KAKURE
100
AcDbLine
 10
342.9849936085216
 20
507.5000000000013
 30
0.0
 11
342.9849936085216
 21
512.5000000000012
 31
0.0
  0
LINE
  5
493
330
A
100
AcDbEntity
  8
KAKURE
100
AcDbLine
 10
342.9849936085216
 20
512.5000000000012
 30
0.0
 11
345.4849936085216
 21
512.5000000000012
 31
0.0
  0
LINE
  5
494
330
A
100
AcDbEntity
  8
KAKURE
100
AcDbLine
 10
345.4849936085216
 20
512.5000000000012
 30
0.0
 11
345.4849936085216
 21
513.5000000000013
 31
0.0
  0
LINE
  5
495
330
A
100
AcDbEntity
  8
KAKURE
100
AcDbLine
 10
332.9849936085214
 20
507.5000000000013
 30
0.0
 11
332.9849936085216
 21
512.5000000000012
 31
0.0
  0
LINE
  5
496
330
A
100
AcDbEntity
  8
KAKURE
100
AcDbLine
 10
332.9849936085216
 20
512.5000000000012
 30
0.0
 11
330.4849936085216
 21
512.5000000000012
 31
0.0
  0
LINE
  5
497
330
A
100
AcDbEntity
  8
KAKURE
100
AcDbLine
 10
330.4849936085214
 20
512.5000000000015
 30
0.0
 11
330.4849936085216
 21
519.5000000000012
 31
0.0
  0
LINE
  5
498
330
A
100
AcDbEntity
  8
KAKURE
100
AcDbLine
 10
330.4849936085216
 20
519.5000000000012
 30
0.0
 11
345.4849936085216
 21
519.5000000000012
 31
0.0
  0
LINE
  5
499
330
A
100
AcDbEntity
  8
KAKURE
100
AcDbLine
 10
345.4849936085216
 20
519.5000000000012
 30
0.0
 11
345.4849936085216
 21
518.5000000000013
 31
0.0
  0
ARC
  5
49A
330
A
100
AcDbEntity
  8
KAKURE
100
AcDbCircle
 10
349.7909542355722
 20
516.0000000000016
 30
0.0
 40
1.75
100
AcDbArc
 50
210.1390449605225
 51
149.8609550394776
  0
LINE
  5
49B
330
A
100
AcDbEntity
  8
KAKURE
100
AcDbLine
 10
345.4849936085216
 20
518.5000000000013
 30
0.0
 11
348.2775376829503
 21
516.8786753315376
 31
0.0
  0
LINE
  5
49C
330
A
100
AcDbEntity
  8
KAKURE
100
AcDbLine
 10
348.2775376829503
 20
515.1213246684655
 30
0.0
 11
345.4849936085208
 21
513.5000000000006
 31
0.0
  0
LINE
  5
49D
330
A
100
AcDbEntity
  8
KAKURE
100
AcDbLine
 10
332.4849936085218
 20
529.5000000000015
 30
0.0
 11
332.4849936085218
 21
527.0000000000016
 31
0.0
  0
LINE
  5
49E
330
A
100
AcDbEntity
  8
KAKURE
100
AcDbLine
 10
332.4849936085218
 20
527.0000000000016
 30
0.0
 11
328.9849936085218
 21
527.0000000000016
 31
0.0
  0
LINE
  5
49F
330
A
100
AcDbEntity
  8
KAKURE
100
AcDbLine
 10
328.9849936085218
 20
527.0000000000016
 30
0.0
 11
328.9849936085218
 21
524.5000000000016
 31
0.0
  0
LINE
  5
4A0
330
A
100
AcDbEntity
  8
KAKURE
100
AcDbLine
 10
328.9849936085218
 20
524.5000000000016
 30
0.0
 11
349.984993608522
 21
524.5000000000016
 31
0.0
  0
LINE
  5
4A1
330
A
100
AcDbEntity
  8
KAKURE
100
AcDbLine
 10
349.9849936085216
 20
524.5000000000016
 30
0.0
 11
349.9849936085216
 21
527.0000000000016
 31
0.0
  0
LINE
  5
4A2
330
A
100
AcDbEntity
  8
KAKURE
100
AcDbLine
 10
349.9849936085216
 20
527.0000000000016
 30
0.0
 11
346.4849936085216
 21
527.0000000000016
 31
0.0
  0
LINE
  5
4A3
330
A
100
AcDbEntity
  8
KAKURE
100
AcDbLine
 10
346.4849936085216
 20
527.0000000000016
 30
0.0
 11
346.4849936085216
 21
529.5000000000015
 31
0.0
  0
LINE
  5
4A4
330
A
100
AcDbEntity
  8
KAKURE
100
AcDbLine
 10
344.9849936085223
 20
97.00000000000166
 30
0.0
 11
344.9849936085223
 21
94.50000000000164
 31
0.0
  0
LINE
  5
553
330
A
100
AcDbEntity
  8
04
100
AcDbLine
 10
180.5956696787333
 20
462.8079080776221
 30
0.0
 11
180.5956696787333
 21
465.5579080776221
 31
0.0
  0
LINE
  5
554
330
A
100
AcDbEntity
  8
04
100
AcDbLine
 10
180.5956696787333
 20
473.3579080776221
 30
0.0
 11
180.5956696787333
 21
476.1079080776221
 31
0.0
  0
LINE
  5
555
330
A
100
AcDbEntity
  8
04
100
AcDbLine
 10
204.5956696787333
 20
462.4579080776221
 30
0.0
 11
204.5956696787333
 21
476.4579080776221
 31
0.0
  0
LINE
  5
556
330
A
100
AcDbEntity
  8
04
100
AcDbLine
 10
184.0956696787334
 20
461.4579080776222
 30
0.0
 11
203.5956696787335
 21
461.4579080776222
 31
0.0
  0
ARC
  5
557
330
A
100
AcDbEntity
  8
04
100
AcDbCircle
 10
203.5956696787335
 20
462.4579080776221
 30
0.0
 40
1.0
100
AcDbArc
 50
269.9999999999999
 51
0.0
  0
LINE
  5
558
330
A
100
AcDbEntity
  8
04
100
AcDbLine
 10
184.0956696787334
 20
477.4579080776221
 30
0.0
 11
203.5956696787334
 21
477.4579080776221
 31
0.0
  0
ARC
  5
559
330
A
100
AcDbEntity
  8
04
100
AcDbCircle
 10
203.5956696787334
 20
476.4579080776221
 30
0.0
 40
1.0
100
AcDbArc
 50
0.0000000000000241
 51
90.00000000000023
  0
LINE
  5
55A
330
A
100
AcDbEntity
  8
04
100
AcDbLine
 10
180.5956696787333
 20
465.5579080776221
 30
0.0
 11
183.5956696787333
 21
465.5579080776221
 31
0.0
  0
LINE
  5
55B
330
A
100
AcDbEntity
  8
04
100
AcDbLine
 10
180.5956696787333
 20
473.3579080776221
 30
0.0
 11
183.5956696787333
 21
473.3579080776221
 31
0.0
  0
LINE
  5
55C
330
A
100
AcDbEntity
  8
04
100
AcDbLine
 10
183.5956696787333
 20
461.9579080776222
 30
0.0
 11
183.5956696787333
 21
465.5579080776221
 31
0.0
  0
ARC
  5
55D
330
A
100
AcDbEntity
  8
04
100
AcDbCircle
 10
184.0956696787334
 20
461.9579080776222
 30
0.0
 40
0.5
100
AcDbArc
 50
180.0000000000002
 51
269.9999999999999
  0
LINE
  5
55E
330
A
100
AcDbEntity
  8
04
100
AcDbLine
 10
183.5956696787333
 20
473.3579080776221
 30
0.0
 11
183.5956696787333
 21
476.9579080776221
 31
0.0
  0
ARC
  5
55F
330
A
100
AcDbEntity
  8
04
100
AcDbCircle
 10
184.0956696787334
 20
476.9579080776221
 30
0.0
 40
0.5
100
AcDbArc
 50
90.00000000000023
 51
180.0000000000002
  0
LINE
  5
560
330
A
100
AcDbEntity
  8
04
100
AcDbLine
 10
175.6956696787334
 20
476.6079080776221
 30
0.0
 11
180.0956696787334
 21
476.6079080776221
 31
0.0
  0
ARC
  5
561
330
A
100
AcDbEntity
  8
04
100
AcDbCircle
 10
180.0956696787334
 20
476.1079080776221
 30
0.0
 40
0.5
100
AcDbArc
 50
0.0000000000000241
 51
90.00000000000023
  0
LINE
  5
562
330
A
100
AcDbEntity
  8
04
100
AcDbLine
 10
175.6956696787334
 20
462.307908077622
 30
0.0
 11
180.0956696787334
 21
462.307908077622
 31
0.0
  0
ARC
  5
563
330
A
100
AcDbEntity
  8
04
100
AcDbCircle
 10
180.0956696787334
 20
462.8079080776221
 30
0.0
 40
0.5
100
AcDbArc
 50
269.9999999999999
 51
0.0
  0
LINE
  5
564
330
A
100
AcDbEntity
  8
04
100
AcDbLine
 10
175.6956696787334
 20
462.307908077622
 30
0.0
 11
175.6956696787334
 21
476.6079080776221
 31
0.0
  0
LINE
  5
565
330
A
100
AcDbEntity
  8
04
100
AcDbLine
 10
348.4849936085221
 20
149.500000000002
 30
0.0
 11
348.4849936085216
 21
408.0000000000016
 31
0.0
  0
LINE
  5
566
330
A
100
AcDbEntity
  8
04
100
AcDbLine
 10
348.4849936085216
 20
414.0000000000017
 30
0.0
 11
348.4849936085213
 21
476.0000000000015
 31
0.0
  0
LINE
  5
567
330
A
100
AcDbEntity
  8
04
100
AcDbLine
 10
327.4849936085221
 20
149.5000000000015
 30
0.0
 11
327.4849936085216
 21
408.0000000000016
 31
0.0
  0
LINE
  5
568
330
A
100
AcDbEntity
  8
04
100
AcDbLine
 10
327.4849936085216
 20
414.0000000000015
 30
0.0
 11
327.4849936085213
 21
476.0000000000013
 31
0.0
  0
LINE
  5
569
330
A
100
AcDbEntity
  8
04
100
AcDbLine
 10
328.9849936085223
 20
149.5000000000018
 30
0.0
 11
328.9849936085218
 21
273.0000000000009
 31
0.0
  0
LINE
  5
56A
330
A
100
AcDbEntity
  8
04
100
AcDbLine
 10
346.9849936085223
 20
149.500000000002
 30
0.0
 11
346.9849936085219
 21
273.0000000000003
 31
0.0
  0
LINE
  5
56B
330
A
100
AcDbEntity
  8
04
100
AcDbLine
 10
328.9849936085218
 20
273.0000000000019
 30
0.0
 11
331.9849936085216
 21
273.0000000000028
 31
0.0
  0
LINE
  5
56C
330
A
100
AcDbEntity
  8
04
100
AcDbLine
 10
343.9849936085219
 20
273.0000000000019
 30
0.0
 11
346.9849936085219
 21
273.0000000000019
 31
0.0
  0
LINE
  5
56D
330
A
100
AcDbEntity
  8
04
100
AcDbLine
 10
327.4849936085213
 20
476.0000000000013
 30
0.0
 11
348.4849936085213
 21
476.0000000000015
 31
0.0
  0
LINE
  5
56E
330
A
100
AcDbEntity
  8
04
100
AcDbLine
 10
333.4849936085219
 20
283.0000000000016
 30
0.0
 11
333.4849936085216
 21
408.0000000000016
 31
0.0
  0
LINE
  5
56F
330
A
100
AcDbEntity
  8
04
100
AcDbLine
 10
333.4849936085216
 20
414.0000000000015
 30
0.0
 11
333.4849936085215
 21
466.0000000000013
 31
0.0
  0
LINE
  5
570
330
A
100
AcDbEntity
  8
04
100
AcDbLine
 10
342.4849936085219
 20
283.0000000000018
 30
0.0
 11
342.4849936085216
 21
408.0000000000016
 31
0.0
  0
LINE
  5
571
330
A
100
AcDbEntity
  8
04
100
AcDbLine
 10
342.4849936085216
 20
414.0000000000015
 30
0.0
 11
342.4849936085215
 21
466.0000000000015
 31
0.0
  0
LINE
  5
572
330
A
100
AcDbEntity
  8
04
100
AcDbLine
 10
327.4849936085221
 20
149.5000000000015
 30
0.0
 11
348.4849936085221
 21
149.5000000000015
 31
0.0
  0
LINE
  5
573
330
A
100
AcDbEntity
  8
04
100
AcDbLine
 10
331.9849936085216
 20
273.0000000000028
 30
0.0
 11
333.4849936085219
 21
283.0000000000016
 31
0.0
  0
LINE
  5
574
330
A
100
AcDbEntity
  8
04
100
AcDbLine
 10
342.4849936085219
 20
283.0000000000018
 30
0.0
 11
343.9849936085219
 21
273.0000000000019
 31
0.0
  0
LINE
  5
575
330
A
100
AcDbEntity
  8
04
100
AcDbLine
 10
333.4849936085215
 20
466.0000000000013
 30
0.0
 11
331.9849936085213
 21
476.0000000000013
 31
0.0
  0
LINE
  5
576
330
A
100
AcDbEntity
  8
04
100
AcDbLine
 10
342.4849936085215
 20
466.0000000000015
 30
0.0
 11
343.9849936085213
 21
476.0000000000013
 31
0.0
  0
TEXT
  5
594
330
A
100
AcDbEntity
  8
MOJI
100
AcDbText
 10
194.1861635220124
 20
158.6194337030454
 30
0.0
 40
6.0
  1
強化ガラス
 50
90.00000000000005
 41
0.8
  7
0_8
 11
191.1861635220125
 21
158.6194337030454
 31
0.0
100
AcDbText
 73
     2
  0
TEXT
  5
595
330
A
100
AcDbEntity
  8
MOJI
100
AcDbText
 10
203.9861635220119
 20
158.9688673651886
 30
0.0
 40
6.0
  1
6mm,8mm,10mm
 50
90.00000000000005
 41
0.8
  7
0_8
 11
200.9861635220119
 21
158.9688673651886
 31
0.0
100
AcDbText
 73
     2
  0
POLYLINE
  5
69D
330
A
100
AcDbEntity
  8
DEFPOINTS
100
AcDb2dPolyline
 66
     1
 10
0.0
 20
0.0
 30
0.0
 70
     1
  0
VERTEX
  5
1988
330
69D
100
AcDbEntity
  8
DEFPOINTS
 48
2.0
100
AcDbVertex
100
AcDb2dVertex
 10
0.0
 20
0.0
 30
0.0
  0
VERTEX
  5
1989
330
69D
100
AcDbEntity
  8
DEFPOINTS
 48
2.0
100
AcDbVertex
100
AcDb2dVertex
 10
420.0
 20
0.0
 30
0.0
  0
VERTEX
  5
198A
330
69D
100
AcDbEntity
  8
DEFPOINTS
 48
2.0
100
AcDbVertex
100
AcDb2dVertex
 10
420.0
 20
594.0
 30
0.0
  0
VERTEX
  5
198B
330
69D
100
AcDbEntity
  8
DEFPOINTS
 48
2.0
100
AcDbVertex
100
AcDb2dVertex
 10
0.0
 20
594.0
 30
0.0
  0
SEQEND
  5
198C
330
69D
100
AcDbEntity
  8
DEFPOINTS
  0
DIMENSION
  5
69F
330
A
100
AcDbEntity
  8
SUNPOU
100
AcDbDimension
  2
*D1
 10
242.8956696787334
 20
460.9579080776222
 30
0.0
 11
238.3956696787334
 21
431.124574744289
 31
0.0
 70
   160
  3
SUNPOU_2
100
AcDbAlignedDimension
 13
204.0956696787334
 23
448.4579080776223
 33
0.0
 14
219.0956696787333
 24
460.9579080776222
 34
0.0
 50
90.0
100
AcDbRotatedDimension
  0
DIMENSION
  5
6AE
330
A
100
AcDbEntity
  8
SUNPOU
100
AcDbDimension
  2
*D2
 10
242.8956696787334
 20
477.9579080776222
 30
0.0
 11
238.3956696787333
 21
469.4579080776223
 31
0.0
 70
    32
  3
SUNPOU_2
100
AcDbAlignedDimension
 13
219.0956696787333
 23
460.9579080776222
 33
0.0
 14
219.0956696787333
 24
477.9579080776222
 34
0.0
 50
90.0
100
AcDbRotatedDimension
  0
DIMENSION
  5
6BB
330
A
100
AcDbEntity
  8
SUNPOU
100
AcDbDimension
  2
*D3
 10
242.8956696787334
 20
498.4579080776221
 30
0.0
 11
238.3956696787333
 21
488.2079080776223
 31
0.0
 70
    32
  3
SUNPOU_2
100
AcDbAlignedDimension
 13
219.0956696787333
 23
477.9579080776222
 33
0.0
 14
204.095669678733
 24
498.4579080776221
 34
0.0
 50
90.0
100
AcDbRotatedDimension
  0
DIMENSION
  5
6C8
330
A
100
AcDbEntity
  8
SUNPOU
100
AcDbDimension
  2
*D4
 10
262.8956696787335
 20
498.4579080776221
 30
0.0
 11
258.3956696787334
 21
473.4579080776223
 31
0.0
 70
    32
  3
SUNPOU_2
100
AcDbAlignedDimension
 13
204.0956696787334
 23
448.4579080776223
 33
0.0
 14
204.0956696787342
 24
498.4579080776221
 34
0.0
 50
90.0
100
AcDbRotatedDimension
  0
DIMENSION
  5
6FD
330
A
100
AcDbEntity
  8
SUNPOU
100
AcDbDimension
  2
*D5
 10
277.2861635220114
 20
330.6971110588886
 30
0.0
 11
272.7861635220114
 21
307.4471110588887
 31
0.0
 70
   160
  3
SUNPOU_2
100
AcDbAlignedDimension
 13
262.2861635220115
 23
325.4471110588886
 33
0.0
 14
260.7861635220114
 24
330.6971110588886
 34
0.0
 50
90.0
100
AcDbRotatedDimension
  0
DIMENSION
  5
70C
330
A
100
AcDbEntity
  8
SUNPOU
100
AcDbDimension
  2
*D6
 10
277.2861635220114
 20
352.1971110588886
 30
0.0
 11
272.7861635220113
 21
341.4471110588887
 31
0.0
 70
    32
  3
SUNPOU_2
100
AcDbAlignedDimension
 13
260.7861635220114
 23
330.6971110588886
 33
0.0
 14
260.7861635220114
 24
352.1971110588886
 34
0.0
 50
90.0
100
AcDbRotatedDimension
  0
DIMENSION
  5
719
330
A
100
AcDbEntity
  8
SUNPOU
100
AcDbDimension
  2
*D7
 10
277.2861635220114
 20
357.4471110588886
 30
0.0
 11
272.7861635220114
 21
375.4471110588887
 31
0.0
 70
   160
  3
SUNPOU_2
100
AcDbAlignedDimension
 13
260.7861635220114
 23
352.1971110588886
 33
0.0
 14
262.2861635220111
 24
357.4471110588886
 34
0.0
 50
90.0
100
AcDbRotatedDimension
  0
DIMENSION
  5
783
330
A
100
AcDbEntity
  8
SUNPOU
100
AcDbDimension
  2
*D8
 10
292.2861635220113
 20
357.4471110588886
 30
0.0
 11
287.7861635220112
 21
341.4471110588887
 31
0.0
 70
    32
  3
SUNPOU_2
100
AcDbAlignedDimension
 13
262.2861635220114
 23
325.4471110588886
 33
0.0
 14
262.2861635220114
 24
357.4471110588886
 34
0.0
 50
90.0
100
AcDbRotatedDimension
  0
DIMENSION
  5
790
330
A
100
AcDbEntity
  8
SUNPOU
100
AcDbDimension
  2
*D9
 10
262.396226415093
 20
228.6208336131084
 30
0.0
 11
257.8962264150929
 21
182.9208336131083
 31
0.0
 70
    32
  1
DW
  3
SUNPOU_2_10
100
AcDbAlignedDimension
 13
246.2861635220119
 23
137.2208336131082
 33
0.0
 14
246.2861635220106
 24
228.6208336131084
 34
0.0
 50
90.0
100
AcDbRotatedDimension
  0
DIMENSION
  5
7A6
330
A
100
AcDbEntity
  8
SUNPOU
100
AcDbDimension
  2
*D10
 10
67.54146417000065
 20
228.6208336131076
 30
0.0
 11
63.04146417000064
 21
215.4848993436029
 31
0.0
 70
   160
  3
SUNPOU_2_10
100
AcDbAlignedDimension
 13
67.54146417000075
 23
226.1208336131076
 33
0.0
 14
67.54146417000065
 24
228.6208336131076
 34
0.0
 50
90.0
100
AcDbRotatedDimension
  0
DIMENSION
  5
7C0
330
A
100
AcDbEntity
  8
SUNPOU
100
AcDbDimension
  2
*D11
 10
67.54146417000081
 20
139.7208336131075
 30
0.0
 11
63.0414641700008
 21
127.179610729898
 31
0.0
 70
   160
  3
SUNPOU_2_10
100
AcDbAlignedDimension
 13
67.54146417000081
 23
137.2208336131075
 33
0.0
 14
67.54146417000081
 24
139.7208336131075
 34
0.0
 50
90.0
100
AcDbRotatedDimension
  0
DIMENSION
  5
7DA
330
A
100
AcDbEntity
  8
SUNPOU
100
AcDbDimension
  2
*D12
 10
311.9849936085222
 20
118.0000000000015
 30
0.0
 11
307.4849936085222
 21
105.5000000000016
 31
0.0
 70
    32
  3
SUNPOU_2
100
AcDbAlignedDimension
 13
321.9849936085223
 23
93.00000000000158
 33
0.0
 14
321.9849936085223
 24
118.0000000000015
 34
0.0
 50
90.0
100
AcDbRotatedDimension
  0
DIMENSION
  5
7E7
330
A
100
AcDbEntity
  8
SUNPOU
100
AcDbDimension
  2
*D13
 10
311.9849936085213
 20
531.0000000000013
 30
0.0
 11
307.4849936085212
 21
518.5000000000015
 31
0.0
 70
    32
  3
SUNPOU_2
100
AcDbAlignedDimension
 13
321.9849936085214
 23
506.0000000000015
 33
0.0
 14
321.9849936085214
 24
531.0000000000013
 34
0.0
 50
90.0
100
AcDbRotatedDimension
  0
DIMENSION
  5
7F4
330
A
100
AcDbEntity
  8
SUNPOU
100
AcDbDimension
  2
*D14
 10
296.4849936085213
 20
531.0000000000013
 30
0.0
 11
291.9849936085212
 21
287.1003541191038
 31
0.0
 70
   160
  1
DW
  3
SUNPOU_2
100
AcDbAlignedDimension
 13
321.9849936085223
 23
93.00000000000158
 33
0.0
 14
321.9849936085214
 24
531.0000000000013
 34
0.0
 50
90.0
100
AcDbRotatedDimension
  0
DIMENSION
  5
813
330
A
100
AcDbEntity
  8
SUNPOU
100
AcDbDimension
  2
*D15
 10
368.9849936085221
 20
149.5000000000015
 30
0.0
 11
364.484993608522
 21
121.2500000000017
 31
0.0
 70
    32
  3
SUNPOU_2
100
AcDbAlignedDimension
 13
353.9849936085222
 23
93.00000000000167
 33
0.0
 14
348.4849936085221
 24
149.5000000000015
 34
0.0
 50
90.0
100
AcDbRotatedDimension
  0
DIMENSION
  5
820
330
A
100
AcDbEntity
  8
SUNPOU
100
AcDbDimension
  2
*D16
 10
368.9849936085221
 20
168.0000000000019
 30
0.0
 11
364.484993608522
 21
158.7500000000017
 31
0.0
 70
    32
  3
SUNPOU_2
100
AcDbAlignedDimension
 13
348.4849936085221
 23
149.5000000000015
 33
0.0
 14
347.8010291595186
 24
168.0000000000019
 34
0.0
 50
90.0
100
AcDbRotatedDimension
  0
DIMENSION
  5
82D
330
A
100
AcDbEntity
  8
SUNPOU
100
AcDbDimension
  2
*D17
 10
368.9849936085221
 20
358.0000000000016
 30
0.0
 11
364.484993608522
 21
263.0000000000018
 31
0.0
 70
    32
  3
SUNPOU_2
100
AcDbAlignedDimension
 13
347.8010291595186
 23
168.0000000000019
 33
0.0
 14
345.0742209834176
 24
358.0000000000016
 34
0.0
 50
90.0
100
AcDbRotatedDimension
  0
DIMENSION
  5
83A
330
A
100
AcDbEntity
  8
SUNPOU
100
AcDbDimension
  2
*D18
 10
384.0807246998273
 20
254.5000000000018
 30
0.0
 11
379.5807246998272
 21
171.7500000000018
 31
0.0
 70
    32
  3
SUNPOU_2
100
AcDbAlignedDimension
 13
365.4807246998276
 23
89.00000000000177
 33
0.0
 14
358.4201584915059
 24
254.5000000000018
 34
0.0
 50
90.0
100
AcDbRotatedDimension
  0
DIMENSION
  5
847
330
A
100
AcDbEntity
  8
SUNPOU
100
AcDbDimension
  2
*D19
 10
182.095669678733
 20
513.457908077622
 30
0.0
 11
134.595669678733
 21
508.957908077622
 31
0.0
 70
   160
 53
180.0
  3
SUNPOU_2
100
AcDbAlignedDimension
 13
87.09566967873326
 23
480.2079080776215
 33
0.0
 14
182.095669678733
 24
485.4579080776217
 34
0.0
100
AcDbRotatedDimension
1001
ACAD
1000
DSTYLE
1002
{
1070
    77
1070
     1
1070
    74
1070
     0
1070
   147
1040
1.0
1002
}
  0
DIMENSION
  5
854
330
A
100
AcDbEntity
  8
SUNPOU
100
AcDbDimension
  2
*D20
 10
189.0956696787331
 20
513.457908077622
 30
0.0
 11
185.595669678733
 21
508.957908077622
 31
0.0
 70
   160
 53
180.0
  3
SUNPOU_2
100
AcDbAlignedDimension
 13
182.095669678733
 23
485.4579080776217
 33
0.0
 14
189.0956696787331
 24
497.7079080776221
 34
0.0
100
AcDbRotatedDimension
  0
DIMENSION
  5
863
330
A
100
AcDbEntity
  8
SUNPOU
100
AcDbDimension
  2
*D21
 10
219.0956696787333
 20
513.457908077622
 30
0.0
 11
204.0956696787333
 21
508.957908077622
 31
0.0
 70
   160
 53
180.0
  3
SUNPOU_2
100
AcDbAlignedDimension
 13
189.0956696787331
 23
497.7079080776221
 33
0.0
 14
219.0956696787333
 24
477.9579080776222
 34
0.0
100
AcDbRotatedDimension
  0
DIMENSION
  5
934
330
A
100
AcDbEntity
  8
SUNPOU
100
AcDbDimension
  2
*D22
 10
162.5956696787334
 20
438.4579080776219
 30
0.0
 11
156.5956696787334
 21
433.957908077622
 31
0.0
 70
   160
 53
180.0
  3
SUNPOU_2
100
AcDbAlignedDimension
 13
150.5956696787335
 23
458.7079080776218
 33
0.0
 14
162.5956696787334
 24
458.957908077622
 34
0.0
100
AcDbRotatedDimension
  0
DIMENSION
  5
943
330
A
100
AcDbEntity
  8
SUNPOU
100
AcDbDimension
  2
*D23
 10
182.0956696787334
 20
438.4579080776219
 30
0.0
 11
172.3456696787334
 21
433.957908077622
 31
0.0
 70
   160
 53
180.0
  3
SUNPOU_2
100
AcDbAlignedDimension
 13
162.5956696787334
 23
458.957908077622
 33
0.0
 14
182.0956696787334
 24
453.457908077622
 34
0.0
100
AcDbRotatedDimension
  0
DIMENSION
  5
989
330
A
100
AcDbEntity
  8
SUNPOU
100
AcDbDimension
  2
*D24
 10
262.2861635220114
 20
387.4471110588885
 30
0.0
 11
159.2861635220113
 21
382.9471110588885
 31
0.0
 70
   160
  1
DH
 53
180.0
  3
SUNPOU_2
100
AcDbAlignedDimension
 13
56.28616352201124
 23
357.4471110588874
 33
0.0
 14
262.2861635220114
 24
357.4471110588886
 34
0.0
100
AcDbRotatedDimension
  0
DIMENSION
  5
99F
330
A
100
AcDbEntity
  8
SUNPOU
100
AcDbDimension
  2
*D25
 10
141.2861635220114
 20
372.4471110588877
 30
0.0
 11
98.78616352201133
 21
367.9471110588877
 31
0.0
 70
   160
 53
180.0
  3
SUNPOU_2
100
AcDbAlignedDimension
 13
56.28616352201124
 23
357.4471110588874
 33
0.0
 14
141.2861635220114
 24
355.1971110588878
 34
0.0
100
AcDbRotatedDimension
  0
DIMENSION
  5
9AC
330
A
100
AcDbEntity
  8
SUNPOU
100
AcDbDimension
  2
*D26
 10
262.2861635220111
 20
372.4471110588877
 30
0.0
 11
214.7861635220113
 21
367.9471110588877
 31
0.0
 70
   160
 53
180.0
  3
SUNPOU_2
100
AcDbAlignedDimension
 13
167.2861635220113
 23
352.197111058888
 33
0.0
 14
262.2861635220111
 24
357.4471110588886
 34
0.0
100
AcDbRotatedDimension
  0
DIMENSION
  5
9DB
330
A
100
AcDbEntity
  8
SUNPOU
100
AcDbDimension
  2
*D27
 10
262.2861635220115
 20
310.4471110588886
 30
0.0
 11
246.5361635220117
 21
305.9471110588886
 31
0.0
 70
   160
 53
180.0
  3
SUNPOU_2
100
AcDbAlignedDimension
 13
230.7861635220116
 23
330.6971110588885
 33
0.0
 14
262.2861635220115
 24
325.4471110588886
 34
0.0
100
AcDbRotatedDimension
  0
DIMENSION
  5
A18
330
A
100
AcDbEntity
  8
SUNPOU
100
AcDbDimension
  2
*D28
 10
54.78616352201182
 20
241.7087767743248
 30
0.0
 11
39.1330665562109
 21
237.2087767743248
 31
0.0
 70
   160
 53
180.0
  3
SUNPOU_2_10
100
AcDbAlignedDimension
 13
46.28616352201166
 23
228.6208336131076
 33
0.0
 14
54.78616352201182
 24
226.1208336131076
 34
0.0
100
AcDbRotatedDimension
  0
DIMENSION
  5
A27
330
A
100
AcDbEntity
  8
SUNPOU
100
AcDbDimension
  2
*D29
 10
246.2861635220117
 20
241.7087767743248
 30
0.0
 11
253.5010069858803
 21
237.2087767743248
 31
0.0
 70
   160
 53
180.0
  3
SUNPOU_2_10
100
AcDbAlignedDimension
 13
236.7861635220116
 23
226.1208336131083
 33
0.0
 14
246.2861635220117
 24
228.6208336131084
 34
0.0
100
AcDbRotatedDimension
  0
DIMENSION
  5
A36
330
A
100
AcDbEntity
  8
SUNPOU
100
AcDbDimension
  2
*D30
 10
246.2861635220117
 20
251.3345405559673
 30
0.0
 11
146.2861635220115
 21
246.8345405559673
 31
0.0
 70
   160
  1
DH
 53
180.0
  3
SUNPOU_2
100
AcDbAlignedDimension
 13
46.28616352201169
 23
228.6208336131076
 33
0.0
 14
246.2861635220117
 24
228.6208336131078
 34
0.0
100
AcDbRotatedDimension
  0
DIMENSION
  5
AE5
330
A
100
AcDbEntity
  8
SUNPOU
100
AcDbDimension
  2
*D31
 10
353.9849936085213
 20
546.0000000000015
 30
0.0
 11
337.9849936085213
 21
541.5000000000016
 31
0.0
 70
   160
 53
180.0
  3
SUNPOU_2
100
AcDbAlignedDimension
 13
321.9849936085214
 23
531.0000000000013
 33
0.0
 14
353.9849936085213
 24
531.0000000000013
 34
0.0
100
AcDbRotatedDimension
  0
MTEXT
  5
B13
330
A
100
AcDbEntity
  8
HIKIDASI
100
AcDbMText
 10
386.3249309056497
 20
435.7879310039209
 30
0.0
 40
5.0
 41
0.0
 71
     7
 72
     1
  1
引き上げチャンネル
  7
SUNPOU
 11
0.0000000000000001
 21
1.0
 31
0.0
1001
ACAD
1000
MTEXTBEGIN
1070
    73
1070
     1
1070
    44
1040
1.0
1070
    74
1070
     0
1000
MTEXTEND
  0
MTEXT
  5
B17
330
A
100
AcDbEntity
  8
HIKIDASI
100
AcDbMText
 10
385.2656944334541
 20
289.9700740005656
 30
0.0
 40
5.0
 41
0.0
 71
     7
 72
     1
  1
デッドボルト芯
  7
SUNPOU
 11
0.0000000000000001
 21
1.0
 31
0.0
1001
ACAD
1000
MTEXTBEGIN
1070
    73
1070
     1
1070
    44
1040
1.0
1070
    74
1070
     0
1000
MTEXTEND
  0
MTEXT
  5
B1C
330
A
100
AcDbEntity
  8
HIKIDASI
100
AcDbMText
 10
196.0780392181773
 20
302.6293052763613
 30
0.0
 40
5.0
 41
0.0
 71
     9
 72
     1
  1
下フレーム
  7
SUNPOU
 11
0.0000000000000001
 21
1.0
 31
0.0
1001
ACAD
1000
MTEXTBEGIN
1070
    73
1070
     1
1070
    44
1040
1.0
1070
    74
1070
     0
1000
MTEXTEND
  0
MTEXT
  5
B1E
330
A
100
AcDbEntity
  8
HIKIDASI
100
AcDbMText
 10
78.09585892467667
 20
302.6293052763613
 30
0.0
 40
5.0
 41
0.0
 71
     9
 72
     1
  1
上フレーム
  7
SUNPOU
 11
0.0000000000000001
 21
1.0
 31
0.0
1001
ACAD
1000
MTEXTBEGIN
1070
    73
1070
     1
1070
    44
1040
1.0
1070
    74
1070
     0
1000
MTEXTEND
  0
MTEXT
  5
B1F
330
A
100
AcDbEntity
  8
HIKIDASI
100
AcDbMText
 10
44.29397213222356
 20
309.31407044297
 30
0.0
 40
5.0
 41
0.0
 71
     9
 72
     1
  1
上部パッキン
  7
SUNPOU
 11
0.0000000000000001
 21
1.0
 31
0.0
1001
ACAD
1000
MTEXTBEGIN
1070
    73
1070
     1
1070
    44
1040
1.0
1070
    74
1070
     0
1000
MTEXTEND
  0
DIMENSION
  5
B21
330
A
100
AcDbEntity
  8
HIKIDASI
100
AcDbDimension
  2
*D32
 10
300.9849936085223
 20
93.00000000000585
 30
0.0
 11
291.9849936085223
 21
98.12624912718071
 31
0.0
 70
   160
  1
2.5（両引き）,4（片引き）
  3
SUNPOU_2
100
AcDbAlignedDimension
 13
300.9849936085223
 23
89.00000000000151
 33
0.0
 14
300.9849936085223
 24
93.00000000000585
 34
0.0
 50
90.0
100
AcDbRotatedDimension
1001
ACAD
1000
DSTYLE
1002
{
1070
   287
1070
     4
1070
   287
1070
     4
1070
   287
1070
     4
1070
   279
1070
     1
1070
   289
1070
     3
1002
}
  0
MTEXT
  5
BA4
330
A
100
AcDbEntity
  8
HIKIDASI
100
AcDbMText
 10
275.0683269418555
 20
102.616633306842
 30
0.0
 40
5.0
 41
0.0
 71
     4
 72
     1
  1
開口芯（両引き）,戸当り（片引き）
  7
SUNPOU
 11
0.0000000000000001
 21
1.0
 31
0.0
1001
ACAD
1000
MTEXTBEGIN
1070
    73
1070
     1
1070
    44
1040
1.0
1070
    74
1070
     0
1000
MTEXTEND
  0
MTEXT
  5
BA9
330
A
100
AcDbEntity
  8
HIKIDASI
100
AcDbMText
 10
309.354504512778
 20
126.9714554911141
 30
0.0
 40
5.0
 41
0.0
 71
     4
 72
     1
  1
[注] 両引きの戸先ゴムはスリムセナージドアI型を参照
  7
SUNPOU
 11
0.0000000000000001
 21
1.0
 31
0.0
1001
ACAD
1000
MTEXTBEGIN
1070
    73
1070
     1
1070
    44
1040
1.0
1070
    74
1070
     0
1000
MTEXTEND
  0
LINE
  5
FD3
330
A
100
AcDbEntity
  8
06
100
AcDbLine
 10
328.4849936085223
 20
99.50000000000166
 30
0.0
 11
347.4849936085223
 21
99.50000000000173
 31
0.0
  0
LINE
  5
116D
330
A
100
AcDbEntity
  8
04
100
AcDbLine
 10
111.095669678733
 20
461.4579080776215
 30
0.0
 11
111.0956696787332
 21
477.4579080776216
 31
0.0
  0
LINE
  5
116E
330
A
100
AcDbEntity
  8
04
100
AcDbLine
 10
87.09566967873332
 20
477.4579080776216
 30
0.0
 11
111.0956696787332
 21
477.4579080776216
 31
0.0
  0
LINE
  5
116F
330
A
100
AcDbEntity
  8
04
100
AcDbLine
 10
87.09566967873337
 20
461.4579080776215
 30
0.0
 11
111.0956696787334
 21
461.4579080776215
 31
0.0
  0
LINE
  5
1170
330
A
100
AcDbEntity
  8
04
100
AcDbLine
 10
141.2861635220114
 20
349.4471110588877
 30
0.0
 11
112.7861635220112
 21
349.4471110588876
 31
0.0
  0
LINE
  5
1171
330
A
100
AcDbEntity
  8
04
100
AcDbLine
 10
112.7861635220112
 20
349.4471110588876
 30
0.0
 11
112.7861635220115
 21
333.4471110588873
 31
0.0
  0
LINE
  5
1172
330
A
100
AcDbEntity
  8
04
100
AcDbLine
 10
112.7861635220115
 20
333.4471110588873
 30
0.0
 11
141.2861635220115
 21
333.4471110588876
 31
0.0
  0
LINE
  5
1173
330
A
100
AcDbEntity
  8
04
100
AcDbLine
 10
167.2861635220113
 20
349.4471110588881
 30
0.0
 11
191.2861635220114
 21
349.4471110588881
 31
0.0
  0
LINE
  5
1174
330
A
100
AcDbEntity
  8
04
100
AcDbLine
 10
191.2861635220114
 20
333.4471110588882
 30
0.0
 11
191.2861635220114
 21
349.4471110588881
 31
0.0
  0
LINE
  5
1175
330
A
100
AcDbEntity
  8
04
100
AcDbLine
 10
167.2861635220115
 20
333.4471110588881
 30
0.0
 11
191.2861635220114
 21
333.4471110588882
 31
0.0
  0
LINE
  5
1189
330
A
100
AcDbEntity
  8
04
100
AcDbLine
 10
180.595669678733
 20
482.7079080776218
 30
0.0
 11
182.0956696787333
 21
482.7079080776218
 31
0.0
  0
LINE
  5
118A
330
A
100
AcDbEntity
  8
04
100
AcDbLine
 10
180.5956696787333
 20
456.2079080776221
 30
0.0
 11
182.0956696787334
 21
456.2079080776221
 31
0.0
  0
LINE
  5
118C
330
A
100
AcDbEntity
  8
04
100
AcDbLine
 10
56.28616352201129
 20
354.6971110588886
 30
0.0
 11
56.78616352201135
 21
354.6971110588886
 31
0.0
  0
LINE
  5
118D
330
A
100
AcDbEntity
  8
04
100
AcDbLine
 10
56.28616352201141
 20
328.6971110588885
 30
0.0
 11
56.78616352201153
 21
328.6971110588885
 31
0.0
  0
LINE
  5
118E
330
A
100
AcDbEntity
  8
04
100
AcDbLine
 10
260.7861635220114
 20
354.6971110588886
 30
0.0
 11
262.2861635220114
 21
354.6971110588886
 31
0.0
  0
LINE
  5
118F
330
A
100
AcDbEntity
  8
04
100
AcDbLine
 10
260.7861635220114
 20
328.1971110588886
 30
0.0
 11
262.2861635220114
 21
328.1971110588887
 31
0.0
  0
LINE
  5
11E0
330
A
100
AcDbEntity
  8
04
100
AcDbLine
 10
167.2861635220113
 20
349.447111058888
 30
0.0
 11
167.2861635220115
 21
355.4471110588887
 31
0.0
  0
ARC
  5
11E1
330
A
100
AcDbEntity
  8
04
100
AcDbCircle
 10
168.0361635220115
 20
355.4471110588887
 30
0.0
 40
0.75
100
AcDbArc
 50
89.99999999999976
 51
179.9999999999995
  0
LINE
  5
11E6
330
A
100
AcDbEntity
  8
04
100
AcDbLine
 10
167.2861635220115
 20
333.4471110588878
 30
0.0
 11
167.2861635220113
 21
327.4471110588896
 31
0.0
  0
ARC
  5
1202
330
A
100
AcDbEntity
  8
04
100
AcDbCircle
 10
168.0361635220114
 20
327.4471110588896
 30
0.0
 40
0.75
100
AcDbArc
 50
179.9999999999992
 51
270.0
  0
LINE
  5
1207
330
A
100
AcDbEntity
  8
04
100
AcDbLine
 10
87.09566967873337
 20
461.4579080776214
 30
0.0
 11
87.09566967873319
 21
455.7079080776214
 31
0.0
  0
ARC
  5
1209
330
A
100
AcDbEntity
  8
04
100
AcDbCircle
 10
87.8456696787332
 20
455.4579080776232
 30
0.0
 40
0.75
100
AcDbArc
 50
179.9999999999992
 51
270.0
  0
ARC
  5
120A
330
A
100
AcDbEntity
  8
03
100
AcDbCircle
 10
77.41321131321464
 20
463.9579080776216
 30
0.0
 40
10.00000000000015
100
AcDbArc
 50
345.5224878140703
 51
14.47751218592937
  0
LINE
  5
120E
330
A
100
AcDbEntity
  8
04
100
AcDbLine
 10
87.09566967873326
 20
477.4579080776215
 30
0.0
 11
87.09566967873355
 21
483.4579080776222
 31
0.0
  0
ARC
  5
120F
330
A
100
AcDbEntity
  8
03
100
AcDbCircle
 10
77.4132113132148
 20
474.9579080776217
 30
0.0
 40
9.999999999999904
100
AcDbArc
 50
345.5224878140692
 51
14.47751218592942
  0
ARC
  5
1214
330
A
100
AcDbEntity
  8
04
100
AcDbCircle
 10
87.84566967873358
 20
483.4579080776222
 30
0.0
 40
0.75
100
AcDbArc
 50
89.99999999999976
 51
179.9999999999995
  0
CIRCLE
  5
1360
330
A
100
AcDbEntity
  8
SAISEN
100
AcDbCircle
 10
391.0976380784321
 20
49.5430264122316
 30
0.0
 40
5.0
  0
TEXT
  5
1361
330
A
100
AcDbEntity
  8
MOJI
100
AcDbText
 10
388.0488190392161
 20
45.27151320611586
 30
0.0
 40
8.0
  1
Ｓ
 41
0.8
  7
0_8
 11
388.0488190392161
 21
53.27151320611585
 31
0.0
100
AcDbText
 73
     3
  0
LINE
  5
1387
330
A
100
AcDbEntity
  8
04
100
AcDbLine
 10
56.28616352201129
 20
356.1971110588884
 30
0.0
 11
56.28616352201129
 21
354.6971110588886
 31
0.0
  0
LINE
  5
1388
330
A
100
AcDbEntity
  8
04
100
AcDbLine
 10
56.28616352201141
 20
328.6971110588885
 30
0.0
 11
56.28616352201141
 21
326.6971110588893
 31
0.0
  0
MTEXT
  5
142C
330
A
100
AcDbEntity
  8
MOJI
100
AcDbMText
 10
309.9999999999996
 20
28.5
 30
0.0
 40
7.0
 41
50.0
 71
     5
 72
     1
  1
図番２０－２
  7
0_8
1001
ACAD
1000
MTEXTBEGIN
1070
    73
1070
     1
1070
    44
1040
1.0
1070
    74
1070
     0
1000
MTEXTEND
  0
POLYLINE
  5
142D
330
A
100
AcDbEntity
  8
SAISEN
100
AcDb2dPolyline
 66
     1
 10
0.0
 20
0.0
 30
0.0
 70
     1
  0
VERTEX
  5
199B
330
142D
100
AcDbEntity
  8
SAISEN
 48
2.0
100
AcDbVertex
100
AcDb2dVertex
 10
35.0
 20
17.0
 30
0.0
  0
VERTEX
  5
199C
330
142D
100
AcDbEntity
  8
SAISEN
 48
2.0
100
AcDbVertex
100
AcDb2dVertex
 10
385.0
 20
17.0
 30
0.0
  0
VERTEX
  5
199D
330
142D
100
AcDbEntity
  8
SAISEN
 48
2.0
100
AcDbVertex
100
AcDb2dVertex
 10
385.0
 20
41.0
 30
0.0
  0
VERTEX
  5
199E
330
142D
100
AcDbEntity
  8
SAISEN
 48
2.0
100
AcDbVertex
100
AcDb2dVertex
 10
35.0
 20
41.0
 30
0.0
  0
SEQEND
  5
199F
330
142D
100
AcDbEntity
  8
SAISEN
  0
MTEXT
  5
142E
330
A
100
AcDbEntity
  8
MOJI
100
AcDbMText
 10
90.0
 20
29.0
 30
0.0
 40
7.0
 41
110.0
 71
     5
 72
     1
  1
ＲＴＳスリムセナージ･ドア\PＩ型納り
  7
0_8
1001
ACAD
1000
MTEXTBEGIN
1070
    73
1070
     1
1070
    44
1040
1.0
1070
    74
1070
     0
1000
MTEXTEND
  0
LINE
  5
142F
330
A
100
AcDbEntity
  8
SAISEN
100
AcDbLine
 10
144.9999999999998
 20
41.0
 30
0.0
 11
144.9999999999998
 21
17.0
 31
0.0
  0
MTEXT
  5
1430
330
A
100
AcDbEntity
  8
MOJI
100
AcDbMText
 10
185.0
 20
29.0
 30
0.0
 40
7.0
 41
80.0
 71
     5
 72
     1
  1
スライドドア
  7
0_8
1001
ACAD
1000
MTEXTBEGIN
1070
    73
1070
     1
1070
    44
1040
1.0
1070
    74
1070
     0
1000
MTEXTEND
  0
LINE
  5
1431
330
A
100
AcDbEntity
  8
SAISEN
100
AcDbLine
 10
285.0
 20
41.0
 30
0.0
 11
285.0
 21
17.0
 31
0.0
  0
MTEXT
  5
14B2
330
A
100
AcDbEntity
  8
MOJI
100
AcDbMText
 10
359.9999999999998
 20
28.99999999999954
 30
0.0
 40
6.0
 41
49.99999999999993
 71
     5
 72
     1
  1
姿図･たて断面図\P下カマチ加工図
  7
0_8
1001
ACAD
1000
MTEXTBEGIN
1070
    73
1070
     1
1070
    44
1040
1.0
1070
    74
1070
     0
1000
MTEXTEND
  0
LEADER
  5
18F3
330
A
100
AcDbEntity
  8
HIKIDASI
 48
2.0
100
AcDbLeader
  3
SUNPOU_2
 76
     3
 10
55.28616352201186
 20
332.3818762254981
 30
0.0
 10
46.29397213222356
 20
311.31407044297
 30
0.0
 10
46.29397213222356
 20
279.7064249665304
 30
0.0
1001
ACAD
1000
DSTYLE
1002
{
1070
     5
1000
OPEN30
1070
    77
1070
     1
1070
   147
1040
1.0
1002
}
1000
LEANOF
1010
0.0
1020
0.0
1030
0.0
  0
LEADER
  5
18F4
330
A
100
AcDbEntity
  8
HIKIDASI
 48
2.0
100
AcDbLeader
  3
SUNPOU_2
 76
     3
 10
89.08805031446496
 20
325.6971110588894
 30
0.0
 10
80.09585892467667
 20
304.6293052763613
 30
0.0
 10
80.09585892467667
 20
277.2813997958469
 30
0.0
1001
ACAD
1000
DSTYLE
1002
{
1070
     5
1000
OPEN30
1070
    77
1070
     1
1070
   147
1040
1.0
1002
}
1000
LEANOF
1010
0.0
1020
0.0
1030
0.0
  0
LEADER
  5
18F5
330
A
100
AcDbEntity
  8
HIKIDASI
 48
2.0
100
AcDbLeader
  3
SUNPOU_2
 76
     3
 10
207.0702306079655
 20
325.4471110588883
 30
0.0
 10
198.0780392181772
 20
304.6293052763613
 30
0.0
 10
198.0780392181772
 20
278.0772215107758
 30
0.0
1001
ACAD
1000
DSTYLE
1002
{
1070
     5
1000
OPEN30
1070
    77
1070
     1
1070
   147
1040
1.0
1002
}
1000
LEANOF
1010
0.0
1020
0.0
1030
0.0
  0
LEADER
  5
18F6
330
A
100
AcDbEntity
  8
HIKIDASI
 48
2.0
100
AcDbLeader
  3
SUNPOU_2
 76
     3
 10
342.4849936085216
 20
416.6658940186311
 30
0.0
 10
388.3249309056497
 20
433.7879310039209
 30
0.0
 10
388.3249309056497
 20
479.3617928166977
 30
0.0
1001
ACAD
1000
DSTYLE
1002
{
1070
     5
1000
OPEN30
1070
    77
1070
     1
1070
   147
1040
1.0
1002
}
1000
LEANOF
1010
0.0
1020
0.0
1030
0.0
  0
LEADER
  5
18F7
330
A
100
AcDbEntity
  8
HIKIDASI
 48
2.0
100
AcDbLeader
  3
SUNPOU_2
 76
     3
 10
337.984993608522
 20
254.5000000000016
 30
0.0
 10
387.2656944334541
 20
287.9700740005656
 30
0.0
 10
387.2656944334541
 20
325.0152420690274
 30
0.0
1001
ACAD
1000
DSTYLE
1002
{
1070
     5
1000
OPEN30
1070
    77
1070
     1
1070
   147
1040
1.0
1002
}
1000
LEANOF
1010
0.0
1020
0.0
1030
0.0
  0
LEADER
  5
18F8
330
A
100
AcDbEntity
  8
HIKIDASI
 48
2.0
100
AcDbLeader
  3
SUNPOU_2
 76
     3
 10
335.1642582670983
 20
98.94718633580929
 30
0.0
 10
313.854504512778
 20
124.9714554911141
 30
0.0
 10
313.854504512778
 20
252.3813496856694
 30
0.0
1001
ACAD
1000
DSTYLE
1002
{
1070
     5
1000
OPEN30
1070
    77
1070
     1
1070
   147
1040
1.0
1002
}
1000
LEANOF
1010
0.0
1020
0.0
1030
0.0
  0
LEADER
  5
18F9
330
A
100
AcDbEntity
  8
HIKIDASI
 48
2.0
100
AcDbLeader
  3
SUNPOU_2
 76
     3
 10
291.9849936085223
 20
89.00000000000156
 30
0.0
 10
279.9849936085221
 20
100.616633306842
 30
0.0
 10
279.9849936085221
 20
180.7209503127815
 30
0.0
1001
ACAD
1000
DSTYLE
1002
{
1070
     5
1000
OPEN30
1070
    77
1070
     1
1070
   147
1040
1.0
1002
}
1000
LEANOF
1010
0.0
1020
0.0
1030
0.0
  0
VIEWPORT
  5
F20
102
{ACAD_XDICTIONARY
360
15FE
102
}
330
B
100
AcDbEntity
 67
     1
  8
0
100
AcDbViewport
 10
199.0181406217401
 20
286.1175481542316
 30
0.0
 40
1063.818356449473
 41
628.2954051513671
 68
     1
 69
     1
1001
ACAD
1000
MVIEW
1002
{
1070
    16
1010
0.0
1020
0.0
1030
0.0
1010
0.0
1020
0.0
1030
1.0
1040
0.0
1040
628.2954051513671
1040
199.0181406217401
1040
286.1175481542316
1040
50.0
1040
0.0
1040
0.0
1070
     0
1070
   100
1070
     1
1070
     1
1070
     0
1070
     0
1070
     0
1070
     0
1040
0.0
1040
0.0
1040
0.0
1040
10.0
1040
10.0
1040
10.0
1040
10.0
1070
     0
1002
{
1002
}
1002
}
  0
VIEWPORT
  5
160D
330
B
100
AcDbEntity
 67
     1
  8
DEFPOINTS
100
AcDbViewport
 10
198.0448129850213
 20
285.1915532811847
 30
0.0
 40
406.0
 41
580.0
 68
     2
 69
     2
1001
ACAD
1000
MVIEW
1002
{
1070
    16
1010
0.0
1020
0.0
1030
0.0
1010
0.0
1020
0.0
1030
1.0
1040
0.0
1040
580.0
1040
210.0
1040
297.0
1040
50.0
1040
0.0
1040
0.0
1070
     0
1070
   100
1070
     1
1070
     1
1070
     0
1070
     0
1070
     0
1070
     0
1040
0.0
1040
0.0
1040
0.0
1040
1.0
1040
1.0
1040
0.0
1040
0.0
1070
     0
1002
{
1002
}
1002
}
  0
ENDSEC
  0
SECTION
  2
OBJECTS
  0
DICTIONARY
  5
19
330
0
100
AcDbDictionary
  3
ACAD_COLOR
350
BB0
  3
ACAD_GROUP
350
1A
  3
ACAD_LAYOUT
350
5A9
  3
ACAD_MATERIAL
350
BAF
  3
ACAD_MLINESTYLE
350
1B
  3
ACAD_PLOTSETTINGS
350
5AA
  3
ACADDIM
350
BA7
  3
ASE_INDEX_DICTIONARY
350
1496
1001
ACAD
1000
TREAT_AS_HARD
1070
     0
1000
TREAT_AS_HARD
1070
     0
1000
TREAT_AS_HARD
1070
     0
  0
DICTIONARY
  5
141D
330
2
100
AcDbDictionary
  3
ACAD_LAYERFILTERS
350
18FA
  3
ACAD_LAYERSTATES
350
141E
1001
ACAD
1000
TREAT_AS_HARD
1070
     1
1000
TREAT_AS_HARD
1070
     1
  0
DICTIONARY
  5
13EF
330
A
100
AcDbDictionary
  3
ACAD_LAYOUTSELFREF
350
1985
1001
ACAD
1000
TREAT_AS_HARD
1070
     1
1000
TREAT_AS_HARD
1070
     1
  0
DICTIONARY
  5
13F1
330
B
100
AcDbDictionary
  3
ACAD_LAYOUTSELFREF
350
1986
1001
ACAD
1000
TREAT_AS_HARD
1070
     1
1000
TREAT_AS_HARD
1070
     1
  0
DICTIONARY
  5
15FE
330
F20
100
AcDbDictionary
  3
ACAD_XREC_ROUNDTRIP
350
15FF
1001
ACAD
1000
TREAT_AS_HARD
1070
     1
  0
DICTIONARY
  5
BB0
102
{ACAD_REACTORS
330
19
102
}
330
19
100
AcDbDictionary
1001
ACAD
1000
TREAT_AS_HARD
1070
     0
1000
TREAT_AS_HARD
1070
     0
1000
TREAT_AS_HARD
1070
     0
  0
DICTIONARY
  5
1A
102
{ACAD_REACTORS
330
19
102
}
330
19
100
AcDbDictionary
  3
DAGROUP4A8
350
4A8
  3
DAGROUP4AC
350
4AC
  3
DAGROUP4B0
350
4B0
  3
DAGROUP4B4
350
4B4
  3
DAGROUP4B8
350
4B8
  3
DAGROUP4BC
350
4BC
  3
DAGROUP4C0
350
4C0
  3
DAGROUP4C4
350
4C4
  3
DAGROUP4C8
350
4C8
  3
DAGROUP4CC
350
4CC
  3
DAGROUP4D0
350
4D0
  3
DAGROUP4D4
350
4D4
  3
DAGROUP4D8
350
4D8
  3
DAGROUP4DC
350
4DC
  3
DAGROUP4E0
350
4E0
  3
DAGROUP4E4
350
4E4
  3
DAGROUP4E8
350
4E8
  3
DAGROUP4EC
350
4EC
  3
DAGROUP4F0
350
4F0
  3
DAGROUP4F4
350
4F4
  3
DAGROUP4F8
350
4F8
  3
DAGROUP4FC
350
4FC
  3
DAGROUP500
350
500
  3
DAGROUP504
350
504
  3
DAGROUP508
350
508
  3
DAGROUP50C
350
50C
  3
DAGROUP510
350
510
  3
DAGROUP514
350
514
  3
DAGROUP518
350
518
  3
DAGROUP51C
350
51C
  3
DAGROUP520
350
520
  3
DAGROUP524
350
524
  3
DAGROUP528
350
528
  3
DAGROUP52C
350
52C
  3
DAGROUP530
350
530
  3
DAGROUP533
350
533
  3
DAGROUP536
350
536
  3
DAGROUP539
350
539
  3
DAGROUP53C
350
53C
  3
DAGROUP53F
350
53F
  3
DAGROUP542
350
542
  3
DAGROUP545
350
545
  3
DAGROUP548
350
548
  3
DAGROUP54C
350
54C
1001
ACAD
1000
TREAT_AS_HARD
1070
     0
1000
TREAT_AS_HARD
1070
     0
1000
TREAT_AS_HARD
1070
     0
  0
DICTIONARY
  5
5A9
102
{ACAD_REACTORS
330
19
102
}
330
19
100
AcDbDictionary
1001
ACAD
1000
TREAT_AS_HARD
1070
     0
1000
TREAT_AS_HARD
1070
     0
1000
TREAT_AS_HARD
1070
     0
  0
DICTIONARY
  5
BAF
102
{ACAD_REACTORS
330
19
102
}
330
19
100
AcDbDictionary
1001
ACAD
1000
TREAT_AS_HARD
1070
     0
1000
TREAT_AS_HARD
1070
     0
1000
TREAT_AS_HARD
1070
     0
  0
DICTIONARY
  5
1B
102
{ACAD_REACTORS
330
19
102
}
330
19
100
AcDbDictionary
  3
STANDARD
350
1C
1001
ACAD
1000
TREAT_AS_HARD
1070
     0
1000
TREAT_AS_HARD
1070
     0
1000
TREAT_AS_HARD
1070
     0
  0
DICTIONARY
  5
5AA
102
{ACAD_REACTORS
330
19
102
}
330
19
100
AcDbDictionary
1001
ACAD
1000
TREAT_AS_HARD
1070
     0
1000
TREAT_AS_HARD
1070
     0
1000
TREAT_AS_HARD
1070
     0
  0
XRECORD
  5
BA7
102
{ACAD_REACTORS
330
19
102
}
330
19
100
AcDbXrecord
 90
   990106
  3

 60
     0
 61
     0
 62
     4
 63
     4
 64
     1
 65
     0
 66
     0
 67
     3
 68
     1
 69
     0
 70
     0
 71
     0
 72
     0
 40
0.0
170
     2
340
BA9
  0
DICTIONARY
  5
1496
102
{ACAD_REACTORS
330
19
102
}
330
19
100
AcDbDictionary
  3
ASEBLOCKHIERARCHYINDEXRECORD
350
1497
1001
DCO15
1040
1508820617.609
1001
ACAD
1000
TREAT_AS_HARD
1070
     0
  0
DICTIONARY
  5
18FA
102
{ACAD_REACTORS
330
141D
102
}
330
141D
100
AcDbDictionary
1001
ACAD
1000
TREAT_AS_HARD
1070
     1
  0
DICTIONARY
  5
141E
102
{ACAD_REACTORS
330
141D
102
}
330
141D
100
AcDbDictionary
1001
ACAD
1000
TREAT_AS_HARD
1070
     0
1000
TREAT_AS_HARD
1070
     0
  0
XRECORD
  5
1985
102
{ACAD_REACTORS
330
13EF
102
}
330
13EF
100
AcDbXrecord
340
A
  0
XRECORD
  5
1986
102
{ACAD_REACTORS
330
13F1
102
}
330
13F1
100
AcDbXrecord
340
B
  0
XRECORD
  5
15FF
102
{ACAD_REACTORS
330
15FE
102
}
330
15FE
100
AcDbXrecord
102
SHADEPLOT
 70
     0
  0
GROUP
  5
4A8
102
{ACAD_REACTORS
330
1A
102
}
330
1A
100
AcDbGroup
300

 70
     0
 71
     1
  0
GROUP
  5
4AC
102
{ACAD_REACTORS
330
1A
102
}
330
1A
100
AcDbGroup
300

 70
     0
 71
     1
  0
GROUP
  5
4B0
102
{ACAD_REACTORS
330
1A
102
}
330
1A
100
AcDbGroup
300

 70
     0
 71
     1
  0
GROUP
  5
4B4
102
{ACAD_REACTORS
330
1A
102
}
330
1A
100
AcDbGroup
300

 70
     0
 71
     1
  0
GROUP
  5
4B8
102
{ACAD_REACTORS
330
1A
102
}
330
1A
100
AcDbGroup
300

 70
     0
 71
     1
  0
GROUP
  5
4BC
102
{ACAD_REACTORS
330
1A
102
}
330
1A
100
AcDbGroup
300

 70
     0
 71
     1
  0
GROUP
  5
4C0
102
{ACAD_REACTORS
330
1A
102
}
330
1A
100
AcDbGroup
300

 70
     0
 71
     1
  0
GROUP
  5
4C4
102
{ACAD_REACTORS
330
1A
102
}
330
1A
100
AcDbGroup
300

 70
     0
 71
     1
  0
GROUP
  5
4C8
102
{ACAD_REACTORS
330
1A
102
}
330
1A
100
AcDbGroup
300

 70
     0
 71
     1
  0
GROUP
  5
4CC
102
{ACAD_REACTORS
330
1A
102
}
330
1A
100
AcDbGroup
300

 70
     0
 71
     1
  0
GROUP
  5
4D0
102
{ACAD_REACTORS
330
1A
102
}
330
1A
100
AcDbGroup
300

 70
     0
 71
     1
  0
GROUP
  5
4D4
102
{ACAD_REACTORS
330
1A
102
}
330
1A
100
AcDbGroup
300

 70
     0
 71
     1
  0
GROUP
  5
4D8
102
{ACAD_REACTORS
330
1A
102
}
330
1A
100
AcDbGroup
300

 70
     0
 71
     1
  0
GROUP
  5
4DC
102
{ACAD_REACTORS
330
1A
102
}
330
1A
100
AcDbGroup
300

 70
     0
 71
     1
  0
GROUP
  5
4E0
102
{ACAD_REACTORS
330
1A
102
}
330
1A
100
AcDbGroup
300

 70
     0
 71
     1
  0
GROUP
  5
4E4
102
{ACAD_REACTORS
330
1A
102
}
330
1A
100
AcDbGroup
300

 70
     0
 71
     1
  0
GROUP
  5
4E8
102
{ACAD_REACTORS
330
1A
102
}
330
1A
100
AcDbGroup
300

 70
     0
 71
     1
  0
GROUP
  5
4EC
102
{ACAD_REACTORS
330
1A
102
}
330
1A
100
AcDbGroup
300

 70
     0
 71
     1
  0
GROUP
  5
4F0
102
{ACAD_REACTORS
330
1A
102
}
330
1A
100
AcDbGroup
300

 70
     0
 71
     1
  0
GROUP
  5
4F4
102
{ACAD_REACTORS
330
1A
102
}
330
1A
100
AcDbGroup
300

 70
     0
 71
     1
  0
GROUP
  5
4F8
102
{ACAD_REACTORS
330
1A
102
}
330
1A
100
AcDbGroup
300

 70
     0
 71
     1
  0
GROUP
  5
4FC
102
{ACAD_REACTORS
330
1A
102
}
330
1A
100
AcDbGroup
300

 70
     0
 71
     1
  0
GROUP
  5
500
102
{ACAD_REACTORS
330
1A
102
}
330
1A
100
AcDbGroup
300

 70
     0
 71
     1
  0
GROUP
  5
504
102
{ACAD_REACTORS
330
1A
102
}
330
1A
100
AcDbGroup
300

 70
     0
 71
     1
  0
GROUP
  5
508
102
{ACAD_REACTORS
330
1A
102
}
330
1A
100
AcDbGroup
300

 70
     0
 71
     1
  0
GROUP
  5
50C
102
{ACAD_REACTORS
330
1A
102
}
330
1A
100
AcDbGroup
300

 70
     0
 71
     1
  0
GROUP
  5
510
102
{ACAD_REACTORS
330
1A
102
}
330
1A
100
AcDbGroup
300

 70
     0
 71
     1
  0
GROUP
  5
514
102
{ACAD_REACTORS
330
1A
102
}
330
1A
100
AcDbGroup
300

 70
     0
 71
     1
  0
GROUP
  5
518
102
{ACAD_REACTORS
330
1A
102
}
330
1A
100
AcDbGroup
300

 70
     0
 71
     1
  0
GROUP
  5
51C
102
{ACAD_REACTORS
330
1A
102
}
330
1A
100
AcDbGroup
300

 70
     0
 71
     1
  0
GROUP
  5
520
102
{ACAD_REACTORS
330
1A
102
}
330
1A
100
AcDbGroup
300

 70
     0
 71
     1
  0
GROUP
  5
524
102
{ACAD_REACTORS
330
1A
102
}
330
1A
100
AcDbGroup
300

 70
     0
 71
     1
  0
GROUP
  5
528
102
{ACAD_REACTORS
330
1A
102
}
330
1A
100
AcDbGroup
300

 70
     0
 71
     1
  0
GROUP
  5
52C
102
{ACAD_REACTORS
330
1A
102
}
330
1A
100
AcDbGroup
300

 70
     0
 71
     1
  0
GROUP
  5
530
102
{ACAD_REACTORS
330
1A
102
}
330
1A
100
AcDbGroup
300

 70
     0
 71
     1
  0
GROUP
  5
533
102
{ACAD_REACTORS
330
1A
102
}
330
1A
100
AcDbGroup
300

 70
     0
 71
     1
  0
GROUP
  5
536
102
{ACAD_REACTORS
330
1A
102
}
330
1A
100
AcDbGroup
300

 70
     0
 71
     1
  0
GROUP
  5
539
102
{ACAD_REACTORS
330
1A
102
}
330
1A
100
AcDbGroup
300

 70
     0
 71
     1
  0
GROUP
  5
53C
102
{ACAD_REACTORS
330
1A
102
}
330
1A
100
AcDbGroup
300

 70
     0
 71
     1
  0
GROUP
  5
53F
102
{ACAD_REACTORS
330
1A
102
}
330
1A
100
AcDbGroup
300

 70
     0
 71
     1
  0
GROUP
  5
542
102
{ACAD_REACTORS
330
1A
102
}
330
1A
100
AcDbGroup
300

 70
     0
 71
     1
  0
GROUP
  5
545
102
{ACAD_REACTORS
330
1A
102
}
330
1A
100
AcDbGroup
300

 70
     0
 71
     1
  0
GROUP
  5
548
102
{ACAD_REACTORS
330
1A
102
}
330
1A
100
AcDbGroup
300

 70
     0
 71
     1
  0
GROUP
  5
54C
102
{ACAD_REACTORS
330
1A
102
}
330
1A
100
AcDbGroup
300

 70
     0
 71
     1
  0
MLINESTYLE
  5
1C
102
{ACAD_REACTORS
330
1B
102
}
330
1B
100
AcDbMlineStyle
  2
STANDARD
 70
     0
  3

 62
     0
 51
90.00000000000019
 52
90.00000000000019
 71
     2
 49
0.5
 62
   256
  6
BYLAYER
 49
-0.5
 62
   256
  6
BYLAYER
  0
XRECORD
  5
1497
102
{ACAD_REACTORS
330
1496
102
}
330
1496
100
AcDbXrecord
330
0
330
0
330
0
330
0
330
0
330
0
330
0
330
0
330
0
330
0
330
0
330
0
330
0
330
0
330
0
330
0
330
0
330
0
330
0
330
0
330
0
330
0
330
0
330
0
330
0
330
0
330
0
330
0
330
0
330
0
330
0
330
0
330
0
330
0
330
0
330
0
330
0
330
0
330
0
330
0
330
0
330
0
330
0
330
0
330
0
330
0
330
0
330
0
330
0
330
0
330
0
330
0
330
0
330
0
330
0
330
0
330
0
330
0
330
0
330
0
330
0
330
0
330
0
330
0
  0
ENDSEC
  0
EOF
