  0
SECTION
  2
HEADER
  9
$ACADVER
  1
AC1012
  9
$DWGCODEPAGE
  3
dos932
  9
$INSBASE
 10
0.0
 20
0.0
 30
0.0
  9
$EXTMIN
 10
0.0
 20
0.0
 30
0.0
  9
$EXTMAX
 10
420.0
 20
594.0
 30
0.0
  9
$LIMMIN
 10
0.0
 20
0.0
  9
$LIMMAX
 10
420.0
 20
594.0
  9
$ORTHOMODE
 70
     0
  9
$REGENMODE
 70
     1
  9
$FILLMODE
 70
     1
  9
$QTEXTMODE
 70
     0
  9
$MIRRTEXT
 70
     1
  9
$DRAGMODE
 70
     2
  9
$LTSCALE
 40
0.5
  9
$OSMODE
 70
    37
  9
$ATTMODE
 70
     1
  9
$TEXTSIZE
 40
6.0
  9
$TRACEWID
 40
0.05
  9
$TEXTSTYLE
  7
0_8
  9
$CLAYER
  8
04
  9
$CELTYPE
  6
BYLAYER
  9
$CECOLOR
 62
   256
  9
$CELTSCALE
 40
1.0
  9
$DELOBJ
 70
     1
  9
$DISPSILH
 70
     0
  9
$DIMSCALE
 40
2.0
  9
$DIMASZ
 40
2.5
  9
$DIMEXO
 40
1.5
  9
$DIMDLI
 40
0.0
  9
$DIMRND
 40
0.0
  9
$DIMDLE
 40
0.0
  9
$DIMEXE
 40
1.0
  9
$DIMTP
 40
0.0
  9
$DIMTM
 40
0.0
  9
$DIMTXT
 40
2.5
  9
$DIMCEN
 40
0.0
  9
$DIMTSZ
 40
0.0
  9
$DIMTOL
 70
     0
  9
$DIMLIM
 70
     0
  9
$DIMTIH
 70
     0
  9
$DIMTOH
 70
     0
  9
$DIMSE1
 70
     0
  9
$DIMSE2
 70
     0
  9
$DIMTAD
 70
     1
  9
$DIMZIN
 70
     8
  9
$DIMBLK
  1
OPEN30
  9
$DIMASO
 70
     1
  9
$DIMSHO
 70
     1
  9
$DIMPOST
  1

  9
$DIMAPOST
  1

  9
$DIMALT
 70
     0
  9
$DIMALTD
 70
     2
  9
$DIMALTF
 40
25.4
  9
$DIMLFAC
 40
1.0
  9
$DIMTOFL
 70
     1
  9
$DIMTVP
 40
0.0
  9
$DIMTIX
 70
     1
  9
$DIMSOXD
 70
     0
  9
$DIMSAH
 70
     0
  9
$DIMBLK1
  1

  9
$DIMBLK2
  1

  9
$DIMSTYLE
  2
SUNPOU_2
  9
$DIMCLRD
 70
   256
  9
$DIMCLRE
 70
   256
  9
$DIMCLRT
 70
   256
  9
$DIMTFAC
 40
1.0
  9
$DIMGAP
 40
1.0
  9
$DIMJUST
 70
     0
  9
$DIMSD1
 70
     0
  9
$DIMSD2
 70
     0
  9
$DIMTOLJ
 70
     1
  9
$DIMTZIN
 70
     0
  9
$DIMALTZ
 70
     0
  9
$DIMALTTZ
 70
     0
  9
$DIMFIT
 70
     3
  9
$DIMUPT
 70
     0
  9
$DIMUNIT
 70
     2
  9
$DIMDEC
 70
     1
  9
$DIMTDEC
 70
     1
  9
$DIMALTU
 70
     2
  9
$DIMALTTD
 70
     2
  9
$DIMTXSTY
  7
SUNPOU
  9
$DIMAUNIT
 70
     0
  9
$LUNITS
 70
     2
  9
$LUPREC
 70
     4
  9
$SKETCHINC
 40
0.1
  9
$FILLETRAD
 40
0.0
  9
$AUNITS
 70
     0
  9
$AUPREC
 70
     0
  9
$MENU
  1
acad
  9
$ELEVATION
 40
0.0
  9
$PELEVATION
 40
0.0
  9
$THICKNESS
 40
0.0
  9
$LIMCHECK
 70
     0
  9
$BLIPMODE
 70
     0
  9
$CHAMFERA
 40
0.0
  9
$CHAMFERB
 40
0.0
  9
$CHAMFERC
 40
0.0
  9
$CHAMFERD
 40
0.0
  9
$SKPOLY
 70
     0
  9
$TDCREATE
 40
2444972.375000000
  9
$TDUPDATE
 40
2453266.444345694
  9
$TDINDWG
 40
0.5457281019
  9
$TDUSRTIMER
 40
0.5457279167
  9
$USRTIMER
 70
     1
  9
$ANGBASE
 50
0.0
  9
$ANGDIR
 70
     0
  9
$PDMODE
 70
     0
  9
$PDSIZE
 40
1.0
  9
$PLINEWID
 40
0.0
  9
$COORDS
 70
     1
  9
$SPLFRAME
 70
     0
  9
$SPLINETYPE
 70
     6
  9
$SPLINESEGS
 70
     8
  9
$ATTDIA
 70
     0
  9
$ATTREQ
 70
     1
  9
$HANDLING
 70
-16383
  9
$HANDSEED
  5
21F1
  9
$SURFTAB1
 70
     6
  9
$SURFTAB2
 70
     6
  9
$SURFTYPE
 70
     6
  9
$SURFU
 70
     6
  9
$SURFV
 70
     6
  9
$UCSNAME
  2

  9
$UCSORG
 10
0.0
 20
0.0
 30
0.0
  9
$UCSXDIR
 10
1.0
 20
0.0
 30
0.0
  9
$UCSYDIR
 10
0.0
 20
1.0
 30
0.0
  9
$PUCSNAME
  2

  9
$PUCSORG
 10
0.0
 20
0.0
 30
0.0
  9
$PUCSXDIR
 10
1.0
 20
0.0
 30
0.0
  9
$PUCSYDIR
 10
0.0
 20
1.0
 30
0.0
  9
$USERI1
 70
     0
  9
$USERI2
 70
     0
  9
$USERI3
 70
     0
  9
$USERI4
 70
     0
  9
$USERI5
 70
     0
  9
$USERR1
 40
0.0
  9
$USERR2
 40
0.0
  9
$USERR3
 40
0.0
  9
$USERR4
 40
0.0
  9
$USERR5
 40
0.0
  9
$WORLDVIEW
 70
     1
  9
$SHADEDGE
 70
     3
  9
$SHADEDIF
 70
    70
  9
$TILEMODE
 70
     1
  9
$MAXACTVP
 70
    16
  9
$PINSBASE
 10
0.0
 20
0.0
 30
0.0
  9
$PLIMCHECK
 70
     0
  9
$PEXTMIN
 10
-0.0133110541584074
 20
-0.0174202791267817
 30
-0.0015258207003583
  9
$PEXTMAX
 10
396.1216716604903
 20
570.3923158424973
 30
0.0000000349246037
  9
$PLIMMIN
 10
-11.94191342824453
 20
-11.76600219398139
  9
$PLIMMAX
 10
408.0435733360148
 20
582.1408996648767
  9
$UNITMODE
 70
     0
  9
$VISRETAIN
 70
     0
  9
$PLINEGEN
 70
     1
  9
$PSLTSCALE
 70
     0
  9
$TREEDEPTH
 70
  3020
  9
$PICKSTYLE
 70
     1
  9
$CMLSTYLE
  2
STANDARD
  9
$CMLJUST
 70
     0
  9
$CMLSCALE
 40
1.0
  9
$SAVEIMAGES
 70
     1
  0
ENDSEC
  0
SECTION
  2
CLASSES
  0
CLASS
  1
LWPOLYLINE
  2
AcDbPolyline
  3
AutoCAD 2000
 90
    32768
280
     0
281
     1
  0
CLASS
  1
IMAGE
  2
AcDbRasterImage
  3
ISM
 90
    32895
280
     0
281
     1
  0
CLASS
  1
OLE2FRAME
  2
AcDbOle2Frame
  3
AutoCAD 2000
 90
    32768
280
     0
281
     1
  0
CLASS
  1
HATCH
  2
AcDbHatch
  3
AutoCAD 2000
 90
    32768
280
     0
281
     1
  0
CLASS
  1
DICTIONARYVAR
  2
AcDbDictionaryVar
  3
AutoCAD 2000
 90
    32768
280
     0
281
     0
  0
CLASS
  1
RASTERVARIABLES
  2
AcDbRasterVariables
  3
ISM
 90
    32768
280
     0
281
     0
  0
CLASS
  1
IMAGEDEF
  2
AcDbRasterImageDef
  3
ISM
 90
    32768
280
     0
281
     0
  0
CLASS
  1
IMAGEDEF_REACTOR
  2
AcDbRasterImageDefReactor
  3
ISM
 90
    32769
280
     0
281
     0
  0
CLASS
  1
IDBUFFER
  2
AcDbIdBuffer
  3
AutoCAD 2000
 90
    32768
280
     0
281
     0
  0
CLASS
  1
SPATIAL_FILTER
  2
AcDbSpatialFilter
  3
AutoCAD 2000
 90
    32768
280
     0
281
     0
  0
CLASS
  1
XRECORD
  2
AcDbXrecord
  3
AutoCAD 2000
 90
    32768
280
     0
281
     0
  0
CLASS
  1
SORTENTSTABLE
  2
AcDbSortentsTable
  3
AutoCAD 2000
 90
    32768
280
     0
281
     0
  0
CLASS
  1
LAYER_INDEX
  2
AcDbLayerIndex
  3
AutoCAD 2000
 90
    32768
280
     0
281
     0
  0
CLASS
  1
SPATIAL_INDEX
  2
AcDbSpatialIndex
  3
AutoCAD 2000
 90
    32768
280
     0
281
     0
  0
CLASS
  1
OBJECT_PTR
  2
CAseDLPNTableRecord
  3
ASE-LPNTableRecord
 90
    32769
280
     0
281
     0
  0
CLASS
  1
LAYOUT
  2
AcDbLayout
  3
AutoCAD 2000
 90
    32768
280
     0
281
     0
  0
CLASS
  1
PLOTSETTINGS
  2
AcDbPlotSettings
  3
AutoCAD 2000
 90
    32768
280
     0
281
     0
  0
CLASS
  1
ACDBDICTIONARYWDFLT
  2
AcDbDictionaryWithDefault
  3
AutoCAD 2000
 90
    32768
280
     0
281
     0
  0
CLASS
  1
ACDBPLACEHOLDER
  2
AcDbPlaceHolder
  3
AutoCAD 2000
 90
    32768
280
     0
281
     0
  0
CLASS
  1
VBA_PROJECT
  2
AcDbVbaProject
  3
acad
 90
    32768
280
     0
281
     0
  0
CLASS
  1
WIPEOUT
  2
AcDbWipeout
  3
"WipeOut|Product Desc: Object Enabler for WipeOut entity^I^I^I^I^I^I|Company: Autodesk, Inc.^I^I^I^I^I^I|WEB Address: www.autodesk.com"
 90
    32895
280
     0
281
     1
  0
CLASS
  1
WIPEOUTVARIABLES
  2
AcDbWipeoutVariables
  3
"WipeOut|Product Desc:     WipeOut Dbx Application|Company:          Autodesk, Inc.|WEB Address:      www.autodesk.com"
 90
    32768
280
     0
281
     0
  0
CLASS
  1
RTEXT
  2
RText
  3
RText|AutoCAD Express Tool|expresstools@autodesk.com
 90
    32768
280
     0
281
     1
  0
CLASS
  1
ARCALIGNEDTEXT
  2
AcDbArcAlignedText
  3
ATEXT|AutoCAD Express Tool|expresstools@autodesk.com
 90
    32768
280
     0
281
     1
  0
CLASS
  1
LONG_TRANSACTION
  2
AcDbLongTransaction
  3
AutoCAD 2000
 90
    32768
280
     0
281
     0
  0
CLASS
  1
LWPOLYLINE
  2
AcDbPolyline
  3
AutoCAD 2000
 90
    32768
280
     0
281
     1
  0
CLASS
  1
HATCH
  2
AcDbHatch
  3
AutoCAD 2000
 90
    32768
280
     0
281
     1
  0
CLASS
  1
XRECORD
  2
AcDbXrecord
  3
AutoCAD 2000
 90
    32768
280
     0
281
     0
  0
CLASS
  1
LONG_TRANSACTION
  2
AcDbLongTransaction
  3
AutoCAD 2000
 90
    32768
280
     0
281
     0
  0
CLASS
  1
LWPOLYLINE
  2
AcDbPolyline
  3
AutoCAD 2000
 90
    32768
280
     0
281
     1
  0
CLASS
  1
HATCH
  2
AcDbHatch
  3
AutoCAD 2000
 90
    32768
280
     0
281
     1
  0
CLASS
  1
XRECORD
  2
AcDbXrecord
  3
AutoCAD 2000
 90
    32768
280
     0
281
     0
  0
CLASS
  1
LONG_TRANSACTION
  2
AcDbLongTransaction
  3
AutoCAD 2000
 90
    32768
280
     0
281
     0
  0
CLASS
  1
LWPOLYLINE
  2
AcDbPolyline
  3
AutoCAD 2000
 90
    32768
280
     0
281
     1
  0
CLASS
  1
HATCH
  2
AcDbHatch
  3
AutoCAD 2000
 90
    32768
280
     0
281
     1
  0
CLASS
  1
XRECORD
  2
AcDbXrecord
  3
AutoCAD 2000
 90
    32768
280
     0
281
     0
  0
CLASS
  1
LONG_TRANSACTION
  2
AcDbLongTransaction
  3
AutoCAD 2000
 90
    32768
280
     0
281
     0
  0
CLASS
  1
LWPOLYLINE
  2
AcDbPolyline
  3
AutoCAD 2000
 90
    32768
280
     0
281
     1
  0
CLASS
  1
HATCH
  2
AcDbHatch
  3
AutoCAD 2000
 90
    32768
280
     0
281
     1
  0
CLASS
  1
XRECORD
  2
AcDbXrecord
  3
AutoCAD 2000
 90
    32768
280
     0
281
     0
  0
ENDSEC
  0
SECTION
  2
TABLES
  0
TABLE
  2
VPORT
  5
7
330
0
100
AcDbSymbolTable
 70
     2
  0
VPORT
  5
21CF
330
7
100
AcDbSymbolTableRecord
100
AcDbViewportTableRecord
  2
*ACTIVE
 70
     0
 10
0.0
 20
0.0
 11
1.0
 21
1.0
 12
228.3534136753863
 22
297.000001383014
 13
0.0
 23
0.0
 14
1.0
 24
1.0
 15
0.0
 25
0.0
 16
0.0
 26
0.0
 36
1.0
 17
0.0
 27
0.0
 37
0.0
 40
600.6489033602149
 41
1.780442804428044
 42
50.0
 43
0.0
 44
0.0
 50
0.0
 51
0.0
 71
     0
 72
   100
 73
     1
 74
     1
 75
     0
 76
     0
 77
     0
 78
     0
  0
ENDTAB
  0
TABLE
  2
LTYPE
  5
4
330
0
100
AcDbSymbolTable
 70
     3
  0
LTYPE
  5
11
330
4
100
AcDbSymbolTableRecord
100
AcDbLinetypeTableRecord
  2
BYBLOCK
 70
     0
  3

 72
    65
 73
     0
 40
0.0
  0
LTYPE
  5
12
330
4
100
AcDbSymbolTableRecord
100
AcDbLinetypeTableRecord
  2
BYLAYER
 70
     0
  3

 72
    65
 73
     0
 40
0.0
  0
LTYPE
  5
13
330
4
100
AcDbSymbolTableRecord
100
AcDbLinetypeTableRecord
  2
CONTINUOUS
 70
     0
  3
Solid line
 72
    65
 73
     0
 40
0.0
  0
LTYPE
  5
12D6
330
4
100
AcDbSymbolTableRecord
100
AcDbLinetypeTableRecord
  2
CENTER2
 70
     0
  3
Center (.5x) ___ _ ___ _ ___ _ ___ _ ___ _ ___
 72
    65
 73
     4
 40
28.57499999999999
 49
19.05
 74
     0
 49
-3.174999999999998
 74
     0
 49
3.174999999999998
 74
     0
 49
-3.174999999999998
 74
     0
  0
LTYPE
  5
2047
330
4
100
AcDbSymbolTableRecord
100
AcDbLinetypeTableRecord
  2
PHANTOM2
 70
     0
  3
Phantom (.5x) ___ _ _ ___ _ _ ___ _ _ ___ _ _
 72
    65
 73
     6
 40
31.75
 49
15.875
 74
     0
 49
-3.174999999999998
 74
     0
 49
3.174999999999998
 74
     0
 49
-3.174999999999998
 74
     0
 49
3.174999999999998
 74
     0
 49
-3.174999999999998
 74
     0
  0
ENDTAB
  0
TABLE
  2
LAYER
  5
2
102
{ACAD_XDICTIONARY
360
20D2
102
}
330
0
100
AcDbSymbolTable
 70
    12
  0
LAYER
  5
14
330
2
100
AcDbSymbolTableRecord
100
AcDbLayerTableRecord
  2
0
 70
     0
 62
     7
  6
CONTINUOUS
  0
LAYER
  5
8C8
330
2
100
AcDbSymbolTableRecord
100
AcDbLayerTableRecord
  2
DEFPOINTS
 70
     0
 62
     7
  6
CONTINUOUS
  0
LAYER
  5
12D9
330
2
100
AcDbSymbolTableRecord
100
AcDbLayerTableRecord
  2
03
 70
     0
 62
     3
  6
CONTINUOUS
  0
LAYER
  5
12DA
330
2
100
AcDbSymbolTableRecord
100
AcDbLayerTableRecord
  2
04
 70
     0
 62
     4
  6
CONTINUOUS
  0
LAYER
  5
12DB
330
2
100
AcDbSymbolTableRecord
100
AcDbLayerTableRecord
  2
06
 70
     0
 62
     6
  6
CONTINUOUS
  0
LAYER
  5
12DC
330
2
100
AcDbSymbolTableRecord
100
AcDbLayerTableRecord
  2
CHUSIN
 70
     0
 62
     6
  6
CENTER2
  0
LAYER
  5
12DD
330
2
100
AcDbSymbolTableRecord
100
AcDbLayerTableRecord
  2
HIKIDASI
 70
     0
 62
     6
  6
CONTINUOUS
  0
LAYER
  5
12DF
330
2
100
AcDbSymbolTableRecord
100
AcDbLayerTableRecord
  2
MOJI
 70
     0
 62
     3
  6
CONTINUOUS
  0
LAYER
  5
12E1
330
2
100
AcDbSymbolTableRecord
100
AcDbLayerTableRecord
  2
SUNPOU
 70
     0
 62
     6
  6
CONTINUOUS
  0
LAYER
  5
12E2
330
2
100
AcDbSymbolTableRecord
100
AcDbLayerTableRecord
  2
SAISEN
 70
     0
 62
     3
  6
CONTINUOUS
  0
LAYER
  5
2048
330
2
100
AcDbSymbolTableRecord
100
AcDbLayerTableRecord
  2
SOUZOU
 70
     0
 62
     6
  6
PHANTOM2
  0
LAYER
  5
205F
330
2
100
AcDbSymbolTableRecord
100
AcDbLayerTableRecord
  2
02
 70
     0
 62
     2
  6
CONTINUOUS
  0
ENDTAB
  0
TABLE
  2
STYLE
  5
3
330
0
100
AcDbSymbolTable
 70
     4
  0
STYLE
  5
17
330
3
100
AcDbSymbolTableRecord
100
AcDbTextStyleTableRecord
  2
STANDARD
 70
     0
 40
0.0
 41
0.8
 50
0.0
 71
     0
 42
6.0
  3
txt.shx
  4
bigfont.shx
  0
STYLE
  5
12ED
330
3
100
AcDbSymbolTableRecord
100
AcDbTextStyleTableRecord
  2
SUNPOU
 70
     0
 40
0.0
 41
0.8
 50
0.0
 71
     0
 42
3.5
  3
txt.shx
  4
extfont.shx
  0
STYLE
  5
12F4
330
3
100
AcDbSymbolTableRecord
100
AcDbTextStyleTableRecord
  2
0_8
 70
     0
 40
0.0
 41
0.8
 50
0.0
 71
     0
 42
6.0
  3
txt.shx
  4
extfont.shx
  0
STYLE
  5
20D0
330
3
100
AcDbSymbolTableRecord
100
AcDbTextStyleTableRecord
  2
0_80
 70
     0
 40
0.0
 41
0.8
 50
0.0
 71
     0
 42
16.8
  3
txt.shx
  4
extfont.shx
  0
ENDTAB
  0
TABLE
  2
VIEW
  5
5
330
0
100
AcDbSymbolTable
 70
     1
  0
VIEW
  5
3A
330
5
100
AcDbSymbolTableRecord
100
AcDbViewTableRecord
  2
QQQQ
 70
     0
 40
682.2269999999997
 10
-5.525000000000002
 20
-0.3000000000000114
 41
462.93975
 11
0.0
 21
0.0
 31
1.0
 12
100.0
 22
100.0
 32
0.0
 42
50.0
 43
0.0
 44
0.0
 50
0.0
 71
     0
  0
ENDTAB
  0
TABLE
  2
UCS
  5
6
330
0
100
AcDbSymbolTable
 70
     0
  0
ENDTAB
  0
TABLE
  2
APPID
  5
8
330
0
100
AcDbSymbolTable
 70
     3
  0
APPID
  5
16
330
8
100
AcDbSymbolTableRecord
100
AcDbRegAppTableRecord
  2
ACAD
 70
     0
  0
APPID
  5
1301
330
8
100
AcDbSymbolTableRecord
100
AcDbRegAppTableRecord
  2
DCO15
 70
     0
  0
APPID
  5
20A2
330
8
100
AcDbSymbolTableRecord
100
AcDbRegAppTableRecord
  2
CONTENTBLOCKICON
 70
     0
  0
ENDTAB
  0
TABLE
  2
DIMSTYLE
  5
9
330
0
100
AcDbSymbolTable
 70
     3
  0
DIMSTYLE
105
12EE
102
{ACAD_REACTORS
330
131A
330
1329
330
1336
330
1343
330
136A
330
1379
330
1386
330
13B9
330
13C6
330
13D5
330
13F7
330
142D
330
143C
330
1456
330
1463
330
1472
330
147F
330
148C
330
1499
330
1350
330
1404
330
1411
330
1420
330
135D
330
14D7
330
14E4
330
14CA
330
14F1
330
1449
102
}
330
9
100
AcDbSymbolTableRecord
100
AcDbDimStyleTableRecord
  2
SUNPOU_2
 70
     0
  3

  4

  5
OPEN30
  6

  7

 40
2.0
 41
2.5
 42
1.5
 43
0.0
 44
1.0
 45
0.0
 46
0.0
 47
0.0
 48
0.0
140
2.5
141
0.0
142
0.0
143
25.4
144
1.0
145
0.0
146
1.0
147
1.0
 71
     0
 72
     0
 73
     0
 74
     0
 75
     0
 76
     0
 77
     1
 78
     8
170
     0
171
     2
172
     1
173
     0
174
     1
175
     0
176
   256
177
   256
178
   256
270
     2
271
     1
272
     1
273
     2
274
     2
340
12ED
275
     0
280
     0
281
     0
282
     0
283
     1
284
     0
285
     0
286
     0
287
     3
288
     0
  0
DIMSTYLE
105
1A25
102
{ACAD_REACTORS
330
17E4
330
1523
330
1514
330
1532
330
1541
330
17CE
102
}
330
9
100
AcDbSymbolTableRecord
100
AcDbDimStyleTableRecord
  2
SUNPOU_2_10
 70
     0
  3

  4

  5
OPEN30
  6

  7

 40
2.0
 41
2.5
 42
1.5
 43
0.0
 44
1.0
 45
0.0
 46
0.0
 47
0.0
 48
0.0
140
2.5
141
0.0
142
0.0
143
25.4
144
10.0
145
0.0
146
1.0
147
1.0
 71
     0
 72
     0
 73
     0
 74
     0
 75
     0
 76
     0
 77
     1
 78
     8
170
     0
171
     2
172
     1
173
     0
174
     1
175
     0
176
   256
177
   256
178
   256
270
     2
271
     1
272
     1
273
     2
274
     2
340
12ED
275
     0
280
     0
281
     0
282
     0
283
     1
284
     0
285
     0
286
     0
287
     3
288
     0
  0
DIMSTYLE
105
1A7D
330
9
100
AcDbSymbolTableRecord
100
AcDbDimStyleTableRecord
  2
STANDARD
 70
     0
  3

  4

  5

  6

  7

 40
1.0
 41
0.18
 42
0.0625
 43
0.38
 44
0.18
 45
0.0
 46
0.0
 47
0.0
 48
0.0
140
0.18
141
0.09
142
0.0
143
25.4
144
1.0
145
0.0
146
1.0
147
0.09
 71
     0
 72
     0
 73
     1
 74
     1
 75
     0
 76
     0
 77
     0
 78
     0
170
     0
171
     2
172
     0
173
     0
174
     0
175
     0
176
     0
177
     0
178
     0
270
     2
271
     4
272
     4
273
     2
274
     2
340
17
275
     0
280
     0
281
     0
282
     0
283
     1
284
     0
285
     0
286
     0
287
     3
288
     0
  0
ENDTAB
  0
TABLE
  2
BLOCK_RECORD
  5
1
330
0
100
AcDbSymbolTable
 70
    36
  0
BLOCK_RECORD
  5
A
102
{ACAD_XDICTIONARY
360
209E
102
}
330
1
100
AcDbSymbolTableRecord
100
AcDbBlockTableRecord
  2
*MODEL_SPACE
  0
BLOCK_RECORD
  5
B
102
{ACAD_XDICTIONARY
360
20A0
102
}
330
1
100
AcDbSymbolTableRecord
100
AcDbBlockTableRecord
  2
*PAPER_SPACE
  0
BLOCK_RECORD
  5
12E7
330
1
100
AcDbSymbolTableRecord
100
AcDbBlockTableRecord
  2
_OPEN30
1001
CONTENTBLOCKICON
1071
        0
1004
2800000020000000200000000100080000000000000400000000000000000000000000000000000000000000000080000080000000808000800000008000800080800000C0C0C000C0DCC000F0CAA6000020400000206000002080000020A0000020C0000020E00000400000004020000040400000406000004080000040A0
1004
000040C0000040E00000600000006020000060400000606000006080000060A0000060C0000060E00000800000008020000080400000806000008080000080A0000080C0000080E00000A0000000A0200000A0400000A0600000A0800000A0A00000A0C00000A0E00000C0000000C0200000C0400000C0600000C0800000C0
1004
A00000C0C00000C0E00000E0000000E0200000E0400000E0600000E0800000E0A00000E0C00000E0E00040000000400020004000400040006000400080004000A0004000C0004000E00040200000402020004020400040206000402080004020A0004020C0004020E000404000004040200040404000404060004040800040
1004
40A0004040C0004040E00040600000406020004060400040606000406080004060A0004060C0004060E00040800000408020004080400040806000408080004080A0004080C0004080E00040A0000040A0200040A0400040A0600040A0800040A0A00040A0C00040A0E00040C0000040C0200040C0400040C0600040C08000
1004
40C0A00040C0C00040C0E00040E0000040E0200040E0400040E0600040E0800040E0A00040E0C00040E0E00080000000800020008000400080006000800080008000A0008000C0008000E00080200000802020008020400080206000802080008020A0008020C0008020E00080400000804020008040400080406000804080
1004
008040A0008040C0008040E00080600000806020008060400080606000806080008060A0008060C0008060E00080800000808020008080400080806000808080008080A0008080C0008080E00080A0000080A0200080A0400080A0600080A0800080A0A00080A0C00080A0E00080C0000080C0200080C0400080C0600080C0
1004
800080C0A00080C0C00080C0E00080E0000080E0200080E0400080E0600080E0800080E0A00080E0C00080E0E000C0000000C0002000C0004000C0006000C0008000C000A000C000C000C000E000C0200000C0202000C0204000C0206000C0208000C020A000C020C000C020E000C0400000C0402000C0404000C0406000C0
1004
408000C040A000C040C000C040E000C0600000C0602000C0604000C0606000C0608000C060A000C060C000C060E000C0800000C0802000C0804000C0806000C0808000C080A000C080C000C080E000C0A00000C0A02000C0A04000C0A06000C0A08000C0A0A000C0A0C000C0A0E000C0C00000C0C02000C0C04000C0C06000
1004
C0C08000C0C0A000F0FBFF00A4A0A000808080000000FF0000FF000000FFFF00FF000000FF00FF00FFFF0000FFFFFF0000000000000000000000000000000000000000000000000000000000000000000000000000000000000000000000000000000000000000000000000000000000000000000000000000000000000000
1004
00000000000000000000000000000000000000000000000000000000000000000000000000000000000000000000000000000000000000000000000000000000000000000000000000000000000000000000000000000000000000000000000000000000000000000000000000000000000000000000000000000000000000
1004
000000000000000000000000000000000000000000000000000000000000000000000000000000000000000000000000000000FFFF0000000000000000000000000000000000000000000000000000000000000000FFFFFFFF0000000000000000000000000000000000000000000000000000000000000000FFFFFFFF0000
1004
000000000000000000000000000000000000000000000000000000000000FFFFFF0000000000000000000000000000000000000000000000000000000000000000FFFFFFFF0000000000000000000000000000000000000000000000000000000000000000FFFFFF0000000000000000000000000000000000000000000000
1004
000000000000000000FFFFFFFF0000000000000000000000000000000000000000000000000000000000000000FFFFFFFF00000000FFFFFFFFFFFFFFFFFFFFFFFFFFFFFFFFFFFFFFFFFFFFFFFFFFFFFFFFFFFF00000000000000000000000000000000000000000000000000FFFFFFFF000000000000000000000000000000
1004
000000000000000000FFFFFFFF000000000000000000000000000000000000000000000000FFFFFFFF000000000000000000000000000000000000000000000000FFFFFFFF000000000000000000000000000000000000000000000000FFFFFFFF000000000000000000000000000000000000000000000000FFFFFFFF0000
1004
0000000000000000000000000000000000000000000000FFFFFF0000000000000000000000000000000000000000000000000000000000000000000000000000000000000000000000000000000000000000000000000000000000000000000000000000000000000000000000000000000000000000000000000000000000
1004
00000000000000000000000000000000000000000000000000000000000000000000000000000000000000000000000000000000000000000000000000000000000000000000000000000000000000000000000000000000000000000000000000000000000000000000000000000000000000000000000000000000000000
1004
0000000000000000000000000000000000000000000000000000000000000000000000000000000000000000000000000000000000000000
  0
BLOCK_RECORD
  5
131B
330
1
100
AcDbSymbolTableRecord
100
AcDbBlockTableRecord
  2
*D1
  0
BLOCK_RECORD
  5
132A
330
1
100
AcDbSymbolTableRecord
100
AcDbBlockTableRecord
  2
*D2
  0
BLOCK_RECORD
  5
1337
330
1
100
AcDbSymbolTableRecord
100
AcDbBlockTableRecord
  2
*D3
  0
BLOCK_RECORD
  5
1344
330
1
100
AcDbSymbolTableRecord
100
AcDbBlockTableRecord
  2
*D4
  0
BLOCK_RECORD
  5
1351
330
1
100
AcDbSymbolTableRecord
100
AcDbBlockTableRecord
  2
*D5
  0
BLOCK_RECORD
  5
135E
330
1
100
AcDbSymbolTableRecord
100
AcDbBlockTableRecord
  2
*D6
  0
BLOCK_RECORD
  5
136B
330
1
100
AcDbSymbolTableRecord
100
AcDbBlockTableRecord
  2
*D7
  0
BLOCK_RECORD
  5
137A
330
1
100
AcDbSymbolTableRecord
100
AcDbBlockTableRecord
  2
*D8
  0
BLOCK_RECORD
  5
1387
330
1
100
AcDbSymbolTableRecord
100
AcDbBlockTableRecord
  2
*D9
  0
BLOCK_RECORD
  5
13BA
330
1
100
AcDbSymbolTableRecord
100
AcDbBlockTableRecord
  2
*D10
  0
BLOCK_RECORD
  5
13C7
330
1
100
AcDbSymbolTableRecord
100
AcDbBlockTableRecord
  2
*D11
  0
BLOCK_RECORD
  5
13D6
330
1
100
AcDbSymbolTableRecord
100
AcDbBlockTableRecord
  2
*D12
  0
BLOCK_RECORD
  5
13F8
330
1
100
AcDbSymbolTableRecord
100
AcDbBlockTableRecord
  2
*D13
  0
BLOCK_RECORD
  5
1405
330
1
100
AcDbSymbolTableRecord
100
AcDbBlockTableRecord
  2
*D14
  0
BLOCK_RECORD
  5
1412
330
1
100
AcDbSymbolTableRecord
100
AcDbBlockTableRecord
  2
*D15
  0
BLOCK_RECORD
  5
1421
330
1
100
AcDbSymbolTableRecord
100
AcDbBlockTableRecord
  2
*D16
  0
BLOCK_RECORD
  5
142E
330
1
100
AcDbSymbolTableRecord
100
AcDbBlockTableRecord
  2
*D17
  0
BLOCK_RECORD
  5
143D
330
1
100
AcDbSymbolTableRecord
100
AcDbBlockTableRecord
  2
*D18
  0
BLOCK_RECORD
  5
144A
330
1
100
AcDbSymbolTableRecord
100
AcDbBlockTableRecord
  2
*D19
  0
BLOCK_RECORD
  5
1457
330
1
100
AcDbSymbolTableRecord
100
AcDbBlockTableRecord
  2
*D20
  0
BLOCK_RECORD
  5
1464
330
1
100
AcDbSymbolTableRecord
100
AcDbBlockTableRecord
  2
*D21
  0
BLOCK_RECORD
  5
1473
330
1
100
AcDbSymbolTableRecord
100
AcDbBlockTableRecord
  2
*D22
  0
BLOCK_RECORD
  5
1480
330
1
100
AcDbSymbolTableRecord
100
AcDbBlockTableRecord
  2
*D23
  0
BLOCK_RECORD
  5
148D
330
1
100
AcDbSymbolTableRecord
100
AcDbBlockTableRecord
  2
*D24
  0
BLOCK_RECORD
  5
149A
330
1
100
AcDbSymbolTableRecord
100
AcDbBlockTableRecord
  2
*D25
  0
BLOCK_RECORD
  5
14CB
330
1
100
AcDbSymbolTableRecord
100
AcDbBlockTableRecord
  2
*D26
  0
BLOCK_RECORD
  5
14D8
330
1
100
AcDbSymbolTableRecord
100
AcDbBlockTableRecord
  2
*D27
  0
BLOCK_RECORD
  5
14E5
330
1
100
AcDbSymbolTableRecord
100
AcDbBlockTableRecord
  2
*D28
  0
BLOCK_RECORD
  5
14F2
330
1
100
AcDbSymbolTableRecord
100
AcDbBlockTableRecord
  2
*D29
  0
BLOCK_RECORD
  5
1515
330
1
100
AcDbSymbolTableRecord
100
AcDbBlockTableRecord
  2
*D30
  0
BLOCK_RECORD
  5
1524
330
1
100
AcDbSymbolTableRecord
100
AcDbBlockTableRecord
  2
*D31
  0
BLOCK_RECORD
  5
1533
330
1
100
AcDbSymbolTableRecord
100
AcDbBlockTableRecord
  2
*D32
  0
BLOCK_RECORD
  5
1542
330
1
100
AcDbSymbolTableRecord
100
AcDbBlockTableRecord
  2
*D33
  0
BLOCK_RECORD
  5
17CF
330
1
100
AcDbSymbolTableRecord
100
AcDbBlockTableRecord
  2
*D34
  0
BLOCK_RECORD
  5
17E5
330
1
100
AcDbSymbolTableRecord
100
AcDbBlockTableRecord
  2
*D35
  0
ENDTAB
  0
ENDSEC
  0
SECTION
  2
BLOCKS
  0
BLOCK
  5
D
330
A
100
AcDbEntity
  8
0
100
AcDbBlockBegin
  2
*MODEL_SPACE
 70
     0
 10
0.0
 20
0.0
 30
0.0
  3
*MODEL_SPACE
  1

  0
ENDBLK
  5
E
330
A
100
AcDbEntity
  8
0
100
AcDbBlockEnd
  0
BLOCK
  5
F
330
B
100
AcDbEntity
 67
     1
  8
0
100
AcDbBlockBegin
  2
*PAPER_SPACE
 70
     0
 10
0.0
 20
0.0
 30
0.0
  3
*PAPER_SPACE
  1

  0
ENDBLK
  5
10
330
B
100
AcDbEntity
 67
     1
  8
0
100
AcDbBlockEnd
  0
BLOCK
  5
12E8
330
12E7
100
AcDbEntity
  8
0
100
AcDbBlockBegin
  2
_OPEN30
 70
     0
 10
0.0
 20
0.0
 30
0.0
  3
_OPEN30
  1

  0
LINE
  5
12E9
330
12E7
100
AcDbEntity
  8
0
  6
BYBLOCK
 62
     0
100
AcDbLine
 10
-1.0
 20
0.26794919
 30
0.0
 11
0.0
 21
0.0
 31
0.0
  0
LINE
  5
12EA
330
12E7
100
AcDbEntity
  8
0
  6
BYBLOCK
 62
     0
100
AcDbLine
 10
0.0
 20
0.0
 30
0.0
 11
-1.0
 21
-0.26794919
 31
0.0
  0
LINE
  5
12EB
330
12E7
100
AcDbEntity
  8
0
  6
BYBLOCK
 62
     0
100
AcDbLine
 10
0.0
 20
0.0
 30
0.0
 11
-1.0
 21
0.0
 31
0.0
  0
ENDBLK
  5
12EC
330
12E7
100
AcDbEntity
  8
0
100
AcDbBlockEnd
  0
BLOCK
  5
1327
330
131B
100
AcDbEntity
  8
0
100
AcDbBlockBegin
  2
*D1
 70
     1
 10
0.0
 20
0.0
 30
0.0
  3
*D1
  1

  0
LINE
  5
1AF7
330
131B
100
AcDbEntity
  8
SUNPOU
100
AcDbLine
 10
56.01442307692189
 20
540.9500141032776
 30
0.0
 11
43.49843260188094
 21
540.9500141032776
 31
0.0
  0
LINE
  5
1AF8
330
131B
100
AcDbEntity
  8
SUNPOU
100
AcDbLine
 10
55.01442307692155
 20
543.9500141032779
 30
0.0
 11
43.49843260188094
 21
543.9500141032779
 31
0.0
  0
LINE
  5
1AF9
330
131B
100
AcDbEntity
  8
SUNPOU
100
AcDbLine
 10
45.49843260188095
 20
535.9500141032778
 30
0.0
 11
45.49843260188095
 21
530.9500141032779
 31
0.0
  0
LINE
  5
1AFA
330
131B
100
AcDbEntity
  8
SUNPOU
100
AcDbLine
 10
45.49843260188095
 20
548.9500141032777
 30
0.0
 11
45.49843260188095
 21
553.9500141032779
 31
0.0
  0
MTEXT
  5
1AFB
330
131B
100
AcDbEntity
  8
SUNPOU
100
AcDbMText
 10
40.99843260188086
 20
552.0510957644378
 30
0.0
 40
5.0
 41
0.0
 71
     5
 72
     1
  1
\A1;3
  7
SUNPOU
 11
0.0000000000000001
 21
1.0
 31
0.0
1001
ACAD
1000
MTEXTBEGIN
1070
    73
1070
     1
1070
    44
1040
1.0
1070
    74
1070
     0
1000
MTEXTEND
1000
MTEXTBEGIN
1070
    73
1070
     1
1070
    44
1040
1.0
1070
    74
1070
     0
1000
MTEXTEND
  0
LINE
  5
1AFC
330
131B
100
AcDbEntity
  8
SUNPOU
100
AcDbLine
 10
45.49843260188095
 20
540.9500141032776
 30
0.0
 11
45.49843260188095
 21
543.9500141032779
 31
0.0
  0
INSERT
  5
1AFD
330
131B
100
AcDbEntity
  8
SUNPOU
100
AcDbBlockReference
  2
_OPEN30
 10
45.49843260188095
 20
540.9500141032776
 30
0.0
 41
5.0
 42
5.0
 43
5.0
 50
90.0
  0
INSERT
  5
1AFE
330
131B
100
AcDbEntity
  8
SUNPOU
100
AcDbBlockReference
  2
_OPEN30
 10
45.49843260188095
 20
543.9500141032779
 30
0.0
 41
5.0
 42
5.0
 43
5.0
 50
270.0
  0
POINT
  5
1AFF
330
131B
100
AcDbEntity
  8
DEFPOINTS
 62
     0
100
AcDbPoint
 10
59.01442307692189
 20
540.9500141032776
 30
0.0
  0
POINT
  5
1B00
330
131B
100
AcDbEntity
  8
DEFPOINTS
 62
     0
100
AcDbPoint
 10
58.01442307692155
 20
543.9500141032779
 30
0.0
  0
POINT
  5
1B01
330
131B
100
AcDbEntity
  8
DEFPOINTS
 62
     0
100
AcDbPoint
 10
45.49843260188095
 20
543.9500141032779
 30
0.0
  0
ENDBLK
  5
1328
330
131B
100
AcDbEntity
  8
0
100
AcDbBlockEnd
  0
BLOCK
  5
1334
330
132A
100
AcDbEntity
  8
0
100
AcDbBlockBegin
  2
*D2
 70
     1
 10
0.0
 20
0.0
 30
0.0
  3
*D2
  1

  0
LINE
  5
169A
330
132A
100
AcDbEntity
  8
SUNPOU
100
AcDbLine
 10
92.01442307692314
 20
436.6998268243214
 30
0.0
 11
102.6174387553697
 21
436.6998268243214
 31
0.0
  0
LINE
  5
169B
330
132A
100
AcDbEntity
  8
SUNPOU
100
AcDbLine
 10
92.01442307692319
 20
461.6998268243214
 30
0.0
 11
102.6174387553697
 21
461.6998268243214
 31
0.0
  0
LINE
  5
169C
330
132A
100
AcDbEntity
  8
SUNPOU
100
AcDbLine
 10
100.6174387553697
 20
441.6998268243215
 30
0.0
 11
100.6174387553697
 21
456.6998268243215
 31
0.0
  0
INSERT
  5
169D
330
132A
100
AcDbEntity
  8
SUNPOU
100
AcDbBlockReference
  2
_OPEN30
 10
100.6174387553697
 20
436.6998268243214
 30
0.0
 41
5.0
 42
5.0
 43
5.0
 50
270.0
  0
INSERT
  5
169E
330
132A
100
AcDbEntity
  8
SUNPOU
100
AcDbBlockReference
  2
_OPEN30
 10
100.6174387553697
 20
461.6998268243214
 30
0.0
 41
5.0
 42
5.0
 43
5.0
 50
90.0
  0
MTEXT
  5
169F
330
132A
100
AcDbEntity
  8
SUNPOU
100
AcDbMText
 10
96.11743875536976
 20
449.1998268243214
 30
0.0
 40
5.0
 41
0.0
 71
     5
 72
     1
  1
\A1;25
  7
SUNPOU
 11
0.0000000000000001
 21
1.0
 31
0.0
1001
ACAD
1000
MTEXTBEGIN
1070
    73
1070
     1
1070
    44
1040
1.0
1070
    74
1070
     0
1000
MTEXTEND
1000
MTEXTBEGIN
1070
    73
1070
     1
1070
    44
1040
1.0
1070
    74
1070
     0
1000
MTEXTEND
  0
POINT
  5
16A0
330
132A
100
AcDbEntity
  8
DEFPOINTS
 62
     0
100
AcDbPoint
 10
89.01442307692311
 20
436.6998268243214
 30
0.0
  0
POINT
  5
16A1
330
132A
100
AcDbEntity
  8
DEFPOINTS
 62
     0
100
AcDbPoint
 10
89.01442307692319
 20
461.6998268243214
 30
0.0
  0
POINT
  5
16A2
330
132A
100
AcDbEntity
  8
DEFPOINTS
 62
     0
100
AcDbPoint
 10
100.6174387553697
 20
461.6998268243214
 30
0.0
  0
ENDBLK
  5
1335
330
132A
100
AcDbEntity
  8
0
100
AcDbBlockEnd
  0
BLOCK
  5
1341
330
1337
100
AcDbEntity
  8
0
100
AcDbBlockBegin
  2
*D3
 70
     1
 10
0.0
 20
0.0
 30
0.0
  3
*D3
  1

  0
LINE
  5
190D
330
1337
100
AcDbEntity
  8
SUNPOU
100
AcDbLine
 10
57.01442307692311
 20
433.6998268243215
 30
0.0
 11
57.01442307692311
 21
424.6998268243215
 31
0.0
  0
LINE
  5
190E
330
1337
100
AcDbEntity
  8
SUNPOU
100
AcDbLine
 10
89.01442307692311
 20
433.6998268243212
 30
0.0
 11
89.01442307692311
 21
424.6998268243215
 31
0.0
  0
LINE
  5
190F
330
1337
100
AcDbEntity
  8
SUNPOU
100
AcDbLine
 10
62.01442307692311
 20
426.6998268243215
 30
0.0
 11
84.01442307692311
 21
426.6998268243215
 31
0.0
  0
MTEXT
  5
1910
330
1337
100
AcDbEntity
  8
SUNPOU
100
AcDbMText
 10
73.01442307692312
 20
422.1998268243215
 30
0.0
 40
5.0
 41
0.0
 71
     5
 72
     1
  1
\A1;32
  7
SUNPOU
 11
-1.0
 21
0.0000000000000001
 31
0.0
1001
ACAD
1000
MTEXTBEGIN
1070
    73
1070
     1
1070
    44
1040
1.0
1070
    74
1070
     0
1000
MTEXTEND
1000
MTEXTBEGIN
1070
    73
1070
     1
1070
    44
1040
1.0
1070
    74
1070
     0
1000
MTEXTEND
  0
INSERT
  5
1911
330
1337
100
AcDbEntity
  8
SUNPOU
100
AcDbBlockReference
  2
_OPEN30
 10
57.01442307692311
 20
426.6998268243215
 30
0.0
 41
5.0
 42
5.0
 43
5.0
 50
180.0
  0
INSERT
  5
1912
330
1337
100
AcDbEntity
  8
SUNPOU
100
AcDbBlockReference
  2
_OPEN30
 10
89.01442307692311
 20
426.6998268243215
 30
0.0
 41
5.0
 42
5.0
 43
5.0
  0
POINT
  5
1913
330
1337
100
AcDbEntity
  8
DEFPOINTS
 62
     0
100
AcDbPoint
 10
57.01442307692311
 20
436.6998268243214
 30
0.0
  0
POINT
  5
1914
330
1337
100
AcDbEntity
  8
DEFPOINTS
 62
     0
100
AcDbPoint
 10
89.01442307692311
 20
436.6998268243214
 30
0.0
  0
POINT
  5
1915
330
1337
100
AcDbEntity
  8
DEFPOINTS
 62
     0
100
AcDbPoint
 10
89.01442307692311
 20
426.6998268243215
 30
0.0
  0
ENDBLK
  5
1342
330
1337
100
AcDbEntity
  8
0
100
AcDbBlockEnd
  0
BLOCK
  5
134E
330
1344
100
AcDbEntity
  8
0
100
AcDbBlockBegin
  2
*D4
 70
     1
 10
0.0
 20
0.0
 30
0.0
  3
*D4
  1

  0
LINE
  5
16AC
330
1344
100
AcDbEntity
  8
SUNPOU
100
AcDbLine
 10
172.0144230769229
 20
436.6998268243214
 30
0.0
 11
182.1994659236038
 21
436.6998268243214
 31
0.0
  0
LINE
  5
16AD
330
1344
100
AcDbEntity
  8
SUNPOU
100
AcDbLine
 10
172.0144230769229
 20
461.6998268243214
 30
0.0
 11
182.1994659236039
 21
461.6998268243214
 31
0.0
  0
LINE
  5
16AE
330
1344
100
AcDbEntity
  8
SUNPOU
100
AcDbLine
 10
180.1994659236038
 20
441.6998268243215
 30
0.0
 11
180.1994659236038
 21
456.6998268243215
 31
0.0
  0
INSERT
  5
16AF
330
1344
100
AcDbEntity
  8
SUNPOU
100
AcDbBlockReference
  2
_OPEN30
 10
180.1994659236038
 20
436.6998268243214
 30
0.0
 41
5.0
 42
5.0
 43
5.0
 50
270.0
  0
INSERT
  5
16B0
330
1344
100
AcDbEntity
  8
SUNPOU
100
AcDbBlockReference
  2
_OPEN30
 10
180.1994659236038
 20
461.6998268243214
 30
0.0
 41
5.0
 42
5.0
 43
5.0
 50
90.0
  0
MTEXT
  5
16B1
330
1344
100
AcDbEntity
  8
SUNPOU
100
AcDbMText
 10
175.6994659236038
 20
449.1998268243214
 30
0.0
 40
5.0
 41
0.0
 71
     5
 72
     1
  1
\A1;25
  7
SUNPOU
 11
0.0000000000000001
 21
1.0
 31
0.0
1001
ACAD
1000
MTEXTBEGIN
1070
    73
1070
     1
1070
    44
1040
1.0
1070
    74
1070
     0
1000
MTEXTEND
1000
MTEXTBEGIN
1070
    73
1070
     1
1070
    44
1040
1.0
1070
    74
1070
     0
1000
MTEXTEND
  0
POINT
  5
16B2
330
1344
100
AcDbEntity
  8
DEFPOINTS
 62
     0
100
AcDbPoint
 10
169.014423076923
 20
436.6998268243214
 30
0.0
  0
POINT
  5
16B3
330
1344
100
AcDbEntity
  8
DEFPOINTS
 62
     0
100
AcDbPoint
 10
169.014423076923
 20
461.6998268243214
 30
0.0
  0
POINT
  5
16B4
330
1344
100
AcDbEntity
  8
DEFPOINTS
 62
     0
100
AcDbPoint
 10
180.1994659236038
 20
461.6998268243214
 30
0.0
  0
ENDBLK
  5
134F
330
1344
100
AcDbEntity
  8
0
100
AcDbBlockEnd
  0
BLOCK
  5
135B
330
1351
100
AcDbEntity
  8
0
100
AcDbBlockBegin
  2
*D5
 70
     1
 10
0.0
 20
0.0
 30
0.0
  3
*D5
  1

  0
LINE
  5
1916
330
1351
100
AcDbEntity
  8
SUNPOU
100
AcDbLine
 10
137.014423076923
 20
433.6998268243215
 30
0.0
 11
137.014423076923
 21
424.6998268243215
 31
0.0
  0
LINE
  5
1917
330
1351
100
AcDbEntity
  8
SUNPOU
100
AcDbLine
 10
169.014423076923
 20
433.6998268243215
 30
0.0
 11
169.014423076923
 21
424.6998268243215
 31
0.0
  0
LINE
  5
1918
330
1351
100
AcDbEntity
  8
SUNPOU
100
AcDbLine
 10
142.014423076923
 20
426.6998268243216
 30
0.0
 11
164.014423076923
 21
426.6998268243216
 31
0.0
  0
MTEXT
  5
1919
330
1351
100
AcDbEntity
  8
SUNPOU
100
AcDbMText
 10
153.0144230769231
 20
422.1998268243215
 30
0.0
 40
5.0
 41
0.0
 71
     5
 72
     1
  1
\A1;32
  7
SUNPOU
 11
-1.0
 21
0.0000000000000001
 31
0.0
1001
ACAD
1000
MTEXTBEGIN
1070
    73
1070
     1
1070
    44
1040
1.0
1070
    74
1070
     0
1000
MTEXTEND
1000
MTEXTBEGIN
1070
    73
1070
     1
1070
    44
1040
1.0
1070
    74
1070
     0
1000
MTEXTEND
  0
INSERT
  5
191A
330
1351
100
AcDbEntity
  8
SUNPOU
100
AcDbBlockReference
  2
_OPEN30
 10
137.014423076923
 20
426.6998268243216
 30
0.0
 41
5.0
 42
5.0
 43
5.0
 50
180.0
  0
INSERT
  5
191B
330
1351
100
AcDbEntity
  8
SUNPOU
100
AcDbBlockReference
  2
_OPEN30
 10
169.014423076923
 20
426.6998268243216
 30
0.0
 41
5.0
 42
5.0
 43
5.0
  0
POINT
  5
191C
330
1351
100
AcDbEntity
  8
DEFPOINTS
 62
     0
100
AcDbPoint
 10
137.014423076923
 20
436.6998268243214
 30
0.0
  0
POINT
  5
191D
330
1351
100
AcDbEntity
  8
DEFPOINTS
 62
     0
100
AcDbPoint
 10
169.014423076923
 20
436.6998268243214
 30
0.0
  0
POINT
  5
191E
330
1351
100
AcDbEntity
  8
DEFPOINTS
 62
     0
100
AcDbPoint
 10
169.014423076923
 20
426.6998268243216
 30
0.0
  0
ENDBLK
  5
135C
330
1351
100
AcDbEntity
  8
0
100
AcDbBlockEnd
  0
BLOCK
  5
1368
330
135E
100
AcDbEntity
  8
0
100
AcDbBlockBegin
  2
*D6
 70
     1
 10
0.0
 20
0.0
 30
0.0
  3
*D6
  1

  0
LINE
  5
19DC
330
135E
100
AcDbEntity
  8
SUNPOU
100
AcDbLine
 10
63.76928201109238
 20
339.6695259368883
 30
0.0
 11
63.76928201109238
 21
353.6695259368881
 31
0.0
  0
LINE
  5
19DD
330
135E
100
AcDbEntity
  8
SUNPOU
100
AcDbLine
 10
88.76928201109242
 20
337.1695259368883
 30
0.0
 11
88.76928201109242
 21
353.6695259368881
 31
0.0
  0
LINE
  5
19DE
330
135E
100
AcDbEntity
  8
SUNPOU
100
AcDbLine
 10
68.7692820110924
 20
351.6695259368881
 30
0.0
 11
83.76928201109242
 21
351.6695259368881
 31
0.0
  0
MTEXT
  5
19DF
330
135E
100
AcDbEntity
  8
SUNPOU
100
AcDbMText
 10
76.26928201109237
 20
347.1695259368881
 30
0.0
 40
5.0
 41
0.0
 71
     5
 72
     1
  1
\A1;25
  7
SUNPOU
 11
-1.0
 21
0.0000000000000001
 31
0.0
1001
ACAD
1000
MTEXTBEGIN
1070
    73
1070
     1
1070
    44
1040
1.0
1070
    74
1070
     0
1000
MTEXTEND
1000
MTEXTBEGIN
1070
    73
1070
     1
1070
    44
1040
1.0
1070
    74
1070
     0
1000
MTEXTEND
  0
INSERT
  5
19E0
330
135E
100
AcDbEntity
  8
SUNPOU
100
AcDbBlockReference
  2
_OPEN30
 10
63.76928201109238
 20
351.6695259368881
 30
0.0
 41
5.0
 42
5.0
 43
5.0
 50
180.0
  0
INSERT
  5
19E1
330
135E
100
AcDbEntity
  8
SUNPOU
100
AcDbBlockReference
  2
_OPEN30
 10
88.76928201109242
 20
351.6695259368881
 30
0.0
 41
5.0
 42
5.0
 43
5.0
  0
POINT
  5
19E2
330
135E
100
AcDbEntity
  8
DEFPOINTS
 62
     0
100
AcDbPoint
 10
63.76928201109238
 20
336.6695259368883
 30
0.0
  0
POINT
  5
19E3
330
135E
100
AcDbEntity
  8
DEFPOINTS
 62
     0
100
AcDbPoint
 10
88.76928201109242
 20
334.1695259368883
 30
0.0
  0
POINT
  5
19E4
330
135E
100
AcDbEntity
  8
DEFPOINTS
 62
     0
100
AcDbPoint
 10
88.76928201109242
 20
351.6695259368881
 30
0.0
  0
ENDBLK
  5
1369
330
135E
100
AcDbEntity
  8
0
100
AcDbBlockEnd
  0
BLOCK
  5
1377
330
136B
100
AcDbEntity
  8
0
100
AcDbBlockBegin
  2
*D7
 70
     1
 10
0.0
 20
0.0
 30
0.0
  3
*D7
  1

  0
LINE
  5
16C7
330
136B
100
AcDbEntity
  8
SUNPOU
100
AcDbLine
 10
91.76928201109243
 20
314.1695259368881
 30
0.0
 11
100.7692820110924
 21
314.1695259368881
 31
0.0
  0
LINE
  5
16C8
330
136B
100
AcDbEntity
  8
SUNPOU
100
AcDbLine
 10
91.76928201109243
 20
327.1695259368883
 30
0.0
 11
100.7692820110924
 21
327.1695259368883
 31
0.0
  0
LINE
  5
16C9
330
136B
100
AcDbEntity
  8
SUNPOU
100
AcDbLine
 10
98.76928201109242
 20
309.1695259368882
 30
0.0
 11
98.76928201109242
 21
304.1695259368882
 31
0.0
  0
LINE
  5
16CA
330
136B
100
AcDbEntity
  8
SUNPOU
100
AcDbLine
 10
98.76928201109242
 20
332.1695259368883
 30
0.0
 11
98.76928201109242
 21
337.1695259368883
 31
0.0
  0
MTEXT
  5
16CB
330
136B
100
AcDbEntity
  8
SUNPOU
100
AcDbMText
 10
94.26928201109234
 20
323.9860259192492
 30
0.0
 40
5.0
 41
0.0
 71
     5
 72
     1
  1
\A1;13
  7
SUNPOU
 11
0.0000000000000001
 21
1.0
 31
0.0
1001
ACAD
1000
MTEXTBEGIN
1070
    73
1070
     1
1070
    44
1040
1.0
1070
    74
1070
     0
1000
MTEXTEND
1000
MTEXTBEGIN
1070
    73
1070
     1
1070
    44
1040
1.0
1070
    74
1070
     0
1000
MTEXTEND
  0
LINE
  5
16CC
330
136B
100
AcDbEntity
  8
SUNPOU
100
AcDbLine
 10
98.76928201109242
 20
314.1695259368881
 30
0.0
 11
98.76928201109242
 21
327.1695259368883
 31
0.0
  0
INSERT
  5
16CD
330
136B
100
AcDbEntity
  8
SUNPOU
100
AcDbBlockReference
  2
_OPEN30
 10
98.76928201109242
 20
314.1695259368881
 30
0.0
 41
5.0
 42
5.0
 43
5.0
 50
90.0
  0
INSERT
  5
16CE
330
136B
100
AcDbEntity
  8
SUNPOU
100
AcDbBlockReference
  2
_OPEN30
 10
98.76928201109242
 20
327.1695259368883
 30
0.0
 41
5.0
 42
5.0
 43
5.0
 50
270.0
  0
POINT
  5
16CF
330
136B
100
AcDbEntity
  8
DEFPOINTS
 62
     0
100
AcDbPoint
 10
88.76928201109242
 20
314.1695259368881
 30
0.0
  0
POINT
  5
16D0
330
136B
100
AcDbEntity
  8
DEFPOINTS
 62
     0
100
AcDbPoint
 10
88.76928201109242
 20
327.1695259368883
 30
0.0
  0
POINT
  5
16D1
330
136B
100
AcDbEntity
  8
DEFPOINTS
 62
     0
100
AcDbPoint
 10
98.76928201109242
 20
327.1695259368883
 30
0.0
  0
ENDBLK
  5
1378
330
136B
100
AcDbEntity
  8
0
100
AcDbBlockEnd
  0
BLOCK
  5
1384
330
137A
100
AcDbEntity
  8
0
100
AcDbBlockBegin
  2
*D8
 70
     1
 10
0.0
 20
0.0
 30
0.0
  3
*D8
  1

  0
LINE
  5
16D2
330
137A
100
AcDbEntity
  8
SUNPOU
100
AcDbLine
 10
91.26928201109242
 20
306.6695259368882
 30
0.0
 11
110.7692820110924
 21
306.6695259368882
 31
0.0
  0
LINE
  5
16D3
330
137A
100
AcDbEntity
  8
SUNPOU
100
AcDbLine
 10
91.26928201109242
 20
334.6695259368883
 30
0.0
 11
110.7692820110924
 21
334.6695259368883
 31
0.0
  0
LINE
  5
16D4
330
137A
100
AcDbEntity
  8
SUNPOU
100
AcDbLine
 10
108.7692820110924
 20
311.6695259368883
 30
0.0
 11
108.7692820110924
 21
329.6695259368882
 31
0.0
  0
MTEXT
  5
16D5
330
137A
100
AcDbEntity
  8
SUNPOU
100
AcDbMText
 10
104.2692820110923
 20
324.8552485082903
 30
0.0
 40
5.0
 41
0.0
 71
     5
 72
     1
  1
\A1;28
  7
SUNPOU
 11
0.0000000000000001
 21
1.0
 31
0.0
1001
ACAD
1000
MTEXTBEGIN
1070
    73
1070
     1
1070
    44
1040
1.0
1070
    74
1070
     0
1000
MTEXTEND
1000
MTEXTBEGIN
1070
    73
1070
     1
1070
    44
1040
1.0
1070
    74
1070
     0
1000
MTEXTEND
  0
INSERT
  5
16D6
330
137A
100
AcDbEntity
  8
SUNPOU
100
AcDbBlockReference
  2
_OPEN30
 10
108.7692820110924
 20
306.6695259368882
 30
0.0
 41
5.0
 42
5.0
 43
5.0
 50
270.0
  0
INSERT
  5
16D7
330
137A
100
AcDbEntity
  8
SUNPOU
100
AcDbBlockReference
  2
_OPEN30
 10
108.7692820110924
 20
334.6695259368883
 30
0.0
 41
5.0
 42
5.0
 43
5.0
 50
90.0
  0
POINT
  5
16D8
330
137A
100
AcDbEntity
  8
DEFPOINTS
 62
     0
100
AcDbPoint
 10
88.26928201109241
 20
306.6695259368882
 30
0.0
  0
POINT
  5
16D9
330
137A
100
AcDbEntity
  8
DEFPOINTS
 62
     0
100
AcDbPoint
 10
88.26928201109241
 20
334.6695259368883
 30
0.0
  0
POINT
  5
16DA
330
137A
100
AcDbEntity
  8
DEFPOINTS
 62
     0
100
AcDbPoint
 10
108.7692820110924
 20
334.6695259368883
 30
0.0
  0
ENDBLK
  5
1385
330
137A
100
AcDbEntity
  8
0
100
AcDbBlockEnd
  0
BLOCK
  5
1391
330
1387
100
AcDbEntity
  8
0
100
AcDbBlockBegin
  2
*D9
 70
     1
 10
0.0
 20
0.0
 30
0.0
  3
*D9
  1

  0
LINE
  5
16DB
330
1387
100
AcDbEntity
  8
SUNPOU
100
AcDbLine
 10
117.2389157440615
 20
304.6695259368882
 30
0.0
 11
118.2389157440615
 21
304.6695259368882
 31
0.0
  0
LINE
  5
16DC
330
1387
100
AcDbEntity
  8
SUNPOU
100
AcDbLine
 10
117.2389157440615
 20
336.6695259368883
 30
0.0
 11
118.2389157440615
 21
336.6695259368883
 31
0.0
  0
LINE
  5
16DD
330
1387
100
AcDbEntity
  8
SUNPOU
100
AcDbLine
 10
120.2389157440615
 20
309.6695259368883
 30
0.0
 11
120.2389157440615
 21
331.6695259368882
 31
0.0
  0
MTEXT
  5
16DE
330
1387
100
AcDbEntity
  8
SUNPOU
100
AcDbMText
 10
115.7389157440614
 20
325.7244726857651
 30
0.0
 40
5.0
 41
0.0
 71
     5
 72
     1
  1
\A1;32
  7
SUNPOU
 11
0.0000000000000001
 21
1.0
 31
0.0
1001
ACAD
1000
MTEXTBEGIN
1070
    73
1070
     1
1070
    44
1040
1.0
1070
    74
1070
     0
1000
MTEXTEND
1000
MTEXTBEGIN
1070
    73
1070
     1
1070
    44
1040
1.0
1070
    74
1070
     0
1000
MTEXTEND
  0
INSERT
  5
16DF
330
1387
100
AcDbEntity
  8
SUNPOU
100
AcDbBlockReference
  2
_OPEN30
 10
120.2389157440615
 20
304.6695259368882
 30
0.0
 41
5.0
 42
5.0
 43
5.0
 50
270.0
  0
INSERT
  5
16E0
330
1387
100
AcDbEntity
  8
SUNPOU
100
AcDbBlockReference
  2
_OPEN30
 10
120.2389157440615
 20
336.6695259368883
 30
0.0
 41
5.0
 42
5.0
 43
5.0
 50
90.0
  0
POINT
  5
16E1
330
1387
100
AcDbEntity
  8
DEFPOINTS
 62
     0
100
AcDbPoint
 10
120.2389157440615
 20
304.6695259368882
 30
0.0
  0
POINT
  5
16E2
330
1387
100
AcDbEntity
  8
DEFPOINTS
 62
     0
100
AcDbPoint
 10
120.2389157440615
 20
336.6695259368883
 30
0.0
  0
POINT
  5
16E3
330
1387
100
AcDbEntity
  8
DEFPOINTS
 62
     0
100
AcDbPoint
 10
120.2389157440615
 20
336.6695259368883
 30
0.0
  0
ENDBLK
  5
1392
330
1387
100
AcDbEntity
  8
0
100
AcDbBlockEnd
  0
BLOCK
  5
13C4
330
13BA
100
AcDbEntity
  8
0
100
AcDbBlockBegin
  2
*D10
 70
     1
 10
0.0
 20
0.0
 30
0.0
  3
*D10
  1

  0
LINE
  5
16E4
330
13BA
100
AcDbEntity
  8
SUNPOU
100
AcDbLine
 10
299.0144230769228
 20
347.3525420824552
 30
0.0
 11
309.3087774294668
 21
347.3525420824552
 31
0.0
  0
LINE
  5
16E5
330
13BA
100
AcDbEntity
  8
SUNPOU
100
AcDbLine
 10
299.0144230769228
 20
372.3525420824552
 30
0.0
 11
309.3087774294668
 21
372.3525420824552
 31
0.0
  0
LINE
  5
16E6
330
13BA
100
AcDbEntity
  8
SUNPOU
100
AcDbLine
 10
307.3087774294668
 20
352.3525420824552
 30
0.0
 11
307.3087774294668
 21
367.3525420824552
 31
0.0
  0
INSERT
  5
16E7
330
13BA
100
AcDbEntity
  8
SUNPOU
100
AcDbBlockReference
  2
_OPEN30
 10
307.3087774294668
 20
347.3525420824552
 30
0.0
 41
5.0
 42
5.0
 43
5.0
 50
270.0
  0
INSERT
  5
16E8
330
13BA
100
AcDbEntity
  8
SUNPOU
100
AcDbBlockReference
  2
_OPEN30
 10
307.3087774294668
 20
372.3525420824552
 30
0.0
 41
5.0
 42
5.0
 43
5.0
 50
90.0
  0
MTEXT
  5
16E9
330
13BA
100
AcDbEntity
  8
SUNPOU
100
AcDbMText
 10
302.8087774294669
 20
359.8525420824552
 30
0.0
 40
5.0
 41
0.0
 71
     5
 72
     1
  1
\A1;25
  7
SUNPOU
 11
0.0000000000000001
 21
1.0
 31
0.0
1001
ACAD
1000
MTEXTBEGIN
1070
    73
1070
     1
1070
    44
1040
1.0
1070
    74
1070
     0
1000
MTEXTEND
1000
MTEXTBEGIN
1070
    73
1070
     1
1070
    44
1040
1.0
1070
    74
1070
     0
1000
MTEXTEND
  0
POINT
  5
16EA
330
13BA
100
AcDbEntity
  8
DEFPOINTS
 62
     0
100
AcDbPoint
 10
296.014423076923
 20
347.3525420824552
 30
0.0
  0
POINT
  5
16EB
330
13BA
100
AcDbEntity
  8
DEFPOINTS
 62
     0
100
AcDbPoint
 10
296.014423076923
 20
372.3525420824552
 30
0.0
  0
POINT
  5
16EC
330
13BA
100
AcDbEntity
  8
DEFPOINTS
 62
     0
100
AcDbPoint
 10
307.3087774294668
 20
372.3525420824552
 30
0.0
  0
ENDBLK
  5
13C5
330
13BA
100
AcDbEntity
  8
0
100
AcDbBlockEnd
  0
BLOCK
  5
13D3
330
13C7
100
AcDbEntity
  8
0
100
AcDbBlockBegin
  2
*D11
 70
     1
 10
0.0
 20
0.0
 30
0.0
  3
*D11
  1

  0
LINE
  5
1B0F
330
13C7
100
AcDbEntity
  8
SUNPOU
100
AcDbLine
 10
306.3168994015388
 20
343.3525420824553
 30
0.0
 11
309.3087774294668
 21
343.3525420824553
 31
0.0
  0
LINE
  5
1B10
330
13C7
100
AcDbEntity
  8
SUNPOU
100
AcDbLine
 10
299.0144230769228
 20
347.3525420824552
 30
0.0
 11
309.3087774294668
 21
347.3525420824552
 31
0.0
  0
LINE
  5
1B11
330
13C7
100
AcDbEntity
  8
SUNPOU
100
AcDbLine
 10
307.308777429467
 20
338.3525420824553
 30
0.0
 11
307.308777429467
 21
333.3525420824553
 31
0.0
  0
LINE
  5
1B12
330
13C7
100
AcDbEntity
  8
SUNPOU
100
AcDbLine
 10
307.308777429467
 20
352.3525420824552
 30
0.0
 11
307.308777429467
 21
357.3525420824552
 31
0.0
  0
MTEXT
  5
1B13
330
13C7
100
AcDbEntity
  8
SUNPOU
100
AcDbMText
 10
302.8685716586013
 20
335.8436182985385
 30
0.0
 40
5.0
 41
0.0
 71
     5
 72
     1
  1
\A1;4
  7
SUNPOU
 11
0.0000000000000001
 21
1.0
 31
0.0
1001
ACAD
1000
MTEXTBEGIN
1070
    73
1070
     1
1070
    44
1040
1.0
1070
    74
1070
     0
1000
MTEXTEND
1000
MTEXTBEGIN
1070
    73
1070
     1
1070
    44
1040
1.0
1070
    74
1070
     0
1000
MTEXTEND
  0
LINE
  5
1B14
330
13C7
100
AcDbEntity
  8
SUNPOU
100
AcDbLine
 10
307.308777429467
 20
343.3525420824553
 30
0.0
 11
307.308777429467
 21
347.3525420824552
 31
0.0
  0
INSERT
  5
1B15
330
13C7
100
AcDbEntity
  8
SUNPOU
100
AcDbBlockReference
  2
_OPEN30
 10
307.308777429467
 20
343.3525420824553
 30
0.0
 41
5.0
 42
5.0
 43
5.0
 50
90.0
  0
INSERT
  5
1B16
330
13C7
100
AcDbEntity
  8
SUNPOU
100
AcDbBlockReference
  2
_OPEN30
 10
307.308777429467
 20
347.3525420824552
 30
0.0
 41
5.0
 42
5.0
 43
5.0
 50
270.0
  0
POINT
  5
1B17
330
13C7
100
AcDbEntity
  8
DEFPOINTS
 62
     0
100
AcDbPoint
 10
303.3168994015388
 20
343.3525420824553
 30
0.0
  0
POINT
  5
1B18
330
13C7
100
AcDbEntity
  8
DEFPOINTS
 62
     0
100
AcDbPoint
 10
296.014423076923
 20
347.3525420824552
 30
0.0
  0
POINT
  5
1B19
330
13C7
100
AcDbEntity
  8
DEFPOINTS
 62
     0
100
AcDbPoint
 10
307.308777429467
 20
347.3525420824552
 30
0.0
  0
ENDBLK
  5
13D4
330
13C7
100
AcDbEntity
  8
0
100
AcDbBlockEnd
  0
BLOCK
  5
13E0
330
13D6
100
AcDbEntity
  8
0
100
AcDbBlockBegin
  2
*D12
 70
     1
 10
0.0
 20
0.0
 30
0.0
  3
*D12
  1

  0
LINE
  5
16F8
330
13D6
100
AcDbEntity
  8
SUNPOU
100
AcDbLine
 10
299.0144230769228
 20
347.3525420824552
 30
0.0
 11
318.6346667012098
 21
347.3525420824552
 31
0.0
  0
LINE
  5
16F9
330
13D6
100
AcDbEntity
  8
SUNPOU
100
AcDbLine
 10
299.0144230769231
 20
461.6998268243214
 30
0.0
 11
318.6346667012098
 21
461.6998268243214
 31
0.0
  0
LINE
  5
16FA
330
13D6
100
AcDbEntity
  8
SUNPOU
100
AcDbLine
 10
316.6346667012098
 20
352.3525420824552
 30
0.0
 11
316.6346667012098
 21
456.6998268243215
 31
0.0
  0
INSERT
  5
16FB
330
13D6
100
AcDbEntity
  8
SUNPOU
100
AcDbBlockReference
  2
_OPEN30
 10
316.6346667012098
 20
347.3525420824552
 30
0.0
 41
5.0
 42
5.0
 43
5.0
 50
270.0
  0
INSERT
  5
16FC
330
13D6
100
AcDbEntity
  8
SUNPOU
100
AcDbBlockReference
  2
_OPEN30
 10
316.6346667012098
 20
461.6998268243214
 30
0.0
 41
5.0
 42
5.0
 43
5.0
 50
90.0
  0
MTEXT
  5
16FD
330
13D6
100
AcDbEntity
  8
SUNPOU
100
AcDbMText
 10
312.1346667012098
 20
404.5261844533885
 30
0.0
 40
5.0
 41
0.0
 71
     5
 72
     1
  1
\A1;DW
  7
SUNPOU
 11
0.0000000000000001
 21
1.0
 31
0.0
1001
ACAD
1000
MTEXTBEGIN
1070
    73
1070
     1
1070
    44
1040
1.0
1070
    74
1070
     0
1000
MTEXTEND
1000
MTEXTBEGIN
1070
    73
1070
     1
1070
    44
1040
1.0
1070
    74
1070
     0
1000
MTEXTEND
  0
POINT
  5
16FE
330
13D6
100
AcDbEntity
  8
DEFPOINTS
 62
     0
100
AcDbPoint
 10
296.014423076923
 20
347.3525420824552
 30
0.0
  0
POINT
  5
16FF
330
13D6
100
AcDbEntity
  8
DEFPOINTS
 62
     0
100
AcDbPoint
 10
296.0144230769231
 20
461.6998268243214
 30
0.0
  0
POINT
  5
1700
330
13D6
100
AcDbEntity
  8
DEFPOINTS
 62
     0
100
AcDbPoint
 10
316.6346667012098
 20
461.6998268243214
 30
0.0
  0
ENDBLK
  5
13E1
330
13D6
100
AcDbEntity
  8
0
100
AcDbBlockEnd
  0
BLOCK
  5
1402
330
13F8
100
AcDbEntity
  8
0
100
AcDbBlockBegin
  2
*D13
 70
     1
 10
0.0
 20
0.0
 30
0.0
  3
*D13
  1

  0
LINE
  5
1701
330
13F8
100
AcDbEntity
  8
SUNPOU
100
AcDbLine
 10
299.0144230769231
 20
436.6998268243214
 30
0.0
 11
309.3087774294668
 21
436.6998268243214
 31
0.0
  0
LINE
  5
1702
330
13F8
100
AcDbEntity
  8
SUNPOU
100
AcDbLine
 10
299.0144230769231
 20
461.6998268243214
 30
0.0
 11
309.3087774294668
 21
461.6998268243214
 31
0.0
  0
LINE
  5
1703
330
13F8
100
AcDbEntity
  8
SUNPOU
100
AcDbLine
 10
307.308777429467
 20
441.6998268243215
 30
0.0
 11
307.308777429467
 21
456.6998268243215
 31
0.0
  0
INSERT
  5
1704
330
13F8
100
AcDbEntity
  8
SUNPOU
100
AcDbBlockReference
  2
_OPEN30
 10
307.308777429467
 20
436.6998268243214
 30
0.0
 41
5.0
 42
5.0
 43
5.0
 50
270.0
  0
INSERT
  5
1705
330
13F8
100
AcDbEntity
  8
SUNPOU
100
AcDbBlockReference
  2
_OPEN30
 10
307.308777429467
 20
461.6998268243214
 30
0.0
 41
5.0
 42
5.0
 43
5.0
 50
90.0
  0
MTEXT
  5
1706
330
13F8
100
AcDbEntity
  8
SUNPOU
100
AcDbMText
 10
302.8087774294669
 20
449.1998268243214
 30
0.0
 40
5.0
 41
0.0
 71
     5
 72
     1
  1
\A1;25
  7
SUNPOU
 11
0.0000000000000001
 21
1.0
 31
0.0
1001
ACAD
1000
MTEXTBEGIN
1070
    73
1070
     1
1070
    44
1040
1.0
1070
    74
1070
     0
1000
MTEXTEND
1000
MTEXTBEGIN
1070
    73
1070
     1
1070
    44
1040
1.0
1070
    74
1070
     0
1000
MTEXTEND
  0
POINT
  5
1707
330
13F8
100
AcDbEntity
  8
DEFPOINTS
 62
     0
100
AcDbPoint
 10
296.014423076923
 20
436.6998268243214
 30
0.0
  0
POINT
  5
1708
330
13F8
100
AcDbEntity
  8
DEFPOINTS
 62
     0
100
AcDbPoint
 10
296.0144230769231
 20
461.6998268243214
 30
0.0
  0
POINT
  5
1709
330
13F8
100
AcDbEntity
  8
DEFPOINTS
 62
     0
100
AcDbPoint
 10
307.308777429467
 20
461.6998268243214
 30
0.0
  0
ENDBLK
  5
1403
330
13F8
100
AcDbEntity
  8
0
100
AcDbBlockEnd
  0
BLOCK
  5
140F
330
1405
100
AcDbEntity
  8
0
100
AcDbBlockBegin
  2
*D14
 70
     1
 10
0.0
 20
0.0
 30
0.0
  3
*D14
  1

  0
LINE
  5
1921
330
1405
100
AcDbEntity
  8
SUNPOU
100
AcDbLine
 10
227.0144230769229
 20
433.6998268243215
 30
0.0
 11
227.0144230769229
 21
424.6998268243215
 31
0.0
  0
LINE
  5
1922
330
1405
100
AcDbEntity
  8
SUNPOU
100
AcDbLine
 10
259.0144230769229
 20
433.6998268243215
 30
0.0
 11
259.0144230769229
 21
424.6998268243215
 31
0.0
  0
LINE
  5
1923
330
1405
100
AcDbEntity
  8
SUNPOU
100
AcDbLine
 10
232.0144230769229
 20
426.6998268243216
 30
0.0
 11
254.0144230769231
 21
426.6998268243216
 31
0.0
  0
MTEXT
  5
1924
330
1405
100
AcDbEntity
  8
SUNPOU
100
AcDbMText
 10
243.0144230769231
 20
422.1998268243216
 30
0.0
 40
5.0
 41
0.0
 71
     5
 72
     1
  1
\A1;32
  7
SUNPOU
 11
-1.0
 21
0.0000000000000001
 31
0.0
1001
ACAD
1000
MTEXTBEGIN
1070
    73
1070
     1
1070
    44
1040
1.0
1070
    74
1070
     0
1000
MTEXTEND
1000
MTEXTBEGIN
1070
    73
1070
     1
1070
    44
1040
1.0
1070
    74
1070
     0
1000
MTEXTEND
  0
INSERT
  5
1925
330
1405
100
AcDbEntity
  8
SUNPOU
100
AcDbBlockReference
  2
_OPEN30
 10
227.0144230769229
 20
426.6998268243216
 30
0.0
 41
5.0
 42
5.0
 43
5.0
 50
180.0
  0
INSERT
  5
1926
330
1405
100
AcDbEntity
  8
SUNPOU
100
AcDbBlockReference
  2
_OPEN30
 10
259.0144230769229
 20
426.6998268243216
 30
0.0
 41
5.0
 42
5.0
 43
5.0
  0
POINT
  5
1927
330
1405
100
AcDbEntity
  8
DEFPOINTS
 62
     0
100
AcDbPoint
 10
227.0144230769229
 20
436.6998268243214
 30
0.0
  0
POINT
  5
1928
330
1405
100
AcDbEntity
  8
DEFPOINTS
 62
     0
100
AcDbPoint
 10
259.0144230769229
 20
436.6998268243214
 30
0.0
  0
POINT
  5
1929
330
1405
100
AcDbEntity
  8
DEFPOINTS
 62
     0
100
AcDbPoint
 10
259.0144230769229
 20
426.6998268243216
 30
0.0
  0
ENDBLK
  5
1410
330
1405
100
AcDbEntity
  8
0
100
AcDbBlockEnd
  0
BLOCK
  5
141E
330
1412
100
AcDbEntity
  8
0
100
AcDbBlockBegin
  2
*D15
 70
     1
 10
0.0
 20
0.0
 30
0.0
  3
*D15
  1

  0
LINE
  5
192A
330
1412
100
AcDbEntity
  8
SUNPOU
100
AcDbLine
 10
259.0144230769229
 20
433.6998268243215
 30
0.0
 11
259.0144230769229
 21
424.6998268243215
 31
0.0
  0
LINE
  5
192B
330
1412
100
AcDbEntity
  8
SUNPOU
100
AcDbLine
 10
264.0144230769231
 20
433.6998268243215
 30
0.0
 11
264.0144230769231
 21
424.6998268243215
 31
0.0
  0
LINE
  5
192C
330
1412
100
AcDbEntity
  8
SUNPOU
100
AcDbLine
 10
254.0144230769231
 20
426.6998268243216
 30
0.0
 11
249.0144230769231
 21
426.6998268243216
 31
0.0
  0
LINE
  5
192D
330
1412
100
AcDbEntity
  8
SUNPOU
100
AcDbLine
 10
269.014423076923
 20
426.6998268243216
 30
0.0
 11
274.0144230769231
 21
426.6998268243216
 31
0.0
  0
MTEXT
  5
192E
330
1412
100
AcDbEntity
  8
SUNPOU
100
AcDbMText
 10
261.5144230769231
 20
422.1998268243216
 30
0.0
 40
5.0
 41
0.0
 71
     5
 72
     1
  1
\A1;5
  7
SUNPOU
 11
-1.0
 21
0.0000000000000001
 31
0.0
1001
ACAD
1000
MTEXTBEGIN
1070
    73
1070
     1
1070
    44
1040
1.0
1070
    74
1070
     0
1000
MTEXTEND
1000
MTEXTBEGIN
1070
    73
1070
     1
1070
    44
1040
1.0
1070
    74
1070
     0
1000
MTEXTEND
  0
LINE
  5
192F
330
1412
100
AcDbEntity
  8
SUNPOU
100
AcDbLine
 10
259.0144230769229
 20
426.6998268243216
 30
0.0
 11
264.0144230769231
 21
426.6998268243216
 31
0.0
  0
INSERT
  5
1930
330
1412
100
AcDbEntity
  8
SUNPOU
100
AcDbBlockReference
  2
_OPEN30
 10
259.0144230769229
 20
426.6998268243216
 30
0.0
 41
5.0
 42
5.0
 43
5.0
  0
INSERT
  5
1931
330
1412
100
AcDbEntity
  8
SUNPOU
100
AcDbBlockReference
  2
_OPEN30
 10
264.0144230769231
 20
426.6998268243216
 30
0.0
 41
5.0
 42
5.0
 43
5.0
 50
180.0
  0
POINT
  5
1932
330
1412
100
AcDbEntity
  8
DEFPOINTS
 62
     0
100
AcDbPoint
 10
259.0144230769229
 20
436.6998268243214
 30
0.0
  0
POINT
  5
1933
330
1412
100
AcDbEntity
  8
DEFPOINTS
 62
     0
100
AcDbPoint
 10
264.0144230769231
 20
436.6998268243214
 30
0.0
  0
POINT
  5
1934
330
1412
100
AcDbEntity
  8
DEFPOINTS
 62
     0
100
AcDbPoint
 10
264.0144230769231
 20
426.6998268243216
 30
0.0
  0
ENDBLK
  5
141F
330
1412
100
AcDbEntity
  8
0
100
AcDbBlockEnd
  0
BLOCK
  5
142B
330
1421
100
AcDbEntity
  8
0
100
AcDbBlockBegin
  2
*D16
 70
     1
 10
0.0
 20
0.0
 30
0.0
  3
*D16
  1

  0
LINE
  5
193E
330
1421
100
AcDbEntity
  8
SUNPOU
100
AcDbLine
 10
264.0144230769231
 20
433.6998268243215
 30
0.0
 11
264.0144230769231
 21
424.6998268243215
 31
0.0
  0
LINE
  5
193F
330
1421
100
AcDbEntity
  8
SUNPOU
100
AcDbLine
 10
296.014423076923
 20
433.6998268243215
 30
0.0
 11
296.014423076923
 21
424.6998268243215
 31
0.0
  0
LINE
  5
1940
330
1421
100
AcDbEntity
  8
SUNPOU
100
AcDbLine
 10
269.014423076923
 20
426.6998268243216
 30
0.0
 11
291.0144230769231
 21
426.6998268243216
 31
0.0
  0
MTEXT
  5
1941
330
1421
100
AcDbEntity
  8
SUNPOU
100
AcDbMText
 10
285.5376867518643
 20
422.1998268243216
 30
0.0
 40
5.0
 41
0.0
 71
     5
 72
     1
  1
\A1;32
  7
SUNPOU
 11
-1.0
 21
0.0000000000000001
 31
0.0
1001
ACAD
1000
MTEXTBEGIN
1070
    73
1070
     1
1070
    44
1040
1.0
1070
    74
1070
     0
1000
MTEXTEND
1000
MTEXTBEGIN
1070
    73
1070
     1
1070
    44
1040
1.0
1070
    74
1070
     0
1000
MTEXTEND
  0
INSERT
  5
1942
330
1421
100
AcDbEntity
  8
SUNPOU
100
AcDbBlockReference
  2
_OPEN30
 10
264.0144230769231
 20
426.6998268243216
 30
0.0
 41
5.0
 42
5.0
 43
5.0
 50
180.0
  0
INSERT
  5
1943
330
1421
100
AcDbEntity
  8
SUNPOU
100
AcDbBlockReference
  2
_OPEN30
 10
296.014423076923
 20
426.6998268243216
 30
0.0
 41
5.0
 42
5.0
 43
5.0
  0
POINT
  5
1944
330
1421
100
AcDbEntity
  8
DEFPOINTS
 62
     0
100
AcDbPoint
 10
264.0144230769231
 20
436.6998268243214
 30
0.0
  0
POINT
  5
1945
330
1421
100
AcDbEntity
  8
DEFPOINTS
 62
     0
100
AcDbPoint
 10
296.014423076923
 20
436.6998268243214
 30
0.0
  0
POINT
  5
1946
330
1421
100
AcDbEntity
  8
DEFPOINTS
 62
     0
100
AcDbPoint
 10
296.014423076923
 20
426.6998268243216
 30
0.0
  0
ENDBLK
  5
142C
330
1421
100
AcDbEntity
  8
0
100
AcDbBlockEnd
  0
BLOCK
  5
143A
330
142E
100
AcDbEntity
  8
0
100
AcDbBlockBegin
  2
*D17
 70
     1
 10
0.0
 20
0.0
 30
0.0
  3
*D17
  1

  0
LINE
  5
1B1A
330
142E
100
AcDbEntity
  8
SUNPOU
100
AcDbLine
 10
304.308777429467
 20
293.3525420824553
 30
0.0
 11
305.308777429467
 21
293.3525420824553
 31
0.0
  0
LINE
  5
1B1B
330
142E
100
AcDbEntity
  8
SUNPOU
100
AcDbLine
 10
299.0144230769228
 20
297.3525420824553
 30
0.0
 11
309.3087774294668
 21
297.3525420824553
 31
0.0
  0
LINE
  5
1B1C
330
142E
100
AcDbEntity
  8
SUNPOU
100
AcDbLine
 10
307.308777429467
 20
288.3525420824553
 30
0.0
 11
307.308777429467
 21
283.3525420824553
 31
0.0
  0
LINE
  5
1B1D
330
142E
100
AcDbEntity
  8
SUNPOU
100
AcDbLine
 10
307.308777429467
 20
302.3525420824553
 30
0.0
 11
307.308777429467
 21
307.3525420824553
 31
0.0
  0
MTEXT
  5
1B1E
330
142E
100
AcDbEntity
  8
SUNPOU
100
AcDbMText
 10
302.8087774294669
 20
285.541942737831
 30
0.0
 40
5.0
 41
0.0
 71
     5
 72
     1
  1
\A1;4
  7
SUNPOU
 11
0.0000000000000001
 21
1.0
 31
0.0
1001
ACAD
1000
MTEXTBEGIN
1070
    73
1070
     1
1070
    44
1040
1.0
1070
    74
1070
     0
1000
MTEXTEND
1000
MTEXTBEGIN
1070
    73
1070
     1
1070
    44
1040
1.0
1070
    74
1070
     0
1000
MTEXTEND
  0
LINE
  5
1B1F
330
142E
100
AcDbEntity
  8
SUNPOU
100
AcDbLine
 10
307.308777429467
 20
293.3525420824553
 30
0.0
 11
307.308777429467
 21
297.3525420824553
 31
0.0
  0
INSERT
  5
1B20
330
142E
100
AcDbEntity
  8
SUNPOU
100
AcDbBlockReference
  2
_OPEN30
 10
307.308777429467
 20
293.3525420824553
 30
0.0
 41
5.0
 42
5.0
 43
5.0
 50
90.0
  0
INSERT
  5
1B21
330
142E
100
AcDbEntity
  8
SUNPOU
100
AcDbBlockReference
  2
_OPEN30
 10
307.308777429467
 20
297.3525420824553
 30
0.0
 41
5.0
 42
5.0
 43
5.0
 50
270.0
  0
POINT
  5
1B22
330
142E
100
AcDbEntity
  8
DEFPOINTS
 62
     0
100
AcDbPoint
 10
307.308777429467
 20
293.3525420824553
 30
0.0
  0
POINT
  5
1B23
330
142E
100
AcDbEntity
  8
DEFPOINTS
 62
     0
100
AcDbPoint
 10
296.014423076923
 20
297.3525420824553
 30
0.0
  0
POINT
  5
1B24
330
142E
100
AcDbEntity
  8
DEFPOINTS
 62
     0
100
AcDbPoint
 10
307.308777429467
 20
297.3525420824553
 30
0.0
  0
ENDBLK
  5
143B
330
142E
100
AcDbEntity
  8
0
100
AcDbBlockEnd
  0
BLOCK
  5
1447
330
143D
100
AcDbEntity
  8
0
100
AcDbBlockBegin
  2
*D18
 70
     1
 10
0.0
 20
0.0
 30
0.0
  3
*D18
  1

  0
LINE
  5
1732
330
143D
100
AcDbEntity
  8
SUNPOU
100
AcDbLine
 10
299.0144230769228
 20
297.3525420824553
 30
0.0
 11
309.3087774294668
 21
297.3525420824553
 31
0.0
  0
LINE
  5
1733
330
143D
100
AcDbEntity
  8
SUNPOU
100
AcDbLine
 10
299.0144230769228
 20
322.3525420824553
 30
0.0
 11
309.3087774294668
 21
322.3525420824553
 31
0.0
  0
LINE
  5
1734
330
143D
100
AcDbEntity
  8
SUNPOU
100
AcDbLine
 10
307.308777429467
 20
302.3525420824553
 30
0.0
 11
307.308777429467
 21
317.3525420824553
 31
0.0
  0
INSERT
  5
1735
330
143D
100
AcDbEntity
  8
SUNPOU
100
AcDbBlockReference
  2
_OPEN30
 10
307.308777429467
 20
297.3525420824553
 30
0.0
 41
5.0
 42
5.0
 43
5.0
 50
270.0
  0
INSERT
  5
1736
330
143D
100
AcDbEntity
  8
SUNPOU
100
AcDbBlockReference
  2
_OPEN30
 10
307.308777429467
 20
322.3525420824553
 30
0.0
 41
5.0
 42
5.0
 43
5.0
 50
90.0
  0
MTEXT
  5
1737
330
143D
100
AcDbEntity
  8
SUNPOU
100
AcDbMText
 10
302.8087774294669
 20
309.8525420824553
 30
0.0
 40
5.0
 41
0.0
 71
     5
 72
     1
  1
\A1;25
  7
SUNPOU
 11
0.0000000000000001
 21
1.0
 31
0.0
1001
ACAD
1000
MTEXTBEGIN
1070
    73
1070
     1
1070
    44
1040
1.0
1070
    74
1070
     0
1000
MTEXTEND
1000
MTEXTBEGIN
1070
    73
1070
     1
1070
    44
1040
1.0
1070
    74
1070
     0
1000
MTEXTEND
  0
POINT
  5
1738
330
143D
100
AcDbEntity
  8
DEFPOINTS
 62
     0
100
AcDbPoint
 10
296.014423076923
 20
297.3525420824553
 30
0.0
  0
POINT
  5
1739
330
143D
100
AcDbEntity
  8
DEFPOINTS
 62
     0
100
AcDbPoint
 10
296.014423076923
 20
322.3525420824553
 30
0.0
  0
POINT
  5
173A
330
143D
100
AcDbEntity
  8
DEFPOINTS
 62
     0
100
AcDbPoint
 10
307.308777429467
 20
322.3525420824553
 30
0.0
  0
ENDBLK
  5
1448
330
143D
100
AcDbEntity
  8
0
100
AcDbBlockEnd
  0
BLOCK
  5
1454
330
144A
100
AcDbEntity
  8
0
100
AcDbBlockBegin
  2
*D19
 70
     1
 10
0.0
 20
0.0
 30
0.0
  3
*D19
  1

  0
LINE
  5
19E5
330
144A
100
AcDbEntity
  8
SUNPOU
100
AcDbLine
 10
349.8277770733163
 20
387.1945064374179
 30
0.0
 11
349.8277770733163
 21
396.2209313957754
 31
0.0
  0
LINE
  5
19E6
330
144A
100
AcDbEntity
  8
SUNPOU
100
AcDbLine
 10
381.8277770733163
 20
387.1945064374179
 30
0.0
 11
381.8277770733163
 21
396.2209313957754
 31
0.0
  0
LINE
  5
19E7
330
144A
100
AcDbEntity
  8
SUNPOU
100
AcDbLine
 10
354.8277770733163
 20
394.2209313957754
 30
0.0
 11
376.8277770733163
 21
394.2209313957754
 31
0.0
  0
MTEXT
  5
19E8
330
144A
100
AcDbEntity
  8
SUNPOU
100
AcDbMText
 10
370.9798626079355
 20
389.7209313957753
 30
0.0
 40
5.0
 41
0.0
 71
     5
 72
     1
  1
\A1;32
  7
SUNPOU
 11
-1.0
 21
0.0000000000000001
 31
0.0
1001
ACAD
1000
MTEXTBEGIN
1070
    73
1070
     1
1070
    44
1040
1.0
1070
    74
1070
     0
1000
MTEXTEND
1000
MTEXTBEGIN
1070
    73
1070
     1
1070
    44
1040
1.0
1070
    74
1070
     0
1000
MTEXTEND
  0
INSERT
  5
19E9
330
144A
100
AcDbEntity
  8
SUNPOU
100
AcDbBlockReference
  2
_OPEN30
 10
349.8277770733163
 20
394.2209313957754
 30
0.0
 41
5.0
 42
5.0
 43
5.0
 50
180.0
  0
INSERT
  5
19EA
330
144A
100
AcDbEntity
  8
SUNPOU
100
AcDbBlockReference
  2
_OPEN30
 10
381.8277770733163
 20
394.2209313957754
 30
0.0
 41
5.0
 42
5.0
 43
5.0
  0
POINT
  5
19EB
330
144A
100
AcDbEntity
  8
DEFPOINTS
 62
     0
100
AcDbPoint
 10
349.8277770733163
 20
384.194506437418
 30
0.0
  0
POINT
  5
19EC
330
144A
100
AcDbEntity
  8
DEFPOINTS
 62
     0
100
AcDbPoint
 10
381.8277770733163
 20
384.194506437418
 30
0.0
  0
POINT
  5
19ED
330
144A
100
AcDbEntity
  8
DEFPOINTS
 62
     0
100
AcDbPoint
 10
381.8277770733163
 20
394.2209313957754
 30
0.0
  0
ENDBLK
  5
1455
330
144A
100
AcDbEntity
  8
0
100
AcDbBlockEnd
  0
BLOCK
  5
1461
330
1457
100
AcDbEntity
  8
0
100
AcDbBlockBegin
  2
*D20
 70
     1
 10
0.0
 20
0.0
 30
0.0
  3
*D20
  1

  0
LINE
  5
185A
330
1457
100
AcDbEntity
  8
SUNPOU
100
AcDbLine
 10
384.8277770733163
 20
329.1945064374178
 30
0.0
 11
395.9937238545203
 21
329.1945064374178
 31
0.0
  0
LINE
  5
185B
330
1457
100
AcDbEntity
  8
SUNPOU
100
AcDbLine
 10
384.8277770733163
 20
354.1945064374178
 30
0.0
 11
395.9937238545203
 21
354.1945064374178
 31
0.0
  0
LINE
  5
185C
330
1457
100
AcDbEntity
  8
SUNPOU
100
AcDbLine
 10
393.9937238545203
 20
334.1945064374178
 30
0.0
 11
393.9937238545203
 21
349.1945064374178
 31
0.0
  0
INSERT
  5
185D
330
1457
100
AcDbEntity
  8
SUNPOU
100
AcDbBlockReference
  2
_OPEN30
 10
393.9937238545203
 20
329.1945064374178
 30
0.0
 41
5.0
 42
5.0
 43
5.0
 50
270.0
  0
INSERT
  5
185E
330
1457
100
AcDbEntity
  8
SUNPOU
100
AcDbBlockReference
  2
_OPEN30
 10
393.9937238545203
 20
354.1945064374178
 30
0.0
 41
5.0
 42
5.0
 43
5.0
 50
90.0
  0
MTEXT
  5
185F
330
1457
100
AcDbEntity
  8
SUNPOU
100
AcDbMText
 10
389.4937238545201
 20
341.6945064374178
 30
0.0
 40
5.0
 41
0.0
 71
     5
 72
     1
  1
\A1;25
  7
SUNPOU
 11
0.0000000000000001
 21
1.0
 31
0.0
1001
ACAD
1000
MTEXTBEGIN
1070
    73
1070
     1
1070
    44
1040
1.0
1070
    74
1070
     0
1000
MTEXTEND
1000
MTEXTBEGIN
1070
    73
1070
     1
1070
    44
1040
1.0
1070
    74
1070
     0
1000
MTEXTEND
  0
POINT
  5
1860
330
1457
100
AcDbEntity
  8
DEFPOINTS
 62
     0
100
AcDbPoint
 10
381.8277770733163
 20
329.1945064374178
 30
0.0
  0
POINT
  5
1861
330
1457
100
AcDbEntity
  8
DEFPOINTS
 62
     0
100
AcDbPoint
 10
381.8277770733163
 20
354.1945064374178
 30
0.0
  0
POINT
  5
1862
330
1457
100
AcDbEntity
  8
DEFPOINTS
 62
     0
100
AcDbPoint
 10
393.9937238545203
 20
354.1945064374178
 30
0.0
  0
ENDBLK
  5
1462
330
1457
100
AcDbEntity
  8
0
100
AcDbBlockEnd
  0
BLOCK
  5
1470
330
1464
100
AcDbEntity
  8
0
100
AcDbBlockBegin
  2
*D21
 70
     1
 10
0.0
 20
0.0
 30
0.0
  3
*D21
  1

  0
LINE
  5
184F
330
1464
100
AcDbEntity
  8
SUNPOU
100
AcDbLine
 10
384.8277770733163
 20
354.1945064374178
 30
0.0
 11
395.9937238545203
 21
354.1945064374178
 31
0.0
  0
LINE
  5
1850
330
1464
100
AcDbEntity
  8
SUNPOU
100
AcDbLine
 10
384.8277770733163
 20
359.1945064374178
 30
0.0
 11
395.9937238545203
 21
359.1945064374178
 31
0.0
  0
LINE
  5
1851
330
1464
100
AcDbEntity
  8
SUNPOU
100
AcDbLine
 10
393.9937238545203
 20
349.1945064374178
 30
0.0
 11
393.9937238545203
 21
344.1945064374178
 31
0.0
  0
LINE
  5
1852
330
1464
100
AcDbEntity
  8
SUNPOU
100
AcDbLine
 10
393.9937238545203
 20
364.1945064374179
 30
0.0
 11
393.9937238545203
 21
369.1945064374178
 31
0.0
  0
LINE
  5
1853
330
1464
100
AcDbEntity
  8
SUNPOU
100
AcDbLine
 10
393.9937238545203
 20
354.1945064374178
 30
0.0
 11
393.9937238545203
 21
359.1945064374178
 31
0.0
  0
INSERT
  5
1854
330
1464
100
AcDbEntity
  8
SUNPOU
100
AcDbBlockReference
  2
_OPEN30
 10
393.9937238545203
 20
354.1945064374178
 30
0.0
 41
5.0
 42
5.0
 43
5.0
 50
90.0
  0
INSERT
  5
1855
330
1464
100
AcDbEntity
  8
SUNPOU
100
AcDbBlockReference
  2
_OPEN30
 10
393.9937238545203
 20
359.1945064374178
 30
0.0
 41
5.0
 42
5.0
 43
5.0
 50
270.0
  0
MTEXT
  5
1856
330
1464
100
AcDbEntity
  8
SUNPOU
100
AcDbMText
 10
389.4937238545201
 20
356.694506437418
 30
0.0
 40
5.0
 41
0.0
 71
     5
 72
     1
  1
\A1;5
  7
SUNPOU
 11
0.0000000000000001
 21
1.0
 31
0.0
1001
ACAD
1000
MTEXTBEGIN
1070
    73
1070
     1
1070
    44
1040
1.0
1070
    74
1070
     0
1000
MTEXTEND
1000
MTEXTBEGIN
1070
    73
1070
     1
1070
    44
1040
1.0
1070
    74
1070
     0
1000
MTEXTEND
  0
POINT
  5
1857
330
1464
100
AcDbEntity
  8
DEFPOINTS
 62
     0
100
AcDbPoint
 10
381.8277770733163
 20
354.1945064374178
 30
0.0
  0
POINT
  5
1858
330
1464
100
AcDbEntity
  8
DEFPOINTS
 62
     0
100
AcDbPoint
 10
381.8277770733163
 20
359.194506437418
 30
0.0
  0
POINT
  5
1859
330
1464
100
AcDbEntity
  8
DEFPOINTS
 62
     0
100
AcDbPoint
 10
393.9937238545203
 20
359.1945064374178
 30
0.0
  0
ENDBLK
  5
1471
330
1464
100
AcDbEntity
  8
0
100
AcDbBlockEnd
  0
BLOCK
  5
147D
330
1473
100
AcDbEntity
  8
0
100
AcDbBlockBegin
  2
*D22
 70
     1
 10
0.0
 20
0.0
 30
0.0
  3
*D22
  1

  0
LINE
  5
1846
330
1473
100
AcDbEntity
  8
SUNPOU
100
AcDbLine
 10
384.8277770733163
 20
359.1945064374178
 30
0.0
 11
395.9937238545203
 21
359.1945064374178
 31
0.0
  0
LINE
  5
1847
330
1473
100
AcDbEntity
  8
SUNPOU
100
AcDbLine
 10
384.8277770733163
 20
384.194506437418
 30
0.0
 11
395.9937238545203
 21
384.194506437418
 31
0.0
  0
LINE
  5
1848
330
1473
100
AcDbEntity
  8
SUNPOU
100
AcDbLine
 10
393.9937238545203
 20
364.1945064374179
 30
0.0
 11
393.9937238545203
 21
379.1945064374178
 31
0.0
  0
INSERT
  5
1849
330
1473
100
AcDbEntity
  8
SUNPOU
100
AcDbBlockReference
  2
_OPEN30
 10
393.9937238545203
 20
359.1945064374178
 30
0.0
 41
5.0
 42
5.0
 43
5.0
 50
270.0
  0
INSERT
  5
184A
330
1473
100
AcDbEntity
  8
SUNPOU
100
AcDbBlockReference
  2
_OPEN30
 10
393.9937238545203
 20
384.194506437418
 30
0.0
 41
5.0
 42
5.0
 43
5.0
 50
90.0
  0
MTEXT
  5
184B
330
1473
100
AcDbEntity
  8
SUNPOU
100
AcDbMText
 10
389.4937238545201
 20
371.6945064374181
 30
0.0
 40
5.0
 41
0.0
 71
     5
 72
     1
  1
\A1;25
  7
SUNPOU
 11
0.0000000000000001
 21
1.0
 31
0.0
1001
ACAD
1000
MTEXTBEGIN
1070
    73
1070
     1
1070
    44
1040
1.0
1070
    74
1070
     0
1000
MTEXTEND
1000
MTEXTBEGIN
1070
    73
1070
     1
1070
    44
1040
1.0
1070
    74
1070
     0
1000
MTEXTEND
  0
POINT
  5
184C
330
1473
100
AcDbEntity
  8
DEFPOINTS
 62
     0
100
AcDbPoint
 10
381.8277770733163
 20
359.194506437418
 30
0.0
  0
POINT
  5
184D
330
1473
100
AcDbEntity
  8
DEFPOINTS
 62
     0
100
AcDbPoint
 10
381.8277770733163
 20
384.194506437418
 30
0.0
  0
POINT
  5
184E
330
1473
100
AcDbEntity
  8
DEFPOINTS
 62
     0
100
AcDbPoint
 10
393.9937238545203
 20
384.194506437418
 30
0.0
  0
ENDBLK
  5
147E
330
1473
100
AcDbEntity
  8
0
100
AcDbBlockEnd
  0
BLOCK
  5
148A
330
1480
100
AcDbEntity
  8
0
100
AcDbBlockBegin
  2
*D23
 70
     1
 10
0.0
 20
0.0
 30
0.0
  3
*D23
  1

  0
LINE
  5
1761
330
1480
100
AcDbEntity
  8
SUNPOU
100
AcDbLine
 10
151.7692820110924
 20
227.0195259368882
 30
0.0
 11
159.7889712168709
 21
227.0195259368882
 31
0.0
  0
LINE
  5
1762
330
1480
100
AcDbEntity
  8
SUNPOU
100
AcDbLine
 10
151.7692820110924
 20
243.019525936888
 30
0.0
 11
159.7889712168709
 21
243.019525936888
 31
0.0
  0
LINE
  5
1763
330
1480
100
AcDbEntity
  8
SUNPOU
100
AcDbLine
 10
157.7889712168708
 20
232.019525936888
 30
0.0
 11
157.7889712168708
 21
238.019525936888
 31
0.0
  0
MTEXT
  5
1764
330
1480
100
AcDbEntity
  8
SUNPOU
100
AcDbMText
 10
153.2889712168708
 20
238.7205238227338
 30
0.0
 40
5.0
 41
0.0
 71
     5
 72
     1
  1
\A1;16
  7
SUNPOU
 11
0.0000000000000001
 21
1.0
 31
0.0
1001
ACAD
1000
MTEXTBEGIN
1070
    73
1070
     1
1070
    44
1040
1.0
1070
    74
1070
     0
1000
MTEXTEND
1000
MTEXTBEGIN
1070
    73
1070
     1
1070
    44
1040
1.0
1070
    74
1070
     0
1000
MTEXTEND
  0
INSERT
  5
1765
330
1480
100
AcDbEntity
  8
SUNPOU
100
AcDbBlockReference
  2
_OPEN30
 10
157.7889712168708
 20
227.0195259368882
 30
0.0
 41
5.0
 42
5.0
 43
5.0
 50
270.0
  0
INSERT
  5
1766
330
1480
100
AcDbEntity
  8
SUNPOU
100
AcDbBlockReference
  2
_OPEN30
 10
157.7889712168708
 20
243.019525936888
 30
0.0
 41
5.0
 42
5.0
 43
5.0
 50
90.0
  0
POINT
  5
1767
330
1480
100
AcDbEntity
  8
DEFPOINTS
 62
     0
100
AcDbPoint
 10
148.7692820110924
 20
227.0195259368882
 30
0.0
  0
POINT
  5
1768
330
1480
100
AcDbEntity
  8
DEFPOINTS
 62
     0
100
AcDbPoint
 10
148.7692820110924
 20
243.019525936888
 30
0.0
  0
POINT
  5
1769
330
1480
100
AcDbEntity
  8
DEFPOINTS
 62
     0
100
AcDbPoint
 10
157.7889712168708
 20
243.019525936888
 30
0.0
  0
ENDBLK
  5
148B
330
1480
100
AcDbEntity
  8
0
100
AcDbBlockEnd
  0
BLOCK
  5
1497
330
148D
100
AcDbEntity
  8
0
100
AcDbBlockBegin
  2
*D24
 70
     1
 10
0.0
 20
0.0
 30
0.0
  3
*D24
  1

  0
LINE
  5
176A
330
148D
100
AcDbEntity
  8
SUNPOU
100
AcDbLine
 10
151.0192820110924
 20
220.519525936888
 30
0.0
 11
169.5801092687885
 21
220.519525936888
 31
0.0
  0
LINE
  5
176B
330
148D
100
AcDbEntity
  8
SUNPOU
100
AcDbLine
 10
151.0192820110924
 20
249.5195259368883
 30
0.0
 11
169.5801092687885
 21
249.5195259368883
 31
0.0
  0
LINE
  5
176C
330
148D
100
AcDbEntity
  8
SUNPOU
100
AcDbLine
 10
167.5801092687884
 20
225.519525936888
 30
0.0
 11
167.5801092687884
 21
244.5195259368883
 31
0.0
  0
MTEXT
  5
176D
330
148D
100
AcDbEntity
  8
SUNPOU
100
AcDbMText
 10
163.0801092687884
 20
239.3189073781329
 30
0.0
 40
5.0
 41
0.0
 71
     5
 72
     1
  1
\A1;29
  7
SUNPOU
 11
0.0000000000000001
 21
1.0
 31
0.0
1001
ACAD
1000
MTEXTBEGIN
1070
    73
1070
     1
1070
    44
1040
1.0
1070
    74
1070
     0
1000
MTEXTEND
1000
MTEXTBEGIN
1070
    73
1070
     1
1070
    44
1040
1.0
1070
    74
1070
     0
1000
MTEXTEND
  0
INSERT
  5
176E
330
148D
100
AcDbEntity
  8
SUNPOU
100
AcDbBlockReference
  2
_OPEN30
 10
167.5801092687884
 20
220.519525936888
 30
0.0
 41
5.0
 42
5.0
 43
5.0
 50
270.0
  0
INSERT
  5
176F
330
148D
100
AcDbEntity
  8
SUNPOU
100
AcDbBlockReference
  2
_OPEN30
 10
167.5801092687884
 20
249.5195259368883
 30
0.0
 41
5.0
 42
5.0
 43
5.0
 50
90.0
  0
POINT
  5
1770
330
148D
100
AcDbEntity
  8
DEFPOINTS
 62
     0
100
AcDbPoint
 10
148.0192820110924
 20
220.519525936888
 30
0.0
  0
POINT
  5
1771
330
148D
100
AcDbEntity
  8
DEFPOINTS
 62
     0
100
AcDbPoint
 10
148.0192820110924
 20
249.5195259368883
 30
0.0
  0
POINT
  5
1772
330
148D
100
AcDbEntity
  8
DEFPOINTS
 62
     0
100
AcDbPoint
 10
167.5801092687884
 20
249.5195259368883
 30
0.0
  0
ENDBLK
  5
1498
330
148D
100
AcDbEntity
  8
0
100
AcDbBlockEnd
  0
BLOCK
  5
14A4
330
149A
100
AcDbEntity
  8
0
100
AcDbBlockBegin
  2
*D25
 70
     1
 10
0.0
 20
0.0
 30
0.0
  3
*D25
  1

  0
LINE
  5
1773
330
149A
100
AcDbEntity
  8
SUNPOU
100
AcDbLine
 10
176.083071278826
 20
219.0195259368882
 30
0.0
 11
177.083071278826
 21
219.0195259368882
 31
0.0
  0
LINE
  5
1774
330
149A
100
AcDbEntity
  8
SUNPOU
100
AcDbLine
 10
176.083071278826
 20
251.019525936888
 30
0.0
 11
177.083071278826
 21
251.019525936888
 31
0.0
  0
LINE
  5
1775
330
149A
100
AcDbEntity
  8
SUNPOU
100
AcDbLine
 10
179.083071278826
 20
224.019525936888
 30
0.0
 11
179.083071278826
 21
246.0195259368882
 31
0.0
  0
MTEXT
  5
1776
330
149A
100
AcDbEntity
  8
SUNPOU
100
AcDbMText
 10
174.583071278826
 20
239.4898752428423
 30
0.0
 40
5.0
 41
0.0
 71
     5
 72
     1
  1
\A1;32
  7
SUNPOU
 11
0.0000000000000001
 21
1.0
 31
0.0
1001
ACAD
1000
MTEXTBEGIN
1070
    73
1070
     1
1070
    44
1040
1.0
1070
    74
1070
     0
1000
MTEXTEND
1000
MTEXTBEGIN
1070
    73
1070
     1
1070
    44
1040
1.0
1070
    74
1070
     0
1000
MTEXTEND
  0
INSERT
  5
1777
330
149A
100
AcDbEntity
  8
SUNPOU
100
AcDbBlockReference
  2
_OPEN30
 10
179.083071278826
 20
219.0195259368882
 30
0.0
 41
5.0
 42
5.0
 43
5.0
 50
270.0
  0
INSERT
  5
1778
330
149A
100
AcDbEntity
  8
SUNPOU
100
AcDbBlockReference
  2
_OPEN30
 10
179.083071278826
 20
251.019525936888
 30
0.0
 41
5.0
 42
5.0
 43
5.0
 50
90.0
  0
POINT
  5
1779
330
149A
100
AcDbEntity
  8
DEFPOINTS
 62
     0
100
AcDbPoint
 10
179.083071278826
 20
219.0195259368882
 30
0.0
  0
POINT
  5
177A
330
149A
100
AcDbEntity
  8
DEFPOINTS
 62
     0
100
AcDbPoint
 10
179.083071278826
 20
251.019525936888
 30
0.0
  0
POINT
  5
177B
330
149A
100
AcDbEntity
  8
DEFPOINTS
 62
     0
100
AcDbPoint
 10
179.083071278826
 20
251.019525936888
 30
0.0
  0
ENDBLK
  5
14A5
330
149A
100
AcDbEntity
  8
0
100
AcDbBlockEnd
  0
BLOCK
  5
14D5
330
14CB
100
AcDbEntity
  8
0
100
AcDbBlockBegin
  2
*D26
 70
     1
 10
0.0
 20
0.0
 30
0.0
  3
*D26
  1

  0
LINE
  5
1990
330
14CB
100
AcDbEntity
  8
SUNPOU
100
AcDbLine
 10
256.3452435495539
 20
251.769525936888
 30
0.0
 11
256.3452435495539
 21
266.2195259368882
 31
0.0
  0
LINE
  5
1991
330
14CB
100
AcDbEntity
  8
SUNPOU
100
AcDbLine
 10
341.3452435495538
 20
254.0195259368882
 30
0.0
 11
341.3452435495538
 21
266.2195259368882
 31
0.0
  0
LINE
  5
1992
330
14CB
100
AcDbEntity
  8
SUNPOU
100
AcDbLine
 10
261.3452435495539
 20
264.2195259368881
 30
0.0
 11
336.3452435495537
 21
264.2195259368881
 31
0.0
  0
MTEXT
  5
1993
330
14CB
100
AcDbEntity
  8
SUNPOU
100
AcDbMText
 10
298.8452435495537
 20
259.7195259368883
 30
0.0
 40
5.0
 41
0.0
 71
     5
 72
     1
  1
\A1;85
  7
SUNPOU
 11
-1.0
 21
0.0000000000000001
 31
0.0
1001
ACAD
1000
MTEXTBEGIN
1070
    73
1070
     1
1070
    44
1040
1.0
1070
    74
1070
     0
1000
MTEXTEND
1000
MTEXTBEGIN
1070
    73
1070
     1
1070
    44
1040
1.0
1070
    74
1070
     0
1000
MTEXTEND
  0
INSERT
  5
1994
330
14CB
100
AcDbEntity
  8
SUNPOU
100
AcDbBlockReference
  2
_OPEN30
 10
256.3452435495539
 20
264.2195259368881
 30
0.0
 41
5.0
 42
5.0
 43
5.0
 50
180.0
  0
INSERT
  5
1995
330
14CB
100
AcDbEntity
  8
SUNPOU
100
AcDbBlockReference
  2
_OPEN30
 10
341.3452435495538
 20
264.2195259368881
 30
0.0
 41
5.0
 42
5.0
 43
5.0
  0
POINT
  5
1996
330
14CB
100
AcDbEntity
  8
DEFPOINTS
 62
     0
100
AcDbPoint
 10
256.3452435495539
 20
248.769525936888
 30
0.0
  0
POINT
  5
1997
330
14CB
100
AcDbEntity
  8
DEFPOINTS
 62
     0
100
AcDbPoint
 10
341.3452435495538
 20
251.019525936888
 30
0.0
  0
POINT
  5
1998
330
14CB
100
AcDbEntity
  8
DEFPOINTS
 62
     0
100
AcDbPoint
 10
341.3452435495538
 20
264.2195259368881
 30
0.0
  0
ENDBLK
  5
14D6
330
14CB
100
AcDbEntity
  8
0
100
AcDbBlockEnd
  0
BLOCK
  5
14E2
330
14D8
100
AcDbEntity
  8
0
100
AcDbBlockBegin
  2
*D27
 70
     1
 10
0.0
 20
0.0
 30
0.0
  3
*D27
  1

  0
LINE
  5
19A3
330
14D8
100
AcDbEntity
  8
SUNPOU
100
AcDbLine
 10
63.76928201109238
 20
254.0195259368882
 30
0.0
 11
63.76928201109238
 21
266.2195259368883
 31
0.0
  0
LINE
  5
19A4
330
14D8
100
AcDbEntity
  8
SUNPOU
100
AcDbLine
 10
148.7692820110923
 20
251.769525936888
 30
0.0
 11
148.7692820110923
 21
266.2195259368883
 31
0.0
  0
LINE
  5
19A5
330
14D8
100
AcDbEntity
  8
SUNPOU
100
AcDbLine
 10
68.7692820110924
 20
264.2195259368883
 30
0.0
 11
143.7692820110923
 21
264.2195259368883
 31
0.0
  0
MTEXT
  5
19A6
330
14D8
100
AcDbEntity
  8
SUNPOU
100
AcDbMText
 10
106.2692820110922
 20
259.7195259368883
 30
0.0
 40
5.0
 41
0.0
 71
     5
 72
     1
  1
\A1;85
  7
SUNPOU
 11
-1.0
 21
0.0000000000000001
 31
0.0
1001
ACAD
1000
MTEXTBEGIN
1070
    73
1070
     1
1070
    44
1040
1.0
1070
    74
1070
     0
1000
MTEXTEND
1000
MTEXTBEGIN
1070
    73
1070
     1
1070
    44
1040
1.0
1070
    74
1070
     0
1000
MTEXTEND
  0
INSERT
  5
19A7
330
14D8
100
AcDbEntity
  8
SUNPOU
100
AcDbBlockReference
  2
_OPEN30
 10
63.76928201109238
 20
264.2195259368883
 30
0.0
 41
5.0
 42
5.0
 43
5.0
 50
180.0
  0
INSERT
  5
19A8
330
14D8
100
AcDbEntity
  8
SUNPOU
100
AcDbBlockReference
  2
_OPEN30
 10
148.7692820110923
 20
264.2195259368883
 30
0.0
 41
5.0
 42
5.0
 43
5.0
  0
POINT
  5
19A9
330
14D8
100
AcDbEntity
  8
DEFPOINTS
 62
     0
100
AcDbPoint
 10
63.76928201109238
 20
251.019525936888
 30
0.0
  0
POINT
  5
19AA
330
14D8
100
AcDbEntity
  8
DEFPOINTS
 62
     0
100
AcDbPoint
 10
148.7692820110923
 20
248.769525936888
 30
0.0
  0
POINT
  5
19AB
330
14D8
100
AcDbEntity
  8
DEFPOINTS
 62
     0
100
AcDbPoint
 10
148.7692820110923
 20
264.2195259368883
 30
0.0
  0
ENDBLK
  5
14E3
330
14D8
100
AcDbEntity
  8
0
100
AcDbBlockEnd
  0
BLOCK
  5
14EF
330
14E5
100
AcDbEntity
  8
0
100
AcDbBlockBegin
  2
*D28
 70
     1
 10
0.0
 20
0.0
 30
0.0
  3
*D28
  1

  0
LINE
  5
1958
330
14E5
100
AcDbEntity
  8
SUNPOU
100
AcDbLine
 10
63.76928201109238
 20
254.0195259368882
 30
0.0
 11
63.76928201109238
 21
279.1869240249869
 31
0.0
  0
LINE
  5
1959
330
14E5
100
AcDbEntity
  8
SUNPOU
100
AcDbLine
 10
341.3452435495538
 20
254.0195259368883
 30
0.0
 11
341.3452435495538
 21
279.1869240249869
 31
0.0
  0
LINE
  5
195A
330
14E5
100
AcDbEntity
  8
SUNPOU
100
AcDbLine
 10
68.7692820110924
 20
277.1869240249869
 30
0.0
 11
336.3452435495537
 21
277.1869240249869
 31
0.0
  0
MTEXT
  5
195B
330
14E5
100
AcDbEntity
  8
SUNPOU
100
AcDbMText
 10
202.5572627803231
 20
272.6869240249869
 30
0.0
 40
5.0
 41
0.0
 71
     5
 72
     1
  1
\A1;DH
  7
SUNPOU
 11
-1.0
 21
0.0000000000000001
 31
0.0
1001
ACAD
1000
MTEXTBEGIN
1070
    73
1070
     1
1070
    44
1040
1.0
1070
    74
1070
     0
1000
MTEXTEND
1000
MTEXTBEGIN
1070
    73
1070
     1
1070
    44
1040
1.0
1070
    74
1070
     0
1000
MTEXTEND
  0
INSERT
  5
195C
330
14E5
100
AcDbEntity
  8
SUNPOU
100
AcDbBlockReference
  2
_OPEN30
 10
63.76928201109238
 20
277.1869240249869
 30
0.0
 41
5.0
 42
5.0
 43
5.0
 50
180.0
  0
INSERT
  5
195D
330
14E5
100
AcDbEntity
  8
SUNPOU
100
AcDbBlockReference
  2
_OPEN30
 10
341.3452435495538
 20
277.1869240249869
 30
0.0
 41
5.0
 42
5.0
 43
5.0
  0
POINT
  5
195E
330
14E5
100
AcDbEntity
  8
DEFPOINTS
 62
     0
100
AcDbPoint
 10
63.76928201109238
 20
251.019525936888
 30
0.0
  0
POINT
  5
195F
330
14E5
100
AcDbEntity
  8
DEFPOINTS
 62
     0
100
AcDbPoint
 10
341.3452435495538
 20
251.0195259368883
 30
0.0
  0
POINT
  5
1960
330
14E5
100
AcDbEntity
  8
DEFPOINTS
 62
     0
100
AcDbPoint
 10
341.3452435495538
 20
277.1869240249869
 30
0.0
  0
ENDBLK
  5
14F0
330
14E5
100
AcDbEntity
  8
0
100
AcDbBlockEnd
  0
BLOCK
  5
14FE
330
14F2
100
AcDbEntity
  8
0
100
AcDbBlockBegin
  2
*D29
 70
     1
 10
0.0
 20
0.0
 30
0.0
  3
*D29
  1

  0
LINE
  5
19AC
330
14F2
100
AcDbEntity
  8
SUNPOU
100
AcDbLine
 10
341.3452435495538
 20
254.0195259368883
 30
0.0
 11
341.3452435495538
 21
279.1869240249869
 31
0.0
  0
LINE
  5
19AD
330
14F2
100
AcDbEntity
  8
SUNPOU
100
AcDbLine
 10
349.8447848594346
 20
249.0195259368956
 30
0.0
 11
349.8447848594346
 21
279.1869240249869
 31
0.0
  0
LINE
  5
19AE
330
14F2
100
AcDbEntity
  8
SUNPOU
100
AcDbLine
 10
336.3452435495537
 20
277.1869240249869
 30
0.0
 11
331.3452435495538
 21
277.1869240249869
 31
0.0
  0
LINE
  5
19AF
330
14F2
100
AcDbEntity
  8
SUNPOU
100
AcDbLine
 10
354.8447848594346
 20
277.1869240249869
 30
0.0
 11
359.8447848594346
 21
277.1869240249869
 31
0.0
  0
MTEXT
  5
19B0
330
14F2
100
AcDbEntity
  8
SUNPOU
100
AcDbMText
 10
360.1136756629748
 20
272.6869240249869
 30
0.0
 40
5.0
 41
0.0
 71
     5
 72
     1
  1
\A1;8.5
  7
SUNPOU
 11
-1.0
 21
0.0000000000000001
 31
0.0
1001
ACAD
1000
MTEXTBEGIN
1070
    73
1070
     1
1070
    44
1040
1.0
1070
    74
1070
     0
1000
MTEXTEND
1000
MTEXTBEGIN
1070
    73
1070
     1
1070
    44
1040
1.0
1070
    74
1070
     0
1000
MTEXTEND
  0
LINE
  5
19B1
330
14F2
100
AcDbEntity
  8
SUNPOU
100
AcDbLine
 10
341.3452435495538
 20
277.1869240249869
 30
0.0
 11
349.8447848594346
 21
277.1869240249869
 31
0.0
  0
INSERT
  5
19B2
330
14F2
100
AcDbEntity
  8
SUNPOU
100
AcDbBlockReference
  2
_OPEN30
 10
341.3452435495538
 20
277.1869240249869
 30
0.0
 41
5.0
 42
5.0
 43
5.0
  0
INSERT
  5
19B3
330
14F2
100
AcDbEntity
  8
SUNPOU
100
AcDbBlockReference
  2
_OPEN30
 10
349.8447848594346
 20
277.1869240249869
 30
0.0
 41
5.0
 42
5.0
 43
5.0
 50
180.0
  0
POINT
  5
19B4
330
14F2
100
AcDbEntity
  8
DEFPOINTS
 62
     0
100
AcDbPoint
 10
341.3452435495538
 20
251.0195259368883
 30
0.0
  0
POINT
  5
19B5
330
14F2
100
AcDbEntity
  8
DEFPOINTS
 62
     0
100
AcDbPoint
 10
349.8447848594346
 20
246.0195259368956
 30
0.0
  0
POINT
  5
19B6
330
14F2
100
AcDbEntity
  8
DEFPOINTS
 62
     0
100
AcDbPoint
 10
349.8447848594346
 20
277.1869240249869
 30
0.0
  0
ENDBLK
  5
14FF
330
14F2
100
AcDbEntity
  8
0
100
AcDbBlockEnd
  0
BLOCK
  5
1521
330
1515
100
AcDbEntity
  8
0
100
AcDbBlockBegin
  2
*D30
 70
     1
 10
0.0
 20
0.0
 30
0.0
  3
*D30
  1

  0
LINE
  5
1A3A
330
1515
100
AcDbEntity
  8
SUNPOU
100
AcDbLine
 10
60.76928201109236
 20
76.79570010694397
 30
0.0
 11
53.7692820110923
 21
76.79570010694397
 31
0.0
  0
LINE
  5
1A3B
330
1515
100
AcDbEntity
  8
SUNPOU
100
AcDbLine
 10
60.76928201109236
 20
79.29570010694397
 30
0.0
 11
53.7692820110923
 21
79.29570010694397
 31
0.0
  0
LINE
  5
1A3C
330
1515
100
AcDbEntity
  8
SUNPOU
100
AcDbLine
 10
55.76928201109232
 20
71.79570010694397
 30
0.0
 11
55.76928201109232
 21
66.79570010694397
 31
0.0
  0
LINE
  5
1A3D
330
1515
100
AcDbEntity
  8
SUNPOU
100
AcDbLine
 10
55.76928201109232
 20
84.29570010694396
 30
0.0
 11
55.76928201109232
 21
89.29570010694396
 31
0.0
  0
MTEXT
  5
1A3E
330
1515
100
AcDbEntity
  8
SUNPOU
100
AcDbMText
 10
51.2692820110923
 20
90.20074308537846
 30
0.0
 40
5.0
 41
0.0
 71
     5
 72
     1
  1
\A1;25
  7
SUNPOU
 11
0.0000000000000001
 21
1.0
 31
0.0
1001
ACAD
1000
MTEXTBEGIN
1070
    73
1070
     1
1070
    44
1040
1.0
1070
    74
1070
     0
1000
MTEXTEND
1000
MTEXTBEGIN
1070
    73
1070
     1
1070
    44
1040
1.0
1070
    74
1070
     0
1000
MTEXTEND
  0
LINE
  5
1A3F
330
1515
100
AcDbEntity
  8
SUNPOU
100
AcDbLine
 10
55.76928201109232
 20
76.79570010694397
 30
0.0
 11
55.76928201109232
 21
79.29570010694397
 31
0.0
  0
INSERT
  5
1A40
330
1515
100
AcDbEntity
  8
SUNPOU
100
AcDbBlockReference
  2
_OPEN30
 10
55.76928201109232
 20
76.79570010694397
 30
0.0
 41
5.0
 42
5.0
 43
5.0
 50
90.0
  0
INSERT
  5
1A41
330
1515
100
AcDbEntity
  8
SUNPOU
100
AcDbBlockReference
  2
_OPEN30
 10
55.76928201109232
 20
79.29570010694397
 30
0.0
 41
5.0
 42
5.0
 43
5.0
 50
270.0
  0
POINT
  5
1A42
330
1515
100
AcDbEntity
  8
DEFPOINTS
 62
     0
100
AcDbPoint
 10
63.76928201109237
 20
76.79570010694397
 30
0.0
  0
POINT
  5
1A43
330
1515
100
AcDbEntity
  8
DEFPOINTS
 62
     0
100
AcDbPoint
 10
63.76928201109237
 20
79.29570010694397
 30
0.0
  0
POINT
  5
1A44
330
1515
100
AcDbEntity
  8
DEFPOINTS
 62
     0
100
AcDbPoint
 10
55.76928201109232
 20
79.29570010694397
 30
0.0
  0
ENDBLK
  5
1522
330
1515
100
AcDbEntity
  8
0
100
AcDbBlockEnd
  0
BLOCK
  5
1530
330
1524
100
AcDbEntity
  8
0
100
AcDbBlockBegin
  2
*D31
 70
     1
 10
0.0
 20
0.0
 30
0.0
  3
*D31
  1

  0
LINE
  5
1A2F
330
1524
100
AcDbEntity
  8
SUNPOU
100
AcDbLine
 10
60.7692820110924
 20
165.6957001069439
 30
0.0
 11
53.76928201109237
 21
165.6957001069439
 31
0.0
  0
LINE
  5
1A30
330
1524
100
AcDbEntity
  8
SUNPOU
100
AcDbLine
 10
60.7692820110924
 20
168.1957001069439
 30
0.0
 11
53.76928201109237
 21
168.1957001069439
 31
0.0
  0
LINE
  5
1A31
330
1524
100
AcDbEntity
  8
SUNPOU
100
AcDbLine
 10
55.76928201109236
 20
160.6957001069439
 30
0.0
 11
55.76928201109236
 21
155.6957001069439
 31
0.0
  0
LINE
  5
1A32
330
1524
100
AcDbEntity
  8
SUNPOU
100
AcDbLine
 10
55.76928201109236
 20
173.1957001069438
 30
0.0
 11
55.76928201109239
 21
178.1957001069438
 31
0.0
  0
MTEXT
  5
1A33
330
1524
100
AcDbEntity
  8
SUNPOU
100
AcDbMText
 10
51.26928201109235
 20
155.3082899979268
 30
0.0
 40
5.0
 41
0.0
 71
     5
 72
     1
  1
\A1;25
  7
SUNPOU
 11
0.0000000000000001
 21
1.0
 31
0.0
1001
ACAD
1000
MTEXTBEGIN
1070
    73
1070
     1
1070
    44
1040
1.0
1070
    74
1070
     0
1000
MTEXTEND
1000
MTEXTBEGIN
1070
    73
1070
     1
1070
    44
1040
1.0
1070
    74
1070
     0
1000
MTEXTEND
  0
LINE
  5
1A34
330
1524
100
AcDbEntity
  8
SUNPOU
100
AcDbLine
 10
55.76928201109236
 20
165.6957001069439
 30
0.0
 11
55.76928201109236
 21
168.1957001069439
 31
0.0
  0
INSERT
  5
1A35
330
1524
100
AcDbEntity
  8
SUNPOU
100
AcDbBlockReference
  2
_OPEN30
 10
55.76928201109236
 20
165.6957001069439
 30
0.0
 41
5.0
 42
5.0
 43
5.0
 50
90.0
  0
INSERT
  5
1A36
330
1524
100
AcDbEntity
  8
SUNPOU
100
AcDbBlockReference
  2
_OPEN30
 10
55.76928201109236
 20
168.1957001069439
 30
0.0
 41
5.0
 42
5.0
 43
5.0
 50
270.0
  0
POINT
  5
1A37
330
1524
100
AcDbEntity
  8
DEFPOINTS
 62
     0
100
AcDbPoint
 10
63.76928201109238
 20
165.6957001069439
 30
0.0
  0
POINT
  5
1A38
330
1524
100
AcDbEntity
  8
DEFPOINTS
 62
     0
100
AcDbPoint
 10
63.76928201109238
 20
168.1957001069439
 30
0.0
  0
POINT
  5
1A39
330
1524
100
AcDbEntity
  8
DEFPOINTS
 62
     0
100
AcDbPoint
 10
55.76928201109236
 20
168.1957001069439
 30
0.0
  0
ENDBLK
  5
1531
330
1524
100
AcDbEntity
  8
0
100
AcDbBlockEnd
  0
BLOCK
  5
153F
330
1533
100
AcDbEntity
  8
0
100
AcDbBlockBegin
  2
*D32
 70
     1
 10
0.0
 20
0.0
 30
0.0
  3
*D32
  1

  0
LINE
  5
1A45
330
1533
100
AcDbEntity
  8
SUNPOU
100
AcDbLine
 10
72.26928201109237
 20
76.29570010694397
 30
0.0
 11
72.26928201109237
 21
66.79570010694397
 31
0.0
  0
LINE
  5
1A46
330
1533
100
AcDbEntity
  8
SUNPOU
100
AcDbLine
 10
63.76928201109237
 20
73.79570010694397
 30
0.0
 11
63.76928201109237
 21
66.79570010694397
 31
0.0
  0
LINE
  5
1A47
330
1533
100
AcDbEntity
  8
SUNPOU
100
AcDbLine
 10
77.26928201109237
 20
68.79570010694397
 30
0.0
 11
82.26928201109236
 21
68.79570010694397
 31
0.0
  0
LINE
  5
1A48
330
1533
100
AcDbEntity
  8
SUNPOU
100
AcDbLine
 10
58.76928201109237
 20
68.79570010694397
 30
0.0
 11
53.76928201109237
 21
68.79570010694397
 31
0.0
  0
MTEXT
  5
1A49
330
1533
100
AcDbEntity
  8
SUNPOU
100
AcDbMText
 10
82.62417604808115
 20
64.29570010694397
 30
0.0
 40
5.0
 41
0.0
 71
     5
 72
     1
  1
\A1;85
  7
SUNPOU
 11
-1.0
 21
0.0000000000000001
 31
0.0
1001
ACAD
1000
MTEXTBEGIN
1070
    73
1070
     1
1070
    44
1040
1.0
1070
    74
1070
     0
1000
MTEXTEND
1000
MTEXTBEGIN
1070
    73
1070
     1
1070
    44
1040
1.0
1070
    74
1070
     0
1000
MTEXTEND
  0
LINE
  5
1A4A
330
1533
100
AcDbEntity
  8
SUNPOU
100
AcDbLine
 10
72.26928201109237
 20
68.79570010694397
 30
0.0
 11
63.76928201109237
 21
68.79570010694397
 31
0.0
  0
INSERT
  5
1A4B
330
1533
100
AcDbEntity
  8
SUNPOU
100
AcDbBlockReference
  2
_OPEN30
 10
72.26928201109237
 20
68.79570010694397
 30
0.0
 41
5.0
 42
5.0
 43
5.0
 50
180.0
  0
INSERT
  5
1A4C
330
1533
100
AcDbEntity
  8
SUNPOU
100
AcDbBlockReference
  2
_OPEN30
 10
63.76928201109237
 20
68.79570010694397
 30
0.0
 41
5.0
 42
5.0
 43
5.0
  0
POINT
  5
1A4D
330
1533
100
AcDbEntity
  8
DEFPOINTS
 62
     0
100
AcDbPoint
 10
72.26928201109237
 20
79.29570010694397
 30
0.0
  0
POINT
  5
1A4E
330
1533
100
AcDbEntity
  8
DEFPOINTS
 62
     0
100
AcDbPoint
 10
63.76928201109237
 20
76.79570010694397
 30
0.0
  0
POINT
  5
1A4F
330
1533
100
AcDbEntity
  8
DEFPOINTS
 62
     0
100
AcDbPoint
 10
63.76928201109237
 20
68.79570010694397
 30
0.0
  0
ENDBLK
  5
1540
330
1533
100
AcDbEntity
  8
0
100
AcDbBlockEnd
  0
BLOCK
  5
154E
330
1542
100
AcDbEntity
  8
0
100
AcDbBlockBegin
  2
*D33
 70
     1
 10
0.0
 20
0.0
 30
0.0
  3
*D33
  1

  0
LINE
  5
1A50
330
1542
100
AcDbEntity
  8
SUNPOU
100
AcDbLine
 10
268.7692820110924
 20
76.29570010694397
 30
0.0
 11
268.7692820110924
 21
66.79570010694395
 31
0.0
  0
LINE
  5
1A51
330
1542
100
AcDbEntity
  8
SUNPOU
100
AcDbLine
 10
278.0192820110924
 20
73.79570010694397
 30
0.0
 11
278.0192820110924
 21
66.79570010694395
 31
0.0
  0
LINE
  5
1A52
330
1542
100
AcDbEntity
  8
SUNPOU
100
AcDbLine
 10
263.7692820110923
 20
68.79570010694395
 30
0.0
 11
258.7692820110924
 21
68.79570010694395
 31
0.0
  0
LINE
  5
1A53
330
1542
100
AcDbEntity
  8
SUNPOU
100
AcDbLine
 10
283.0192820110923
 20
68.79570010694395
 30
0.0
 11
288.0192820110924
 21
68.79570010694395
 31
0.0
  0
MTEXT
  5
1A54
330
1542
100
AcDbEntity
  8
SUNPOU
100
AcDbMText
 10
258.5247677260654
 20
64.29570010694397
 30
0.0
 40
5.0
 41
0.0
 71
     5
 72
     1
  1
\A1;92.5
  7
SUNPOU
 11
-1.0
 21
0.0000000000000001
 31
0.0
1001
ACAD
1000
MTEXTBEGIN
1070
    73
1070
     1
1070
    44
1040
1.0
1070
    74
1070
     0
1000
MTEXTEND
1000
MTEXTBEGIN
1070
    73
1070
     1
1070
    44
1040
1.0
1070
    74
1070
     0
1000
MTEXTEND
  0
LINE
  5
1A55
330
1542
100
AcDbEntity
  8
SUNPOU
100
AcDbLine
 10
268.7692820110924
 20
68.79570010694395
 30
0.0
 11
278.0192820110924
 21
68.79570010694395
 31
0.0
  0
INSERT
  5
1A56
330
1542
100
AcDbEntity
  8
SUNPOU
100
AcDbBlockReference
  2
_OPEN30
 10
268.7692820110924
 20
68.79570010694395
 30
0.0
 41
5.0
 42
5.0
 43
5.0
  0
INSERT
  5
1A57
330
1542
100
AcDbEntity
  8
SUNPOU
100
AcDbBlockReference
  2
_OPEN30
 10
278.0192820110924
 20
68.79570010694395
 30
0.0
 41
5.0
 42
5.0
 43
5.0
 50
180.0
  0
POINT
  5
1A58
330
1542
100
AcDbEntity
  8
DEFPOINTS
 62
     0
100
AcDbPoint
 10
268.7692820110924
 20
79.29570010694397
 30
0.0
  0
POINT
  5
1A59
330
1542
100
AcDbEntity
  8
DEFPOINTS
 62
     0
100
AcDbPoint
 10
278.0192820110924
 20
76.79570010694397
 30
0.0
  0
POINT
  5
1A5A
330
1542
100
AcDbEntity
  8
DEFPOINTS
 62
     0
100
AcDbPoint
 10
278.0192820110924
 20
68.79570010694395
 30
0.0
  0
ENDBLK
  5
154F
330
1542
100
AcDbEntity
  8
0
100
AcDbBlockEnd
  0
BLOCK
  5
17D9
330
17CF
100
AcDbEntity
  8
0
100
AcDbBlockBegin
  2
*D34
 70
     1
 10
0.0
 20
0.0
 30
0.0
  3
*D34
  1

  0
LINE
  5
1A5B
330
17CF
100
AcDbEntity
  8
SUNPOU
100
AcDbLine
 10
281.1543046242874
 20
76.79570010694397
 30
0.0
 11
289.1692820110923
 21
76.79570010694395
 31
0.0
  0
LINE
  5
1A5C
330
17CF
100
AcDbEntity
  8
SUNPOU
100
AcDbLine
 10
281.3249071619569
 20
168.1957001069439
 30
0.0
 11
289.1692820110923
 21
168.1957001069439
 31
0.0
  0
LINE
  5
1A5D
330
17CF
100
AcDbEntity
  8
SUNPOU
100
AcDbLine
 10
287.1692820110922
 20
81.79570010694396
 30
0.0
 11
287.1692820110924
 21
163.1957001069439
 31
0.0
  0
INSERT
  5
1A5E
330
17CF
100
AcDbEntity
  8
SUNPOU
100
AcDbBlockReference
  2
_OPEN30
 10
287.1692820110922
 20
76.79570010694397
 30
0.0
 41
5.0
 42
5.0
 43
5.0
 50
270.0
  0
INSERT
  5
1A5F
330
17CF
100
AcDbEntity
  8
SUNPOU
100
AcDbBlockReference
  2
_OPEN30
 10
287.1692820110924
 20
168.1957001069439
 30
0.0
 41
5.0
 42
5.0
 43
5.0
 50
90.0
  0
MTEXT
  5
1A60
330
17CF
100
AcDbEntity
  8
SUNPOU
100
AcDbMText
 10
282.6692820110923
 20
122.495700106944
 30
0.0
 40
5.0
 41
0.0
 71
     5
 72
     1
  1
\A1;DW
  7
SUNPOU
 11
0.0000000000000001
 21
1.0
 31
0.0
1001
ACAD
1000
MTEXTBEGIN
1070
    73
1070
     1
1070
    44
1040
1.0
1070
    74
1070
     0
1000
MTEXTEND
1000
MTEXTBEGIN
1070
    73
1070
     1
1070
    44
1040
1.0
1070
    74
1070
     0
1000
MTEXTEND
  0
POINT
  5
1A61
330
17CF
100
AcDbEntity
  8
DEFPOINTS
 62
     0
100
AcDbPoint
 10
278.1543046242874
 20
76.79570010694397
 30
0.0
  0
POINT
  5
1A62
330
17CF
100
AcDbEntity
  8
DEFPOINTS
 62
     0
100
AcDbPoint
 10
278.3249071619569
 20
168.1957001069439
 30
0.0
  0
POINT
  5
1A63
330
17CF
100
AcDbEntity
  8
DEFPOINTS
 62
     0
100
AcDbPoint
 10
287.1692820110924
 20
168.1957001069439
 30
0.0
  0
ENDBLK
  5
17DA
330
17CF
100
AcDbEntity
  8
0
100
AcDbBlockEnd
  0
BLOCK
  5
17EF
330
17E5
100
AcDbEntity
  8
0
100
AcDbBlockBegin
  2
*D35
 70
     1
 10
0.0
 20
0.0
 30
0.0
  3
*D35
  1

  0
LINE
  5
1A26
330
17E5
100
AcDbEntity
  8
SUNPOU
100
AcDbLine
 10
63.76928201109238
 20
171.1957001069439
 30
0.0
 11
63.76928201109238
 21
185.1957001069438
 31
0.0
  0
LINE
  5
1A27
330
17E5
100
AcDbEntity
  8
SUNPOU
100
AcDbLine
 10
277.1692820110923
 20
171.1957001069439
 30
0.0
 11
277.1692820110923
 21
185.1957001069438
 31
0.0
  0
LINE
  5
1A28
330
17E5
100
AcDbEntity
  8
SUNPOU
100
AcDbLine
 10
68.7692820110924
 20
183.1957001069438
 30
0.0
 11
272.1692820110923
 21
183.1957001069438
 31
0.0
  0
MTEXT
  5
1A29
330
17E5
100
AcDbEntity
  8
SUNPOU
100
AcDbMText
 10
170.4692820110923
 20
178.6957001069438
 30
0.0
 40
5.0
 41
0.0
 71
     5
 72
     1
  1
\A1;DH
  7
SUNPOU
 11
-1.0
 21
0.0000000000000001
 31
0.0
1001
ACAD
1000
MTEXTBEGIN
1070
    73
1070
     1
1070
    44
1040
1.0
1070
    74
1070
     0
1000
MTEXTEND
1000
MTEXTBEGIN
1070
    73
1070
     1
1070
    44
1040
1.0
1070
    74
1070
     0
1000
MTEXTEND
  0
INSERT
  5
1A2A
330
17E5
100
AcDbEntity
  8
SUNPOU
100
AcDbBlockReference
  2
_OPEN30
 10
63.76928201109238
 20
183.1957001069438
 30
0.0
 41
5.0
 42
5.0
 43
5.0
 50
180.0
  0
INSERT
  5
1A2B
330
17E5
100
AcDbEntity
  8
SUNPOU
100
AcDbBlockReference
  2
_OPEN30
 10
277.1692820110923
 20
183.1957001069438
 30
0.0
 41
5.0
 42
5.0
 43
5.0
  0
POINT
  5
1A2C
330
17E5
100
AcDbEntity
  8
DEFPOINTS
 62
     0
100
AcDbPoint
 10
63.76928201109238
 20
168.1957001069439
 30
0.0
  0
POINT
  5
1A2D
330
17E5
100
AcDbEntity
  8
DEFPOINTS
 62
     0
100
AcDbPoint
 10
277.1692820110923
 20
168.1957001069439
 30
0.0
  0
POINT
  5
1A2E
330
17E5
100
AcDbEntity
  8
DEFPOINTS
 62
     0
100
AcDbPoint
 10
277.1692820110923
 20
183.1957001069438
 30
0.0
  0
ENDBLK
  5
17F0
330
17E5
100
AcDbEntity
  8
0
100
AcDbBlockEnd
  0
ENDSEC
  0
SECTION
  2
ENTITIES
  0
ARC
  5
350
330
A
100
AcDbEntity
  8
06
100
AcDbCircle
 10
358.8277770733163
 20
350.1945064374178
 30
0.0
 40
0.5
100
AcDbArc
 50
270.0000000000007
 51
359.9999999999998
  0
ARC
  5
351
330
A
100
AcDbEntity
  8
06
100
AcDbCircle
 10
358.8277770733163
 20
353.6945064374179
 30
0.0
 40
0.5
100
AcDbArc
 50
359.9999999999998
 51
90.0
  0
ARC
  5
355
330
A
100
AcDbEntity
  8
06
100
AcDbCircle
 10
355.8277770733163
 20
356.1945064374179
 30
0.0
 40
0.5
100
AcDbArc
 50
90.0
 51
179.9999999999988
  0
ARC
  5
35A
330
A
100
AcDbEntity
  8
06
100
AcDbCircle
 10
372.8277770733163
 20
350.1945064374178
 30
0.0
 40
0.5
100
AcDbArc
 50
180.0
 51
269.9999999999999
  0
ARC
  5
35C
330
A
100
AcDbEntity
  8
06
100
AcDbCircle
 10
372.8277770733163
 20
353.6945064374179
 30
0.0
 40
0.5
100
AcDbArc
 50
90.0
 51
179.9999999999998
  0
ARC
  5
35E
330
A
100
AcDbEntity
  8
06
100
AcDbCircle
 10
375.8277770733163
 20
356.1945064374179
 30
0.0
 40
0.5
100
AcDbArc
 50
359.999999999998
 51
90.0
  0
ARC
  5
360
330
A
100
AcDbEntity
  8
06
100
AcDbCircle
 10
371.3277770733163
 20
356.1945064374179
 30
0.0
 40
0.5
100
AcDbArc
 50
90.0
 51
180.0
  0
ARC
  5
362
330
A
100
AcDbEntity
  8
06
100
AcDbCircle
 10
369.8277770733163
 20
351.6945064374179
 30
0.0
 40
1.0
100
AcDbArc
 50
269.999999999999
 51
359.9999999999998
  0
ARC
  5
365
330
A
100
AcDbEntity
  8
06
100
AcDbCircle
 10
363.2131223896036
 20
360.4445064374181
 30
0.0
 40
0.75
100
AcDbArc
 50
90.0
 51
170.537677791974
  0
ARC
  5
366
330
A
100
AcDbEntity
  8
06
100
AcDbCircle
 10
361.4042135291248
 20
357.1945064374178
 30
0.0
 40
0.5
100
AcDbArc
 50
269.9999999999999
 51
350.5376777919745
  0
ARC
  5
368
330
A
100
AcDbEntity
  8
06
100
AcDbCircle
 10
366.2157906915333
 20
351.6945064374179
 30
0.0
 40
1.0
100
AcDbArc
 50
186.7889745744387
 51
269.9999999999999
  0
ARC
  5
369
330
A
100
AcDbEntity
  8
06
100
AcDbCircle
 10
363.4117668596536
 20
360.4445064374181
 30
0.0
 40
0.75
100
AcDbArc
 50
6.788974574438795
 51
97.6100149547252
  0
ARC
  5
36D
330
A
100
AcDbEntity
  8
06
100
AcDbCircle
 10
372.8737540848106
 20
363.1945064374178
 30
0.0
 40
0.5
100
AcDbArc
 50
90.0
 51
179.9999999999998
  0
ARC
  5
36E
330
A
100
AcDbEntity
  8
06
100
AcDbCircle
 10
372.8737540848106
 20
359.6945064374178
 30
0.0
 40
0.5
100
AcDbArc
 50
180.0000000000006
 51
269.9999999999999
  0
ARC
  5
372
330
A
100
AcDbEntity
  8
06
100
AcDbCircle
 10
375.8737540848105
 20
357.1945064374178
 30
0.0
 40
0.5
100
AcDbArc
 50
269.9999999999999
 51
359.9999999999983
  0
ARC
  5
377
330
A
100
AcDbEntity
  8
06
100
AcDbCircle
 10
358.8737540848106
 20
363.1945064374178
 30
0.0
 40
0.5
100
AcDbArc
 50
359.9999999999998
 51
89.99999999999992
  0
ARC
  5
379
330
A
100
AcDbEntity
  8
06
100
AcDbCircle
 10
358.8737540848106
 20
359.694506437418
 30
0.0
 40
0.5
100
AcDbArc
 50
269.9999999999999
 51
359.9999999999997
  0
ARC
  5
37B
330
A
100
AcDbEntity
  8
06
100
AcDbCircle
 10
355.8737540848103
 20
357.1945064374178
 30
0.0
 40
0.5
100
AcDbArc
 50
179.9999999999978
 51
269.9999999999999
  0
ARC
  5
37D
330
A
100
AcDbEntity
  8
06
100
AcDbCircle
 10
360.3737540848106
 20
357.1945064374178
 30
0.0
 40
0.5
100
AcDbArc
 50
269.9999999999999
 51
359.9999999999998
  0
ARC
  5
37F
330
A
100
AcDbEntity
  8
06
100
AcDbCircle
 10
361.8737540848107
 20
361.694506437418
 30
0.0
 40
1.0
100
AcDbArc
 50
89.99999999999872
 51
179.9999999999998
  0
ARC
  5
382
330
A
100
AcDbEntity
  8
06
100
AcDbCircle
 10
368.4884087685233
 20
352.9445064374178
 30
0.0
 40
0.75
100
AcDbArc
 50
269.9999999999999
 51
350.5376777919741
  0
ARC
  5
383
330
A
100
AcDbEntity
  8
06
100
AcDbCircle
 10
370.2973176290021
 20
356.1945064374179
 30
0.0
 40
0.5
100
AcDbArc
 50
90.0
 51
170.5376777919745
  0
ARC
  5
385
330
A
100
AcDbEntity
  8
06
100
AcDbCircle
 10
365.4857404665937
 20
361.6945064374178
 30
0.0
 40
1.0
100
AcDbArc
 50
6.788974574438692
 51
89.99999999999992
  0
ARC
  5
386
330
A
100
AcDbEntity
  8
06
100
AcDbCircle
 10
368.2897642984733
 20
352.9445064374178
 30
0.0
 40
0.75
100
AcDbArc
 50
186.7889745744387
 51
277.6100149547251
  0
ARC
  5
3B0
330
A
100
AcDbEntity
  8
06
100
AcDbCircle
 10
266.5144230769231
 20
446.9498268243213
 30
0.0
 40
0.5
100
AcDbArc
 50
359.9999999999951
 51
90.0
  0
ARC
  5
3B3
330
A
100
AcDbEntity
  8
06
100
AcDbCircle
 10
266.5144230769231
 20
452.4498268243215
 30
0.0
 40
0.5
100
AcDbArc
 50
269.9999999999999
 51
0.0000000000043965
  0
ARC
  5
3B7
330
A
100
AcDbEntity
  8
06
100
AcDbCircle
 10
259.5144230769229
 20
449.7190080242967
 30
0.0
 40
0.5
100
AcDbArc
 50
107.3540246362627
 51
179.9999999999764
  0
ARC
  5
3B9
330
A
100
AcDbEntity
  8
06
100
AcDbCircle
 10
259.5144230769231
 20
449.704198937687
 30
0.0
 40
0.5
100
AcDbArc
 50
179.9999999999784
 51
252.6459753637345
  0
ARC
  5
3BB
330
A
100
AcDbEntity
  8
06
100
AcDbCircle
 10
258.634570913288
 20
442.2241985656878
 30
0.0
 40
7.5
100
AcDbArc
 50
44.16686885306774
 51
71.49945832719542
  0
ARC
  5
3BC
330
A
100
AcDbEntity
  8
06
100
AcDbCircle
 10
258.6686620142953
 20
457.2103247723577
 30
0.0
 40
7.5
100
AcDbArc
 50
288.2261310017247
 51
315.4605876000506
  0
ARC
  5
3CB
330
A
100
AcDbEntity
  8
06
100
AcDbCircle
 10
273.014423076923
 20
347.8525420824552
 30
0.0
 40
0.5
100
AcDbArc
 50
269.9999999999963
 51
359.9999999999996
  0
ARC
  5
3CC
330
A
100
AcDbEntity
  8
06
100
AcDbCircle
 10
273.014423076923
 20
351.3525420824552
 30
0.0
 40
0.5
100
AcDbArc
 50
359.9999999999988
 51
90.0
  0
ARC
  5
3CE
330
A
100
AcDbEntity
  8
06
100
AcDbCircle
 10
270.0144230769233
 20
345.8525420824552
 30
0.0
 40
0.5
100
AcDbArc
 50
180.0000000000061
 51
269.9999999999999
  0
ARC
  5
3D0
330
A
100
AcDbEntity
  8
06
100
AcDbCircle
 10
290.0144230769228
 20
345.8525420824552
 30
0.0
 40
0.5
100
AcDbArc
 50
269.9999999999999
 51
359.9999999999967
  0
ARC
  5
3D1
330
A
100
AcDbEntity
  8
06
100
AcDbCircle
 10
287.0144230769231
 20
347.8525420824552
 30
0.0
 40
0.5
100
AcDbArc
 50
180.0
 51
269.9999999999973
  0
ARC
  5
3D2
330
A
100
AcDbEntity
  8
06
100
AcDbCircle
 10
287.0144230769227
 20
351.3525420824552
 30
0.0
 40
0.5
100
AcDbArc
 50
89.99999999999934
 51
180.0000000000004
  0
ARC
  5
3D4
330
A
100
AcDbEntity
  8
06
100
AcDbCircle
 10
285.0144230769227
 20
345.3525420824552
 30
0.0
 40
1.0
100
AcDbArc
 50
1.089776598848624
 51
269.7801583421028
  0
ARC
  5
3E7
330
A
100
AcDbEntity
  8
06
100
AcDbCircle
 10
275.0144230769229
 20
345.3525420824552
 30
0.0
 40
1.0
100
AcDbArc
 50
268.5608206497648
 51
182.1466053101533
  0
ARC
  5
3EA
330
A
100
AcDbEntity
  8
06
100
AcDbCircle
 10
278.0783834695643
 20
344.1007944977692
 30
0.0
 40
0.75
100
AcDbArc
 50
14.52922472886205
 51
119.999999999999
  0
ARC
  5
3EB
330
A
100
AcDbEntity
  8
06
100
AcDbCircle
 10
270.9342960580013
 20
341.4195293805633
 30
0.0
 40
0.5
100
AcDbArc
 50
119.9999999999999
 51
209.9999999999796
  0
ARC
  5
3EC
330
A
100
AcDbEntity
  8
06
100
AcDbCircle
 10
280.0144230769229
 20
344.6025420824552
 30
0.0
 40
1.25
100
AcDbArc
 50
194.5292247288625
 51
345.4707752711232
  0
ARC
  5
3ED
330
A
100
AcDbEntity
  8
06
100
AcDbCircle
 10
281.9504626842816
 20
344.1007944977688
 30
0.0
 40
0.75
100
AcDbArc
 50
60.00000000000343
 51
165.470775271123
  0
ARC
  5
3EE
330
A
100
AcDbEntity
  8
06
100
AcDbCircle
 10
270.9342960580016
 20
341.4195293805637
 30
0.0
 40
0.5
100
AcDbArc
 50
209.9999999999869
 51
299.999999999999
  0
ARC
  5
3F1
330
A
100
AcDbEntity
  8
06
100
AcDbCircle
 10
289.0945500958453
 20
341.4195293805628
 30
0.0
 40
0.5
100
AcDbArc
 50
240.0000000000033
 51
329.9999999999986
  0
ARC
  5
3F2
330
A
100
AcDbEntity
  8
06
100
AcDbCircle
 10
289.0945500958453
 20
341.4195293805628
 30
0.0
 40
0.5
100
AcDbArc
 50
330.0000000000341
 51
59.99999999999985
  0
ARC
  5
3F5
330
A
100
AcDbEntity
  8
06
100
AcDbCircle
 10
275.5274169250329
 20
347.8867827959401
 30
0.0
 40
0.5
100
AcDbArc
 50
180.0000000000003
 51
269.9999999999999
  0
ARC
  5
3F7
330
A
100
AcDbEntity
  8
06
100
AcDbCircle
 10
284.5274169250328
 20
347.8867827959401
 30
0.0
 40
0.5
100
AcDbArc
 50
269.9999999999999
 51
0.0000000000003997
  0
ARC
  5
3F9
330
A
100
AcDbEntity
  8
06
100
AcDbCircle
 10
284.5274169250328
 20
351.3867827959401
 30
0.0
 40
0.5
100
AcDbArc
 50
0.0000000000003422
 51
89.99999999999998
  0
ARC
  5
3FA
330
A
100
AcDbEntity
  8
06
100
AcDbCircle
 10
275.5274169250327
 20
351.3867827959401
 30
0.0
 40
0.5
100
AcDbArc
 50
89.99999999999998
 51
180.0000000000018
  0
ARC
  5
412
330
A
100
AcDbEntity
  8
06
100
AcDbCircle
 10
273.014423076923
 20
297.8525420824553
 30
0.0
 40
0.5
100
AcDbArc
 50
269.9999999999963
 51
359.9999999999996
  0
ARC
  5
413
330
A
100
AcDbEntity
  8
06
100
AcDbCircle
 10
273.014423076923
 20
301.3525420824553
 30
0.0
 40
0.5
100
AcDbArc
 50
359.9999999999988
 51
90.0
  0
ARC
  5
415
330
A
100
AcDbEntity
  8
06
100
AcDbCircle
 10
270.0144230769233
 20
295.8525420824553
 30
0.0
 40
0.5
100
AcDbArc
 50
180.0000000000061
 51
269.9999999999999
  0
ARC
  5
417
330
A
100
AcDbEntity
  8
06
100
AcDbCircle
 10
290.0144230769228
 20
295.8525420824553
 30
0.0
 40
0.5
100
AcDbArc
 50
269.9999999999999
 51
359.9999999999967
  0
ARC
  5
418
330
A
100
AcDbEntity
  8
06
100
AcDbCircle
 10
287.0144230769231
 20
297.8525420824553
 30
0.0
 40
0.5
100
AcDbArc
 50
180.0
 51
269.9999999999973
  0
ARC
  5
419
330
A
100
AcDbEntity
  8
06
100
AcDbCircle
 10
287.0144230769227
 20
301.3525420824553
 30
0.0
 40
0.5
100
AcDbArc
 50
89.99999999999934
 51
180.0000000000004
  0
ARC
  5
41B
330
A
100
AcDbEntity
  8
06
100
AcDbCircle
 10
285.0144230769227
 20
295.3525420824553
 30
0.0
 40
1.0
100
AcDbArc
 50
359.9999999999998
 51
269.7801583421028
  0
ARC
  5
42E
330
A
100
AcDbEntity
  8
06
100
AcDbCircle
 10
275.0144230769229
 20
295.3525420824553
 30
0.0
 40
1.0
100
AcDbArc
 50
268.5608206497648
 51
180.0
  0
ARC
  5
430
330
A
100
AcDbEntity
  8
06
100
AcDbCircle
 10
278.0783834695643
 20
294.1007944977693
 30
0.0
 40
0.75
100
AcDbArc
 50
14.52922472886205
 51
119.999999999999
  0
ARC
  5
431
330
A
100
AcDbEntity
  8
06
100
AcDbCircle
 10
280.0144230769229
 20
294.6025420824553
 30
0.0
 40
1.25
100
AcDbArc
 50
194.5292247288625
 51
345.4707752711232
  0
ARC
  5
432
330
A
100
AcDbEntity
  8
06
100
AcDbCircle
 10
281.9504626842816
 20
294.1007944977688
 30
0.0
 40
0.75
100
AcDbArc
 50
60.00000000000343
 51
165.470775271123
  0
ARC
  5
436
330
A
100
AcDbEntity
  8
06
100
AcDbCircle
 10
275.5274169250329
 20
297.8867827959401
 30
0.0
 40
0.5
100
AcDbArc
 50
180.0000000000003
 51
269.9999999999999
  0
ARC
  5
438
330
A
100
AcDbEntity
  8
06
100
AcDbCircle
 10
284.5274169250328
 20
297.8867827959401
 30
0.0
 40
0.5
100
AcDbArc
 50
269.9999999999999
 51
0.0000000000003997
  0
ARC
  5
43A
330
A
100
AcDbEntity
  8
06
100
AcDbCircle
 10
284.5274169250328
 20
301.3867827959401
 30
0.0
 40
0.5
100
AcDbArc
 50
0.0000000000003422
 51
89.99999999999998
  0
ARC
  5
43B
330
A
100
AcDbEntity
  8
06
100
AcDbCircle
 10
275.5274169250327
 20
301.3867827959401
 30
0.0
 40
0.5
100
AcDbArc
 50
89.99999999999998
 51
180.0000000000018
  0
ARC
  5
442
330
A
100
AcDbEntity
  8
06
100
AcDbCircle
 10
270.0487874921455
 20
293.8605315614592
 30
0.0
 40
0.5
100
AcDbArc
 50
89.99999999999998
 51
179.9999999999797
  0
ARC
  5
443
330
A
100
AcDbEntity
  8
06
100
AcDbCircle
 10
270.0487874921461
 20
293.8605315614592
 30
0.0
 40
0.5
100
AcDbArc
 50
179.9999999999869
 51
269.999999999999
  0
ARC
  5
446
330
A
100
AcDbEntity
  8
06
100
AcDbCircle
 10
289.999243498878
 20
293.8597562011624
 30
0.0
 40
0.5
100
AcDbArc
 50
270.0000000000035
 51
359.9999999999984
  0
ARC
  5
447
330
A
100
AcDbEntity
  8
06
100
AcDbCircle
 10
289.9992434988781
 20
293.8597562011624
 30
0.0
 40
0.5
100
AcDbArc
 50
0.0000000000342342
 51
89.99999999999989
  0
ARC
  5
461
330
A
100
AcDbEntity
  8
03
100
AcDbCircle
 10
99.12242163151674
 20
325.4195259368882
 30
0.0
 40
10.5
100
AcDbArc
 50
170.4059317731394
 51
189.5940682268603
  0
ARC
  5
462
330
A
100
AcDbEntity
  8
03
100
AcDbCircle
 10
99.12242163151674
 20
315.9195259368883
 30
0.0
 40
10.5
100
AcDbArc
 50
170.4059317731394
 51
189.5940682268603
  0
CIRCLE
  5
5A7
330
A
100
AcDbEntity
  8
03
100
AcDbCircle
 10
274.7692820110921
 20
161.4957001069439
 30
0.0
 40
1.5
  0
ARC
  5
621
330
A
100
AcDbEntity
  8
03
100
AcDbCircle
 10
146.7148555807914
 20
538.2583578579708
 30
0.0
 40
6.0
100
AcDbArc
 50
57.70172067489187
 51
98.74134618419102
  0
ARC
  5
622
330
A
100
AcDbEntity
  8
03
100
AcDbCircle
 10
159.6582244161538
 20
538.214584901901
 30
0.0
 40
6.0
100
AcDbArc
 50
84.67232686272419
 51
126.4021842305609
  0
ARC
  5
62C
330
A
100
AcDbEntity
  8
03
100
AcDbCircle
 10
54.51754929857961
 20
541.1177228438296
 30
0.0
 40
4.5
100
AcDbArc
 50
357.8641713743507
 51
39.00572627149396
  0
ARC
  5
62D
330
A
100
AcDbEntity
  8
03
100
AcDbCircle
 10
91.51129685526548
 20
541.1177228438305
 30
0.0
 40
4.5
100
AcDbArc
 50
140.9942737285008
 51
182.1358286256563
  0
ARC
  5
634
330
A
100
AcDbEntity
  8
03
100
AcDbCircle
 10
155.8403498229578
 20
229.5195259368882
 30
0.0
 40
7.5
100
AcDbArc
 50
160.5287793655093
 51
199.4712206344905
  0
ARC
  5
635
330
A
100
AcDbEntity
  8
03
100
AcDbCircle
 10
155.8403498229578
 20
240.519525936888
 30
0.0
 40
7.5
100
AcDbArc
 50
160.5287793655093
 51
199.4712206344905
  0
ARC
  5
636
330
A
100
AcDbEntity
  8
03
100
AcDbCircle
 10
249.2741757376883
 20
229.5195259368882
 30
0.0
 40
7.5
100
AcDbArc
 50
340.5287793655093
 51
19.47122063449064
  0
ARC
  5
637
330
A
100
AcDbEntity
  8
03
100
AcDbCircle
 10
249.2741757376883
 20
240.519525936888
 30
0.0
 40
7.5
100
AcDbArc
 50
340.5287793655091
 51
19.47122063449064
  0
ARC
  5
638
330
A
100
AcDbEntity
  8
03
100
AcDbCircle
 10
361.8277770733162
 20
326.3660793126716
 30
0.0
 40
3.0
100
AcDbArc
 50
70.52877936550792
 51
109.4712206344889
  0
ARC
  5
639
330
A
100
AcDbEntity
  8
03
100
AcDbCircle
 10
369.8277770733162
 20
326.3660793126716
 30
0.0
 40
3.0
100
AcDbArc
 50
70.52877936550752
 51
109.4712206344892
  0
ARC
  5
63A
330
A
100
AcDbEntity
  8
03
100
AcDbCircle
 10
361.8277770733162
 20
387.0229335621641
 30
0.0
 40
3.0
100
AcDbArc
 50
250.5287793655109
 51
289.4712206344919
  0
ARC
  5
63B
330
A
100
AcDbEntity
  8
03
100
AcDbCircle
 10
369.8277770733162
 20
387.0229335621641
 30
0.0
 40
3.0
100
AcDbArc
 50
250.5287793655104
 51
289.4712206344923
  0
ARC
  5
63C
330
A
100
AcDbEntity
  8
03
100
AcDbCircle
 10
276.0144230769229
 20
375.1809692072015
 30
0.0
 40
3.0
100
AcDbArc
 50
250.5287793655092
 51
289.4712206344907
  0
ARC
  5
63D
330
A
100
AcDbEntity
  8
03
100
AcDbCircle
 10
284.0144230769228
 20
375.1809692072015
 30
0.0
 40
3.0
100
AcDbArc
 50
250.528779365509
 51
289.4712206344903
  0
ARC
  5
63E
330
A
100
AcDbEntity
  8
03
100
AcDbCircle
 10
69.01442307692325
 20
464.5282539490676
 30
0.0
 40
3.0
100
AcDbArc
 50
250.5287793655082
 51
289.4712206344896
  0
ARC
  5
63F
330
A
100
AcDbEntity
  8
03
100
AcDbCircle
 10
77.01442307692324
 20
464.5282539490676
 30
0.0
 40
3.0
100
AcDbArc
 50
250.5287793655082
 51
289.4712206344896
  0
ARC
  5
640
330
A
100
AcDbEntity
  8
03
100
AcDbCircle
 10
149.0144230769231
 20
464.5282539490676
 30
0.0
 40
3.0
100
AcDbArc
 50
250.5287793655092
 51
289.4712206344906
  0
ARC
  5
641
330
A
100
AcDbEntity
  8
03
100
AcDbCircle
 10
157.0144230769231
 20
464.5282539490676
 30
0.0
 40
3.0
100
AcDbArc
 50
250.5287793655092
 51
289.4712206344906
  0
ARC
  5
642
330
A
100
AcDbEntity
  8
03
100
AcDbCircle
 10
239.0144230769231
 20
464.5282539490676
 30
0.0
 40
3.0
100
AcDbArc
 50
250.5287793655092
 51
289.4712206344906
  0
ARC
  5
643
330
A
100
AcDbEntity
  8
03
100
AcDbCircle
 10
247.0144230769231
 20
464.5282539490676
 30
0.0
 40
3.0
100
AcDbArc
 50
250.5287793655092
 51
289.4712206344905
  0
ARC
  5
644
330
A
100
AcDbEntity
  8
03
100
AcDbCircle
 10
239.0144230769231
 20
516.1215869785316
 30
0.0
 40
3.0
100
AcDbArc
 50
70.52877936550925
 51
109.4712206344905
  0
ARC
  5
645
330
A
100
AcDbEntity
  8
03
100
AcDbCircle
 10
247.0144230769232
 20
516.1215869785316
 30
0.0
 40
3.0
100
AcDbArc
 50
70.52877936550935
 51
109.4712206344907
  0
ARC
  5
646
330
A
100
AcDbEntity
  8
03
100
AcDbCircle
 10
276.0144230769231
 20
433.8713996995751
 30
0.0
 40
3.0
100
AcDbArc
 50
70.52877936550925
 51
109.4712206344905
  0
ARC
  5
647
330
A
100
AcDbEntity
  8
03
100
AcDbCircle
 10
284.0144230769231
 20
433.8713996995751
 30
0.0
 40
3.0
100
AcDbArc
 50
70.52877936550952
 51
109.4712206344909
  0
ARC
  5
661
330
A
100
AcDbEntity
  8
03
100
AcDbCircle
 10
276.0144230769229
 20
325.1809692072013
 30
0.0
 40
3.0
100
AcDbArc
 50
250.5287793655092
 51
289.4712206344907
  0
ARC
  5
662
330
A
100
AcDbEntity
  8
03
100
AcDbCircle
 10
284.0144230769228
 20
325.1809692072013
 30
0.0
 40
3.0
100
AcDbArc
 50
250.528779365509
 51
289.4712206344903
  0
ARC
  5
674
330
A
100
AcDbEntity
  8
04
100
AcDbCircle
 10
88.26928201109241
 20
334.1695259368883
 30
0.0
 40
0.5
100
AcDbArc
 50
359.9999999999998
 51
90.0
  0
ARC
  5
676
330
A
100
AcDbEntity
  8
04
100
AcDbCircle
 10
88.26928201109241
 20
307.1695259368883
 30
0.0
 40
0.5
100
AcDbArc
 50
269.9999999999999
 51
359.9999999999998
  0
ARC
  5
689
330
A
100
AcDbEntity
  8
04
100
AcDbCircle
 10
148.0192820110923
 20
248.769525936888
 30
0.0
 40
0.75
100
AcDbArc
 50
0.0000000000003422
 51
90.0
  0
ARC
  5
68B
330
A
100
AcDbEntity
  8
04
100
AcDbCircle
 10
148.0192820110924
 20
221.2695259368882
 30
0.0
 40
0.75
100
AcDbArc
 50
269.9999999999999
 51
0.0000000000008793
  0
ARC
  5
695
330
A
100
AcDbEntity
  8
04
100
AcDbCircle
 10
257.0952435495539
 20
248.769525936888
 30
0.0
 40
0.75
100
AcDbArc
 50
90.0
 51
179.9999999999999
  0
ARC
  5
698
330
A
100
AcDbEntity
  8
04
100
AcDbCircle
 10
257.0952435495539
 20
221.2695259368882
 30
0.0
 40
0.75
100
AcDbArc
 50
180.0000000000003
 51
269.9999999999999
  0
ARC
  5
6A9
330
A
100
AcDbEntity
  8
SOUZOU
100
AcDbCircle
 10
145.264423076923
 20
544.7000141032779
 30
0.0
 40
0.75
100
AcDbArc
 50
269.9999999999999
 51
359.9999999999998
  0
ARC
  5
6AC
330
A
100
AcDbEntity
  8
SOUZOU
100
AcDbCircle
 10
160.7644230769233
 20
544.7000141032779
 30
0.0
 40
0.75
100
AcDbArc
 50
180.0
 51
269.9999999999999
  0
ARC
  5
6B0
330
A
100
AcDbEntity
  8
SOUZOU
100
AcDbCircle
 10
145.264423076923
 20
559.7000141032776
 30
0.0
 40
0.75
100
AcDbArc
 50
90.0
 51
180.0000000000001
  0
ARC
  5
6B4
330
A
100
AcDbEntity
  8
SOUZOU
100
AcDbCircle
 10
160.764423076923
 20
561.2000141032775
 30
0.0
 40
0.75
100
AcDbArc
 50
0.0000000000000877
 51
90.0
  0
TEXT
  5
876
330
A
100
AcDbEntity
  8
MOJI
100
AcDbText
 10
63.5001569868888
 20
370.1326651192234
 30
0.0
 40
7.0
  1
Ｃタイプ納まり
 50
90.0
 41
0.8
  7
0_8
 11
63.5001569868888
 21
370.1326651192234
 31
0.0
100
AcDbText
 73
     1
  0
TEXT
  5
877
330
A
100
AcDbEntity
  8
MOJI
100
AcDbText
 10
143.9109482347459
 20
370.1326651192236
 30
0.0
 40
7.0
  1
Ｂタイプ納まり
 50
90.0
 41
0.8
  7
0_8
 11
143.9109482347459
 21
370.1326651192236
 31
0.0
100
AcDbText
 73
     1
  0
TEXT
  5
878
330
A
100
AcDbEntity
  8
MOJI
100
AcDbText
 10
233.3130639433099
 20
370.1326651192234
 30
0.0
 40
7.0
  1
Ａタイプ納まり
 50
90.0
 41
0.8
  7
0_8
 11
233.3130639433099
 21
370.1326651192234
 31
0.0
100
AcDbText
 73
     1
  0
TEXT
  5
88B
330
A
100
AcDbEntity
  8
MOJI
100
AcDbText
 10
227.6026153444262
 20
97.07801175263686
 30
0.0
 40
6.0
  1
強化ガラス
 50
90.0
 41
0.8
  7
0_8
 11
227.6026153444262
 21
97.07801175263686
 31
0.0
100
AcDbText
 73
     1
  0
TEXT
  5
88C
330
A
100
AcDbEntity
  8
MOJI
100
AcDbText
 10
236.4692820110922
 20
96.49411208144691
 30
0.0
 40
6.0
  1
6mm,8mm,10mm
 50
90.0
 41
0.8
  7
0_8
 11
236.4692820110922
 21
96.49411208144691
 31
0.0
100
AcDbText
 73
     1
  0
LINE
  5
B70
330
A
100
AcDbEntity
  8
04
100
AcDbLine
 10
285.0144230769227
 20
322.3525420824553
 30
0.0
 11
296.014423076923
 21
322.3525420824553
 31
0.0
  0
LINE
  5
B71
330
A
100
AcDbEntity
  8
04
100
AcDbLine
 10
294.514423076923
 20
320.8525420824553
 30
0.0
 11
285.0144230769227
 21
320.8525420824553
 31
0.0
  0
LINE
  5
B72
330
A
100
AcDbEntity
  8
04
100
AcDbLine
 10
294.514423076923
 20
298.8525420824553
 30
0.0
 11
294.514423076923
 21
320.8525420824553
 31
0.0
  0
LINE
  5
B73
330
A
100
AcDbEntity
  8
04
100
AcDbLine
 10
287.0144230769227
 20
298.8525420824553
 30
0.0
 11
294.514423076923
 21
298.8525420824553
 31
0.0
  0
LINE
  5
B74
330
A
100
AcDbEntity
  8
04
100
AcDbLine
 10
296.014423076923
 20
297.3525420824553
 30
0.0
 11
287.0144230769227
 21
297.3525420824553
 31
0.0
  0
LINE
  5
B75
330
A
100
AcDbEntity
  8
04
100
AcDbLine
 10
296.014423076923
 20
322.3525420824553
 30
0.0
 11
296.014423076923
 21
297.3525420824553
 31
0.0
  0
LINE
  5
B76
330
A
100
AcDbEntity
  8
04
100
AcDbLine
 10
275.0144230769229
 20
322.3525420824553
 30
0.0
 11
264.0144230769229
 21
322.3525420824553
 31
0.0
  0
LINE
  5
B77
330
A
100
AcDbEntity
  8
04
100
AcDbLine
 10
265.5144230769229
 20
320.8525420824553
 30
0.0
 11
275.0144230769229
 21
320.8525420824553
 31
0.0
  0
LINE
  5
B78
330
A
100
AcDbEntity
  8
04
100
AcDbLine
 10
265.5144230769229
 20
298.8525420824553
 30
0.0
 11
265.5144230769229
 21
320.8525420824553
 31
0.0
  0
LINE
  5
B79
330
A
100
AcDbEntity
  8
04
100
AcDbLine
 10
273.014423076923
 20
298.8525420824553
 30
0.0
 11
265.5144230769229
 21
298.8525420824553
 31
0.0
  0
LINE
  5
B7A
330
A
100
AcDbEntity
  8
04
100
AcDbLine
 10
264.0144230769229
 20
297.3525420824553
 30
0.0
 11
273.014423076923
 21
297.3525420824553
 31
0.0
  0
LINE
  5
B7B
330
A
100
AcDbEntity
  8
04
100
AcDbLine
 10
264.0144230769229
 20
322.3525420824553
 30
0.0
 11
264.0144230769229
 21
297.3525420824553
 31
0.0
  0
LINE
  5
B7C
330
A
100
AcDbEntity
  8
04
100
AcDbLine
 10
66.01442307692318
 20
438.1998268243215
 30
0.0
 11
80.01442307692313
 21
438.1998268243215
 31
0.0
  0
LINE
  5
B7D
330
A
100
AcDbEntity
  8
04
100
AcDbLine
 10
66.01442307692311
 20
436.6998268243214
 30
0.0
 11
80.01442307692313
 21
436.6998268243214
 31
0.0
  0
LINE
  5
B9A
330
A
100
AcDbEntity
  8
04
100
AcDbLine
 10
78.01442307692319
 20
461.6998268243214
 30
0.0
 11
89.01442307692319
 21
461.6998268243214
 31
0.0
  0
LINE
  5
B9B
330
A
100
AcDbEntity
  8
04
100
AcDbLine
 10
87.51442307692318
 20
460.1998268243216
 30
0.0
 11
78.01442307692319
 21
460.1998268243216
 31
0.0
  0
LINE
  5
B9C
330
A
100
AcDbEntity
  8
04
100
AcDbLine
 10
87.51442307692313
 20
438.1998268243215
 30
0.0
 11
87.51442307692318
 21
460.1998268243216
 31
0.0
  0
LINE
  5
B9D
330
A
100
AcDbEntity
  8
04
100
AcDbLine
 10
80.01442307692313
 20
438.1998268243215
 30
0.0
 11
87.51442307692313
 21
438.1998268243215
 31
0.0
  0
LINE
  5
B9E
330
A
100
AcDbEntity
  8
04
100
AcDbLine
 10
89.01442307692311
 20
436.6998268243214
 30
0.0
 11
80.01442307692313
 21
436.6998268243214
 31
0.0
  0
LINE
  5
B9F
330
A
100
AcDbEntity
  8
04
100
AcDbLine
 10
89.01442307692319
 20
461.6998268243214
 30
0.0
 11
89.01442307692311
 21
436.6998268243214
 31
0.0
  0
LINE
  5
BA0
330
A
100
AcDbEntity
  8
04
100
AcDbLine
 10
68.01442307692318
 20
461.6998268243214
 30
0.0
 11
57.01442307692317
 21
461.6998268243214
 31
0.0
  0
LINE
  5
BA1
330
A
100
AcDbEntity
  8
04
100
AcDbLine
 10
58.51442307692318
 20
460.1998268243216
 30
0.0
 11
68.01442307692318
 21
460.1998268243216
 31
0.0
  0
LINE
  5
BA2
330
A
100
AcDbEntity
  8
04
100
AcDbLine
 10
58.51442307692318
 20
438.1998268243215
 30
0.0
 11
58.51442307692318
 21
460.1998268243216
 31
0.0
  0
LINE
  5
BA3
330
A
100
AcDbEntity
  8
04
100
AcDbLine
 10
66.01442307692318
 20
438.1998268243215
 30
0.0
 11
58.51442307692318
 21
438.1998268243215
 31
0.0
  0
LINE
  5
BA4
330
A
100
AcDbEntity
  8
04
100
AcDbLine
 10
57.01442307692311
 20
436.6998268243214
 30
0.0
 11
66.01442307692311
 21
436.6998268243214
 31
0.0
  0
LINE
  5
BA5
330
A
100
AcDbEntity
  8
04
100
AcDbLine
 10
57.01442307692317
 20
461.6998268243214
 30
0.0
 11
57.01442307692311
 21
436.6998268243214
 31
0.0
  0
LINE
  5
BA6
330
A
100
AcDbEntity
  8
04
100
AcDbLine
 10
146.014423076923
 20
438.1998268243215
 30
0.0
 11
160.0144230769231
 21
438.1998268243215
 31
0.0
  0
LINE
  5
BA7
330
A
100
AcDbEntity
  8
04
100
AcDbLine
 10
146.014423076923
 20
436.6998268243214
 30
0.0
 11
160.0144230769231
 21
436.6998268243214
 31
0.0
  0
LINE
  5
BC4
330
A
100
AcDbEntity
  8
04
100
AcDbLine
 10
158.0144230769231
 20
461.6998268243214
 30
0.0
 11
169.014423076923
 21
461.6998268243214
 31
0.0
  0
LINE
  5
BC5
330
A
100
AcDbEntity
  8
04
100
AcDbLine
 10
167.514423076923
 20
460.1998268243216
 30
0.0
 11
158.0144230769231
 21
460.1998268243216
 31
0.0
  0
LINE
  5
BC6
330
A
100
AcDbEntity
  8
04
100
AcDbLine
 10
167.514423076923
 20
438.1998268243215
 30
0.0
 11
167.514423076923
 21
460.1998268243216
 31
0.0
  0
LINE
  5
BC7
330
A
100
AcDbEntity
  8
04
100
AcDbLine
 10
160.0144230769231
 20
438.1998268243215
 30
0.0
 11
167.514423076923
 21
438.1998268243215
 31
0.0
  0
LINE
  5
BC8
330
A
100
AcDbEntity
  8
04
100
AcDbLine
 10
169.014423076923
 20
436.6998268243214
 30
0.0
 11
160.0144230769231
 21
436.6998268243214
 31
0.0
  0
LINE
  5
BC9
330
A
100
AcDbEntity
  8
04
100
AcDbLine
 10
169.014423076923
 20
461.6998268243214
 30
0.0
 11
169.014423076923
 21
436.6998268243214
 31
0.0
  0
LINE
  5
BCA
330
A
100
AcDbEntity
  8
04
100
AcDbLine
 10
148.014423076923
 20
461.6998268243214
 30
0.0
 11
137.014423076923
 21
461.6998268243214
 31
0.0
  0
LINE
  5
BCB
330
A
100
AcDbEntity
  8
04
100
AcDbLine
 10
138.514423076923
 20
460.1998268243216
 30
0.0
 11
148.014423076923
 21
460.1998268243216
 31
0.0
  0
LINE
  5
BCC
330
A
100
AcDbEntity
  8
04
100
AcDbLine
 10
138.514423076923
 20
438.1998268243215
 30
0.0
 11
138.514423076923
 21
460.1998268243216
 31
0.0
  0
LINE
  5
BCD
330
A
100
AcDbEntity
  8
04
100
AcDbLine
 10
146.014423076923
 20
438.1998268243215
 30
0.0
 11
138.514423076923
 21
438.1998268243215
 31
0.0
  0
LINE
  5
BCE
330
A
100
AcDbEntity
  8
04
100
AcDbLine
 10
137.014423076923
 20
436.6998268243214
 30
0.0
 11
146.014423076923
 21
436.6998268243214
 31
0.0
  0
LINE
  5
BCF
330
A
100
AcDbEntity
  8
04
100
AcDbLine
 10
137.014423076923
 20
461.6998268243214
 30
0.0
 11
137.014423076923
 21
436.6998268243214
 31
0.0
  0
LINE
  5
BD0
330
A
100
AcDbEntity
  8
04
100
AcDbLine
 10
236.0144230769229
 20
542.4500141032779
 30
0.0
 11
250.0144230769229
 21
542.4500141032779
 31
0.0
  0
LINE
  5
BD1
330
A
100
AcDbEntity
  8
04
100
AcDbLine
 10
236.0144230769229
 20
543.9500141032779
 30
0.0
 11
250.0144230769229
 21
543.9500141032779
 31
0.0
  0
LINE
  5
BED
330
A
100
AcDbEntity
  8
04
100
AcDbLine
 10
248.014423076923
 20
518.9500141032779
 30
0.0
 11
259.0144230769229
 21
518.9500141032779
 31
0.0
  0
LINE
  5
BEE
330
A
100
AcDbEntity
  8
04
100
AcDbLine
 10
257.5144230769231
 20
520.4500141032779
 30
0.0
 11
248.014423076923
 21
520.4500141032779
 31
0.0
  0
LINE
  5
BEF
330
A
100
AcDbEntity
  8
04
100
AcDbLine
 10
257.5144230769231
 20
542.4500141032779
 30
0.0
 11
257.5144230769231
 21
520.4500141032779
 31
0.0
  0
LINE
  5
BF0
330
A
100
AcDbEntity
  8
04
100
AcDbLine
 10
250.0144230769229
 20
542.4500141032779
 30
0.0
 11
257.5144230769231
 21
542.4500141032779
 31
0.0
  0
LINE
  5
BF1
330
A
100
AcDbEntity
  8
04
100
AcDbLine
 10
259.0144230769229
 20
543.9500141032779
 30
0.0
 11
250.0144230769229
 21
543.9500141032779
 31
0.0
  0
LINE
  5
BF2
330
A
100
AcDbEntity
  8
04
100
AcDbLine
 10
259.0144230769229
 20
518.9500141032779
 30
0.0
 11
259.0144230769229
 21
543.9500141032779
 31
0.0
  0
LINE
  5
BF3
330
A
100
AcDbEntity
  8
04
100
AcDbLine
 10
238.0144230769229
 20
518.9500141032779
 30
0.0
 11
227.0144230769229
 21
518.9500141032779
 31
0.0
  0
LINE
  5
BF4
330
A
100
AcDbEntity
  8
04
100
AcDbLine
 10
228.5144230769232
 20
520.4500141032779
 30
0.0
 11
238.0144230769229
 21
520.4500141032779
 31
0.0
  0
LINE
  5
BF5
330
A
100
AcDbEntity
  8
04
100
AcDbLine
 10
228.5144230769232
 20
542.4500141032779
 30
0.0
 11
228.5144230769232
 21
520.4500141032779
 31
0.0
  0
LINE
  5
BF6
330
A
100
AcDbEntity
  8
04
100
AcDbLine
 10
236.0144230769229
 20
542.4500141032779
 30
0.0
 11
228.5144230769232
 21
542.4500141032779
 31
0.0
  0
LINE
  5
BF7
330
A
100
AcDbEntity
  8
04
100
AcDbLine
 10
227.0144230769229
 20
543.9500141032779
 30
0.0
 11
236.0144230769229
 21
543.9500141032779
 31
0.0
  0
LINE
  5
BF8
330
A
100
AcDbEntity
  8
04
100
AcDbLine
 10
227.0144230769229
 20
518.9500141032779
 30
0.0
 11
227.0144230769229
 21
543.9500141032779
 31
0.0
  0
LINE
  5
BF9
330
A
100
AcDbEntity
  8
04
100
AcDbLine
 10
236.0144230769229
 20
438.1998268243215
 30
0.0
 11
250.0144230769229
 21
438.1998268243215
 31
0.0
  0
LINE
  5
BFA
330
A
100
AcDbEntity
  8
04
100
AcDbLine
 10
236.0144230769229
 20
436.6998268243214
 30
0.0
 11
250.0144230769229
 21
436.6998268243214
 31
0.0
  0
LINE
  5
C15
330
A
100
AcDbEntity
  8
04
100
AcDbLine
 10
248.014423076923
 20
461.6998268243214
 30
0.0
 11
259.0144230769229
 21
461.6998268243214
 31
0.0
  0
LINE
  5
C16
330
A
100
AcDbEntity
  8
04
100
AcDbLine
 10
257.5144230769231
 20
460.1998268243216
 30
0.0
 11
248.014423076923
 21
460.1998268243216
 31
0.0
  0
LINE
  5
C17
330
A
100
AcDbEntity
  8
04
100
AcDbLine
 10
257.5144230769231
 20
438.1998268243215
 30
0.0
 11
257.5144230769231
 21
460.1998268243216
 31
0.0
  0
LINE
  5
C18
330
A
100
AcDbEntity
  8
04
100
AcDbLine
 10
250.0144230769229
 20
438.1998268243215
 30
0.0
 11
257.5144230769231
 21
438.1998268243215
 31
0.0
  0
LINE
  5
C19
330
A
100
AcDbEntity
  8
04
100
AcDbLine
 10
259.0144230769229
 20
436.6998268243214
 30
0.0
 11
250.0144230769229
 21
436.6998268243214
 31
0.0
  0
LINE
  5
C1A
330
A
100
AcDbEntity
  8
04
100
AcDbLine
 10
259.0144230769229
 20
461.6998268243214
 30
0.0
 11
259.0144230769229
 21
436.6998268243214
 31
0.0
  0
LINE
  5
C1B
330
A
100
AcDbEntity
  8
04
100
AcDbLine
 10
238.0144230769229
 20
461.6998268243214
 30
0.0
 11
227.0144230769229
 21
461.6998268243214
 31
0.0
  0
LINE
  5
C1C
330
A
100
AcDbEntity
  8
04
100
AcDbLine
 10
228.5144230769231
 20
460.1998268243216
 30
0.0
 11
238.0144230769229
 21
460.1998268243216
 31
0.0
  0
LINE
  5
C1D
330
A
100
AcDbEntity
  8
04
100
AcDbLine
 10
228.5144230769231
 20
438.1998268243215
 30
0.0
 11
228.5144230769231
 21
460.1998268243216
 31
0.0
  0
LINE
  5
C1E
330
A
100
AcDbEntity
  8
04
100
AcDbLine
 10
236.0144230769229
 20
438.1998268243215
 30
0.0
 11
228.5144230769231
 21
438.1998268243215
 31
0.0
  0
LINE
  5
C1F
330
A
100
AcDbEntity
  8
04
100
AcDbLine
 10
227.0144230769229
 20
436.6998268243214
 30
0.0
 11
236.0144230769229
 21
436.6998268243214
 31
0.0
  0
LINE
  5
C20
330
A
100
AcDbEntity
  8
04
100
AcDbLine
 10
227.0144230769229
 20
461.6998268243214
 30
0.0
 11
227.0144230769229
 21
436.6998268243214
 31
0.0
  0
LINE
  5
C21
330
A
100
AcDbEntity
  8
04
100
AcDbLine
 10
273.014423076923
 20
348.8525420824552
 30
0.0
 11
273.014423076923
 21
347.3525420824552
 31
0.0
  0
LINE
  5
C24
330
A
100
AcDbEntity
  8
06
100
AcDbLine
 10
289.5144230769228
 20
353.8525420824552
 30
0.0
 11
270.5144230769229
 21
353.8525420824552
 31
0.0
  0
LINE
  5
C27
330
A
100
AcDbEntity
  8
04
100
AcDbLine
 10
287.0144230769227
 20
348.8525420824552
 30
0.0
 11
287.0144230769227
 21
347.3525420824552
 31
0.0
  0
LINE
  5
C47
330
A
100
AcDbEntity
  8
04
100
AcDbLine
 10
294.514423076923
 20
438.1998268243215
 30
0.0
 11
285.0144230769231
 21
438.1998268243215
 31
0.0
  0
LINE
  5
C48
330
A
100
AcDbEntity
  8
04
100
AcDbLine
 10
294.5144230769231
 20
460.1998268243215
 30
0.0
 11
294.514423076923
 21
438.1998268243215
 31
0.0
  0
LINE
  5
C49
330
A
100
AcDbEntity
  8
04
100
AcDbLine
 10
265.5144230769229
 20
460.1998268243216
 30
0.0
 11
294.5144230769231
 21
460.1998268243215
 31
0.0
  0
LINE
  5
C4A
330
A
100
AcDbEntity
  8
04
100
AcDbLine
 10
265.5144230769229
 20
452.1998268243216
 30
0.0
 11
265.5144230769229
 21
460.1998268243216
 31
0.0
  0
LINE
  5
C4B
330
A
100
AcDbEntity
  8
04
100
AcDbLine
 10
265.5144230769229
 20
438.1998268243215
 30
0.0
 11
265.5144230769229
 21
447.1998268243216
 31
0.0
  0
LINE
  5
C4C
330
A
100
AcDbEntity
  8
04
100
AcDbLine
 10
275.0144230769229
 20
438.1998268243215
 30
0.0
 11
265.5144230769229
 21
438.1998268243215
 31
0.0
  0
LINE
  5
C4D
330
A
100
AcDbEntity
  8
04
100
AcDbLine
 10
296.014423076923
 20
436.6998268243214
 30
0.0
 11
285.0144230769231
 21
436.6998268243214
 31
0.0
  0
LINE
  5
C4E
330
A
100
AcDbEntity
  8
04
100
AcDbLine
 10
296.0144230769231
 20
461.6998268243214
 30
0.0
 11
296.014423076923
 21
436.6998268243214
 31
0.0
  0
LINE
  5
C4F
330
A
100
AcDbEntity
  8
04
100
AcDbLine
 10
264.0144230769231
 20
461.6998268243214
 30
0.0
 11
296.0144230769231
 21
461.6998268243214
 31
0.0
  0
LINE
  5
C50
330
A
100
AcDbEntity
  8
04
100
AcDbLine
 10
264.0144230769231
 20
452.1998268243216
 30
0.0
 11
264.0144230769231
 21
461.6998268243214
 31
0.0
  0
LINE
  5
C51
330
A
100
AcDbEntity
  8
04
100
AcDbLine
 10
264.0144230769231
 20
436.6998268243214
 30
0.0
 11
264.0144230769231
 21
447.1998268243216
 31
0.0
  0
LINE
  5
C52
330
A
100
AcDbEntity
  8
04
100
AcDbLine
 10
275.0144230769229
 20
436.6998268243214
 30
0.0
 11
264.0144230769231
 21
436.6998268243214
 31
0.0
  0
LINE
  5
C60
330
A
100
AcDbEntity
  8
04
100
AcDbLine
 10
285.0144230769227
 20
372.3525420824552
 30
0.0
 11
296.014423076923
 21
372.3525420824552
 31
0.0
  0
LINE
  5
C61
330
A
100
AcDbEntity
  8
04
100
AcDbLine
 10
294.514423076923
 20
370.8525420824552
 30
0.0
 11
285.0144230769227
 21
370.8525420824552
 31
0.0
  0
LINE
  5
C62
330
A
100
AcDbEntity
  8
04
100
AcDbLine
 10
294.514423076923
 20
348.8525420824552
 30
0.0
 11
294.514423076923
 21
370.8525420824552
 31
0.0
  0
LINE
  5
C63
330
A
100
AcDbEntity
  8
04
100
AcDbLine
 10
287.0144230769227
 20
348.8525420824552
 30
0.0
 11
294.514423076923
 21
348.8525420824552
 31
0.0
  0
LINE
  5
C64
330
A
100
AcDbEntity
  8
04
100
AcDbLine
 10
296.014423076923
 20
347.3525420824552
 30
0.0
 11
287.0144230769227
 21
347.3525420824552
 31
0.0
  0
LINE
  5
C65
330
A
100
AcDbEntity
  8
04
100
AcDbLine
 10
296.014423076923
 20
372.3525420824552
 30
0.0
 11
296.014423076923
 21
347.3525420824552
 31
0.0
  0
LINE
  5
C66
330
A
100
AcDbEntity
  8
04
100
AcDbLine
 10
275.0144230769229
 20
372.3525420824552
 30
0.0
 11
264.0144230769229
 21
372.3525420824552
 31
0.0
  0
LINE
  5
C67
330
A
100
AcDbEntity
  8
04
100
AcDbLine
 10
265.5144230769229
 20
370.8525420824552
 30
0.0
 11
275.0144230769229
 21
370.8525420824552
 31
0.0
  0
LINE
  5
C68
330
A
100
AcDbEntity
  8
04
100
AcDbLine
 10
265.5144230769229
 20
348.8525420824552
 30
0.0
 11
265.5144230769229
 21
370.8525420824552
 31
0.0
  0
LINE
  5
C69
330
A
100
AcDbEntity
  8
04
100
AcDbLine
 10
273.014423076923
 20
348.8525420824552
 30
0.0
 11
265.5144230769229
 21
348.8525420824552
 31
0.0
  0
LINE
  5
C6A
330
A
100
AcDbEntity
  8
04
100
AcDbLine
 10
264.0144230769229
 20
347.3525420824552
 30
0.0
 11
273.014423076923
 21
347.3525420824552
 31
0.0
  0
LINE
  5
C6B
330
A
100
AcDbEntity
  8
04
100
AcDbLine
 10
264.0144230769229
 20
372.3525420824552
 30
0.0
 11
264.0144230769229
 21
347.3525420824552
 31
0.0
  0
LINE
  5
CAD
330
A
100
AcDbEntity
  8
04
100
AcDbLine
 10
372.8277770733163
 20
360.694506437418
 30
0.0
 11
372.8277770733163
 21
359.194506437418
 31
0.0
  0
LINE
  5
CAE
330
A
100
AcDbEntity
  8
04
100
AcDbLine
 10
380.3277770733163
 20
360.694506437418
 30
0.0
 11
372.8277770733163
 21
360.694506437418
 31
0.0
  0
LINE
  5
CAF
330
A
100
AcDbEntity
  8
04
100
AcDbLine
 10
380.3277770733163
 20
382.694506437418
 30
0.0
 11
380.3277770733163
 21
360.694506437418
 31
0.0
  0
LINE
  5
CB0
330
A
100
AcDbEntity
  8
04
100
AcDbLine
 10
370.8277770733163
 20
382.694506437418
 30
0.0
 11
380.3277770733163
 21
382.694506437418
 31
0.0
  0
LINE
  5
CB1
330
A
100
AcDbEntity
  8
04
100
AcDbLine
 10
351.3277770733163
 20
382.694506437418
 30
0.0
 11
360.8277770733163
 21
382.694506437418
 31
0.0
  0
LINE
  5
CB2
330
A
100
AcDbEntity
  8
04
100
AcDbLine
 10
351.3277770733163
 20
360.694506437418
 30
0.0
 11
351.3277770733163
 21
382.694506437418
 31
0.0
  0
LINE
  5
CB3
330
A
100
AcDbEntity
  8
04
100
AcDbLine
 10
358.8277770733163
 20
360.694506437418
 30
0.0
 11
351.3277770733163
 21
360.694506437418
 31
0.0
  0
LINE
  5
CB4
330
A
100
AcDbEntity
  8
04
100
AcDbLine
 10
358.8277770733163
 20
359.194506437418
 30
0.0
 11
358.8277770733163
 21
360.694506437418
 31
0.0
  0
LINE
  5
CB5
330
A
100
AcDbEntity
  8
04
100
AcDbLine
 10
349.8277770733163
 20
359.194506437418
 30
0.0
 11
358.8277770733163
 21
359.194506437418
 31
0.0
  0
LINE
  5
CB6
330
A
100
AcDbEntity
  8
04
100
AcDbLine
 10
349.8277770733163
 20
384.194506437418
 30
0.0
 11
349.8277770733163
 21
359.194506437418
 31
0.0
  0
LINE
  5
CB7
330
A
100
AcDbEntity
  8
04
100
AcDbLine
 10
360.8277770733163
 20
384.194506437418
 30
0.0
 11
349.8277770733163
 21
384.194506437418
 31
0.0
  0
LINE
  5
CB8
330
A
100
AcDbEntity
  8
04
100
AcDbLine
 10
381.8277770733163
 20
384.194506437418
 30
0.0
 11
370.8277770733163
 21
384.194506437418
 31
0.0
  0
LINE
  5
CB9
330
A
100
AcDbEntity
  8
04
100
AcDbLine
 10
381.8277770733163
 20
359.194506437418
 30
0.0
 11
381.8277770733163
 21
384.194506437418
 31
0.0
  0
LINE
  5
CBA
330
A
100
AcDbEntity
  8
04
100
AcDbLine
 10
372.8277770733163
 20
359.194506437418
 30
0.0
 11
381.8277770733163
 21
359.194506437418
 31
0.0
  0
LINE
  5
CCE
330
A
100
AcDbEntity
  8
04
100
AcDbLine
 10
370.8277770733163
 20
329.1945064374178
 30
0.0
 11
381.8277770733163
 21
329.1945064374178
 31
0.0
  0
LINE
  5
CCF
330
A
100
AcDbEntity
  8
04
100
AcDbLine
 10
380.3277770733163
 20
330.694506437418
 30
0.0
 11
370.8277770733163
 21
330.694506437418
 31
0.0
  0
LINE
  5
CD0
330
A
100
AcDbEntity
  8
04
100
AcDbLine
 10
380.3277770733163
 20
352.694506437418
 30
0.0
 11
380.3277770733163
 21
330.694506437418
 31
0.0
  0
LINE
  5
CD1
330
A
100
AcDbEntity
  8
04
100
AcDbLine
 10
372.8277770733163
 20
352.694506437418
 30
0.0
 11
380.3277770733163
 21
352.694506437418
 31
0.0
  0
LINE
  5
CD2
330
A
100
AcDbEntity
  8
04
100
AcDbLine
 10
381.8277770733163
 20
354.1945064374178
 30
0.0
 11
372.8277770733163
 21
354.1945064374178
 31
0.0
  0
LINE
  5
CD3
330
A
100
AcDbEntity
  8
04
100
AcDbLine
 10
381.8277770733163
 20
329.1945064374178
 30
0.0
 11
381.8277770733163
 21
354.1945064374178
 31
0.0
  0
LINE
  5
CD4
330
A
100
AcDbEntity
  8
04
100
AcDbLine
 10
360.8277770733163
 20
329.1945064374178
 30
0.0
 11
349.8277770733163
 21
329.1945064374178
 31
0.0
  0
LINE
  5
CD6
330
A
100
AcDbEntity
  8
04
100
AcDbLine
 10
351.3277770733163
 20
330.694506437418
 30
0.0
 11
360.8277770733163
 21
330.694506437418
 31
0.0
  0
LINE
  5
CD7
330
A
100
AcDbEntity
  8
04
100
AcDbLine
 10
351.3277770733163
 20
352.694506437418
 30
0.0
 11
351.3277770733163
 21
330.694506437418
 31
0.0
  0
LINE
  5
CD8
330
A
100
AcDbEntity
  8
04
100
AcDbLine
 10
358.8277770733163
 20
352.694506437418
 30
0.0
 11
351.3277770733163
 21
352.694506437418
 31
0.0
  0
LINE
  5
CD9
330
A
100
AcDbEntity
  8
04
100
AcDbLine
 10
358.8277770733163
 20
354.1945064374178
 30
0.0
 11
358.8277770733163
 21
352.694506437418
 31
0.0
  0
LINE
  5
CDA
330
A
100
AcDbEntity
  8
04
100
AcDbLine
 10
349.8277770733163
 20
354.1945064374178
 30
0.0
 11
358.8277770733163
 21
354.1945064374178
 31
0.0
  0
LINE
  5
CDB
330
A
100
AcDbEntity
  8
04
100
AcDbLine
 10
349.8277770733163
 20
329.1945064374178
 30
0.0
 11
349.8277770733163
 21
354.1945064374178
 31
0.0
  0
LINE
  5
CE8
330
A
100
AcDbEntity
  8
SOUZOU
100
AcDbLine
 10
213.0144230769229
 20
293.3525420824553
 30
0.0
 11
313.0144230769231
 21
293.3525420824553
 31
0.0
  0
LINE
  5
CE9
330
A
100
AcDbEntity
  8
SOUZOU
100
AcDbLine
 10
313.0144230769231
 20
283.9500141032779
 30
0.0
 11
313.0144230769231
 21
293.3525420824553
 31
0.0
  0
LINE
  5
CEA
330
A
100
AcDbEntity
  8
SOUZOU
100
AcDbLine
 10
213.0144230769229
 20
283.9500141032779
 30
0.0
 11
213.0144230769229
 21
293.3525420824553
 31
0.0
  0
LINE
  5
CEB
330
A
100
AcDbEntity
  8
CHUSIN
100
AcDbLine
 10
98.01442307692319
 20
543.9500141032779
 30
0.0
 11
45.49843260188092
 21
543.9500141032779
 31
0.0
  0
LINE
  5
CEC
330
A
100
AcDbEntity
  8
SOUZOU
100
AcDbLine
 10
146.014423076923
 20
561.9500141032779
 30
0.0
 11
146.014423076923
 21
560.4500141032779
 31
0.0
  0
LINE
  5
CED
330
A
100
AcDbEntity
  8
SOUZOU
100
AcDbLine
 10
160.764423076923
 20
561.9500141032776
 30
0.0
 11
146.014423076923
 21
561.9500141032779
 31
0.0
  0
LINE
  5
CEE
330
A
100
AcDbEntity
  8
SOUZOU
100
AcDbLine
 10
161.5144230769231
 20
545.4500141032779
 30
0.0
 11
188.0144230769229
 21
545.4500141032779
 31
0.0
  0
LINE
  5
CEF
330
A
100
AcDbEntity
  8
SOUZOU
100
AcDbLine
 10
161.5144230769231
 20
561.2000141032775
 30
0.0
 11
161.5144230769231
 21
545.4500141032779
 31
0.0
  0
LINE
  5
CF0
330
A
100
AcDbEntity
  8
SOUZOU
100
AcDbLine
 10
145.264423076923
 20
560.4500141032779
 30
0.0
 11
160.0144230769231
 21
560.4500141032779
 31
0.0
  0
LINE
  5
CF1
330
A
100
AcDbEntity
  8
SOUZOU
 48
0.5
100
AcDbLine
 10
144.5144230769231
 20
545.4500141032779
 30
0.0
 11
144.5144230769231
 21
559.7000141032776
 31
0.0
  0
LINE
  5
CF2
330
A
100
AcDbEntity
  8
SOUZOU
100
AcDbLine
 10
118.0144230769232
 20
545.4500141032779
 30
0.0
 11
144.5144230769231
 21
545.4500141032779
 31
0.0
  0
LINE
  5
CF3
330
A
100
AcDbEntity
  8
SOUZOU
100
AcDbLine
 10
160.0144230769231
 20
560.4500141032779
 30
0.0
 11
160.0144230769233
 21
544.7000141032779
 31
0.0
  0
LINE
  5
CF4
330
A
100
AcDbEntity
  8
SOUZOU
 48
0.5
100
AcDbLine
 10
146.014423076923
 20
558.9500141032779
 30
0.0
 11
160.0144230769231
 21
558.9500141032779
 31
0.0
  0
LINE
  5
CF5
330
A
100
AcDbEntity
  8
SOUZOU
 48
0.5
100
AcDbLine
 10
146.014423076923
 20
544.7000141032779
 30
0.0
 11
146.014423076923
 21
558.9500141032779
 31
0.0
  0
LINE
  5
CF6
330
A
100
AcDbEntity
  8
SOUZOU
100
AcDbLine
 10
145.264423076923
 20
543.9500141032779
 30
0.0
 11
118.0144230769232
 21
543.9500141032779
 31
0.0
  0
LINE
  5
CF7
330
A
100
AcDbEntity
  8
SOUZOU
100
AcDbLine
 10
188.0144230769229
 20
543.9500141032779
 30
0.0
 11
160.7644230769233
 21
543.9500141032779
 31
0.0
  0
LINE
  5
CF8
330
A
100
AcDbEntity
  8
SOUZOU
100
AcDbLine
 10
313.0144230769231
 20
543.9500141032779
 30
0.0
 11
213.0144230769229
 21
543.9500141032779
 31
0.0
  0
LINE
  5
CF9
330
A
100
AcDbEntity
  8
SOUZOU
100
AcDbLine
 10
313.0144230769231
 20
573.9500141032777
 30
0.0
 11
313.0144230769231
 21
543.9500141032779
 31
0.0
  0
LINE
  5
CFA
330
A
100
AcDbEntity
  8
SOUZOU
100
AcDbLine
 10
213.0144230769229
 20
543.9500141032779
 30
0.0
 11
213.0144230769229
 21
573.9500141032777
 31
0.0
  0
LINE
  5
CFB
330
A
100
AcDbEntity
  8
03
100
AcDbLine
 10
227.5305532915262
 20
519.466144317881
 30
0.0
 11
228.5144230769232
 21
520.4500141032779
 31
0.0
  0
LINE
  5
CFC
330
A
100
AcDbEntity
  8
03
100
AcDbLine
 10
258.534922783004
 20
519.4295143971966
 30
0.0
 11
257.5144230769231
 21
520.4500141032779
 31
0.0
  0
LINE
  5
CFD
330
A
100
AcDbEntity
  8
03
100
AcDbLine
 10
258.5140591199208
 20
543.4496501462756
 30
0.0
 11
257.5144230769231
 21
542.4500141032779
 31
0.0
  0
LINE
  5
CFE
330
A
100
AcDbEntity
  8
03
100
AcDbLine
 10
227.5420122122325
 20
543.4224249679685
 30
0.0
 11
228.5144230769231
 21
542.4500141032779
 31
0.0
  0
LINE
  5
CFF
330
A
100
AcDbEntity
  8
03
100
AcDbLine
 10
278.7692820110923
 20
157.195700106944
 30
0.0
 11
277.1692820110923
 21
157.195700106944
 31
0.0
  0
LINE
  5
D00
330
A
100
AcDbEntity
  8
03
100
AcDbLine
 10
278.7692820110923
 20
160.195700106944
 30
0.0
 11
278.7692820110923
 21
157.195700106944
 31
0.0
  0
LINE
  5
D01
330
A
100
AcDbEntity
  8
03
100
AcDbLine
 10
277.1692820110923
 20
160.195700106944
 30
0.0
 11
278.7692820110923
 21
160.195700106944
 31
0.0
  0
LINE
  5
D02
330
A
100
AcDbEntity
  8
03
100
AcDbLine
 10
341.3452435495538
 20
219.0195259368882
 30
0.0
 11
341.3452435495538
 21
220.519525936888
 31
0.0
  0
LINE
  5
D03
330
A
100
AcDbEntity
  8
03
100
AcDbLine
 10
341.3452435495538
 20
249.519525936888
 30
0.0
 11
341.3452435495538
 21
251.019525936888
 31
0.0
  0
LINE
  5
D04
330
A
100
AcDbEntity
  8
03
100
AcDbLine
 10
203.2257053291536
 20
219.0195259368882
 30
0.0
 11
341.3452435495538
 21
219.0195259368882
 31
0.0
  0
LINE
  5
D05
330
A
100
AcDbEntity
  8
04
100
AcDbLine
 10
257.0952435495539
 20
220.5195259368883
 30
0.0
 11
341.3452435495538
 21
220.519525936888
 31
0.0
  0
LINE
  5
D06
330
A
100
AcDbEntity
  8
03
100
AcDbLine
 10
203.2257053291536
 20
251.019525936888
 30
0.0
 11
341.3452435495538
 21
251.019525936888
 31
0.0
  0
LINE
  5
D07
330
A
100
AcDbEntity
  8
04
100
AcDbLine
 10
257.0952435495539
 20
249.519525936888
 30
0.0
 11
341.3452435495538
 21
249.519525936888
 31
0.0
  0
LINE
  5
D0A
330
A
100
AcDbEntity
  8
03
100
AcDbLine
 10
63.7692820110923
 20
220.519525936888
 30
0.0
 11
63.7692820110923
 21
219.0195259368882
 31
0.0
  0
LINE
  5
D0B
330
A
100
AcDbEntity
  8
03
100
AcDbLine
 10
63.7692820110923
 20
249.519525936888
 30
0.0
 11
63.7692820110923
 21
251.019525936888
 31
0.0
  0
LINE
  5
D0C
330
A
100
AcDbEntity
  8
03
100
AcDbLine
 10
63.7692820110923
 20
219.0195259368882
 30
0.0
 11
198.2257053291535
 21
219.0195259368882
 31
0.0
  0
LINE
  5
D0D
330
A
100
AcDbEntity
  8
03
100
AcDbLine
 10
63.7692820110923
 20
251.019525936888
 30
0.0
 11
198.2257053291535
 21
251.019525936888
 31
0.0
  0
LINE
  5
D0E
330
A
100
AcDbEntity
  8
04
100
AcDbLine
 10
148.0192820110924
 20
220.519525936888
 30
0.0
 11
63.7692820110923
 21
220.519525936888
 31
0.0
  0
LINE
  5
D0F
330
A
100
AcDbEntity
  8
04
100
AcDbLine
 10
63.7692820110923
 20
249.519525936888
 30
0.0
 11
148.0192820110923
 21
249.519525936888
 31
0.0
  0
LINE
  5
D11
330
A
100
AcDbEntity
  8
03
100
AcDbLine
 10
63.76928201109238
 20
304.6695259368882
 30
0.0
 11
63.76928201109238
 21
306.6695259368882
 31
0.0
  0
LINE
  5
D12
330
A
100
AcDbEntity
  8
03
100
AcDbLine
 10
63.76928201109238
 20
336.6695259368883
 30
0.0
 11
63.76928201109238
 21
334.6695259368883
 31
0.0
  0
LINE
  5
D13
330
A
100
AcDbEntity
  8
03
100
AcDbLine
 10
63.76928201109238
 20
304.6695259368882
 30
0.0
 11
138.2257053291535
 21
304.6695259368882
 31
0.0
  0
LINE
  5
D14
330
A
100
AcDbEntity
  8
03
100
AcDbLine
 10
63.76928201109238
 20
336.6695259368883
 30
0.0
 11
138.2257053291535
 21
336.6695259368883
 31
0.0
  0
LINE
  5
D15
330
A
100
AcDbEntity
  8
SAISEN
100
AcDbLine
 10
143.2257053291535
 20
300.0348509019512
 30
0.0
 11
143.2257053291535
 21
340.0348509019512
 31
0.0
  0
LINE
  5
D16
330
A
100
AcDbEntity
  8
SAISEN
100
AcDbLine
 10
138.2257053291535
 20
300.0348509019512
 30
0.0
 11
138.2257053291535
 21
340.0348509019512
 31
0.0
  0
LINE
  5
D17
330
A
100
AcDbEntity
  8
03
100
AcDbLine
 10
86.76928201109239
 20
314.1695259368883
 30
0.0
 11
86.76928201109239
 21
308.1695259368883
 31
0.0
  0
LINE
  5
D18
330
A
100
AcDbEntity
  8
03
100
AcDbLine
 10
86.76928201109239
 20
327.1695259368883
 30
0.0
 11
86.76928201109239
 21
333.1695259368883
 31
0.0
  0
LINE
  5
D19
330
A
100
AcDbEntity
  8
03
100
AcDbLine
 10
73.7692820110924
 20
314.1695259368883
 30
0.0
 11
88.76928201109242
 21
314.1695259368883
 31
0.0
  0
LINE
  5
D1A
330
A
100
AcDbEntity
  8
03
100
AcDbLine
 10
73.7692820110924
 20
327.1695259368883
 30
0.0
 11
88.76928201109242
 21
327.1695259368883
 31
0.0
  0
LINE
  5
D1B
330
A
100
AcDbEntity
  8
03
100
AcDbLine
 10
75.36928201109242
 20
314.1695259368883
 30
0.0
 11
75.36928201109242
 21
327.1695259368883
 31
0.0
  0
LINE
  5
D1C
330
A
100
AcDbEntity
  8
03
100
AcDbLine
 10
73.7692820110924
 20
308.1695259368883
 30
0.0
 11
73.7692820110924
 21
333.1695259368883
 31
0.0
  0
LINE
  5
D1D
330
A
100
AcDbEntity
  8
04
100
AcDbLine
 10
87.26928201109242
 20
308.1695259368883
 30
0.0
 11
63.76928201109238
 21
308.1695259368883
 31
0.0
  0
LINE
  5
D1E
330
A
100
AcDbEntity
  8
04
100
AcDbLine
 10
63.76928201109238
 20
333.1695259368883
 30
0.0
 11
87.26928201109242
 21
333.1695259368883
 31
0.0
  0
LINE
  5
D1F
330
A
100
AcDbEntity
  8
04
100
AcDbLine
 10
87.26928201109242
 20
314.1695259368883
 30
0.0
 11
87.26928201109242
 21
308.1695259368883
 31
0.0
  0
LINE
  5
D20
330
A
100
AcDbEntity
  8
04
100
AcDbLine
 10
87.26928201109242
 20
333.1695259368883
 30
0.0
 11
87.26928201109242
 21
327.1695259368883
 31
0.0
  0
LINE
  5
D21
330
A
100
AcDbEntity
  8
04
100
AcDbLine
 10
88.26928201109241
 20
306.6695259368882
 30
0.0
 11
63.76928201109238
 21
306.6695259368882
 31
0.0
  0
LINE
  5
D22
330
A
100
AcDbEntity
  8
04
100
AcDbLine
 10
88.76928201109242
 20
314.1695259368883
 30
0.0
 11
88.76928201109242
 21
307.1695259368883
 31
0.0
  0
LINE
  5
D23
330
A
100
AcDbEntity
  8
04
100
AcDbLine
 10
88.76928201109242
 20
334.1695259368883
 30
0.0
 11
88.76928201109242
 21
327.1695259368883
 31
0.0
  0
LINE
  5
D24
330
A
100
AcDbEntity
  8
04
100
AcDbLine
 10
63.76928201109238
 20
334.6695259368883
 30
0.0
 11
88.26928201109241
 21
334.6695259368883
 31
0.0
  0
LINE
  5
D25
330
A
100
AcDbEntity
  8
03
100
AcDbLine
 10
63.76928201109238
 20
306.6695259368882
 30
0.0
 11
63.76928201109238
 21
334.6695259368883
 31
0.0
  0
LINE
  5
D26
330
A
100
AcDbEntity
  8
SAISEN
100
AcDbLine
 10
203.2257053291536
 20
260.0348509019511
 30
0.0
 11
203.2257053291536
 21
210.0348509019509
 31
0.0
  0
LINE
  5
D27
330
A
100
AcDbEntity
  8
SAISEN
100
AcDbLine
 10
198.2257053291535
 20
210.0348509019509
 30
0.0
 11
198.2257053291535
 21
260.0348509019511
 31
0.0
  0
LINE
  5
D28
330
A
100
AcDbEntity
  8
03
100
AcDbLine
 10
294.0144230769228
 20
322.3525420824553
 30
0.0
 11
294.0144230769228
 21
331.8525420824553
 31
0.0
  0
LINE
  5
D29
330
A
100
AcDbEntity
  8
03
100
AcDbLine
 10
266.0144230769229
 20
322.3525420824553
 30
0.0
 11
266.0144230769229
 21
331.8525420824553
 31
0.0
  0
LINE
  5
D2A
330
A
100
AcDbEntity
  8
03
100
AcDbLine
 10
379.8277770733163
 20
329.1945064374178
 30
0.0
 11
379.8277770733163
 21
309.694506437418
 31
0.0
  0
LINE
  5
D2B
330
A
100
AcDbEntity
  8
03
100
AcDbLine
 10
351.8277770733163
 20
329.1945064374178
 30
0.0
 11
351.8277770733163
 21
309.694506437418
 31
0.0
  0
LINE
  5
D2C
330
A
100
AcDbEntity
  8
03
100
AcDbLine
 10
379.8277770733163
 20
384.194506437418
 30
0.0
 11
379.8277770733163
 21
403.6945064374179
 31
0.0
  0
LINE
  5
D2D
330
A
100
AcDbEntity
  8
03
100
AcDbLine
 10
351.8277770733163
 20
384.194506437418
 30
0.0
 11
351.8277770733163
 21
403.6945064374179
 31
0.0
  0
LINE
  5
D2E
330
A
100
AcDbEntity
  8
SAISEN
100
AcDbLine
 10
145.014423076923
 20
369.8326651192234
 30
0.0
 11
145.014423076923
 21
414.3863684321588
 31
0.0
  0
LINE
  5
D2F
330
A
100
AcDbEntity
  8
SAISEN
100
AcDbLine
 10
235.0144230769231
 20
369.8326651192234
 30
0.0
 11
235.0144230769231
 21
414.3863684321586
 31
0.0
  0
LINE
  5
D30
330
A
100
AcDbEntity
  8
SAISEN
100
AcDbLine
 10
65.01442307692311
 20
369.8326651192234
 30
0.0
 11
65.01442307692311
 21
414.3863684321586
 31
0.0
  0
LINE
  5
D3E
330
A
100
AcDbEntity
  8
03
100
AcDbLine
 10
295.5378197011601
 20
321.8759387066925
 30
0.0
 11
294.514423076923
 21
320.8525420824553
 31
0.0
  0
LINE
  5
D3F
330
A
100
AcDbEntity
  8
03
100
AcDbLine
 10
295.5000524718661
 20
297.8669126875118
 30
0.0
 11
294.514423076923
 21
298.8525420824553
 31
0.0
  0
LINE
  5
D40
330
A
100
AcDbEntity
  8
03
100
AcDbLine
 10
264.5004682600093
 20
321.8664968993691
 30
0.0
 11
265.5144230769229
 21
320.8525420824553
 31
0.0
  0
LINE
  5
D41
330
A
100
AcDbEntity
  8
03
100
AcDbLine
 10
264.4532592233919
 20
297.7913782289243
 30
0.0
 11
265.5144230769229
 21
298.8525420824553
 31
0.0
  0
LINE
  5
D42
330
A
100
AcDbEntity
  8
03
100
AcDbLine
 10
294.0144230769231
 20
403.115091961153
 30
0.0
 11
294.0144230769231
 21
436.6998268243214
 31
0.0
  0
LINE
  5
D43
330
A
100
AcDbEntity
  8
03
100
AcDbLine
 10
294.0144230769231
 20
372.3525420824552
 30
0.0
 11
294.0144230769231
 21
398.115091961153
 31
0.0
  0
LINE
  5
D44
330
A
100
AcDbEntity
  8
03
100
AcDbLine
 10
266.0144230769231
 20
403.115091961153
 30
0.0
 11
266.0144230769231
 21
436.6998268243214
 31
0.0
  0
LINE
  5
D45
330
A
100
AcDbEntity
  8
03
100
AcDbLine
 10
266.0144230769231
 20
372.3525420824552
 30
0.0
 11
266.0144230769231
 21
398.115091961153
 31
0.0
  0
LINE
  5
D46
330
A
100
AcDbEntity
  8
SAISEN
100
AcDbLine
 10
257.0144230769229
 20
403.115091961153
 30
0.0
 11
302.0144230769228
 21
403.115091961153
 31
0.0
  0
LINE
  5
D47
330
A
100
AcDbEntity
  8
SAISEN
100
AcDbLine
 10
257.0144230769229
 20
398.115091961153
 30
0.0
 11
302.0144230769228
 21
398.115091961153
 31
0.0
  0
LINE
  5
D48
330
A
100
AcDbEntity
  8
03
100
AcDbLine
 10
257.0144230769229
 20
490.8077957139191
 30
0.0
 11
257.0144230769229
 21
461.6998268243214
 31
0.0
  0
LINE
  5
D49
330
A
100
AcDbEntity
  8
03
100
AcDbLine
 10
257.0144230769229
 20
518.9500141032779
 30
0.0
 11
257.0144230769229
 21
495.8077957139192
 31
0.0
  0
LINE
  5
D4A
330
A
100
AcDbEntity
  8
03
100
AcDbLine
 10
229.0144230769231
 20
495.8077957139192
 30
0.0
 11
229.0144230769231
 21
518.9500141032779
 31
0.0
  0
LINE
  5
D4B
330
A
100
AcDbEntity
  8
03
100
AcDbLine
 10
229.0144230769231
 20
461.6998268243214
 30
0.0
 11
229.0144230769231
 21
490.8077957139191
 31
0.0
  0
LINE
  5
D4C
330
A
100
AcDbEntity
  8
SAISEN
100
AcDbLine
 10
98.9107163589923
 20
495.8077957139192
 30
0.0
 11
49.75711134331827
 21
495.8077957139192
 31
0.0
  0
LINE
  5
D4D
330
A
100
AcDbEntity
  8
SAISEN
100
AcDbLine
 10
183.1902937420179
 20
495.8077957139192
 30
0.0
 11
130.7695344247068
 21
495.8077957139192
 31
0.0
  0
LINE
  5
D4E
330
A
100
AcDbEntity
  8
SAISEN
100
AcDbLine
 10
265.896408753633
 20
495.8077957139192
 30
0.0
 11
224.0866132590271
 21
495.8077957139192
 31
0.0
  0
LINE
  5
D4F
330
A
100
AcDbEntity
  8
SAISEN
100
AcDbLine
 10
224.0866132590271
 20
490.8077957139191
 30
0.0
 11
265.896408753633
 21
490.8077957139191
 31
0.0
  0
LINE
  5
D50
330
A
100
AcDbEntity
  8
SAISEN
100
AcDbLine
 10
129.8592824799722
 20
490.8077957139191
 30
0.0
 11
183.1902937420179
 21
490.8077957139191
 31
0.0
  0
LINE
  5
D51
330
A
100
AcDbEntity
  8
SAISEN
100
AcDbLine
 10
49.75711134331827
 20
490.8077957139191
 30
0.0
 11
98.9107163589923
 21
490.8077957139191
 31
0.0
  0
LINE
  5
D52
330
A
100
AcDbEntity
  8
03
100
AcDbLine
 10
59.01442307692318
 20
540.9500141032776
 30
0.0
 11
87.01442307692317
 21
540.9500141032776
 31
0.0
  0
LINE
  5
D53
330
A
100
AcDbEntity
  8
03
100
AcDbLine
 10
59.01442307692318
 20
495.8077957139191
 30
0.0
 11
59.01442307692318
 21
540.9500141032776
 31
0.0
  0
LINE
  5
D54
330
A
100
AcDbEntity
  8
03
100
AcDbLine
 10
59.01442307692318
 20
461.6998268243214
 30
0.0
 11
59.01442307692318
 21
490.8077957139191
 31
0.0
  0
LINE
  5
D55
330
A
100
AcDbEntity
  8
03
100
AcDbLine
 10
87.01442307692317
 20
495.8077957139191
 30
0.0
 11
87.01442307692317
 21
540.9500141032776
 31
0.0
  0
LINE
  5
D56
330
A
100
AcDbEntity
  8
03
100
AcDbLine
 10
87.01442307692317
 20
461.6998268243214
 30
0.0
 11
87.01442307692317
 21
490.8077957139191
 31
0.0
  0
LINE
  5
D57
330
A
100
AcDbEntity
  8
03
100
AcDbLine
 10
167.014423076923
 20
490.8077957139191
 30
0.0
 11
167.014423076923
 21
461.6998268243214
 31
0.0
  0
LINE
  5
D58
330
A
100
AcDbEntity
  8
03
100
AcDbLine
 10
167.014423076923
 20
543.9500141032779
 30
0.0
 11
167.014423076923
 21
495.8077957139192
 31
0.0
  0
LINE
  5
D59
330
A
100
AcDbEntity
  8
03
100
AcDbLine
 10
139.014423076923
 20
495.8077957139192
 30
0.0
 11
139.014423076923
 21
543.9500141032779
 31
0.0
  0
LINE
  5
D5A
330
A
100
AcDbEntity
  8
03
100
AcDbLine
 10
139.014423076923
 20
461.6998268243214
 30
0.0
 11
139.014423076923
 21
490.8077957139191
 31
0.0
  0
LINE
  5
D65
330
A
100
AcDbEntity
  8
03
100
AcDbLine
 10
57.54201221223254
 20
461.1722376890122
 30
0.0
 11
58.51442307692312
 21
460.1998268243216
 31
0.0
  0
LINE
  5
D66
330
A
100
AcDbEntity
  8
03
100
AcDbLine
 10
88.51405911992079
 20
461.199462867319
 30
0.0
 11
87.51442307692318
 21
460.1998268243216
 31
0.0
  0
LINE
  5
D67
330
A
100
AcDbEntity
  8
03
100
AcDbLine
 10
88.5349227830043
 20
437.1793271182403
 30
0.0
 11
87.51442307692313
 21
438.1998268243215
 31
0.0
  0
LINE
  5
D68
330
A
100
AcDbEntity
  8
03
100
AcDbLine
 10
57.53055329152632
 20
437.2159570389247
 30
0.0
 11
58.51442307692318
 21
438.1998268243215
 31
0.0
  0
LINE
  5
D73
330
A
100
AcDbEntity
  8
03
100
AcDbLine
 10
137.5420122122325
 20
461.1722376890122
 30
0.0
 11
138.514423076923
 21
460.1998268243216
 31
0.0
  0
LINE
  5
D74
330
A
100
AcDbEntity
  8
03
100
AcDbLine
 10
168.5140591199207
 20
461.199462867319
 30
0.0
 11
167.514423076923
 21
460.1998268243216
 31
0.0
  0
LINE
  5
D75
330
A
100
AcDbEntity
  8
03
100
AcDbLine
 10
168.5349227830041
 20
437.1793271182403
 30
0.0
 11
167.514423076923
 21
438.1998268243215
 31
0.0
  0
LINE
  5
D76
330
A
100
AcDbEntity
  8
03
100
AcDbLine
 10
137.5305532915263
 20
437.2159570389247
 30
0.0
 11
138.514423076923
 21
438.1998268243215
 31
0.0
  0
LINE
  5
DA2
330
A
100
AcDbEntity
  8
03
100
AcDbLine
 10
295.5378197011601
 20
371.8759387066925
 30
0.0
 11
294.514423076923
 21
370.8525420824552
 31
0.0
  0
LINE
  5
DA3
330
A
100
AcDbEntity
  8
03
100
AcDbLine
 10
295.5000524718661
 20
347.8669126875118
 30
0.0
 11
294.514423076923
 21
348.8525420824552
 31
0.0
  0
LINE
  5
DA4
330
A
100
AcDbEntity
  8
03
100
AcDbLine
 10
264.5004682600093
 20
371.8664968993691
 30
0.0
 11
265.5144230769229
 21
370.8525420824552
 31
0.0
  0
LINE
  5
DA5
330
A
100
AcDbEntity
  8
03
100
AcDbLine
 10
264.4532592233919
 20
347.7913782289243
 30
0.0
 11
265.5144230769229
 21
348.8525420824552
 31
0.0
  0
LINE
  5
DA6
330
A
100
AcDbEntity
  8
03
100
AcDbLine
 10
295.5076941864571
 20
437.2065557147875
 30
0.0
 11
294.5144230769231
 21
438.1998268243215
 31
0.0
  0
LINE
  5
DA7
330
A
100
AcDbEntity
  8
03
100
AcDbLine
 10
295.4756030751489
 20
461.1610068225473
 30
0.0
 11
294.5144230769231
 21
460.1998268243215
 31
0.0
  0
LINE
  5
DA8
330
A
100
AcDbEntity
  8
03
100
AcDbLine
 10
264.5211519673892
 20
461.1930979338555
 30
0.0
 11
265.5144230769229
 21
460.1998268243216
 31
0.0
  0
LINE
  5
DA9
330
A
100
AcDbEntity
  8
03
100
AcDbLine
 10
264.4569697447725
 20
437.1423734921711
 30
0.0
 11
265.5144230769229
 21
438.1998268243215
 31
0.0
  0
LINE
  5
DAA
330
A
100
AcDbEntity
  8
03
100
AcDbLine
 10
227.5420122122325
 20
461.1722376890122
 30
0.0
 11
228.5144230769231
 21
460.1998268243216
 31
0.0
  0
LINE
  5
DAB
330
A
100
AcDbEntity
  8
03
100
AcDbLine
 10
258.5140591199207
 20
461.199462867319
 30
0.0
 11
257.5144230769231
 21
460.1998268243216
 31
0.0
  0
LINE
  5
DAC
330
A
100
AcDbEntity
  8
03
100
AcDbLine
 10
258.534922783004
 20
437.1793271182403
 30
0.0
 11
257.5144230769231
 21
438.1998268243215
 31
0.0
  0
LINE
  5
DAD
330
A
100
AcDbEntity
  8
03
100
AcDbLine
 10
227.5305532915262
 20
437.2159570389247
 30
0.0
 11
228.5144230769231
 21
438.1998268243215
 31
0.0
  0
LINE
  5
DC9
330
A
100
AcDbEntity
  8
03
100
AcDbLine
 10
381.3625038663417
 20
383.7292332304432
 30
0.0
 11
380.3277770733163
 21
382.694506437418
 31
0.0
  0
LINE
  5
DCA
330
A
100
AcDbEntity
  8
03
100
AcDbLine
 10
381.3625038663417
 20
359.6597796443926
 30
0.0
 11
380.3277770733163
 21
360.6945064374178
 31
0.0
  0
LINE
  5
DCB
330
A
100
AcDbEntity
  8
03
100
AcDbLine
 10
381.3266249985126
 20
329.6956585122216
 30
0.0
 11
380.3277770733163
 21
330.694506437418
 31
0.0
  0
LINE
  5
DCC
330
A
100
AcDbEntity
  8
03
100
AcDbLine
 10
381.3266249985126
 20
353.6933543626142
 30
0.0
 11
380.3277770733163
 21
352.6945064374178
 31
0.0
  0
LINE
  5
DCD
330
A
100
AcDbEntity
  8
03
100
AcDbLine
 10
350.2930502802909
 20
329.6597796443927
 30
0.0
 11
351.3277770733163
 21
330.694506437418
 31
0.0
  0
LINE
  5
DCE
330
A
100
AcDbEntity
  8
03
100
AcDbLine
 10
350.2930502802909
 20
353.7292332304433
 30
0.0
 11
351.3277770733163
 21
352.6945064374178
 31
0.0
  0
LINE
  5
DCF
330
A
100
AcDbEntity
  8
03
100
AcDbLine
 10
350.3289291481201
 20
359.6956585122216
 30
0.0
 11
351.3277770733163
 21
360.6945064374178
 31
0.0
  0
LINE
  5
DD0
330
A
100
AcDbEntity
  8
03
100
AcDbLine
 10
350.3645528773335
 20
383.6577306334006
 30
0.0
 11
351.3277770733163
 21
382.6945064374179
 31
0.0
  0
LINE
  5
DD1
330
A
100
AcDbEntity
  8
04
100
AcDbLine
 10
268.7692820110924
 20
79.29570010694397
 30
0.0
 11
268.7692820110924
 21
165.6957001069439
 31
0.0
  0
LINE
  5
DD2
330
A
100
AcDbEntity
  8
04
100
AcDbLine
 10
72.26928201109237
 20
79.29570010694397
 30
0.0
 11
72.26928201109243
 21
165.8823048957818
 31
0.0
  0
LINE
  5
DD3
330
A
100
AcDbEntity
  8
04
100
AcDbLine
 10
63.76928201109238
 20
165.6957001069439
 30
0.0
 11
277.1692820110923
 21
165.6957001069439
 31
0.0
  0
LINE
  5
DD4
330
A
100
AcDbEntity
  8
04
100
AcDbLine
 10
63.76928201109237
 20
79.29570010694397
 30
0.0
 11
277.1692820110923
 21
79.29570010694397
 31
0.0
  0
LINE
  5
DD5
330
A
100
AcDbEntity
  8
04
100
AcDbLine
 10
277.1692820110923
 20
76.79570010694397
 30
0.0
 11
63.76928201109237
 21
76.79570010694397
 31
0.0
  0
LINE
  5
DD6
330
A
100
AcDbEntity
  8
04
100
AcDbLine
 10
277.1692820110923
 20
168.1957001069439
 30
0.0
 11
277.1692820110923
 21
76.79570010694397
 31
0.0
  0
LINE
  5
DD7
330
A
100
AcDbEntity
  8
04
100
AcDbLine
 10
63.76928201109238
 20
168.1957001069439
 30
0.0
 11
277.1692820110923
 21
168.1957001069439
 31
0.0
  0
LINE
  5
DD8
330
A
100
AcDbEntity
  8
04
100
AcDbLine
 10
63.76928201109237
 20
76.79570010694397
 30
0.0
 11
63.76928201109238
 21
168.1957001069439
 31
0.0
  0
LINE
  5
DDE
330
A
100
AcDbEntity
  8
04
100
AcDbLine
 10
256.3452435495539
 20
227.0195259368883
 30
0.0
 11
256.3452435495539
 21
221.2695259368882
 31
0.0
  0
LINE
  5
DE1
330
A
100
AcDbEntity
  8
04
100
AcDbLine
 10
256.3452435495539
 20
243.019525936888
 30
0.0
 11
256.3452435495539
 21
248.769525936888
 31
0.0
  0
LINE
  5
DE3
330
A
100
AcDbEntity
  8
04
100
AcDbLine
 10
284.8452435495536
 20
227.0195259368883
 30
0.0
 11
284.8452435495536
 21
243.019525936888
 31
0.0
  0
LINE
  5
E1F
330
A
100
AcDbEntity
  8
04
100
AcDbLine
 10
148.7692820110924
 20
243.019525936888
 30
0.0
 11
148.7692820110923
 21
248.769525936888
 31
0.0
  0
LINE
  5
E21
330
A
100
AcDbEntity
  8
04
100
AcDbLine
 10
148.7692820110924
 20
227.0195259368882
 30
0.0
 11
148.7692820110924
 21
221.2695259368882
 31
0.0
  0
LINE
  5
E36
330
A
100
AcDbEntity
  8
04
100
AcDbLine
 10
64.2692820110924
 20
222.019525936888
 30
0.0
 11
64.2692820110924
 21
222.519525936888
 31
0.0
  0
LINE
  5
E4B
330
A
100
AcDbEntity
  8
04
100
AcDbLine
 10
64.2692820110924
 20
247.519525936888
 30
0.0
 11
64.2692820110924
 21
248.0195259368882
 31
0.0
  0
LINE
  5
EFF
330
A
100
AcDbEntity
  8
02
100
AcDbLine
 10
277.0144230769229
 20
445.6998268243215
 30
0.0
 11
277.0144230769229
 21
403.115091961153
 31
0.0
  0
LINE
  5
F01
330
A
100
AcDbEntity
  8
02
100
AcDbLine
 10
277.514423076923
 20
445.6998268243215
 30
0.0
 11
277.514423076923
 21
403.115091961153
 31
0.0
  0
LINE
  5
F03
330
A
100
AcDbEntity
  8
02
100
AcDbLine
 10
282.6558704306709
 20
418.7834986284026
 30
0.0
 11
282.6558704306707
 21
403.115091961153
 31
0.0
  0
LINE
  5
F04
330
A
100
AcDbEntity
  8
02
100
AcDbLine
 10
282.6558704306709
 20
445.6998268243212
 30
0.0
 11
282.6558704306709
 21
428.3032285292256
 31
0.0
  0
LINE
  5
F05
330
A
100
AcDbEntity
  8
02
100
AcDbLine
 10
283.0144230769231
 20
418.7834986284026
 30
0.0
 11
283.0144230769231
 21
403.115091961153
 31
0.0
  0
LINE
  5
F06
330
A
100
AcDbEntity
  8
02
100
AcDbLine
 10
283.0144230769231
 20
445.6998268243215
 30
0.0
 11
283.0144230769231
 21
428.3032285292256
 31
0.0
  0
LINE
  5
F07
330
A
100
AcDbEntity
  8
02
100
AcDbLine
 10
362.8277770733163
 20
386.503270732222
 30
0.0
 11
362.8277770733163
 21
373.6945064374178
 31
0.0
  0
LINE
  5
F08
330
A
100
AcDbEntity
  8
02
100
AcDbLine
 10
362.8277770733163
 20
403.6945064374179
 30
0.0
 11
362.8277770733163
 21
395.6646971935008
 31
0.0
  0
LINE
  5
F09
330
A
100
AcDbEntity
  8
02
100
AcDbLine
 10
363.3277770733163
 20
395.6646971935008
 30
0.0
 11
363.3277770733163
 21
403.6945064374179
 31
0.0
  0
LINE
  5
F0A
330
A
100
AcDbEntity
  8
02
100
AcDbLine
 10
363.3277770733163
 20
373.6945064374178
 30
0.0
 11
363.3277770733163
 21
386.503270732222
 31
0.0
  0
LINE
  5
F0B
330
A
100
AcDbEntity
  8
02
100
AcDbLine
 10
368.3277770733163
 20
386.503270732222
 30
0.0
 11
368.3277770733163
 21
373.6945064374178
 31
0.0
  0
LINE
  5
F0C
330
A
100
AcDbEntity
  8
02
100
AcDbLine
 10
368.3277770733163
 20
403.6945064374179
 30
0.0
 11
368.3277770733163
 21
395.6646971935008
 31
0.0
  0
LINE
  5
F0D
330
A
100
AcDbEntity
  8
02
100
AcDbLine
 10
368.8277770733163
 20
395.6646971935008
 30
0.0
 11
368.8277770733163
 21
403.6945064374179
 31
0.0
  0
LINE
  5
F0E
330
A
100
AcDbEntity
  8
02
100
AcDbLine
 10
368.8277770733163
 20
373.6945064374178
 30
0.0
 11
368.8277770733163
 21
386.503270732222
 31
0.0
  0
LINE
  5
F10
330
A
100
AcDbEntity
  8
02
100
AcDbLine
 10
138.2257053291535
 20
317.6695259368883
 30
0.0
 11
78.26928201109243
 21
317.6695259368883
 31
0.0
  0
LINE
  5
F12
330
A
100
AcDbEntity
  8
02
100
AcDbLine
 10
138.2257053291535
 20
318.1695259368883
 30
0.0
 11
78.26928201109243
 21
318.1695259368883
 31
0.0
  0
LINE
  5
F13
330
A
100
AcDbEntity
  8
02
100
AcDbLine
 10
121.1363156784132
 20
323.6695259368882
 30
0.0
 11
138.2257053291535
 21
323.6695259368882
 31
0.0
  0
LINE
  5
F14
330
A
100
AcDbEntity
  8
02
100
AcDbLine
 10
109.4376450728002
 20
323.6695259368882
 30
0.0
 11
112.6129985228949
 21
323.6695259368882
 31
0.0
  0
LINE
  5
F15
330
A
100
AcDbEntity
  8
02
100
AcDbLine
 10
121.1363156784132
 20
323.1695259368883
 30
0.0
 11
138.2257053291535
 21
323.1695259368883
 31
0.0
  0
LINE
  5
F16
330
A
100
AcDbEntity
  8
02
100
AcDbLine
 10
109.4376450728002
 20
323.1695259368883
 30
0.0
 11
112.6129985228949
 21
323.1695259368883
 31
0.0
  0
LINE
  5
F19
330
A
100
AcDbEntity
  8
02
100
AcDbLine
 10
100.496518252796
 20
323.6695259368882
 30
0.0
 11
101.4992614475626
 21
323.6695259368882
 31
0.0
  0
LINE
  5
F1A
330
A
100
AcDbEntity
  8
02
100
AcDbLine
 10
100.496518252796
 20
323.1695259368883
 30
0.0
 11
101.4992614475626
 21
323.1695259368883
 31
0.0
  0
LINE
  5
F1D
330
A
100
AcDbEntity
  8
02
100
AcDbLine
 10
78.26928201109243
 20
323.1695259368883
 30
0.0
 11
91.55539143279176
 21
323.1695259368883
 31
0.0
  0
LINE
  5
F1E
330
A
100
AcDbEntity
  8
02
100
AcDbLine
 10
78.26928201109243
 20
323.6695259368882
 30
0.0
 11
91.55539143279176
 21
323.6695259368882
 31
0.0
  0
LINE
  5
F20
330
A
100
AcDbEntity
  8
02
100
AcDbLine
 10
198.2257053291535
 20
232.019525936888
 30
0.0
 11
123.7692820110922
 21
232.019525936888
 31
0.0
  0
LINE
  5
F21
330
A
100
AcDbEntity
  8
02
100
AcDbLine
 10
123.7692820110922
 20
232.519525936888
 30
0.0
 11
198.2257053291535
 21
232.519525936888
 31
0.0
  0
LINE
  5
F23
330
A
100
AcDbEntity
  8
02
100
AcDbLine
 10
179.8264557961861
 20
238.019525936888
 30
0.0
 11
198.2257053291535
 21
238.019525936888
 31
0.0
  0
LINE
  5
F24
330
A
100
AcDbEntity
  8
02
100
AcDbLine
 10
168.2903649029172
 20
238.019525936888
 30
0.0
 11
171.7398822778653
 21
238.019525936888
 31
0.0
  0
LINE
  5
F25
330
A
100
AcDbEntity
  8
02
100
AcDbLine
 10
171.7398822778653
 20
237.5195259368882
 30
0.0
 11
168.2903649029172
 21
237.5195259368882
 31
0.0
  0
LINE
  5
F26
330
A
100
AcDbEntity
  8
02
100
AcDbLine
 10
198.2257053291535
 20
237.5195259368882
 30
0.0
 11
179.8264557961861
 21
237.5195259368882
 31
0.0
  0
LINE
  5
F29
330
A
100
AcDbEntity
  8
02
100
AcDbLine
 10
158.7123680917296
 20
238.019525936888
 30
0.0
 11
160.4299892452485
 21
238.019525936888
 31
0.0
  0
LINE
  5
F2A
330
A
100
AcDbEntity
  8
02
100
AcDbLine
 10
160.4299892452485
 20
237.5195259368882
 30
0.0
 11
158.5449229221559
 21
237.5195259368882
 31
0.0
  0
LINE
  5
F2D
330
A
100
AcDbEntity
  8
02
100
AcDbLine
 10
123.7692820110922
 20
238.019525936888
 30
0.0
 11
150.646931772035
 21
238.019525936888
 31
0.0
  0
LINE
  5
F2E
330
A
100
AcDbEntity
  8
02
100
AcDbLine
 10
150.646931772035
 20
237.5195259368882
 30
0.0
 11
123.7692820110922
 21
237.5195259368882
 31
0.0
  0
LINE
  5
F35
330
A
100
AcDbEntity
  8
06
100
AcDbLine
 10
278.0192820110924
 20
76.79570010694397
 30
0.0
 11
277.1692820110923
 21
76.79570010694397
 31
0.0
  0
LINE
  5
F36
330
A
100
AcDbEntity
  8
06
100
AcDbLine
 10
278.0192820110924
 20
168.1957001069439
 30
0.0
 11
277.1692820110923
 21
168.1957001069439
 31
0.0
  0
LINE
  5
F37
330
A
100
AcDbEntity
  8
06
100
AcDbLine
 10
278.0192820110924
 20
168.1957001069439
 30
0.0
 11
278.0192820110924
 21
76.79570010694397
 31
0.0
  0
LINE
  5
F6A
330
A
100
AcDbEntity
  8
02
100
AcDbLine
 10
281.3848300541075
 20
232.019525936888
 30
0.0
 11
281.3848300541075
 21
238.019525936888
 31
0.0
  0
LINE
  5
F73
330
A
100
AcDbEntity
  8
02
100
AcDbLine
 10
78.26928201109243
 20
317.6695259368883
 30
0.0
 11
78.26928201109243
 21
323.6695259368882
 31
0.0
  0
LINE
  5
F74
330
A
100
AcDbEntity
  8
03
100
AcDbLine
 10
87.26928201109242
 20
308.1695259368883
 30
0.0
 11
88.25923150475357
 21
307.1795764432271
 31
0.0
  0
LINE
  5
F75
330
A
100
AcDbEntity
  8
03
100
AcDbLine
 10
87.26928201109242
 20
333.1695259368883
 30
0.0
 11
88.25923150475357
 21
334.1594754305495
 31
0.0
  0
LINE
  5
F8C
330
A
100
AcDbEntity
  8
06
100
AcDbLine
 10
284.7339786643593
 20
293.3597562011618
 30
0.0
 11
289.999243498878
 21
293.3597562011623
 31
0.0
  0
LINE
  5
F8D
330
A
100
AcDbEntity
  8
06
100
AcDbLine
 10
284.8945223100136
 20
294.3597562011623
 30
0.0
 11
289.999243498878
 21
294.3597562011623
 31
0.0
  0
LINE
  5
F8E
330
A
100
AcDbEntity
  8
06
100
AcDbLine
 10
275.2617592250521
 20
293.3605315614591
 30
0.0
 11
270.0487874921461
 21
293.3605315614593
 31
0.0
  0
LINE
  5
F8F
330
A
100
AcDbEntity
  8
06
100
AcDbLine
 10
275.1405782442087
 20
294.3605315614592
 30
0.0
 11
270.0487874921455
 21
294.3605315614592
 31
0.0
  0
LINE
  5
F90
330
A
100
AcDbEntity
  8
02
100
AcDbLine
 10
283.0144230769228
 20
311.8525420824553
 30
0.0
 11
283.0144230769228
 21
331.8525420824553
 31
0.0
  0
LINE
  5
F91
330
A
100
AcDbEntity
  8
02
100
AcDbLine
 10
282.5144230769229
 20
331.8525420824553
 30
0.0
 11
282.5144230769229
 21
311.8525420824553
 31
0.0
  0
LINE
  5
F92
330
A
100
AcDbEntity
  8
02
100
AcDbLine
 10
277.514423076923
 20
311.8525420824553
 30
0.0
 11
277.514423076923
 21
331.8525420824553
 31
0.0
  0
LINE
  5
F93
330
A
100
AcDbEntity
  8
02
100
AcDbLine
 10
277.0144230769229
 20
331.8525420824553
 30
0.0
 11
277.0144230769229
 21
311.8525420824553
 31
0.0
  0
LINE
  5
F94
330
A
100
AcDbEntity
  8
06
100
AcDbLine
 10
275.5274169250329
 20
301.8867827959401
 30
0.0
 11
284.5274169250328
 21
301.8867827959401
 31
0.0
  0
LINE
  5
F95
330
A
100
AcDbEntity
  8
06
100
AcDbLine
 10
285.0274169250328
 20
297.8867827959401
 30
0.0
 11
285.0274169250328
 21
301.3867827959401
 31
0.0
  0
LINE
  5
F96
330
A
100
AcDbEntity
  8
06
100
AcDbLine
 10
275.5274169250329
 20
297.3867827959401
 30
0.0
 11
284.5274169250328
 21
297.3867827959401
 31
0.0
  0
LINE
  5
F97
330
A
100
AcDbEntity
  8
06
100
AcDbLine
 10
275.0274169250329
 20
297.8867827959401
 30
0.0
 11
275.0274169250328
 21
301.3867827959401
 31
0.0
  0
LINE
  5
F98
330
A
100
AcDbEntity
  8
06
100
AcDbLine
 10
282.3254626842816
 20
294.7503135506073
 30
0.0
 11
284.7339786643593
 21
293.3597562011618
 31
0.0
  0
LINE
  5
F99
330
A
100
AcDbEntity
  8
06
100
AcDbLine
 10
277.7033834695643
 20
294.7503135506077
 30
0.0
 11
275.2617592250524
 21
293.3605315614591
 31
0.0
  0
LINE
  5
F9A
330
A
100
AcDbEntity
  8
06
100
AcDbLine
 10
286.9043298580533
 20
301.8525420824553
 30
0.0
 11
289.5144230769228
 21
301.8525420824553
 31
0.0
  0
LINE
  5
F9B
330
A
100
AcDbEntity
  8
06
100
AcDbLine
 10
286.5144230769228
 20
297.7657759335543
 30
0.0
 11
286.5144230769228
 21
301.4204860259968
 31
0.0
  0
LINE
  5
F9C
330
A
100
AcDbEntity
  8
06
100
AcDbLine
 10
290.5144230769228
 20
297.3525420824553
 30
0.0
 11
286.9873176185361
 21
297.3525420824553
 31
0.0
  0
LINE
  5
F9D
330
A
100
AcDbEntity
  8
06
100
AcDbLine
 10
290.5144230769228
 20
295.7722977013128
 30
0.0
 11
290.5144230769228
 21
297.3525420824553
 31
0.0
  0
LINE
  5
F9E
330
A
100
AcDbEntity
  8
06
100
AcDbLine
 10
286.0238496071827
 20
295.3525420824553
 30
0.0
 11
290.0993586366464
 21
295.3525420824553
 31
0.0
  0
LINE
  5
F9F
330
A
100
AcDbEntity
  8
06
100
AcDbLine
 10
269.9497875539323
 20
295.3525420824553
 30
0.0
 11
274.0144839196563
 21
295.3525420824553
 31
0.0
  0
LINE
  5
FA0
330
A
100
AcDbEntity
  8
06
100
AcDbLine
 10
269.5144230769229
 20
297.3525420824553
 30
0.0
 11
269.5144230769229
 21
295.7419517492468
 31
0.0
  0
LINE
  5
FA1
330
A
100
AcDbEntity
  8
06
100
AcDbLine
 10
273.5144230769229
 20
301.4632419188984
 30
0.0
 11
273.5144230769229
 21
297.7679533119466
 31
0.0
  0
LINE
  5
FA2
330
A
100
AcDbEntity
  8
06
100
AcDbLine
 10
270.5144230769229
 20
301.8525420824553
 30
0.0
 11
273.01848685391
 21
301.8525420824553
 31
0.0
  0
LINE
  5
FAA
330
A
100
AcDbEntity
  8
06
100
AcDbLine
 10
287.0144230769227
 20
297.3525420824553
 30
0.0
 11
287.0144230769227
 21
298.8525420824553
 31
0.0
  0
LINE
  5
FAB
330
A
100
AcDbEntity
  8
06
100
AcDbLine
 10
273.014423076923
 20
297.3525420824553
 30
0.0
 11
273.014423076923
 21
298.8525420824553
 31
0.0
  0
LINE
  5
FAC
330
A
100
AcDbEntity
  8
06
100
AcDbLine
 10
289.5144230769228
 20
301.8525420824553
 30
0.0
 11
289.5144230769228
 21
303.8525420824553
 31
0.0
  0
LINE
  5
FAD
330
A
100
AcDbEntity
  8
06
100
AcDbLine
 10
286.0112435401354
 20
295.3525420824553
 30
0.0
 11
290.0144230769228
 21
295.3525420824553
 31
0.0
  0
LINE
  5
FAE
330
A
100
AcDbEntity
  8
06
100
AcDbLine
 10
273.0400988902951
 20
297.3525420824553
 30
0.0
 11
269.5144230769229
 21
297.3525420824553
 31
0.0
  0
LINE
  5
FAF
330
A
100
AcDbEntity
  8
06
100
AcDbLine
 10
270.5144230769229
 20
303.8525420824553
 30
0.0
 11
270.5144230769229
 21
301.8525420824553
 31
0.0
  0
LINE
  5
FB0
330
A
100
AcDbEntity
  8
02
100
AcDbLine
 10
277.0144230769229
 20
311.8525420824553
 30
0.0
 11
283.0144230769228
 21
311.8525420824553
 31
0.0
  0
LINE
  5
FB1
330
A
100
AcDbEntity
  8
02
100
AcDbLine
 10
277.0144230769229
 20
445.6998268243215
 30
0.0
 11
283.0144230769231
 21
445.6998268243215
 31
0.0
  0
LINE
  5
FB2
330
A
100
AcDbEntity
  8
02
100
AcDbLine
 10
156.0144230769233
 20
550.9500141032778
 30
0.0
 11
150.014423076923
 21
550.9500141032779
 31
0.0
  0
LINE
  5
FB3
330
A
100
AcDbEntity
  8
02
100
AcDbLine
 10
75.51442307692319
 20
495.8077957139191
 30
0.0
 11
75.51442307692319
 21
540.9500141032776
 31
0.0
  0
LINE
  5
FB4
330
A
100
AcDbEntity
  8
02
100
AcDbLine
 10
75.51442307692319
 20
451.1998268243216
 30
0.0
 11
75.51442307692319
 21
490.8077957139191
 31
0.0
  0
LINE
  5
FB5
330
A
100
AcDbEntity
  8
02
100
AcDbLine
 10
70.51442307692319
 20
495.8077957139191
 30
0.0
 11
70.51442307692319
 21
540.9500141032776
 31
0.0
  0
LINE
  5
FB6
330
A
100
AcDbEntity
  8
02
100
AcDbLine
 10
70.51442307692319
 20
451.1998268243216
 30
0.0
 11
70.51442307692319
 21
490.8077957139191
 31
0.0
  0
LINE
  5
FB7
330
A
100
AcDbEntity
  8
02
100
AcDbLine
 10
70.01442307692318
 20
495.8077957139191
 30
0.0
 11
70.01442307692318
 21
540.9500141032776
 31
0.0
  0
LINE
  5
FB8
330
A
100
AcDbEntity
  8
02
100
AcDbLine
 10
70.01442307692318
 20
451.1998268243216
 30
0.0
 11
70.01442307692318
 21
490.8077957139191
 31
0.0
  0
LINE
  5
FB9
330
A
100
AcDbEntity
  8
02
100
AcDbLine
 10
76.0144230769232
 20
495.8077957139191
 30
0.0
 11
76.0144230769232
 21
540.9500141032776
 31
0.0
  0
LINE
  5
FBA
330
A
100
AcDbEntity
  8
02
100
AcDbLine
 10
76.0144230769232
 20
451.1998268243216
 30
0.0
 11
76.0144230769232
 21
490.8077957139191
 31
0.0
  0
LINE
  5
FBB
330
A
100
AcDbEntity
  8
02
100
AcDbLine
 10
70.01442307692318
 20
451.1998268243216
 30
0.0
 11
76.0144230769232
 21
451.1998268243216
 31
0.0
  0
LINE
  5
FBC
330
A
100
AcDbEntity
  8
02
100
AcDbLine
 10
155.5144230769229
 20
495.8077957139192
 30
0.0
 11
155.5144230769229
 21
550.9500141032778
 31
0.0
  0
LINE
  5
FBD
330
A
100
AcDbEntity
  8
02
100
AcDbLine
 10
155.5144230769229
 20
451.1998268243216
 30
0.0
 11
155.5144230769229
 21
490.8077957139191
 31
0.0
  0
LINE
  5
FBE
330
A
100
AcDbEntity
  8
02
100
AcDbLine
 10
150.514423076923
 20
495.8077957139192
 30
0.0
 11
150.514423076923
 21
550.9500141032779
 31
0.0
  0
LINE
  5
FBF
330
A
100
AcDbEntity
  8
02
100
AcDbLine
 10
150.514423076923
 20
451.1998268243216
 30
0.0
 11
150.514423076923
 21
490.8077957139191
 31
0.0
  0
LINE
  5
FC0
330
A
100
AcDbEntity
  8
02
100
AcDbLine
 10
150.014423076923
 20
495.8077957139192
 30
0.0
 11
150.014423076923
 21
550.9500141032779
 31
0.0
  0
LINE
  5
FC1
330
A
100
AcDbEntity
  8
02
100
AcDbLine
 10
150.014423076923
 20
451.1998268243216
 30
0.0
 11
150.014423076923
 21
490.8077957139191
 31
0.0
  0
LINE
  5
FC2
330
A
100
AcDbEntity
  8
02
100
AcDbLine
 10
156.0144230769231
 20
495.8077957139192
 30
0.0
 11
156.0144230769233
 21
550.9500141032778
 31
0.0
  0
LINE
  5
FC3
330
A
100
AcDbEntity
  8
02
100
AcDbLine
 10
156.0144230769231
 20
451.1998268243216
 30
0.0
 11
156.0144230769231
 21
490.8077957139191
 31
0.0
  0
LINE
  5
FC4
330
A
100
AcDbEntity
  8
02
100
AcDbLine
 10
156.0144230769231
 20
451.1998268243218
 30
0.0
 11
150.014423076923
 21
451.1998268243216
 31
0.0
  0
LINE
  5
FC5
330
A
100
AcDbEntity
  8
02
100
AcDbLine
 10
240.014423076923
 20
529.4500141032779
 30
0.0
 11
246.014423076923
 21
529.4500141032779
 31
0.0
  0
LINE
  5
FC6
330
A
100
AcDbEntity
  8
06
100
AcDbLine
 10
275.5274169250329
 20
351.8867827959401
 30
0.0
 11
284.5274169250328
 21
351.8867827959401
 31
0.0
  0
LINE
  5
FC7
330
A
100
AcDbEntity
  8
06
100
AcDbLine
 10
285.0274169250328
 20
347.8867827959401
 30
0.0
 11
285.0274169250328
 21
351.3867827959401
 31
0.0
  0
LINE
  5
FC8
330
A
100
AcDbEntity
  8
06
100
AcDbLine
 10
275.5274169250329
 20
347.3867827959401
 30
0.0
 11
284.5274169250328
 21
347.3867827959401
 31
0.0
  0
LINE
  5
FC9
330
A
100
AcDbEntity
  8
06
100
AcDbLine
 10
275.0274169250329
 20
347.8867827959401
 30
0.0
 11
275.0274169250328
 21
351.3867827959401
 31
0.0
  0
LINE
  5
FCA
330
A
100
AcDbEntity
  8
06
100
AcDbLine
 10
282.3254626842816
 20
344.7503135506073
 30
0.0
 11
288.8445500958453
 21
340.9865166786707
 31
0.0
  0
LINE
  5
FCB
330
A
100
AcDbEntity
  8
06
100
AcDbLine
 10
285.0076966659718
 20
344.3564255776283
 30
0.0
 11
289.3445500958453
 21
341.8525420824551
 31
0.0
  0
LINE
  5
FCC
330
A
100
AcDbEntity
  8
06
100
AcDbLine
 10
277.7033834695643
 20
344.7503135506077
 30
0.0
 11
271.1842960580016
 21
340.9865166786715
 31
0.0
  0
LINE
  5
FCD
330
A
100
AcDbEntity
  8
06
100
AcDbLine
 10
275.0222782566408
 20
344.3570772725799
 30
0.0
 11
270.6842960580013
 21
341.8525420824556
 31
0.0
  0
LINE
  5
FCE
330
A
100
AcDbEntity
  8
06
100
AcDbLine
 10
286.9043298580533
 20
351.8525420824552
 30
0.0
 11
289.5144230769228
 21
351.8525420824552
 31
0.0
  0
LINE
  5
FCF
330
A
100
AcDbEntity
  8
06
100
AcDbLine
 10
286.5144230769228
 20
347.7657759335543
 30
0.0
 11
286.5144230769228
 21
351.4204860259968
 31
0.0
  0
LINE
  5
FD0
330
A
100
AcDbEntity
  8
06
100
AcDbLine
 10
290.5144230769228
 20
347.3525420824552
 30
0.0
 11
286.9873176185361
 21
347.3525420824552
 31
0.0
  0
LINE
  5
FD1
330
A
100
AcDbEntity
  8
06
100
AcDbLine
 10
290.5144230769228
 20
345.8525420824552
 30
0.0
 11
290.5144230769228
 21
347.3525420824552
 31
0.0
  0
LINE
  5
FD2
330
A
100
AcDbEntity
  8
06
100
AcDbLine
 10
286.0238496071827
 20
345.3525420824552
 30
0.0
 11
290.0144230769228
 21
345.3525420824552
 31
0.0
  0
LINE
  5
FD3
330
A
100
AcDbEntity
  8
06
100
AcDbLine
 10
270.0144230769233
 20
345.3525420824552
 30
0.0
 11
274.0144839196563
 21
345.3525420824552
 31
0.0
  0
LINE
  5
FD4
330
A
100
AcDbEntity
  8
06
100
AcDbLine
 10
269.5144230769229
 20
347.3525420824552
 30
0.0
 11
269.5144230769229
 21
345.8525420824552
 31
0.0
  0
LINE
  5
FD5
330
A
100
AcDbEntity
  8
06
100
AcDbLine
 10
273.5144230769229
 20
351.4632419188984
 30
0.0
 11
273.5144230769229
 21
347.7679533119466
 31
0.0
  0
LINE
  5
FD6
330
A
100
AcDbEntity
  8
06
100
AcDbLine
 10
270.5144230769229
 20
351.8525420824552
 30
0.0
 11
273.01848685391
 21
351.8525420824552
 31
0.0
  0
LINE
  5
FE0
330
A
100
AcDbEntity
  8
06
100
AcDbLine
 10
289.5144230769228
 20
351.8525420824552
 30
0.0
 11
289.5144230769228
 21
353.8525420824552
 31
0.0
  0
LINE
  5
FE1
330
A
100
AcDbEntity
  8
06
100
AcDbLine
 10
286.0112435401354
 20
345.3525420824552
 30
0.0
 11
290.0144230769228
 21
345.3525420824552
 31
0.0
  0
LINE
  5
FE2
330
A
100
AcDbEntity
  8
06
100
AcDbLine
 10
273.0400988902951
 20
347.3525420824552
 30
0.0
 11
269.5144230769229
 21
347.3525420824552
 31
0.0
  0
LINE
  5
FE3
330
A
100
AcDbEntity
  8
06
100
AcDbLine
 10
270.5144230769229
 20
353.8525420824552
 30
0.0
 11
270.5144230769229
 21
351.8525420824552
 31
0.0
  0
LINE
  5
FE6
330
A
100
AcDbEntity
  8
02
100
AcDbLine
 10
282.5144230769229
 20
361.8525420824552
 30
0.0
 11
282.5144230769231
 21
398.115091961153
 31
0.0
  0
LINE
  5
FE7
330
A
100
AcDbEntity
  8
02
100
AcDbLine
 10
277.514423076923
 20
361.8525420824552
 30
0.0
 11
277.514423076923
 21
398.115091961153
 31
0.0
  0
LINE
  5
FE8
330
A
100
AcDbEntity
  8
02
100
AcDbLine
 10
245.5144230769231
 20
495.8077957139192
 30
0.0
 11
245.5144230769231
 21
529.4500141032779
 31
0.0
  0
LINE
  5
FE9
330
A
100
AcDbEntity
  8
02
100
AcDbLine
 10
245.5144230769231
 20
451.1998268243216
 30
0.0
 11
245.5144230769231
 21
490.8077957139191
 31
0.0
  0
LINE
  5
FEA
330
A
100
AcDbEntity
  8
02
100
AcDbLine
 10
240.5144230769229
 20
495.8077957139192
 30
0.0
 11
240.5144230769229
 21
529.4500141032779
 31
0.0
  0
LINE
  5
FEB
330
A
100
AcDbEntity
  8
02
100
AcDbLine
 10
240.5144230769229
 20
451.1998268243216
 30
0.0
 11
240.5144230769229
 21
490.8077957139191
 31
0.0
  0
LINE
  5
FEC
330
A
100
AcDbEntity
  8
02
100
AcDbLine
 10
240.014423076923
 20
495.8077957139192
 30
0.0
 11
240.014423076923
 21
529.4500141032779
 31
0.0
  0
LINE
  5
FED
330
A
100
AcDbEntity
  8
02
100
AcDbLine
 10
240.014423076923
 20
451.1998268243216
 30
0.0
 11
240.014423076923
 21
490.8077957139191
 31
0.0
  0
LINE
  5
FEE
330
A
100
AcDbEntity
  8
02
100
AcDbLine
 10
246.014423076923
 20
495.8077957139192
 30
0.0
 11
246.014423076923
 21
529.4500141032779
 31
0.0
  0
LINE
  5
FEF
330
A
100
AcDbEntity
  8
02
100
AcDbLine
 10
246.014423076923
 20
451.1998268243216
 30
0.0
 11
246.014423076923
 21
490.8077957139191
 31
0.0
  0
LINE
  5
FF0
330
A
100
AcDbEntity
  8
02
100
AcDbLine
 10
240.014423076923
 20
451.1998268243216
 30
0.0
 11
246.014423076923
 21
451.1998268243216
 31
0.0
  0
LINE
  5
FF1
330
A
100
AcDbEntity
  8
06
100
AcDbLine
 10
259.5144230769231
 20
450.2428534809918
 30
0.0
 11
259.5144230769228
 21
449.1803534809922
 31
0.0
  0
LINE
  5
FF2
330
A
100
AcDbEntity
  8
06
100
AcDbLine
 10
261.0144230769229
 20
448.7116034809919
 30
0.0
 11
259.3652855803551
 21
449.2269589486695
 31
0.0
  0
LINE
  5
FF3
330
A
100
AcDbEntity
  8
06
100
AcDbLine
 10
261.0144230769229
 20
450.7116034809919
 30
0.0
 11
259.365285580355
 21
450.1962480133142
 31
0.0
  0
LINE
  5
FF4
330
A
100
AcDbEntity
  8
06
100
AcDbLine
 10
259.0144230769229
 20
449.7041989376872
 30
0.0
 11
259.0144230769229
 21
449.7190080242971
 31
0.0
  0
LINE
  5
FF5
330
A
100
AcDbEntity
  8
06
100
AcDbLine
 10
261.0144230769229
 20
450.7116034809919
 30
0.0
 11
261.0144230769229
 21
448.7116034809919
 31
0.0
  0
LINE
  5
FF6
330
A
100
AcDbEntity
  8
06
100
AcDbLine
 10
264.0144230769231
 20
451.9498268243215
 30
0.0
 11
266.5144230769231
 21
451.9498268243215
 31
0.0
  0
LINE
  5
FF7
330
A
100
AcDbEntity
  8
06
100
AcDbLine
 10
267.014423076923
 20
453.1998268243213
 30
0.0
 11
267.014423076923
 21
452.4498268243217
 31
0.0
  0
LINE
  5
FF8
330
A
100
AcDbEntity
  8
06
100
AcDbLine
 10
264.0144230769231
 20
447.4498268243215
 30
0.0
 11
266.5144230769231
 21
447.4498268243215
 31
0.0
  0
LINE
  5
FF9
330
A
100
AcDbEntity
  8
06
100
AcDbLine
 10
267.014423076923
 20
446.1998268243215
 30
0.0
 11
267.014423076923
 21
447.0146485744979
 31
0.0
  0
LINE
  5
FFA
330
A
100
AcDbEntity
  8
06
100
AcDbLine
 10
269.3144230769231
 20
446.1998268243215
 30
0.0
 11
267.014423076923
 21
446.1998268243215
 31
0.0
  0
LINE
  5
FFB
330
A
100
AcDbEntity
  8
06
100
AcDbLine
 10
269.3144230769231
 20
453.1998268243213
 30
0.0
 11
269.3144230769231
 21
446.1998268243215
 31
0.0
  0
LINE
  5
FFC
330
A
100
AcDbEntity
  8
06
100
AcDbLine
 10
267.014423076923
 20
453.1998268243213
 30
0.0
 11
269.3144230769231
 21
453.1998268243213
 31
0.0
  0
LINE
  5
FFD
330
A
100
AcDbEntity
  8
02
100
AcDbLine
 10
277.0144230769229
 20
361.8525420824552
 30
0.0
 11
283.0144230769228
 21
361.8525420824552
 31
0.0
  0
LINE
  5
FFE
330
A
100
AcDbEntity
  8
02
100
AcDbLine
 10
283.0144230769231
 20
398.115091961153
 30
0.0
 11
283.0144230769228
 21
361.8525420824552
 31
0.0
  0
LINE
  5
FFF
330
A
100
AcDbEntity
  8
02
100
AcDbLine
 10
277.0144230769229
 20
398.115091961153
 30
0.0
 11
277.0144230769229
 21
361.8525420824552
 31
0.0
  0
LINE
  5
1003
330
A
100
AcDbEntity
  8
SAISEN
100
AcDbLine
 10
198.4305142584106
 20
107.419977380076
 30
0.0
 11
166.8563854379939
 21
138.9941062004927
 31
0.0
  0
LINE
  5
1004
330
A
100
AcDbEntity
  8
SAISEN
100
AcDbLine
 10
162.5166106909231
 20
134.848599573325
 30
0.0
 11
195.0394461135008
 21
102.3257641507473
 31
0.0
  0
LINE
  5
1005
330
A
100
AcDbEntity
  8
SAISEN
100
AcDbLine
 10
160.1379310344825
 20
141.4699199168846
 30
0.0
 11
200.1379310344828
 21
101.4699199168844
 31
0.0
  0
LINE
  5
100E
330
A
100
AcDbEntity
  8
06
100
AcDbLine
 10
62.76928201109239
 20
217.519525936888
 30
0.0
 11
63.2692820110924
 21
214.3195259368881
 31
0.0
  0
LINE
  5
100F
330
A
100
AcDbEntity
  8
06
100
AcDbLine
 10
62.76928201109239
 20
247.519525936888
 30
0.0
 11
62.76928201109239
 21
217.519525936888
 31
0.0
  0
LINE
  5
1010
330
A
100
AcDbEntity
  8
06
100
AcDbLine
 10
63.2692820110924
 20
214.3195259368881
 30
0.0
 11
63.2692820110924
 21
222.519525936888
 31
0.0
  0
LINE
  5
1011
330
A
100
AcDbEntity
  8
06
100
AcDbLine
 10
64.2692820110924
 20
222.519525936888
 30
0.0
 11
63.2692820110924
 21
222.519525936888
 31
0.0
  0
LINE
  5
1013
330
A
100
AcDbEntity
  8
06
100
AcDbLine
 10
64.2692820110924
 20
247.519525936888
 30
0.0
 11
62.76928201109239
 21
247.519525936888
 31
0.0
  0
LINE
  5
101C
330
A
100
AcDbEntity
  8
02
100
AcDbLine
 10
362.8277770733163
 20
373.6945064374178
 30
0.0
 11
368.8277770733163
 21
373.6945064374178
 31
0.0
  0
LINE
  5
101D
330
A
100
AcDbEntity
  8
02
100
AcDbLine
 10
368.3277770733163
 20
339.6945064374178
 30
0.0
 11
368.3277770733163
 21
309.694506437418
 31
0.0
  0
LINE
  5
101E
330
A
100
AcDbEntity
  8
02
100
AcDbLine
 10
363.3277770733163
 20
339.6945064374178
 30
0.0
 11
363.3277770733163
 21
309.694506437418
 31
0.0
  0
LINE
  5
101F
330
A
100
AcDbEntity
  8
02
100
AcDbLine
 10
362.8277770733163
 20
339.6945064374178
 30
0.0
 11
362.8277770733163
 21
309.694506437418
 31
0.0
  0
LINE
  5
1020
330
A
100
AcDbEntity
  8
02
100
AcDbLine
 10
368.8277770733163
 20
339.6945064374178
 30
0.0
 11
368.8277770733163
 21
309.694506437418
 31
0.0
  0
LINE
  5
1021
330
A
100
AcDbEntity
  8
06
100
AcDbLine
 10
367.5450230928271
 20
352.8558467700788
 30
0.0
 11
366.4787287407885
 21
361.812719327203
 31
0.0
  0
LINE
  5
1022
330
A
100
AcDbEntity
  8
06
100
AcDbLine
 10
369.804120667086
 20
356.2767059310706
 30
0.0
 11
369.2282042113973
 21
352.8212071969387
 31
0.0
  0
LINE
  5
1023
330
A
100
AcDbEntity
  8
06
100
AcDbLine
 10
368.4884087685233
 20
352.1945064374178
 30
0.0
 11
368.2897642984733
 21
352.1945064374178
 31
0.0
  0
LINE
  5
1024
330
A
100
AcDbEntity
  8
06
100
AcDbLine
 10
365.4857404665937
 20
362.6945064374178
 30
0.0
 11
361.8737540848107
 21
362.6945064374178
 31
0.0
  0
LINE
  5
1025
330
A
100
AcDbEntity
  8
06
100
AcDbLine
 10
360.8737540848106
 20
357.1945064374178
 30
0.0
 11
360.8737540848106
 21
361.694506437418
 31
0.0
  0
LINE
  5
1026
330
A
100
AcDbEntity
  8
06
100
AcDbLine
 10
355.3737540848106
 20
359.1945064374178
 30
0.0
 11
355.3737540848104
 21
357.1945064374178
 31
0.0
  0
LINE
  5
1027
330
A
100
AcDbEntity
  8
06
100
AcDbLine
 10
355.3737540848106
 20
359.1945064374178
 30
0.0
 11
358.8737540848106
 21
359.194506437418
 31
0.0
  0
LINE
  5
1028
330
A
100
AcDbEntity
  8
06
100
AcDbLine
 10
359.3737540848106
 20
359.694506437418
 30
0.0
 11
359.3737540848106
 21
363.1945064374178
 31
0.0
  0
LINE
  5
1029
330
A
100
AcDbEntity
  8
06
100
AcDbLine
 10
356.3737540848106
 20
363.6945064374178
 30
0.0
 11
358.8737540848106
 21
363.6945064374178
 31
0.0
  0
LINE
  5
102A
330
A
100
AcDbEntity
  8
06
100
AcDbLine
 10
375.3737540848106
 20
365.6945064374178
 30
0.0
 11
356.3737540848106
 21
365.6945064374178
 31
0.0
  0
LINE
  5
102B
330
A
100
AcDbEntity
  8
06
100
AcDbLine
 10
356.3737540848106
 20
365.6945064374178
 30
0.0
 11
356.3737540848106
 21
363.6945064374178
 31
0.0
  0
LINE
  5
102C
330
A
100
AcDbEntity
  8
06
100
AcDbLine
 10
375.8737540848105
 20
356.6945064374178
 30
0.0
 11
370.2973176290021
 21
356.694506437418
 31
0.0
  0
LINE
  5
102D
330
A
100
AcDbEntity
  8
06
100
AcDbLine
 10
376.3737540848107
 20
359.1945064374178
 30
0.0
 11
376.3737540848105
 21
357.1945064374178
 31
0.0
  0
LINE
  5
102E
330
A
100
AcDbEntity
  8
06
100
AcDbLine
 10
372.8737540848106
 20
359.1945064374178
 30
0.0
 11
376.3737540848107
 21
359.1945064374178
 31
0.0
  0
LINE
  5
102F
330
A
100
AcDbEntity
  8
06
100
AcDbLine
 10
372.3737540848107
 20
359.6945064374178
 30
0.0
 11
372.3737540848107
 21
363.1945064374178
 31
0.0
  0
LINE
  5
1030
330
A
100
AcDbEntity
  8
06
100
AcDbLine
 10
375.3737540848106
 20
363.6945064374178
 30
0.0
 11
372.8737540848106
 21
363.6945064374178
 31
0.0
  0
LINE
  5
1031
330
A
100
AcDbEntity
  8
06
100
AcDbLine
 10
375.3737540848106
 20
363.6945064374178
 30
0.0
 11
375.3737540848104
 21
365.6945064374178
 31
0.0
  0
LINE
  5
1032
330
A
100
AcDbEntity
  8
06
100
AcDbLine
 10
364.1565080652998
 20
360.5331661047566
 30
0.0
 11
365.2228024173383
 21
351.5762935476329
 31
0.0
  0
LINE
  5
1033
330
A
100
AcDbEntity
  8
06
100
AcDbLine
 10
361.8974104910408
 20
357.1123069437653
 30
0.0
 11
362.4733269467295
 21
360.5678056778971
 31
0.0
  0
LINE
  5
1034
330
A
100
AcDbEntity
  8
06
100
AcDbLine
 10
363.2131223896036
 20
361.1945064374181
 30
0.0
 11
363.4117668596536
 21
361.1945064374181
 31
0.0
  0
LINE
  5
1035
330
A
100
AcDbEntity
  8
06
100
AcDbLine
 10
366.2157906915333
 20
350.694506437418
 30
0.0
 11
369.8277770733163
 21
350.6945064374178
 31
0.0
  0
LINE
  5
1036
330
A
100
AcDbEntity
  8
06
100
AcDbLine
 10
370.8277770733163
 20
356.1945064374179
 30
0.0
 11
370.8277770733163
 21
351.6945064374179
 31
0.0
  0
LINE
  5
1037
330
A
100
AcDbEntity
  8
06
100
AcDbLine
 10
376.3277770733163
 20
354.1945064374178
 30
0.0
 11
376.3277770733163
 21
356.1945064374179
 31
0.0
  0
LINE
  5
1038
330
A
100
AcDbEntity
  8
06
100
AcDbLine
 10
376.3277770733163
 20
354.1945064374178
 30
0.0
 11
372.8277770733163
 21
354.1945064374178
 31
0.0
  0
LINE
  5
1039
330
A
100
AcDbEntity
  8
06
100
AcDbLine
 10
372.3277770733163
 20
353.6945064374179
 30
0.0
 11
372.3277770733163
 21
350.1945064374178
 31
0.0
  0
LINE
  5
103A
330
A
100
AcDbEntity
  8
06
100
AcDbLine
 10
375.3277770733163
 20
349.6945064374179
 30
0.0
 11
372.8277770733163
 21
349.6945064374179
 31
0.0
  0
LINE
  5
103B
330
A
100
AcDbEntity
  8
06
100
AcDbLine
 10
356.3277770733163
 20
347.6945064374179
 30
0.0
 11
375.3277770733163
 21
347.6945064374179
 31
0.0
  0
LINE
  5
103C
330
A
100
AcDbEntity
  8
06
100
AcDbLine
 10
375.3277770733163
 20
347.6945064374179
 30
0.0
 11
375.3277770733163
 21
349.6945064374179
 31
0.0
  0
LINE
  5
103D
330
A
100
AcDbEntity
  8
06
100
AcDbLine
 10
355.8277770733163
 20
356.694506437418
 30
0.0
 11
361.4042135291248
 21
356.6945064374178
 31
0.0
  0
LINE
  5
103E
330
A
100
AcDbEntity
  8
06
100
AcDbLine
 10
355.3277770733163
 20
354.1945064374178
 30
0.0
 11
355.3277770733163
 21
356.1945064374179
 31
0.0
  0
LINE
  5
103F
330
A
100
AcDbEntity
  8
06
100
AcDbLine
 10
358.9342961189318
 20
354.1945064374178
 30
0.0
 11
355.3277770733163
 21
354.1945064374178
 31
0.0
  0
LINE
  5
1040
330
A
100
AcDbEntity
  8
06
100
AcDbLine
 10
359.3277770733163
 20
353.6945064374179
 30
0.0
 11
359.3277770733163
 21
350.1945064374178
 31
0.0
  0
LINE
  5
1041
330
A
100
AcDbEntity
  8
06
100
AcDbLine
 10
356.3277770733163
 20
349.6945064374179
 30
0.0
 11
358.8277770733163
 21
349.6945064374179
 31
0.0
  0
LINE
  5
1042
330
A
100
AcDbEntity
  8
06
100
AcDbLine
 10
356.3277770733163
 20
349.6945064374179
 30
0.0
 11
356.3277770733163
 21
347.6945064374179
 31
0.0
  0
LINE
  5
1043
330
A
100
AcDbEntity
  8
02
100
AcDbLine
 10
368.8277770733163
 20
339.6945064374178
 30
0.0
 11
362.8277770733163
 21
339.6945064374178
 31
0.0
  0
LINE
  5
1044
330
A
100
AcDbEntity
  8
02
100
AcDbLine
 10
281.3848300541075
 20
237.5195259368882
 30
0.0
 11
203.2257053291536
 21
237.5195259368882
 31
0.0
  0
LINE
  5
1045
330
A
100
AcDbEntity
  8
02
100
AcDbLine
 10
203.2257053291536
 20
232.519525936888
 30
0.0
 11
281.3848300541075
 21
232.519525936888
 31
0.0
  0
LINE
  5
1046
330
A
100
AcDbEntity
  8
02
100
AcDbLine
 10
281.3848300541075
 20
232.019525936888
 30
0.0
 11
203.2257053291536
 21
232.019525936888
 31
0.0
  0
LINE
  5
1047
330
A
100
AcDbEntity
  8
02
100
AcDbLine
 10
203.2257053291536
 20
238.019525936888
 30
0.0
 11
281.3848300541075
 21
238.019525936888
 31
0.0
  0
LINE
  5
1048
330
A
100
AcDbEntity
  8
02
100
AcDbLine
 10
123.7692820110922
 20
232.019525936888
 30
0.0
 11
123.7692820110922
 21
238.019525936888
 31
0.0
  0
LINE
  5
1049
330
A
100
AcDbEntity
  8
CHUSIN
 48
0.5
100
AcDbLine
 10
272.8197411507873
 20
158.695700106944
 30
0.0
 11
280.7661001091533
 21
158.695700106944
 31
0.0
  0
LINE
  5
104A
330
A
100
AcDbEntity
  8
CHUSIN
100
AcDbLine
 10
58.76928201109238
 20
320.6695259368883
 30
0.0
 11
144.948287910552
 21
320.6695259368883
 31
0.0
  0
LINE
  5
1056
330
A
100
AcDbEntity
  8
CHUSIN
100
AcDbLine
 10
73.0144230769233
 20
550.1081560481487
 30
0.0
 11
73.01442307692312
 21
430.0845030600553
 31
0.0
  0
LINE
  5
1058
330
A
100
AcDbEntity
  8
CHUSIN
100
AcDbLine
 10
153.0144230769231
 20
554.6530195232593
 30
0.0
 11
153.0144230769231
 21
430.0845030600553
 31
0.0
  0
LINE
  5
105A
330
A
100
AcDbEntity
  8
CHUSIN
100
AcDbLine
 10
243.0144230769232
 20
485.7744363222062
 30
0.0
 11
243.0144230769232
 21
550.5653378675441
 31
0.0
  0
LINE
  5
1060
330
A
100
AcDbEntity
  8
CHUSIN
100
AcDbLine
 10
262.4383120652712
 20
343.3525420824553
 30
0.0
 11
303.3168994015388
 21
343.3525420824553
 31
0.0
  0
LINE
  5
1061
330
A
100
AcDbEntity
  8
CHUSIN
100
AcDbLine
 10
243.0144230769232
 20
485.7744363222062
 30
0.0
 11
243.0144230769231
 21
430.0845030600553
 31
0.0
  0
LINE
  5
1062
330
A
100
AcDbEntity
  8
CHUSIN
100
AcDbLine
 10
256.1192964123998
 20
449.6998268243215
 30
0.0
 11
270.5637408568443
 21
449.6998268243215
 31
0.0
  0
LINE
  5
1067
330
A
100
AcDbEntity
  8
CHUSIN
100
AcDbLine
 10
280.0144230769229
 20
339.1648166534654
 30
0.0
 11
280.0144230769229
 21
548.7496978621654
 31
0.0
  0
LINE
  5
1068
330
A
100
AcDbEntity
  8
CHUSIN
100
AcDbLine
 10
280.0144230769229
 20
287.624750387666
 30
0.0
 11
280.0144230769229
 21
335.2602661787837
 31
0.0
  0
LINE
  5
106E
330
A
100
AcDbEntity
  8
CHUSIN
 48
0.5
100
AcDbLine
 10
274.7692820110921
 20
165.394788302086
 30
0.0
 11
274.7692820110921
 21
156.6834287548514
 31
0.0
  0
LINE
  5
106F
330
A
100
AcDbEntity
  8
CHUSIN
 48
0.5
100
AcDbLine
 10
267.8379197363712
 20
161.4957001069439
 30
0.0
 11
279.3974098911323
 21
161.4957001069439
 31
0.0
  0
LINE
  5
1072
330
A
100
AcDbEntity
  8
CHUSIN
100
AcDbLine
 10
365.8277770733163
 20
305.9198763846365
 30
0.0
 11
365.8277770733163
 21
410.6106359870416
 31
0.0
  0
LINE
  5
1075
330
A
100
AcDbEntity
  8
CHUSIN
100
AcDbLine
 10
55.15273423894118
 20
235.019525936888
 30
0.0
 11
354.4030674369802
 21
235.019525936888
 31
0.0
  0
POLYLINE
  5
12FD
330
A
100
AcDbEntity
  8
DEFPOINTS
100
AcDb2dPolyline
 66
     1
 10
0.0
 20
0.0
 30
0.0
 70
     1
  0
VERTEX
  5
21D3
330
12FD
100
AcDbEntity
  8
DEFPOINTS
100
AcDbVertex
100
AcDb2dVertex
 10
0.0
 20
0.0
 30
0.0
  0
VERTEX
  5
21D4
330
12FD
100
AcDbEntity
  8
DEFPOINTS
100
AcDbVertex
100
AcDb2dVertex
 10
420.0
 20
0.0
 30
0.0
  0
VERTEX
  5
21D5
330
12FD
100
AcDbEntity
  8
DEFPOINTS
100
AcDbVertex
100
AcDb2dVertex
 10
420.0
 20
594.0
 30
0.0
  0
VERTEX
  5
21D6
330
12FD
100
AcDbEntity
  8
DEFPOINTS
100
AcDbVertex
100
AcDb2dVertex
 10
0.0
 20
594.0
 30
0.0
  0
SEQEND
  5
21D7
330
12FD
100
AcDbEntity
  8
DEFPOINTS
  0
DIMENSION
  5
131A
330
A
100
AcDbEntity
  8
SUNPOU
100
AcDbDimension
  2
*D1
 10
45.49843260188095
 20
543.9500141032779
 30
0.0
 11
40.99843260188086
 21
552.0510957644378
 31
0.0
 70
   160
  3
SUNPOU_2
100
AcDbAlignedDimension
 13
59.01442307692189
 23
540.9500141032776
 33
0.0
 14
58.01442307692155
 24
543.9500141032779
 34
0.0
 50
90.0
100
AcDbRotatedDimension
  0
DIMENSION
  5
1329
330
A
100
AcDbEntity
  8
SUNPOU
100
AcDbDimension
  2
*D2
 10
100.6174387553697
 20
461.6998268243214
 30
0.0
 11
96.11743875536976
 21
449.1998268243214
 31
0.0
 70
    32
  3
SUNPOU_2
100
AcDbAlignedDimension
 13
89.01442307692311
 23
436.6998268243214
 33
0.0
 14
89.01442307692319
 24
461.6998268243214
 34
0.0
 50
90.0
100
AcDbRotatedDimension
  0
DIMENSION
  5
1336
330
A
100
AcDbEntity
  8
SUNPOU
100
AcDbDimension
  2
*D3
 10
89.01442307692311
 20
426.6998268243215
 30
0.0
 11
73.01442307692312
 21
422.1998268243215
 31
0.0
 70
   160
 53
180.0
  3
SUNPOU_2
100
AcDbAlignedDimension
 13
57.01442307692311
 23
436.6998268243214
 33
0.0
 14
89.01442307692311
 24
436.6998268243214
 34
0.0
100
AcDbRotatedDimension
  0
DIMENSION
  5
1343
330
A
100
AcDbEntity
  8
SUNPOU
100
AcDbDimension
  2
*D4
 10
180.1994659236038
 20
461.6998268243214
 30
0.0
 11
175.6994659236038
 21
449.1998268243214
 31
0.0
 70
    32
  3
SUNPOU_2
100
AcDbAlignedDimension
 13
169.014423076923
 23
436.6998268243214
 33
0.0
 14
169.014423076923
 24
461.6998268243214
 34
0.0
 50
90.0
100
AcDbRotatedDimension
  0
DIMENSION
  5
1350
330
A
100
AcDbEntity
  8
SUNPOU
100
AcDbDimension
  2
*D5
 10
169.014423076923
 20
426.6998268243216
 30
0.0
 11
153.0144230769231
 21
422.1998268243215
 31
0.0
 70
   160
 53
180.0
  3
SUNPOU_2
100
AcDbAlignedDimension
 13
137.014423076923
 23
436.6998268243214
 33
0.0
 14
169.014423076923
 24
436.6998268243214
 34
0.0
100
AcDbRotatedDimension
  0
DIMENSION
  5
135D
330
A
100
AcDbEntity
  8
SUNPOU
100
AcDbDimension
  2
*D6
 10
88.76928201109242
 20
351.6695259368881
 30
0.0
 11
76.26928201109237
 21
347.1695259368881
 31
0.0
 70
   160
 53
180.0
  3
SUNPOU_2
100
AcDbAlignedDimension
 13
63.76928201109238
 23
336.6695259368883
 33
0.0
 14
88.76928201109242
 24
334.1695259368883
 34
0.0
100
AcDbRotatedDimension
  0
DIMENSION
  5
136A
330
A
100
AcDbEntity
  8
SUNPOU
100
AcDbDimension
  2
*D7
 10
98.76928201109242
 20
327.1695259368883
 30
0.0
 11
94.26928201109234
 21
323.9860259192492
 31
0.0
 70
   160
  3
SUNPOU_2
100
AcDbAlignedDimension
 13
88.76928201109242
 23
314.1695259368881
 33
0.0
 14
88.76928201109242
 24
327.1695259368883
 34
0.0
 50
90.0
100
AcDbRotatedDimension
  0
DIMENSION
  5
1379
330
A
100
AcDbEntity
  8
SUNPOU
100
AcDbDimension
  2
*D8
 10
108.7692820110924
 20
334.6695259368883
 30
0.0
 11
104.2692820110923
 21
324.8552485082903
 31
0.0
 70
   160
  3
SUNPOU_2
100
AcDbAlignedDimension
 13
88.26928201109241
 23
306.6695259368882
 33
0.0
 14
88.26928201109241
 24
334.6695259368883
 34
0.0
 50
90.0
100
AcDbRotatedDimension
  0
DIMENSION
  5
1386
330
A
100
AcDbEntity
  8
SUNPOU
100
AcDbDimension
  2
*D9
 10
120.2389157440615
 20
336.6695259368883
 30
0.0
 11
115.7389157440614
 21
325.7244726857651
 31
0.0
 70
   160
  3
SUNPOU_2
100
AcDbAlignedDimension
 13
120.2389157440615
 23
304.6695259368882
 33
0.0
 14
120.2389157440615
 24
336.6695259368883
 34
0.0
 50
90.0
100
AcDbRotatedDimension
  0
DIMENSION
  5
13B9
330
A
100
AcDbEntity
  8
SUNPOU
100
AcDbDimension
  2
*D10
 10
307.3087774294668
 20
372.3525420824552
 30
0.0
 11
302.8087774294669
 21
359.8525420824552
 31
0.0
 70
    32
  3
SUNPOU_2
100
AcDbAlignedDimension
 13
296.014423076923
 23
347.3525420824552
 33
0.0
 14
296.014423076923
 24
372.3525420824552
 34
0.0
 50
90.0
100
AcDbRotatedDimension
  0
DIMENSION
  5
13C6
330
A
100
AcDbEntity
  8
SUNPOU
100
AcDbDimension
  2
*D11
 10
307.308777429467
 20
347.3525420824552
 30
0.0
 11
302.8685716586013
 21
335.8436182985385
 31
0.0
 70
   160
  3
SUNPOU_2
100
AcDbAlignedDimension
 13
303.3168994015388
 23
343.3525420824553
 33
0.0
 14
296.014423076923
 24
347.3525420824552
 34
0.0
 50
90.0
100
AcDbRotatedDimension
  0
DIMENSION
  5
13D5
330
A
100
AcDbEntity
  8
SUNPOU
100
AcDbDimension
  2
*D12
 10
316.6346667012098
 20
461.6998268243214
 30
0.0
 11
312.1346667012098
 21
404.5261844533885
 31
0.0
 70
    32
  1
DW
  3
SUNPOU_2
100
AcDbAlignedDimension
 13
296.014423076923
 23
347.3525420824552
 33
0.0
 14
296.0144230769231
 24
461.6998268243214
 34
0.0
 50
90.0
100
AcDbRotatedDimension
  0
DIMENSION
  5
13F7
330
A
100
AcDbEntity
  8
SUNPOU
100
AcDbDimension
  2
*D13
 10
307.308777429467
 20
461.6998268243214
 30
0.0
 11
302.8087774294669
 21
449.1998268243214
 31
0.0
 70
    32
  3
SUNPOU_2
100
AcDbAlignedDimension
 13
296.014423076923
 23
436.6998268243214
 33
0.0
 14
296.0144230769231
 24
461.6998268243214
 34
0.0
 50
90.0
100
AcDbRotatedDimension
  0
DIMENSION
  5
1404
330
A
100
AcDbEntity
  8
SUNPOU
100
AcDbDimension
  2
*D14
 10
259.0144230769229
 20
426.6998268243216
 30
0.0
 11
243.0144230769231
 21
422.1998268243216
 31
0.0
 70
   160
 53
180.0
  3
SUNPOU_2
100
AcDbAlignedDimension
 13
227.0144230769229
 23
436.6998268243214
 33
0.0
 14
259.0144230769229
 24
436.6998268243214
 34
0.0
100
AcDbRotatedDimension
  0
DIMENSION
  5
1411
330
A
100
AcDbEntity
  8
SUNPOU
100
AcDbDimension
  2
*D15
 10
264.0144230769231
 20
426.6998268243216
 30
0.0
 11
261.5144230769231
 21
422.1998268243216
 31
0.0
 70
   160
 53
180.0
  3
SUNPOU_2
100
AcDbAlignedDimension
 13
259.0144230769229
 23
436.6998268243214
 33
0.0
 14
264.0144230769231
 24
436.6998268243214
 34
0.0
100
AcDbRotatedDimension
  0
DIMENSION
  5
1420
330
A
100
AcDbEntity
  8
SUNPOU
100
AcDbDimension
  2
*D16
 10
296.014423076923
 20
426.6998268243216
 30
0.0
 11
285.5376867518643
 21
422.1998268243216
 31
0.0
 70
   160
 53
180.0
  3
SUNPOU_2
100
AcDbAlignedDimension
 13
264.0144230769231
 23
436.6998268243214
 33
0.0
 14
296.014423076923
 24
436.6998268243214
 34
0.0
100
AcDbRotatedDimension
  0
DIMENSION
  5
142D
330
A
100
AcDbEntity
  8
SUNPOU
100
AcDbDimension
  2
*D17
 10
307.308777429467
 20
297.3525420824553
 30
0.0
 11
302.8087774294669
 21
285.541942737831
 31
0.0
 70
   160
  3
SUNPOU_2
100
AcDbAlignedDimension
 13
307.308777429467
 23
293.3525420824553
 33
0.0
 14
296.014423076923
 24
297.3525420824553
 34
0.0
 50
90.0
100
AcDbRotatedDimension
  0
DIMENSION
  5
143C
330
A
100
AcDbEntity
  8
SUNPOU
100
AcDbDimension
  2
*D18
 10
307.308777429467
 20
322.3525420824553
 30
0.0
 11
302.8087774294669
 21
309.8525420824553
 31
0.0
 70
    32
  3
SUNPOU_2
100
AcDbAlignedDimension
 13
296.014423076923
 23
297.3525420824553
 33
0.0
 14
296.014423076923
 24
322.3525420824553
 34
0.0
 50
90.0
100
AcDbRotatedDimension
  0
DIMENSION
  5
1449
330
A
100
AcDbEntity
  8
SUNPOU
100
AcDbDimension
  2
*D19
 10
381.8277770733163
 20
394.2209313957754
 30
0.0
 11
370.9798626079355
 21
389.7209313957753
 31
0.0
 70
   160
 53
180.0
  3
SUNPOU_2
100
AcDbAlignedDimension
 13
349.8277770733163
 23
384.194506437418
 33
0.0
 14
381.8277770733163
 24
384.194506437418
 34
0.0
100
AcDbRotatedDimension
  0
DIMENSION
  5
1456
330
A
100
AcDbEntity
  8
SUNPOU
100
AcDbDimension
  2
*D20
 10
393.9937238545203
 20
354.1945064374178
 30
0.0
 11
389.4937238545201
 21
341.6945064374178
 31
0.0
 70
    32
  3
SUNPOU_2
100
AcDbAlignedDimension
 13
381.8277770733163
 23
329.1945064374178
 33
0.0
 14
381.8277770733163
 24
354.1945064374178
 34
0.0
 50
90.0
100
AcDbRotatedDimension
  0
DIMENSION
  5
1463
330
A
100
AcDbEntity
  8
SUNPOU
100
AcDbDimension
  2
*D21
 10
393.9937238545203
 20
359.1945064374178
 30
0.0
 11
389.4937238545201
 21
356.694506437418
 31
0.0
 70
    32
  3
SUNPOU_2
100
AcDbAlignedDimension
 13
381.8277770733163
 23
354.1945064374178
 33
0.0
 14
381.8277770733163
 24
359.194506437418
 34
0.0
 50
90.0
100
AcDbRotatedDimension
  0
DIMENSION
  5
1472
330
A
100
AcDbEntity
  8
SUNPOU
100
AcDbDimension
  2
*D22
 10
393.9937238545203
 20
384.194506437418
 30
0.0
 11
389.4937238545201
 21
371.6945064374181
 31
0.0
 70
    32
  3
SUNPOU_2
100
AcDbAlignedDimension
 13
381.8277770733163
 23
359.194506437418
 33
0.0
 14
381.8277770733163
 24
384.194506437418
 34
0.0
 50
90.0
100
AcDbRotatedDimension
  0
DIMENSION
  5
147F
330
A
100
AcDbEntity
  8
SUNPOU
100
AcDbDimension
  2
*D23
 10
157.7889712168708
 20
243.019525936888
 30
0.0
 11
153.2889712168708
 21
238.7205238227338
 31
0.0
 70
   160
  3
SUNPOU_2
100
AcDbAlignedDimension
 13
148.7692820110924
 23
227.0195259368882
 33
0.0
 14
148.7692820110924
 24
243.019525936888
 34
0.0
 50
90.0
100
AcDbRotatedDimension
  0
DIMENSION
  5
148C
330
A
100
AcDbEntity
  8
SUNPOU
100
AcDbDimension
  2
*D24
 10
167.5801092687884
 20
249.5195259368883
 30
0.0
 11
163.0801092687884
 21
239.3189073781329
 31
0.0
 70
   160
  3
SUNPOU_2
100
AcDbAlignedDimension
 13
148.0192820110924
 23
220.519525936888
 33
0.0
 14
148.0192820110924
 24
249.5195259368883
 34
0.0
 50
90.0
100
AcDbRotatedDimension
  0
DIMENSION
  5
1499
330
A
100
AcDbEntity
  8
SUNPOU
100
AcDbDimension
  2
*D25
 10
179.083071278826
 20
251.019525936888
 30
0.0
 11
174.583071278826
 21
239.4898752428423
 31
0.0
 70
   160
  3
SUNPOU_2
100
AcDbAlignedDimension
 13
179.083071278826
 23
219.0195259368882
 33
0.0
 14
179.083071278826
 24
251.019525936888
 34
0.0
 50
90.0
100
AcDbRotatedDimension
  0
DIMENSION
  5
14CA
330
A
100
AcDbEntity
  8
SUNPOU
100
AcDbDimension
  2
*D26
 10
341.3452435495538
 20
264.2195259368881
 30
0.0
 11
298.8452435495537
 21
259.7195259368883
 31
0.0
 70
   160
 53
180.0
  3
SUNPOU_2
100
AcDbAlignedDimension
 13
256.3452435495539
 23
248.769525936888
 33
0.0
 14
341.3452435495538
 24
251.019525936888
 34
0.0
100
AcDbRotatedDimension
  0
DIMENSION
  5
14D7
330
A
100
AcDbEntity
  8
SUNPOU
100
AcDbDimension
  2
*D27
 10
148.7692820110923
 20
264.2195259368883
 30
0.0
 11
106.2692820110922
 21
259.7195259368883
 31
0.0
 70
   160
 53
180.0
  3
SUNPOU_2
100
AcDbAlignedDimension
 13
63.76928201109238
 23
251.019525936888
 33
0.0
 14
148.7692820110923
 24
248.769525936888
 34
0.0
100
AcDbRotatedDimension
  0
DIMENSION
  5
14E4
330
A
100
AcDbEntity
  8
SUNPOU
100
AcDbDimension
  2
*D28
 10
341.3452435495538
 20
277.1869240249869
 30
0.0
 11
202.5572627803231
 21
272.6869240249869
 31
0.0
 70
   160
  1
DH
 53
180.0
  3
SUNPOU_2
100
AcDbAlignedDimension
 13
63.76928201109238
 23
251.019525936888
 33
0.0
 14
341.3452435495538
 24
251.0195259368883
 34
0.0
100
AcDbRotatedDimension
  0
DIMENSION
  5
14F1
330
A
100
AcDbEntity
  8
SUNPOU
100
AcDbDimension
  2
*D29
 10
349.8447848594346
 20
277.1869240249869
 30
0.0
 11
360.1136756629748
 21
272.6869240249869
 31
0.0
 70
   160
 53
180.0
  3
SUNPOU_2
100
AcDbAlignedDimension
 13
341.3452435495538
 23
251.0195259368883
 33
0.0
 14
349.8447848594346
 24
246.0195259368956
 34
0.0
100
AcDbRotatedDimension
  0
DIMENSION
  5
1514
330
A
100
AcDbEntity
  8
SUNPOU
100
AcDbDimension
  2
*D30
 10
55.76928201109232
 20
79.29570010694397
 30
0.0
 11
51.2692820110923
 21
90.20074308537846
 31
0.0
 70
   160
  3
SUNPOU_2_10
100
AcDbAlignedDimension
 13
63.76928201109237
 23
76.79570010694397
 33
0.0
 14
63.76928201109237
 24
79.29570010694397
 34
0.0
 50
90.0
100
AcDbRotatedDimension
  0
DIMENSION
  5
1523
330
A
100
AcDbEntity
  8
SUNPOU
100
AcDbDimension
  2
*D31
 10
55.76928201109236
 20
168.1957001069439
 30
0.0
 11
51.26928201109235
 21
155.3082899979268
 31
0.0
 70
   160
  3
SUNPOU_2_10
100
AcDbAlignedDimension
 13
63.76928201109238
 23
165.6957001069439
 33
0.0
 14
63.76928201109238
 24
168.1957001069439
 34
0.0
 50
90.0
100
AcDbRotatedDimension
  0
DIMENSION
  5
1532
330
A
100
AcDbEntity
  8
SUNPOU
100
AcDbDimension
  2
*D32
 10
63.76928201109237
 20
68.79570010694397
 30
0.0
 11
82.62417604808115
 21
64.29570010694397
 31
0.0
 70
   160
 53
180.0
  3
SUNPOU_2_10
100
AcDbAlignedDimension
 13
72.26928201109237
 23
79.29570010694397
 33
0.0
 14
63.76928201109237
 24
76.79570010694397
 34
0.0
100
AcDbRotatedDimension
  0
DIMENSION
  5
1541
330
A
100
AcDbEntity
  8
SUNPOU
100
AcDbDimension
  2
*D33
 10
278.0192820110924
 20
68.79570010694395
 30
0.0
 11
258.5247677260654
 21
64.29570010694397
 31
0.0
 70
   160
 53
180.0
  3
SUNPOU_2_10
100
AcDbAlignedDimension
 13
268.7692820110924
 23
79.29570010694397
 33
0.0
 14
278.0192820110924
 24
76.79570010694397
 34
0.0
100
AcDbRotatedDimension
  0
DIMENSION
  5
17CE
330
A
100
AcDbEntity
  8
SUNPOU
100
AcDbDimension
  2
*D34
 10
287.1692820110924
 20
168.1957001069439
 30
0.0
 11
282.6692820110923
 21
122.495700106944
 31
0.0
 70
    32
  1
DW
  3
SUNPOU_2_10
100
AcDbAlignedDimension
 13
278.1543046242874
 23
76.79570010694397
 33
0.0
 14
278.3249071619569
 24
168.1957001069439
 34
0.0
 50
90.0
100
AcDbRotatedDimension
  0
DIMENSION
  5
17E4
330
A
100
AcDbEntity
  8
SUNPOU
100
AcDbDimension
  2
*D35
 10
277.1692820110923
 20
183.1957001069438
 30
0.0
 11
170.4692820110923
 21
178.6957001069438
 31
0.0
 70
   160
  1
DH
 53
180.0
  3
SUNPOU_2_10
100
AcDbAlignedDimension
 13
63.76928201109238
 23
168.1957001069439
 33
0.0
 14
277.1692820110923
 24
168.1957001069439
 34
0.0
100
AcDbRotatedDimension
  0
LEADER
  5
1807
330
A
100
AcDbEntity
  8
HIKIDASI
100
AcDbLeader
  3
SUNPOU_2
 73
     0
 75
     1
 40
5.0
 41
22.13333333333334
 76
     3
 10
87.30080895958989
 20
541.8050993005484
 30
0.0
 10
107.3096512471469
 20
530.3154342507125
 30
0.0
 10
107.3096512471469
 20
525.3154342507125
 30
0.0
340
1808
211
0.0000000000000001
221
1.0
231
0.0
1001
ACAD
1000
DSTYLE
1002
{
1070
     5
1000
OPEN30
1070
    77
1070
     1
1070
   147
1040
1.0
1070
   342
1005
12E7
1002
}
1000
LEANOF
1010
0.0
1020
0.0
1030
0.0
1000
LEANOF
1010
0.0
1020
0.0
1030
0.0
1000
LEANOF
1010
0.0
1020
0.0
1030
0.0
1000
LEANOF
1010
0.0
1020
0.0
1030
0.0
  0
MTEXT
  5
1808
330
A
100
AcDbEntity
  8
HIKIDASI
100
AcDbMText
 10
105.3096512471469
 20
523.3154342507125
 30
0.0
 40
5.0
 41
0.0
 71
     9
 72
     1
  1
コーキング
  7
SUNPOU
 11
0.0000000000000001
 21
1.0
 31
0.0
1001
ACAD
1000
MTEXTBEGIN
1070
    73
1070
     1
1070
    44
1040
1.0
1070
    74
1070
     0
1000
MTEXTEND
1000
MTEXTBEGIN
1070
    73
1070
     1
1070
    44
1040
1.0
1070
    74
1070
     0
1000
MTEXTEND
  0
LEADER
  5
1810
330
A
100
AcDbEntity
  8
HIKIDASI
100
AcDbLeader
  3
SUNPOU_2
 73
     0
 75
     1
 40
5.0
 41
38.39999999999999
 76
     3
 10
349.8447848594341
 20
224.0195259368674
 30
0.0
 10
378.1237629567943
 20
207.7233477319599
 30
0.0
 10
378.1237629567943
 20
202.72334773196
 30
0.0
340
1811
211
0.0000000000000001
221
1.0
231
0.0
1001
ACAD
1000
DSTYLE
1002
{
1070
     5
1000
OPEN30
1070
    77
1070
     1
1070
   147
1040
1.0
1070
   342
1005
12E7
1002
}
1000
LEANOF
1010
0.0
1020
0.0
1030
0.0
1000
LEANOF
1010
0.0
1020
0.0
1030
0.0
1000
LEANOF
1010
0.0
1020
0.0
1030
0.0
1000
LEANOF
1010
0.0
1020
0.0
1030
0.0
  0
MTEXT
  5
1811
330
A
100
AcDbEntity
  8
HIKIDASI
100
AcDbMText
 10
373.6237629567942
 20
200.72334773196
 30
0.0
 40
5.0
 41
0.0
 71
     6
 72
     1
  1
下部省エネシール
  7
SUNPOU
 11
0.0000000000000001
 21
1.0
 31
0.0
1001
ACAD
1000
MTEXTBEGIN
1070
    73
1070
     1
1070
    44
1040
1.0
1070
    74
1070
     0
1000
MTEXTEND
1000
MTEXTBEGIN
1070
    73
1070
     1
1070
    44
1040
1.0
1070
    74
1070
     0
1000
MTEXTEND
  0
LEADER
  5
181D
330
A
100
AcDbEntity
  8
HIKIDASI
100
AcDbLeader
  3
SUNPOU_2
 73
     0
 75
     1
 40
5.0
 41
22.66666666666667
 76
     3
 10
296.8382194289198
 20
221.5563381958418
 30
0.0
 10
286.7653213937973
 20
215.8052478786864
 30
0.0
 10
286.7653213937973
 20
210.8052478786865
 30
0.0
340
181E
211
0.0000000000000001
221
1.0
231
0.0
1001
ACAD
1000
DSTYLE
1002
{
1070
     5
1000
OPEN30
1070
    77
1070
     1
1070
   147
1040
1.0
1070
   342
1005
12E7
1002
}
1000
LEANOF
1010
0.0
1020
0.0
1030
0.0
1000
LEANOF
1010
0.0
1020
0.0
1030
0.0
1000
LEANOF
1010
0.0
1020
0.0
1030
0.0
1000
LEANOF
1010
0.0
1020
0.0
1030
0.0
  0
MTEXT
  5
181E
330
A
100
AcDbEntity
  8
HIKIDASI
100
AcDbMText
 10
284.7653213937977
 20
208.8052478786865
 30
0.0
 40
5.0
 41
0.0
 71
     9
 72
     1
  1
下フレーム
  7
SUNPOU
 11
0.0000000000000001
 21
1.0
 31
0.0
1001
ACAD
1000
MTEXTBEGIN
1070
    73
1070
     1
1070
    44
1040
1.0
1070
    74
1070
     0
1000
MTEXTEND
1000
MTEXTBEGIN
1070
    73
1070
     1
1070
    44
1040
1.0
1070
    74
1070
     0
1000
MTEXTEND
  0
MTEXT
  5
1825
330
A
100
AcDbEntity
  8
HIKIDASI
100
AcDbMText
 10
101.5732299110065
 20
208.0684356197333
 30
0.0
 40
5.0
 41
0.0
 71
     9
 72
     1
  1
上フレーム
  7
SUNPOU
 11
0.0000000000000001
 21
1.0
 31
0.0
1001
ACAD
1000
MTEXTBEGIN
1070
    73
1070
     1
1070
    44
1040
1.0
1070
    74
1070
     0
1000
MTEXTEND
1000
MTEXTBEGIN
1070
    73
1070
     1
1070
    44
1040
1.0
1070
    74
1070
     0
1000
MTEXTEND
  0
LEADER
  5
1826
330
A
100
AcDbEntity
  8
HIKIDASI
100
AcDbLeader
  3
SUNPOU_2
 73
     0
 75
     1
 40
5.0
 41
22.66666666666667
 76
     3
 10
113.6461279461286
 20
220.8195259368884
 30
0.0
 10
103.5732299110065
 20
215.0684356197333
 30
0.0
 10
103.5732299110065
 20
210.0684356197333
 30
0.0
340
1825
211
0.0000000000000001
221
1.0
231
0.0
1001
ACAD
1000
DSTYLE
1002
{
1070
     5
1000
OPEN30
1070
    77
1070
     1
1070
   147
1040
1.0
1070
   342
1005
12E7
1002
}
1000
LEANOF
1010
0.0
1020
0.0
1030
0.0
1000
LEANOF
1010
0.0
1020
0.0
1030
0.0
1000
LEANOF
1010
0.0
1020
0.0
1030
0.0
1000
LEANOF
1010
0.0
1020
0.0
1030
0.0
  0
LEADER
  5
1827
330
A
100
AcDbEntity
  8
HIKIDASI
100
AcDbLeader
  3
SUNPOU_2
 73
     0
 75
     1
 40
5.0
 41
28.79999999999999
 76
     3
 10
63.29472488259916
 20
225.7512999368548
 30
0.0
 10
53.22182684747706
 20
220.0002096196998
 30
0.0
 10
53.22182684747706
 20
215.0002096196998
 30
0.0
340
1828
211
0.0000000000000001
221
1.0
231
0.0
1001
ACAD
1000
DSTYLE
1002
{
1070
     5
1000
OPEN30
1070
    77
1070
     1
1070
   147
1040
1.0
1070
   342
1005
12E7
1002
}
1000
LEANOF
1010
0.0
1020
0.0
1030
0.0
1000
LEANOF
1010
0.0
1020
0.0
1030
0.0
1000
LEANOF
1010
0.0
1020
0.0
1030
0.0
1000
LEANOF
1010
0.0
1020
0.0
1030
0.0
  0
MTEXT
  5
1828
330
A
100
AcDbEntity
  8
HIKIDASI
100
AcDbMText
 10
51.22182684747706
 20
213.0002096196998
 30
0.0
 40
5.0
 41
0.0
 71
     9
 72
     1
  1
上部パッキン
  7
SUNPOU
 11
0.0000000000000001
 21
1.0
 31
0.0
1001
ACAD
1000
MTEXTBEGIN
1070
    73
1070
     1
1070
    44
1040
1.0
1070
    74
1070
     0
1000
MTEXTEND
1000
MTEXTBEGIN
1070
    73
1070
     1
1070
    44
1040
1.0
1070
    74
1070
     0
1000
MTEXTEND
  0
POLYLINE
  5
1832
330
A
100
AcDbEntity
  8
SAISEN
100
AcDb2dPolyline
 66
     1
 10
0.0
 20
0.0
 30
0.0
 70
     1
  0
VERTEX
  5
21D8
330
1832
100
AcDbEntity
  8
SAISEN
100
AcDbVertex
100
AcDb2dVertex
 10
29.62744371615849
 20
414.6237190423773
 30
0.0
  0
VERTEX
  5
21D9
330
1832
100
AcDbEntity
  8
SAISEN
100
AcDbVertex
100
AcDb2dVertex
 10
39.62744371615849
 20
414.6237190423773
 30
0.0
  0
VERTEX
  5
21DA
330
1832
100
AcDbEntity
  8
SAISEN
100
AcDbVertex
100
AcDb2dVertex
 10
39.62744371615849
 20
474.6237190423774
 30
0.0
  0
VERTEX
  5
21DB
330
1832
100
AcDbEntity
  8
SAISEN
100
AcDbVertex
100
AcDb2dVertex
 10
29.62744371615855
 20
474.6237190423774
 30
0.0
  0
SEQEND
  5
21DC
330
1832
100
AcDbEntity
  8
SAISEN
  0
MTEXT
  5
1836
330
A
100
AcDbEntity
  8
MOJI
100
AcDbMText
 10
34.62744371615849
 20
444.6237190423773
 30
0.0
 40
6.0
 41
60.0
 71
     5
 72
     1
  1
Fix 納りタイプ
  7
SUNPOU
 11
0.0000000000000001
 21
1.0
 31
0.0
1001
ACAD
1000
MTEXTBEGIN
1070
    73
1070
     1
1070
    44
1040
1.0
1070
    74
1070
     0
1000
MTEXTEND
1000
MTEXTBEGIN
1070
    73
1070
     1
1070
    44
1040
1.0
1070
    74
1070
     0
1000
MTEXTEND
  0
MTEXT
  5
1837
330
A
100
AcDbEntity
  8
MOJI
100
AcDbMText
 10
248.8802507836989
 20
342.9973187823755
 30
0.0
 40
6.0
 41
60.0
 71
     5
 72
     1
  1
片引き　戸当たり部
  7
SUNPOU
 11
0.0000000000000001
 21
1.0
 31
0.0
1001
ACAD
1000
MTEXTBEGIN
1070
    73
1070
     1
1070
    44
1040
1.0
1070
    74
1070
     0
1000
MTEXTEND
1000
MTEXTBEGIN
1070
    73
1070
     1
1070
    44
1040
1.0
1070
    74
1070
     0
1000
MTEXTEND
  0
POLYLINE
  5
1838
330
A
100
AcDbEntity
  8
SAISEN
100
AcDb2dPolyline
 66
     1
 10
0.0
 20
0.0
 30
0.0
 70
     1
  0
VERTEX
  5
21DD
330
1838
100
AcDbEntity
  8
SAISEN
100
AcDbVertex
100
AcDb2dVertex
 10
243.8802507836989
 20
312.9973187823753
 30
0.0
  0
VERTEX
  5
21DE
330
1838
100
AcDbEntity
  8
SAISEN
100
AcDbVertex
100
AcDb2dVertex
 10
253.8802507836989
 20
312.9973187823753
 30
0.0
  0
VERTEX
  5
21DF
330
1838
100
AcDbEntity
  8
SAISEN
100
AcDbVertex
100
AcDb2dVertex
 10
253.8802507836989
 20
372.9973187823754
 30
0.0
  0
VERTEX
  5
21E0
330
1838
100
AcDbEntity
  8
SAISEN
100
AcDbVertex
100
AcDb2dVertex
 10
243.880250783699
 20
372.9973187823754
 30
0.0
  0
SEQEND
  5
21E1
330
1838
100
AcDbEntity
  8
SAISEN
  0
POLYLINE
  5
183D
330
A
100
AcDbEntity
  8
SAISEN
100
AcDb2dPolyline
 66
     1
 10
0.0
 20
0.0
 30
0.0
 70
     1
  0
VERTEX
  5
21E2
330
183D
100
AcDbEntity
  8
SAISEN
100
AcDbVertex
100
AcDb2dVertex
 10
323.7649537552786
 20
404.1903406768692
 30
0.0
  0
VERTEX
  5
21E3
330
183D
100
AcDbEntity
  8
SAISEN
100
AcDbVertex
100
AcDb2dVertex
 10
333.7649537552786
 20
404.1903406768692
 30
0.0
  0
VERTEX
  5
21E4
330
183D
100
AcDbEntity
  8
SAISEN
100
AcDbVertex
100
AcDb2dVertex
 10
333.7649537552786
 20
464.1903406768691
 30
0.0
  0
VERTEX
  5
21E5
330
183D
100
AcDbEntity
  8
SAISEN
100
AcDbVertex
100
AcDb2dVertex
 10
323.7649537552787
 20
464.1903406768691
 30
0.0
  0
SEQEND
  5
21E6
330
183D
100
AcDbEntity
  8
SAISEN
  0
MTEXT
  5
183E
330
A
100
AcDbEntity
  8
MOJI
100
AcDbMText
 10
328.7649537552786
 20
434.1903406768691
 30
0.0
 40
6.0
 41
60.0
 71
     5
 72
     1
  1
引分け　戸当たり部
  7
SUNPOU
 11
0.0000000000000001
 21
1.0
 31
0.0
1001
ACAD
1000
MTEXTBEGIN
1070
    73
1070
     1
1070
    44
1040
1.0
1070
    74
1070
     0
1000
MTEXTEND
1000
MTEXTBEGIN
1070
    73
1070
     1
1070
    44
1040
1.0
1070
    74
1070
     0
1000
MTEXTEND
  0
POLYLINE
  5
1840
330
A
100
AcDbEntity
  8
SAISEN
100
AcDb2dPolyline
 66
     1
 10
0.0
 20
0.0
 30
0.0
 70
     1
  0
VERTEX
  5
21E7
330
1840
100
AcDbEntity
  8
SAISEN
100
AcDbVertex
100
AcDb2dVertex
 10
39.62744371615849
 20
280.6695259368883
 30
0.0
  0
VERTEX
  5
21E8
330
1840
100
AcDbEntity
  8
SAISEN
100
AcDbVertex
100
AcDb2dVertex
 10
39.62744371615849
 20
360.6695259368882
 30
0.0
  0
VERTEX
  5
21E9
330
1840
100
AcDbEntity
  8
SAISEN
100
AcDbVertex
100
AcDb2dVertex
 10
29.62744371615849
 20
360.6695259368882
 30
0.0
  0
VERTEX
  5
21EA
330
1840
100
AcDbEntity
  8
SAISEN
100
AcDbVertex
100
AcDb2dVertex
 10
29.62744371615849
 20
280.6695259368883
 30
0.0
  0
SEQEND
  5
21EB
330
1840
100
AcDbEntity
  8
SAISEN
  0
MTEXT
  5
1841
330
A
100
AcDbEntity
  8
MOJI
100
AcDbMText
 10
34.62744371615849
 20
320.6695259368883
 30
0.0
 40
6.0
 41
80.0
 71
     5
 72
     1
  1
上フレーム25タイプ納り
  7
0_8
 11
0.0000000000000001
 21
1.0
 31
0.0
1001
ACAD
1000
MTEXTBEGIN
1070
    73
1070
     1
1070
    44
1040
1.0
1070
    74
1070
     0
1000
MTEXTEND
1000
MTEXTBEGIN
1070
    73
1070
     1
1070
    44
1040
1.0
1070
    74
1070
     0
1000
MTEXTEND
  0
LEADER
  5
1844
330
A
100
AcDbEntity
  8
HIKIDASI
100
AcDbLeader
  3
SUNPOU_2
 73
     0
 74
     0
 75
     1
 40
5.0
 41
42.00000000000001
 76
     3
 10
349.8277770733163
 20
333.2278786934661
 30
0.0
 10
337.3345041544395
 20
345.5732767704673
 30
0.0
 10
337.3345041544395
 20
350.5732767704673
 30
0.0
340
1845
211
0.0000000000000001
221
1.0
231
0.0
1001
ACAD
1000
DSTYLE
1002
{
1070
     5
1000
OPEN30
1070
    77
1070
     1
1070
   147
1040
1.0
1070
   342
1005
12E7
1002
}
1000
LEANOF
1010
0.0
1020
0.0
1030
0.0
1000
LEANOF
1010
0.0
1020
0.0
1030
0.0
1000
LEANOF
1010
0.0
1020
0.0
1030
0.0
1000
LEANOF
1010
0.0
1020
0.0
1030
0.0
  0
MTEXT
  5
1845
330
A
100
AcDbEntity
  8
HIKIDASI
100
AcDbMText
 10
335.3345041544395
 20
352.5732767704673
 30
0.0
 40
5.0
 41
0.0
 71
     7
 72
     1
  1
SUS－304 ｔ1.5
  7
SUNPOU
 11
0.0000000000000001
 21
1.0
 31
0.0
1001
ACAD
1000
MTEXTBEGIN
1070
    73
1070
     1
1070
    44
1040
1.0
1070
    74
1070
     0
1000
MTEXTEND
1000
MTEXTBEGIN
1070
    73
1070
     1
1070
    44
1040
1.0
1070
    74
1070
     0
1000
MTEXTEND
  0
LEADER
  5
186E
330
A
100
AcDbEntity
  8
HIKIDASI
100
AcDbLeader
  3
SUNPOU_2
 73
     0
 74
     0
 75
     1
 40
5.0
 41
52.26666666666666
 76
     3
 10
63.76928201109238
 20
320.6695259368883
 30
0.0
 10
51.27600909221553
 20
333.0149240138895
 30
0.0
 10
51.27600909221553
 20
338.0149240138895
 30
0.0
340
186F
211
0.0000000000000001
221
1.0
231
0.0
1001
ACAD
1000
DSTYLE
1002
{
1070
     5
1000
OPEN30
1070
    77
1070
     1
1070
   147
1040
1.0
1070
   342
1005
12E7
1002
}
1000
LEANOF
1010
0.0
1020
0.0
1030
0.0
1000
LEANOF
1010
0.0
1020
0.0
1030
0.0
1000
LEANOF
1010
0.0
1020
0.0
1030
0.0
1000
LEANOF
1010
0.0
1020
0.0
1030
0.0
  0
MTEXT
  5
186F
330
A
100
AcDbEntity
  8
HIKIDASI
100
AcDbMText
 10
49.27600909221553
 20
340.0149240138895
 30
0.0
 40
5.0
 41
0.0
 71
     7
 72
     1
  1
ハンガピッチ穴指定の事
  7
SUNPOU
 11
0.0000000000000001
 21
1.0
 31
0.0
1001
ACAD
1000
MTEXTBEGIN
1070
    73
1070
     1
1070
    44
1040
1.0
1070
    74
1070
     0
1000
MTEXTEND
1000
MTEXTBEGIN
1070
    73
1070
     1
1070
    44
1040
1.0
1070
    74
1070
     0
1000
MTEXTEND
  0
MTEXT
  5
1A97
330
A
100
AcDbEntity
  8
MOJI
100
AcDbMText
 10
303.4188647393964
 20
130.964621712785
 30
0.0
 40
6.0
 41
104.3010518239666
 71
     5
 72
     1
  1
最大寸法mm
  7
0_8
 11
0.0000000000000001
 21
1.0
 31
0.0
1001
ACAD
1000
MTEXTBEGIN
1070
    73
1070
     1
1070
    44
1040
1.0
1070
    74
1070
     0
1000
MTEXTEND
1000
MTEXTBEGIN
1070
    73
1070
     1
1070
    44
1040
1.0
1070
    74
1070
     0
1000
MTEXTEND
  0
MTEXT
  5
1A98
330
A
100
AcDbEntity
  8
MOJI
100
AcDbMText
 10
313.4188647393965
 20
150.9646217127848
 30
0.0
 40
6.0
 41
64.30105182396665
 71
     5
 72
     1
  1
 DW×DH
  7
0_8
 11
0.0000000000000001
 21
1.0
 31
0.0
1001
ACAD
1000
MTEXTBEGIN
1070
    73
1070
     1
1070
    44
1040
1.0
1070
    74
1070
     0
1000
MTEXTEND
1000
MTEXTBEGIN
1070
    73
1070
     1
1070
    44
1040
1.0
1070
    74
1070
     0
1000
MTEXTEND
  0
MTEXT
  5
1A9A
330
A
100
AcDbEntity
  8
MOJI
100
AcDbMText
 10
343.4188647393964
 20
150.9646217127848
 30
0.0
 40
6.0
 41
64.30105182396665
 71
     5
 72
     1
  1
1600×3000
  7
0_8
 11
0.0000000000000001
 21
1.0
 31
0.0
1001
ACAD
1000
MTEXTBEGIN
1070
    73
1070
     1
1070
    44
1040
1.0
1070
    74
1070
     0
1000
MTEXTEND
1000
MTEXTBEGIN
1070
    73
1070
     1
1070
    44
1040
1.0
1070
    74
1070
     0
1000
MTEXTEND
  0
MTEXT
  5
1A9B
330
A
100
AcDbEntity
  8
MOJI
100
AcDbMText
 10
333.4188647393965
 20
150.9646217127848
 30
0.0
 40
6.0
 41
64.30105182396665
 71
     5
 72
     1
  1
1300×2500
  7
0_8
 11
0.0000000000000001
 21
1.0
 31
0.0
1001
ACAD
1000
MTEXTBEGIN
1070
    73
1070
     1
1070
    44
1040
1.0
1070
    74
1070
     0
1000
MTEXTEND
1000
MTEXTBEGIN
1070
    73
1070
     1
1070
    44
1040
1.0
1070
    74
1070
     0
1000
MTEXTEND
  0
MTEXT
  5
1A9C
330
A
100
AcDbEntity
  8
MOJI
100
AcDbMText
 10
323.4188647393965
 20
150.9646217127848
 30
0.0
 40
6.0
 41
64.30105182396665
 71
     5
 72
     1
  1
1200×2500
  7
0_8
 11
0.0000000000000001
 21
1.0
 31
0.0
1001
ACAD
1000
MTEXTBEGIN
1070
    73
1070
     1
1070
    44
1040
1.0
1070
    74
1070
     0
1000
MTEXTEND
1000
MTEXTBEGIN
1070
    73
1070
     1
1070
    44
1040
1.0
1070
    74
1070
     0
1000
MTEXTEND
  0
LINE
  5
1A9F
330
A
100
AcDbEntity
  8
SAISEN
100
AcDbLine
 10
348.4188647393965
 20
78.81409580080179
 30
0.0
 11
348.4188647393965
 21
183.1151476247684
 31
0.0
  0
MTEXT
  5
1AA0
330
A
100
AcDbEntity
  8
MOJI
100
AcDbMText
 10
343.4188647393964
 20
98.8140958008018
 30
0.0
 40
6.0
 41
40.0
 71
     5
 72
     1
  1
10
  7
0_8
 11
0.0000000000000001
 21
1.0
 31
0.0
1001
ACAD
1000
MTEXTBEGIN
1070
    73
1070
     1
1070
    44
1040
1.0
1070
    74
1070
     0
1000
MTEXTEND
1000
MTEXTBEGIN
1070
    73
1070
     1
1070
    44
1040
1.0
1070
    74
1070
     0
1000
MTEXTEND
  0
MTEXT
  5
1AA1
330
A
100
AcDbEntity
  8
MOJI
100
AcDbMText
 10
333.4188647393965
 20
98.8140958008018
 30
0.0
 40
6.0
 41
40.0
 71
     5
 72
     1
  1
8
  7
0_8
 11
0.0000000000000001
 21
1.0
 31
0.0
1001
ACAD
1000
MTEXTBEGIN
1070
    73
1070
     1
1070
    44
1040
1.0
1070
    74
1070
     0
1000
MTEXTEND
1000
MTEXTBEGIN
1070
    73
1070
     1
1070
    44
1040
1.0
1070
    74
1070
     0
1000
MTEXTEND
  0
MTEXT
  5
1AA2
330
A
100
AcDbEntity
  8
MOJI
100
AcDbMText
 10
323.4188647393965
 20
98.8140958008018
 30
0.0
 40
6.0
 41
40.0
 71
     5
 72
     1
  1
6
  7
0_8
 11
0.0000000000000001
 21
1.0
 31
0.0
1001
ACAD
1000
MTEXTBEGIN
1070
    73
1070
     1
1070
    44
1040
1.0
1070
    74
1070
     0
1000
MTEXTEND
1000
MTEXTBEGIN
1070
    73
1070
     1
1070
    44
1040
1.0
1070
    74
1070
     0
1000
MTEXTEND
  0
MTEXT
  5
1AA3
330
A
100
AcDbEntity
  8
MOJI
100
AcDbMText
 10
313.4188647393965
 20
98.8140958008018
 30
0.0
 40
6.0
 41
40.0
 71
     5
 72
     1
  1
ガラス厚mm
  7
0_8
 11
0.0000000000000001
 21
1.0
 31
0.0
1001
ACAD
1000
MTEXTBEGIN
1070
    73
1070
     1
1070
    44
1040
1.0
1070
    74
1070
     0
1000
MTEXTEND
1000
MTEXTBEGIN
1070
    73
1070
     1
1070
    44
1040
1.0
1070
    74
1070
     0
1000
MTEXTEND
  0
LINE
  5
1AA4
330
A
100
AcDbEntity
  8
SAISEN
100
AcDbLine
 10
318.4188647393964
 20
183.1151476247684
 30
0.0
 11
318.4188647393964
 21
78.81409580080179
 31
0.0
  0
LINE
  5
1AA5
330
A
100
AcDbEntity
  8
SAISEN
100
AcDbLine
 10
328.4188647393964
 20
78.81409580080179
 30
0.0
 11
328.4188647393964
 21
183.1151476247684
 31
0.0
  0
LINE
  5
1AA6
330
A
100
AcDbEntity
  8
SAISEN
100
AcDbLine
 10
338.4188647393965
 20
78.81409580080179
 30
0.0
 11
338.4188647393965
 21
183.1151476247684
 31
0.0
  0
LINE
  5
1AA7
330
A
100
AcDbEntity
  8
SAISEN
100
AcDbLine
 10
348.4188647393965
 20
183.1151476247684
 30
0.0
 11
348.4188647393965
 21
78.81409580080179
 31
0.0
  0
LINE
  5
1AA8
330
A
100
AcDbEntity
  8
SAISEN
100
AcDbLine
 10
308.4188647393965
 20
78.81409580080179
 30
0.0
 11
308.4188647393965
 21
183.1151476247684
 31
0.0
  0
LINE
  5
1AA9
330
A
100
AcDbEntity
  8
SAISEN
100
AcDbLine
 10
308.4188647393965
 20
78.81409580080179
 30
0.0
 11
348.4188647393966
 21
78.81409580080179
 31
0.0
  0
LINE
  5
1AAA
330
A
100
AcDbEntity
  8
SAISEN
100
AcDbLine
 10
308.4188647393965
 20
118.8140958008015
 30
0.0
 11
348.4188647393966
 21
118.8140958008015
 31
0.0
  0
LINE
  5
1AAB
330
A
100
AcDbEntity
  8
SAISEN
100
AcDbLine
 10
308.4188647393965
 20
183.1151476247684
 30
0.0
 11
348.4188647393966
 21
183.1151476247685
 31
0.0
  0
LINE
  5
1E8D
330
A
100
AcDbEntity
  8
06
100
AcDbLine
 10
270.5144230769229
 20
303.8525420824553
 30
0.0
 11
289.5144230769228
 21
303.8525420824553
 31
0.0
  0
LINE
  5
1E8F
330
A
100
AcDbEntity
  8
04
100
AcDbLine
 10
372.8277770733163
 20
352.694506437418
 30
0.0
 11
372.8277770733163
 21
354.1945064374178
 31
0.0
  0
LINE
  5
1F07
330
A
100
AcDbEntity
  8
04
100
AcDbLine
 10
120.2692820110923
 20
243.019525936888
 30
0.0
 11
120.2692820110923
 21
227.0195259368882
 31
0.0
  0
LINE
  5
1F08
330
A
100
AcDbEntity
  8
04
100
AcDbLine
 10
148.7692820110924
 20
243.019525936888
 30
0.0
 11
120.2692820110923
 21
243.019525936888
 31
0.0
  0
LINE
  5
1F09
330
A
100
AcDbEntity
  8
04
100
AcDbLine
 10
120.2692820110923
 20
227.0195259368882
 30
0.0
 11
148.7692820110924
 21
227.0195259368882
 31
0.0
  0
LINE
  5
1F0A
330
A
100
AcDbEntity
  8
04
100
AcDbLine
 10
284.8452435495536
 20
243.019525936888
 30
0.0
 11
256.3452435495539
 21
243.019525936888
 31
0.0
  0
LINE
  5
1F0C
330
A
100
AcDbEntity
  8
04
100
AcDbLine
 10
256.3452435495539
 20
227.0195259368882
 30
0.0
 11
284.8452435495536
 21
227.0195259368883
 31
0.0
  0
LINE
  5
1F1D
330
A
100
AcDbEntity
  8
04
100
AcDbLine
 10
63.7692820110923
 20
248.0195259368882
 30
0.0
 11
64.2692820110924
 21
248.0195259368882
 31
0.0
  0
LINE
  5
1F1E
330
A
100
AcDbEntity
  8
04
100
AcDbLine
 10
63.7692820110923
 20
222.019525936888
 30
0.0
 11
64.2692820110924
 21
222.019525936888
 31
0.0
  0
LINE
  5
1F47
330
A
100
AcDbEntity
  8
06
100
AcDbLine
 10
341.3452435495538
 20
248.0195259368882
 30
0.0
 11
341.8452435495543
 21
248.019525936888
 31
0.0
  0
LINE
  5
1F48
330
A
100
AcDbEntity
  8
06
100
AcDbLine
 10
341.3452435495538
 20
222.019525936888
 30
0.0
 11
341.8452435495543
 21
222.019525936888
 31
0.0
  0
LINE
  5
1F68
330
A
100
AcDbEntity
  8
06
100
AcDbLine
 10
344.0895688393333
 20
245.4097962674993
 30
0.0
 11
343.9346011651287
 21
245.5647639417039
 31
0.0
  0
LINE
  5
1F69
330
A
100
AcDbEntity
  8
06
100
AcDbLine
 10
349.8448461046864
 20
246.0184800328251
 30
0.0
 11
349.5770373106946
 21
246.2862888268169
 31
0.0
  0
LINE
  5
1F6A
330
A
100
AcDbEntity
  8
06
100
AcDbLine
 10
341.8452435495543
 20
248.0195259368882
 30
0.0
 11
341.8452435495538
 21
246.769525936888
 31
0.0
  0
LINE
  5
1F6B
330
A
100
AcDbEntity
  8
06
100
AcDbLine
 10
341.8452435495543
 20
222.019525936888
 30
0.0
 11
341.8452435495543
 21
223.2695259368882
 31
0.0
  0
LINE
  5
1F6C
330
A
100
AcDbEntity
  8
06
100
AcDbLine
 10
349.6108381210893
 20
223.754875597609
 30
0.0
 11
341.8452435495543
 21
223.2695259368882
 31
0.0
  0
LINE
  5
1F6D
330
A
100
AcDbEntity
  8
06
100
AcDbLine
 10
341.8452435495543
 20
224.769525936888
 30
0.0
 11
343.7326321001786
 21
224.651564152474
 31
0.0
  0
LINE
  5
1F6E
330
A
100
AcDbEntity
  8
06
100
AcDbLine
 10
344.0045476059338
 20
224.6345694333644
 30
0.0
 11
345.7701692499704
 21
224.5242180806121
 31
0.0
  0
LINE
  5
1F6F
330
A
100
AcDbEntity
  8
06
100
AcDbLine
 10
345.9514462538074
 20
224.5128882678725
 30
0.0
 11
347.807706399764
 21
224.39687200875
 31
0.0
  0
LINE
  5
1F70
330
A
100
AcDbEntity
  8
06
100
AcDbLine
 10
347.8983449016809
 20
224.3912071023804
 30
0.0
 11
349.610838121092
 21
224.2841762761671
 31
0.0
  0
LINE
  5
1F71
330
A
100
AcDbEntity
  8
06
100
AcDbLine
 10
349.6108381210913
 20
245.7548755976088
 30
0.0
 11
347.8983449016809
 21
245.6478447713961
 31
0.0
  0
LINE
  5
1F72
330
A
100
AcDbEntity
  8
06
100
AcDbLine
 10
347.8077063997623
 20
245.642179865026
 30
0.0
 11
345.9514462538074
 21
245.5261636059041
 31
0.0
  0
LINE
  5
1F73
330
A
100
AcDbEntity
  8
06
100
AcDbLine
 10
345.7701692499706
 20
245.5148337931639
 30
0.0
 11
344.0045476059338
 21
245.4044824404116
 31
0.0
  0
LINE
  5
1F74
330
A
100
AcDbEntity
  8
06
100
AcDbLine
 10
343.7326321001787
 20
245.3874877213022
 30
0.0
 11
341.8452435495543
 21
245.2695259368879
 31
0.0
  0
LINE
  5
1F75
330
A
100
AcDbEntity
  8
06
100
AcDbLine
 10
341.8452435495543
 20
246.769525936888
 30
0.0
 11
349.6108381210906
 21
246.2841762761672
 31
0.0
  0
LINE
  5
1F76
330
A
100
AcDbEntity
  8
06
100
AcDbLine
 10
341.8452435495543
 20
245.2695259368879
 30
0.0
 11
341.8452435495543
 21
224.769525936888
 31
0.0
  0
LINE
  5
1F77
330
A
100
AcDbEntity
  8
06
100
AcDbLine
 10
343.8452435495543
 20
245.7695259368882
 30
0.0
 11
343.7326321001787
 21
245.3874877213024
 31
0.0
  0
LINE
  5
1F78
330
A
100
AcDbEntity
  8
06
100
AcDbLine
 10
343.8452435495543
 20
245.7695259368883
 30
0.0
 11
344.0045476059352
 21
245.4044824404116
 31
0.0
  0
LINE
  5
1F79
330
A
100
AcDbEntity
  8
06
100
AcDbLine
 10
345.8452435495543
 20
245.7695259368882
 30
0.0
 11
345.7701692499706
 21
245.5148337931643
 31
0.0
  0
LINE
  5
1F7A
330
A
100
AcDbEntity
  8
06
100
AcDbLine
 10
345.8452435495543
 20
245.7695259368883
 30
0.0
 11
345.9514462538074
 21
245.5261636059041
 31
0.0
  0
LINE
  5
1F7B
330
A
100
AcDbEntity
  8
06
100
AcDbLine
 10
347.8452435495543
 20
245.7695259368882
 30
0.0
 11
347.8077063997623
 21
245.6421798650264
 31
0.0
  0
LINE
  5
1F7C
330
A
100
AcDbEntity
  8
06
100
AcDbLine
 10
347.8452435495543
 20
245.7695259368883
 30
0.0
 11
347.8983449016739
 21
245.6478447713961
 31
0.0
  0
LINE
  5
1F7D
330
A
100
AcDbEntity
  8
06
100
AcDbLine
 10
343.8452435495543
 20
224.269525936888
 30
0.0
 11
344.0045476059338
 21
224.6345694333644
 31
0.0
  0
LINE
  5
1F7E
330
A
100
AcDbEntity
  8
06
100
AcDbLine
 10
343.8452435495543
 20
224.2695259368883
 30
0.0
 11
343.7326321001786
 21
224.6515641524743
 31
0.0
  0
LINE
  5
1F7F
330
A
100
AcDbEntity
  8
06
100
AcDbLine
 10
345.8452435495543
 20
224.269525936888
 30
0.0
 11
345.9514462538074
 21
224.5128882678725
 31
0.0
  0
LINE
  5
1F80
330
A
100
AcDbEntity
  8
06
100
AcDbLine
 10
345.8452435495543
 20
224.2695259368883
 30
0.0
 11
345.7701692499704
 21
224.5242180806121
 31
0.0
  0
LINE
  5
1F81
330
A
100
AcDbEntity
  8
06
100
AcDbLine
 10
347.8452435495543
 20
224.269525936888
 30
0.0
 11
347.8983449016843
 21
224.3912071023804
 31
0.0
  0
LINE
  5
1F82
330
A
100
AcDbEntity
  8
06
100
AcDbLine
 10
347.8452435495575
 20
224.2695259368824
 30
0.0
 11
347.8077063997623
 21
224.3968720087503
 31
0.0
  0
ARC
  5
1F83
330
A
100
AcDbEntity
  8
06
100
AcDbCircle
 10
349.5952435495518
 20
246.0346631315465
 30
0.0
 40
0.25
100
AcDbArc
 50
356.5286872606856
 51
86.42366562500198
  0
ARC
  5
1F84
330
A
100
AcDbEntity
  8
06
100
AcDbCircle
 10
349.5952435495526
 20
246.0043887422294
 30
0.0
 40
0.25
100
AcDbArc
 50
273.576334374999
 51
3.471312739314241
  0
ARC
  5
1F85
330
A
100
AcDbEntity
  8
06
100
AcDbCircle
 10
349.5952435495532
 20
224.0346631315464
 30
0.0
 40
0.25
100
AcDbArc
 50
356.5286872607186
 51
86.4236656250031
  0
ARC
  5
1F86
330
A
100
AcDbEntity
  8
06
100
AcDbCircle
 10
349.5952435495506
 20
224.0043887422295
 30
0.0
 40
0.25
100
AcDbArc
 50
273.5763343749981
 51
3.471312739278111
  0
LINE
  5
1FAB
330
A
100
AcDbEntity
  8
04
100
AcDbLine
 10
68.01442307692318
 20
461.6998268243214
 30
0.0
 11
68.01442307692318
 21
460.1998268243216
 31
0.0
  0
LINE
  5
1FAC
330
A
100
AcDbEntity
  8
04
100
AcDbLine
 10
78.01442307692319
 20
461.6998268243214
 30
0.0
 11
78.01442307692319
 21
460.1998268243216
 31
0.0
  0
LINE
  5
1FAD
330
A
100
AcDbEntity
  8
04
100
AcDbLine
 10
148.014423076923
 20
460.1998268243216
 30
0.0
 11
148.014423076923
 21
461.6998268243214
 31
0.0
  0
LINE
  5
1FAE
330
A
100
AcDbEntity
  8
04
100
AcDbLine
 10
158.0144230769231
 20
460.1998268243216
 30
0.0
 11
158.0144230769231
 21
461.6998268243214
 31
0.0
  0
LINE
  5
1FAF
330
A
100
AcDbEntity
  8
04
100
AcDbLine
 10
238.0144230769229
 20
520.4500141032779
 30
0.0
 11
238.0144230769229
 21
518.9500141032779
 31
0.0
  0
LINE
  5
1FB0
330
A
100
AcDbEntity
  8
04
100
AcDbLine
 10
248.014423076923
 20
520.4500141032779
 30
0.0
 11
248.014423076923
 21
518.9500141032779
 31
0.0
  0
LINE
  5
1FB1
330
A
100
AcDbEntity
  8
04
100
AcDbLine
 10
238.0144230769229
 20
461.6998268243214
 30
0.0
 11
238.0144230769229
 21
460.1998268243216
 31
0.0
  0
LINE
  5
1FB2
330
A
100
AcDbEntity
  8
04
100
AcDbLine
 10
248.014423076923
 20
461.6998268243214
 30
0.0
 11
248.014423076923
 21
460.1998268243216
 31
0.0
  0
LINE
  5
1FB3
330
A
100
AcDbEntity
  8
04
100
AcDbLine
 10
275.0144230769229
 20
438.1998268243215
 30
0.0
 11
275.0144230769229
 21
436.6998268243214
 31
0.0
  0
LINE
  5
1FB4
330
A
100
AcDbEntity
  8
04
100
AcDbLine
 10
285.0144230769231
 20
438.1998268243215
 30
0.0
 11
285.0144230769231
 21
436.6998268243214
 31
0.0
  0
LINE
  5
1FB5
330
A
100
AcDbEntity
  8
04
100
AcDbLine
 10
264.0144230769231
 20
452.1998268243216
 30
0.0
 11
265.5144230769229
 21
452.1998268243216
 31
0.0
  0
LINE
  5
1FB6
330
A
100
AcDbEntity
  8
04
100
AcDbLine
 10
264.0144230769231
 20
447.1998268243216
 30
0.0
 11
265.5144230769229
 21
447.1998268243216
 31
0.0
  0
LINE
  5
1FB8
330
A
100
AcDbEntity
  8
04
100
AcDbLine
 10
275.0144230769229
 20
372.3525420824552
 30
0.0
 11
275.0144230769229
 21
370.8525420824552
 31
0.0
  0
LINE
  5
1FB9
330
A
100
AcDbEntity
  8
04
100
AcDbLine
 10
285.0144230769227
 20
372.3525420824552
 30
0.0
 11
285.0144230769227
 21
370.8525420824552
 31
0.0
  0
LINE
  5
1FBA
330
A
100
AcDbEntity
  8
04
100
AcDbLine
 10
275.0144230769229
 20
322.3525420824553
 30
0.0
 11
275.0144230769229
 21
320.8525420824553
 31
0.0
  0
LINE
  5
1FBB
330
A
100
AcDbEntity
  8
04
100
AcDbLine
 10
285.0144230769227
 20
322.3525420824553
 30
0.0
 11
285.0144230769227
 21
320.8525420824553
 31
0.0
  0
LINE
  5
1FBC
330
A
100
AcDbEntity
  8
04
100
AcDbLine
 10
360.8277770733162
 20
384.194506437418
 30
0.0
 11
360.8277770733162
 21
382.694506437418
 31
0.0
  0
LINE
  5
1FBD
330
A
100
AcDbEntity
  8
04
100
AcDbLine
 10
370.8277770733163
 20
384.194506437418
 30
0.0
 11
370.8277770733163
 21
382.694506437418
 31
0.0
  0
LINE
  5
1FBE
330
A
100
AcDbEntity
  8
04
100
AcDbLine
 10
360.8277770733163
 20
330.694506437418
 30
0.0
 11
360.8277770733163
 21
329.1945064374178
 31
0.0
  0
LINE
  5
1FC0
330
A
100
AcDbEntity
  8
04
100
AcDbLine
 10
370.8277770733163
 20
330.694506437418
 30
0.0
 11
370.8277770733163
 21
329.1945064374178
 31
0.0
  0
CIRCLE
  5
2021
330
A
100
AcDbEntity
  8
SAISEN
100
AcDbCircle
 10
391.0976380784321
 20
52.54302641223159
 30
0.0
 40
5.0
  0
TEXT
  5
2022
330
A
100
AcDbEntity
  8
MOJI
100
AcDbText
 10
388.0488190392161
 20
48.27151320611588
 30
0.0
 40
8.0
  1
Ｓ
 41
0.8
  7
0_8
 11
388.0488190392161
 21
56.27151320611588
 31
0.0
100
AcDbText
 73
     3
  0
LINE
  5
2049
330
A
100
AcDbEntity
  8
04
100
AcDbLine
 10
273.014423076923
 20
298.8525420824553
 30
0.0
 11
273.014423076923
 21
297.3525420824553
 31
0.0
  0
LINE
  5
204A
330
A
100
AcDbEntity
  8
04
100
AcDbLine
 10
287.0144230769227
 20
298.8525420824553
 30
0.0
 11
287.0144230769227
 21
297.3525420824553
 31
0.0
  0
LINE
  5
2060
330
A
100
AcDbEntity
  8
04
100
AcDbLine
 10
341.3452435495538
 20
249.519525936888
 30
0.0
 11
341.3452435495538
 21
248.0195259368882
 31
0.0
  0
LINE
  5
2061
330
A
100
AcDbEntity
  8
04
100
AcDbLine
 10
341.3452435495538
 20
220.519525936888
 30
0.0
 11
341.3452435495538
 21
222.019525936888
 31
0.0
  0
LINE
  5
2062
330
A
100
AcDbEntity
  8
04
100
AcDbLine
 10
63.7692820110923
 20
249.519525936888
 30
0.0
 11
63.7692820110923
 21
248.0195259368882
 31
0.0
  0
LINE
  5
2063
330
A
100
AcDbEntity
  8
04
100
AcDbLine
 10
63.7692820110923
 20
220.519525936888
 30
0.0
 11
63.7692820110923
 21
222.019525936888
 31
0.0
  0
LINE
  5
2064
330
A
100
AcDbEntity
  8
04
100
AcDbLine
 10
63.76928201109238
 20
334.6695259368883
 30
0.0
 11
63.76928201109238
 21
333.1695259368883
 31
0.0
  0
LINE
  5
2065
330
A
100
AcDbEntity
  8
04
100
AcDbLine
 10
63.76928201109238
 20
308.1695259368883
 30
0.0
 11
63.76928201109238
 21
306.6695259368882
 31
0.0
  0
LINE
  5
2067
330
A
100
AcDbEntity
  8
04
100
AcDbLine
 10
87.26928201109242
 20
327.1695259368883
 30
0.0
 11
88.76928201109242
 21
327.1695259368883
 31
0.0
  0
LINE
  5
2068
330
A
100
AcDbEntity
  8
04
100
AcDbLine
 10
87.26928201109242
 20
314.1695259368883
 30
0.0
 11
88.76928201109242
 21
314.1695259368883
 31
0.0
  0
MTEXT
  5
20E1
330
A
100
AcDbEntity
  8
MOJI
100
AcDbMText
 10
309.9999999999996
 20
31.5
 30
0.0
 40
7.0
 41
50.0
 71
     5
 72
     1
  1
図番２０－１
  7
0_80
1001
ACAD
1000
MTEXTBEGIN
1070
    73
1070
     1
1070
    44
1040
1.0
1070
    74
1070
     0
1000
MTEXTEND
1000
MTEXTBEGIN
1070
    73
1070
     1
1070
    44
1040
1.0
1070
    74
1070
     0
1000
MTEXTEND
  0
MTEXT
  5
20E2
330
A
100
AcDbEntity
  8
MOJI
100
AcDbMText
 10
90.0
 20
32.0
 30
0.0
 40
7.0
 41
110.0
 71
     5
 72
     1
  1
スリムセナージ･ドアI型
  7
0_8
1001
ACAD
1000
MTEXTBEGIN
1070
    73
1070
     1
1070
    44
1040
1.0
1070
    74
1070
     0
1000
MTEXTEND
1000
MTEXTBEGIN
1070
    73
1070
     1
1070
    44
1040
1.0
1070
    74
1070
     0
1000
MTEXTEND
  0
MTEXT
  5
20E3
330
A
100
AcDbEntity
  8
MOJI
100
AcDbMText
 10
185.0
 20
32.0
 30
0.0
 40
7.0
 41
80.0
 71
     5
 72
     1
  1
スライドドア･FIX
  7
0_8
1001
ACAD
1000
MTEXTBEGIN
1070
    73
1070
     1
1070
    44
1040
1.0
1070
    74
1070
     0
1000
MTEXTEND
1000
MTEXTBEGIN
1070
    73
1070
     1
1070
    44
1040
1.0
1070
    74
1070
     0
1000
MTEXTEND
  0
POLYLINE
  5
20E4
330
A
100
AcDbEntity
  8
SAISEN
100
AcDb2dPolyline
 66
     1
 10
0.0
 20
0.0
 30
0.0
 70
     1
  0
VERTEX
  5
21EC
330
20E4
100
AcDbEntity
  8
SAISEN
100
AcDbVertex
100
AcDb2dVertex
 10
35.0
 20
20.0
 30
0.0
  0
VERTEX
  5
21ED
330
20E4
100
AcDbEntity
  8
SAISEN
100
AcDbVertex
100
AcDb2dVertex
 10
385.0
 20
20.0
 30
0.0
  0
VERTEX
  5
21EE
330
20E4
100
AcDbEntity
  8
SAISEN
100
AcDbVertex
100
AcDb2dVertex
 10
385.0
 20
44.0
 30
0.0
  0
VERTEX
  5
21EF
330
20E4
100
AcDbEntity
  8
SAISEN
100
AcDbVertex
100
AcDb2dVertex
 10
35.0
 20
44.0
 30
0.0
  0
SEQEND
  5
21F0
330
20E4
100
AcDbEntity
  8
SAISEN
  0
LINE
  5
20E5
330
A
100
AcDbEntity
  8
SAISEN
100
AcDbLine
 10
144.9999999999999
 20
44.0
 30
0.0
 11
144.9999999999999
 21
20.0
 31
0.0
  0
LINE
  5
20E6
330
A
100
AcDbEntity
  8
SAISEN
100
AcDbLine
 10
285.0
 20
44.0
 30
0.0
 11
285.0
 21
20.0
 31
0.0
  0
MTEXT
  5
2178
330
A
100
AcDbEntity
  8
MOJI
100
AcDbMText
 10
359.9999999999998
 20
31.99999999999953
 30
0.0
 40
6.0
 41
49.99999999999993
 71
     5
 72
     1
  1
姿図･たて断面図\Pよこ断面図　 　
  7
0_80
1001
ACAD
1000
MTEXTBEGIN
1070
    73
1070
     1
1070
    44
1040
1.0
1070
    74
1070
     0
1000
MTEXTEND
1000
MTEXTBEGIN
1070
    73
1070
     1
1070
    44
1040
1.0
1070
    74
1070
     0
1000
MTEXTEND
  0
VIEWPORT
  5
1FF3
102
{ACAD_XDICTIONARY
360
21BF
102
}
330
B
100
AcDbEntity
 67
     1
  8
0
100
AcDbViewport
 10
198.0508299538852
 20
285.1874487354476
 30
0.0
 40
1080.347564134146
 41
628.3535021666721
 68
     1
 69
     1
1001
ACAD
1000
MVIEW
1002
{
1070
    16
1010
0.0
1020
0.0
1030
0.0
1010
0.0
1020
0.0
1030
1.0
1040
0.0
1040
628.3535021666721
1040
198.0508299538852
1040
285.1874487354476
1040
50.0
1040
0.0
1040
0.0
1070
     0
1070
   100
1070
     1
1070
     1
1070
     0
1070
     0
1070
     0
1070
     0
1040
0.0
1040
0.0
1040
0.0
1040
10.0
1040
10.0
1040
10.0
1040
10.0
1070
     0
1002
{
1002
}
1002
}
  0
VIEWPORT
  5
1FF8
102
{ACAD_XDICTIONARY
360
21C1
102
}
330
B
100
AcDbEntity
 67
     1
  8
DEFPOINTS
100
AcDbViewport
 10
198.0565075874328
 20
285.1784930229186
 30
0.0
 40
396.1130151748657
 41
570.3569860458372
 68
     2
 69
     2
1001
ACAD
1000
MVIEW
1002
{
1070
    16
1010
0.0
1020
0.0
1030
0.0
1010
0.0
1020
0.0
1030
1.0
1040
0.0
1040
570.3569860458372
1040
210.0000009778884
1040
297.0000013830138
1040
50.0
1040
0.0
1040
0.0
1070
     0
1070
   100
1070
     1
1070
     1
1070
     0
1070
     0
1070
     0
1070
     0
1040
0.0
1040
0.0
1040
0.0
1040
1.0
1040
1.0
1040
0.0
1040
0.0
1070
     0
1002
{
1002
}
1002
}
  0
ENDSEC
  0
SECTION
  2
OBJECTS
  0
DICTIONARY
  5
19
330
0
100
AcDbDictionary
  3
ACAD_COLOR
350
8C0
  3
ACAD_GROUP
350
1A
  3
ACAD_LAYOUT
350
8C1
  3
ACAD_MATERIAL
350
8BF
  3
ACAD_MLINESTYLE
350
1B
  3
ACAD_PLOTSETTINGS
350
8C2
  3
ACADDIM
350
1806
  3
ASE_INDEX_DICTIONARY
350
21B9
1001
ACAD
1000
TREAT_AS_HARD
1070
     0
1000
TREAT_AS_HARD
1070
     0
1000
TREAT_AS_HARD
1070
     0
1000
TREAT_AS_HARD
1070
     0
  0
DICTIONARY
  5
20D2
330
2
100
AcDbDictionary
  3
ACAD_LAYERSTATES
350
20D3
1001
ACAD
1000
TREAT_AS_HARD
1070
     1
1000
TREAT_AS_HARD
1070
     1
1000
TREAT_AS_HARD
1070
     1
  0
DICTIONARY
  5
209E
330
A
100
AcDbDictionary
  3
ACAD_LAYOUTSELFREF
350
21D0
1001
ACAD
1000
TREAT_AS_HARD
1070
     1
1000
TREAT_AS_HARD
1070
     1
1000
TREAT_AS_HARD
1070
     1
  0
DICTIONARY
  5
20A0
330
B
100
AcDbDictionary
  3
ACAD_LAYOUTSELFREF
350
21D1
1001
ACAD
1000
TREAT_AS_HARD
1070
     1
1000
TREAT_AS_HARD
1070
     1
1000
TREAT_AS_HARD
1070
     1
  0
DICTIONARY
  5
21BF
330
1FF3
100
AcDbDictionary
  3
ACAD_XREC_ROUNDTRIP
350
21C0
1001
ACAD
1000
TREAT_AS_HARD
1070
     1
  0
DICTIONARY
  5
21C1
330
1FF8
100
AcDbDictionary
  3
ACAD_XREC_ROUNDTRIP
350
21C2
1001
ACAD
1000
TREAT_AS_HARD
1070
     1
  0
DICTIONARY
  5
8C0
102
{ACAD_REACTORS
330
19
102
}
330
19
100
AcDbDictionary
1001
ACAD
1000
TREAT_AS_HARD
1070
     0
1000
TREAT_AS_HARD
1070
     0
1000
TREAT_AS_HARD
1070
     0
1000
TREAT_AS_HARD
1070
     0
  0
DICTIONARY
  5
1A
102
{ACAD_REACTORS
330
19
102
}
330
19
100
AcDbDictionary
1001
ACAD
1000
TREAT_AS_HARD
1070
     0
1000
TREAT_AS_HARD
1070
     0
1000
TREAT_AS_HARD
1070
     0
1000
TREAT_AS_HARD
1070
     0
  0
DICTIONARY
  5
8C1
102
{ACAD_REACTORS
330
19
102
}
330
19
100
AcDbDictionary
1001
ACAD
1000
TREAT_AS_HARD
1070
     0
1000
TREAT_AS_HARD
1070
     0
1000
TREAT_AS_HARD
1070
     0
1000
TREAT_AS_HARD
1070
     0
  0
DICTIONARY
  5
8BF
102
{ACAD_REACTORS
330
19
102
}
330
19
100
AcDbDictionary
1001
ACAD
1000
TREAT_AS_HARD
1070
     0
1000
TREAT_AS_HARD
1070
     0
1000
TREAT_AS_HARD
1070
     0
1000
TREAT_AS_HARD
1070
     0
  0
DICTIONARY
  5
1B
102
{ACAD_REACTORS
330
19
102
}
330
19
100
AcDbDictionary
  3
STANDARD
350
1C
1001
ACAD
1000
TREAT_AS_HARD
1070
     0
1000
TREAT_AS_HARD
1070
     0
1000
TREAT_AS_HARD
1070
     0
1000
TREAT_AS_HARD
1070
     0
  0
DICTIONARY
  5
8C2
102
{ACAD_REACTORS
330
19
102
}
330
19
100
AcDbDictionary
1001
ACAD
1000
TREAT_AS_HARD
1070
     0
1000
TREAT_AS_HARD
1070
     0
1000
TREAT_AS_HARD
1070
     0
1000
TREAT_AS_HARD
1070
     0
  0
XRECORD
  5
1806
102
{ACAD_REACTORS
330
19
102
}
330
19
100
AcDbXrecord
 90
   990106
  3

 60
     0
 61
     0
 62
     1
 63
     3
 64
     1
 65
     0
 66
     0
 67
     3
 68
     1
 69
     0
 70
     0
 71
     0
 72
     0
 40
0.0
170
     2
340
1845
  0
DICTIONARY
  5
21B9
102
{ACAD_REACTORS
330
19
102
}
330
19
100
AcDbDictionary
  3
ASEBLOCKHIERARCHYINDEXRECORD
350
21BA
1001
DCO15
1040
1508822936.030999
1001
ACAD
1000
TREAT_AS_HARD
1070
     0
  0
DICTIONARY
  5
20D3
102
{ACAD_REACTORS
330
20D2
102
}
330
20D2
100
AcDbDictionary
1001
ACAD
1000
TREAT_AS_HARD
1070
     0
1000
TREAT_AS_HARD
1070
     0
1000
TREAT_AS_HARD
1070
     0
  0
XRECORD
  5
21D0
102
{ACAD_REACTORS
330
209E
102
}
330
209E
100
AcDbXrecord
340
A
  0
XRECORD
  5
21D1
102
{ACAD_REACTORS
330
20A0
102
}
330
20A0
100
AcDbXrecord
340
B
  0
XRECORD
  5
21C0
102
{ACAD_REACTORS
330
21BF
102
}
330
21BF
100
AcDbXrecord
102
SHADEPLOT
 70
     0
  0
XRECORD
  5
21C2
102
{ACAD_REACTORS
330
21C1
102
}
330
21C1
100
AcDbXrecord
102
SHADEPLOT
 70
     0
  0
MLINESTYLE
  5
1C
102
{ACAD_REACTORS
330
1B
102
}
330
1B
100
AcDbMlineStyle
  2
STANDARD
 70
     0
  3

 62
     0
 51
90.0
 52
90.0
 71
     2
 49
0.5
 62
   256
  6
BYLAYER
 49
-0.5
 62
   256
  6
BYLAYER
  0
XRECORD
  5
21BA
102
{ACAD_REACTORS
330
21B9
102
}
330
21B9
100
AcDbXrecord
330
1AFD
330
1AFE
330
169D
330
169E
330
1911
330
1912
330
16AF
330
16B0
330
191A
330
191B
330
19E0
330
19E1
330
16CD
330
16CE
330
16D6
330
16D7
330
16DF
330
16E0
330
16E7
330
16E8
330
1B15
330
1B16
330
16FB
330
16FC
330
1704
330
1705
330
1925
330
1926
330
1930
330
1931
330
1942
330
1943
330
1B20
330
1B21
330
1735
330
1736
330
19E9
330
19EA
330
185D
330
185E
330
1854
330
1855
330
1849
330
184A
330
1765
330
1766
330
176E
330
176F
330
1777
330
1778
330
1994
330
1995
330
19A7
330
19A8
330
195C
330
195D
330
19B2
330
19B3
330
1A40
330
1A41
330
1A35
330
1A36
330
1A4B
330
1A4C
330
1A56
330
1A57
330
1A5E
330
1A5F
330
1A2A
330
1A2B
  0
ENDSEC
  0
EOF
