  0
SECTION
  2
HEADER
  9
$ACADVER
  1
AC1012
  9
$DWGCODEPAGE
  3
dos932
  9
$INSBASE
 10
0.0
 20
0.0
 30
0.0
  9
$EXTMIN
 10
0.0
 20
0.0
 30
0.0
  9
$EXTMAX
 10
420.0
 20
594.0
 30
0.0
  9
$LIMMIN
 10
0.0
 20
0.0
  9
$LIMMAX
 10
420.0
 20
594.0
  9
$ORTHOMODE
 70
     1
  9
$REGENMODE
 70
     1
  9
$FILLMODE
 70
     1
  9
$QTEXTMODE
 70
     0
  9
$MIRRTEXT
 70
     1
  9
$DRAGMODE
 70
     2
  9
$LTSCALE
 40
0.3
  9
$OSMODE
 70
    37
  9
$ATTMODE
 70
     1
  9
$TEXTSIZE
 40
10.0
  9
$TRACEWID
 40
0.05
  9
$TEXTSTYLE
  7
STANDARD
  9
$CLAYER
  8
DEFPOINTS
  9
$CELTYPE
  6
BYLAYER
  9
$CECOLOR
 62
   256
  9
$CELTSCALE
 40
1.0
  9
$DELOBJ
 70
     1
  9
$DISPSILH
 70
     0
  9
$DIMSCALE
 40
2.0
  9
$DIMASZ
 40
2.5
  9
$DIMEXO
 40
1.5
  9
$DIMDLI
 40
0.0
  9
$DIMRND
 40
0.0
  9
$DIMDLE
 40
0.0
  9
$DIMEXE
 40
1.0
  9
$DIMTP
 40
0.0
  9
$DIMTM
 40
0.0
  9
$DIMTXT
 40
2.5
  9
$DIMCEN
 40
0.0
  9
$DIMTSZ
 40
0.0
  9
$DIMTOL
 70
     0
  9
$DIMLIM
 70
     0
  9
$DIMTIH
 70
     0
  9
$DIMTOH
 70
     0
  9
$DIMSE1
 70
     0
  9
$DIMSE2
 70
     0
  9
$DIMTAD
 70
     1
  9
$DIMZIN
 70
     8
  9
$DIMBLK
  1
OPEN30
  9
$DIMASO
 70
     1
  9
$DIMSHO
 70
     1
  9
$DIMPOST
  1

  9
$DIMAPOST
  1

  9
$DIMALT
 70
     0
  9
$DIMALTD
 70
     2
  9
$DIMALTF
 40
25.4
  9
$DIMLFAC
 40
1.0
  9
$DIMTOFL
 70
     1
  9
$DIMTVP
 40
0.0
  9
$DIMTIX
 70
     0
  9
$DIMSOXD
 70
     0
  9
$DIMSAH
 70
     0
  9
$DIMBLK1
  1

  9
$DIMBLK2
  1

  9
$DIMSTYLE
  2
SUNPOU_2
  9
$DIMCLRD
 70
   256
  9
$DIMCLRE
 70
   256
  9
$DIMCLRT
 70
   256
  9
$DIMTFAC
 40
1.0
  9
$DIMGAP
 40
1.0
  9
$DIMJUST
 70
     0
  9
$DIMSD1
 70
     0
  9
$DIMSD2
 70
     0
  9
$DIMTOLJ
 70
     1
  9
$DIMTZIN
 70
     0
  9
$DIMALTZ
 70
     0
  9
$DIMALTTZ
 70
     0
  9
$DIMFIT
 70
     3
  9
$DIMUPT
 70
     0
  9
$DIMUNIT
 70
     2
  9
$DIMDEC
 70
     1
  9
$DIMTDEC
 70
     1
  9
$DIMALTU
 70
     2
  9
$DIMALTTD
 70
     2
  9
$DIMTXSTY
  7
SUNPOU
  9
$DIMAUNIT
 70
     0
  9
$LUNITS
 70
     2
  9
$LUPREC
 70
     4
  9
$SKETCHINC
 40
0.1
  9
$FILLETRAD
 40
0.0
  9
$AUNITS
 70
     0
  9
$AUPREC
 70
     0
  9
$MENU
  1
acad
  9
$ELEVATION
 40
0.0
  9
$PELEVATION
 40
0.0
  9
$THICKNESS
 40
0.0
  9
$LIMCHECK
 70
     0
  9
$BLIPMODE
 70
     0
  9
$CHAMFERA
 40
0.0
  9
$CHAMFERB
 40
0.0
  9
$CHAMFERC
 40
0.0
  9
$CHAMFERD
 40
0.0
  9
$SKPOLY
 70
     0
  9
$TDCREATE
 40
2444972.375000000
  9
$TDUPDATE
 40
2453266.404768692
  9
$TDINDWG
 40
0.6212402431
  9
$TDUSRTIMER
 40
0.6212400579
  9
$USRTIMER
 70
     1
  9
$ANGBASE
 50
0.0
  9
$ANGDIR
 70
     0
  9
$PDMODE
 70
     0
  9
$PDSIZE
 40
1.0
  9
$PLINEWID
 40
0.0
  9
$COORDS
 70
     1
  9
$SPLFRAME
 70
     0
  9
$SPLINETYPE
 70
     6
  9
$SPLINESEGS
 70
     8
  9
$ATTDIA
 70
     0
  9
$ATTREQ
 70
     1
  9
$HANDLING
 70
-16383
  9
$HANDSEED
  5
50D3
  9
$SURFTAB1
 70
     6
  9
$SURFTAB2
 70
     6
  9
$SURFTYPE
 70
     6
  9
$SURFU
 70
     6
  9
$SURFV
 70
     6
  9
$UCSNAME
  2

  9
$UCSORG
 10
0.0
 20
0.0
 30
0.0
  9
$UCSXDIR
 10
1.0
 20
0.0
 30
0.0
  9
$UCSYDIR
 10
0.0
 20
1.0
 30
0.0
  9
$PUCSNAME
  2

  9
$PUCSORG
 10
0.0
 20
0.0
 30
0.0
  9
$PUCSXDIR
 10
1.0
 20
0.0
 30
0.0
  9
$PUCSYDIR
 10
0.0
 20
1.0
 30
0.0
  9
$USERI1
 70
     0
  9
$USERI2
 70
     0
  9
$USERI3
 70
     0
  9
$USERI4
 70
     0
  9
$USERI5
 70
     0
  9
$USERR1
 40
0.0
  9
$USERR2
 40
0.0
  9
$USERR3
 40
0.0
  9
$USERR4
 40
0.0
  9
$USERR5
 40
0.0
  9
$WORLDVIEW
 70
     1
  9
$SHADEDGE
 70
     3
  9
$SHADEDIF
 70
    70
  9
$TILEMODE
 70
     1
  9
$MAXACTVP
 70
    16
  9
$PINSBASE
 10
0.0
 20
0.0
 30
0.0
  9
$PLIMCHECK
 70
     0
  9
$PEXTMIN
 10
0.058050869580029
 20
-0.7867148203024499
 30
-0.0000000000112498
  9
$PEXTMAX
 10
396.5622716531433
 20
569.6565102970578
 30
0.0000000000002956
  9
$PLIMMIN
 10
-11.67805984479415
 20
-12.48974404521695
  9
$PLIMMAX
 10
408.2987238290423
 20
581.4048506610547
  9
$UNITMODE
 70
     0
  9
$VISRETAIN
 70
     0
  9
$PLINEGEN
 70
     1
  9
$PSLTSCALE
 70
     0
  9
$TREEDEPTH
 70
  3020
  9
$PICKSTYLE
 70
     1
  9
$CMLSTYLE
  2
STANDARD
  9
$CMLJUST
 70
     0
  9
$CMLSCALE
 40
1.0
  9
$SAVEIMAGES
 70
     1
  0
ENDSEC
  0
SECTION
  2
CLASSES
  0
CLASS
  1
LWPOLYLINE
  2
AcDbPolyline
  3
AutoCAD 2000
 90
    32768
280
     0
281
     1
  0
CLASS
  1
IMAGE
  2
AcDbRasterImage
  3
ISM
 90
    32895
280
     0
281
     1
  0
CLASS
  1
OLE2FRAME
  2
AcDbOle2Frame
  3
AutoCAD 2000
 90
    32768
280
     0
281
     1
  0
CLASS
  1
HATCH
  2
AcDbHatch
  3
AutoCAD 2000
 90
    32768
280
     0
281
     1
  0
CLASS
  1
DICTIONARYVAR
  2
AcDbDictionaryVar
  3
AutoCAD 2000
 90
    32768
280
     0
281
     0
  0
CLASS
  1
RASTERVARIABLES
  2
AcDbRasterVariables
  3
ISM
 90
    32768
280
     0
281
     0
  0
CLASS
  1
IMAGEDEF
  2
AcDbRasterImageDef
  3
ISM
 90
    32768
280
     0
281
     0
  0
CLASS
  1
IMAGEDEF_REACTOR
  2
AcDbRasterImageDefReactor
  3
ISM
 90
    32769
280
     0
281
     0
  0
CLASS
  1
IDBUFFER
  2
AcDbIdBuffer
  3
AutoCAD 2000
 90
    32768
280
     0
281
     0
  0
CLASS
  1
SPATIAL_FILTER
  2
AcDbSpatialFilter
  3
AutoCAD 2000
 90
    32768
280
     0
281
     0
  0
CLASS
  1
XRECORD
  2
AcDbXrecord
  3
AutoCAD 2000
 90
    32768
280
     0
281
     0
  0
CLASS
  1
SORTENTSTABLE
  2
AcDbSortentsTable
  3
AutoCAD 2000
 90
    32768
280
     0
281
     0
  0
CLASS
  1
LAYER_INDEX
  2
AcDbLayerIndex
  3
AutoCAD 2000
 90
    32768
280
     0
281
     0
  0
CLASS
  1
SPATIAL_INDEX
  2
AcDbSpatialIndex
  3
AutoCAD 2000
 90
    32768
280
     0
281
     0
  0
CLASS
  1
OBJECT_PTR
  2
CAseDLPNTableRecord
  3
ASE-LPNTableRecord
 90
    32769
280
     0
281
     0
  0
CLASS
  1
ACDBDICTIONARYWDFLT
  2
AcDbDictionaryWithDefault
  3
AutoCAD 2000
 90
    32768
280
     0
281
     0
  0
CLASS
  1
ACDBPLACEHOLDER
  2
AcDbPlaceHolder
  3
AutoCAD 2000
 90
    32768
280
     0
281
     0
  0
CLASS
  1
LAYOUT
  2
AcDbLayout
  3
AutoCAD 2000
 90
    32768
280
     0
281
     0
  0
CLASS
  1
LONG_TRANSACTION
  2
AcDbLongTransaction
  3
AutoCAD 2000
 90
    32768
280
     0
281
     0
  0
CLASS
  1
LWPOLYLINE
  2
AcDbPolyline
  3
AutoCAD 2000
 90
    32768
280
     0
281
     1
  0
CLASS
  1
HATCH
  2
AcDbHatch
  3
AutoCAD 2000
 90
    32768
280
     0
281
     1
  0
CLASS
  1
XRECORD
  2
AcDbXrecord
  3
AutoCAD 2000
 90
    32768
280
     0
281
     0
  0
CLASS
  1
LONG_TRANSACTION
  2
AcDbLongTransaction
  3
AutoCAD 2000
 90
    32768
280
     0
281
     0
  0
CLASS
  1
LWPOLYLINE
  2
AcDbPolyline
  3
AutoCAD 2000
 90
    32768
280
     0
281
     1
  0
CLASS
  1
HATCH
  2
AcDbHatch
  3
AutoCAD 2000
 90
    32768
280
     0
281
     1
  0
CLASS
  1
XRECORD
  2
AcDbXrecord
  3
AutoCAD 2000
 90
    32768
280
     0
281
     0
  0
CLASS
  1
LONG_TRANSACTION
  2
AcDbLongTransaction
  3
AutoCAD 2000
 90
    32768
280
     0
281
     0
  0
CLASS
  1
LWPOLYLINE
  2
AcDbPolyline
  3
AutoCAD 2000
 90
    32768
280
     0
281
     1
  0
CLASS
  1
HATCH
  2
AcDbHatch
  3
AutoCAD 2000
 90
    32768
280
     0
281
     1
  0
CLASS
  1
XRECORD
  2
AcDbXrecord
  3
AutoCAD 2000
 90
    32768
280
     0
281
     0
  0
CLASS
  1
LONG_TRANSACTION
  2
AcDbLongTransaction
  3
AutoCAD 2000
 90
    32768
280
     0
281
     0
  0
CLASS
  1
LWPOLYLINE
  2
AcDbPolyline
  3
AutoCAD 2000
 90
    32768
280
     0
281
     1
  0
CLASS
  1
HATCH
  2
AcDbHatch
  3
AutoCAD 2000
 90
    32768
280
     0
281
     1
  0
CLASS
  1
XRECORD
  2
AcDbXrecord
  3
AutoCAD 2000
 90
    32768
280
     0
281
     0
  0
CLASS
  1
LONG_TRANSACTION
  2
AcDbLongTransaction
  3
AutoCAD 2000
 90
    32768
280
     0
281
     0
  0
CLASS
  1
LWPOLYLINE
  2
AcDbPolyline
  3
AutoCAD 2000
 90
    32768
280
     0
281
     1
  0
CLASS
  1
HATCH
  2
AcDbHatch
  3
AutoCAD 2000
 90
    32768
280
     0
281
     1
  0
CLASS
  1
XRECORD
  2
AcDbXrecord
  3
AutoCAD 2000
 90
    32768
280
     0
281
     0
  0
ENDSEC
  0
SECTION
  2
TABLES
  0
TABLE
  2
VPORT
  5
7
330
0
100
AcDbSymbolTable
 70
     2
  0
VPORT
  5
5067
330
7
100
AcDbSymbolTableRecord
100
AcDbViewportTableRecord
  2
*ACTIVE
 70
     0
 10
0.0
 20
0.0
 11
1.0
 21
1.0
 12
229.3130312648413
 22
297.000001383014
 13
0.0
 23
0.0
 14
1.0
 24
1.0
 15
0.0
 25
0.0
 16
0.0
 26
0.0
 36
1.0
 17
0.0
 27
0.0
 37
0.0
 40
600.9472046762684
 41
1.780442804428044
 42
50.0
 43
0.0
 44
0.0
 50
0.0
 51
0.0
 71
     0
 72
   100
 73
     1
 74
     1
 75
     0
 76
     0
 77
     0
 78
     0
  0
ENDTAB
  0
TABLE
  2
LTYPE
  5
4
330
0
100
AcDbSymbolTable
 70
     4
  0
LTYPE
  5
11
330
4
100
AcDbSymbolTableRecord
100
AcDbLinetypeTableRecord
  2
BYBLOCK
 70
     0
  3

 72
    65
 73
     0
 40
0.0
  0
LTYPE
  5
12
330
4
100
AcDbSymbolTableRecord
100
AcDbLinetypeTableRecord
  2
BYLAYER
 70
     0
  3

 72
    65
 73
     0
 40
0.0
  0
LTYPE
  5
13
330
4
100
AcDbSymbolTableRecord
100
AcDbLinetypeTableRecord
  2
CONTINUOUS
 70
     0
  3
Solid line
 72
    65
 73
     0
 40
0.0
  0
LTYPE
  5
21
330
4
100
AcDbSymbolTableRecord
100
AcDbLinetypeTableRecord
  2
DASHED2
 70
     0
  3
CADPAC FUSION LINETYPE
 72
    65
 73
     2
 40
13.365
 49
8.91
 74
     0
 49
-4.455
 74
     0
  0
LTYPE
  5
92F
330
4
100
AcDbSymbolTableRecord
100
AcDbLinetypeTableRecord
  2
CENTER2
 70
     0
  3
Center (.5x) ___ _ ___ _ ___ _ ___ _ ___ _ ___
 72
    65
 73
     4
 40
28.57499999999999
 49
19.05
 74
     0
 49
-3.174999999999998
 74
     0
 49
3.174999999999998
 74
     0
 49
-3.174999999999998
 74
     0
  0
LTYPE
  5
930
330
4
100
AcDbSymbolTableRecord
100
AcDbLinetypeTableRecord
  2
PHANTOM2
 70
     0
  3
Phantom (.5x) ___ _ _ ___ _ _ ___ _ _ ___ _ _
 72
    65
 73
     6
 40
31.75
 49
15.875
 74
     0
 49
-3.174999999999998
 74
     0
 49
3.174999999999998
 74
     0
 49
-3.174999999999998
 74
     0
 49
3.174999999999998
 74
     0
 49
-3.174999999999998
 74
     0
  0
ENDTAB
  0
TABLE
  2
LAYER
  5
2
102
{ACAD_XDICTIONARY
360
5013
102
}
330
0
100
AcDbSymbolTable
 70
    13
  0
LAYER
  5
14
330
2
100
AcDbSymbolTableRecord
100
AcDbLayerTableRecord
  2
0
 70
     0
 62
     7
  6
CONTINUOUS
  0
LAYER
  5
931
330
2
100
AcDbSymbolTableRecord
100
AcDbLayerTableRecord
  2
DEFPOINTS
 70
     0
 62
     7
  6
CONTINUOUS
  0
LAYER
  5
932
330
2
100
AcDbSymbolTableRecord
100
AcDbLayerTableRecord
  2
03
 70
     0
 62
     3
  6
CONTINUOUS
  0
LAYER
  5
933
330
2
100
AcDbSymbolTableRecord
100
AcDbLayerTableRecord
  2
04
 70
     0
 62
     4
  6
CONTINUOUS
  0
LAYER
  5
934
330
2
100
AcDbSymbolTableRecord
100
AcDbLayerTableRecord
  2
06
 70
     0
 62
     6
  6
CONTINUOUS
  0
LAYER
  5
936
330
2
100
AcDbSymbolTableRecord
100
AcDbLayerTableRecord
  2
CHUSIN
 70
     0
 62
     6
  6
CENTER2
  0
LAYER
  5
938
330
2
100
AcDbSymbolTableRecord
100
AcDbLayerTableRecord
  2
HIKIDASI
 70
     0
 62
     6
  6
CONTINUOUS
  0
LAYER
  5
939
330
2
100
AcDbSymbolTableRecord
100
AcDbLayerTableRecord
  2
KAKURE
 70
     0
 62
     6
  6
DASHED2
  0
LAYER
  5
93A
330
2
100
AcDbSymbolTableRecord
100
AcDbLayerTableRecord
  2
MOJI
 70
     0
 62
     3
  6
CONTINUOUS
  0
LAYER
  5
93B
330
2
100
AcDbSymbolTableRecord
100
AcDbLayerTableRecord
  2
SOUZOU
 70
     0
 62
     6
  6
PHANTOM2
  0
LAYER
  5
93C
330
2
100
AcDbSymbolTableRecord
100
AcDbLayerTableRecord
  2
SUNPOU
 70
     0
 62
     6
  6
CONTINUOUS
  0
LAYER
  5
93E
330
2
100
AcDbSymbolTableRecord
100
AcDbLayerTableRecord
  2
SAISEN
 70
     0
 62
     3
  6
CONTINUOUS
  0
LAYER
  5
D69
330
2
100
AcDbSymbolTableRecord
100
AcDbLayerTableRecord
  2
02
 70
     0
 62
     2
  6
CONTINUOUS
  0
ENDTAB
  0
TABLE
  2
STYLE
  5
3
330
0
100
AcDbSymbolTable
 70
     4
  0
STYLE
  5
17
330
3
100
AcDbSymbolTableRecord
100
AcDbTextStyleTableRecord
  2
STANDARD
 70
     0
 40
0.0
 41
0.8
 50
0.0
 71
     0
 42
10.0
  3
txt.shx
  4
bigfont.shx
  0
STYLE
  5
949
330
3
100
AcDbSymbolTableRecord
100
AcDbTextStyleTableRecord
  2
SUNPOU
 70
     0
 40
0.0
 41
0.8
 50
0.0
 71
     0
 42
0.2
  3
txt.shx
  4
extfont.shx
  0
STYLE
  5
950
330
3
100
AcDbSymbolTableRecord
100
AcDbTextStyleTableRecord
  2
0_8
 70
     0
 40
0.0
 41
0.8
 50
0.0
 71
     0
 42
2.5
  3
txt.shx
  4
extfont.shx
  0
STYLE
  5
5011
330
3
100
AcDbSymbolTableRecord
100
AcDbTextStyleTableRecord
  2
0_80
 70
     0
 40
0.0
 41
0.8
 50
0.0
 71
     0
 42
7.0
  3
txt.shx
  4
extfont.shx
  0
ENDTAB
  0
TABLE
  2
VIEW
  5
5
330
0
100
AcDbSymbolTable
 70
     1
  0
VIEW
  5
135
330
5
100
AcDbSymbolTableRecord
100
AcDbViewTableRecord
  2
QQQQ
 70
     0
 40
607.7680504248977
 10
-682.6856539726941
 20
-1.9918323869241
 41
1928.911478056455
 11
0.0
 21
0.0
 31
1.0
 12
100.0
 22
100.0
 32
0.0
 42
50.0
 43
0.0
 44
0.0
 50
0.0
 71
     0
  0
ENDTAB
  0
TABLE
  2
UCS
  5
6
330
0
100
AcDbSymbolTable
 70
     0
  0
ENDTAB
  0
TABLE
  2
APPID
  5
8
330
0
100
AcDbSymbolTable
 70
     3
  0
APPID
  5
16
330
8
100
AcDbSymbolTableRecord
100
AcDbRegAppTableRecord
  2
ACAD
 70
     0
  0
APPID
  5
14AA
330
8
100
AcDbSymbolTableRecord
100
AcDbRegAppTableRecord
  2
DCO15
 70
     0
  0
APPID
  5
4DB4
330
8
100
AcDbSymbolTableRecord
100
AcDbRegAppTableRecord
  2
CONTENTBLOCKICON
 70
     0
  0
ENDTAB
  0
TABLE
  2
DIMSTYLE
  5
9
330
0
100
AcDbSymbolTable
 70
     2
  0
DIMSTYLE
105
18
330
9
100
AcDbSymbolTableRecord
100
AcDbDimStyleTableRecord
  2
STANDARD
 70
     0
  3

  4

  5

  6

  7

 40
1.0
 41
0.18
 42
0.0625
 43
0.38
 44
0.18
 45
0.0
 46
0.0
 47
0.0
 48
0.0
140
0.18
141
0.09
142
0.0
143
25.4
144
1.0
145
0.0
146
1.0
147
0.09
 71
     0
 72
     0
 73
     1
 74
     1
 75
     0
 76
     0
 77
     0
 78
     0
170
     0
171
     2
172
     0
173
     0
174
     0
175
     0
176
     0
177
     0
178
     0
270
     2
271
     4
272
     4
273
     2
274
     2
340
17
275
     0
280
     0
281
     0
282
     0
283
     1
284
     0
285
     0
286
     0
287
     3
288
     0
  0
DIMSTYLE
105
95C
102
{ACAD_REACTORS
330
986
330
995
330
9C0
330
9CD
330
9DC
330
AD4
330
AEB
330
B92
330
B9F
330
BC2
330
BE1
330
2C44
330
2C51
330
2C5E
330
323E
330
324B
330
3258
330
33AE
330
3411
330
365C
330
3691
330
3692
330
3693
330
3694
330
369D
330
369E
330
369F
330
38E8
330
3BA7
330
3BA6
330
3BA5
330
3E6A
330
3ED4
330
3EE1
330
3FDD
330
3FD0
330
3FC3
102
}
330
9
100
AcDbSymbolTableRecord
100
AcDbDimStyleTableRecord
  2
SUNPOU_2
 70
     0
  3

  4

  5
OPEN30
  6

  7

 40
2.0
 41
2.5
 42
1.5
 43
0.0
 44
1.0
 45
0.0
 46
0.0
 47
0.0
 48
0.0
140
2.5
141
0.0
142
0.0
143
25.4
144
1.0
145
0.0
146
1.0
147
1.0
 71
     0
 72
     0
 73
     0
 74
     0
 75
     0
 76
     0
 77
     1
 78
     8
170
     0
171
     2
172
     1
173
     0
174
     0
175
     0
176
   256
177
   256
178
   256
270
     2
271
     1
272
     1
273
     2
274
     2
340
949
275
     0
280
     0
281
     0
282
     0
283
     1
284
     0
285
     0
286
     0
287
     3
288
     0
  0
ENDTAB
  0
TABLE
  2
BLOCK_RECORD
  5
1
330
0
100
AcDbSymbolTable
 70
    41
  0
BLOCK_RECORD
  5
A
102
{ACAD_XDICTIONARY
360
4DB0
102
}
330
1
100
AcDbSymbolTableRecord
100
AcDbBlockTableRecord
  2
*MODEL_SPACE
  0
BLOCK_RECORD
  5
B
102
{ACAD_XDICTIONARY
360
4DB2
102
}
330
1
100
AcDbSymbolTableRecord
100
AcDbBlockTableRecord
  2
*PAPER_SPACE
  0
BLOCK_RECORD
  5
943
330
1
100
AcDbSymbolTableRecord
100
AcDbBlockTableRecord
  2
_OPEN30
1001
CONTENTBLOCKICON
1071
        0
1004
2800000020000000200000000100080000000000000400000000000000000000000000000000000000000000000080000080000000808000800000008000800080800000C0C0C000C0DCC000F0CAA6000020400000206000002080000020A0000020C0000020E00000400000004020000040400000406000004080000040A0
1004
000040C0000040E00000600000006020000060400000606000006080000060A0000060C0000060E00000800000008020000080400000806000008080000080A0000080C0000080E00000A0000000A0200000A0400000A0600000A0800000A0A00000A0C00000A0E00000C0000000C0200000C0400000C0600000C0800000C0
1004
A00000C0C00000C0E00000E0000000E0200000E0400000E0600000E0800000E0A00000E0C00000E0E00040000000400020004000400040006000400080004000A0004000C0004000E00040200000402020004020400040206000402080004020A0004020C0004020E000404000004040200040404000404060004040800040
1004
40A0004040C0004040E00040600000406020004060400040606000406080004060A0004060C0004060E00040800000408020004080400040806000408080004080A0004080C0004080E00040A0000040A0200040A0400040A0600040A0800040A0A00040A0C00040A0E00040C0000040C0200040C0400040C0600040C08000
1004
40C0A00040C0C00040C0E00040E0000040E0200040E0400040E0600040E0800040E0A00040E0C00040E0E00080000000800020008000400080006000800080008000A0008000C0008000E00080200000802020008020400080206000802080008020A0008020C0008020E00080400000804020008040400080406000804080
1004
008040A0008040C0008040E00080600000806020008060400080606000806080008060A0008060C0008060E00080800000808020008080400080806000808080008080A0008080C0008080E00080A0000080A0200080A0400080A0600080A0800080A0A00080A0C00080A0E00080C0000080C0200080C0400080C0600080C0
1004
800080C0A00080C0C00080C0E00080E0000080E0200080E0400080E0600080E0800080E0A00080E0C00080E0E000C0000000C0002000C0004000C0006000C0008000C000A000C000C000C000E000C0200000C0202000C0204000C0206000C0208000C020A000C020C000C020E000C0400000C0402000C0404000C0406000C0
1004
408000C040A000C040C000C040E000C0600000C0602000C0604000C0606000C0608000C060A000C060C000C060E000C0800000C0802000C0804000C0806000C0808000C080A000C080C000C080E000C0A00000C0A02000C0A04000C0A06000C0A08000C0A0A000C0A0C000C0A0E000C0C00000C0C02000C0C04000C0C06000
1004
C0C08000C0C0A000F0FBFF00A4A0A000808080000000FF0000FF000000FFFF00FF000000FF00FF00FFFF0000FFFFFF0000000000000000000000000000000000000000000000000000000000000000000000000000000000000000000000000000000000000000000000000000000000000000000000000000000000000000
1004
00000000000000000000000000000000000000000000000000000000000000000000000000000000000000000000000000000000000000000000000000000000000000000000000000000000000000000000000000000000000000000000000000000000000000000000000000000000000000000000000000000000000000
1004
000000000000000000000000000000000000000000000000000000000000000000000000000000000000000000000000000000FFFF0000000000000000000000000000000000000000000000000000000000000000FFFFFFFF0000000000000000000000000000000000000000000000000000000000000000FFFFFFFF0000
1004
000000000000000000000000000000000000000000000000000000000000FFFFFF0000000000000000000000000000000000000000000000000000000000000000FFFFFFFF0000000000000000000000000000000000000000000000000000000000000000FFFFFF0000000000000000000000000000000000000000000000
1004
000000000000000000FFFFFFFF0000000000000000000000000000000000000000000000000000000000000000FFFFFFFF00000000FFFFFFFFFFFFFFFFFFFFFFFFFFFFFFFFFFFFFFFFFFFFFFFFFFFFFFFFFFFF00000000000000000000000000000000000000000000000000FFFFFFFF000000000000000000000000000000
1004
000000000000000000FFFFFFFF000000000000000000000000000000000000000000000000FFFFFFFF000000000000000000000000000000000000000000000000FFFFFFFF000000000000000000000000000000000000000000000000FFFFFFFF000000000000000000000000000000000000000000000000FFFFFFFF0000
1004
0000000000000000000000000000000000000000000000FFFFFF0000000000000000000000000000000000000000000000000000000000000000000000000000000000000000000000000000000000000000000000000000000000000000000000000000000000000000000000000000000000000000000000000000000000
1004
00000000000000000000000000000000000000000000000000000000000000000000000000000000000000000000000000000000000000000000000000000000000000000000000000000000000000000000000000000000000000000000000000000000000000000000000000000000000000000000000000000000000000
1004
0000000000000000000000000000000000000000000000000000000000000000000000000000000000000000000000000000000000000000
  0
BLOCK_RECORD
  5
987
330
1
100
AcDbSymbolTableRecord
100
AcDbBlockTableRecord
  2
*D1
  0
BLOCK_RECORD
  5
996
330
1
100
AcDbSymbolTableRecord
100
AcDbBlockTableRecord
  2
*D2
  0
BLOCK_RECORD
  5
9C1
330
1
100
AcDbSymbolTableRecord
100
AcDbBlockTableRecord
  2
*D3
  0
BLOCK_RECORD
  5
9CE
330
1
100
AcDbSymbolTableRecord
100
AcDbBlockTableRecord
  2
*D4
  0
BLOCK_RECORD
  5
9DD
330
1
100
AcDbSymbolTableRecord
100
AcDbBlockTableRecord
  2
*D5
  0
BLOCK_RECORD
  5
A39
330
1
100
AcDbSymbolTableRecord
100
AcDbBlockTableRecord
  2
_DOTSMALL
1001
CONTENTBLOCKICON
1071
        0
1004
2800000020000000200000000100080000000000000400000000000000000000000000000000000000000000000080000080000000808000800000008000800080800000C0C0C000C0DCC000F0CAA6000020400000206000002080000020A0000020C0000020E00000400000004020000040400000406000004080000040A0
1004
000040C0000040E00000600000006020000060400000606000006080000060A0000060C0000060E00000800000008020000080400000806000008080000080A0000080C0000080E00000A0000000A0200000A0400000A0600000A0800000A0A00000A0C00000A0E00000C0000000C0200000C0400000C0600000C0800000C0
1004
A00000C0C00000C0E00000E0000000E0200000E0400000E0600000E0800000E0A00000E0C00000E0E00040000000400020004000400040006000400080004000A0004000C0004000E00040200000402020004020400040206000402080004020A0004020C0004020E000404000004040200040404000404060004040800040
1004
40A0004040C0004040E00040600000406020004060400040606000406080004060A0004060C0004060E00040800000408020004080400040806000408080004080A0004080C0004080E00040A0000040A0200040A0400040A0600040A0800040A0A00040A0C00040A0E00040C0000040C0200040C0400040C0600040C08000
1004
40C0A00040C0C00040C0E00040E0000040E0200040E0400040E0600040E0800040E0A00040E0C00040E0E00080000000800020008000400080006000800080008000A0008000C0008000E00080200000802020008020400080206000802080008020A0008020C0008020E00080400000804020008040400080406000804080
1004
008040A0008040C0008040E00080600000806020008060400080606000806080008060A0008060C0008060E00080800000808020008080400080806000808080008080A0008080C0008080E00080A0000080A0200080A0400080A0600080A0800080A0A00080A0C00080A0E00080C0000080C0200080C0400080C0600080C0
1004
800080C0A00080C0C00080C0E00080E0000080E0200080E0400080E0600080E0800080E0A00080E0C00080E0E000C0000000C0002000C0004000C0006000C0008000C000A000C000C000C000E000C0200000C0202000C0204000C0206000C0208000C020A000C020C000C020E000C0400000C0402000C0404000C0406000C0
1004
408000C040A000C040C000C040E000C0600000C0602000C0604000C0606000C0608000C060A000C060C000C060E000C0800000C0802000C0804000C0806000C0808000C080A000C080C000C080E000C0A00000C0A02000C0A04000C0A06000C0A08000C0A0A000C0A0C000C0A0E000C0C00000C0C02000C0C04000C0C06000
1004
C0C08000C0C0A000F0FBFF00A4A0A000808080000000FF0000FF000000FFFF00FF000000FF00FF00FFFF0000FFFFFF0000000000000000000000FFFF0000000000000000FFFF00000000000000000000FF000000000000000000FFFF0000000000000000FFFF000000000000000000FFFFFF000000000000000000FF000000
1004
0000000000FF000000000000000000FFFF00FF000000000000000000FFFF000000000000FFFF000000000000000000FF0000FFFF0000000000000000FFFFFF00000000FFFFFF0000000000000000FFFF000000FFFF00000000000000FF00FFFF0000FFFF00FF00000000000000FFFF0000FFFF00FF00000000000000FF0000
1004
FF0000FF0000FF00000000000000FF00FFFF00FFFFFFFFFF0000000000FF000000FFFF000000FF0000000000FFFFFFFFFF0000000000FFFFFFFFFF0000FF000000FFFF000000FF0000FFFFFFFFFF000000000000000000FFFF00FFFFFFFF000000FFFF000000FFFFFFFF00FFFF0000000000000000000000FF00000000FFFF
1004
FFFF0000FFFFFFFF00000000FF00000000000000000000000000FF000000FF00FFFFFFFFFFFF00FF000000FF0000000000000000000000000000FFFF0000FFFFFFFF0000FFFFFFFF0000FFFF000000000000000000000000000000FFFFFFFFFF000000000000FFFFFFFFFF00000000000000000000000000FFFFFFFFFF00FF
1004
0000000000000000FF00FFFFFFFFFF0000000000FFFFFFFFFFFF000000FFFFFF0000000000000000FFFFFF000000FFFFFFFFFFFFFFFFFFFFFFFF000000FFFFFF0000000000000000FFFFFF000000FFFFFFFFFFFF0000000000FFFFFFFFFF00FF0000000000000000FF00FFFFFFFFFF00000000000000000000000000FFFFFF
1004
FFFF000000000000FFFFFFFFFF000000000000000000000000000000FFFF0000FFFFFFFF0000FFFFFFFF0000FFFF0000000000000000000000000000FF000000FF00FFFFFFFFFFFF00FF000000FF00000000000000000000000000FF00000000FFFFFFFF0000FFFFFFFF00000000FF0000000000000000000000FFFF00FFFF
1004
FFFF000000FFFF000000FFFFFFFF00FFFF000000000000000000FFFFFFFFFF0000FF000000FFFF000000FF0000FFFFFFFFFF0000000000FFFFFFFFFF0000000000FF000000FFFF000000FF0000000000FFFFFFFFFF00FFFF00FF00000000000000FF0000FF0000FF0000FF00000000000000FF00FFFF0000FFFF0000000000
1004
0000FF00FFFF0000FFFF00FF00000000000000FFFF000000FFFF0000000000000000FFFFFF00000000FFFFFF0000000000000000FFFF0000FF000000000000000000FFFF000000000000FFFF000000000000000000FF00FFFF000000000000000000FF0000000000000000FF000000000000000000FFFFFF00000000000000
1004
0000FFFF0000000000000000FFFF000000000000000000FF00000000000000000000FFFF0000000000000000FFFF00000000000000000000
  0
BLOCK_RECORD
  5
A48
330
1
100
AcDbSymbolTableRecord
100
AcDbBlockTableRecord
  2
_NONE
  0
BLOCK_RECORD
  5
AD5
330
1
100
AcDbSymbolTableRecord
100
AcDbBlockTableRecord
  2
*D8
  0
BLOCK_RECORD
  5
AEC
330
1
100
AcDbSymbolTableRecord
100
AcDbBlockTableRecord
  2
*D9
  0
BLOCK_RECORD
  5
B93
330
1
100
AcDbSymbolTableRecord
100
AcDbBlockTableRecord
  2
*D10
  0
BLOCK_RECORD
  5
BA0
330
1
100
AcDbSymbolTableRecord
100
AcDbBlockTableRecord
  2
*D11
  0
BLOCK_RECORD
  5
BC3
330
1
100
AcDbSymbolTableRecord
100
AcDbBlockTableRecord
  2
*D12
  0
BLOCK_RECORD
  5
BE2
330
1
100
AcDbSymbolTableRecord
100
AcDbBlockTableRecord
  2
*D13
  0
BLOCK_RECORD
  5
2C45
330
1
100
AcDbSymbolTableRecord
100
AcDbBlockTableRecord
  2
*D14
  0
BLOCK_RECORD
  5
2C52
330
1
100
AcDbSymbolTableRecord
100
AcDbBlockTableRecord
  2
*D15
  0
BLOCK_RECORD
  5
2C5F
330
1
100
AcDbSymbolTableRecord
100
AcDbBlockTableRecord
  2
*D16
  0
BLOCK_RECORD
  5
323F
330
1
100
AcDbSymbolTableRecord
100
AcDbBlockTableRecord
  2
*D17
  0
BLOCK_RECORD
  5
324C
330
1
100
AcDbSymbolTableRecord
100
AcDbBlockTableRecord
  2
*D18
  0
BLOCK_RECORD
  5
3259
330
1
100
AcDbSymbolTableRecord
100
AcDbBlockTableRecord
  2
*D19
  0
BLOCK_RECORD
  5
33AF
330
1
100
AcDbSymbolTableRecord
100
AcDbBlockTableRecord
  2
*D20
  0
BLOCK_RECORD
  5
3412
330
1
100
AcDbSymbolTableRecord
100
AcDbBlockTableRecord
  2
*D21
  0
BLOCK_RECORD
  5
36D8
330
1
100
AcDbSymbolTableRecord
100
AcDbBlockTableRecord
  2
*D22
  0
BLOCK_RECORD
  5
36E4
330
1
100
AcDbSymbolTableRecord
100
AcDbBlockTableRecord
  2
*D23
  0
BLOCK_RECORD
  5
36F1
330
1
100
AcDbSymbolTableRecord
100
AcDbBlockTableRecord
  2
*D24
  0
BLOCK_RECORD
  5
36FF
330
1
100
AcDbSymbolTableRecord
100
AcDbBlockTableRecord
  2
*D25
  0
BLOCK_RECORD
  5
370B
330
1
100
AcDbSymbolTableRecord
100
AcDbBlockTableRecord
  2
*D26
  0
BLOCK_RECORD
  5
3719
330
1
100
AcDbSymbolTableRecord
100
AcDbBlockTableRecord
  2
*D27
  0
BLOCK_RECORD
  5
3725
330
1
100
AcDbSymbolTableRecord
100
AcDbBlockTableRecord
  2
*D28
  0
BLOCK_RECORD
  5
3731
330
1
100
AcDbSymbolTableRecord
100
AcDbBlockTableRecord
  2
*D29
  0
BLOCK_RECORD
  5
38E9
330
1
100
AcDbSymbolTableRecord
100
AcDbBlockTableRecord
  2
*D30
  0
BLOCK_RECORD
  5
3BA8
330
1
100
AcDbSymbolTableRecord
100
AcDbBlockTableRecord
  2
*D31
  0
BLOCK_RECORD
  5
3BB4
330
1
100
AcDbSymbolTableRecord
100
AcDbBlockTableRecord
  2
*D32
  0
BLOCK_RECORD
  5
3BC0
330
1
100
AcDbSymbolTableRecord
100
AcDbBlockTableRecord
  2
*D33
  0
BLOCK_RECORD
  5
3E6B
330
1
100
AcDbSymbolTableRecord
100
AcDbBlockTableRecord
  2
*D34
  0
BLOCK_RECORD
  5
3ED5
330
1
100
AcDbSymbolTableRecord
100
AcDbBlockTableRecord
  2
*D35
  0
BLOCK_RECORD
  5
3EE2
330
1
100
AcDbSymbolTableRecord
100
AcDbBlockTableRecord
  2
*D36
  0
BLOCK_RECORD
  5
3FC4
330
1
100
AcDbSymbolTableRecord
100
AcDbBlockTableRecord
  2
*D37
  0
BLOCK_RECORD
  5
3FD1
330
1
100
AcDbSymbolTableRecord
100
AcDbBlockTableRecord
  2
*D38
  0
BLOCK_RECORD
  5
3FDE
330
1
100
AcDbSymbolTableRecord
100
AcDbBlockTableRecord
  2
*D39
  0
BLOCK_RECORD
  5
4DF6
330
1
100
AcDbSymbolTableRecord
100
AcDbBlockTableRecord
  2
*X40
  0
ENDTAB
  0
ENDSEC
  0
SECTION
  2
BLOCKS
  0
BLOCK
  5
D
330
A
100
AcDbEntity
  8
0
100
AcDbBlockBegin
  2
*MODEL_SPACE
 70
     0
 10
0.0
 20
0.0
 30
0.0
  3
*MODEL_SPACE
  1

  0
ENDBLK
  5
E
330
A
100
AcDbEntity
  8
0
100
AcDbBlockEnd
  0
BLOCK
  5
F
330
B
100
AcDbEntity
 67
     1
  8
0
100
AcDbBlockBegin
  2
*PAPER_SPACE
 70
     0
 10
0.0
 20
0.0
 30
0.0
  3
*PAPER_SPACE
  1

  0
ENDBLK
  5
10
330
B
100
AcDbEntity
 67
     1
  8
0
100
AcDbBlockEnd
  0
BLOCK
  5
947
330
943
100
AcDbEntity
  8
0
100
AcDbBlockBegin
  2
_OPEN30
 70
     0
 10
0.0
 20
0.0
 30
0.0
  3
_OPEN30
  1

  0
LINE
  5
944
330
943
100
AcDbEntity
  8
0
  6
BYBLOCK
 62
     0
100
AcDbLine
 10
-1.0
 20
0.26794919
 30
0.0
 11
0.0
 21
0.0
 31
0.0
  0
LINE
  5
945
330
943
100
AcDbEntity
  8
0
  6
BYBLOCK
 62
     0
100
AcDbLine
 10
0.0
 20
0.0
 30
0.0
 11
-1.0
 21
-0.26794919
 31
0.0
  0
LINE
  5
946
330
943
100
AcDbEntity
  8
0
  6
BYBLOCK
 62
     0
100
AcDbLine
 10
0.0
 20
0.0
 30
0.0
 11
-1.0
 21
0.0
 31
0.0
  0
ENDBLK
  5
948
330
943
100
AcDbEntity
  8
0
100
AcDbBlockEnd
  0
BLOCK
  5
993
330
987
100
AcDbEntity
  8
0
100
AcDbBlockBegin
  2
*D1
 70
     1
 10
0.0
 20
0.0
 30
0.0
  3
*D1
  1

  0
LINE
  5
4DBA
330
987
100
AcDbEntity
  8
SUNPOU
100
AcDbLine
 10
125.8
 20
244.7848041893106
 30
0.0
 11
125.8
 21
243.7848041893106
 31
0.0
  0
LINE
  5
4DBB
330
987
100
AcDbEntity
  8
SUNPOU
100
AcDbLine
 10
128.8
 20
255.7663352261517
 30
0.0
 11
128.8
 21
239.7848041893106
 31
0.0
  0
LINE
  5
4DBC
330
987
100
AcDbEntity
  8
SUNPOU
100
AcDbLine
 10
120.7999999999999
 20
241.7848041893106
 30
0.0
 11
115.7999999999999
 21
241.7848041893106
 31
0.0
  0
LINE
  5
4DBD
330
987
100
AcDbEntity
  8
SUNPOU
100
AcDbLine
 10
128.8
 20
241.7848041893106
 30
0.0
 11
133.8
 21
241.7848041893106
 31
0.0
  0
MTEXT
  5
4DBE
330
987
100
AcDbEntity
  8
SUNPOU
100
AcDbMText
 10
119.0236854154635
 20
246.2848041893106
 30
0.0
 40
5.0
 41
0.0
 71
     5
 72
     1
  1
\A1;3
  7
SUNPOU
1001
ACAD
1000
MTEXTBEGIN
1070
    73
1070
     1
1070
    44
1040
1.0
1070
    74
1070
     0
1000
MTEXTEND
1000
MTEXTBEGIN
1070
    73
1070
     1
1070
    44
1040
1.0
1070
    74
1070
     0
1000
MTEXTEND
  0
LINE
  5
4DBF
330
987
100
AcDbEntity
  8
SUNPOU
100
AcDbLine
 10
125.8
 20
241.7848041893106
 30
0.0
 11
128.8
 21
241.7848041893106
 31
0.0
  0
INSERT
  5
4DC0
330
987
100
AcDbEntity
  8
SUNPOU
100
AcDbBlockReference
  2
_OPEN30
 10
125.8
 20
241.7848041893106
 30
0.0
 41
5.0
 42
5.0
 43
5.0
  0
INSERT
  5
4DC1
330
987
100
AcDbEntity
  8
SUNPOU
100
AcDbBlockReference
  2
_DOTSMALL
 10
128.8
 20
241.7848041893106
 30
0.0
 41
5.0
 42
5.0
 43
5.0
 50
180.0
  0
POINT
  5
4DC2
330
987
100
AcDbEntity
  8
DEFPOINTS
 62
     0
100
AcDbPoint
 10
125.8
 20
241.7848041893106
 30
0.0
  0
POINT
  5
4DC3
330
987
100
AcDbEntity
  8
DEFPOINTS
 62
     0
100
AcDbPoint
 10
128.8
 20
258.7663352261515
 30
0.0
  0
POINT
  5
4DC4
330
987
100
AcDbEntity
  8
DEFPOINTS
 62
     0
100
AcDbPoint
 10
128.8
 20
241.7848041893106
 30
0.0
  0
ENDBLK
  5
994
330
987
100
AcDbEntity
  8
0
100
AcDbBlockEnd
  0
BLOCK
  5
9A2
330
996
100
AcDbEntity
  8
0
100
AcDbBlockBegin
  2
*D2
 70
     1
 10
0.0
 20
0.0
 30
0.0
  3
*D2
  1

  0
LINE
  5
4DC5
330
996
100
AcDbEntity
  8
SUNPOU
100
AcDbLine
 10
128.8
 20
255.7663352261517
 30
0.0
 11
128.8
 21
239.7848041893106
 31
0.0
  0
LINE
  5
4DC6
330
996
100
AcDbEntity
  8
SUNPOU
100
AcDbLine
 10
131.8
 20
244.7848041893106
 30
0.0
 11
131.8
 21
243.7848041893106
 31
0.0
  0
LINE
  5
4DC7
330
996
100
AcDbEntity
  8
SUNPOU
100
AcDbLine
 10
128.8
 20
241.7848041893106
 30
0.0
 11
123.7999999999999
 21
241.7848041893106
 31
0.0
  0
LINE
  5
4DC8
330
996
100
AcDbEntity
  8
SUNPOU
100
AcDbLine
 10
136.8
 20
241.7848041893106
 30
0.0
 11
141.8
 21
241.7848041893106
 31
0.0
  0
MTEXT
  5
4DC9
330
996
100
AcDbEntity
  8
SUNPOU
100
AcDbMText
 10
139.1801480016614
 20
246.5295750081657
 30
0.0
 40
5.0
 41
0.0
 71
     5
 72
     1
  1
\A1;3
  7
SUNPOU
1001
ACAD
1000
MTEXTBEGIN
1070
    73
1070
     1
1070
    44
1040
1.0
1070
    74
1070
     0
1000
MTEXTEND
1000
MTEXTBEGIN
1070
    73
1070
     1
1070
    44
1040
1.0
1070
    74
1070
     0
1000
MTEXTEND
  0
LINE
  5
4DCA
330
996
100
AcDbEntity
  8
SUNPOU
100
AcDbLine
 10
128.8
 20
241.7848041893106
 30
0.0
 11
131.8
 21
241.7848041893106
 31
0.0
  0
INSERT
  5
4DCB
330
996
100
AcDbEntity
  8
SUNPOU
100
AcDbBlockReference
  2
_OPEN30
 10
131.8
 20
241.7848041893106
 30
0.0
 41
5.0
 42
5.0
 43
5.0
 50
180.0
  0
POINT
  5
4DCC
330
996
100
AcDbEntity
  8
DEFPOINTS
 62
     0
100
AcDbPoint
 10
128.8
 20
258.7663352261515
 30
0.0
  0
POINT
  5
4DCD
330
996
100
AcDbEntity
  8
DEFPOINTS
 62
     0
100
AcDbPoint
 10
131.8
 20
241.7848041893106
 30
0.0
  0
POINT
  5
4DCE
330
996
100
AcDbEntity
  8
DEFPOINTS
 62
     0
100
AcDbPoint
 10
131.8
 20
241.7848041893106
 30
0.0
  0
ENDBLK
  5
9A3
330
996
100
AcDbEntity
  8
0
100
AcDbBlockEnd
  0
BLOCK
  5
9CB
330
9C1
100
AcDbEntity
  8
0
100
AcDbBlockBegin
  2
*D3
 70
     1
 10
0.0
 20
0.0
 30
0.0
  3
*D3
  1

  0
LINE
  5
4DCF
330
9C1
100
AcDbEntity
  8
SUNPOU
100
AcDbLine
 10
181.7999999999999
 20
255.7663352261517
 30
0.0
 11
181.7999999999999
 21
239.7848041893106
 31
0.0
  0
LINE
  5
4DD0
330
9C1
100
AcDbEntity
  8
SUNPOU
100
AcDbLine
 10
186.8
 20
244.7848041893106
 30
0.0
 11
186.8
 21
243.7848041893106
 31
0.0
  0
LINE
  5
4DD1
330
9C1
100
AcDbEntity
  8
SUNPOU
100
AcDbLine
 10
181.7999999999999
 20
241.7848041893106
 30
0.0
 11
176.8
 21
241.7848041893106
 31
0.0
  0
LINE
  5
4DD2
330
9C1
100
AcDbEntity
  8
SUNPOU
100
AcDbLine
 10
191.8
 20
241.7848041893106
 30
0.0
 11
196.8
 21
241.7848041893106
 31
0.0
  0
MTEXT
  5
4DD3
330
9C1
100
AcDbEntity
  8
SUNPOU
100
AcDbMText
 10
184.2281856277113
 20
246.2848041893106
 30
0.0
 40
5.0
 41
0.0
 71
     5
 72
     1
  1
\A1;5
  7
SUNPOU
1001
ACAD
1000
MTEXTBEGIN
1070
    73
1070
     1
1070
    44
1040
1.0
1070
    74
1070
     0
1000
MTEXTEND
1000
MTEXTBEGIN
1070
    73
1070
     1
1070
    44
1040
1.0
1070
    74
1070
     0
1000
MTEXTEND
  0
LINE
  5
4DD4
330
9C1
100
AcDbEntity
  8
SUNPOU
100
AcDbLine
 10
181.7999999999999
 20
241.7848041893106
 30
0.0
 11
186.8
 21
241.7848041893106
 31
0.0
  0
INSERT
  5
4DD5
330
9C1
100
AcDbEntity
  8
SUNPOU
100
AcDbBlockReference
  2
_DOTSMALL
 10
181.7999999999999
 20
241.7848041893106
 30
0.0
 41
5.0
 42
5.0
 43
5.0
  0
INSERT
  5
4DD6
330
9C1
100
AcDbEntity
  8
SUNPOU
100
AcDbBlockReference
  2
_OPEN30
 10
186.8
 20
241.7848041893106
 30
0.0
 41
5.0
 42
5.0
 43
5.0
 50
180.0
  0
POINT
  5
4DD7
330
9C1
100
AcDbEntity
  8
DEFPOINTS
 62
     0
100
AcDbPoint
 10
181.7999999999999
 20
258.7663352261515
 30
0.0
  0
POINT
  5
4DD8
330
9C1
100
AcDbEntity
  8
DEFPOINTS
 62
     0
100
AcDbPoint
 10
186.8
 20
241.7848041893106
 30
0.0
  0
POINT
  5
4DD9
330
9C1
100
AcDbEntity
  8
DEFPOINTS
 62
     0
100
AcDbPoint
 10
186.8
 20
241.7848041893106
 30
0.0
  0
ENDBLK
  5
9CC
330
9C1
100
AcDbEntity
  8
0
100
AcDbBlockEnd
  0
BLOCK
  5
9DA
330
9CE
100
AcDbEntity
  8
0
100
AcDbBlockBegin
  2
*D4
 70
     1
 10
0.0
 20
0.0
 30
0.0
  3
*D4
  1

  0
LINE
  5
4DDA
330
9CE
100
AcDbEntity
  8
SUNPOU
100
AcDbLine
 10
231.8
 20
238.7848041893106
 30
0.0
 11
231.8
 21
239.7848041893106
 31
0.0
  0
LINE
  5
4DDB
330
9CE
100
AcDbEntity
  8
SUNPOU
100
AcDbLine
 10
236.8
 20
244.7848041893106
 30
0.0
 11
236.8
 21
243.7848041893106
 31
0.0
  0
LINE
  5
4DDC
330
9CE
100
AcDbEntity
  8
SUNPOU
100
AcDbLine
 10
231.8
 20
241.7848041893106
 30
0.0
 11
236.8
 21
241.7848041893106
 31
0.0
  0
MTEXT
  5
4DDD
330
9CE
100
AcDbEntity
  8
SUNPOU
100
AcDbMText
 10
233.9670370501778
 20
246.0831305137219
 30
0.0
 40
5.0
 41
0.0
 71
     5
 72
     1
  1
\A1;5
  7
SUNPOU
1001
ACAD
1000
MTEXTBEGIN
1070
    73
1070
     1
1070
    44
1040
1.0
1070
    74
1070
     0
1000
MTEXTEND
1000
MTEXTBEGIN
1070
    73
1070
     1
1070
    44
1040
1.0
1070
    74
1070
     0
1000
MTEXTEND
  0
INSERT
  5
4DDE
330
9CE
100
AcDbEntity
  8
SUNPOU
100
AcDbBlockReference
  2
_DOTSMALL
 10
231.8
 20
241.7848041893106
 30
0.0
 41
5.0
 42
5.0
 43
5.0
 50
180.0
  0
INSERT
  5
4DDF
330
9CE
100
AcDbEntity
  8
SUNPOU
100
AcDbBlockReference
  2
_DOTSMALL
 10
236.8
 20
241.7848041893106
 30
0.0
 41
5.0
 42
5.0
 43
5.0
  0
POINT
  5
4DE0
330
9CE
100
AcDbEntity
  8
DEFPOINTS
 62
     0
100
AcDbPoint
 10
231.8
 20
241.7848041893106
 30
0.0
  0
POINT
  5
4DE1
330
9CE
100
AcDbEntity
  8
DEFPOINTS
 62
     0
100
AcDbPoint
 10
236.8
 20
241.7848041893106
 30
0.0
  0
POINT
  5
4DE2
330
9CE
100
AcDbEntity
  8
DEFPOINTS
 62
     0
100
AcDbPoint
 10
236.8
 20
241.7848041893106
 30
0.0
  0
ENDBLK
  5
9DB
330
9CE
100
AcDbEntity
  8
0
100
AcDbBlockEnd
  0
BLOCK
  5
9E7
330
9DD
100
AcDbEntity
  8
0
100
AcDbBlockBegin
  2
*D5
 70
     1
 10
0.0
 20
0.0
 30
0.0
  3
*D5
  1

  0
LINE
  5
39DD
330
9DD
100
AcDbEntity
  8
SUNPOU
100
AcDbLine
 10
236.8
 20
244.7848041893106
 30
0.0
 11
236.8
 21
243.7848041893106
 31
0.0
  0
LINE
  5
39DE
330
9DD
100
AcDbEntity
  8
SUNPOU
100
AcDbLine
 10
281.8000000000001
 20
239.1867279743105
 30
0.0
 11
281.8000000000001
 21
239.7848041893106
 31
0.0
  0
LINE
  5
39DF
330
9DD
100
AcDbEntity
  8
SUNPOU
100
AcDbLine
 10
241.8
 20
241.7848041893106
 30
0.0
 11
276.8
 21
241.7848041893106
 31
0.0
  0
MTEXT
  5
39E0
330
9DD
100
AcDbEntity
  8
SUNPOU
100
AcDbMText
 10
266.4770957042628
 20
246.2848041893106
 30
0.0
 40
5.0
 41
0.0
 71
     5
 72
     1
  1
\A1;45
  7
SUNPOU
1001
ACAD
1000
MTEXTBEGIN
1070
    73
1070
     1
1070
    44
1040
1.0
1070
    74
1070
     0
1000
MTEXTEND
1000
MTEXTBEGIN
1070
    73
1070
     1
1070
    44
1040
1.0
1070
    74
1070
     0
1000
MTEXTEND
  0
INSERT
  5
39E1
330
9DD
100
AcDbEntity
  8
SUNPOU
100
AcDbBlockReference
  2
_OPEN30
 10
236.8
 20
241.7848041893106
 30
0.0
 41
5.0
 42
5.0
 43
5.0
 50
180.0
  0
INSERT
  5
39E2
330
9DD
100
AcDbEntity
  8
SUNPOU
100
AcDbBlockReference
  2
_OPEN30
 10
281.8000000000001
 20
241.7848041893106
 30
0.0
 41
5.0
 42
5.0
 43
5.0
  0
POINT
  5
39E3
330
9DD
100
AcDbEntity
  8
DEFPOINTS
 62
     0
100
AcDbPoint
 10
236.8
 20
241.7848041893106
 30
0.0
  0
POINT
  5
39E4
330
9DD
100
AcDbEntity
  8
DEFPOINTS
 62
     0
100
AcDbPoint
 10
281.8000000000001
 20
242.1867279743107
 30
0.0
  0
POINT
  5
39E5
330
9DD
100
AcDbEntity
  8
DEFPOINTS
 62
     0
100
AcDbPoint
 10
281.8000000000001
 20
241.7848041893106
 30
0.0
  0
ENDBLK
  5
9E8
330
9DD
100
AcDbEntity
  8
0
100
AcDbBlockEnd
  0
BLOCK
  5
A3B
330
A39
100
AcDbEntity
  8
0
100
AcDbBlockBegin
  2
_DOTSMALL
 70
     0
 10
0.0
 20
0.0
 30
0.0
  3
_DOTSMALL
  1

  0
POLYLINE
  5
A3A
330
A39
100
AcDbEntity
  8
0
  6
BYBLOCK
 62
     0
100
AcDb2dPolyline
 66
     1
 10
0.0
 20
0.0
 30
0.0
 70
     1
 40
0.5
 41
0.5
  0
VERTEX
  5
5071
330
A3A
100
AcDbEntity
  8
0
  6
BYBLOCK
 62
     0
100
AcDbVertex
100
AcDb2dVertex
 10
-0.0625
 20
0.0
 30
0.0
 42
1.0
  0
VERTEX
  5
5072
330
A3A
100
AcDbEntity
  8
0
  6
BYBLOCK
 62
     0
100
AcDbVertex
100
AcDb2dVertex
 10
0.0625
 20
0.0
 30
0.0
 42
1.0
  0
SEQEND
  5
5073
330
A3A
100
AcDbEntity
  8
0
  6
BYBLOCK
 62
     0
  0
ENDBLK
  5
A3C
330
A39
100
AcDbEntity
  8
0
100
AcDbBlockEnd
  0
BLOCK
  5
A49
330
A48
100
AcDbEntity
  8
0
100
AcDbBlockBegin
  2
_NONE
 70
     0
 10
0.0
 20
0.0
 30
0.0
  3
_NONE
  1

  0
ENDBLK
  5
A4A
330
A48
100
AcDbEntity
  8
0
100
AcDbBlockEnd
  0
BLOCK
  5
ADF
330
AD5
100
AcDbEntity
  8
0
100
AcDbBlockBegin
  2
*D8
 70
     1
 10
0.0
 20
0.0
 30
0.0
  3
*D8
  1

  0
LINE
  5
3E34
330
AD5
100
AcDbEntity
  8
SUNPOU
100
AcDbLine
 10
81.41672346529572
 20
149.9434115594849
 30
0.0
 11
82.41672346529572
 21
149.9434115594849
 31
0.0
  0
LINE
  5
3E35
330
AD5
100
AcDbEntity
  8
SUNPOU
100
AcDbLine
 10
140.8
 20
198.5163352261515
 30
0.0
 11
82.41672346529574
 21
198.5163352261515
 31
0.0
  0
LINE
  5
3E36
330
AD5
100
AcDbEntity
  8
SUNPOU
100
AcDbLine
 10
84.41672346529569
 20
154.9434115594849
 30
0.0
 11
84.41672346529573
 21
193.5163352261515
 31
0.0
  0
MTEXT
  5
3E37
330
AD5
100
AcDbEntity
  8
SUNPOU
100
AcDbMText
 10
79.8022887077109
 20
174.3696971884737
 30
0.0
 40
5.0
 41
0.0
 71
     5
 72
     1
  1
\A1;600
  7
SUNPOU
 11
0.0000000000000001
 21
1.0
 31
0.0
1001
ACAD
1000
MTEXTBEGIN
1070
    73
1070
     1
1070
    44
1040
1.0
1070
    74
1070
     0
1000
MTEXTEND
1000
MTEXTBEGIN
1070
    73
1070
     1
1070
    44
1040
1.0
1070
    74
1070
     0
1000
MTEXTEND
  0
INSERT
  5
3E38
330
AD5
100
AcDbEntity
  8
SUNPOU
100
AcDbBlockReference
  2
_OPEN30
 10
84.41672346529569
 20
149.9434115594849
 30
0.0
 41
5.0
 42
5.0
 43
5.0
 50
270.0
  0
INSERT
  5
3E39
330
AD5
100
AcDbEntity
  8
SUNPOU
100
AcDbBlockReference
  2
_OPEN30
 10
84.41672346529573
 20
198.5163352261515
 30
0.0
 41
5.0
 42
5.0
 43
5.0
 50
90.0
  0
POINT
  5
3E3A
330
AD5
100
AcDbEntity
  8
DEFPOINTS
 62
     0
100
AcDbPoint
 10
84.41672346529577
 20
149.9434115594849
 30
0.0
  0
POINT
  5
3E3B
330
AD5
100
AcDbEntity
  8
DEFPOINTS
 62
     0
100
AcDbPoint
 10
143.8
 20
198.5163352261515
 30
0.0
  0
POINT
  5
3E3C
330
AD5
100
AcDbEntity
  8
DEFPOINTS
 62
     0
100
AcDbPoint
 10
84.41672346529573
 20
198.5163352261515
 30
0.0
  0
ENDBLK
  5
AE0
330
AD5
100
AcDbEntity
  8
0
100
AcDbBlockEnd
  0
BLOCK
  5
AF6
330
AEC
100
AcDbEntity
  8
0
100
AcDbBlockBegin
  2
*D9
 70
     1
 10
0.0
 20
0.0
 30
0.0
  3
*D9
  1

  0
LINE
  5
3E2B
330
AEC
100
AcDbEntity
  8
SUNPOU
100
AcDbLine
 10
125.8
 20
234.3381283052291
 30
0.0
 11
125.8
 21
233.3381283052291
 31
0.0
  0
LINE
  5
3E2C
330
AEC
100
AcDbEntity
  8
SUNPOU
100
AcDbLine
 10
305.8
 20
234.3381283052291
 30
0.0
 11
305.8
 21
233.3381283052291
 31
0.0
  0
LINE
  5
3E2D
330
AEC
100
AcDbEntity
  8
SUNPOU
100
AcDbLine
 10
130.8
 20
231.3381283052291
 30
0.0
 11
300.8
 21
231.3381283052291
 31
0.0
  0
MTEXT
  5
3E2E
330
AEC
100
AcDbEntity
  8
SUNPOU
100
AcDbMText
 10
219.3961465602705
 20
235.838128305229
 30
0.0
 40
5.0
 41
0.0
 71
     5
 72
     1
  1
\A1;180
  7
SUNPOU
1001
ACAD
1000
MTEXTBEGIN
1070
    73
1070
     1
1070
    44
1040
1.0
1070
    74
1070
     0
1000
MTEXTEND
1000
MTEXTBEGIN
1070
    73
1070
     1
1070
    44
1040
1.0
1070
    74
1070
     0
1000
MTEXTEND
  0
INSERT
  5
3E2F
330
AEC
100
AcDbEntity
  8
SUNPOU
100
AcDbBlockReference
  2
_OPEN30
 10
125.8
 20
231.3381283052291
 30
0.0
 41
5.0
 42
5.0
 43
5.0
 50
180.0
  0
INSERT
  5
3E30
330
AEC
100
AcDbEntity
  8
SUNPOU
100
AcDbBlockReference
  2
_OPEN30
 10
305.8
 20
231.3381283052291
 30
0.0
 41
5.0
 42
5.0
 43
5.0
  0
POINT
  5
3E31
330
AEC
100
AcDbEntity
  8
DEFPOINTS
 62
     0
100
AcDbPoint
 10
125.8
 20
231.3381283052291
 30
0.0
  0
POINT
  5
3E32
330
AEC
100
AcDbEntity
  8
DEFPOINTS
 62
     0
100
AcDbPoint
 10
305.8
 20
231.3381283052291
 30
0.0
  0
POINT
  5
3E33
330
AEC
100
AcDbEntity
  8
DEFPOINTS
 62
     0
100
AcDbPoint
 10
305.8
 20
231.3381283052291
 30
0.0
  0
ENDBLK
  5
AF7
330
AEC
100
AcDbEntity
  8
0
100
AcDbBlockEnd
  0
BLOCK
  5
B9D
330
B93
100
AcDbEntity
  8
0
100
AcDbBlockBegin
  2
*D10
 70
     1
 10
0.0
 20
0.0
 30
0.0
  3
*D10
  1

  0
LINE
  5
3DCD
330
B93
100
AcDbEntity
  8
SUNPOU
100
AcDbLine
 10
284.8000000000001
 20
159.9434115594851
 30
0.0
 11
353.6985703686882
 21
159.9434115594851
 31
0.0
  0
LINE
  5
3DCE
330
B93
100
AcDbEntity
  8
SUNPOU
100
AcDbLine
 10
291.3
 20
268.0324118759409
 30
0.0
 11
353.6985703686882
 21
268.0324118759409
 31
0.0
  0
LINE
  5
3DCF
330
B93
100
AcDbEntity
  8
SUNPOU
100
AcDbLine
 10
351.6985703686882
 20
164.9434115594851
 30
0.0
 11
351.6985703686882
 21
263.0324118759409
 31
0.0
  0
MTEXT
  5
3DD0
330
B93
100
AcDbEntity
  8
SUNPOU
100
AcDbMText
 10
347.1985703686882
 20
203.7663352261517
 30
0.0
 40
5.0
 41
0.0
 71
     5
 72
     1
  1
\A1;DH
  7
SUNPOU
 11
0.0000000000000001
 21
1.0
 31
0.0
1001
ACAD
1000
MTEXTBEGIN
1070
    73
1070
     1
1070
    44
1040
1.0
1070
    74
1070
     0
1000
MTEXTEND
1000
MTEXTBEGIN
1070
    73
1070
     1
1070
    44
1040
1.0
1070
    74
1070
     0
1000
MTEXTEND
  0
INSERT
  5
3DD1
330
B93
100
AcDbEntity
  8
SUNPOU
100
AcDbBlockReference
  2
_OPEN30
 10
351.6985703686882
 20
159.9434115594851
 30
0.0
 41
5.0
 42
5.0
 43
5.0
 50
270.0
  0
INSERT
  5
3DD2
330
B93
100
AcDbEntity
  8
SUNPOU
100
AcDbBlockReference
  2
_OPEN30
 10
351.6985703686882
 20
268.0324118759409
 30
0.0
 41
5.0
 42
5.0
 43
5.0
 50
90.0
  0
POINT
  5
3DD3
330
B93
100
AcDbEntity
  8
DEFPOINTS
 62
     0
100
AcDbPoint
 10
281.8000000000001
 20
159.9434115594851
 30
0.0
  0
POINT
  5
3DD4
330
B93
100
AcDbEntity
  8
DEFPOINTS
 62
     0
100
AcDbPoint
 10
288.3
 20
268.0324118759409
 30
0.0
  0
POINT
  5
3DD5
330
B93
100
AcDbEntity
  8
DEFPOINTS
 62
     0
100
AcDbPoint
 10
351.6985703686882
 20
268.0324118759409
 30
0.0
  0
ENDBLK
  5
B9E
330
B93
100
AcDbEntity
  8
0
100
AcDbBlockEnd
  0
BLOCK
  5
BAC
330
BA0
100
AcDbEntity
  8
0
100
AcDbBlockBegin
  2
*D11
 70
     1
 10
0.0
 20
0.0
 30
0.0
  3
*D11
  1

  0
LINE
  5
3DC2
330
BA0
100
AcDbEntity
  8
SUNPOU
100
AcDbLine
 10
305.0499999999995
 20
258.0163352261517
 30
0.0
 11
337.5423208177
 21
258.0163352261517
 31
0.0
  0
LINE
  5
3DC3
330
BA0
100
AcDbEntity
  8
SUNPOU
100
AcDbLine
 10
291.3
 20
268.0324118759409
 30
0.0
 11
337.5423208177
 21
268.0324118759409
 31
0.0
  0
LINE
  5
3DC4
330
BA0
100
AcDbEntity
  8
SUNPOU
100
AcDbLine
 10
335.5423208177
 20
253.0163352261515
 30
0.0
 11
335.5423208177
 21
248.0163352261515
 31
0.0
  0
LINE
  5
3DC5
330
BA0
100
AcDbEntity
  8
SUNPOU
100
AcDbLine
 10
335.5423208177
 20
273.0324118759408
 30
0.0
 11
335.5423208177
 21
278.0324118759409
 31
0.0
  0
MTEXT
  5
3DC6
330
BA0
100
AcDbEntity
  8
SUNPOU
100
AcDbMText
 10
331.1917398945518
 20
263.0700408146592
 30
0.0
 40
5.0
 41
0.0
 71
     5
 72
     1
  1
\A1;10
  7
SUNPOU
 11
0.0000000000000001
 21
1.0
 31
0.0
1001
ACAD
1000
MTEXTBEGIN
1070
    73
1070
     1
1070
    44
1040
1.0
1070
    74
1070
     0
1000
MTEXTEND
1000
MTEXTBEGIN
1070
    73
1070
     1
1070
    44
1040
1.0
1070
    74
1070
     0
1000
MTEXTEND
  0
LINE
  5
3DC7
330
BA0
100
AcDbEntity
  8
SUNPOU
100
AcDbLine
 10
335.5423208177
 20
258.0163352261517
 30
0.0
 11
335.5423208177
 21
268.0324118759409
 31
0.0
  0
INSERT
  5
3DC8
330
BA0
100
AcDbEntity
  8
SUNPOU
100
AcDbBlockReference
  2
_OPEN30
 10
335.5423208177
 20
258.0163352261517
 30
0.0
 41
5.0
 42
5.0
 43
5.0
 50
90.0
  0
INSERT
  5
3DC9
330
BA0
100
AcDbEntity
  8
SUNPOU
100
AcDbBlockReference
  2
_OPEN30
 10
335.5423208177
 20
268.0324118759409
 30
0.0
 41
5.0
 42
5.0
 43
5.0
 50
270.0
  0
POINT
  5
3DCA
330
BA0
100
AcDbEntity
  8
DEFPOINTS
 62
     0
100
AcDbPoint
 10
302.0499999999996
 20
258.0163352261517
 30
0.0
  0
POINT
  5
3DCB
330
BA0
100
AcDbEntity
  8
DEFPOINTS
 62
     0
100
AcDbPoint
 10
288.3
 20
268.0324118759409
 30
0.0
  0
POINT
  5
3DCC
330
BA0
100
AcDbEntity
  8
DEFPOINTS
 62
     0
100
AcDbPoint
 10
335.5423208177
 20
268.0324118759409
 30
0.0
  0
ENDBLK
  5
BAD
330
BA0
100
AcDbEntity
  8
0
100
AcDbBlockEnd
  0
BLOCK
  5
BCD
330
BC3
100
AcDbEntity
  8
0
100
AcDbBlockBegin
  2
*D12
 70
     1
 10
0.0
 20
0.0
 30
0.0
  3
*D12
  1

  0
LINE
  5
3DB9
330
BC3
100
AcDbEntity
  8
SUNPOU
100
AcDbLine
 10
366.3564147618441
 20
149.9434115594849
 30
0.0
 11
371.6186291739894
 21
149.9434115594849
 31
0.0
  0
LINE
  5
3DBA
330
BC3
100
AcDbEntity
  8
SUNPOU
100
AcDbLine
 10
305.0499999999995
 20
258.0163352261517
 30
0.0
 11
371.6186291739894
 21
258.0163352261517
 31
0.0
  0
LINE
  5
3DBB
330
BC3
100
AcDbEntity
  8
SUNPOU
100
AcDbLine
 10
369.6186291739893
 20
154.9434115594849
 30
0.0
 11
369.6186291739893
 21
253.0163352261515
 31
0.0
  0
MTEXT
  5
3DBC
330
BC3
100
AcDbEntity
  8
SUNPOU
100
AcDbMText
 10
365.1186291739894
 20
193.7663352261518
 30
0.0
 40
5.0
 41
0.0
 71
     5
 72
     1
  1
\A1;H
  7
SUNPOU
 11
0.0000000000000001
 21
1.0
 31
0.0
1001
ACAD
1000
MTEXTBEGIN
1070
    73
1070
     1
1070
    44
1040
1.0
1070
    74
1070
     0
1000
MTEXTEND
1000
MTEXTBEGIN
1070
    73
1070
     1
1070
    44
1040
1.0
1070
    74
1070
     0
1000
MTEXTEND
  0
INSERT
  5
3DBD
330
BC3
100
AcDbEntity
  8
SUNPOU
100
AcDbBlockReference
  2
_OPEN30
 10
369.6186291739893
 20
149.9434115594849
 30
0.0
 41
5.0
 42
5.0
 43
5.0
 50
270.0
  0
INSERT
  5
3DBE
330
BC3
100
AcDbEntity
  8
SUNPOU
100
AcDbBlockReference
  2
_OPEN30
 10
369.6186291739893
 20
258.0163352261517
 30
0.0
 41
5.0
 42
5.0
 43
5.0
 50
90.0
  0
POINT
  5
3DBF
330
BC3
100
AcDbEntity
  8
DEFPOINTS
 62
     0
100
AcDbPoint
 10
363.3564147618441
 20
149.9434115594849
 30
0.0
  0
POINT
  5
3DC0
330
BC3
100
AcDbEntity
  8
DEFPOINTS
 62
     0
100
AcDbPoint
 10
302.0499999999996
 20
258.0163352261517
 30
0.0
  0
POINT
  5
3DC1
330
BC3
100
AcDbEntity
  8
DEFPOINTS
 62
     0
100
AcDbPoint
 10
369.6186291739893
 20
258.0163352261517
 30
0.0
  0
ENDBLK
  5
BCE
330
BC3
100
AcDbEntity
  8
0
100
AcDbBlockEnd
  0
BLOCK
  5
BEC
330
BE2
100
AcDbEntity
  8
0
100
AcDbBlockBegin
  2
*D13
 70
     1
 10
0.0
 20
0.0
 30
0.0
  3
*D13
  1

  0
LINE
  5
3DB0
330
BE2
100
AcDbEntity
  8
SUNPOU
100
AcDbLine
 10
305.0499999999995
 20
258.0163352261517
 30
0.0
 11
371.6186291739894
 21
258.0163352261517
 31
0.0
  0
LINE
  5
3DB1
330
BE2
100
AcDbEntity
  8
SUNPOU
100
AcDbLine
 10
305.0499999999995
 20
538.0163352261518
 30
0.0
 11
371.6186291739894
 21
538.0163352261518
 31
0.0
  0
LINE
  5
3DB2
330
BE2
100
AcDbEntity
  8
SUNPOU
100
AcDbLine
 10
369.6186291739893
 20
263.0163352261515
 30
0.0
 11
369.6186291739893
 21
533.0163352261518
 31
0.0
  0
INSERT
  5
3DB3
330
BE2
100
AcDbEntity
  8
SUNPOU
100
AcDbBlockReference
  2
_OPEN30
 10
369.6186291739893
 20
258.0163352261517
 30
0.0
 41
5.0
 42
5.0
 43
5.0
 50
270.0
  0
INSERT
  5
3DB4
330
BE2
100
AcDbEntity
  8
SUNPOU
100
AcDbBlockReference
  2
_OPEN30
 10
369.6186291739893
 20
538.0163352261518
 30
0.0
 41
5.0
 42
5.0
 43
5.0
 50
90.0
  0
MTEXT
  5
3DB5
330
BE2
100
AcDbEntity
  8
SUNPOU
100
AcDbMText
 10
365.1186291739894
 20
398.0163352261516
 30
0.0
 40
5.0
 41
0.0
 71
     5
 72
     1
  1
\A1;280
  7
SUNPOU
 11
0.0000000000000001
 21
1.0
 31
0.0
1001
ACAD
1000
MTEXTBEGIN
1070
    73
1070
     1
1070
    44
1040
1.0
1070
    74
1070
     0
1000
MTEXTEND
1000
MTEXTBEGIN
1070
    73
1070
     1
1070
    44
1040
1.0
1070
    74
1070
     0
1000
MTEXTEND
  0
POINT
  5
3DB6
330
BE2
100
AcDbEntity
  8
DEFPOINTS
 62
     0
100
AcDbPoint
 10
302.0499999999996
 20
258.0163352261517
 30
0.0
  0
POINT
  5
3DB7
330
BE2
100
AcDbEntity
  8
DEFPOINTS
 62
     0
100
AcDbPoint
 10
302.0499999999996
 20
538.0163352261518
 30
0.0
  0
POINT
  5
3DB8
330
BE2
100
AcDbEntity
  8
DEFPOINTS
 62
     0
100
AcDbPoint
 10
369.6186291739893
 20
538.0163352261518
 30
0.0
  0
ENDBLK
  5
BED
330
BE2
100
AcDbEntity
  8
0
100
AcDbBlockEnd
  0
BLOCK
  5
2C4F
330
2C45
100
AcDbEntity
  8
0
100
AcDbBlockBegin
  2
*D14
 70
     1
 10
0.0
 20
0.0
 30
0.0
  3
*D14
  1

  0
LINE
  5
3E22
330
2C45
100
AcDbEntity
  8
SUNPOU
100
AcDbLine
 10
128.7999999999996
 20
258.0163352261517
 30
0.0
 11
103.1518994186832
 21
258.0163352261517
 31
0.0
  0
LINE
  5
3E23
330
2C45
100
AcDbEntity
  8
SUNPOU
100
AcDbLine
 10
179.2984657904306
 20
293.0163352265612
 30
0.0
 11
103.1518994186832
 21
293.0163352265612
 31
0.0
  0
LINE
  5
3E24
330
2C45
100
AcDbEntity
  8
SUNPOU
100
AcDbLine
 10
105.1518994186829
 20
263.0163352261518
 30
0.0
 11
105.1518994186829
 21
288.0163352265613
 31
0.0
  0
INSERT
  5
3E25
330
2C45
100
AcDbEntity
  8
SUNPOU
100
AcDbBlockReference
  2
_OPEN30
 10
105.1518994186829
 20
258.0163352261517
 30
0.0
 41
5.0
 42
5.0
 43
5.0
 50
270.0
  0
INSERT
  5
3E26
330
2C45
100
AcDbEntity
  8
SUNPOU
100
AcDbBlockReference
  2
_OPEN30
 10
105.1518994186829
 20
293.0163352265612
 30
0.0
 41
5.0
 42
5.0
 43
5.0
 50
90.0
  0
MTEXT
  5
3E27
330
2C45
100
AcDbEntity
  8
SUNPOU
100
AcDbMText
 10
100.6518994186829
 20
275.5163352263565
 30
0.0
 40
5.0
 41
0.0
 71
     5
 72
     1
  1
\A1;35
  7
SUNPOU
 11
0.0000000000000001
 21
1.0
 31
0.0
1001
ACAD
1000
MTEXTBEGIN
1070
    73
1070
     1
1070
    44
1040
1.0
1070
    74
1070
     0
1000
MTEXTEND
1000
MTEXTBEGIN
1070
    73
1070
     1
1070
    44
1040
1.0
1070
    74
1070
     0
1000
MTEXTEND
  0
POINT
  5
3E28
330
2C45
100
AcDbEntity
  8
DEFPOINTS
 62
     0
100
AcDbPoint
 10
131.7999999999996
 20
258.0163352261517
 30
0.0
  0
POINT
  5
3E29
330
2C45
100
AcDbEntity
  8
DEFPOINTS
 62
     0
100
AcDbPoint
 10
182.2984657904306
 20
293.0163352265612
 30
0.0
  0
POINT
  5
3E2A
330
2C45
100
AcDbEntity
  8
DEFPOINTS
 62
     0
100
AcDbPoint
 10
105.1518994186829
 20
293.0163352265612
 30
0.0
  0
ENDBLK
  5
2C50
330
2C45
100
AcDbEntity
  8
0
100
AcDbBlockEnd
  0
BLOCK
  5
2C5C
330
2C52
100
AcDbEntity
  8
0
100
AcDbBlockBegin
  2
*D15
 70
     1
 10
0.0
 20
0.0
 30
0.0
  3
*D15
  1

  0
LINE
  5
3E19
330
2C52
100
AcDbEntity
  8
SUNPOU
100
AcDbLine
 10
179.29848917952
 20
293.0163352265612
 30
0.0
 11
103.1518994186832
 21
293.0163352265612
 31
0.0
  0
LINE
  5
3E1A
330
2C52
100
AcDbEntity
  8
SUNPOU
100
AcDbLine
 10
168.414143625319
 20
312.0015524356052
 30
0.0
 11
103.1518994186832
 21
312.0015524356053
 31
0.0
  0
LINE
  5
3E1B
330
2C52
100
AcDbEntity
  8
SUNPOU
100
AcDbLine
 10
105.1518994186829
 20
298.0163352265611
 30
0.0
 11
105.1518994186829
 21
307.0015524356053
 31
0.0
  0
INSERT
  5
3E1C
330
2C52
100
AcDbEntity
  8
SUNPOU
100
AcDbBlockReference
  2
_OPEN30
 10
105.1518994186829
 20
293.0163352265612
 30
0.0
 41
5.0
 42
5.0
 43
5.0
 50
270.0
  0
INSERT
  5
3E1D
330
2C52
100
AcDbEntity
  8
SUNPOU
100
AcDbBlockReference
  2
_OPEN30
 10
105.1518994186829
 20
312.0015524356053
 30
0.0
 41
5.0
 42
5.0
 43
5.0
 50
90.0
  0
MTEXT
  5
3E1E
330
2C52
100
AcDbEntity
  8
SUNPOU
100
AcDbMText
 10
100.6518994186829
 20
302.5089438310831
 30
0.0
 40
5.0
 41
0.0
 71
     5
 72
     1
  1
\A1;19
  7
SUNPOU
 11
0.0000000000000001
 21
1.0
 31
0.0
1001
ACAD
1000
MTEXTBEGIN
1070
    73
1070
     1
1070
    44
1040
1.0
1070
    74
1070
     0
1000
MTEXTEND
1000
MTEXTBEGIN
1070
    73
1070
     1
1070
    44
1040
1.0
1070
    74
1070
     0
1000
MTEXTEND
  0
POINT
  5
3E1F
330
2C52
100
AcDbEntity
  8
DEFPOINTS
 62
     0
100
AcDbPoint
 10
182.2984891795201
 20
293.0163352265612
 30
0.0
  0
POINT
  5
3E20
330
2C52
100
AcDbEntity
  8
DEFPOINTS
 62
     0
100
AcDbPoint
 10
171.414143625319
 20
312.0015524356052
 30
0.0
  0
POINT
  5
3E21
330
2C52
100
AcDbEntity
  8
DEFPOINTS
 62
     0
100
AcDbPoint
 10
105.1518994186829
 20
312.0015524356053
 30
0.0
  0
ENDBLK
  5
2C5D
330
2C52
100
AcDbEntity
  8
0
100
AcDbBlockEnd
  0
BLOCK
  5
2C69
330
2C5F
100
AcDbEntity
  8
0
100
AcDbBlockBegin
  2
*D16
 70
     1
 10
0.0
 20
0.0
 30
0.0
  3
*D16
  1

  0
LINE
  5
3E10
330
2C5F
100
AcDbEntity
  8
SUNPOU
100
AcDbLine
 10
168.414143625319
 20
312.0015524356052
 30
0.0
 11
103.1518994186832
 21
312.0015524356053
 31
0.0
  0
LINE
  5
3E11
330
2C5F
100
AcDbEntity
  8
SUNPOU
100
AcDbLine
 10
168.414143625319
 20
346.9745998879008
 30
0.0
 11
103.1518994186832
 21
346.9745998879008
 31
0.0
  0
LINE
  5
3E12
330
2C5F
100
AcDbEntity
  8
SUNPOU
100
AcDbLine
 10
105.1518994186829
 20
317.0015524356053
 30
0.0
 11
105.1518994186829
 21
341.9745998879008
 31
0.0
  0
INSERT
  5
3E13
330
2C5F
100
AcDbEntity
  8
SUNPOU
100
AcDbBlockReference
  2
_OPEN30
 10
105.1518994186829
 20
312.0015524356053
 30
0.0
 41
5.0
 42
5.0
 43
5.0
 50
270.0
  0
INSERT
  5
3E14
330
2C5F
100
AcDbEntity
  8
SUNPOU
100
AcDbBlockReference
  2
_OPEN30
 10
105.1518994186829
 20
346.9745998879008
 30
0.0
 41
5.0
 42
5.0
 43
5.0
 50
90.0
  0
MTEXT
  5
3E15
330
2C5F
100
AcDbEntity
  8
SUNPOU
100
AcDbMText
 10
100.6518994186829
 20
329.4880761617528
 30
0.0
 40
5.0
 41
0.0
 71
     5
 72
     1
  1
\A1;35
  7
SUNPOU
 11
0.0000000000000001
 21
1.0
 31
0.0
1001
ACAD
1000
MTEXTBEGIN
1070
    73
1070
     1
1070
    44
1040
1.0
1070
    74
1070
     0
1000
MTEXTEND
1000
MTEXTBEGIN
1070
    73
1070
     1
1070
    44
1040
1.0
1070
    74
1070
     0
1000
MTEXTEND
  0
POINT
  5
3E16
330
2C5F
100
AcDbEntity
  8
DEFPOINTS
 62
     0
100
AcDbPoint
 10
171.414143625319
 20
312.0015524356052
 30
0.0
  0
POINT
  5
3E17
330
2C5F
100
AcDbEntity
  8
DEFPOINTS
 62
     0
100
AcDbPoint
 10
171.414143625319
 20
346.9745998879008
 30
0.0
  0
POINT
  5
3E18
330
2C5F
100
AcDbEntity
  8
DEFPOINTS
 62
     0
100
AcDbPoint
 10
105.1518994186829
 20
346.9745998879008
 30
0.0
  0
ENDBLK
  5
2C6A
330
2C5F
100
AcDbEntity
  8
0
100
AcDbBlockEnd
  0
BLOCK
  5
3249
330
323F
100
AcDbEntity
  8
0
100
AcDbBlockBegin
  2
*D17
 70
     1
 10
0.0
 20
0.0
 30
0.0
  3
*D17
  1

  0
LINE
  5
3E07
330
323F
100
AcDbEntity
  8
SUNPOU
100
AcDbLine
 10
168.414143625319
 20
346.9745998879008
 30
0.0
 11
103.1518994186832
 21
346.9745998879008
 31
0.0
  0
LINE
  5
3E08
330
323F
100
AcDbEntity
  8
SUNPOU
100
AcDbLine
 10
167.9795453574334
 20
412.9745998879008
 30
0.0
 11
103.1518994186832
 21
412.9745998879008
 31
0.0
  0
LINE
  5
3E09
330
323F
100
AcDbEntity
  8
SUNPOU
100
AcDbLine
 10
105.1518994186829
 20
351.974599887901
 30
0.0
 11
105.1518994186829
 21
407.9745998879008
 31
0.0
  0
INSERT
  5
3E0A
330
323F
100
AcDbEntity
  8
SUNPOU
100
AcDbBlockReference
  2
_OPEN30
 10
105.1518994186829
 20
346.9745998879008
 30
0.0
 41
5.0
 42
5.0
 43
5.0
 50
270.0
  0
INSERT
  5
3E0B
330
323F
100
AcDbEntity
  8
SUNPOU
100
AcDbBlockReference
  2
_OPEN30
 10
105.1518994186829
 20
412.9745998879008
 30
0.0
 41
5.0
 42
5.0
 43
5.0
 50
90.0
  0
MTEXT
  5
3E0C
330
323F
100
AcDbEntity
  8
SUNPOU
100
AcDbMText
 10
100.6518994186829
 20
379.9745998879008
 30
0.0
 40
5.0
 41
0.0
 71
     5
 72
     1
  1
\A1;66
  7
SUNPOU
 11
0.0000000000000001
 21
1.0
 31
0.0
1001
ACAD
1000
MTEXTBEGIN
1070
    73
1070
     1
1070
    44
1040
1.0
1070
    74
1070
     0
1000
MTEXTEND
1000
MTEXTBEGIN
1070
    73
1070
     1
1070
    44
1040
1.0
1070
    74
1070
     0
1000
MTEXTEND
  0
POINT
  5
3E0D
330
323F
100
AcDbEntity
  8
DEFPOINTS
 62
     0
100
AcDbPoint
 10
171.414143625319
 20
346.9745998879008
 30
0.0
  0
POINT
  5
3E0E
330
323F
100
AcDbEntity
  8
DEFPOINTS
 62
     0
100
AcDbPoint
 10
170.9795453574334
 20
412.9745998879008
 30
0.0
  0
POINT
  5
3E0F
330
323F
100
AcDbEntity
  8
DEFPOINTS
 62
     0
100
AcDbPoint
 10
105.1518994186829
 20
412.9745998879008
 30
0.0
  0
ENDBLK
  5
324A
330
323F
100
AcDbEntity
  8
0
100
AcDbBlockEnd
  0
BLOCK
  5
3256
330
324C
100
AcDbEntity
  8
0
100
AcDbBlockBegin
  2
*D18
 70
     1
 10
0.0
 20
0.0
 30
0.0
  3
*D18
  1

  0
LINE
  5
3DFE
330
324C
100
AcDbEntity
  8
SUNPOU
100
AcDbLine
 10
167.9795453574334
 20
412.9745998879008
 30
0.0
 11
103.1518994186832
 21
412.9745998879008
 31
0.0
  0
LINE
  5
3DFF
330
324C
100
AcDbEntity
  8
SUNPOU
100
AcDbLine
 10
165.4046043951876
 20
487.9749888795746
 30
0.0
 11
103.1518994186832
 21
487.9749888795748
 31
0.0
  0
LINE
  5
3E00
330
324C
100
AcDbEntity
  8
SUNPOU
100
AcDbLine
 10
105.1518994186829
 20
417.974599887901
 30
0.0
 11
105.1518994186829
 21
482.9749888795748
 31
0.0
  0
INSERT
  5
3E01
330
324C
100
AcDbEntity
  8
SUNPOU
100
AcDbBlockReference
  2
_OPEN30
 10
105.1518994186829
 20
412.9745998879008
 30
0.0
 41
5.0
 42
5.0
 43
5.0
 50
270.0
  0
INSERT
  5
3E02
330
324C
100
AcDbEntity
  8
SUNPOU
100
AcDbBlockReference
  2
_OPEN30
 10
105.1518994186829
 20
487.9749888795748
 30
0.0
 41
5.0
 42
5.0
 43
5.0
 50
90.0
  0
MTEXT
  5
3E03
330
324C
100
AcDbEntity
  8
SUNPOU
100
AcDbMText
 10
100.6518994186829
 20
450.4747943837378
 30
0.0
 40
5.0
 41
0.0
 71
     5
 72
     1
  1
\A1;75
  7
SUNPOU
 11
0.0000000000000001
 21
1.0
 31
0.0
1001
ACAD
1000
MTEXTBEGIN
1070
    73
1070
     1
1070
    44
1040
1.0
1070
    74
1070
     0
1000
MTEXTEND
1000
MTEXTBEGIN
1070
    73
1070
     1
1070
    44
1040
1.0
1070
    74
1070
     0
1000
MTEXTEND
  0
POINT
  5
3E04
330
324C
100
AcDbEntity
  8
DEFPOINTS
 62
     0
100
AcDbPoint
 10
170.9795453574334
 20
412.9745998879008
 30
0.0
  0
POINT
  5
3E05
330
324C
100
AcDbEntity
  8
DEFPOINTS
 62
     0
100
AcDbPoint
 10
168.4046043951875
 20
487.9749888795746
 30
0.0
  0
POINT
  5
3E06
330
324C
100
AcDbEntity
  8
DEFPOINTS
 62
     0
100
AcDbPoint
 10
105.1518994186829
 20
487.9749888795748
 30
0.0
  0
ENDBLK
  5
3257
330
324C
100
AcDbEntity
  8
0
100
AcDbBlockEnd
  0
BLOCK
  5
3263
330
3259
100
AcDbEntity
  8
0
100
AcDbBlockBegin
  2
*D19
 70
     1
 10
0.0
 20
0.0
 30
0.0
  3
*D19
  1

  0
LINE
  5
3DF5
330
3259
100
AcDbEntity
  8
SUNPOU
100
AcDbLine
 10
165.4046043951876
 20
487.9749888795746
 30
0.0
 11
103.1518994186832
 21
487.9749888795748
 31
0.0
  0
LINE
  5
3DF6
330
3259
100
AcDbEntity
  8
SUNPOU
100
AcDbLine
 10
183.0499816836138
 20
507.9745023169886
 30
0.0
 11
103.1518994186832
 21
507.9745023169886
 31
0.0
  0
LINE
  5
3DF7
330
3259
100
AcDbEntity
  8
SUNPOU
100
AcDbLine
 10
105.1518994186829
 20
492.9749888795748
 30
0.0
 11
105.1518994186829
 21
502.9745023169886
 31
0.0
  0
INSERT
  5
3DF8
330
3259
100
AcDbEntity
  8
SUNPOU
100
AcDbBlockReference
  2
_OPEN30
 10
105.1518994186829
 20
487.9749888795748
 30
0.0
 41
5.0
 42
5.0
 43
5.0
 50
270.0
  0
INSERT
  5
3DF9
330
3259
100
AcDbEntity
  8
SUNPOU
100
AcDbBlockReference
  2
_OPEN30
 10
105.1518994186829
 20
507.9745023169886
 30
0.0
 41
5.0
 42
5.0
 43
5.0
 50
90.0
  0
MTEXT
  5
3DFA
330
3259
100
AcDbEntity
  8
SUNPOU
100
AcDbMText
 10
100.6518994186829
 20
497.9747455982816
 30
0.0
 40
5.0
 41
0.0
 71
     5
 72
     1
  1
\A1;20
  7
SUNPOU
 11
0.0000000000000001
 21
1.0
 31
0.0
1001
ACAD
1000
MTEXTBEGIN
1070
    73
1070
     1
1070
    44
1040
1.0
1070
    74
1070
     0
1000
MTEXTEND
1000
MTEXTBEGIN
1070
    73
1070
     1
1070
    44
1040
1.0
1070
    74
1070
     0
1000
MTEXTEND
  0
POINT
  5
3DFB
330
3259
100
AcDbEntity
  8
DEFPOINTS
 62
     0
100
AcDbPoint
 10
168.4046043951875
 20
487.9749888795746
 30
0.0
  0
POINT
  5
3DFC
330
3259
100
AcDbEntity
  8
DEFPOINTS
 62
     0
100
AcDbPoint
 10
186.0499816836138
 20
507.9745023169886
 30
0.0
  0
POINT
  5
3DFD
330
3259
100
AcDbEntity
  8
DEFPOINTS
 62
     0
100
AcDbPoint
 10
105.1518994186829
 20
507.9745023169886
 30
0.0
  0
ENDBLK
  5
3264
330
3259
100
AcDbEntity
  8
0
100
AcDbBlockEnd
  0
BLOCK
  5
33B9
330
33AF
100
AcDbEntity
  8
0
100
AcDbBlockBegin
  2
*D20
 70
     1
 10
0.0
 20
0.0
 30
0.0
  3
*D20
  1

  0
LINE
  5
39D4
330
33AF
100
AcDbEntity
  8
SUNPOU
100
AcDbLine
 10
186.8
 20
244.7848041893106
 30
0.0
 11
186.8
 21
243.7848041893106
 31
0.0
  0
LINE
  5
39D5
330
33AF
100
AcDbEntity
  8
SUNPOU
100
AcDbLine
 10
231.8
 20
244.7848041893106
 30
0.0
 11
231.8
 21
243.7848041893106
 31
0.0
  0
LINE
  5
39D6
330
33AF
100
AcDbEntity
  8
SUNPOU
100
AcDbLine
 10
191.8
 20
241.7848041893106
 30
0.0
 11
226.8
 21
241.7848041893106
 31
0.0
  0
MTEXT
  5
39D7
330
33AF
100
AcDbEntity
  8
SUNPOU
100
AcDbMText
 10
216.3788865451791
 20
246.2848041893106
 30
0.0
 40
5.0
 41
0.0
 71
     5
 72
     1
  1
\A1;45
  7
SUNPOU
1001
ACAD
1000
MTEXTBEGIN
1070
    73
1070
     1
1070
    44
1040
1.0
1070
    74
1070
     0
1000
MTEXTEND
1000
MTEXTBEGIN
1070
    73
1070
     1
1070
    44
1040
1.0
1070
    74
1070
     0
1000
MTEXTEND
  0
INSERT
  5
39D8
330
33AF
100
AcDbEntity
  8
SUNPOU
100
AcDbBlockReference
  2
_OPEN30
 10
186.8
 20
241.7848041893106
 30
0.0
 41
5.0
 42
5.0
 43
5.0
 50
180.0
  0
INSERT
  5
39D9
330
33AF
100
AcDbEntity
  8
SUNPOU
100
AcDbBlockReference
  2
_OPEN30
 10
231.8
 20
241.7848041893106
 30
0.0
 41
5.0
 42
5.0
 43
5.0
  0
POINT
  5
39DA
330
33AF
100
AcDbEntity
  8
DEFPOINTS
 62
     0
100
AcDbPoint
 10
186.8
 20
241.7848041893106
 30
0.0
  0
POINT
  5
39DB
330
33AF
100
AcDbEntity
  8
DEFPOINTS
 62
     0
100
AcDbPoint
 10
231.8
 20
241.7848041893106
 30
0.0
  0
POINT
  5
39DC
330
33AF
100
AcDbEntity
  8
DEFPOINTS
 62
     0
100
AcDbPoint
 10
231.8
 20
241.7848041893106
 30
0.0
  0
ENDBLK
  5
33BA
330
33AF
100
AcDbEntity
  8
0
100
AcDbBlockEnd
  0
BLOCK
  5
341E
330
3412
100
AcDbEntity
  8
0
100
AcDbBlockBegin
  2
*D21
 70
     1
 10
0.0
 20
0.0
 30
0.0
  3
*D21
  1

  0
LINE
  5
3F07
330
3412
100
AcDbEntity
  8
SUNPOU
100
AcDbLine
 10
281.8000000000001
 20
244.7848041893106
 30
0.0
 11
281.8000000000001
 21
243.7848041893106
 31
0.0
  0
LINE
  5
3F08
330
3412
100
AcDbEntity
  8
SUNPOU
100
AcDbLine
 10
286.8
 20
255.7663352261517
 30
0.0
 11
286.8
 21
239.7848041893106
 31
0.0
  0
LINE
  5
3F09
330
3412
100
AcDbEntity
  8
SUNPOU
100
AcDbLine
 10
276.8
 20
241.7848041893106
 30
0.0
 11
271.7999999999999
 21
241.7848041893106
 31
0.0
  0
LINE
  5
3F0A
330
3412
100
AcDbEntity
  8
SUNPOU
100
AcDbLine
 10
291.8
 20
241.7848041893106
 30
0.0
 11
296.7999999999999
 21
241.7848041893106
 31
0.0
  0
MTEXT
  5
3F0B
330
3412
100
AcDbEntity
  8
SUNPOU
100
AcDbMText
 10
284.5275199053721
 20
246.1741199567204
 30
0.0
 40
5.0
 41
0.0
 71
     5
 72
     1
  1
\A1;5
  7
SUNPOU
1001
ACAD
1000
MTEXTBEGIN
1070
    73
1070
     1
1070
    44
1040
1.0
1070
    74
1070
     0
1000
MTEXTEND
1000
MTEXTBEGIN
1070
    73
1070
     1
1070
    44
1040
1.0
1070
    74
1070
     0
1000
MTEXTEND
  0
LINE
  5
3F0C
330
3412
100
AcDbEntity
  8
SUNPOU
100
AcDbLine
 10
281.8000000000001
 20
241.7848041893106
 30
0.0
 11
286.8
 21
241.7848041893106
 31
0.0
  0
INSERT
  5
3F0D
330
3412
100
AcDbEntity
  8
SUNPOU
100
AcDbBlockReference
  2
_OPEN30
 10
281.8000000000001
 20
241.7848041893106
 30
0.0
 41
5.0
 42
5.0
 43
5.0
  0
INSERT
  5
3F0E
330
3412
100
AcDbEntity
  8
SUNPOU
100
AcDbBlockReference
  2
_OPEN30
 10
286.8
 20
241.7848041893106
 30
0.0
 41
5.0
 42
5.0
 43
5.0
 50
180.0
  0
POINT
  5
3F0F
330
3412
100
AcDbEntity
  8
DEFPOINTS
 62
     0
100
AcDbPoint
 10
281.8000000000001
 20
241.7848041893106
 30
0.0
  0
POINT
  5
3F10
330
3412
100
AcDbEntity
  8
DEFPOINTS
 62
     0
100
AcDbPoint
 10
286.8
 20
258.7663352261515
 30
0.0
  0
POINT
  5
3F11
330
3412
100
AcDbEntity
  8
DEFPOINTS
 62
     0
100
AcDbPoint
 10
286.8
 20
241.7848041893106
 30
0.0
  0
ENDBLK
  5
341F
330
3412
100
AcDbEntity
  8
0
100
AcDbBlockEnd
  0
BLOCK
  5
36E2
330
36D8
100
AcDbEntity
  8
0
100
AcDbBlockBegin
  2
*D22
 70
     1
 10
0.0
 20
0.0
 30
0.0
  3
*D22
  1

  0
LINE
  5
3B66
330
36D8
100
AcDbEntity
  8
SUNPOU
100
AcDbLine
 10
200.8
 20
124.943411559485
 30
0.0
 11
200.8
 21
112.393729598489
 31
0.0
  0
LINE
  5
3B67
330
36D8
100
AcDbEntity
  8
SUNPOU
100
AcDbLine
 10
217.8
 20
124.943411559485
 30
0.0
 11
217.8
 21
112.393729598489
 31
0.0
  0
LINE
  5
3B68
330
36D8
100
AcDbEntity
  8
SUNPOU
100
AcDbLine
 10
205.8
 20
114.393729598489
 30
0.0
 11
212.8
 21
114.393729598489
 31
0.0
  0
INSERT
  5
3B69
330
36D8
100
AcDbEntity
  8
SUNPOU
100
AcDbBlockReference
  2
_OPEN30
 10
200.8
 20
114.393729598489
 30
0.0
 41
5.0
 42
5.0
 43
5.0
 50
180.0
  0
INSERT
  5
3B6A
330
36D8
100
AcDbEntity
  8
SUNPOU
100
AcDbBlockReference
  2
_OPEN30
 10
217.8
 20
114.393729598489
 30
0.0
 41
5.0
 42
5.0
 43
5.0
  0
MTEXT
  5
3B6B
330
36D8
100
AcDbEntity
  8
SUNPOU
100
AcDbMText
 10
209.2999999999999
 20
118.893729598489
 30
0.0
 40
5.0
 41
0.0
 71
     5
 72
     1
  1
\A1;17
  7
SUNPOU
1001
ACAD
1000
MTEXTBEGIN
1070
    73
1070
     1
1070
    44
1040
1.0
1070
    74
1070
     0
1000
MTEXTEND
1000
MTEXTBEGIN
1070
    73
1070
     1
1070
    44
1040
1.0
1070
    74
1070
     0
1000
MTEXTEND
  0
POINT
  5
3B6C
330
36D8
100
AcDbEntity
  8
DEFPOINTS
 62
     0
100
AcDbPoint
 10
200.8
 20
127.943411559485
 30
0.0
  0
POINT
  5
3B6D
330
36D8
100
AcDbEntity
  8
DEFPOINTS
 62
     0
100
AcDbPoint
 10
217.8
 20
127.943411559485
 30
0.0
  0
POINT
  5
3B6E
330
36D8
100
AcDbEntity
  8
DEFPOINTS
 62
     0
100
AcDbPoint
 10
217.8
 20
114.393729598489
 30
0.0
  0
ENDBLK
  5
36E3
330
36D8
100
AcDbEntity
  8
0
100
AcDbBlockEnd
  0
BLOCK
  5
36EF
330
36E4
100
AcDbEntity
  8
0
100
AcDbBlockBegin
  2
*D23
 70
     1
 10
0.0
 20
0.0
 30
0.0
  3
*D23
  1

  0
LINE
  5
4E5D
330
36E4
100
AcDbEntity
  8
SUNPOU
100
AcDbLine
 10
280.55
 20
152.9434115594848
 30
0.0
 11
337.5979611733503
 21
152.9434115594848
 31
0.0
  0
LINE
  5
4E5E
330
36E4
100
AcDbEntity
  8
SUNPOU
100
AcDbLine
 10
284.8000000000001
 20
159.9434115594851
 30
0.0
 11
337.5979611733503
 21
159.9434115594851
 31
0.0
  0
LINE
  5
4E5F
330
36E4
100
AcDbEntity
  8
SUNPOU
100
AcDbLine
 10
335.5979611733503
 20
152.9434115594848
 30
0.0
 11
335.5979611733503
 21
147.9434115594848
 31
0.0
  0
LINE
  5
4E60
330
36E4
100
AcDbEntity
  8
SUNPOU
100
AcDbLine
 10
335.5979611733503
 20
164.9434115594852
 30
0.0
 11
335.5979611733503
 21
169.9434115594851
 31
0.0
  0
LINE
  5
4E61
330
36E4
100
AcDbEntity
  8
SUNPOU
100
AcDbLine
 10
335.5979611733503
 20
152.9434115594848
 30
0.0
 11
335.5979611733503
 21
159.9434115594851
 31
0.0
  0
INSERT
  5
4E62
330
36E4
100
AcDbEntity
  8
SUNPOU
100
AcDbBlockReference
  2
_OPEN30
 10
335.5979611733503
 20
159.9434115594851
 30
0.0
 41
5.0
 42
5.0
 43
5.0
 50
270.0
  0
MTEXT
  5
4E63
330
36E4
100
AcDbEntity
  8
SUNPOU
100
AcDbMText
 10
331.0979611733502
 20
156.4434115594851
 30
0.0
 40
5.0
 41
0.0
 71
     5
 72
     1
  1
\A1;7
  7
SUNPOU
 11
0.0000000000000001
 21
1.0
 31
0.0
1001
ACAD
1000
MTEXTBEGIN
1070
    73
1070
     1
1070
    44
1040
1.0
1070
    74
1070
     0
1000
MTEXTEND
1000
MTEXTBEGIN
1070
    73
1070
     1
1070
    44
1040
1.0
1070
    74
1070
     0
1000
MTEXTEND
  0
POINT
  5
4E64
330
36E4
100
AcDbEntity
  8
DEFPOINTS
 62
     0
100
AcDbPoint
 10
277.55
 20
152.9434115594848
 30
0.0
  0
POINT
  5
4E65
330
36E4
100
AcDbEntity
  8
DEFPOINTS
 62
     0
100
AcDbPoint
 10
281.8000000000001
 20
159.9434115594851
 30
0.0
  0
POINT
  5
4E66
330
36E4
100
AcDbEntity
  8
DEFPOINTS
 62
     0
100
AcDbPoint
 10
335.5979611733503
 20
159.9434115594851
 30
0.0
  0
ENDBLK
  5
36F0
330
36E4
100
AcDbEntity
  8
0
100
AcDbBlockEnd
  0
BLOCK
  5
36FD
330
36F1
100
AcDbEntity
  8
0
100
AcDbBlockBegin
  2
*D24
 70
     1
 10
0.0
 20
0.0
 30
0.0
  3
*D24
  1

  0
LINE
  5
4E67
330
36F1
100
AcDbEntity
  8
SUNPOU
100
AcDbLine
 10
311.8
 20
149.9434115594849
 30
0.0
 11
337.5979611733503
 21
149.9434115594849
 31
0.0
  0
LINE
  5
4E68
330
36F1
100
AcDbEntity
  8
SUNPOU
100
AcDbLine
 10
280.55
 20
152.9434115594848
 30
0.0
 11
337.5979611733503
 21
152.9434115594848
 31
0.0
  0
LINE
  5
4E69
330
36F1
100
AcDbEntity
  8
SUNPOU
100
AcDbLine
 10
335.5979611733503
 20
144.9434115594849
 30
0.0
 11
335.5979611733503
 21
139.9434115594852
 31
0.0
  0
LINE
  5
4E6A
330
36F1
100
AcDbEntity
  8
SUNPOU
100
AcDbLine
 10
335.5979611733503
 20
152.9434115594848
 30
0.0
 11
335.5979611733503
 21
157.9434115594849
 31
0.0
  0
MTEXT
  5
4E6B
330
36F1
100
AcDbEntity
  8
SUNPOU
100
AcDbMText
 10
331.5791268191633
 20
142.0878236940923
 30
0.0
 40
5.0
 41
0.0
 71
     5
 72
     1
  1
\A1;3
  7
SUNPOU
 11
0.0000000000000001
 21
1.0
 31
0.0
1001
ACAD
1000
MTEXTBEGIN
1070
    73
1070
     1
1070
    44
1040
1.0
1070
    74
1070
     0
1000
MTEXTEND
1000
MTEXTBEGIN
1070
    73
1070
     1
1070
    44
1040
1.0
1070
    74
1070
     0
1000
MTEXTEND
  0
LINE
  5
4E6C
330
36F1
100
AcDbEntity
  8
SUNPOU
100
AcDbLine
 10
335.5979611733503
 20
149.9434115594849
 30
0.0
 11
335.5979611733503
 21
152.9434115594848
 31
0.0
  0
INSERT
  5
4E6D
330
36F1
100
AcDbEntity
  8
SUNPOU
100
AcDbBlockReference
  2
_OPEN30
 10
335.5979611733503
 20
149.9434115594849
 30
0.0
 41
5.0
 42
5.0
 43
5.0
 50
90.0
  0
INSERT
  5
4E6E
330
36F1
100
AcDbEntity
  8
SUNPOU
100
AcDbBlockReference
  2
_DOTSMALL
 10
335.5979611733503
 20
152.9434115594848
 30
0.0
 41
5.0
 42
5.0
 43
5.0
 50
270.0
  0
POINT
  5
4E6F
330
36F1
100
AcDbEntity
  8
DEFPOINTS
 62
     0
100
AcDbPoint
 10
308.8
 20
149.9434115594849
 30
0.0
  0
POINT
  5
4E70
330
36F1
100
AcDbEntity
  8
DEFPOINTS
 62
     0
100
AcDbPoint
 10
277.55
 20
152.9434115594848
 30
0.0
  0
POINT
  5
4E71
330
36F1
100
AcDbEntity
  8
DEFPOINTS
 62
     0
100
AcDbPoint
 10
335.5979611733503
 20
152.9434115594848
 30
0.0
  0
ENDBLK
  5
36FE
330
36F1
100
AcDbEntity
  8
0
100
AcDbBlockEnd
  0
BLOCK
  5
3709
330
36FF
100
AcDbEntity
  8
0
100
AcDbBlockBegin
  2
*D25
 70
     1
 10
0.0
 20
0.0
 30
0.0
  3
*D25
  1

  0
LINE
  5
3D92
330
36FF
100
AcDbEntity
  8
SUNPOU
100
AcDbLine
 10
272.4206652653843
 20
127.943411559485
 30
0.0
 11
321.041330530769
 21
127.943411559485
 31
0.0
  0
LINE
  5
3D93
330
36FF
100
AcDbEntity
  8
SUNPOU
100
AcDbLine
 10
281.3
 20
152.9434115594844
 30
0.0
 11
321.041330530769
 21
152.9434115594843
 31
0.0
  0
LINE
  5
3D94
330
36FF
100
AcDbEntity
  8
SUNPOU
100
AcDbLine
 10
319.041330530769
 20
132.9434115594851
 30
0.0
 11
319.041330530769
 21
147.9434115594844
 31
0.0
  0
MTEXT
  5
3D95
330
36FF
100
AcDbEntity
  8
SUNPOU
100
AcDbMText
 10
314.541330530769
 20
140.4434115594851
 30
0.0
 40
5.0
 41
0.0
 71
     5
 72
     1
  1
\A1;25
  7
SUNPOU
 11
0.0000000000000001
 21
1.0
 31
0.0
1001
ACAD
1000
MTEXTBEGIN
1070
    73
1070
     1
1070
    44
1040
1.0
1070
    74
1070
     0
1000
MTEXTEND
1000
MTEXTBEGIN
1070
    73
1070
     1
1070
    44
1040
1.0
1070
    74
1070
     0
1000
MTEXTEND
  0
INSERT
  5
3D96
330
36FF
100
AcDbEntity
  8
SUNPOU
100
AcDbBlockReference
  2
_OPEN30
 10
319.041330530769
 20
127.943411559485
 30
0.0
 41
5.0
 42
5.0
 43
5.0
 50
270.0
  0
INSERT
  5
3D97
330
36FF
100
AcDbEntity
  8
SUNPOU
100
AcDbBlockReference
  2
_OPEN30
 10
319.041330530769
 20
152.9434115594844
 30
0.0
 41
5.0
 42
5.0
 43
5.0
 50
90.0
  0
POINT
  5
3D98
330
36FF
100
AcDbEntity
  8
DEFPOINTS
 62
     0
100
AcDbPoint
 10
269.4206652653844
 20
127.943411559485
 30
0.0
  0
POINT
  5
3D99
330
36FF
100
AcDbEntity
  8
DEFPOINTS
 62
     0
100
AcDbPoint
 10
278.3
 20
152.9434115594844
 30
0.0
  0
POINT
  5
3D9A
330
36FF
100
AcDbEntity
  8
DEFPOINTS
 62
     0
100
AcDbPoint
 10
319.041330530769
 20
152.9434115594844
 30
0.0
  0
ENDBLK
  5
370A
330
36FF
100
AcDbEntity
  8
0
100
AcDbBlockEnd
  0
BLOCK
  5
3717
330
370B
100
AcDbEntity
  8
0
100
AcDbBlockBegin
  2
*D26
 70
     1
 10
0.0
 20
0.0
 30
0.0
  3
*D26
  1

  0
LINE
  5
3D87
330
370B
100
AcDbEntity
  8
SUNPOU
100
AcDbLine
 10
314.8
 20
149.9434115594849
 30
0.0
 11
353.6985703686882
 21
149.9434115594849
 31
0.0
  0
LINE
  5
3D88
330
370B
100
AcDbEntity
  8
SUNPOU
100
AcDbLine
 10
284.8000000000001
 20
159.9434115594851
 30
0.0
 11
353.6985703686882
 21
159.9434115594851
 31
0.0
  0
LINE
  5
3D89
330
370B
100
AcDbEntity
  8
SUNPOU
100
AcDbLine
 10
351.6985703686882
 20
144.9434115594849
 30
0.0
 11
351.6985703686882
 21
139.9434115594852
 31
0.0
  0
LINE
  5
3D8A
330
370B
100
AcDbEntity
  8
SUNPOU
100
AcDbLine
 10
351.6985703686882
 20
164.9434115594851
 30
0.0
 11
351.6985703686882
 21
169.9434115594851
 31
0.0
  0
LINE
  5
3D8B
330
370B
100
AcDbEntity
  8
SUNPOU
100
AcDbLine
 10
351.6985703686882
 20
149.9434115594849
 30
0.0
 11
351.6985703686882
 21
159.9434115594851
 31
0.0
  0
INSERT
  5
3D8C
330
370B
100
AcDbEntity
  8
SUNPOU
100
AcDbBlockReference
  2
_OPEN30
 10
351.6985703686882
 20
149.9434115594849
 30
0.0
 41
5.0
 42
5.0
 43
5.0
 50
90.0
  0
INSERT
  5
3D8D
330
370B
100
AcDbEntity
  8
SUNPOU
100
AcDbBlockReference
  2
_OPEN30
 10
351.6985703686882
 20
159.9434115594851
 30
0.0
 41
5.0
 42
5.0
 43
5.0
 50
270.0
  0
MTEXT
  5
3D8E
330
370B
100
AcDbEntity
  8
SUNPOU
100
AcDbMText
 10
347.1985703686882
 20
154.9434115594849
 30
0.0
 40
5.0
 41
0.0
 71
     5
 72
     1
  1
\A1;10
  7
SUNPOU
 11
0.0000000000000001
 21
1.0
 31
0.0
1001
ACAD
1000
MTEXTBEGIN
1070
    73
1070
     1
1070
    44
1040
1.0
1070
    74
1070
     0
1000
MTEXTEND
1000
MTEXTBEGIN
1070
    73
1070
     1
1070
    44
1040
1.0
1070
    74
1070
     0
1000
MTEXTEND
  0
POINT
  5
3D8F
330
370B
100
AcDbEntity
  8
DEFPOINTS
 62
     0
100
AcDbPoint
 10
311.8
 20
149.9434115594849
 30
0.0
  0
POINT
  5
3D90
330
370B
100
AcDbEntity
  8
DEFPOINTS
 62
     0
100
AcDbPoint
 10
281.8000000000001
 20
159.9434115594851
 30
0.0
  0
POINT
  5
3D91
330
370B
100
AcDbEntity
  8
DEFPOINTS
 62
     0
100
AcDbPoint
 10
351.6985703686882
 20
159.9434115594851
 30
0.0
  0
ENDBLK
  5
3718
330
370B
100
AcDbEntity
  8
0
100
AcDbBlockEnd
  0
BLOCK
  5
3723
330
3719
100
AcDbEntity
  8
0
100
AcDbBlockBegin
  2
*D27
 70
     1
 10
0.0
 20
0.0
 30
0.0
  3
*D27
  1

  0
LINE
  5
3CFA
330
3719
100
AcDbEntity
  8
SUNPOU
100
AcDbLine
 10
200.8
 20
60.73040827829546
 30
0.0
 11
200.8
 21
49.02928619919727
 31
0.0
  0
LINE
  5
3CFB
330
3719
100
AcDbEntity
  8
SUNPOU
100
AcDbLine
 10
217.8
 20
60.73040827829551
 30
0.0
 11
217.8
 21
49.02928619919727
 31
0.0
  0
LINE
  5
3CFC
330
3719
100
AcDbEntity
  8
SUNPOU
100
AcDbLine
 10
205.8
 20
51.02928619919727
 30
0.0
 11
212.8
 21
51.02928619919727
 31
0.0
  0
INSERT
  5
3CFD
330
3719
100
AcDbEntity
  8
SUNPOU
100
AcDbBlockReference
  2
_OPEN30
 10
200.8
 20
51.02928619919727
 30
0.0
 41
5.0
 42
5.0
 43
5.0
 50
180.0
  0
INSERT
  5
3CFE
330
3719
100
AcDbEntity
  8
SUNPOU
100
AcDbBlockReference
  2
_OPEN30
 10
217.8
 20
51.02928619919727
 30
0.0
 41
5.0
 42
5.0
 43
5.0
  0
MTEXT
  5
3CFF
330
3719
100
AcDbEntity
  8
SUNPOU
100
AcDbMText
 10
209.2999999999999
 20
55.52928619919727
 30
0.0
 40
5.0
 41
0.0
 71
     5
 72
     1
  1
\A1;17
  7
SUNPOU
1001
ACAD
1000
MTEXTBEGIN
1070
    73
1070
     1
1070
    44
1040
1.0
1070
    74
1070
     0
1000
MTEXTEND
1000
MTEXTBEGIN
1070
    73
1070
     1
1070
    44
1040
1.0
1070
    74
1070
     0
1000
MTEXTEND
  0
POINT
  5
3D00
330
3719
100
AcDbEntity
  8
DEFPOINTS
 62
     0
100
AcDbPoint
 10
200.8
 20
63.73040827829544
 30
0.0
  0
POINT
  5
3D01
330
3719
100
AcDbEntity
  8
DEFPOINTS
 62
     0
100
AcDbPoint
 10
217.8
 20
63.73040827829552
 30
0.0
  0
POINT
  5
3D02
330
3719
100
AcDbEntity
  8
DEFPOINTS
 62
     0
100
AcDbPoint
 10
217.8
 20
51.02928619919727
 30
0.0
  0
ENDBLK
  5
3724
330
3719
100
AcDbEntity
  8
0
100
AcDbBlockEnd
  0
BLOCK
  5
372F
330
3725
100
AcDbEntity
  8
0
100
AcDbBlockBegin
  2
*D28
 70
     1
 10
0.0
 20
0.0
 30
0.0
  3
*D28
  1

  0
LINE
  5
3CF1
330
3725
100
AcDbEntity
  8
SUNPOU
100
AcDbLine
 10
195.3
 20
107.7304082782954
 30
0.0
 11
195.3
 21
97.95787774198208
 31
0.0
  0
LINE
  5
3CF2
330
3725
100
AcDbEntity
  8
SUNPOU
100
AcDbLine
 10
223.3
 20
107.7304082782954
 30
0.0
 11
223.3
 21
97.95787774198208
 31
0.0
  0
LINE
  5
3CF3
330
3725
100
AcDbEntity
  8
SUNPOU
100
AcDbLine
 10
200.3
 20
99.95787774198207
 30
0.0
 11
218.3
 21
99.95787774198207
 31
0.0
  0
MTEXT
  5
3CF4
330
3725
100
AcDbEntity
  8
SUNPOU
100
AcDbMText
 10
213.6397926397673
 20
104.457877741982
 30
0.0
 40
5.0
 41
0.0
 71
     5
 72
     1
  1
\A1;28
  7
SUNPOU
1001
ACAD
1000
MTEXTBEGIN
1070
    73
1070
     1
1070
    44
1040
1.0
1070
    74
1070
     0
1000
MTEXTEND
1000
MTEXTBEGIN
1070
    73
1070
     1
1070
    44
1040
1.0
1070
    74
1070
     0
1000
MTEXTEND
  0
INSERT
  5
3CF5
330
3725
100
AcDbEntity
  8
SUNPOU
100
AcDbBlockReference
  2
_OPEN30
 10
195.3
 20
99.95787774198207
 30
0.0
 41
5.0
 42
5.0
 43
5.0
 50
180.0
  0
INSERT
  5
3CF6
330
3725
100
AcDbEntity
  8
SUNPOU
100
AcDbBlockReference
  2
_OPEN30
 10
223.3
 20
99.95787774198207
 30
0.0
 41
5.0
 42
5.0
 43
5.0
  0
POINT
  5
3CF7
330
3725
100
AcDbEntity
  8
DEFPOINTS
 62
     0
100
AcDbPoint
 10
195.3
 20
110.7304082782955
 30
0.0
  0
POINT
  5
3CF8
330
3725
100
AcDbEntity
  8
DEFPOINTS
 62
     0
100
AcDbPoint
 10
223.3
 20
110.7304082782955
 30
0.0
  0
POINT
  5
3CF9
330
3725
100
AcDbEntity
  8
DEFPOINTS
 62
     0
100
AcDbPoint
 10
223.3
 20
99.95787774198207
 30
0.0
  0
ENDBLK
  5
3730
330
3725
100
AcDbEntity
  8
0
100
AcDbBlockEnd
  0
BLOCK
  5
373D
330
3731
100
AcDbEntity
  8
0
100
AcDbBlockBegin
  2
*D29
 70
     1
 10
0.0
 20
0.0
 30
0.0
  3
*D29
  1

  0
LINE
  5
3CE6
330
3731
100
AcDbEntity
  8
SUNPOU
100
AcDbLine
 10
190.3
 20
107.7304082782954
 30
0.0
 11
190.3
 21
97.95787774198208
 31
0.0
  0
LINE
  5
3CE7
330
3731
100
AcDbEntity
  8
SUNPOU
100
AcDbLine
 10
195.3
 20
107.7304082782954
 30
0.0
 11
195.3
 21
97.95787774198208
 31
0.0
  0
LINE
  5
3CE8
330
3731
100
AcDbEntity
  8
SUNPOU
100
AcDbLine
 10
185.3
 20
99.95787774198207
 30
0.0
 11
180.3
 21
99.95787774198207
 31
0.0
  0
LINE
  5
3CE9
330
3731
100
AcDbEntity
  8
SUNPOU
100
AcDbLine
 10
200.3
 20
99.95787774198207
 30
0.0
 11
205.2999999999999
 21
99.95787774198207
 31
0.0
  0
MTEXT
  5
3CEA
330
3731
100
AcDbEntity
  8
SUNPOU
100
AcDbMText
 10
182.7885325816428
 20
104.4664611593193
 30
0.0
 40
5.0
 41
0.0
 71
     5
 72
     1
  1
\A1;5
  7
SUNPOU
1001
ACAD
1000
MTEXTBEGIN
1070
    73
1070
     1
1070
    44
1040
1.0
1070
    74
1070
     0
1000
MTEXTEND
1000
MTEXTBEGIN
1070
    73
1070
     1
1070
    44
1040
1.0
1070
    74
1070
     0
1000
MTEXTEND
  0
LINE
  5
3CEB
330
3731
100
AcDbEntity
  8
SUNPOU
100
AcDbLine
 10
190.3
 20
99.95787774198207
 30
0.0
 11
195.3
 21
99.95787774198207
 31
0.0
  0
INSERT
  5
3CEC
330
3731
100
AcDbEntity
  8
SUNPOU
100
AcDbBlockReference
  2
_OPEN30
 10
190.3
 20
99.95787774198207
 30
0.0
 41
5.0
 42
5.0
 43
5.0
  0
INSERT
  5
3CED
330
3731
100
AcDbEntity
  8
SUNPOU
100
AcDbBlockReference
  2
_OPEN30
 10
195.3
 20
99.95787774198207
 30
0.0
 41
5.0
 42
5.0
 43
5.0
 50
180.0
  0
POINT
  5
3CEE
330
3731
100
AcDbEntity
  8
DEFPOINTS
 62
     0
100
AcDbPoint
 10
190.3
 20
110.7304082782955
 30
0.0
  0
POINT
  5
3CEF
330
3731
100
AcDbEntity
  8
DEFPOINTS
 62
     0
100
AcDbPoint
 10
195.3
 20
110.7304082782955
 30
0.0
  0
POINT
  5
3CF0
330
3731
100
AcDbEntity
  8
DEFPOINTS
 62
     0
100
AcDbPoint
 10
195.3
 20
99.95787774198207
 30
0.0
  0
ENDBLK
  5
373E
330
3731
100
AcDbEntity
  8
0
100
AcDbBlockEnd
  0
BLOCK
  5
38F3
330
38E9
100
AcDbEntity
  8
0
100
AcDbBlockBegin
  2
*D30
 70
     1
 10
0.0
 20
0.0
 30
0.0
  3
*D30
  1

  0
LINE
  5
38F5
330
38E9
100
AcDbEntity
  8
SUNPOU
100
AcDbLine
 10
250.7999999999999
 20
124.943411559485
 30
0.0
 11
250.7999999999999
 21
112.393729598489
 31
0.0
  0
LINE
  5
38F6
330
38E9
100
AcDbEntity
  8
SUNPOU
100
AcDbLine
 10
267.7999999999999
 20
124.943411559485
 30
0.0
 11
267.7999999999999
 21
112.393729598489
 31
0.0
  0
LINE
  5
38F7
330
38E9
100
AcDbEntity
  8
SUNPOU
100
AcDbLine
 10
255.7999999999999
 20
114.393729598489
 30
0.0
 11
262.7999999999999
 21
114.393729598489
 31
0.0
  0
INSERT
  5
38F8
330
38E9
100
AcDbEntity
  8
SUNPOU
100
AcDbBlockReference
  2
_OPEN30
 10
250.7999999999999
 20
114.393729598489
 30
0.0
 41
5.0
 42
5.0
 43
5.0
 50
180.0
  0
INSERT
  5
38F9
330
38E9
100
AcDbEntity
  8
SUNPOU
100
AcDbBlockReference
  2
_OPEN30
 10
267.7999999999999
 20
114.393729598489
 30
0.0
 41
5.0
 42
5.0
 43
5.0
  0
MTEXT
  5
38FA
330
38E9
100
AcDbEntity
  8
SUNPOU
100
AcDbMText
 10
259.2999999999999
 20
118.893729598489
 30
0.0
 40
5.0
 41
0.0
 71
     5
 72
     1
  1
\A1;17
  7
SUNPOU
1001
ACAD
1000
MTEXTBEGIN
1070
    73
1070
     1
1070
    44
1040
1.0
1070
    74
1070
     0
1000
MTEXTEND
1000
MTEXTBEGIN
1070
    73
1070
     1
1070
    44
1040
1.0
1070
    74
1070
     0
1000
MTEXTEND
  0
POINT
  5
38FB
330
38E9
100
AcDbEntity
  8
DEFPOINTS
 62
     0
100
AcDbPoint
 10
250.7999999999999
 20
127.943411559485
 30
0.0
  0
POINT
  5
38FC
330
38E9
100
AcDbEntity
  8
DEFPOINTS
 62
     0
100
AcDbPoint
 10
267.7999999999999
 20
127.943411559485
 30
0.0
  0
POINT
  5
38FD
330
38E9
100
AcDbEntity
  8
DEFPOINTS
 62
     0
100
AcDbPoint
 10
267.7999999999999
 20
114.393729598489
 30
0.0
  0
ENDBLK
  5
38F4
330
38E9
100
AcDbEntity
  8
0
100
AcDbBlockEnd
  0
BLOCK
  5
3BB2
330
3BA8
100
AcDbEntity
  8
0
100
AcDbBlockBegin
  2
*D31
 70
     1
 10
0.0
 20
0.0
 30
0.0
  3
*D31
  1

  0
LINE
  5
3CC9
330
3BA8
100
AcDbEntity
  8
SUNPOU
100
AcDbLine
 10
233.8
 20
60.73040827829546
 30
0.0
 11
233.8
 21
49.02928619919727
 31
0.0
  0
LINE
  5
3CCA
330
3BA8
100
AcDbEntity
  8
SUNPOU
100
AcDbLine
 10
250.8
 20
60.73040827829551
 30
0.0
 11
250.8
 21
49.02928619919727
 31
0.0
  0
LINE
  5
3CCB
330
3BA8
100
AcDbEntity
  8
SUNPOU
100
AcDbLine
 10
238.8
 20
51.02928619919727
 30
0.0
 11
245.8
 21
51.02928619919727
 31
0.0
  0
INSERT
  5
3CCC
330
3BA8
100
AcDbEntity
  8
SUNPOU
100
AcDbBlockReference
  2
_OPEN30
 10
233.8
 20
51.02928619919727
 30
0.0
 41
5.0
 42
5.0
 43
5.0
 50
180.0
  0
INSERT
  5
3CCD
330
3BA8
100
AcDbEntity
  8
SUNPOU
100
AcDbBlockReference
  2
_OPEN30
 10
250.8
 20
51.02928619919727
 30
0.0
 41
5.0
 42
5.0
 43
5.0
  0
MTEXT
  5
3CCE
330
3BA8
100
AcDbEntity
  8
SUNPOU
100
AcDbMText
 10
242.3
 20
55.52928619919727
 30
0.0
 40
5.0
 41
0.0
 71
     5
 72
     1
  1
\A1;17
  7
SUNPOU
1001
ACAD
1000
MTEXTBEGIN
1070
    73
1070
     1
1070
    44
1040
1.0
1070
    74
1070
     0
1000
MTEXTEND
1000
MTEXTBEGIN
1070
    73
1070
     1
1070
    44
1040
1.0
1070
    74
1070
     0
1000
MTEXTEND
  0
POINT
  5
3CCF
330
3BA8
100
AcDbEntity
  8
DEFPOINTS
 62
     0
100
AcDbPoint
 10
233.8
 20
63.73040827829544
 30
0.0
  0
POINT
  5
3CD0
330
3BA8
100
AcDbEntity
  8
DEFPOINTS
 62
     0
100
AcDbPoint
 10
250.8
 20
63.73040827829552
 30
0.0
  0
POINT
  5
3CD1
330
3BA8
100
AcDbEntity
  8
DEFPOINTS
 62
     0
100
AcDbPoint
 10
250.8
 20
51.02928619919727
 30
0.0
  0
ENDBLK
  5
3BB3
330
3BA8
100
AcDbEntity
  8
0
100
AcDbBlockEnd
  0
BLOCK
  5
3BBE
330
3BB4
100
AcDbEntity
  8
0
100
AcDbBlockBegin
  2
*D32
 70
     1
 10
0.0
 20
0.0
 30
0.0
  3
*D32
  1

  0
LINE
  5
3CD2
330
3BB4
100
AcDbEntity
  8
SUNPOU
100
AcDbLine
 10
228.3
 20
107.7304082782954
 30
0.0
 11
228.3
 21
97.95787774198208
 31
0.0
  0
LINE
  5
3CD3
330
3BB4
100
AcDbEntity
  8
SUNPOU
100
AcDbLine
 10
256.3
 20
107.7304082782954
 30
0.0
 11
256.3
 21
97.95787774198208
 31
0.0
  0
LINE
  5
3CD4
330
3BB4
100
AcDbEntity
  8
SUNPOU
100
AcDbLine
 10
233.3
 20
99.95787774198207
 30
0.0
 11
251.3
 21
99.95787774198207
 31
0.0
  0
MTEXT
  5
3CD5
330
3BB4
100
AcDbEntity
  8
SUNPOU
100
AcDbMText
 10
246.6397926397672
 20
104.457877741982
 30
0.0
 40
5.0
 41
0.0
 71
     5
 72
     1
  1
\A1;28
  7
SUNPOU
1001
ACAD
1000
MTEXTBEGIN
1070
    73
1070
     1
1070
    44
1040
1.0
1070
    74
1070
     0
1000
MTEXTEND
1000
MTEXTBEGIN
1070
    73
1070
     1
1070
    44
1040
1.0
1070
    74
1070
     0
1000
MTEXTEND
  0
INSERT
  5
3CD6
330
3BB4
100
AcDbEntity
  8
SUNPOU
100
AcDbBlockReference
  2
_OPEN30
 10
228.3
 20
99.95787774198207
 30
0.0
 41
5.0
 42
5.0
 43
5.0
 50
180.0
  0
INSERT
  5
3CD7
330
3BB4
100
AcDbEntity
  8
SUNPOU
100
AcDbBlockReference
  2
_OPEN30
 10
256.3
 20
99.95787774198207
 30
0.0
 41
5.0
 42
5.0
 43
5.0
  0
POINT
  5
3CD8
330
3BB4
100
AcDbEntity
  8
DEFPOINTS
 62
     0
100
AcDbPoint
 10
228.3
 20
110.7304082782955
 30
0.0
  0
POINT
  5
3CD9
330
3BB4
100
AcDbEntity
  8
DEFPOINTS
 62
     0
100
AcDbPoint
 10
256.3
 20
110.7304082782955
 30
0.0
  0
POINT
  5
3CDA
330
3BB4
100
AcDbEntity
  8
DEFPOINTS
 62
     0
100
AcDbPoint
 10
256.3
 20
99.95787774198207
 30
0.0
  0
ENDBLK
  5
3BBF
330
3BB4
100
AcDbEntity
  8
0
100
AcDbBlockEnd
  0
BLOCK
  5
3BCC
330
3BC0
100
AcDbEntity
  8
0
100
AcDbBlockBegin
  2
*D33
 70
     1
 10
0.0
 20
0.0
 30
0.0
  3
*D33
  1

  0
LINE
  5
3CDB
330
3BC0
100
AcDbEntity
  8
SUNPOU
100
AcDbLine
 10
223.3
 20
107.7304082782954
 30
0.0
 11
223.3
 21
97.95787774198208
 31
0.0
  0
LINE
  5
3CDC
330
3BC0
100
AcDbEntity
  8
SUNPOU
100
AcDbLine
 10
228.3
 20
107.7304082782954
 30
0.0
 11
228.3
 21
97.95787774198208
 31
0.0
  0
LINE
  5
3CDD
330
3BC0
100
AcDbEntity
  8
SUNPOU
100
AcDbLine
 10
218.3
 20
99.95787774198207
 30
0.0
 11
213.3
 21
99.95787774198207
 31
0.0
  0
LINE
  5
3CDE
330
3BC0
100
AcDbEntity
  8
SUNPOU
100
AcDbLine
 10
233.3
 20
99.95787774198207
 30
0.0
 11
238.3
 21
99.95787774198207
 31
0.0
  0
MTEXT
  5
3CDF
330
3BC0
100
AcDbEntity
  8
SUNPOU
100
AcDbMText
 10
225.4995632582184
 20
104.4664611593193
 30
0.0
 40
5.0
 41
0.0
 71
     5
 72
     1
  1
\A1;5
  7
SUNPOU
1001
ACAD
1000
MTEXTBEGIN
1070
    73
1070
     1
1070
    44
1040
1.0
1070
    74
1070
     0
1000
MTEXTEND
1000
MTEXTBEGIN
1070
    73
1070
     1
1070
    44
1040
1.0
1070
    74
1070
     0
1000
MTEXTEND
  0
LINE
  5
3CE0
330
3BC0
100
AcDbEntity
  8
SUNPOU
100
AcDbLine
 10
223.3
 20
99.95787774198207
 30
0.0
 11
228.3
 21
99.95787774198207
 31
0.0
  0
INSERT
  5
3CE1
330
3BC0
100
AcDbEntity
  8
SUNPOU
100
AcDbBlockReference
  2
_OPEN30
 10
223.3
 20
99.95787774198207
 30
0.0
 41
5.0
 42
5.0
 43
5.0
  0
INSERT
  5
3CE2
330
3BC0
100
AcDbEntity
  8
SUNPOU
100
AcDbBlockReference
  2
_OPEN30
 10
228.3
 20
99.95787774198207
 30
0.0
 41
5.0
 42
5.0
 43
5.0
 50
180.0
  0
POINT
  5
3CE3
330
3BC0
100
AcDbEntity
  8
DEFPOINTS
 62
     0
100
AcDbPoint
 10
223.3
 20
110.7304082782955
 30
0.0
  0
POINT
  5
3CE4
330
3BC0
100
AcDbEntity
  8
DEFPOINTS
 62
     0
100
AcDbPoint
 10
228.3
 20
110.7304082782955
 30
0.0
  0
POINT
  5
3CE5
330
3BC0
100
AcDbEntity
  8
DEFPOINTS
 62
     0
100
AcDbPoint
 10
228.3
 20
99.95787774198207
 30
0.0
  0
ENDBLK
  5
3BCD
330
3BC0
100
AcDbEntity
  8
0
100
AcDbBlockEnd
  0
BLOCK
  5
3E75
330
3E6B
100
AcDbEntity
  8
0
100
AcDbBlockBegin
  2
*D34
 70
     1
 10
0.0
 20
0.0
 30
0.0
  3
*D34
  1

  0
LINE
  5
3E80
330
3E6B
100
AcDbEntity
  8
SUNPOU
100
AcDbLine
 10
131.8
 20
238.7848041893106
 30
0.0
 11
131.8
 21
239.7848041893106
 31
0.0
  0
LINE
  5
3E81
330
3E6B
100
AcDbEntity
  8
SUNPOU
100
AcDbLine
 10
181.7999999999999
 20
255.7663352261517
 30
0.0
 11
181.7999999999999
 21
239.7848041893106
 31
0.0
  0
LINE
  5
3E82
330
3E6B
100
AcDbEntity
  8
SUNPOU
100
AcDbLine
 10
136.8
 20
241.7848041893106
 30
0.0
 11
176.8
 21
241.7848041893106
 31
0.0
  0
MTEXT
  5
3E83
330
3E6B
100
AcDbEntity
  8
SUNPOU
100
AcDbMText
 10
154.6769918599761
 20
246.2848041893106
 30
0.0
 40
5.0
 41
0.0
 71
     5
 72
     1
  1
\A1;50
  7
SUNPOU
1001
ACAD
1000
MTEXTBEGIN
1070
    73
1070
     1
1070
    44
1040
1.0
1070
    74
1070
     0
1000
MTEXTEND
1000
MTEXTBEGIN
1070
    73
1070
     1
1070
    44
1040
1.0
1070
    74
1070
     0
1000
MTEXTEND
  0
INSERT
  5
3E84
330
3E6B
100
AcDbEntity
  8
SUNPOU
100
AcDbBlockReference
  2
_OPEN30
 10
131.8
 20
241.7848041893106
 30
0.0
 41
5.0
 42
5.0
 43
5.0
 50
180.0
  0
INSERT
  5
3E85
330
3E6B
100
AcDbEntity
  8
SUNPOU
100
AcDbBlockReference
  2
_OPEN30
 10
181.7999999999999
 20
241.7848041893106
 30
0.0
 41
5.0
 42
5.0
 43
5.0
  0
POINT
  5
3E86
330
3E6B
100
AcDbEntity
  8
DEFPOINTS
 62
     0
100
AcDbPoint
 10
131.8
 20
241.7848041893106
 30
0.0
  0
POINT
  5
3E87
330
3E6B
100
AcDbEntity
  8
DEFPOINTS
 62
     0
100
AcDbPoint
 10
181.7999999999999
 20
258.7663352261515
 30
0.0
  0
POINT
  5
3E88
330
3E6B
100
AcDbEntity
  8
DEFPOINTS
 62
     0
100
AcDbPoint
 10
181.7999999999999
 20
241.7848041893106
 30
0.0
  0
ENDBLK
  5
3E76
330
3E6B
100
AcDbEntity
  8
0
100
AcDbBlockEnd
  0
BLOCK
  5
3EDF
330
3ED5
100
AcDbEntity
  8
0
100
AcDbBlockBegin
  2
*D35
 70
     1
 10
0.0
 20
0.0
 30
0.0
  3
*D35
  1

  0
LINE
  5
3ED6
330
3ED5
100
AcDbEntity
  8
SUNPOU
100
AcDbLine
 10
286.8
 20
255.7663352261517
 30
0.0
 11
286.8
 21
239.7848041893106
 31
0.0
  0
LINE
  5
3ED7
330
3ED5
100
AcDbEntity
  8
SUNPOU
100
AcDbLine
 10
302.8
 20
255.7663352261517
 30
0.0
 11
302.8
 21
239.7848041893106
 31
0.0
  0
LINE
  5
3ED8
330
3ED5
100
AcDbEntity
  8
SUNPOU
100
AcDbLine
 10
291.8
 20
241.7848041893106
 30
0.0
 11
297.8
 21
241.7848041893106
 31
0.0
  0
INSERT
  5
3ED9
330
3ED5
100
AcDbEntity
  8
SUNPOU
100
AcDbBlockReference
  2
_OPEN30
 10
286.8
 20
241.7848041893106
 30
0.0
 41
5.0
 42
5.0
 43
5.0
 50
180.0
  0
INSERT
  5
3EDA
330
3ED5
100
AcDbEntity
  8
SUNPOU
100
AcDbBlockReference
  2
_OPEN30
 10
302.8
 20
241.7848041893106
 30
0.0
 41
5.0
 42
5.0
 43
5.0
  0
MTEXT
  5
3EDB
330
3ED5
100
AcDbEntity
  8
SUNPOU
100
AcDbMText
 10
294.8
 20
246.2848041893106
 30
0.0
 40
5.0
 41
0.0
 71
     5
 72
     1
  1
\A1;16
  7
SUNPOU
1001
ACAD
1000
MTEXTBEGIN
1070
    73
1070
     1
1070
    44
1040
1.0
1070
    74
1070
     0
1000
MTEXTEND
1000
MTEXTBEGIN
1070
    73
1070
     1
1070
    44
1040
1.0
1070
    74
1070
     0
1000
MTEXTEND
  0
POINT
  5
3EDC
330
3ED5
100
AcDbEntity
  8
DEFPOINTS
 62
     0
100
AcDbPoint
 10
286.8
 20
258.7663352261515
 30
0.0
  0
POINT
  5
3EDD
330
3ED5
100
AcDbEntity
  8
DEFPOINTS
 62
     0
100
AcDbPoint
 10
302.8
 20
258.7663352261515
 30
0.0
  0
POINT
  5
3EDE
330
3ED5
100
AcDbEntity
  8
DEFPOINTS
 62
     0
100
AcDbPoint
 10
302.8
 20
241.7848041893106
 30
0.0
  0
ENDBLK
  5
3EE0
330
3ED5
100
AcDbEntity
  8
0
100
AcDbBlockEnd
  0
BLOCK
  5
3EEE
330
3EE2
100
AcDbEntity
  8
0
100
AcDbBlockBegin
  2
*D36
 70
     1
 10
0.0
 20
0.0
 30
0.0
  3
*D36
  1

  0
LINE
  5
3F12
330
3EE2
100
AcDbEntity
  8
SUNPOU
100
AcDbLine
 10
302.8
 20
255.7663352261517
 30
0.0
 11
302.8
 21
239.7848041893106
 31
0.0
  0
LINE
  5
3F13
330
3EE2
100
AcDbEntity
  8
SUNPOU
100
AcDbLine
 10
305.8000000000001
 20
255.7663352261517
 30
0.0
 11
305.8000000000001
 21
239.7848041893106
 31
0.0
  0
LINE
  5
3F14
330
3EE2
100
AcDbEntity
  8
SUNPOU
100
AcDbLine
 10
297.8
 20
241.7848041893106
 30
0.0
 11
292.8
 21
241.7848041893106
 31
0.0
  0
LINE
  5
3F15
330
3EE2
100
AcDbEntity
  8
SUNPOU
100
AcDbLine
 10
310.8000000000001
 20
241.7848041893106
 30
0.0
 11
315.8000000000001
 21
241.7848041893106
 31
0.0
  0
MTEXT
  5
3F16
330
3EE2
100
AcDbEntity
  8
SUNPOU
100
AcDbMText
 10
313.1847831434543
 20
246.1854690822681
 30
0.0
 40
5.0
 41
0.0
 71
     5
 72
     1
  1
\A1;3
  7
SUNPOU
1001
ACAD
1000
MTEXTBEGIN
1070
    73
1070
     1
1070
    44
1040
1.0
1070
    74
1070
     0
1000
MTEXTEND
1000
MTEXTBEGIN
1070
    73
1070
     1
1070
    44
1040
1.0
1070
    74
1070
     0
1000
MTEXTEND
  0
LINE
  5
3F17
330
3EE2
100
AcDbEntity
  8
SUNPOU
100
AcDbLine
 10
302.8
 20
241.7848041893106
 30
0.0
 11
305.8000000000001
 21
241.7848041893106
 31
0.0
  0
INSERT
  5
3F18
330
3EE2
100
AcDbEntity
  8
SUNPOU
100
AcDbBlockReference
  2
_OPEN30
 10
302.8
 20
241.7848041893106
 30
0.0
 41
5.0
 42
5.0
 43
5.0
  0
INSERT
  5
3F19
330
3EE2
100
AcDbEntity
  8
SUNPOU
100
AcDbBlockReference
  2
_OPEN30
 10
305.8000000000001
 20
241.7848041893106
 30
0.0
 41
5.0
 42
5.0
 43
5.0
 50
180.0
  0
POINT
  5
3F1A
330
3EE2
100
AcDbEntity
  8
DEFPOINTS
 62
     0
100
AcDbPoint
 10
302.8
 20
258.7663352261515
 30
0.0
  0
POINT
  5
3F1B
330
3EE2
100
AcDbEntity
  8
DEFPOINTS
 62
     0
100
AcDbPoint
 10
305.8000000000001
 20
258.7663352261515
 30
0.0
  0
POINT
  5
3F1C
330
3EE2
100
AcDbEntity
  8
DEFPOINTS
 62
     0
100
AcDbPoint
 10
305.8000000000001
 20
241.7848041893106
 30
0.0
  0
ENDBLK
  5
3EEF
330
3EE2
100
AcDbEntity
  8
0
100
AcDbBlockEnd
  0
BLOCK
  5
3FCE
330
3FC4
100
AcDbEntity
  8
0
100
AcDbBlockBegin
  2
*D37
 70
     1
 10
0.0
 20
0.0
 30
0.0
  3
*D37
  1

  0
LINE
  5
4006
330
3FC4
100
AcDbEntity
  8
SUNPOU
100
AcDbLine
 10
180.3
 20
285.1163352261517
 30
0.0
 11
180.3
 21
332.9588364875871
 31
0.0
  0
LINE
  5
4007
330
3FC4
100
AcDbEntity
  8
SUNPOU
100
AcDbLine
 10
209.2999999999999
 20
285.1163352261517
 30
0.0
 11
209.2999999999999
 21
332.9588364875871
 31
0.0
  0
LINE
  5
4008
330
3FC4
100
AcDbEntity
  8
SUNPOU
100
AcDbLine
 10
185.3
 20
330.9588364875871
 30
0.0
 11
204.2999999999999
 21
330.9588364875871
 31
0.0
  0
MTEXT
  5
4009
330
3FC4
100
AcDbEntity
  8
SUNPOU
100
AcDbMText
 10
201.5240811468838
 20
335.4588364875873
 30
0.0
 40
5.0
 41
0.0
 71
     5
 72
     1
  1
\A1;29
  7
SUNPOU
1001
ACAD
1000
MTEXTBEGIN
1070
    73
1070
     1
1070
    44
1040
1.0
1070
    74
1070
     0
1000
MTEXTEND
1000
MTEXTBEGIN
1070
    73
1070
     1
1070
    44
1040
1.0
1070
    74
1070
     0
1000
MTEXTEND
  0
INSERT
  5
400A
330
3FC4
100
AcDbEntity
  8
SUNPOU
100
AcDbBlockReference
  2
_OPEN30
 10
180.3
 20
330.9588364875871
 30
0.0
 41
5.0
 42
5.0
 43
5.0
 50
180.0
  0
INSERT
  5
400B
330
3FC4
100
AcDbEntity
  8
SUNPOU
100
AcDbBlockReference
  2
_OPEN30
 10
209.2999999999999
 20
330.9588364875871
 30
0.0
 41
5.0
 42
5.0
 43
5.0
  0
POINT
  5
400C
330
3FC4
100
AcDbEntity
  8
DEFPOINTS
 62
     0
100
AcDbPoint
 10
180.3
 20
282.1163352261517
 30
0.0
  0
POINT
  5
400D
330
3FC4
100
AcDbEntity
  8
DEFPOINTS
 62
     0
100
AcDbPoint
 10
209.2999999999999
 20
282.1163352261517
 30
0.0
  0
POINT
  5
400E
330
3FC4
100
AcDbEntity
  8
DEFPOINTS
 62
     0
100
AcDbPoint
 10
209.2999999999999
 20
330.9588364875871
 30
0.0
  0
ENDBLK
  5
3FCF
330
3FC4
100
AcDbEntity
  8
0
100
AcDbBlockEnd
  0
BLOCK
  5
3FDB
330
3FD1
100
AcDbEntity
  8
0
100
AcDbBlockBegin
  2
*D38
 70
     1
 10
0.0
 20
0.0
 30
0.0
  3
*D38
  1

  0
LINE
  5
400F
330
3FD1
100
AcDbEntity
  8
SUNPOU
100
AcDbLine
 10
209.2999999999999
 20
285.1163352261517
 30
0.0
 11
209.2999999999999
 21
332.9588364875871
 31
0.0
  0
LINE
  5
4010
330
3FD1
100
AcDbEntity
  8
SUNPOU
100
AcDbLine
 10
259.2999999999999
 20
291.1730322071855
 30
0.0
 11
259.2999999999999
 21
332.9588364875871
 31
0.0
  0
LINE
  5
4011
330
3FD1
100
AcDbEntity
  8
SUNPOU
100
AcDbLine
 10
214.2999999999999
 20
330.9588364875871
 30
0.0
 11
254.3
 21
330.9588364875871
 31
0.0
  0
MTEXT
  5
4012
330
3FD1
100
AcDbEntity
  8
SUNPOU
100
AcDbMText
 10
230.7609923015728
 20
335.4588364875873
 30
0.0
 40
5.0
 41
0.0
 71
     5
 72
     1
  1
\A1;50
  7
SUNPOU
1001
ACAD
1000
MTEXTBEGIN
1070
    73
1070
     1
1070
    44
1040
1.0
1070
    74
1070
     0
1000
MTEXTEND
1000
MTEXTBEGIN
1070
    73
1070
     1
1070
    44
1040
1.0
1070
    74
1070
     0
1000
MTEXTEND
  0
INSERT
  5
4013
330
3FD1
100
AcDbEntity
  8
SUNPOU
100
AcDbBlockReference
  2
_OPEN30
 10
209.2999999999999
 20
330.9588364875871
 30
0.0
 41
5.0
 42
5.0
 43
5.0
 50
180.0
  0
INSERT
  5
4014
330
3FD1
100
AcDbEntity
  8
SUNPOU
100
AcDbBlockReference
  2
_OPEN30
 10
259.2999999999999
 20
330.9588364875871
 30
0.0
 41
5.0
 42
5.0
 43
5.0
  0
POINT
  5
4015
330
3FD1
100
AcDbEntity
  8
DEFPOINTS
 62
     0
100
AcDbPoint
 10
209.2999999999999
 20
282.1163352261517
 30
0.0
  0
POINT
  5
4016
330
3FD1
100
AcDbEntity
  8
DEFPOINTS
 62
     0
100
AcDbPoint
 10
259.2999999999999
 20
288.1730322071855
 30
0.0
  0
POINT
  5
4017
330
3FD1
100
AcDbEntity
  8
DEFPOINTS
 62
     0
100
AcDbPoint
 10
259.2999999999999
 20
330.9588364875871
 30
0.0
  0
ENDBLK
  5
3FDC
330
3FD1
100
AcDbEntity
  8
0
100
AcDbBlockEnd
  0
BLOCK
  5
3FE8
330
3FDE
100
AcDbEntity
  8
0
100
AcDbBlockBegin
  2
*D39
 70
     1
 10
0.0
 20
0.0
 30
0.0
  3
*D39
  1

  0
LINE
  5
3FDF
330
3FDE
100
AcDbEntity
  8
SUNPOU
100
AcDbLine
 10
259.2999999999999
 20
291.1730322071855
 30
0.0
 11
259.2999999999999
 21
332.9588364875871
 31
0.0
  0
LINE
  5
3FE0
330
3FDE
100
AcDbEntity
  8
SUNPOU
100
AcDbLine
 10
301.3
 20
291.1730322071855
 30
0.0
 11
301.3
 21
332.9588364875871
 31
0.0
  0
LINE
  5
3FE1
330
3FDE
100
AcDbEntity
  8
SUNPOU
100
AcDbLine
 10
264.3
 20
330.9588364875871
 30
0.0
 11
296.3
 21
330.9588364875871
 31
0.0
  0
INSERT
  5
3FE2
330
3FDE
100
AcDbEntity
  8
SUNPOU
100
AcDbBlockReference
  2
_OPEN30
 10
259.2999999999999
 20
330.9588364875871
 30
0.0
 41
5.0
 42
5.0
 43
5.0
 50
180.0
  0
INSERT
  5
3FE3
330
3FDE
100
AcDbEntity
  8
SUNPOU
100
AcDbBlockReference
  2
_OPEN30
 10
301.3
 20
330.9588364875871
 30
0.0
 41
5.0
 42
5.0
 43
5.0
  0
MTEXT
  5
3FE4
330
3FDE
100
AcDbEntity
  8
SUNPOU
100
AcDbMText
 10
280.3
 20
335.4588364875873
 30
0.0
 40
5.0
 41
0.0
 71
     5
 72
     1
  1
\A1;42
  7
SUNPOU
1001
ACAD
1000
MTEXTBEGIN
1070
    73
1070
     1
1070
    44
1040
1.0
1070
    74
1070
     0
1000
MTEXTEND
1000
MTEXTBEGIN
1070
    73
1070
     1
1070
    44
1040
1.0
1070
    74
1070
     0
1000
MTEXTEND
  0
POINT
  5
3FE5
330
3FDE
100
AcDbEntity
  8
DEFPOINTS
 62
     0
100
AcDbPoint
 10
259.2999999999999
 20
288.1730322071855
 30
0.0
  0
POINT
  5
3FE6
330
3FDE
100
AcDbEntity
  8
DEFPOINTS
 62
     0
100
AcDbPoint
 10
301.3
 20
288.1730322071855
 30
0.0
  0
POINT
  5
3FE7
330
3FDE
100
AcDbEntity
  8
DEFPOINTS
 62
     0
100
AcDbPoint
 10
301.3
 20
330.9588364875871
 30
0.0
  0
ENDBLK
  5
3FE9
330
3FDE
100
AcDbEntity
  8
0
100
AcDbBlockEnd
  0
BLOCK
  5
4E0B
330
4DF6
100
AcDbEntity
  8
0
100
AcDbBlockBegin
  2
*X40
 70
     1
 10
0.0
 20
0.0
 30
0.0
  3
*X40
  1

  0
LINE
  5
4DF7
330
4DF6
100
AcDbEntity
  8
0
 62
     0
100
AcDbLine
 10
165.29866761872
 20
274.5163352261517
 30
0.0
 11
165.7999999999999
 21
275.0176676074314
 31
0.0
  0
LINE
  5
4DF8
330
4DF6
100
AcDbEntity
  8
0
 62
     0
100
AcDbLine
 10
163.79866761872
 20
273.0163352261515
 30
0.0
 11
165.29866761872
 21
274.5163352261517
 31
0.0
  0
LINE
  5
4DF9
330
4DF6
100
AcDbEntity
  8
0
 62
     0
100
AcDbLine
 10
162.6470171892703
 20
274.5163352261517
 30
0.0
 11
164.2470171892705
 21
276.1163352261517
 31
0.0
  0
LINE
  5
4DFA
330
4DF6
100
AcDbEntity
  8
0
 62
     0
100
AcDbLine
 10
164.2470171892705
 20
276.1163352261517
 30
0.0
 11
165.7999999999999
 21
277.6693180368811
 31
0.0
  0
LINE
  5
4DFB
330
4DF6
100
AcDbEntity
  8
0
 62
     0
100
AcDbLine
 10
161.1470171892704
 20
273.0163352261515
 30
0.0
 11
162.6470171892703
 21
274.5163352261517
 31
0.0
  0
LINE
  5
4DFC
330
4DF6
100
AcDbEntity
  8
0
 62
     0
100
AcDbLine
 10
159.9953667598209
 20
274.5163352261517
 30
0.0
 11
161.5953667598209
 21
276.1163352261517
 31
0.0
  0
LINE
  5
4DFD
330
4DF6
100
AcDbEntity
  8
0
 62
     0
100
AcDbLine
 10
159.8
 20
274.3209684663308
 30
0.0
 11
159.9953667598209
 21
274.5163352261517
 31
0.0
  0
LINE
  5
4DFE
330
4DF6
100
AcDbEntity
  8
0
 62
     0
100
AcDbLine
 10
161.5953667598209
 20
276.1163352261517
 30
0.0
 11
165.7999999999999
 21
280.3209684663306
 31
0.0
  0
LINE
  5
4DFF
330
4DF6
100
AcDbEntity
  8
0
 62
     0
100
AcDbLine
 10
158.495366759821
 20
273.0163352261515
 30
0.0
 11
159.8
 21
274.3209684663308
 31
0.0
  0
LINE
  5
4E00
330
4DF6
100
AcDbEntity
  8
0
 62
     0
100
AcDbLine
 10
158.9437163303711
 20
276.1163352261517
 30
0.0
 11
159.7999999999998
 21
276.9726188957799
 31
0.0
  0
LINE
  5
4E01
330
4DF6
100
AcDbEntity
  8
0
 62
     0
100
AcDbLine
 10
157.3437163303713
 20
274.5163352261517
 30
0.0
 11
158.9437163303711
 21
276.1163352261517
 31
0.0
  0
LINE
  5
4E02
330
4DF6
100
AcDbEntity
  8
0
 62
     0
100
AcDbLine
 10
159.8
 20
276.97261889578
 30
0.0
 11
164.9437163303713
 21
282.1163352261517
 31
0.0
  0
LINE
  5
4E03
330
4DF6
100
AcDbEntity
  8
0
 62
     0
100
AcDbLine
 10
155.8437163303714
 20
273.0163352261515
 30
0.0
 11
157.3437163303713
 21
274.5163352261517
 31
0.0
  0
LINE
  5
4E04
330
4DF6
100
AcDbEntity
  8
0
 62
     0
100
AcDbLine
 10
156.2920659009218
 20
276.1163352261517
 30
0.0
 11
159.7999999999998
 21
279.6242693252298
 31
0.0
  0
LINE
  5
4E05
330
4DF6
100
AcDbEntity
  8
0
 62
     0
100
AcDbLine
 10
154.6920659009219
 20
274.5163352261517
 30
0.0
 11
156.2920659009218
 21
276.1163352261517
 31
0.0
  0
LINE
  5
4E06
330
4DF6
100
AcDbEntity
  8
0
 62
     0
100
AcDbLine
 10
159.8
 20
279.6242693252299
 30
0.0
 11
162.2920659009218
 21
282.1163352261517
 31
0.0
  0
LINE
  5
4E07
330
4DF6
100
AcDbEntity
  8
0
 62
     0
100
AcDbLine
 10
153.7999999999998
 20
273.6242693252298
 30
0.0
 11
154.6920659009219
 21
274.5163352261517
 31
0.0
  0
LINE
  5
4E08
330
4DF6
100
AcDbEntity
  8
0
 62
     0
100
AcDbLine
 10
153.8
 20
276.2759197546794
 30
0.0
 11
159.6404154714719
 21
282.1163352261517
 31
0.0
  0
LINE
  5
4E09
330
4DF6
100
AcDbEntity
  8
0
 62
     0
100
AcDbLine
 10
153.8
 20
278.9275701841289
 30
0.0
 11
156.9887650420227
 21
282.1163352261517
 31
0.0
  0
LINE
  5
4E0A
330
4DF6
100
AcDbEntity
  8
0
 62
     0
100
AcDbLine
 10
153.8
 20
281.5792206135785
 30
0.0
 11
154.3371146125729
 21
282.1163352261517
 31
0.0
  0
ENDBLK
  5
4E0C
330
4DF6
100
AcDbEntity
  8
0
100
AcDbBlockEnd
  0
ENDSEC
  0
SECTION
  2
ENTITIES
  0
LINE
  5
251
330
A
100
AcDbEntity
  8
03
100
AcDbLine
 10
130.3
 20
517.5163352261518
 30
0.0
 11
130.3
 21
275.5163352261515
 31
0.0
  0
LINE
  5
252
330
A
100
AcDbEntity
  8
03
100
AcDbLine
 10
258.7999999999995
 20
536.5163352261516
 30
0.0
 11
258.7999999999995
 21
517.9163352261516
 31
0.0
  0
ARC
  5
253
330
A
100
AcDbEntity
  8
03
100
AcDbCircle
 10
169.55
 20
537.2663352261517
 30
0.0
 40
0.7500000000000001
100
AcDbArc
 50
89.99999999999998
 51
179.9999999999999
  0
LINE
  5
254
330
A
100
AcDbEntity
  8
03
100
AcDbLine
 10
130.3
 20
518.5163352261517
 30
0.0
 11
257.1999999999998
 21
518.5163352261517
 31
0.0
  0
ARC
  5
255
330
A
100
AcDbEntity
  8
03
100
AcDbCircle
 10
131.3
 20
517.5163352261518
 30
0.0
 40
1.0
100
AcDbArc
 50
89.99999999999998
 51
179.9999999999999
  0
LINE
  5
256
330
A
100
AcDbEntity
  8
03
100
AcDbLine
 10
131.8999999999997
 20
516.9163352261517
 30
0.0
 11
131.8999999999997
 21
276.1163352261517
 31
0.0
  0
LINE
  5
257
330
A
100
AcDbEntity
  8
03
100
AcDbLine
 10
131.8999999999997
 20
516.9163352261517
 30
0.0
 11
257.8
 21
516.9163352261517
 31
0.0
  0
ARC
  5
258
330
A
100
AcDbEntity
  8
03
100
AcDbCircle
 10
257.8
 20
517.9163352261516
 30
0.0
 40
1.0
100
AcDbArc
 50
269.9999999999999
 51
0.0
  0
LINE
  5
259
330
A
100
AcDbEntity
  8
03
100
AcDbLine
 10
257.1999999999998
 20
536.5163352261516
 30
0.0
 11
257.1999999999998
 21
518.5163352261517
 31
0.0
  0
ARC
  5
25A
330
A
100
AcDbEntity
  8
03
100
AcDbCircle
 10
169.55
 20
568.7663352261516
 30
0.0
 40
0.7500000000000001
100
AcDbArc
 50
179.9999999999999
 51
269.9999999999999
  0
LINE
  5
25B
330
A
100
AcDbEntity
  8
03
100
AcDbLine
 10
180.3
 20
275.1163352261517
 30
0.0
 11
180.3
 21
270.0163352261515
 31
0.0
  0
LINE
  5
25C
330
A
100
AcDbEntity
  8
03
100
AcDbLine
 10
131.3
 20
274.5163352261517
 30
0.0
 11
150.05
 21
274.5163352261517
 31
0.0
  0
LINE
  5
25D
330
A
100
AcDbEntity
  8
03
100
AcDbLine
 10
169.55
 20
274.5163352261517
 30
0.0
 11
178.6999999999999
 21
274.5163352261517
 31
0.0
  0
ARC
  5
25E
330
A
100
AcDbEntity
  8
03
100
AcDbCircle
 10
131.3
 20
275.5163352261515
 30
0.0
 40
1.0
100
AcDbArc
 50
179.9999999999999
 51
270.0
  0
LINE
  5
25F
330
A
100
AcDbEntity
  8
03
100
AcDbLine
 10
131.8999999999997
 20
276.1163352261517
 30
0.0
 11
179.3
 21
276.1163352261517
 31
0.0
  0
ARC
  5
260
330
A
100
AcDbEntity
  8
03
100
AcDbCircle
 10
179.3
 20
275.1163352261517
 30
0.0
 40
1.0
100
AcDbArc
 50
0.0
 51
90.0
  0
LINE
  5
261
330
A
100
AcDbEntity
  8
03
100
AcDbLine
 10
178.6999999999999
 20
274.5163352261517
 30
0.0
 11
178.6999999999999
 21
259.5163352261514
 31
0.0
  0
LINE
  5
262
330
A
100
AcDbEntity
  8
SAISEN
100
AcDbLine
 10
119.6527764721674
 20
553.0163352261516
 30
0.0
 11
318.5386008376072
 21
553.0163352261516
 31
0.0
  0
LINE
  5
263
330
A
100
AcDbEntity
  8
SAISEN
100
AcDbLine
 10
119.6527764721674
 20
550.0163352261518
 30
0.0
 11
318.5386008376072
 21
550.0163352261518
 31
0.0
  0
LINE
  5
264
330
A
100
AcDbEntity
  8
SAISEN
100
AcDbLine
 10
119.6527764721674
 20
218.7663352261515
 30
0.0
 11
184.0848370967283
 21
218.7663352261515
 31
0.0
  0
LINE
  5
265
330
A
100
AcDbEntity
  8
SAISEN
100
AcDbLine
 10
184.0848370967283
 20
221.7663352261519
 30
0.0
 11
119.6527764721674
 21
221.7663352261519
 31
0.0
  0
CIRCLE
  5
280
330
A
100
AcDbEntity
  8
03
100
AcDbCircle
 10
261.8
 20
541.5163352261518
 30
0.0
 40
3.0
  0
LINE
  5
281
330
A
100
AcDbEntity
  8
SAISEN
100
AcDbLine
 10
288.6949659959514
 20
190.5991052595164
 30
0.0
 11
184.0848370967281
 21
190.5991052595164
 31
0.0
  0
LINE
  5
282
330
A
100
AcDbEntity
  8
SAISEN
100
AcDbLine
 10
184.0848370967281
 20
187.5991052595164
 30
0.0
 11
288.6949659959514
 21
187.5991052595166
 31
0.0
  0
LINE
  5
2F3
330
A
100
AcDbEntity
  8
SAISEN
100
AcDbLine
 10
119.6527764721674
 20
178.2663352261518
 30
0.0
 11
184.0848370967283
 21
178.2663352261518
 31
0.0
  0
LINE
  5
2F4
330
A
100
AcDbEntity
  8
SAISEN
100
AcDbLine
 10
184.0848370967283
 20
175.2663352261515
 30
0.0
 11
119.6527764721674
 21
175.2663352261515
 31
0.0
  0
LINE
  5
2FD
330
A
100
AcDbEntity
  8
03
100
AcDbLine
 10
169.55
 20
538.0163352261518
 30
0.0
 11
259.55
 21
538.0163352261518
 31
0.0
  0
LINE
  5
2FE
330
A
100
AcDbEntity
  8
03
100
AcDbLine
 10
264.05
 20
538.0163352261518
 30
0.0
 11
302.0499999999996
 21
538.0163352261518
 31
0.0
  0
LINE
  5
2FF
330
A
100
AcDbEntity
  8
03
100
AcDbLine
 10
302.7999999999996
 20
537.2663352261517
 30
0.0
 11
302.8
 21
258.7663352261515
 31
0.0
  0
LINE
  5
300
330
A
100
AcDbEntity
  8
03
100
AcDbLine
 10
302.0499999999996
 20
258.0163352261517
 30
0.0
 11
287.55
 21
258.0163352261517
 31
0.0
  0
ARC
  5
301
330
A
100
AcDbEntity
  8
03
100
AcDbCircle
 10
302.05
 20
258.7663352261515
 30
0.0
 40
0.7500000000000001
100
AcDbArc
 50
269.9999999999999
 51
0.0
  0
LINE
  5
302
330
A
100
AcDbEntity
  8
03
100
AcDbLine
 10
181.05
 20
258.0163352261517
 30
0.0
 11
169.55
 21
258.0163352261517
 31
0.0
  0
LINE
  5
303
330
A
100
AcDbEntity
  8
03
100
AcDbLine
 10
150.05
 20
258.0163352261517
 30
0.0
 11
129.55
 21
258.0163352261517
 31
0.0
  0
LINE
  5
304
330
A
100
AcDbEntity
  8
03
100
AcDbLine
 10
128.8
 20
258.7663352261515
 30
0.0
 11
128.8
 21
519.2663352261518
 31
0.0
  0
ARC
  5
305
330
A
100
AcDbEntity
  8
03
100
AcDbCircle
 10
129.55
 20
258.7663352261515
 30
0.0
 40
0.7500000000000001
100
AcDbArc
 50
179.9999999999999
 51
269.9999999999999
  0
LINE
  5
306
330
A
100
AcDbEntity
  8
03
100
AcDbLine
 10
125.8
 20
588.0163352261517
 30
0.0
 11
125.8
 21
553.0163352261516
 31
0.0
  0
LINE
  5
307
330
A
100
AcDbEntity
  8
03
100
AcDbLine
 10
125.8
 20
550.0163352261518
 30
0.0
 11
125.8
 21
221.7663352261519
 31
0.0
  0
LINE
  5
308
330
A
100
AcDbEntity
  8
03
100
AcDbLine
 10
305.8
 20
588.0163352261517
 30
0.0
 11
305.8
 21
553.0163352261516
 31
0.0
  0
LINE
  5
309
330
A
100
AcDbEntity
  8
03
100
AcDbLine
 10
305.8
 20
550.0163352261518
 30
0.0
 11
305.8000000000001
 21
149.9434115594849
 31
0.0
  0
LINE
  5
30A
330
A
100
AcDbEntity
  8
03
100
AcDbLine
 10
130.3
 20
275.5163352261515
 30
0.0
 11
130.3
 21
259.5163352261514
 31
0.0
  0
LINE
  5
30B
330
A
100
AcDbEntity
  8
03
100
AcDbLine
 10
170.3
 20
536.5163352261516
 30
0.0
 11
258.7999999999995
 21
536.5163352261516
 31
0.0
  0
LINE
  5
30C
330
A
100
AcDbEntity
  8
03
100
AcDbLine
 10
264.8
 20
536.5163352261516
 30
0.0
 11
301.3
 21
536.5163352261516
 31
0.0
  0
LINE
  5
30D
330
A
100
AcDbEntity
  8
03
100
AcDbLine
 10
301.3
 20
536.5163352261516
 30
0.0
 11
301.3
 21
259.5163352261514
 31
0.0
  0
LINE
  5
30E
330
A
100
AcDbEntity
  8
03
100
AcDbLine
 10
301.3
 20
259.5163352261514
 30
0.0
 11
288.3
 21
259.5163352261514
 31
0.0
  0
LINE
  5
30F
330
A
100
AcDbEntity
  8
03
100
AcDbLine
 10
180.3
 20
259.5163352261514
 30
0.0
 11
170.3
 21
259.5163352261514
 31
0.0
  0
LINE
  5
310
330
A
100
AcDbEntity
  8
03
100
AcDbLine
 10
149.3
 20
259.5163352261514
 30
0.0
 11
130.3
 21
259.5163352261514
 31
0.0
  0
LINE
  5
311
330
A
100
AcDbEntity
  8
03
100
AcDbLine
 10
286.8
 20
268.0163352261515
 30
0.0
 11
288.3
 21
268.0163352261515
 31
0.0
  0
LINE
  5
312
330
A
100
AcDbEntity
  8
03
100
AcDbLine
 10
181.7999999999999
 20
270.0163352261518
 30
0.0
 11
180.3
 21
270.0163352261515
 31
0.0
  0
LINE
  5
313
330
A
100
AcDbEntity
  8
03
100
AcDbLine
 10
263.3
 20
537.2663352261517
 30
0.0
 11
263.3
 21
523.0163352261516
 31
0.0
  0
ARC
  5
314
330
A
100
AcDbEntity
  8
03
100
AcDbCircle
 10
264.05
 20
537.2663352261517
 30
0.0
 40
0.7500000000000001
100
AcDbArc
 50
90.00000000000005
 51
179.9999999999999
  0
LINE
  5
315
330
A
100
AcDbEntity
  8
03
100
AcDbLine
 10
264.8
 20
536.5163352261516
 30
0.0
 11
264.8
 21
523.0163352261516
 31
0.0
  0
LINE
  5
316
330
A
100
AcDbEntity
  8
03
100
AcDbLine
 10
260.3
 20
537.2663352261517
 30
0.0
 11
260.3
 21
522.0163352261518
 31
0.0
  0
ARC
  5
317
330
A
100
AcDbEntity
  8
03
100
AcDbCircle
 10
259.55
 20
537.2663352261517
 30
0.0
 40
0.7500000000000001
100
AcDbArc
 50
0.0
 51
90.0
  0
LINE
  5
318
330
A
100
AcDbEntity
  8
03
100
AcDbLine
 10
263.3
 20
523.0163352261516
 30
0.0
 11
264.8
 21
523.0163352261516
 31
0.0
  0
LINE
  5
319
330
A
100
AcDbEntity
  8
03
100
AcDbLine
 10
260.3
 20
522.0163352261518
 30
0.0
 11
270.8
 21
522.0163352261518
 31
0.0
  0
LINE
  5
31A
330
A
100
AcDbEntity
  8
03
100
AcDbLine
 10
259.55
 20
520.5163352261518
 30
0.0
 11
270.8
 21
520.5163352261518
 31
0.0
  0
ARC
  5
31B
330
A
100
AcDbEntity
  8
03
100
AcDbCircle
 10
259.55
 20
521.2663352261516
 30
0.0
 40
0.7500000000000001
100
AcDbArc
 50
179.9999999999999
 51
270.0
  0
LINE
  5
31C
330
A
100
AcDbEntity
  8
03
100
AcDbLine
 10
270.8
 20
522.0163352261518
 30
0.0
 11
270.8
 21
520.5163352261518
 31
0.0
  0
LINE
  5
31D
330
A
100
AcDbEntity
  8
03
100
AcDbLine
 10
150.7999999999997
 20
537.2663352261517
 30
0.0
 11
150.8
 21
520.0163352261518
 31
0.0
  0
LINE
  5
31E
330
A
100
AcDbEntity
  8
03
100
AcDbLine
 10
149.3
 20
536.5163352261516
 30
0.0
 11
149.3
 21
520.0163352261518
 31
0.0
  0
LINE
  5
31F
330
A
100
AcDbEntity
  8
03
100
AcDbLine
 10
168.8
 20
537.2663352261517
 30
0.0
 11
168.8
 21
520.0163352261518
 31
0.0
  0
LINE
  5
320
330
A
100
AcDbEntity
  8
03
100
AcDbLine
 10
170.3
 20
536.5163352261516
 30
0.0
 11
170.3
 21
519.2663352261518
 31
0.0
  0
LINE
  5
321
330
A
100
AcDbEntity
  8
03
100
AcDbLine
 10
129.55
 20
520.0163352261518
 30
0.0
 11
168.8
 21
520.0163352261516
 31
0.0
  0
ARC
  5
322
330
A
100
AcDbEntity
  8
03
100
AcDbCircle
 10
129.55
 20
519.2663352261518
 30
0.0
 40
0.7500000000000001
100
AcDbArc
 50
89.99999999999998
 51
179.9999999999999
  0
ARC
  5
323
330
A
100
AcDbEntity
  8
03
100
AcDbCircle
 10
169.55
 20
519.2663352261518
 30
0.0
 40
0.7500000000000001
100
AcDbArc
 50
269.9999999999999
 51
0.0
  0
LINE
  5
324
330
A
100
AcDbEntity
  8
03
100
AcDbLine
 10
133.8
 20
537.2663352261517
 30
0.0
 11
133.8
 21
520.0163352261518
 31
0.0
  0
LINE
  5
325
330
A
100
AcDbEntity
  8
03
100
AcDbLine
 10
135.3
 20
536.5163352261516
 30
0.0
 11
135.3
 21
520.0163352261518
 31
0.0
  0
LINE
  5
326
330
A
100
AcDbEntity
  8
03
100
AcDbLine
 10
135.3
 20
536.5163352261516
 30
0.0
 11
149.3
 21
536.5163352261516
 31
0.0
  0
LINE
  5
327
330
A
100
AcDbEntity
  8
03
100
AcDbLine
 10
134.55
 20
538.0163352261518
 30
0.0
 11
150.05
 21
538.0163352261518
 31
0.0
  0
ARC
  5
328
330
A
100
AcDbEntity
  8
03
100
AcDbCircle
 10
150.05
 20
537.2663352261517
 30
0.0
 40
0.7500000000000001
100
AcDbArc
 50
0.0
 51
89.99999999999984
  0
ARC
  5
329
330
A
100
AcDbEntity
  8
03
100
AcDbCircle
 10
134.55
 20
537.2663352261517
 30
0.0
 40
0.7500000000000001
100
AcDbArc
 50
89.99999999999991
 51
179.9999999999999
  0
LINE
  5
339
330
A
100
AcDbEntity
  8
03
100
AcDbLine
 10
128.8
 20
588.0163352261517
 30
0.0
 11
128.8
 21
568.7663352261516
 31
0.0
  0
LINE
  5
33A
330
A
100
AcDbEntity
  8
03
100
AcDbLine
 10
283.3
 20
588.0163352261517
 30
0.0
 11
283.3
 21
568.7663352261516
 31
0.0
  0
LINE
  5
33B
330
A
100
AcDbEntity
  8
03
100
AcDbLine
 10
129.55
 20
568.0163352261517
 30
0.0
 11
150.05
 21
568.0163352261517
 31
0.0
  0
ARC
  5
33C
330
A
100
AcDbEntity
  8
03
100
AcDbCircle
 10
129.55
 20
568.7663352261516
 30
0.0
 40
0.7500000000000001
100
AcDbArc
 50
179.9999999999999
 51
269.9999999999999
  0
LINE
  5
33D
330
A
100
AcDbEntity
  8
03
100
AcDbLine
 10
169.55
 20
568.0163352261517
 30
0.0
 11
282.55
 21
568.0163352261517
 31
0.0
  0
ARC
  5
33E
330
A
100
AcDbEntity
  8
03
100
AcDbCircle
 10
282.55
 20
568.7663352261516
 30
0.0
 40
0.7500000000000001
100
AcDbArc
 50
269.9999999999999
 51
0.0
  0
LINE
  5
33F
330
A
100
AcDbEntity
  8
03
100
AcDbLine
 10
130.3
 20
569.5163352261516
 30
0.0
 11
149.3
 21
569.5163352261516
 31
0.0
  0
LINE
  5
340
330
A
100
AcDbEntity
  8
03
100
AcDbLine
 10
170.3
 20
569.5163352261516
 30
0.0
 11
281.7999999999999
 21
569.5163352261516
 31
0.0
  0
LINE
  5
341
330
A
100
AcDbEntity
  8
03
100
AcDbLine
 10
281.7999999999999
 20
588.0163352261517
 30
0.0
 11
281.7999999999999
 21
569.5163352261516
 31
0.0
  0
LINE
  5
342
330
A
100
AcDbEntity
  8
03
100
AcDbLine
 10
130.3
 20
588.0163352261517
 30
0.0
 11
130.3
 21
569.5163352261516
 31
0.0
  0
LINE
  5
343
330
A
100
AcDbEntity
  8
03
100
AcDbLine
 10
150.7999999999997
 20
583.0163352261516
 30
0.0
 11
150.7999999999997
 21
568.7663352261516
 31
0.0
  0
ARC
  5
344
330
A
100
AcDbEntity
  8
03
100
AcDbCircle
 10
150.05
 20
568.7663352261516
 30
0.0
 40
0.7500000000000001
100
AcDbArc
 50
269.9999999999999
 51
0.0
  0
LINE
  5
345
330
A
100
AcDbEntity
  8
03
100
AcDbLine
 10
168.8
 20
583.0163352261516
 30
0.0
 11
168.8
 21
568.7663352261516
 31
0.0
  0
LINE
  5
346
330
A
100
AcDbEntity
  8
03
100
AcDbLine
 10
149.2999999999996
 20
583.7663352261516
 30
0.0
 11
149.3
 21
569.5163352261516
 31
0.0
  0
LINE
  5
347
330
A
100
AcDbEntity
  8
03
100
AcDbLine
 10
170.3
 20
583.7663352261516
 30
0.0
 11
170.3
 21
569.5163352261516
 31
0.0
  0
LINE
  5
348
330
A
100
AcDbEntity
  8
03
100
AcDbLine
 10
286.8
 20
268.0324118759409
 30
0.0
 11
286.8
 21
258.7663352261515
 31
0.0
  0
ARC
  5
349
330
A
100
AcDbEntity
  8
03
100
AcDbCircle
 10
287.55
 20
258.7663352261515
 30
0.0
 40
0.7500000000000001
100
AcDbArc
 50
179.9999999999999
 51
269.9999999999999
  0
LINE
  5
34A
330
A
100
AcDbEntity
  8
03
100
AcDbLine
 10
288.3
 20
268.0324118759409
 30
0.0
 11
288.3
 21
259.5163352261514
 31
0.0
  0
LINE
  5
34B
330
A
100
AcDbEntity
  8
03
100
AcDbLine
 10
181.7999999999999
 20
270.0163352261518
 30
0.0
 11
181.7999999999999
 21
258.7663352261515
 31
0.0
  0
ARC
  5
34C
330
A
100
AcDbEntity
  8
03
100
AcDbCircle
 10
181.05
 20
258.7663352261515
 30
0.0
 40
0.7500000000000001
100
AcDbArc
 50
269.9999999999999
 51
0.0
  0
LINE
  5
34D
330
A
100
AcDbEntity
  8
03
100
AcDbLine
 10
180.3
 20
270.0163352261515
 30
0.0
 11
180.3
 21
259.5163352261514
 31
0.0
  0
LINE
  5
34E
330
A
100
AcDbEntity
  8
03
100
AcDbLine
 10
131.8
 20
258.0163352261517
 30
0.0
 11
131.8
 21
221.7663352261519
 31
0.0
  0
LINE
  5
34F
330
A
100
AcDbEntity
  8
03
100
AcDbLine
 10
150.8
 20
273.0163352261515
 30
0.0
 11
150.8
 21
258.7663352261515
 31
0.0
  0
ARC
  5
350
330
A
100
AcDbEntity
  8
03
100
AcDbCircle
 10
150.05
 20
258.7663352261515
 30
0.0
 40
0.7500000000000001
100
AcDbArc
 50
269.9999999999999
 51
0.0
  0
LINE
  5
351
330
A
100
AcDbEntity
  8
03
100
AcDbLine
 10
149.3
 20
273.7663352261515
 30
0.0
 11
149.3
 21
259.5163352261514
 31
0.0
  0
LINE
  5
352
330
A
100
AcDbEntity
  8
03
100
AcDbLine
 10
168.8
 20
273.0163352261515
 30
0.0
 11
168.8
 21
258.7663352261515
 31
0.0
  0
ARC
  5
353
330
A
100
AcDbEntity
  8
03
100
AcDbCircle
 10
169.55
 20
258.7663352261515
 30
0.0
 40
0.7500000000000001
100
AcDbArc
 50
179.9999999999999
 51
269.9999999999999
  0
LINE
  5
354
330
A
100
AcDbEntity
  8
03
100
AcDbLine
 10
170.3
 20
273.7663352261518
 30
0.0
 11
170.3
 21
259.5163352261514
 31
0.0
  0
LINE
  5
355
330
A
100
AcDbEntity
  8
03
100
AcDbLine
 10
150.8
 20
273.0163352261515
 30
0.0
 11
168.8
 21
273.0163352261515
 31
0.0
  0
LINE
  5
356
330
A
100
AcDbEntity
  8
03
100
AcDbLine
 10
150.05
 20
274.5163352261517
 30
0.0
 11
169.55
 21
274.5163352261517
 31
0.0
  0
ARC
  5
357
330
A
100
AcDbEntity
  8
03
100
AcDbCircle
 10
169.55
 20
273.7663352261518
 30
0.0
 40
0.7500000000000001
100
AcDbArc
 50
0.0
 51
90.0
  0
ARC
  5
358
330
A
100
AcDbEntity
  8
03
100
AcDbCircle
 10
150.05
 20
273.7663352261515
 30
0.0
 40
0.7500000000000001
100
AcDbArc
 50
90.0
 51
179.9999999999999
  0
LINE
  5
359
330
A
100
AcDbEntity
  8
03
100
AcDbLine
 10
150.7999999999997
 20
583.0163352261516
 30
0.0
 11
168.8
 21
583.0163352261516
 31
0.0
  0
LINE
  5
35A
330
A
100
AcDbEntity
  8
03
100
AcDbLine
 10
150.0499999999997
 20
584.5163352261517
 30
0.0
 11
169.55
 21
584.5163352261517
 31
0.0
  0
ARC
  5
35B
330
A
100
AcDbEntity
  8
03
100
AcDbCircle
 10
169.55
 20
583.7663352261516
 30
0.0
 40
0.7500000000000001
100
AcDbArc
 50
0.0
 51
89.99999999999992
  0
ARC
  5
35C
330
A
100
AcDbEntity
  8
03
100
AcDbCircle
 10
150.0499999999997
 20
583.7663352261516
 30
0.0
 40
0.7500000000000001
100
AcDbArc
 50
89.99999999999991
 51
179.9999999999999
  0
ARC
  5
371
330
A
100
AcDbEntity
  8
03
100
AcDbCircle
 10
302.0499999999996
 20
537.2663352261517
 30
0.0
 40
0.7500000000000001
100
AcDbArc
 50
0.0
 51
90.0
  0
LINE
  5
374
330
A
100
AcDbEntity
  8
03
100
AcDbLine
 10
181.7999999999999
 20
178.2663352261515
 30
0.0
 11
181.7999999999999
 21
218.7663352261515
 31
0.0
  0
LINE
  5
375
330
A
100
AcDbEntity
  8
03
100
AcDbLine
 10
131.8
 20
218.7663352261515
 30
0.0
 11
131.7999999999996
 21
178.2663352261518
 31
0.0
  0
LINE
  5
376
330
A
100
AcDbEntity
  8
03
100
AcDbLine
 10
131.7999999999996
 20
175.2663352261515
 30
0.0
 11
131.7999999999996
 21
149.9434115594849
 31
0.0
  0
LINE
  5
377
330
A
100
AcDbEntity
  8
03
100
AcDbLine
 10
125.8
 20
218.7663352261515
 30
0.0
 11
125.7999999999997
 21
178.2663352261518
 31
0.0
  0
LINE
  5
378
330
A
100
AcDbEntity
  8
03
100
AcDbLine
 10
125.7999999999997
 20
175.2663352261515
 30
0.0
 11
125.8
 21
149.9434115594849
 31
0.0
  0
LINE
  5
3B9
330
A
100
AcDbEntity
  8
03
100
AcDbLine
 10
181.7999999999999
 20
149.9434115594849
 30
0.0
 11
181.7999999999999
 21
175.2663352261515
 31
0.0
  0
LINE
  5
3C8
330
A
100
AcDbEntity
  8
02
100
AcDbLine
 10
180.3
 20
510.9163352261516
 30
0.0
 11
180.3
 21
282.1163352261517
 31
0.0
  0
LINE
  5
3C9
330
A
100
AcDbEntity
  8
02
100
AcDbLine
 10
174.3
 20
282.1163352261517
 30
0.0
 11
174.3
 21
510.9163352261516
 31
0.0
  0
LINE
  5
3CA
330
A
100
AcDbEntity
  8
02
100
AcDbLine
 10
174.3
 20
276.1163352261517
 30
0.0
 11
149.8
 21
276.1163352261517
 31
0.0
  0
LINE
  5
3CB
330
A
100
AcDbEntity
  8
02
100
AcDbLine
 10
149.8
 20
276.1163352261517
 30
0.0
 11
149.8
 21
282.1163352261517
 31
0.0
  0
LINE
  5
3CC
330
A
100
AcDbEntity
  8
02
100
AcDbLine
 10
149.8
 20
282.1163352261517
 30
0.0
 11
174.3
 21
282.1163352261517
 31
0.0
  0
ARC
  5
3CD
330
A
100
AcDbEntity
  8
02
100
AcDbCircle
 10
174.3
 20
282.1163352261517
 30
0.0
 40
6.0
100
AcDbArc
 50
270.0
 51
0.0
  0
LINE
  5
3CE
330
A
100
AcDbEntity
  8
02
100
AcDbLine
 10
174.3
 20
516.9163352261517
 30
0.0
 11
149.8
 21
516.9163352261517
 31
0.0
  0
LINE
  5
3CF
330
A
100
AcDbEntity
  8
02
100
AcDbLine
 10
149.8
 20
516.9163352261517
 30
0.0
 11
149.8
 21
510.9163352261516
 31
0.0
  0
LINE
  5
3D0
330
A
100
AcDbEntity
  8
02
100
AcDbLine
 10
149.8
 20
510.9163352261516
 30
0.0
 11
174.3
 21
510.9163352261516
 31
0.0
  0
ARC
  5
3D1
330
A
100
AcDbEntity
  8
02
100
AcDbCircle
 10
174.3
 20
510.9163352261516
 30
0.0
 40
6.0
100
AcDbArc
 50
0.0
 51
90.0
  0
LINE
  5
476
330
A
100
AcDbEntity
  8
03
100
AcDbLine
 10
156.8
 20
574.0163352261516
 30
0.0
 11
156.8
 21
553.0163352261516
 31
0.0
  0
LINE
  5
477
330
A
100
AcDbEntity
  8
03
100
AcDbLine
 10
156.8
 20
549.5319496257398
 30
0.0
 11
156.8
 21
530.0163352261517
 31
0.0
  0
LINE
  5
478
330
A
100
AcDbEntity
  8
03
100
AcDbLine
 10
162.8
 20
574.0163352261516
 30
0.0
 11
162.8
 21
553.0163352261516
 31
0.0
  0
LINE
  5
479
330
A
100
AcDbEntity
  8
03
100
AcDbLine
 10
162.8
 20
549.5319496257398
 30
0.0
 11
162.8
 21
530.0163352261518
 31
0.0
  0
LINE
  5
47A
330
A
100
AcDbEntity
  8
03
100
AcDbLine
 10
156.8
 20
574.0163352261516
 30
0.0
 11
162.8
 21
574.0163352261516
 31
0.0
  0
LINE
  5
47B
330
A
100
AcDbEntity
  8
03
100
AcDbLine
 10
156.8
 20
530.0163352261517
 30
0.0
 11
162.8
 21
530.0163352261518
 31
0.0
  0
CIRCLE
  5
47C
330
A
100
AcDbEntity
  8
06
100
AcDbCircle
 10
159.8
 20
198.5163352261515
 30
0.0
 40
6.0
  0
LINE
  5
47D
330
A
100
AcDbEntity
  8
06
100
AcDbLine
 10
153.8
 20
282.1163352261517
 30
0.0
 11
153.8
 21
273.0163352261515
 31
0.0
  0
LINE
  5
47E
330
A
100
AcDbEntity
  8
06
100
AcDbLine
 10
165.8
 20
282.1163352261517
 30
0.0
 11
165.8
 21
273.0163352261515
 31
0.0
  0
LINE
  5
47F
330
A
100
AcDbEntity
  8
03
100
AcDbLine
 10
152.3
 20
530.0163352261517
 30
0.0
 11
167.3
 21
530.0163352261517
 31
0.0
  0
LINE
  5
480
330
A
100
AcDbEntity
  8
03
100
AcDbLine
 10
167.3
 20
530.0163352261517
 30
0.0
 11
167.3
 21
520.0163352261516
 31
0.0
  0
LINE
  5
481
330
A
100
AcDbEntity
  8
03
100
AcDbLine
 10
167.3
 20
520.0163352261516
 30
0.0
 11
152.3
 21
520.0163352261516
 31
0.0
  0
LINE
  5
482
330
A
100
AcDbEntity
  8
03
100
AcDbLine
 10
152.3
 20
520.0163352261516
 30
0.0
 11
152.3
 21
530.0163352261517
 31
0.0
  0
LINE
  5
483
330
A
100
AcDbEntity
  8
03
100
AcDbLine
 10
152.3
 20
520.0163352261516
 30
0.0
 11
167.3
 21
530.0163352261517
 31
0.0
  0
ARC
  5
484
330
A
100
AcDbEntity
  8
03
100
AcDbCircle
 10
166.175
 20
549.5319496257398
 30
0.0
 40
12.0
100
AcDbArc
 50
253.6651772193138
 51
286.3348227806858
  0
ARC
  5
485
330
A
100
AcDbEntity
  8
03
100
AcDbCircle
 10
153.425
 20
549.5319496257398
 30
0.0
 40
12.0
100
AcDbArc
 50
253.665177219314
 51
286.334822780686
  0
ARC
  5
486
330
A
100
AcDbEntity
  8
03
100
AcDbCircle
 10
153.425
 20
556.5007208265637
 30
0.0
 40
12.0
100
AcDbArc
 50
73.66517721931393
 51
106.3348227806858
  0
ARC
  5
487
330
A
100
AcDbEntity
  8
03
100
AcDbCircle
 10
166.175
 20
556.5007208265633
 30
0.0
 40
12.0
100
AcDbArc
 50
73.66517721931401
 51
106.334822780686
  0
LINE
  5
593
330
A
100
AcDbEntity
  8
CHUSIN
100
AcDbLine
 10
159.8
 20
579.2873581905846
 30
0.0
 11
159.8
 21
553.0163352261516
 31
0.0
  0
LINE
  5
594
330
A
100
AcDbEntity
  8
CHUSIN
100
AcDbLine
 10
159.8
 20
553.0163352261516
 30
0.0
 11
159.8
 21
514.5982367456697
 31
0.0
  0
LINE
  5
595
330
A
100
AcDbEntity
  8
CHUSIN
100
AcDbLine
 10
159.8
 20
297.0393960227974
 30
0.0
 11
159.8
 21
198.0163352261518
 31
0.0
  0
LINE
  5
596
330
A
100
AcDbEntity
  8
CHUSIN
100
AcDbLine
 10
159.8
 20
212.5163352261515
 30
0.0
 11
159.7999999999998
 21
139.7013539096209
 31
0.0
  0
LINE
  5
597
330
A
100
AcDbEntity
  8
CHUSIN
100
AcDbLine
 10
143.8
 20
198.5163352261515
 30
0.0
 11
176.3
 21
198.5163352261515
 31
0.0
  0
LINE
  5
598
330
A
100
AcDbEntity
  8
CHUSIN
100
AcDbLine
 10
261.8
 20
537.2663352261517
 30
0.0
 11
261.8
 21
547.2663352261518
 31
0.0
  0
LINE
  5
599
330
A
100
AcDbEntity
  8
CHUSIN
100
AcDbLine
 10
265.6583623895738
 20
541.5163352261518
 30
0.0
 11
257.5063858762851
 21
541.5163352261518
 31
0.0
  0
LINE
  5
59B
330
A
100
AcDbEntity
  8
CHUSIN
100
AcDbLine
 10
209.2999999999999
 20
130.8754630255507
 30
0.0
 11
209.2999999999999
 21
288.1730322071855
 31
0.0
  0
LINE
  5
844
330
A
100
AcDbEntity
  8
03
100
AcDbLine
 10
167.9130372483959
 20
258.0163352261517
 30
0.0
 11
151.55
 21
258.0163352261517
 31
0.0
  0
LINE
  5
845
330
A
100
AcDbEntity
  8
03
100
AcDbLine
 10
150.802853976431
 20
258.8317020332124
 30
0.0
 11
152.0388547654126
 21
272.9592556975279
 31
0.0
  0
LINE
  5
846
330
A
100
AcDbEntity
  8
03
100
AcDbLine
 10
167.4241824829828
 20
272.9592556975279
 30
0.0
 11
168.6601832719648
 21
258.8317020332124
 31
0.0
  0
LINE
  5
847
330
A
100
AcDbEntity
  8
03
100
AcDbLine
 10
153.5331468125503
 20
272.8285220834063
 30
0.0
 11
152.3684813758018
 21
259.5163352261514
 31
0.0
  0
LINE
  5
848
330
A
100
AcDbEntity
  8
03
100
AcDbLine
 10
152.2315186241979
 20
259.5163352261514
 30
0.0
 11
167.2315186241978
 21
259.5163352261514
 31
0.0
  0
LINE
  5
849
330
A
100
AcDbEntity
  8
03
100
AcDbLine
 10
167.0945558725938
 20
259.5163352261514
 30
0.0
 11
165.9298904358454
 21
272.8285220834063
 31
0.0
  0
LINE
  5
84A
330
A
100
AcDbEntity
  8
03
100
AcDbLine
 10
152.0388547654126
 20
272.9592556975279
 30
0.0
 11
153.5331468125503
 21
272.8285220834063
 31
0.0
  0
LINE
  5
84B
330
A
100
AcDbEntity
  8
03
100
AcDbLine
 10
165.9298904358454
 20
272.8285220834063
 30
0.0
 11
167.4241824829828
 21
272.9592556975279
 31
0.0
  0
ARC
  5
84C
330
A
100
AcDbEntity
  8
03
100
AcDbCircle
 10
151.55
 20
258.7663352261515
 30
0.0
 40
0.7500000000000001
100
AcDbArc
 50
175.0000000000029
 51
270.0
  0
ARC
  5
84D
330
A
100
AcDbEntity
  8
03
100
AcDbCircle
 10
167.9130372483959
 20
258.7663352261515
 30
0.0
 40
0.7500000000000001
100
AcDbArc
 50
270.0
 51
4.999999999999777
  0
POLYLINE
  5
95B
330
A
100
AcDbEntity
  8
DEFPOINTS
  6
CONTINUOUS
100
AcDb2dPolyline
 66
     1
 10
0.0
 20
0.0
 30
0.0
 70
     1
  0
VERTEX
  5
506B
330
95B
100
AcDbEntity
  8
DEFPOINTS
  6
CONTINUOUS
100
AcDbVertex
100
AcDb2dVertex
 10
0.0
 20
0.0
 30
0.0
  0
VERTEX
  5
506C
330
95B
100
AcDbEntity
  8
DEFPOINTS
  6
CONTINUOUS
100
AcDbVertex
100
AcDb2dVertex
 10
420.0
 20
0.0
 30
0.0
  0
VERTEX
  5
506D
330
95B
100
AcDbEntity
  8
DEFPOINTS
  6
CONTINUOUS
100
AcDbVertex
100
AcDb2dVertex
 10
420.0
 20
594.0
 30
0.0
  0
VERTEX
  5
506E
330
95B
100
AcDbEntity
  8
DEFPOINTS
  6
CONTINUOUS
100
AcDbVertex
100
AcDb2dVertex
 10
0.0
 20
594.0
 30
0.0
  0
SEQEND
  5
506F
330
95B
100
AcDbEntity
  8
DEFPOINTS
  6
CONTINUOUS
  0
DIMENSION
  5
986
330
A
100
AcDbEntity
  8
SUNPOU
100
AcDbDimension
  2
*D1
 10
128.8
 20
241.7848041893106
 30
0.0
 11
119.0236854154635
 21
246.2848041893106
 31
0.0
 70
   160
  3
SUNPOU_2
100
AcDbAlignedDimension
 13
125.8
 23
241.7848041893106
 33
0.0
 14
128.8
 24
258.7663352261515
 34
0.0
100
AcDbRotatedDimension
1001
ACAD
1000
DSTYLE
1002
{
1070
     7
1000
DOTSMALL
1070
     5
1000

1070
   173
1070
     1
1070
     6
1000
OPEN30
1002
}
  0
DIMENSION
  5
995
330
A
100
AcDbEntity
  8
SUNPOU
100
AcDbDimension
  2
*D2
 10
131.8
 20
241.7848041893106
 30
0.0
 11
139.1801480016614
 21
246.5295750081657
 31
0.0
 70
   160
  3
SUNPOU_2
100
AcDbAlignedDimension
 13
128.8
 23
258.7663352261515
 33
0.0
 14
131.8
 24
241.7848041893106
 34
0.0
100
AcDbRotatedDimension
1001
ACAD
1000
DSTYLE
1002
{
1070
     6
1000
NONE
1070
     5
1000

1070
   173
1070
     1
1070
     7
1000
OPEN30
1002
}
  0
DIMENSION
  5
9C0
330
A
100
AcDbEntity
  8
SUNPOU
100
AcDbDimension
  2
*D3
 10
186.8
 20
241.7848041893106
 30
0.0
 11
184.2281856277113
 21
246.2848041893106
 31
0.0
 70
   160
  3
SUNPOU_2
100
AcDbAlignedDimension
 13
181.7999999999999
 23
258.7663352261515
 33
0.0
 14
186.8
 24
241.7848041893106
 34
0.0
100
AcDbRotatedDimension
1001
ACAD
1000
DSTYLE
1002
{
1070
     6
1000
DOTSMALL
1070
     5
1000

1070
   173
1070
     1
1070
     7
1000
OPEN30
1002
}
  0
DIMENSION
  5
9CD
330
A
100
AcDbEntity
  8
SUNPOU
100
AcDbDimension
  2
*D4
 10
236.8
 20
241.7848041893106
 30
0.0
 11
233.9670370501778
 21
246.0831305137219
 31
0.0
 70
   160
  3
SUNPOU_2
100
AcDbAlignedDimension
 13
231.8
 23
241.7848041893106
 33
0.0
 14
236.8
 24
241.7848041893106
 34
0.0
100
AcDbRotatedDimension
1001
ACAD
1000
DSTYLE
1002
{
1070
     7
1000
DOTSMALL
1070
     5
1000

1070
   173
1070
     1
1070
     6
1000
DOTSMALL
1002
}
  0
DIMENSION
  5
9DC
330
A
100
AcDbEntity
  8
SUNPOU
100
AcDbDimension
  2
*D5
 10
281.8000000000001
 20
241.7848041893106
 30
0.0
 11
266.4770957042628
 21
246.2848041893106
 31
0.0
 70
   160
  3
SUNPOU_2
100
AcDbAlignedDimension
 13
236.8
 23
241.7848041893106
 33
0.0
 14
281.8000000000001
 24
242.1867279743107
 34
0.0
100
AcDbRotatedDimension
  0
DIMENSION
  5
AD4
330
A
100
AcDbEntity
  8
SUNPOU
100
AcDbDimension
  2
*D8
 10
84.41672346529573
 20
198.5163352261515
 30
0.0
 11
79.8022887077109
 21
174.3696971884737
 31
0.0
 70
   160
  1
600
  3
SUNPOU_2
100
AcDbAlignedDimension
 13
84.41672346529577
 23
149.9434115594849
 33
0.0
 14
143.8
 24
198.5163352261515
 34
0.0
 50
90.0
100
AcDbRotatedDimension
  0
DIMENSION
  5
AEB
330
A
100
AcDbEntity
  8
SUNPOU
100
AcDbDimension
  2
*D9
 10
305.8
 20
231.3381283052291
 30
0.0
 11
219.3961465602705
 21
235.838128305229
 31
0.0
 70
   160
  3
SUNPOU_2
100
AcDbAlignedDimension
 13
125.8
 23
231.3381283052291
 33
0.0
 14
305.8
 24
231.3381283052291
 34
0.0
100
AcDbRotatedDimension
  0
DIMENSION
  5
B92
330
A
100
AcDbEntity
  8
SUNPOU
100
AcDbDimension
  2
*D10
 10
351.6985703686882
 20
268.0324118759409
 30
0.0
 11
347.1985703686882
 21
203.7663352261517
 31
0.0
 70
   160
  1
DH
  3
SUNPOU_2
100
AcDbAlignedDimension
 13
281.8000000000001
 23
159.9434115594851
 33
0.0
 14
288.3
 24
268.0324118759409
 34
0.0
 50
90.0
100
AcDbRotatedDimension
  0
DIMENSION
  5
B9F
330
A
100
AcDbEntity
  8
SUNPOU
100
AcDbDimension
  2
*D11
 10
335.5423208177
 20
268.0324118759409
 30
0.0
 11
331.1917398945518
 21
263.0700408146592
 31
0.0
 70
   160
  3
SUNPOU_2
100
AcDbAlignedDimension
 13
302.0499999999996
 23
258.0163352261517
 33
0.0
 14
288.3
 24
268.0324118759409
 34
0.0
 50
90.0
100
AcDbRotatedDimension
  0
DIMENSION
  5
BC2
330
A
100
AcDbEntity
  8
SUNPOU
100
AcDbDimension
  2
*D12
 10
369.6186291739893
 20
258.0163352261517
 30
0.0
 11
365.1186291739894
 21
193.7663352261518
 31
0.0
 70
   160
  1
H
  3
SUNPOU_2
100
AcDbAlignedDimension
 13
363.3564147618441
 23
149.9434115594849
 33
0.0
 14
302.0499999999996
 24
258.0163352261517
 34
0.0
 50
90.0
100
AcDbRotatedDimension
  0
DIMENSION
  5
BE1
330
A
100
AcDbEntity
  8
SUNPOU
100
AcDbDimension
  2
*D13
 10
369.6186291739893
 20
538.0163352261518
 30
0.0
 11
365.1186291739894
 21
398.0163352261516
 31
0.0
 70
    32
  3
SUNPOU_2
100
AcDbAlignedDimension
 13
302.0499999999996
 23
258.0163352261517
 33
0.0
 14
302.0499999999996
 24
538.0163352261518
 34
0.0
 50
90.0
100
AcDbRotatedDimension
  0
LEADER
  5
BF8
330
A
100
AcDbEntity
  8
HIKIDASI
100
AcDbLeader
  3
SUNPOU_2
 73
     0
 75
     1
 40
5.0
 41
26.79999999999999
 76
     3
 10
173.9245910504256
 20
400.9056644585641
 30
0.0
 10
97.568530268188
 20
477.5204448631946
 30
0.0
 10
92.568530268188
 20
477.5204448631946
 30
0.0
340
BF9
1001
ACAD
1000
DSTYLE
1002
{
1070
     5
1000
OPEN30
1070
    77
1070
     1
1070
   147
1040
1.0
1070
   342
1005
943
1002
}
1000
LEANOF
1010
0.0
1020
0.0
1030
0.0
1000
LEANOF
1010
0.0
1020
0.0
1030
0.0
1000
LEANOF
1010
0.0
1020
0.0
1030
0.0
1000
LEANOF
1010
0.0
1020
0.0
1030
0.0
  0
MTEXT
  5
BF9
330
A
100
AcDbEntity
  8
HIKIDASI
100
AcDbMText
 10
90.56853026818799
 20
479.5204448631946
 30
0.0
 40
5.0
 41
0.0
 71
     9
 72
     1
  1
FB-6×50
  7
SUNPOU
1001
ACAD
1000
MTEXTBEGIN
1070
    73
1070
     1
1070
    44
1040
1.0
1070
    74
1070
     0
1000
MTEXTEND
1000
MTEXTBEGIN
1070
    73
1070
     1
1070
    44
1040
1.0
1070
    74
1070
     0
1000
MTEXTEND
  0
LEADER
  5
C00
330
A
100
AcDbEntity
  8
HIKIDASI
100
AcDbLeader
  3
SUNPOU_2
 73
     0
 75
     1
 40
21.66666666666666
 41
37.06666666666665
 76
     3
 10
159.8
 20
183.5163352261517
 30
0.0
 10
95.78312786889179
 20
253.6231455308215
 30
0.0
 10
90.78312786889179
 20
253.6231455308215
 30
0.0
340
C01
213
-0.0000000000000142
223
16.52662635947939
233
0.0
1001
ACAD
1000
DSTYLE
1002
{
1070
     5
1000
OPEN30
1070
    77
1070
     1
1070
   147
1040
1.0
1070
   342
1005
943
1002
}
1000
LEANOF
1010
-0.0000000000000142
1020
16.52662635947939
1030
0.0
1000
LEANOF
1010
-0.0000000000000142
1020
16.52662635947939
1030
0.0
1000
LEANOF
1010
-0.0000000000000142
1020
16.52662635947939
1030
0.0
1000
LEANOF
1010
-0.0000000000000142
1020
16.52662635947939
1030
0.0
  0
MTEXT
  5
C01
330
A
100
AcDbEntity
  8
HIKIDASI
100
AcDbMText
 10
88.7831278688918
 20
239.0965191713421
 30
0.0
 40
5.0
 41
0.0
 71
     9
 72
     1
  1
補助光電スイッチ\P取付穴φ12\P（サッシ工事）
  7
SUNPOU
1001
ACAD
1000
MTEXTBEGIN
1070
    73
1070
     1
1070
    44
1040
1.0
1070
    74
1070
     0
1000
MTEXTEND
1000
MTEXTBEGIN
1070
    73
1070
     1
1070
    44
1040
1.0
1070
    74
1070
     0
1000
MTEXTEND
  0
POLYLINE
  5
C1A
330
A
100
AcDbEntity
  8
SAISEN
100
AcDb2dPolyline
 66
     1
 10
0.0
 20
0.0
 30
0.0
 70
     1
  0
VERTEX
  5
5074
330
C1A
100
AcDbEntity
  8
SAISEN
100
AcDbVertex
100
AcDb2dVertex
 10
35.0
 20
301.0378117213821
 30
0.0
  0
VERTEX
  5
5075
330
C1A
100
AcDbEntity
  8
SAISEN
100
AcDbVertex
100
AcDb2dVertex
 10
45.0
 20
301.0378117213821
 30
0.0
  0
VERTEX
  5
5076
330
C1A
100
AcDbEntity
  8
SAISEN
100
AcDbVertex
100
AcDb2dVertex
 10
45.0
 20
331.0378117213823
 30
0.0
  0
VERTEX
  5
5077
330
C1A
100
AcDbEntity
  8
SAISEN
100
AcDbVertex
100
AcDb2dVertex
 10
35.0
 20
331.0378117213823
 30
0.0
  0
SEQEND
  5
5078
330
C1A
100
AcDbEntity
  8
SAISEN
  0
MTEXT
  5
C1B
330
A
100
AcDbEntity
  8
MOJI
100
AcDbMText
 10
40.0
 20
316.0378117213823
 30
0.0
 40
6.0
 41
10.0
 71
     5
 72
     1
  1
外\P\P部
  7
0_8
1001
ACAD
1000
MTEXTBEGIN
1070
    73
1070
     1
1070
    44
1040
1.0
1070
    74
1070
     0
1000
MTEXTEND
1000
MTEXTBEGIN
1070
    73
1070
     1
1070
    44
1040
1.0
1070
    74
1070
     0
1000
MTEXTEND
  0
POLYLINE
  5
C23
330
A
100
AcDbEntity
  8
SAISEN
100
AcDb2dPolyline
 66
     1
 10
0.0
 20
0.0
 30
0.0
 70
     1
  0
VERTEX
  5
5079
330
C23
100
AcDbEntity
  8
SAISEN
100
AcDbVertex
100
AcDb2dVertex
 10
374.9999999999997
 20
301.0378117213821
 30
0.0
  0
VERTEX
  5
507A
330
C23
100
AcDbEntity
  8
SAISEN
100
AcDbVertex
100
AcDb2dVertex
 10
384.9999999999997
 20
301.0378117213821
 30
0.0
  0
VERTEX
  5
507B
330
C23
100
AcDbEntity
  8
SAISEN
100
AcDbVertex
100
AcDb2dVertex
 10
384.9999999999997
 20
331.0378117213823
 30
0.0
  0
VERTEX
  5
507C
330
C23
100
AcDbEntity
  8
SAISEN
100
AcDbVertex
100
AcDb2dVertex
 10
374.9999999999997
 20
331.0378117213823
 30
0.0
  0
SEQEND
  5
507D
330
C23
100
AcDbEntity
  8
SAISEN
  0
MTEXT
  5
C24
330
A
100
AcDbEntity
  8
MOJI
100
AcDbMText
 10
379.9999999999997
 20
316.0378117213823
 30
0.0
 40
6.0
 41
10.0
 71
     5
 72
     1
  1
内\P\P部
  7
0_8
1001
ACAD
1000
MTEXTBEGIN
1070
    73
1070
     1
1070
    44
1040
1.0
1070
    74
1070
     0
1000
MTEXTEND
1000
MTEXTBEGIN
1070
    73
1070
     1
1070
    44
1040
1.0
1070
    74
1070
     0
1000
MTEXTEND
  0
LINE
  5
2113
330
A
100
AcDbEntity
  8
04
100
AcDbLine
 10
190.9918143712248
 20
371.9556986476561
 30
0.0
 11
194.1893501208869
 21
371.9556783103858
 31
0.0
  0
ARC
  5
2115
330
A
100
AcDbEntity
  8
04
100
AcDbCircle
 10
197.2874496727206
 20
350.9714134329348
 30
0.0
 40
0.4996149636042241
100
AcDbArc
 50
90.00091615245725
 51
180.0000557297534
  0
ARC
  5
2116
330
A
100
AcDbEntity
  8
04
100
AcDbCircle
 10
200.3295397456851
 20
350.9714620755805
 30
0.0
 40
0.4996149636041804
100
AcDbArc
 50
15.00000000000074
 51
90.00091615247033
  0
ARC
  5
211A
330
A
100
AcDbEntity
  8
04
100
AcDbCircle
 10
195.1885800480953
 20
357.6731024902428
 30
0.0
 40
4.196765694275481
100
AcDbArc
 50
180.0
 51
270.0
  0
ARC
  5
211B
330
A
100
AcDbEntity
  8
04
100
AcDbCircle
 10
195.1885800480953
 20
357.6731024902428
 30
0.0
 40
0.9992299272084508
100
AcDbArc
 50
180.0
 51
270.0
  0
LINE
  5
2126
330
A
100
AcDbEntity
  8
04
100
AcDbLine
 10
196.1878091586689
 20
360.849588229216
 30
0.0
 11
195.188478458698
 21
359.5696028969808
 31
0.0
  0
LINE
  5
2127
330
A
100
AcDbEntity
  8
04
100
AcDbLine
 10
195.188478458698
 20
359.5696028969808
 30
0.0
 11
194.1893276862978
 21
359.5695070089023
 31
0.0
  0
LINE
  5
2128
330
A
100
AcDbEntity
  8
04
100
AcDbLine
 10
195.1885921862203
 20
371.360420423823
 30
0.0
 11
194.1893188012207
 21
371.3604777421479
 31
0.0
  0
LINE
  5
212D
330
A
100
AcDbEntity
  8
04
100
AcDbLine
 10
199.2703997633809
 20
370.0803486752342
 30
0.0
 11
199.6850839548523
 21
369.3620556836525
 31
0.0
  0
LINE
  5
212E
330
A
100
AcDbEntity
  8
04
100
AcDbLine
 10
196.1878091586689
 20
360.849588229216
 30
0.0
 11
199.2703224493358
 21
360.8498852523577
 31
0.0
  0
LINE
  5
212F
330
A
100
AcDbEntity
  8
04
100
AcDbLine
 10
196.187757435494
 20
370.0805240957928
 30
0.0
 11
199.2703997633809
 21
370.0803486752342
 31
0.0
  0
LINE
  5
2130
330
A
100
AcDbEntity
  8
04
100
AcDbLine
 10
195.1885921862203
 20
371.360420423823
 30
0.0
 11
196.187757435494
 21
370.0805240957928
 31
0.0
  0
LINE
  5
2131
330
A
100
AcDbEntity
  8
04
100
AcDbLine
 10
196.2878462000473
 20
349.9717320046686
 30
0.0
 11
196.2878462000473
 21
345.4751973322306
 31
0.0
  0
LINE
  5
2132
330
A
100
AcDbEntity
  8
02
100
AcDbLine
 10
187.994116322864
 20
365.4650400204686
 30
0.0
 11
184.9006455448538
 21
365.4650400204686
 31
0.0
  0
LINE
  5
2138
330
A
100
AcDbEntity
  8
04
100
AcDbLine
 10
199.6850827158074
 20
367.2287160406721
 30
0.0
 11
199.8499908472489
 21
367.0638079040021
 31
0.0
  0
LINE
  5
2139
330
A
100
AcDbEntity
  8
04
100
AcDbLine
 10
199.6850806671181
 20
363.7013620027808
 30
0.0
 11
199.8499908472489
 21
363.8662721369352
 31
0.0
  0
LINE
  5
213A
330
A
100
AcDbEntity
  8
04
100
AcDbLine
 10
199.8499908472489
 20
363.8662721369352
 30
0.0
 11
199.8499908472489
 21
367.0638079040021
 31
0.0
  0
LINE
  5
213B
330
A
100
AcDbEntity
  8
04
100
AcDbLine
 10
194.1893501208869
 20
357.6731024902428
 30
0.0
 11
194.1893501208869
 21
371.9556783103858
 31
0.0
  0
LINE
  5
213F
330
A
100
AcDbEntity
  8
SOUZOU
100
AcDbLine
 10
191.089900292877
 20
343.0776632347423
 30
0.0
 11
191.0898291212675
 21
350.8716819220272
 31
0.0
  0
LINE
  5
2140
330
A
100
AcDbEntity
  8
SOUZOU
100
AcDbLine
 10
190.6752305228746
 20
342.3595116827788
 30
0.0
 11
191.089900292877
 21
343.0776632347423
 31
0.0
  0
LINE
  5
2141
330
A
100
AcDbEntity
  8
SOUZOU
100
AcDbLine
 10
187.5926032310253
 20
342.3594170990901
 30
0.0
 11
190.6752305228746
 21
342.3595116827788
 31
0.0
  0
LINE
  5
2145
330
A
100
AcDbEntity
  8
SOUZOU
100
AcDbLine
 10
187.5926050327866
 20
342.3781350560638
 30
0.0
 11
186.2936056761581
 21
342.3781834641502
 31
0.0
  0
LINE
  5
2148
330
A
100
AcDbEntity
  8
SOUZOU
100
AcDbLine
 10
190.6751408691614
 20
351.5899468827317
 30
0.0
 11
191.0898291212675
 21
350.8716819220272
 31
0.0
  0
LINE
  5
2149
330
A
100
AcDbEntity
  8
SOUZOU
100
AcDbLine
 10
187.5925141810673
 20
351.5898816778631
 30
0.0
 11
190.6751408691614
 21
351.5899468827317
 31
0.0
  0
LINE
  5
214A
330
A
100
AcDbEntity
  8
SOUZOU
100
AcDbLine
 10
186.2935127197378
 20
351.9708134150056
 30
0.0
 11
185.2942823331809
 21
351.9707676738407
 31
0.0
  0
LINE
  5
214B
330
A
100
AcDbEntity
  8
SOUZOU
100
AcDbLine
 10
187.5925150351953
 20
351.571121175696
 30
0.0
 11
186.2935182008
 21
351.5711181225077
 31
0.0
  0
LINE
  5
214D
330
A
100
AcDbEntity
  8
04
100
AcDbLine
 10
190.991829727136
 20
371.9556986475584
 30
0.0
 11
190.9918141978054
 21
357.6731024902428
 31
0.0
  0
LINE
  5
214F
330
A
100
AcDbEntity
  8
04
100
AcDbLine
 10
197.2874416839388
 20
351.4710283964753
 30
0.0
 11
200.3295317569032
 21
351.4710770391211
 31
0.0
  0
LINE
  5
2150
330
A
100
AcDbEntity
  8
04
100
AcDbLine
 10
200.8121307422304
 20
351.1007719433795
 30
0.0
 11
201.1144699281285
 21
349.9724267404898
 31
0.0
  0
LINE
  5
2151
330
A
100
AcDbEntity
  8
04
100
AcDbLine
 10
196.7878356807986
 20
349.9724267404898
 30
0.0
 11
196.7878347091166
 21
350.9714129469754
 31
0.0
  0
LINE
  5
2152
330
A
100
AcDbEntity
  8
02
100
AcDbLine
 10
190.9918141978051
 20
358.9743993430598
 30
0.0
 11
190.9918141978054
 21
362.8669340451426
 31
0.0
  0
LINE
  5
2154
330
A
100
AcDbEntity
  8
02
100
AcDbLine
 10
188.6935178997736
 20
362.8670888381841
 30
0.0
 11
190.9918141978054
 21
362.8669340451426
 31
0.0
  0
LINE
  5
2155
330
A
100
AcDbEntity
  8
02
100
AcDbLine
 10
188.6935855458234
 20
369.5575329287686
 30
0.0
 11
188.6935828513763
 21
368.0587868060163
 31
0.0
  0
LINE
  5
2156
330
A
100
AcDbEntity
  8
02
100
AcDbLine
 10
188.6935178997736
 20
362.8670888381841
 30
0.0
 11
188.6935866558872
 21
361.3682100362121
 31
0.0
  0
LINE
  5
2157
330
A
100
AcDbEntity
  8
02
100
AcDbLine
 10
184.4968041455547
 20
369.5578062322991
 30
0.0
 11
184.4968187859258
 21
361.3683286523738
 31
0.0
  0
LINE
  5
2158
330
A
100
AcDbEntity
  8
02
100
AcDbLine
 10
184.4968041455547
 20
369.5578062322991
 30
0.0
 11
188.6935855458234
 21
369.5575329287686
 31
0.0
  0
LINE
  5
2159
330
A
100
AcDbEntity
  8
02
100
AcDbLine
 10
184.4968187859258
 20
361.3683286523738
 30
0.0
 11
188.6935866558872
 21
361.3682100362121
 31
0.0
  0
LINE
  5
215A
330
A
100
AcDbEntity
  8
02
100
AcDbLine
 10
185.2962039529888
 20
358.9743688511083
 30
0.0
 11
190.9918141978051
 21
358.9743993430598
 31
0.0
  0
LINE
  5
215B
330
A
100
AcDbEntity
  8
02
100
AcDbLine
 10
188.6935828513763
 20
368.0587868060163
 30
0.0
 11
190.9918141978101
 21
368.0588185649018
 31
0.0
  0
LINE
  5
2165
330
A
100
AcDbEntity
  8
CHUSIN
100
AcDbLine
 10
171.414143625319
 20
346.9745998874913
 30
0.0
 11
193.6387588454429
 21
346.9745998874913
 31
0.0
  0
LINE
  5
2166
330
A
100
AcDbEntity
  8
CHUSIN
100
AcDbLine
 10
177.7028455397783
 20
365.4650400331293
 30
0.0
 11
203.4593350964488
 21
365.4650400331293
 31
0.0
  0
ARC
  5
2167
330
A
100
AcDbEntity
  8
04
100
AcDbCircle
 10
218.2712956932066
 20
350.9714965799291
 30
0.0
 40
0.4996149636042257
100
AcDbArc
 50
0.0
 51
90.00009033002626
  0
ARC
  5
2168
330
A
100
AcDbEntity
  8
04
100
AcDbCircle
 10
215.2291635611836
 20
350.9714917838363
 30
0.0
 40
0.4996149636042289
100
AcDbArc
 50
90.00009033002951
 51
165.0001159816743
  0
ARC
  5
2169
330
A
100
AcDbEntity
  8
04
100
AcDbCircle
 10
219.9694481097047
 20
357.6731024902428
 30
0.0
 40
0.9992299272084508
100
AcDbArc
 50
270.0
 51
0.0
  0
LINE
  5
216E
330
A
100
AcDbEntity
  8
04
100
AcDbLine
 10
225.7649816875135
 20
367.9651707404901
 30
0.0
 11
225.7649816875135
 21
353.4763367959676
 31
0.0
  0
LINE
  5
216F
330
A
100
AcDbEntity
  8
04
100
AcDbLine
 10
224.1662138039802
 20
351.877568912434
 30
0.0
 11
233.8587778790003
 21
351.877568912434
 31
0.0
  0
LINE
  5
2170
330
A
100
AcDbEntity
  8
04
100
AcDbLine
 10
233.8587778790003
 20
351.877568912434
 30
0.0
 11
233.8587778790003
 21
351.1781079633881
 31
0.0
  0
LINE
  5
2171
330
A
100
AcDbEntity
  8
04
100
AcDbLine
 10
225.7649816875135
 20
367.9651707404901
 30
0.0
 11
220.9686780369131
 21
367.9651707404901
 31
0.0
  0
LINE
  5
2172
330
A
100
AcDbEntity
  8
04
100
AcDbLine
 10
224.1662138039802
 20
351.877568912434
 30
0.0
 11
224.1662138039802
 21
367.9651707404901
 31
0.0
  0
LINE
  5
2173
330
A
100
AcDbEntity
  8
04
100
AcDbLine
 10
220.9686780369131
 20
367.9651707404901
 30
0.0
 11
220.9686780369131
 21
357.6731024902428
 31
0.0
  0
LINE
  5
2174
330
A
100
AcDbEntity
  8
04
100
AcDbLine
 10
230.7609923015728
 20
346.9749540833238
 30
0.0
 11
231.8030511604454
 21
346.9749540833238
 31
0.0
  0
LINE
  5
2177
330
A
100
AcDbEntity
  8
CHUSIN
100
AcDbLine
 10
232.1214445281109
 20
363.4686360680519
 30
0.0
 11
218.3795162826443
 21
363.4686360680519
 31
0.0
  0
LINE
  5
2178
330
A
100
AcDbEntity
  8
04
100
AcDbLine
 10
218.7709106568108
 20
350.9714965799291
 30
0.0
 11
218.7709106568108
 21
349.9054600563368
 31
0.0
  0
LINE
  5
2179
330
A
100
AcDbEntity
  8
04
100
AcDbLine
 10
215.2291627735126
 20
351.4711067474398
 30
0.0
 11
218.2712949055355
 21
351.4711115435327
 31
0.0
  0
LINE
  5
217A
330
A
100
AcDbEntity
  8
04
100
AcDbLine
 10
214.4442278665537
 20
349.9724267404898
 30
0.0
 11
214.7465723028818
 21
351.1008006747443
 31
0.0
  0
LINE
  5
2182
330
A
100
AcDbEntity
  8
04
100
AcDbLine
 10
225.7649816875135
 20
358.8721784028932
 30
0.0
 11
225.7649816875135
 21
368.0650937332109
 31
0.0
  0
LINE
  5
2183
330
A
100
AcDbEntity
  8
04
100
AcDbLine
 10
219.9694481097044
 20
365.9667108860733
 30
0.0
 11
219.070141175217
 21
365.0674039515856
 31
0.0
  0
LINE
  5
2184
330
A
100
AcDbEntity
  8
04
100
AcDbLine
 10
219.9694481097044
 20
360.9705612500309
 30
0.0
 11
219.070141175217
 21
361.8698681845186
 31
0.0
  0
LINE
  5
2185
330
A
100
AcDbEntity
  8
04
100
AcDbLine
 10
219.070141175217
 20
361.8698681845186
 30
0.0
 11
219.070141175217
 21
365.0674039515856
 31
0.0
  0
LINE
  5
2186
330
A
100
AcDbEntity
  8
04
100
AcDbLine
 10
220.9686780369131
 20
365.9667108860733
 30
0.0
 11
219.9694481097044
 21
365.9667108860733
 31
0.0
  0
LINE
  5
2188
330
A
100
AcDbEntity
  8
04
100
AcDbLine
 10
220.9686780369131
 20
360.9705612500309
 30
0.0
 11
219.9694481097044
 21
360.9705612500309
 31
0.0
  0
LINE
  5
218B
330
A
100
AcDbEntity
  8
04
100
AcDbLine
 10
225.7649816875135
 20
368.0650937332109
 30
0.0
 11
227.0639805928845
 21
368.0650937332109
 31
0.0
  0
LINE
  5
218D
330
A
100
AcDbEntity
  8
04
100
AcDbLine
 10
227.0639805928845
 20
368.0650937332109
 30
0.0
 11
230.1574513708948
 21
368.0650937332109
 31
0.0
  0
LINE
  5
218E
330
A
100
AcDbEntity
  8
04
100
AcDbLine
 10
230.5612853381139
 20
360.0259897378055
 30
0.0
 11
230.5612853381139
 21
366.9112823982988
 31
0.0
  0
ARC
  5
2192
330
A
100
AcDbEntity
  8
02
100
AcDbCircle
 10
187.2947664918574
 20
300.5103880251903
 30
0.0
 40
1.998459854416899
100
AcDbArc
 50
180.0000941503965
 51
270.0
  0
ARC
  5
2193
330
A
100
AcDbEntity
  8
02
100
AcDbCircle
 10
201.039481489371
 20
299.5111580979818
 30
0.0
 40
0.9992299272084508
100
AcDbArc
 50
270.0
 51
4.999999999999743
  0
ARC
  5
2194
330
A
100
AcDbEntity
  8
04
100
AcDbCircle
 10
202.5506477535115
 20
302.5088356362696
 30
0.0
 40
0.9992299272084508
100
AcDbArc
 50
90.0
 51
165.0000923154081
  0
ARC
  5
2195
330
A
100
AcDbEntity
  8
04
100
AcDbCircle
 10
213.008135647648
 20
302.5088356362696
 30
0.0
 40
0.9992299272084631
100
AcDbArc
 50
14.99997633373311
 51
90.0
  0
ARC
  5
2196
330
A
100
AcDbEntity
  8
04
100
AcDbCircle
 10
197.2874992404893
 20
300.0107730615947
 30
0.0
 40
0.4996149636042631
100
AcDbArc
 50
180.0000557297534
 51
270.0000000009737
  0
ARC
  5
2197
330
A
100
AcDbEntity
  8
04
100
AcDbCircle
 10
200.3295804741902
 20
300.0107730616468
 30
0.0
 40
0.4996149636042257
100
AcDbArc
 50
270.0000000009868
 51
345.0000923154063
  0
ARC
  5
2198
330
A
100
AcDbEntity
  8
04
100
AcDbCircle
 10
215.229206633086
 20
300.0107730616631
 30
0.0
 40
0.4996149636042573
100
AcDbArc
 50
194.9999763337314
 51
270.0
  0
ARC
  5
2199
330
A
100
AcDbEntity
  8
04
100
AcDbCircle
 10
218.2712956932066
 20
300.0107730616631
 30
0.0
 40
0.4996149636042257
100
AcDbArc
 50
270.0
 51
0.0
  0
ARC
  5
219B
330
A
100
AcDbEntity
  8
02
100
AcDbCircle
 10
213.0586249482428
 20
300.0107608182483
 30
0.0
 40
0.4996149636042257
100
AcDbArc
 50
269.9999984647714
 51
355.0009996820918
  0
ARC
  5
219C
330
A
100
AcDbEntity
  8
02
100
AcDbCircle
 10
202.7833123342619
 20
302.5088356362696
 30
0.0
 40
0.9992299272084508
100
AcDbArc
 50
90.0000015352286
 51
184.9999970148232
  0
ARC
  5
219D
330
A
100
AcDbEntity
  8
02
100
AcDbCircle
 10
212.7756116063467
 20
302.5088356362696
 30
0.0
 40
0.9992299272084562
100
AcDbArc
 50
355.0009996820918
 51
90.00000153523512
  0
ARC
  5
21A7
330
A
100
AcDbEntity
  8
04
100
AcDbCircle
 10
245.9494599982225
 20
351.1781079633881
 30
0.0
 40
1.598767883533521
100
AcDbArc
 50
270.0
 51
0.0
  0
ARC
  5
21A8
330
A
100
AcDbEntity
  8
04
100
AcDbCircle
 10
235.4575457625338
 20
351.1781079633881
 30
0.0
 40
1.598767883533521
100
AcDbArc
 50
180.0
 51
270.0
  0
ARC
  5
21A9
330
A
100
AcDbEntity
  8
04
100
AcDbCircle
 10
233.8587778790003
 20
351.877568912434
 30
0.0
 40
1.598767883533521
100
AcDbArc
 50
0.0
 51
90.0
  0
ARC
  5
21AA
330
A
100
AcDbEntity
  8
04
100
AcDbCircle
 10
217.7712840903843
 20
342.4775075506053
 30
0.0
 40
2.997689781625353
100
AcDbArc
 50
0.0
 51
90.0
  0
ARC
  5
21AB
330
A
100
AcDbEntity
  8
04
100
AcDbCircle
 10
217.7724296973654
 20
342.4775075506053
 30
0.0
 40
7.494224454063383
100
AcDbArc
 50
0.0
 51
90.0
  0
LINE
  5
21AC
330
A
100
AcDbEntity
  8
SOUZOU
100
AcDbLine
 10
243.2513663916787
 20
304.8884100757514
 30
0.0
 11
233.2590671195942
 21
304.8884100757514
 31
0.0
  0
LINE
  5
21AD
330
A
100
AcDbEntity
  8
SOUZOU
100
AcDbLine
 10
233.2590671195942
 20
345.0953828477921
 30
0.0
 11
233.2590671195942
 21
304.8884100757514
 31
0.0
  0
LINE
  5
21AE
330
A
100
AcDbEntity
  8
SOUZOU
100
AcDbLine
 10
243.251366391276
 20
304.8884100757514
 30
0.0
 11
243.2513663916787
 21
345.0953828477921
 31
0.0
  0
LINE
  5
21AF
330
A
100
AcDbEntity
  8
SOUZOU
100
AcDbLine
 10
243.2513663916787
 20
345.0953828477921
 30
0.0
 11
233.2590671195942
 21
345.0953828477921
 31
0.0
  0
LINE
  5
21B0
330
A
100
AcDbEntity
  8
04
100
AcDbLine
 10
196.2878462000473
 20
345.4751973322306
 30
0.0
 11
217.7712840903843
 21
345.4751973322306
 31
0.0
  0
LINE
  5
21B1
330
A
100
AcDbEntity
  8
04
100
AcDbLine
 10
196.2878462000473
 20
349.9717320046686
 30
0.0
 11
217.7724296973654
 21
349.9717320046686
 31
0.0
  0
LINE
  5
21B2
330
A
100
AcDbEntity
  8
04
100
AcDbLine
 10
245.9494599982225
 20
356.6738725630345
 30
0.0
 11
245.9494599982225
 21
351.1781079633881
 31
0.0
  0
LINE
  5
21B3
330
A
100
AcDbEntity
  8
04
100
AcDbLine
 10
225.7649816875135
 20
356.6738725630345
 30
0.0
 11
245.9494692863608
 21
356.6738725630345
 31
0.0
  0
LINE
  5
21B4
330
A
100
AcDbEntity
  8
04
100
AcDbLine
 10
235.4575457625338
 20
351.877568912434
 30
0.0
 11
235.4575457625338
 21
351.1781079633881
 31
0.0
  0
LINE
  5
21B5
330
A
100
AcDbEntity
  8
04
100
AcDbLine
 10
245.9494599982225
 20
351.1781079633881
 30
0.0
 11
235.4575457625338
 21
351.1781079633881
 31
0.0
  0
LINE
  5
21B6
330
A
100
AcDbEntity
  8
04
100
AcDbLine
 10
247.548227881756
 20
351.1781079633881
 30
0.0
 11
247.548227881756
 21
356.1742575994303
 31
0.0
  0
LINE
  5
21B7
330
A
100
AcDbEntity
  8
04
100
AcDbLine
 10
245.9494599982225
 20
356.1742575994303
 30
0.0
 11
247.548227881756
 21
356.1742575994303
 31
0.0
  0
LINE
  5
21B8
330
A
100
AcDbEntity
  8
04
100
AcDbLine
 10
235.4575457625338
 20
349.5793400798546
 30
0.0
 11
245.9494599982225
 21
349.5793400798546
 31
0.0
  0
LINE
  5
21B9
330
A
100
AcDbEntity
  8
04
100
AcDbLine
 10
195.1885800480953
 20
356.6738725630345
 30
0.0
 11
219.9694481097047
 21
356.6738725630345
 31
0.0
  0
LINE
  5
21BA
330
A
100
AcDbEntity
  8
04
100
AcDbLine
 10
195.1885800480953
 20
353.4763367959676
 30
0.0
 11
224.1662138039802
 21
353.4763367959676
 31
0.0
  0
LINE
  5
21BB
330
A
100
AcDbEntity
  8
04
100
AcDbLine
 10
225.7649816875135
 20
353.4763367959676
 30
0.0
 11
245.949426218665
 21
353.4763367959676
 31
0.0
  0
LINE
  5
21BC
330
A
100
AcDbEntity
  8
SOUZOU
100
AcDbLine
 10
186.293610581217
 20
341.9784900883251
 30
0.0
 11
185.2943792142312
 21
341.9784896342124
 31
0.0
  0
LINE
  5
21C2
330
A
100
AcDbEntity
  8
SOUZOU
100
AcDbLine
 10
191.091846614105
 20
308.1046157824467
 30
0.0
 11
191.0917754424955
 21
315.8986344697316
 31
0.0
  0
LINE
  5
21C3
330
A
100
AcDbEntity
  8
SOUZOU
100
AcDbLine
 10
190.6771768441026
 20
307.3864642304833
 30
0.0
 11
191.091846614105
 21
308.1046157824467
 31
0.0
  0
LINE
  5
21C4
330
A
100
AcDbEntity
  8
SOUZOU
100
AcDbLine
 10
190.6770871903895
 20
316.616899430436
 30
0.0
 11
191.0917754424955
 21
315.8986344697316
 31
0.0
  0
LINE
  5
21C5
330
A
100
AcDbEntity
  8
SOUZOU
100
AcDbLine
 10
187.5945495522536
 20
307.3863696467943
 30
0.0
 11
190.6771768441026
 21
307.3864642304833
 31
0.0
  0
LINE
  5
21C6
330
A
100
AcDbEntity
  8
SOUZOU
100
AcDbLine
 10
187.5944605022954
 20
316.6168342255676
 30
0.0
 11
190.6770871903895
 21
316.616899430436
 31
0.0
  0
LINE
  5
21C8
330
A
100
AcDbEntity
  8
SOUZOU
100
AcDbLine
 10
186.2955569024449
 20
307.0054426360294
 30
0.0
 11
185.2963255354589
 21
307.0054421819168
 31
0.0
  0
LINE
  5
21C9
330
A
100
AcDbEntity
  8
SOUZOU
100
AcDbLine
 10
186.295459040966
 20
316.9977659627098
 30
0.0
 11
185.2962286544086
 21
316.9977202215451
 31
0.0
  0
LINE
  5
21CD
330
A
100
AcDbEntity
  8
SOUZOU
100
AcDbLine
 10
187.5945513540147
 20
307.4050876037682
 30
0.0
 11
186.295551997386
 21
307.4051360118545
 31
0.0
  0
LINE
  5
21CE
330
A
100
AcDbEntity
  8
SOUZOU
100
AcDbLine
 10
187.5944613564234
 20
316.5980737234003
 30
0.0
 11
186.2954645220282
 21
316.5980706702123
 31
0.0
  0
LINE
  5
21D1
330
A
100
AcDbEntity
  8
04
100
AcDbLine
 10
245.7494412096997
 20
329.588204973762
 30
0.0
 11
247.144078861203
 21
329.588204973762
 31
0.0
  0
LINE
  5
21D2
330
A
100
AcDbEntity
  8
04
100
AcDbLine
 10
247.5479128284229
 20
321.5491009783566
 30
0.0
 11
247.5479128284229
 21
328.4343936388496
 31
0.0
  0
LINE
  5
21D4
330
A
100
AcDbEntity
  8
04
100
AcDbLine
 10
245.7494412096997
 20
320.3952896434443
 30
0.0
 11
247.144078861203
 21
320.3952896434443
 31
0.0
  0
LINE
  5
21D5
330
A
100
AcDbEntity
  8
CHUSIN
100
AcDbLine
 10
238.2552167556364
 20
303.078246367706
 30
0.0
 11
238.2552167556364
 21
346.9749540833238
 31
0.0
  0
LINE
  5
21D6
330
A
100
AcDbEntity
  8
04
100
AcDbLine
 10
243.6703581140229
 20
343.7253537148368
 30
0.0
 11
244.7073823508274
 21
346.9749546844515
 31
0.0
  0
LINE
  5
21D7
330
A
100
AcDbEntity
  8
04
100
AcDbLine
 10
232.8400753972498
 20
343.7253537148368
 30
0.0
 11
231.8030511604454
 21
346.9749546844515
 31
0.0
  0
LINE
  5
21D8
330
A
100
AcDbEntity
  8
04
100
AcDbLine
 10
232.8400753972498
 20
343.7253537148368
 30
0.0
 11
243.6703581140229
 21
343.7253537148368
 31
0.0
  0
LINE
  5
21DD
330
A
100
AcDbEntity
  8
04
100
AcDbLine
 10
245.7494412096997
 20
346.9749540833238
 30
0.0
 11
244.7073823508274
 21
346.9749540833238
 31
0.0
  0
LINE
  5
21DE
330
A
100
AcDbEntity
  8
04
100
AcDbLine
 10
243.6703581140229
 20
306.2584392087068
 30
0.0
 11
244.7073823508274
 21
303.0088382390921
 31
0.0
  0
LINE
  5
21DF
330
A
100
AcDbEntity
  8
04
100
AcDbLine
 10
245.7494412096997
 20
303.0088382390921
 30
0.0
 11
244.7073823508274
 21
303.0088382390921
 31
0.0
  0
LINE
  5
21E0
330
A
100
AcDbEntity
  8
04
100
AcDbLine
 10
232.8400753972498
 20
306.2584392087068
 30
0.0
 11
243.6703581140229
 21
306.2584392087068
 31
0.0
  0
LINE
  5
21E1
330
A
100
AcDbEntity
  8
04
100
AcDbLine
 10
245.7494412096997
 20
346.9749540833238
 30
0.0
 11
245.7494412096997
 21
303.0088382390921
 31
0.0
  0
LINE
  5
21E2
330
A
100
AcDbEntity
  8
04
100
AcDbLine
 10
232.8400753972498
 20
306.2584392087068
 30
0.0
 11
231.8030511604454
 21
303.0088382390921
 31
0.0
  0
LINE
  5
21E3
330
A
100
AcDbEntity
  8
04
100
AcDbLine
 10
230.7609923015728
 20
303.0088382390921
 30
0.0
 11
231.8030511604454
 21
303.0088382390921
 31
0.0
  0
LINE
  5
21E4
330
A
100
AcDbEntity
  8
04
100
AcDbLine
 10
230.7609923015728
 20
346.9749540833238
 30
0.0
 11
230.7609923015728
 21
303.0088382390921
 31
0.0
  0
LINE
  5
21E5
330
A
100
AcDbEntity
  8
04
100
AcDbLine
 10
218.7709106568108
 20
315.4988336684488
 30
0.0
 11
220.7689738720098
 21
315.4989227646243
 31
0.0
  0
LINE
  5
21E6
330
A
100
AcDbEntity
  8
04
100
AcDbLine
 10
218.7709106568108
 20
335.4834183413135
 30
0.0
 11
220.7689738720098
 21
335.4834461838192
 31
0.0
  0
LINE
  5
21E7
330
A
100
AcDbEntity
  8
CHUSIN
100
AcDbLine
 10
207.7794524201383
 20
349.2337842529812
 30
0.0
 11
207.7794524201383
 21
300.2070832147075
 31
0.0
  0
LINE
  5
21E8
330
A
100
AcDbEntity
  8
CHUSIN
100
AcDbLine
 10
191.3846521583579
 20
325.4911257072389
 30
0.0
 11
222.211998305933
 21
325.4911257072389
 31
0.0
  0
LINE
  5
21EA
330
A
100
AcDbEntity
  8
04
100
AcDbLine
 10
196.7878846071005
 20
319.6925853767236
 30
0.0
 11
195.6794809523744
 21
319.6925832205068
 31
0.0
  0
LINE
  5
21EB
330
A
100
AcDbEntity
  8
04
100
AcDbLine
 10
195.1890915865959
 20
329.7414622608108
 30
0.0
 11
195.1891083293502
 21
321.1348464352106
 31
0.0
  0
LINE
  5
21ED
330
A
100
AcDbEntity
  8
04
100
AcDbLine
 10
196.7878510759064
 20
331.1837295395773
 30
0.0
 11
195.679458598245
 21
331.1837273833821
 31
0.0
  0
LINE
  5
21EE
330
A
100
AcDbEntity
  8
04
100
AcDbLine
 10
220.7689738720098
 20
306.0055105097178
 30
0.0
 11
225.2655085444478
 21
306.0055105097178
 31
0.0
  0
LINE
  5
21EF
330
A
100
AcDbEntity
  8
04
100
AcDbLine
 10
220.7689738720098
 20
333.984173613386
 30
0.0
 11
225.2655085444478
 21
333.984173613386
 31
0.0
  0
LINE
  5
21F0
330
A
100
AcDbEntity
  8
04
100
AcDbLine
 10
225.2666541514286
 20
311.5018864238781
 30
0.0
 11
225.2666541514286
 21
342.4775075506053
 31
0.0
  0
LINE
  5
21F1
330
A
100
AcDbEntity
  8
04
100
AcDbLine
 10
229.7631888238669
 20
311.5018864238781
 30
0.0
 11
229.7631888238669
 21
343.4772440945486
 31
0.0
  0
LINE
  5
21F2
330
A
100
AcDbEntity
  8
04
100
AcDbLine
 10
225.2666541514286
 20
311.5018864238781
 30
0.0
 11
229.7631888238669
 21
311.5018864238781
 31
0.0
  0
LINE
  5
21F3
330
A
100
AcDbEntity
  8
04
100
AcDbLine
 10
225.2666541514286
 20
343.4772440945486
 30
0.0
 11
229.7631888238669
 21
343.4772440945486
 31
0.0
  0
LINE
  5
21F4
330
A
100
AcDbEntity
  8
04
100
AcDbLine
 10
196.7878842768856
 20
300.0107725756353
 30
0.0
 11
196.7878400544321
 21
345.4758920680518
 31
0.0
  0
LINE
  5
21F5
330
A
100
AcDbEntity
  8
04
100
AcDbLine
 10
197.287499240498
 20
299.5111580979905
 30
0.0
 11
200.3295804741989
 21
299.5111580980426
 31
0.0
  0
LINE
  5
21F6
330
A
100
AcDbEntity
  8
04
100
AcDbLine
 10
215.229206633086
 20
299.5111580980589
 30
0.0
 11
218.2712956932066
 21
299.5111580980588
 31
0.0
  0
LINE
  5
21F7
330
A
100
AcDbEntity
  8
04
100
AcDbLine
 10
202.5506477535115
 20
303.5080655634781
 30
0.0
 11
213.008135647648
 21
303.5080655634781
 31
0.0
  0
LINE
  5
21F8
330
A
100
AcDbEntity
  8
04
100
AcDbLine
 10
213.9733177475638
 20
302.767454973195
 30
0.0
 11
214.7466155831283
 21
299.8814633932003
 31
0.0
  0
LINE
  5
21F9
330
A
100
AcDbEntity
  8
04
100
AcDbLine
 10
201.585465343731
 20
302.7674538167585
 30
0.0
 11
200.8121716790804
 21
299.8814639714023
 31
0.0
  0
LINE
  5
21FC
330
A
100
AcDbEntity
  8
04
100
AcDbLine
 10
218.7709106568108
 20
345.3043110519477
 30
0.0
 11
218.7709106568108
 21
300.0107730616631
 31
0.0
  0
LINE
  5
21FF
330
A
100
AcDbEntity
  8
02
100
AcDbLine
 10
185.2963066374433
 20
300.5103847412523
 30
0.0
 11
185.2962892344253
 21
311.7068987134897
 31
0.0
  0
LINE
  5
2200
330
A
100
AcDbEntity
  8
02
100
AcDbLine
 10
202.7833123074882
 20
303.5080655634781
 30
0.0
 11
212.7756115795726
 21
303.5080655634781
 31
0.0
  0
LINE
  5
2201
330
A
100
AcDbEntity
  8
02
100
AcDbLine
 10
208.7788143138878
 20
299.5111458546443
 30
0.0
 11
213.0586249348557
 21
299.5111458546443
 31
0.0
  0
LINE
  5
2204
330
A
100
AcDbEntity
  8
02
100
AcDbLine
 10
187.2947664918574
 20
298.5119281707734
 30
0.0
 11
201.039481489371
 21
298.5119281707734
 31
0.0
  0
LINE
  5
2205
330
A
100
AcDbEntity
  8
02
100
AcDbLine
 10
213.5563394857471
 20
299.9672251889969
 30
0.0
 11
213.7710406813548
 21
302.4217643777665
 31
0.0
  0
LINE
  5
2206
330
A
100
AcDbEntity
  8
02
100
AcDbLine
 10
202.0349090450308
 20
299.5982467244633
 30
0.0
 11
201.7878847740651
 21
302.4217470616511
 31
0.0
  0
LINE
  5
2208
330
A
100
AcDbEntity
  8
02
100
AcDbLine
 10
185.296288302549
 20
312.3064366909348
 30
0.0
 11
185.2961690555891
 21
358.9743688509213
 31
0.0
  0
LINE
  5
2217
330
A
100
AcDbEntity
  8
CHUSIN
100
AcDbLine
 10
171.414143625319
 20
312.0015524351957
 30
0.0
 11
193.6387588454429
 21
312.0015524351957
 31
0.0
  0
LINE
  5
2218
330
A
100
AcDbEntity
  8
CHUSIN
100
AcDbLine
 10
225.7648426655307
 20
324.9918964617718
 30
0.0
 11
250.7455908457419
 21
324.9918964617718
 31
0.0
  0
LINE
  5
2219
330
A
100
AcDbEntity
  8
04
100
AcDbLine
 10
229.7631888238669
 20
332.4858614372581
 30
0.0
 11
230.7609923015728
 21
332.4858614372581
 31
0.0
  0
LINE
  5
221A
330
A
100
AcDbEntity
  8
04
100
AcDbLine
 10
230.760591074863
 20
317.4976626063427
 30
0.0
 11
229.7631888238669
 21
317.4976626063427
 31
0.0
  0
LINE
  5
221B
330
A
100
AcDbEntity
  8
04
100
AcDbLine
 10
220.7689738720098
 20
342.4775075506053
 30
0.0
 11
220.7689738720098
 21
333.984173613386
 31
0.0
  0
LINE
  5
2228
330
A
100
AcDbEntity
  8
02
100
AcDbLine
 10
208.7788143138878
 20
299.5111458546443
 30
0.0
 11
208.7788143138878
 21
296.0138411094145
 31
0.0
  0
LINE
  5
2229
330
A
100
AcDbEntity
  8
02
100
AcDbLine
 10
213.2752265565637
 20
296.0138411094145
 30
0.0
 11
208.7788143138878
 21
296.0138411094145
 31
0.0
  0
ARC
  5
222A
330
A
100
AcDbEntity
  8
02
100
AcDbCircle
 10
213.2752265699508
 20
295.5142261458103
 30
0.0
 40
0.4996149636042257
100
AcDbArc
 50
0.0
 51
90.0000015352286
  0
LINE
  5
222B
330
A
100
AcDbEntity
  8
02
100
AcDbLine
 10
213.7748415335551
 20
295.5142261458103
 30
0.0
 11
213.7748415335551
 21
294.0152090120209
 31
0.0
  0
ARC
  5
222C
330
A
100
AcDbEntity
  8
02
100
AcDbCircle
 10
212.7756116063467
 20
294.0152090120209
 30
0.0
 40
0.9992299272084601
100
AcDbArc
 50
269.99966224729
 51
0.0
  0
LINE
  5
222D
330
A
100
AcDbEntity
  8
02
100
AcDbLine
 10
182.29848917952
 20
293.0163352261516
 30
0.0
 11
212.7756057159894
 21
293.0159790848296
 31
0.0
  0
ARC
  5
222E
330
A
100
AcDbEntity
  8
04
100
AcDbCircle
 10
217.7712896350291
 20
280.0266363300043
 30
0.0
 40
7.494224454063436
100
AcDbArc
 50
336.4199960186155
 51
0.0
  0
ARC
  5
222F
330
A
100
AcDbEntity
  8
04
100
AcDbCircle
 10
217.7712840903843
 20
280.126203972046
 30
0.0
 40
2.997689781625353
100
AcDbArc
 50
269.9981744855989
 51
0.0
  0
ARC
  5
2230
330
A
100
AcDbEntity
  8
KAKURE
100
AcDbCircle
 10
217.7712896350291
 20
280.0266363300043
 30
0.0
 40
7.494224454063383
100
AcDbArc
 50
270.0
 51
336.4199960186155
  0
LINE
  5
2234
330
A
100
AcDbEntity
  8
04
100
AcDbLine
 10
196.2878462000473
 20
272.532411875941
 30
0.0
 11
225.2655140890924
 21
272.532411875941
 31
0.0
  0
LINE
  5
2235
330
A
100
AcDbEntity
  8
04
100
AcDbLine
 10
196.2878462000473
 20
277.1291986793235
 30
0.0
 11
196.2878462000473
 21
272.532411875941
 31
0.0
  0
LINE
  5
2236
330
A
100
AcDbEntity
  8
04
100
AcDbLine
 10
229.9325625552202
 20
282.0246802962816
 30
0.0
 11
228.9333322900116
 21
282.0246798421694
 31
0.0
  0
LINE
  5
2238
330
A
100
AcDbEntity
  8
04
100
AcDbLine
 10
229.9324657955184
 20
292.0170036229626
 30
0.0
 11
228.9332354089614
 21
292.0169578817978
 31
0.0
  0
LINE
  5
223A
330
A
100
AcDbEntity
  8
04
100
AcDbLine
 10
225.2655140890924
 20
272.532411875941
 30
0.0
 11
225.2655140890924
 21
277.1282754149836
 31
0.0
  0
LINE
  5
223C
330
A
100
AcDbEntity
  8
04
100
AcDbLine
 10
204.7812702674839
 20
289.5686143571436
 30
0.0
 11
203.7820403402754
 21
289.5686143571436
 31
0.0
  0
LINE
  5
223E
330
A
100
AcDbEntity
  8
04
100
AcDbLine
 10
215.2732083100906
 20
291.5171133725547
 30
0.0
 11
220.7689738720098
 21
291.5170549779868
 31
0.0
  0
LINE
  5
223F
330
A
100
AcDbEntity
  8
04
100
AcDbLine
 10
202.7828146957604
 20
286.388102585035
 30
0.0
 11
202.7828265669592
 21
289.718565171481
 31
0.0
  0
LINE
  5
2240
330
A
100
AcDbEntity
  8
04
100
AcDbLine
 10
203.0825966130689
 20
290.018315853111
 30
0.0
 11
202.7828265669592
 21
289.7185651714808
 31
0.0
  0
LINE
  5
2241
330
A
100
AcDbEntity
  8
04
100
AcDbLine
 10
203.7820403402754
 20
290.0182731622574
 30
0.0
 11
203.0825966130689
 21
290.018315853111
 31
0.0
  0
LINE
  5
2242
330
A
100
AcDbEntity
  8
04
100
AcDbLine
 10
204.7812702674839
 20
289.5686143571436
 30
0.0
 11
204.7812694193004
 21
292.5163737681908
 31
0.0
  0
LINE
  5
2243
330
A
100
AcDbEntity
  8
04
100
AcDbLine
 10
215.2732058202581
 20
292.5163127799633
 30
0.0
 11
215.2732739826527
 21
291.5171133718569
 31
0.0
  0
LINE
  5
2244
330
A
100
AcDbEntity
  8
04
100
AcDbLine
 10
204.7812694193007
 20
292.5163737681908
 30
0.0
 11
215.2732058202581
 21
292.5163127799633
 31
0.0
  0
LINE
  5
2245
330
A
100
AcDbEntity
  8
04
100
AcDbLine
 10
225.2655140890924
 20
277.1282754149836
 30
0.0
 11
196.2878462000473
 21
277.1291986793235
 31
0.0
  0
LINE
  5
2247
330
A
100
AcDbEntity
  8
04
100
AcDbLine
 10
228.9332030316189
 20
278.0277032016584
 30
0.0
 11
225.2655085444478
 21
278.0277032016584
 31
0.0
  0
LINE
  5
2249
330
A
100
AcDbEntity
  8
04
100
AcDbLine
 10
217.7934543812718
 20
277.1260324343342
 30
0.0
 11
217.7934543812718
 21
278.7248003178675
 31
0.0
  0
LINE
  5
224B
330
A
100
AcDbEntity
  8
04
100
AcDbLine
 10
200.8065456187281
 20
277.1260324343342
 30
0.0
 11
200.8065456187281
 21
278.7248003178675
 31
0.0
  0
LINE
  5
224E
330
A
100
AcDbEntity
  8
04
100
AcDbLine
 10
216.9940704395051
 20
280.7232601722846
 30
0.0
 11
216.7942244540634
 21
280.7232601722846
 31
0.0
  0
LINE
  5
224F
330
A
100
AcDbEntity
  8
04
100
AcDbLine
 10
216.9940704395051
 20
278.7248003178675
 30
0.0
 11
216.9940704395051
 21
280.7232601722846
 31
0.0
  0
LINE
  5
2250
330
A
100
AcDbEntity
  8
04
100
AcDbLine
 10
201.6059295604949
 20
278.7248003178675
 30
0.0
 11
201.6059295604949
 21
280.7232601722846
 31
0.0
  0
LINE
  5
2252
330
A
100
AcDbEntity
  8
04
100
AcDbLine
 10
201.8057755459367
 20
280.7232601722846
 30
0.0
 11
201.8057755459367
 21
285.5267379709836
 31
0.0
  0
LINE
  5
2253
330
A
100
AcDbEntity
  8
04
100
AcDbLine
 10
214.919281034831
 20
286.2190247719311
 30
0.0
 11
203.6807189651689
 21
286.2190247719311
 31
0.0
  0
LINE
  5
2255
330
A
100
AcDbEntity
  8
04
100
AcDbLine
 10
216.7942244540634
 20
280.7232601722846
 30
0.0
 11
216.7942244540634
 21
285.5267379709836
 31
0.0
  0
LINE
  5
225B
330
A
100
AcDbEntity
  8
04
100
AcDbLine
 10
234.7288533686571
 20
283.1238534426993
 30
0.0
 11
234.7287821970474
 21
290.9178721299843
 31
0.0
  0
LINE
  5
225E
330
A
100
AcDbEntity
  8
04
100
AcDbLine
 10
231.231556306806
 20
282.4056073070471
 30
0.0
 11
234.3141835986549
 21
282.4057018907361
 31
0.0
  0
LINE
  5
225F
330
A
100
AcDbEntity
  8
04
100
AcDbLine
 10
231.2314672568475
 20
291.6360718858202
 30
0.0
 11
234.314093944942
 21
291.6361370906887
 31
0.0
  0
LINE
  5
2262
330
A
100
AcDbEntity
  8
04
100
AcDbLine
 10
231.231558108567
 20
282.4243252640208
 30
0.0
 11
229.9325587519386
 21
282.4243736721072
 31
0.0
  0
LINE
  5
2263
330
A
100
AcDbEntity
  8
04
100
AcDbLine
 10
231.2314681109759
 20
291.6173113836528
 30
0.0
 11
229.9324712765805
 21
291.6173083304651
 31
0.0
  0
LINE
  5
2266
330
A
100
AcDbEntity
  8
04
100
AcDbLine
 10
225.2655085444478
 20
278.0277032016584
 30
0.0
 11
225.2655085444478
 21
296.0137708077871
 31
0.0
  0
LINE
  5
2268
330
A
100
AcDbEntity
  8
04
100
AcDbLine
 10
225.2655085444478
 20
296.0137708077871
 30
0.0
 11
228.9332030316189
 21
296.0137708077871
 31
0.0
  0
LINE
  5
2269
330
A
100
AcDbEntity
  8
04
100
AcDbLine
 10
225.2655140890924
 20
342.6082227614223
 30
0.0
 11
225.2655140890924
 21
280.0262809793252
 31
0.0
  0
LINE
  5
226A
330
A
100
AcDbEntity
  8
04
100
AcDbLine
 10
220.7689738720098
 20
342.4775075506053
 30
0.0
 11
220.7689738720098
 21
280.126203972046
 31
0.0
  0
ARC
  5
226C
330
A
100
AcDbEntity
  8
KAKURE
100
AcDbCircle
 10
250.8067051286479
 20
279.5270233353379
 30
0.0
 40
6.994609490459156
100
AcDbArc
 50
270.0
 51
0.0
  0
ARC
  5
226D
330
A
100
AcDbEntity
  8
04
100
AcDbCircle
 10
264.919281034831
 20
283.2365635851513
 30
0.0
 40
2.885129280684245
100
AcDbArc
 50
49.46860505810437
 51
90.0
  0
ARC
  5
226E
330
A
100
AcDbEntity
  8
04
100
AcDbCircle
 10
253.6807189651689
 20
283.2365635851513
 30
0.0
 40
2.885129280684245
100
AcDbArc
 50
90.0
 51
130.5313949418956
  0
LINE
  5
2270
330
A
100
AcDbEntity
  8
04
100
AcDbLine
 10
236.2568217951077
 20
272.532411875941
 30
0.0
 11
275.2264881630218
 21
272.532411875941
 31
0.0
  0
LINE
  5
2271
330
A
100
AcDbEntity
  8
KAKURE
100
AcDbLine
 10
269.7310243565908
 20
272.532411875941
 30
0.0
 11
269.7310243565908
 21
277.0287005282387
 31
0.0
  0
LINE
  5
2274
330
A
100
AcDbEntity
  8
04
100
AcDbLine
 10
275.2264881630218
 20
272.532411875941
 30
0.0
 11
275.2264881630218
 21
277.0287005282387
 31
0.0
  0
LINE
  5
2275
330
A
100
AcDbEntity
  8
04
100
AcDbLine
 10
236.2568217951077
 20
272.532411875941
 30
0.0
 11
236.2568217951077
 21
277.0287005282387
 31
0.0
  0
LINE
  5
2276
330
A
100
AcDbEntity
  8
04
100
AcDbLine
 10
236.2568217951077
 20
277.0287005282387
 30
0.0
 11
275.2264881630218
 21
277.0287005282387
 31
0.0
  0
LINE
  5
2278
330
A
100
AcDbEntity
  8
04
100
AcDbLine
 10
267.7934543812718
 20
277.0287005282387
 30
0.0
 11
267.7934543812718
 21
278.6274684117722
 31
0.0
  0
LINE
  5
2279
330
A
100
AcDbEntity
  8
04
100
AcDbLine
 10
267.7934543812718
 20
277.0287005282387
 30
0.0
 11
250.8065456187281
 21
277.0287005282387
 31
0.0
  0
LINE
  5
227A
330
A
100
AcDbEntity
  8
04
100
AcDbLine
 10
250.8065456187281
 20
277.0287005282387
 30
0.0
 11
250.8065456187281
 21
278.6274684117722
 31
0.0
  0
LINE
  5
227E
330
A
100
AcDbEntity
  8
04
100
AcDbLine
 10
266.9940704395051
 20
278.6274684117722
 30
0.0
 11
266.9940704395051
 21
280.625928266189
 31
0.0
  0
LINE
  5
227F
330
A
100
AcDbEntity
  8
04
100
AcDbLine
 10
251.605929560495
 20
278.6274684117722
 30
0.0
 11
251.605929560495
 21
280.625928266189
 31
0.0
  0
LINE
  5
2281
330
A
100
AcDbEntity
  8
04
100
AcDbLine
 10
251.8057755459365
 20
280.625928266189
 30
0.0
 11
251.8057755459365
 21
285.4294060648882
 31
0.0
  0
LINE
  5
2282
330
A
100
AcDbEntity
  8
04
100
AcDbLine
 10
264.919281034831
 20
286.1216928658356
 30
0.0
 11
253.6807189651689
 21
286.1216928658356
 31
0.0
  0
LINE
  5
2284
330
A
100
AcDbEntity
  8
04
100
AcDbLine
 10
266.7942244540634
 20
280.625928266189
 30
0.0
 11
266.7942244540634
 21
285.4294060648882
 31
0.0
  0
ARC
  5
255F
330
A
100
AcDbEntity
  8
02
100
AcDbCircle
 10
182.2985125325866
 20
295.0147950804315
 30
0.0
 40
1.998459854416899
100
AcDbArc
 50
180.0
 51
269.9992834846511
  0
ARC
  5
28B8
330
A
100
AcDbEntity
  8
04
100
AcDbCircle
 10
203.6807189651689
 20
283.3338954912466
 30
0.0
 40
2.885129280684245
100
AcDbArc
 50
90.0
 51
130.5313949418956
  0
ARC
  5
28B9
330
A
100
AcDbEntity
  8
04
100
AcDbCircle
 10
214.919281034831
 20
283.3338954912466
 30
0.0
 40
2.885129280684245
100
AcDbArc
 50
49.46860505810437
 51
90.0
  0
ARC
  5
28C6
330
A
100
AcDbEntity
  8
04
100
AcDbCircle
 10
245.6976939377954
 20
328.4343936388496
 30
0.0
 40
1.850218890627198
100
AcDbArc
 50
0.0
 51
38.58009309648116
  0
ARC
  5
28C7
330
A
100
AcDbEntity
  8
04
100
AcDbCircle
 10
245.6976939377954
 20
321.5491009783566
 30
0.0
 40
1.850218890627204
100
AcDbArc
 50
321.4199069035188
 51
0.0
  0
ARC
  5
28CD
330
A
100
AcDbEntity
  8
04
100
AcDbCircle
 10
197.555253213849
 20
329.7414668637888
 30
0.0
 40
2.36616162725756
100
AcDbArc
 50
142.4440450146146
 51
180.0001114595069
  0
ARC
  5
28CE
330
A
100
AcDbEntity
  8
04
100
AcDbCircle
 10
197.5552699566033
 20
321.1348510381885
 30
0.0
 40
2.366161627257564
100
AcDbArc
 50
180.0001114595069
 51
217.556177904398
  0
ARC
  5
28D6
330
A
100
AcDbEntity
  8
04
100
AcDbCircle
 10
228.7110664474869
 20
366.9112823982988
 30
0.0
 40
1.850218890627149
100
AcDbArc
 50
0.0
 51
38.58009243837734
  0
ARC
  5
28D7
330
A
100
AcDbEntity
  8
04
100
AcDbCircle
 10
228.7110664474869
 20
360.0259897378055
 30
0.0
 40
1.850218890627149
100
AcDbArc
 50
321.4199075616225
 51
0.0
  0
LINE
  5
28D9
330
A
100
AcDbEntity
  8
04
100
AcDbLine
 10
199.2703379217815
 20
360.849787520304
 30
0.0
 11
199.6850317378497
 21
361.568074955337
 31
0.0
  0
INSERT
  5
290F
330
A
100
AcDbEntity
  8
06
  6
CONTINUOUS
100
AcDbBlockReference
  2
*X40
 10
0.0
 20
0.0
 30
0.0
1001
ACAD
1000
HATCH
1002
{
1070
    19
1000
ANSI31
1040
15.0
1040
0.0
1000
R14_HATCH_DATA
1000
290F
1011
1.0
1021
0.0
1031
0.0
1011
0.0
1021
1.0
1031
0.0
1011
0.0
1021
0.0
1031
1.0
1040
0.0
1010
0.0
1020
0.0
1030
1.0
1000
ANSI31
1070
     0
1070
     0
1071
        6
1071
        7
1070
     0
1070
     1
1071
        4
1040
159.8
1040
282.1163352261517
1040
153.8
1040
282.1163352261517
1040
153.8
1040
276.1163352261517
1040
159.8
1040
276.1163352261517
1071
        0
1071
        7
1070
     0
1070
     1
1071
        4
1040
159.8
1040
276.1163352261517
1040
153.8
1040
276.1163352261517
1040
153.7999999999998
1040
274.5163352261517
1040
159.8
1040
274.5163352261517
1071
        0
1071
        7
1070
     0
1070
     1
1071
        4
1040
159.8
1040
274.5163352261517
1040
153.8
1040
274.5163352261517
1040
153.7999999999998
1040
273.0163352261515
1040
159.8
1040
273.0163352261515
1071
        0
1071
        7
1070
     0
1070
     1
1071
        4
1040
165.8
1040
274.5163352261517
1040
159.8
1040
274.5163352261517
1040
159.8
1040
273.0163352261515
1040
165.7999999999999
1040
273.0163352261515
1071
        0
1071
        7
1070
     0
1070
     1
1071
        4
1040
165.8
1040
276.1163352261517
1040
159.8
1040
276.1163352261517
1040
159.8
1040
274.5163352261517
1040
165.8
1040
274.5163352261517
1071
        0
1071
        7
1070
     0
1070
     1
1071
        4
1040
165.8
1040
282.1163352261517
1040
159.8
1040
282.1163352261517
1040
159.7999999999998
1040
276.1163352261517
1040
165.8
1040
276.1163352261517
1071
        0
1070
     0
1070
     1
1040
0.0
1040
15.0
1070
     0
1070
     1
1040
0.7853981633974483
1040
-0.5
1040
0.0
1040
-1.325825214724774
1040
1.325825214724774
1070
     0
1040
0.0645476893175437
1071
        6
1040
157.4836973869153
1040
277.6579601331809
1040
0.0
1040
157.4836973869153
1040
275.3342441476281
1040
0.0
1040
157.8711451689621
1040
273.8496462867124
1040
0.0
1040
162.1976293739136
1040
273.7850996962158
1040
0.0
1040
162.3267786345959
1040
275.4633387117526
1040
0.0
1040
163.1016706369331
1040
278.3034371031969
1040
0.0
1002
}
  0
DIMENSION
  5
2C44
330
A
100
AcDbEntity
  8
SUNPOU
100
AcDbDimension
  2
*D14
 10
105.1518994186829
 20
293.0163352265612
 30
0.0
 11
100.6518994186829
 21
275.5163352263565
 31
0.0
 70
    32
  3
SUNPOU_2
100
AcDbAlignedDimension
 13
131.7999999999996
 23
258.0163352261517
 33
0.0
 14
182.2984657904306
 24
293.0163352265612
 34
0.0
 50
90.0
100
AcDbRotatedDimension
  0
DIMENSION
  5
2C51
330
A
100
AcDbEntity
  8
SUNPOU
100
AcDbDimension
  2
*D15
 10
105.1518994186829
 20
312.0015524356053
 30
0.0
 11
100.6518994186829
 21
302.5089438310831
 31
0.0
 70
    32
  3
SUNPOU_2
100
AcDbAlignedDimension
 13
182.2984891795201
 23
293.0163352265612
 33
0.0
 14
171.414143625319
 24
312.0015524356052
 34
0.0
 50
90.0
100
AcDbRotatedDimension
  0
DIMENSION
  5
2C5E
330
A
100
AcDbEntity
  8
SUNPOU
100
AcDbDimension
  2
*D16
 10
105.1518994186829
 20
346.9745998879008
 30
0.0
 11
100.6518994186829
 21
329.4880761617528
 31
0.0
 70
    32
  3
SUNPOU_2
100
AcDbAlignedDimension
 13
171.414143625319
 23
312.0015524356052
 33
0.0
 14
171.414143625319
 24
346.9745998879008
 34
0.0
 50
90.0
100
AcDbRotatedDimension
  0
LINE
  5
2DDA
330
A
100
AcDbEntity
  8
02
100
AcDbLine
 10
190.9918143712248
 20
371.9556986476561
 30
0.0
 11
180.3
 21
371.9557130309546
 31
0.0
  0
LINE
  5
3120
330
A
100
AcDbEntity
  8
CHUSIN
100
AcDbLine
 10
240.3001225107168
 20
430.7355649850588
 30
0.0
 11
240.3001225107168
 21
351.9697494100053
 31
0.0
  0
LINE
  5
3121
330
A
100
AcDbEntity
  8
CHUSIN
100
AcDbLine
 10
221.0434708909154
 20
406.9745924381114
 30
0.0
 11
275.8301153728178
 21
406.9746355989773
 31
0.0
  0
LINE
  5
3122
330
A
100
AcDbEntity
  8
CHUSIN
100
AcDbLine
 10
168.4046043951875
 20
487.9749888795746
 30
0.0
 11
197.9956601161593
 21
487.9749888795746
 31
0.0
  0
LINE
  5
3123
330
A
100
AcDbEntity
  8
CHUSIN
100
AcDbLine
 10
170.9795453574334
 20
412.9745998879008
 30
0.0
 11
197.5113957258153
 21
412.9745998879008
 31
0.0
  0
LINE
  5
315C
330
A
100
AcDbEntity
  8
02
100
AcDbLine
 10
192.4003454937825
 20
408.0745998879008
 30
0.0
 11
192.4003454937825
 21
417.8745998879008
 31
0.0
  0
LINE
  5
315D
330
A
100
AcDbEntity
  8
02
100
AcDbLine
 10
191.8960302687825
 20
407.2010998879008
 30
0.0
 11
192.4003454937825
 21
408.0745998879008
 31
0.0
  0
LINE
  5
315E
330
A
100
AcDbEntity
  8
02
100
AcDbLine
 10
191.8960302687825
 20
418.7480998879008
 30
0.0
 11
192.4003454937825
 21
417.8745998879008
 31
0.0
  0
LINE
  5
315F
330
A
100
AcDbEntity
  8
02
100
AcDbLine
 10
188.4003454937825
 20
407.2010998879008
 30
0.0
 11
191.8960302687825
 21
407.2010998879008
 31
0.0
  0
LINE
  5
3160
330
A
100
AcDbEntity
  8
02
100
AcDbLine
 10
188.4003454937825
 20
418.7480998879008
 30
0.0
 11
191.8960302687825
 21
418.7480998879008
 31
0.0
  0
LINE
  5
3162
330
A
100
AcDbEntity
  8
02
100
AcDbLine
 10
185.3003454937828
 20
406.7245998879008
 30
0.0
 11
185.3003454937828
 21
419.2245998879008
 31
0.0
  0
LINE
  5
3163
330
A
100
AcDbEntity
  8
02
100
AcDbLine
 10
186.9003454937828
 20
406.7245998879008
 30
0.0
 11
185.3003454937828
 21
406.7245998879008
 31
0.0
  0
LINE
  5
3164
330
A
100
AcDbEntity
  8
02
100
AcDbLine
 10
186.9003454937828
 20
419.2245998879008
 30
0.0
 11
185.3003454937828
 21
419.2245998879008
 31
0.0
  0
LINE
  5
3168
330
A
100
AcDbEntity
  8
02
100
AcDbLine
 10
188.4003454937825
 20
406.8745998879008
 30
0.0
 11
186.9003454937828
 21
406.8745998879008
 31
0.0
  0
LINE
  5
3169
330
A
100
AcDbEntity
  8
02
100
AcDbLine
 10
188.4003454937825
 20
419.0745998879008
 30
0.0
 11
186.9003454937828
 21
419.0745998879008
 31
0.0
  0
LINE
  5
316C
330
A
100
AcDbEntity
  8
04
100
AcDbLine
 10
222.8001225107206
 20
410.9745950036986
 30
0.0
 11
222.8001225107206
 21
402.9745950036986
 31
0.0
  0
LINE
  5
316D
330
A
100
AcDbEntity
  8
04
100
AcDbLine
 10
222.8001225107206
 20
402.9745950036986
 30
0.0
 11
223.8001225107205
 21
401.9745950036986
 31
0.0
  0
LINE
  5
316E
330
A
100
AcDbEntity
  8
04
100
AcDbLine
 10
224.3001225107206
 20
401.9745950036986
 30
0.0
 11
223.8001225107205
 21
401.9745950036986
 31
0.0
  0
LINE
  5
316F
330
A
100
AcDbEntity
  8
04
100
AcDbLine
 10
222.8001225107206
 20
410.9745950036986
 30
0.0
 11
223.8001225107205
 21
411.9745950036986
 31
0.0
  0
LINE
  5
3170
330
A
100
AcDbEntity
  8
04
100
AcDbLine
 10
224.3001225107206
 20
411.9745950036985
 30
0.0
 11
223.8001225107205
 21
411.9745950036986
 31
0.0
  0
LINE
  5
3177
330
A
100
AcDbEntity
  8
04
100
AcDbLine
 10
225.2036378431486
 20
416.7895455060426
 30
0.0
 11
224.3001153239199
 21
415.2245947189588
 31
0.0
  0
LINE
  5
3178
330
A
100
AcDbEntity
  8
04
100
AcDbLine
 10
225.2036549432922
 20
397.15964550605
 30
0.0
 11
224.3001296975215
 21
398.7245947189651
 31
0.0
  0
LINE
  5
3179
330
A
100
AcDbEntity
  8
04
100
AcDbLine
 10
229.3000491870523
 20
416.7895490745386
 30
0.0
 11
225.2036378431486
 21
416.7895455060426
 31
0.0
  0
LINE
  5
317A
330
A
100
AcDbEntity
  8
04
100
AcDbLine
 10
229.3000682804219
 20
397.159649074548
 30
0.0
 11
225.2036549432922
 21
397.15964550605
 31
0.0
  0
LINE
  5
317C
330
A
100
AcDbEntity
  8
04
100
AcDbLine
 10
257.8000043338352
 20
359.4739379375332
 30
0.0
 11
262.3001817660317
 21
359.4739379375333
 31
0.0
  0
LINE
  5
318A
330
A
100
AcDbEntity
  8
04
100
AcDbLine
 10
268.1002186966455
 20
364.5742579491458
 30
0.0
 11
268.100143483581
 21
372.3742466209829
 31
0.0
  0
LINE
  5
318B
330
A
100
AcDbEntity
  8
04
100
AcDbLine
 10
267.6852253891664
 20
363.8554370134183
 30
0.0
 11
268.100216966147
 21
364.5741872515245
 31
0.0
  0
LINE
  5
318C
330
A
100
AcDbEntity
  8
04
100
AcDbLine
 10
267.6851367562101
 20
373.092980644501
 30
0.0
 11
268.1001457396878
 21
372.3742125260469
 31
0.0
  0
LINE
  5
318D
330
A
100
AcDbEntity
  8
04
100
AcDbLine
 10
264.6002246554463
 20
363.8553875878087
 30
0.0
 11
267.6852289358068
 21
363.8554009392536
 31
0.0
  0
LINE
  5
318E
330
A
100
AcDbEntity
  8
04
100
AcDbLine
 10
264.6001370668851
 20
373.0929974516147
 30
0.0
 11
267.6851378311238
 21
373.0930279691483
 31
0.0
  0
LINE
  5
3191
330
A
100
AcDbEntity
  8
04
100
AcDbLine
 10
263.3002287133125
 20
363.4741708759001
 30
0.0
 11
262.3002295083541
 21
363.4741665549806
 31
0.0
  0
LINE
  5
3192
330
A
100
AcDbEntity
  8
04
100
AcDbLine
 10
263.3001329789322
 20
373.4741910825827
 30
0.0
 11
262.3001325192295
 21
373.4741453061668
 31
0.0
  0
LINE
  5
3196
330
A
100
AcDbEntity
  8
04
100
AcDbLine
 10
264.6002253103393
 20
363.874168197213
 30
0.0
 11
263.3002262184798
 21
363.8741710582468
 31
0.0
  0
LINE
  5
3197
330
A
100
AcDbEntity
  8
04
100
AcDbLine
 10
264.6001363916469
 20
373.0741908139498
 30
0.0
 11
263.3001399677028
 21
373.0741908139746
 31
0.0
  0
LINE
  5
3199
330
A
100
AcDbEntity
  8
04
100
AcDbLine
 10
262.3001738935067
 20
377.4740732553496
 30
0.0
 11
257.8001802320855
 21
377.4741503092061
 31
0.0
  0
LINE
  5
31A8
330
A
100
AcDbEntity
  8
04
100
AcDbLine
 10
257.8000043148981
 20
392.9746213948732
 30
0.0
 11
262.3005531249508
 21
392.9746213948732
 31
0.0
  0
LINE
  5
31A9
330
A
100
AcDbEntity
  8
04
100
AcDbLine
 10
257.8000043148981
 20
424.9746213948732
 30
0.0
 11
262.3004428165117
 21
424.9746213948732
 31
0.0
  0
LINE
  5
31AD
330
A
100
AcDbEntity
  8
04
100
AcDbLine
 10
234.1014837802604
 20
384.2334256730396
 30
0.0
 11
233.2283345887379
 21
380.9747831437066
 31
0.0
  0
ARC
  5
31B0
330
A
100
AcDbEntity
  8
04
100
AcDbCircle
 10
235.0672881807498
 20
383.974607026917
 30
0.0
 40
1.0
100
AcDbArc
 50
90.0
 51
165.0000923154081
  0
ARC
  5
31B1
330
A
100
AcDbEntity
  8
04
100
AcDbCircle
 10
245.5328353079778
 20
383.974607026917
 30
0.0
 40
1.0
100
AcDbArc
 50
14.99997633373467
 51
90.0
  0
LINE
  5
31B2
330
A
100
AcDbEntity
  8
04
100
AcDbLine
 10
246.498761241173
 20
384.2334256730396
 30
0.0
 11
247.3719104326955
 21
380.9747831437066
 31
0.0
  0
ARC
  5
31B3
330
A
100
AcDbEntity
  8
04
100
AcDbCircle
 10
235.067247684333
 20
429.9746118609048
 30
0.0
 40
1.0
100
AcDbArc
 50
195.0000000000011
 51
270.0
  0
LINE
  5
31B4
330
A
100
AcDbEntity
  8
04
100
AcDbLine
 10
233.2281302901034
 20
432.9745881120977
 30
0.0
 11
234.1013218580441
 21
429.7157928158021
 31
0.0
  0
ARC
  5
31B5
330
A
100
AcDbEntity
  8
04
100
AcDbCircle
 10
245.5327939482264
 20
429.9746118609048
 30
0.0
 40
1.0
100
AcDbArc
 50
270.0
 51
345.0001159816743
  0
LINE
  5
31B6
330
A
100
AcDbEntity
  8
04
100
AcDbLine
 10
246.4987202984312
 20
429.7157947710898
 30
0.0
 11
247.3719104326955
 21
432.974611103611
 31
0.0
  0
LINE
  5
31B7
330
A
100
AcDbEntity
  8
04
100
AcDbLine
 10
245.5327939482264
 20
428.9746118609047
 30
0.0
 11
235.067247684333
 21
428.9746118609047
 31
0.0
  0
LINE
  5
31B8
330
A
100
AcDbEntity
  8
04
100
AcDbLine
 10
235.0672881807498
 20
384.9746070269171
 30
0.0
 11
245.5328353079778
 21
384.974607026917
 31
0.0
  0
LINE
  5
31B9
330
A
100
AcDbEntity
  8
04
100
AcDbLine
 10
251.3000495261795
 20
396.9746158884883
 30
0.0
 11
252.8000045040382
 21
396.9746203192863
 31
0.0
  0
LINE
  5
31BA
330
A
100
AcDbEntity
  8
04
100
AcDbLine
 10
251.3000495261795
 20
416.9746158884881
 30
0.0
 11
252.8000045040382
 21
416.9746203192863
 31
0.0
  0
LINE
  5
31BB
330
A
100
AcDbEntity
  8
04
100
AcDbLine
 10
247.3719104326955
 20
432.9746111036108
 30
0.0
 11
251.3002122853924
 21
432.9746172968001
 31
0.0
  0
LINE
  5
31BC
330
A
100
AcDbEntity
  8
04
100
AcDbLine
 10
229.3000431854273
 20
432.9745834959005
 30
0.0
 11
233.2281302901036
 21
432.9745881120981
 31
0.0
  0
LINE
  5
31BD
330
A
100
AcDbEntity
  8
04
100
AcDbLine
 10
247.3719543398332
 20
380.9746192797673
 30
0.0
 11
251.3000264813276
 21
380.9746192797671
 31
0.0
  0
LINE
  5
31BE
330
A
100
AcDbEntity
  8
04
100
AcDbLine
 10
262.300455794579
 20
420.9744352018533
 30
0.0
 11
264.8004392791341
 21
420.9744352018533
 31
0.0
  0
LINE
  5
31BF
330
A
100
AcDbEntity
  8
04
100
AcDbLine
 10
262.3005466367656
 20
392.9744519656321
 30
0.0
 11
264.8004767033421
 21
392.9744574150427
 31
0.0
  0
LINE
  5
31C5
330
A
100
AcDbEntity
  8
04
100
AcDbLine
 10
272.3004578164946
 20
400.6744467267028
 30
0.0
 11
272.3004558198529
 21
413.2744325542963
 31
0.0
  0
LINE
  5
31C6
330
A
100
AcDbEntity
  8
04
100
AcDbLine
 10
271.6044265497
 20
399.4688963002902
 30
0.0
 11
272.3004582604545
 21
400.674446726752
 31
0.0
  0
LINE
  5
31C7
330
A
100
AcDbEntity
  8
04
100
AcDbLine
 10
271.6043844468093
 20
414.4800109198003
 30
0.0
 11
272.3005105796846
 21
413.2744599879077
 31
0.0
  0
LINE
  5
31C8
330
A
100
AcDbEntity
  8
04
100
AcDbLine
 10
266.8004584566434
 20
399.4688775395353
 30
0.0
 11
271.6044308881029
 21
399.4688775394548
 31
0.0
  0
LINE
  5
31C9
330
A
100
AcDbEntity
  8
04
100
AcDbLine
 10
266.8004546782764
 20
414.4799909393041
 30
0.0
 11
271.6044237620585
 21
414.4799909393062
 31
0.0
  0
LINE
  5
31CC
330
A
100
AcDbEntity
  8
04
100
AcDbLine
 10
266.8004534722168
 20
399.2744491088658
 30
0.0
 11
264.8004562610303
 21
399.2744295328748
 31
0.0
  0
LINE
  5
31CD
330
A
100
AcDbEntity
  8
04
100
AcDbLine
 10
266.8004560826369
 20
414.6744534726049
 30
0.0
 11
264.8004079984163
 21
414.6744534725055
 31
0.0
  0
LINE
  5
31D0
330
A
100
AcDbEntity
  8
04
100
AcDbLine
 10
262.3004428165117
 20
424.9746213948732
 30
0.0
 11
262.3004557945789
 21
420.9744352018533
 31
0.0
  0
LINE
  5
31D1
330
A
100
AcDbEntity
  8
04
100
AcDbLine
 10
251.3002122853924
 20
432.9746172968001
 30
0.0
 11
251.3000264813276
 21
380.9746192797671
 31
0.0
  0
LINE
  5
31D2
330
A
100
AcDbEntity
  8
04
100
AcDbLine
 10
229.3000840230777
 20
380.9746192796901
 30
0.0
 11
233.2281733337735
 21
380.9746192797575
 31
0.0
  0
LINE
  5
31D3
330
A
100
AcDbEntity
  8
04
100
AcDbLine
 10
229.3000840230777
 20
380.9746192796901
 30
0.0
 11
229.3000334444488
 21
432.9745253023125
 31
0.0
  0
DIMENSION
  5
323E
330
A
100
AcDbEntity
  8
SUNPOU
100
AcDbDimension
  2
*D17
 10
105.1518994186829
 20
412.9745998879008
 30
0.0
 11
100.6518994186829
 21
379.9745998879008
 31
0.0
 70
    32
  3
SUNPOU_2
100
AcDbAlignedDimension
 13
171.414143625319
 23
346.9745998879008
 33
0.0
 14
170.9795453574334
 24
412.9745998879008
 34
0.0
 50
90.0
100
AcDbRotatedDimension
  0
DIMENSION
  5
324B
330
A
100
AcDbEntity
  8
SUNPOU
100
AcDbDimension
  2
*D18
 10
105.1518994186829
 20
487.9749888795748
 30
0.0
 11
100.6518994186829
 21
450.4747943837378
 31
0.0
 70
    32
  3
SUNPOU_2
100
AcDbAlignedDimension
 13
170.9795453574334
 23
412.9745998879008
 33
0.0
 14
168.4046043951875
 24
487.9749888795746
 34
0.0
 50
90.0
100
AcDbRotatedDimension
  0
DIMENSION
  5
3258
330
A
100
AcDbEntity
  8
SUNPOU
100
AcDbDimension
  2
*D19
 10
105.1518994186829
 20
507.9745023169886
 30
0.0
 11
100.6518994186829
 21
497.9747455982816
 31
0.0
 70
    32
  3
SUNPOU_2
100
AcDbAlignedDimension
 13
168.4046043951875
 23
487.9749888795746
 33
0.0
 14
186.0499816836138
 24
507.9745023169886
 34
0.0
 50
90.0
100
AcDbRotatedDimension
  0
POLYLINE
  5
3271
330
A
100
AcDbEntity
  8
02
100
AcDb2dPolyline
 66
     1
 10
0.0
 20
0.0
 30
0.0
 70
   128
  0
VERTEX
  5
507E
330
3271
100
AcDbEntity
  8
02
100
AcDbVertex
100
AcDb2dVertex
 10
185.3003989388748
 20
379.9745949902622
 30
0.0
  0
VERTEX
  5
507F
330
3271
100
AcDbEntity
  8
02
100
AcDbVertex
100
AcDb2dVertex
 10
185.3003989388748
 20
382.9744008674497
 30
0.0
 42
-0.4142135623730919
  0
VERTEX
  5
5080
330
3271
100
AcDbEntity
  8
02
100
AcDbVertex
100
AcDb2dVertex
 10
187.3003989388748
 20
384.9744008674497
 30
0.0
  0
VERTEX
  5
5081
330
3271
100
AcDbEntity
  8
02
100
AcDbVertex
100
AcDb2dVertex
 10
204.4556483264867
 20
384.9744008674497
 30
0.0
 42
-0.0838789836464598
  0
VERTEX
  5
5082
330
3271
100
AcDbEntity
  8
02
100
AcDbVertex
100
AcDb2dVertex
 10
205.1126811532999
 20
384.8633973906041
 30
0.0
  0
VERTEX
  5
5083
330
3271
100
AcDbEntity
  8
02
100
AcDbVertex
100
AcDb2dVertex
 10
219.3277598318539
 20
379.9190932518396
 30
0.0
 42
-0.8452244486478273
  0
VERTEX
  5
5084
330
3271
100
AcDbEntity
  8
02
100
AcDbVertex
100
AcDb2dVertex
 10
218.999243418447
 20
377.9745949902622
 30
0.0
  0
VERTEX
  5
5085
330
3271
100
AcDbEntity
  8
02
100
AcDbVertex
100
AcDb2dVertex
 10
187.3003989388748
 20
377.9745949902622
 30
0.0
 42
-0.414213562373094
  0
VERTEX
  5
5086
330
3271
100
AcDbEntity
  8
02
100
AcDbVertex
100
AcDb2dVertex
 10
185.3003989388748
 20
379.9745949902622
 30
0.0
 42
-1.000000000000001
  0
SEQEND
  5
5087
330
3271
100
AcDbEntity
  8
02
  0
POLYLINE
  5
3272
330
A
100
AcDbEntity
  8
02
100
AcDb2dPolyline
 66
     1
 10
0.0
 20
0.0
 30
0.0
 70
   129
  0
VERTEX
  5
5088
330
3272
100
AcDbEntity
  8
02
100
AcDbVertex
100
AcDb2dVertex
 10
215.2983130898756
 20
371.9746388119641
 30
0.0
  0
VERTEX
  5
5089
330
3272
100
AcDbEntity
  8
02
100
AcDbVertex
100
AcDb2dVertex
 10
212.2983130898755
 20
371.9746308567497
 30
0.0
  0
VERTEX
  5
508A
330
3272
100
AcDbEntity
  8
02
100
AcDbVertex
100
AcDb2dVertex
 10
212.7983130898754
 20
374.4745949902622
 30
0.0
  0
VERTEX
  5
508B
330
3272
100
AcDbEntity
  8
02
100
AcDbVertex
100
AcDb2dVertex
 10
191.7983134997789
 20
374.4745949902622
 30
0.0
  0
VERTEX
  5
508C
330
3272
100
AcDbEntity
  8
02
100
AcDbVertex
100
AcDb2dVertex
 10
192.2983134997789
 20
371.9745945309921
 30
0.0
  0
VERTEX
  5
508D
330
3272
100
AcDbEntity
  8
02
100
AcDbVertex
100
AcDb2dVertex
 10
181.2999982494478
 20
371.9746137841153
 30
0.0
 42
-0.4142130496483616
  0
VERTEX
  5
508E
330
3272
100
AcDbEntity
  8
02
100
AcDbVertex
100
AcDb2dVertex
 10
180.3
 20
372.9746137841138
 30
0.0
  0
VERTEX
  5
508F
330
3272
100
AcDbEntity
  8
02
100
AcDbVertex
100
AcDb2dVertex
 10
180.3
 20
505.9744487859075
 30
0.0
 42
-0.4142093813372651
  0
VERTEX
  5
5090
330
3272
100
AcDbEntity
  8
02
100
AcDbVertex
100
AcDb2dVertex
 10
182.2999714500593
 20
507.9744487857038
 30
0.0
  0
VERTEX
  5
5091
330
3272
100
AcDbEntity
  8
02
100
AcDbVertex
100
AcDb2dVertex
 10
189.7999919171683
 20
507.9745558482733
 30
0.0
 42
-0.4142177434212741
  0
VERTEX
  5
5092
330
3272
100
AcDbEntity
  8
02
100
AcDbVertex
100
AcDb2dVertex
 10
190.8000061921384
 20
506.974555848375
 30
0.0
  0
VERTEX
  5
5093
330
3272
100
AcDbEntity
  8
02
100
AcDbVertex
100
AcDb2dVertex
 10
190.800006192139
 20
504.9746037438867
 30
0.0
  0
VERTEX
  5
5094
330
3272
100
AcDbEntity
  8
02
100
AcDbVertex
100
AcDb2dVertex
 10
189.8001362084695
 20
502.9747518111649
 30
0.0
  0
VERTEX
  5
5095
330
3272
100
AcDbEntity
  8
02
100
AcDbVertex
100
AcDb2dVertex
 10
188.5001151229744
 20
502.9746155532479
 30
0.0
  0
VERTEX
  5
5096
330
3272
100
AcDbEntity
  8
02
100
AcDbVertex
100
AcDb2dVertex
 10
188.500214463086
 20
505.4749364129325
 30
0.0
  0
VERTEX
  5
5097
330
3272
100
AcDbEntity
  8
02
100
AcDbVertex
100
AcDb2dVertex
 10
184.3000064977608
 20
505.4749364129325
 30
0.0
  0
VERTEX
  5
5098
330
3272
100
AcDbEntity
  8
02
100
AcDbVertex
100
AcDb2dVertex
 10
184.3000738966642
 20
435.474596508776
 30
0.0
  0
VERTEX
  5
5099
330
3272
100
AcDbEntity
  8
02
100
AcDbVertex
100
AcDb2dVertex
 10
188.5001150824631
 20
435.4749425739941
 30
0.0
  0
VERTEX
  5
509A
330
3272
100
AcDbEntity
  8
02
100
AcDbVertex
100
AcDb2dVertex
 10
188.5001150827289
 20
437.9746085085433
 30
0.0
  0
VERTEX
  5
509B
330
3272
100
AcDbEntity
  8
02
100
AcDbVertex
100
AcDb2dVertex
 10
189.8001527002816
 20
437.9746085084049
 30
0.0
  0
VERTEX
  5
509C
330
3272
100
AcDbEntity
  8
02
100
AcDbVertex
100
AcDb2dVertex
 10
190.800098816094
 20
435.9748017563738
 30
0.0
  0
VERTEX
  5
509D
330
3272
100
AcDbEntity
  8
02
100
AcDbVertex
100
AcDb2dVertex
 10
190.8001378366078
 20
431.5746346505941
 30
0.0
  0
VERTEX
  5
509E
330
3272
100
AcDbEntity
  8
02
100
AcDbVertex
100
AcDb2dVertex
 10
188.4998996753112
 20
431.5746142521698
 30
0.0
  0
VERTEX
  5
509F
330
3272
100
AcDbEntity
  8
02
100
AcDbVertex
100
AcDb2dVertex
 10
188.499970947808
 20
433.0746050887498
 30
0.0
  0
VERTEX
  5
50A0
330
3272
100
AcDbEntity
  8
02
100
AcDbVertex
100
AcDb2dVertex
 10
184.2999552302129
 20
433.074597584394
 30
0.0
  0
VERTEX
  5
50A1
330
3272
100
AcDbEntity
  8
02
100
AcDbVertex
100
AcDb2dVertex
 10
184.2999698813646
 20
424.8746844297301
 30
0.0
  0
VERTEX
  5
50A2
330
3272
100
AcDbEntity
  8
02
100
AcDbVertex
100
AcDb2dVertex
 10
188.4999720587276
 20
424.874565722155
 30
0.0
  0
VERTEX
  5
50A3
330
3272
100
AcDbEntity
  8
02
100
AcDbVertex
100
AcDb2dVertex
 10
188.4999032496258
 20
426.3746398564983
 30
0.0
  0
VERTEX
  5
50A4
330
3272
100
AcDbEntity
  8
02
100
AcDbVertex
100
AcDb2dVertex
 10
190.7999707670713
 20
426.3744849441632
 30
0.0
  0
VERTEX
  5
50A5
330
3272
100
AcDbEntity
  8
02
100
AcDbVertex
100
AcDb2dVertex
 10
190.7999896313608
 20
422.9746632984308
 30
0.0
  0
VERTEX
  5
50A6
330
3272
100
AcDbEntity
  8
02
100
AcDbVertex
100
AcDb2dVertex
 10
185.3003154493116
 20
422.9746467750281
 30
0.0
  0
VERTEX
  5
50A7
330
3272
100
AcDbEntity
  8
02
100
AcDbVertex
100
AcDb2dVertex
 10
185.3003989388748
 20
388.9744008674497
 30
0.0
 42
0.4142121239414636
  0
VERTEX
  5
50A8
330
3272
100
AcDbEntity
  8
02
100
AcDbVertex
100
AcDb2dVertex
 10
186.3003989388748
 20
387.9744008674498
 30
0.0
  0
VERTEX
  5
50A9
330
3272
100
AcDbEntity
  8
02
100
AcDbVertex
100
AcDb2dVertex
 10
201.8003814381023
 20
387.9744008674498
 30
0.0
 42
0.4142135623731038
  0
VERTEX
  5
50AA
330
3272
100
AcDbEntity
  8
02
100
AcDbVertex
100
AcDb2dVertex
 10
202.8003814381023
 20
388.9744008674497
 30
0.0
  0
VERTEX
  5
50AB
330
3272
100
AcDbEntity
  8
02
100
AcDbVertex
100
AcDb2dVertex
 10
202.8003929469091
 20
401.9795808325064
 30
0.0
 42
-0.4128090538570965
  0
VERTEX
  5
50AC
330
3272
100
AcDbEntity
  8
02
100
AcDbVertex
100
AcDb2dVertex
 10
204.3003814381015
 20
402.9747831788147
 30
0.0
 42
-0.3028765106040755
  0
VERTEX
  5
50AD
330
3272
100
AcDbEntity
  8
02
100
AcDbVertex
100
AcDb2dVertex
 10
205.3003814381024
 20
401.9747831788146
 30
0.0
  0
VERTEX
  5
50AE
330
3272
100
AcDbEntity
  8
02
100
AcDbVertex
100
AcDb2dVertex
 10
205.3003814381024
 20
389.3962850866372
 30
0.0
 42
0.3192428644620878
  0
VERTEX
  5
50AF
330
3272
100
AcDbEntity
  8
02
100
AcDbVertex
100
AcDb2dVertex
 10
206.6433486112889
 20
387.5072885634827
 30
0.0
  0
VERTEX
  5
50B0
330
3272
100
AcDbEntity
  8
02
100
AcDbVertex
100
AcDb2dVertex
 10
228.3000840230775
 20
379.97461927969
 30
0.0
  0
VERTEX
  5
50B1
330
3272
100
AcDbEntity
  8
02
100
AcDbVertex
100
AcDb2dVertex
 10
233.554947754229
 20
379.97461927969
 30
0.0
 42
0.4400105308918353
  0
VERTEX
  5
50B2
330
3272
100
AcDbEntity
  8
02
100
AcDbVertex
100
AcDb2dVertex
 10
234.5511424523206
 20
381.0617750224378
 30
0.0
  0
VERTEX
  5
50B3
330
3272
100
AcDbEntity
  8
02
100
AcDbVertex
100
AcDb2dVertex
 10
234.3039278126247
 20
383.8874512841694
 30
0.0
 42
-0.4400105308918327
  0
VERTEX
  5
50B4
330
3272
100
AcDbEntity
  8
02
100
AcDbVertex
100
AcDb2dVertex
 10
235.3001225107167
 20
384.974607026917
 30
0.0
  0
VERTEX
  5
50B5
330
3272
100
AcDbEntity
  8
02
100
AcDbVertex
100
AcDb2dVertex
 10
245.3001225442712
 20
384.974607026917
 30
0.0
 42
-0.4400105308918383
  0
VERTEX
  5
50B6
330
3272
100
AcDbEntity
  8
02
100
AcDbVertex
100
AcDb2dVertex
 10
246.2963172423628
 20
383.8874512841694
 30
0.0
  0
VERTEX
  5
50B7
330
3272
100
AcDbEntity
  8
02
100
AcDbVertex
100
AcDb2dVertex
 10
246.0814081532737
 20
381.4310291555432
 30
0.0
 42
-0.3888787318529949
  0
VERTEX
  5
50B8
330
3272
100
AcDbEntity
  8
02
100
AcDbVertex
100
AcDb2dVertex
 10
245.5833108042281
 20
380.974607026917
 30
0.0
  0
VERTEX
  5
50B9
330
3272
100
AcDbEntity
  8
02
100
AcDbVertex
100
AcDb2dVertex
 10
241.3001225107168
 20
380.974607026917
 30
0.0
  0
VERTEX
  5
50BA
330
3272
100
AcDbEntity
  8
02
100
AcDbVertex
100
AcDb2dVertex
 10
241.3001225107168
 20
377.474607026917
 30
0.0
  0
VERTEX
  5
50BB
330
3272
100
AcDbEntity
  8
02
100
AcDbVertex
100
AcDb2dVertex
 10
245.1896118183614
 20
377.474607026917
 30
0.0
 42
-0.4400105308918327
  0
VERTEX
  5
50BC
330
3272
100
AcDbEntity
  8
02
100
AcDbVertex
100
AcDb2dVertex
 10
245.6877091674071
 20
376.9310291555432
 30
0.0
  0
VERTEX
  5
50BD
330
3272
100
AcDbEntity
  8
02
100
AcDbVertex
100
AcDb2dVertex
 10
245.552648903202
 20
375.3872832716528
 30
0.0
 42
-0.3888804207327501
  0
VERTEX
  5
50BE
330
3272
100
AcDbEntity
  8
02
100
AcDbVertex
100
AcDb2dVertex
 10
244.5564483370084
 20
374.4744390144177
 30
0.0
  0
VERTEX
  5
50BF
330
3272
100
AcDbEntity
  8
02
100
AcDbVertex
100
AcDb2dVertex
 10
215.2983130898756
 20
374.4746107041326
 30
0.0
  0
SEQEND
  5
50C0
330
3272
100
AcDbEntity
  8
02
  0
LINE
  5
3273
330
A
100
AcDbEntity
  8
02
100
AcDbLine
 10
188.5001150824631
 20
505.4749425739943
 30
0.0
 11
188.5001150824631
 21
435.4749425739941
 31
0.0
  0
POLYLINE
  5
3274
330
A
100
AcDbEntity
  8
02
100
AcDb2dPolyline
 66
     1
 10
0.0
 20
0.0
 30
0.0
 70
   129
  0
VERTEX
  5
50C1
330
3274
100
AcDbEntity
  8
02
100
AcDbVertex
100
AcDb2dVertex
 10
185.3004055806929
 20
392.9751961472323
 30
0.0
  0
VERTEX
  5
50C2
330
3274
100
AcDbEntity
  8
02
100
AcDbVertex
100
AcDb2dVertex
 10
185.3003785165819
 20
401.9832418387097
 30
0.0
 42
-0.4165710481618944
  0
VERTEX
  5
50C3
330
3274
100
AcDbEntity
  8
02
100
AcDbVertex
100
AcDb2dVertex
 10
186.3003366083425
 20
402.9751961472858
 30
0.0
  0
VERTEX
  5
50C4
330
3274
100
AcDbEntity
  8
02
100
AcDbVertex
100
AcDb2dVertex
 10
201.8004166440324
 20
402.9751961472323
 30
0.0
 42
-0.4143448108976676
  0
VERTEX
  5
50C5
330
3274
100
AcDbEntity
  8
02
100
AcDbVertex
100
AcDb2dVertex
 10
202.8003814381023
 20
401.9747831788142
 30
0.0
  0
VERTEX
  5
50C6
330
3274
100
AcDbEntity
  8
02
100
AcDbVertex
100
AcDb2dVertex
 10
202.8004025596878
 20
392.9751961472323
 30
0.0
  0
VERTEX
  5
50C7
330
3274
100
AcDbEntity
  8
02
100
AcDbVertex
100
AcDb2dVertex
 10
201.80031508414
 20
392.9751961472323
 30
0.0
  0
VERTEX
  5
50C8
330
3274
100
AcDbEntity
  8
02
100
AcDbVertex
100
AcDb2dVertex
 10
201.80031508414
 20
401.4750385654457
 30
0.0
 42
0.4142046471114666
  0
VERTEX
  5
50C9
330
3274
100
AcDbEntity
  8
02
100
AcDbVertex
100
AcDb2dVertex
 10
201.3003303034916
 20
401.9750385652137
 30
0.0
  0
VERTEX
  5
50CA
330
3274
100
AcDbEntity
  8
02
100
AcDbVertex
100
AcDb2dVertex
 10
186.800418405679
 20
401.9750385652137
 30
0.0
 42
0.4142224776909393
  0
VERTEX
  5
50CB
330
3274
100
AcDbEntity
  8
02
100
AcDbVertex
100
AcDb2dVertex
 10
186.3004336250305
 20
401.4750385654456
 30
0.0
  0
VERTEX
  5
50CC
330
3274
100
AcDbEntity
  8
02
100
AcDbVertex
100
AcDb2dVertex
 10
186.3004336250305
 20
392.9751961472323
 30
0.0
  0
SEQEND
  5
50CD
330
3274
100
AcDbEntity
  8
02
  0
LINE
  5
3275
330
A
100
AcDbEntity
  8
04
100
AcDbLine
 10
257.8000043148985
 20
392.9746213948732
 30
0.0
 11
257.7997388987299
 21
377.4741503167631
 31
0.0
  0
LINE
  5
3278
330
A
100
AcDbEntity
  8
04
100
AcDbLine
 10
252.8000039113845
 20
372.974392893571
 30
0.0
 11
252.800004495582
 21
427.9746177309051
 31
0.0
  0
LINE
  5
3290
330
A
100
AcDbEntity
  8
04
100
AcDbLine
 10
252.8000039113845
 20
372.974392893571
 30
0.0
 11
252.8013504833263
 21
285.9430931907975
 31
0.0
  0
LINE
  5
3291
330
A
100
AcDbEntity
  8
04
100
AcDbLine
 10
257.8013146191072
 20
286.1216928658356
 30
0.0
 11
257.7997388987299
 21
377.4741503167631
 31
0.0
  0
ARC
  5
3294
330
A
100
AcDbEntity
  8
KAKURE
100
AcDbCircle
 10
249.8013504833263
 20
280.0283376447785
 30
0.0
 40
2.999999999999976
100
AcDbArc
 50
269.9999518497288
 51
359.9999988181566
  0
LINE
  5
3296
330
A
100
AcDbEntity
  8
04
100
AcDbLine
 10
257.8000043338352
 20
359.4739379375332
 30
0.0
 11
257.8
 21
355.9746807378471
 31
0.0
  0
LINE
  5
3298
330
A
100
AcDbEntity
  8
04
100
AcDbLine
 10
257.8000043338352
 20
359.4739379375332
 30
0.0
 11
257.8000043338352
 21
360.974645499375
 31
0.0
  0
LINE
  5
32BC
330
A
100
AcDbEntity
  8
04
100
AcDbLine
 10
257.8012564096018
 20
286.1216928658356
 30
0.0
 11
257.8003132358718
 21
427.9746177322691
 31
0.0
  0
LINE
  5
32BF
330
A
100
AcDbEntity
  8
04
100
AcDbLine
 10
252.8000091562458
 20
427.9746177309053
 30
0.0
 11
257.80000430917
 21
427.9746177322691
 31
0.0
  0
LINE
  5
32F4
330
A
100
AcDbEntity
  8
06
100
AcDbLine
 10
186.8
 20
268.0324118759409
 30
0.0
 11
186.8
 21
190.5991052595164
 31
0.0
  0
LINE
  5
3304
330
A
100
AcDbEntity
  8
CHUSIN
100
AcDbLine
 10
259.2999999999999
 20
130.8754630255507
 30
0.0
 11
259.2999999999999
 21
288.1730322071855
 31
0.0
  0
LINE
  5
3355
330
A
100
AcDbEntity
  8
06
100
AcDbLine
 10
231.8
 20
268.0324118759409
 30
0.0
 11
231.8
 21
190.5991052595164
 31
0.0
  0
DIMENSION
  5
33AE
330
A
100
AcDbEntity
  8
SUNPOU
100
AcDbDimension
  2
*D20
 10
231.8
 20
241.7848041893106
 30
0.0
 11
216.3788865451791
 21
246.2848041893106
 31
0.0
 70
   160
  3
SUNPOU_2
100
AcDbAlignedDimension
 13
186.8
 23
241.7848041893106
 33
0.0
 14
231.8
 24
241.7848041893106
 34
0.0
100
AcDbRotatedDimension
  0
LINE
  5
33C6
330
A
100
AcDbEntity
  8
06
100
AcDbLine
 10
236.8
 20
268.0324118759409
 30
0.0
 11
236.8
 21
190.5991052595164
 31
0.0
  0
LINE
  5
33F4
330
A
100
AcDbEntity
  8
06
100
AcDbLine
 10
281.8000000000001
 20
268.0324118759409
 30
0.0
 11
281.8000000000001
 21
190.5991052595164
 31
0.0
  0
DIMENSION
  5
3411
330
A
100
AcDbEntity
  8
SUNPOU
100
AcDbDimension
  2
*D21
 10
286.8
 20
241.7848041893106
 30
0.0
 11
284.5275199053721
 21
246.1741199567204
 31
0.0
 70
   160
  3
SUNPOU_2
100
AcDbAlignedDimension
 13
281.8000000000001
 23
241.7848041893106
 33
0.0
 14
286.8
 24
258.7663352261515
 34
0.0
100
AcDbRotatedDimension
  0
LINE
  5
345B
330
A
100
AcDbEntity
  8
06
100
AcDbLine
 10
186.8
 20
268.0324118759409
 30
0.0
 11
231.8
 21
268.0324118759409
 31
0.0
  0
LINE
  5
346D
330
A
100
AcDbEntity
  8
06
100
AcDbLine
 10
223.3
 20
272.5324118759409
 30
0.0
 11
223.3
 21
268.0324118759409
 31
0.0
  0
LINE
  5
346E
330
A
100
AcDbEntity
  8
06
100
AcDbLine
 10
195.3
 20
268.0324118759409
 30
0.0
 11
195.3
 21
272.5324118759409
 31
0.0
  0
LINE
  5
346F
330
A
100
AcDbEntity
  8
06
100
AcDbLine
 10
223.3
 20
268.0324118759409
 30
0.0
 11
195.3
 21
268.0324118759409
 31
0.0
  0
LINE
  5
3470
330
A
100
AcDbEntity
  8
06
100
AcDbLine
 10
195.3
 20
272.5324118759409
 30
0.0
 11
223.3
 21
272.5324118759409
 31
0.0
  0
LINE
  5
3479
330
A
100
AcDbEntity
  8
03
100
AcDbLine
 10
181.7999999999999
 20
221.7663352261518
 30
0.0
 11
181.7999999999999
 21
258.7663352261515
 31
0.0
  0
LINE
  5
3483
330
A
100
AcDbEntity
  8
06
100
AcDbLine
 10
231.8
 20
187.5991052595166
 30
0.0
 11
231.8
 21
159.9434115594851
 31
0.0
  0
LINE
  5
3484
330
A
100
AcDbEntity
  8
06
100
AcDbLine
 10
236.8
 20
187.5991052595166
 30
0.0
 11
236.8
 21
159.9434115594851
 31
0.0
  0
LINE
  5
3485
330
A
100
AcDbEntity
  8
06
100
AcDbLine
 10
281.8000000000001
 20
187.5991052595166
 30
0.0
 11
281.8000000000001
 21
159.9434115594851
 31
0.0
  0
LINE
  5
3486
330
A
100
AcDbEntity
  8
06
100
AcDbLine
 10
186.8
 20
187.5991052595166
 30
0.0
 11
186.8
 21
159.9434115594851
 31
0.0
  0
DIMENSION
  5
365C
330
A
100
AcDbEntity
  8
SUNPOU
100
AcDbDimension
  2
*D22
 10
217.8
 20
114.393729598489
 30
0.0
 11
209.2999999999999
 21
118.893729598489
 31
0.0
 70
    32
  3
SUNPOU_2
100
AcDbAlignedDimension
 13
200.8
 23
127.943411559485
 33
0.0
 14
217.8
 24
127.943411559485
 34
0.0
100
AcDbRotatedDimension
  0
LINE
  5
365E
330
A
100
AcDbEntity
  8
03
100
AcDbLine
 10
183.2999999999999
 20
140.0034803796202
 30
0.0
 11
185.5999999999999
 21
137.7034803796204
 31
0.0
  0
LINE
  5
365F
330
A
100
AcDbEntity
  8
03
100
AcDbLine
 10
191.0820311638658
 20
126.4434115594852
 30
0.0
 11
193.382031163866
 21
124.1434115594852
 31
0.0
  0
LINE
  5
3660
330
A
100
AcDbEntity
  8
03
100
AcDbLine
 10
213.1008953580808
 20
126.4434115594849
 30
0.0
 11
215.400895358081
 21
124.1434115594852
 31
0.0
  0
LINE
  5
3661
330
A
100
AcDbEntity
  8
03
100
AcDbLine
 10
183.2999999999999
 20
138.0034803796202
 30
0.0
 11
185.5999999999999
 21
135.7034803796204
 31
0.0
  0
LINE
  5
3663
330
A
100
AcDbEntity
  8
03
100
AcDbLine
 10
215.1008953580809
 20
126.4434115594849
 30
0.0
 11
217.400895358081
 21
124.1434115594852
 31
0.0
  0
LINE
  5
3667
330
A
100
AcDbEntity
  8
03
100
AcDbLine
 10
181.7999999999999
 20
147.1329989288101
 30
0.0
 11
183.2999999999999
 21
145.6329989288103
 31
0.0
  0
LINE
  5
3668
330
A
100
AcDbEntity
  8
03
100
AcDbLine
 10
199.3
 20
140.4282039012349
 30
0.0
 11
200.8
 21
138.9282039012349
 31
0.0
  0
LINE
  5
3669
330
A
100
AcDbEntity
  8
03
100
AcDbLine
 10
217.8
 20
140.5984218261362
 30
0.0
 11
219.3
 21
139.0984218261362
 31
0.0
  0
LINE
  5
366A
330
A
100
AcDbEntity
  8
03
100
AcDbLine
 10
205.9615702297791
 20
127.943411559485
 30
0.0
 11
207.461570229779
 21
126.4434115594849
 31
0.0
  0
LINE
  5
366B
330
A
100
AcDbEntity
  8
03
100
AcDbLine
 10
191.9112934819819
 20
152.9434115594851
 30
0.0
 11
193.411293481982
 21
151.4434115594851
 31
0.0
  0
LINE
  5
366C
330
A
100
AcDbEntity
  8
03
100
AcDbLine
 10
221.5679741000204
 20
152.9434115594848
 30
0.0
 11
223.0679741000205
 21
151.4434115594849
 31
0.0
  0
LINE
  5
366D
330
A
100
AcDbEntity
  8
03
100
AcDbLine
 10
185.5999999999999
 20
151.4434115594851
 30
0.0
 11
185.5999999999998
 21
126.4434115594849
 31
0.0
  0
ARC
  5
3670
330
A
100
AcDbEntity
  8
03
100
AcDbCircle
 10
184.2999999999999
 20
125.1434115594852
 30
0.0
 40
1.0
100
AcDbArc
 50
180.0
 51
270.0
  0
LINE
  5
3671
330
A
100
AcDbEntity
  8
03
100
AcDbLine
 10
275.7999999999999
 20
124.1434115594852
 30
0.0
 11
184.2999999999999
 21
124.1434115594852
 31
0.0
  0
LINE
  5
3672
330
A
100
AcDbEntity
  8
03
100
AcDbLine
 10
199.2999999999999
 20
151.4434115594851
 30
0.0
 11
183.2999999999999
 21
151.4434115594851
 31
0.0
  0
LINE
  5
3674
330
A
100
AcDbEntity
  8
03
100
AcDbLine
 10
183.2999999999999
 20
142.9434115594851
 30
0.0
 11
181.7999999999999
 21
142.9434115594851
 31
0.0
  0
ARC
  5
3676
330
A
100
AcDbEntity
  8
03
100
AcDbCircle
 10
218.5499999999999
 20
127.1934115594852
 30
0.0
 40
0.75
100
AcDbArc
 50
270.0
 51
0.0
  0
LINE
  5
3677
330
A
100
AcDbEntity
  8
03
100
AcDbLine
 10
219.3
 20
151.4434115594851
 30
0.0
 11
219.2999999999999
 21
127.1934115594852
 31
0.0
  0
ARC
  5
3678
330
A
100
AcDbEntity
  8
03
100
AcDbCircle
 10
200.0499999999999
 20
127.193411559485
 30
0.0
 40
0.75
100
AcDbArc
 50
180.0
 51
270.0
  0
LINE
  5
3679
330
A
100
AcDbEntity
  8
03
100
AcDbLine
 10
199.2999999999999
 20
151.4434115594851
 30
0.0
 11
199.2999999999999
 21
127.193411559485
 31
0.0
  0
LINE
  5
367A
330
A
100
AcDbEntity
  8
03
100
AcDbLine
 10
183.2999999999999
 20
151.4434115594851
 30
0.0
 11
183.2999999999999
 21
125.1434115594852
 31
0.0
  0
LINE
  5
367C
330
A
100
AcDbEntity
  8
03
100
AcDbLine
 10
274.4999999999999
 20
126.4434115594849
 30
0.0
 11
185.5999999999998
 21
126.4434115594849
 31
0.0
  0
LINE
  5
367D
330
A
100
AcDbEntity
  8
03
100
AcDbLine
 10
217.8
 20
127.943411559485
 30
0.0
 11
200.8
 21
127.943411559485
 31
0.0
  0
ARC
  5
367E
330
A
100
AcDbEntity
  8
03
100
AcDbCircle
 10
182.5499999999999
 20
152.1934115594849
 30
0.0
 40
0.75
100
AcDbArc
 50
90.0
 51
180.0
  0
ARC
  5
367F
330
A
100
AcDbEntity
  8
03
100
AcDbCircle
 10
200.05
 20
152.1934115594849
 30
0.0
 40
0.75
100
AcDbArc
 50
0.0
 51
90.0
  0
LINE
  5
3680
330
A
100
AcDbEntity
  8
03
100
AcDbLine
 10
200.05
 20
152.9434115594851
 30
0.0
 11
182.5499999999999
 21
152.9434115594851
 31
0.0
  0
ARC
  5
3682
330
A
100
AcDbEntity
  8
03
100
AcDbCircle
 10
218.55
 20
152.1934115594849
 30
0.0
 40
0.75
100
AcDbArc
 50
89.99999999999836
 51
180.0
  0
LINE
  5
3684
330
A
100
AcDbEntity
  8
03
100
AcDbLine
 10
181.7999999999999
 20
152.1934115594849
 30
0.0
 11
181.7999999999999
 21
142.9434115594851
 31
0.0
  0
LINE
  5
3685
330
A
100
AcDbEntity
  8
03
100
AcDbLine
 10
200.8
 20
152.1934115594849
 30
0.0
 11
200.8
 21
127.943411559485
 31
0.0
  0
LINE
  5
3687
330
A
100
AcDbEntity
  8
03
100
AcDbLine
 10
217.8
 20
152.1934115594849
 30
0.0
 11
217.8
 21
127.943411559485
 31
0.0
  0
LINE
  5
3688
330
A
100
AcDbEntity
  8
06
100
AcDbLine
 10
201.7999999999999
 20
159.9434115594851
 30
0.0
 11
216.8
 21
159.9434115594851
 31
0.0
  0
LINE
  5
3689
330
A
100
AcDbEntity
  8
06
100
AcDbLine
 10
201.8
 20
134.9434115594851
 30
0.0
 11
216.8
 21
134.9434115594852
 31
0.0
  0
LINE
  5
368A
330
A
100
AcDbEntity
  8
06
100
AcDbLine
 10
201.7999999999999
 20
159.9434115594851
 30
0.0
 11
216.7999999999999
 21
134.9434115594852
 31
0.0
  0
LINE
  5
368B
330
A
100
AcDbEntity
  8
06
100
AcDbLine
 10
216.8
 20
159.9434115594851
 30
0.0
 11
201.8
 21
134.9434115594852
 31
0.0
  0
LINE
  5
368C
330
A
100
AcDbEntity
  8
06
100
AcDbLine
 10
216.8
 20
159.9434115594851
 30
0.0
 11
216.7999999999999
 21
134.9434115594852
 31
0.0
  0
LINE
  5
368D
330
A
100
AcDbEntity
  8
06
100
AcDbLine
 10
201.7999999999999
 20
159.9434115594851
 30
0.0
 11
201.8
 21
134.9434115594852
 31
0.0
  0
LINE
  5
368E
330
A
100
AcDbEntity
  8
06
100
AcDbLine
 10
186.8
 20
159.9434115594851
 30
0.0
 11
231.8
 21
159.9434115594851
 31
0.0
  0
MTEXT
  5
368F
102
{ACAD_REACTORS
330
3690
102
}
330
A
100
AcDbEntity
  8
HIKIDASI
100
AcDbMText
 10
291.9472366177688
 20
175.8336065176326
 30
0.0
 40
5.0
 41
0.0
 71
     7
 72
     1
  1
ステンレスガイドレール\P（サッシ工事）
  7
SUNPOU
1001
ACAD
1000
MTEXTBEGIN
1070
    73
1070
     1
1070
    44
1040
1.0
1070
    74
1070
     0
1000
MTEXTEND
1000
MTEXTBEGIN
1070
    73
1070
     1
1070
    44
1040
1.0
1070
    74
1070
     0
1000
MTEXTEND
  0
LEADER
  5
3690
330
A
100
AcDbEntity
  8
HIKIDASI
100
AcDbLeader
  3
SUNPOU_2
 73
     0
 74
     0
 75
     1
 40
13.33333333333333
 41
52.26666666666666
 76
     3
 10
271.6775201215678
 20
152.9434115594848
 30
0.0
 10
284.9472366177688
 20
182.2227979131164
 30
0.0
 10
289.9472366177688
 20
182.2227979131164
 30
0.0
213
0.0
223
8.389191395483692
233
0.0
1001
ACAD
1000
DSTYLE
1002
{
1070
     5
1000
OPEN30
1070
    77
1070
     1
1070
   147
1040
1.0
1070
   342
1005
943
1002
}
1000
LEANOF
1010
0.0
1020
8.389191395483692
1030
0.0
1000
LEANOF
1010
0.0
1020
8.389191395483692
1030
0.0
1000
LEANOF
1010
0.0
1020
8.389191395483692
1030
0.0
1000
LEANOF
1010
0.0
1020
8.389191395483692
1030
0.0
  0
DIMENSION
  5
3691
330
A
100
AcDbEntity
  8
SUNPOU
100
AcDbDimension
  2
*D23
 10
335.5979611733503
 20
159.9434115594851
 30
0.0
 11
331.0979611733502
 21
156.4434115594851
 31
0.0
 70
    32
  3
SUNPOU_2
100
AcDbAlignedDimension
 13
277.55
 23
152.9434115594848
 33
0.0
 14
281.8000000000001
 24
159.9434115594851
 34
0.0
 50
90.0
100
AcDbRotatedDimension
1001
ACAD
1000
DSTYLE
1002
{
1070
     6
1000
NONE
1070
     5
1000

1070
   173
1070
     1
1070
     7
1000
OPEN30
1002
}
  0
DIMENSION
  5
3692
330
A
100
AcDbEntity
  8
SUNPOU
100
AcDbDimension
  2
*D24
 10
335.5979611733503
 20
152.9434115594848
 30
0.0
 11
331.5791268191633
 21
142.0878236940923
 31
0.0
 70
   160
  3
SUNPOU_2
100
AcDbAlignedDimension
 13
308.8
 23
149.9434115594849
 33
0.0
 14
277.55
 24
152.9434115594848
 34
0.0
 50
90.0
100
AcDbRotatedDimension
1001
ACAD
1000
DSTYLE
1002
{
1070
     7
1000
DOTSMALL
1070
     5
1000

1070
   173
1070
     1
1070
     6
1000
OPEN30
1002
}
  0
DIMENSION
  5
3693
330
A
100
AcDbEntity
  8
SUNPOU
100
AcDbDimension
  2
*D25
 10
319.041330530769
 20
152.9434115594844
 30
0.0
 11
314.541330530769
 21
140.4434115594851
 31
0.0
 70
   160
  3
SUNPOU_2
100
AcDbAlignedDimension
 13
269.4206652653844
 23
127.943411559485
 33
0.0
 14
278.3
 24
152.9434115594844
 34
0.0
 50
90.0
100
AcDbRotatedDimension
  0
DIMENSION
  5
3694
330
A
100
AcDbEntity
  8
SUNPOU
100
AcDbDimension
  2
*D26
 10
351.6985703686882
 20
159.9434115594851
 30
0.0
 11
347.1985703686882
 21
154.9434115594849
 31
0.0
 70
    32
  3
SUNPOU_2
100
AcDbAlignedDimension
 13
311.8
 23
149.9434115594849
 33
0.0
 14
281.8000000000001
 24
159.9434115594851
 34
0.0
 50
90.0
100
AcDbRotatedDimension
  0
TEXT
  5
3695
330
A
100
AcDbEntity
  8
MOJI
100
AcDbText
 10
38.70131228270214
 20
154.4434115594851
 30
0.0
 40
5.0
  1
Ｆ.Ｌ
 41
0.8
  7
0_8
 72
     1
 11
43.36797894936881
 21
156.9434115594851
 31
0.0
100
AcDbText
 73
     2
  0
LINE
  5
3696
330
A
100
AcDbEntity
  8
SAISEN
100
AcDbLine
 10
35.69209138750329
 20
149.9434115594849
 30
0.0
 11
181.7999999999999
 21
149.9434115594849
 31
0.0
  0
LINE
  5
3697
330
A
100
AcDbEntity
  8
SAISEN
100
AcDbLine
 10
278.3
 20
149.9434115594844
 30
0.0
 11
363.3564147618441
 21
149.9434115594849
 31
0.0
  0
TEXT
  5
3698
330
A
100
AcDbEntity
  8
MOJI
100
AcDbText
 10
38.70131228270214
 20
89.2304082782955
 30
0.0
 40
5.0
  1
Ｆ.Ｌ
 41
0.8
  7
0_8
 72
     1
 11
43.36797894936881
 21
91.7304082782955
 31
0.0
100
AcDbText
 73
     2
  0
LINE
  5
3699
330
A
100
AcDbEntity
  8
SAISEN
100
AcDbLine
 10
35.69209138750329
 20
85.73040827829549
 30
0.0
 11
190.3
 21
85.73040827829551
 31
0.0
  0
LINE
  5
369A
330
A
100
AcDbEntity
  8
SAISEN
100
AcDbLine
 10
269.7999999999995
 20
85.73040827829549
 30
0.0
 11
363.3564147618441
 21
85.73040827829549
 31
0.0
  0
TEXT
  5
369B
330
A
100
AcDbEntity
  8
MOJI
100
AcDbText
 10
319.9746340320026
 20
101.0762558992629
 30
0.0
 40
6.0
  1
強化ガラス戸使用の場合
 41
0.8
  7
0_8
 72
     1
 11
351.0146340320026
 21
104.0762558992629
 31
0.0
100
AcDbText
 73
     2
  0
LINE
  5
369C
330
A
100
AcDbEntity
  8
SAISEN
100
AcDbLine
 10
314.5146340320026
 20
99.07625589926297
 30
0.0
 11
385.0
 21
99.07625589926297
 31
0.0
  0
DIMENSION
  5
369D
330
A
100
AcDbEntity
  8
SUNPOU
100
AcDbDimension
  2
*D27
 10
217.8
 20
51.02928619919727
 30
0.0
 11
209.2999999999999
 21
55.52928619919727
 31
0.0
 70
    32
  3
SUNPOU_2
100
AcDbAlignedDimension
 13
200.8
 23
63.73040827829544
 33
0.0
 14
217.8
 24
63.73040827829552
 34
0.0
100
AcDbRotatedDimension
  0
DIMENSION
  5
369E
330
A
100
AcDbEntity
  8
SUNPOU
100
AcDbDimension
  2
*D28
 10
223.3
 20
99.95787774198207
 30
0.0
 11
213.6397926397673
 21
104.457877741982
 31
0.0
 70
   160
  3
SUNPOU_2
100
AcDbAlignedDimension
 13
195.3
 23
110.7304082782955
 33
0.0
 14
223.3
 24
110.7304082782955
 34
0.0
100
AcDbRotatedDimension
  0
DIMENSION
  5
369F
330
A
100
AcDbEntity
  8
SUNPOU
100
AcDbDimension
  2
*D29
 10
195.3
 20
99.95787774198207
 30
0.0
 11
182.7885325816428
 21
104.4664611593193
 31
0.0
 70
   160
  3
SUNPOU_2
100
AcDbAlignedDimension
 13
190.3
 23
110.7304082782955
 33
0.0
 14
195.3
 24
110.7304082782955
 34
0.0
100
AcDbRotatedDimension
  0
LINE
  5
36A0
330
A
100
AcDbEntity
  8
CHUSIN
100
AcDbLine
 10
209.2999999999999
 20
110.7304082782954
 30
0.0
 11
209.2999999999999
 21
58.56128049361132
 31
0.0
  0
LINE
  5
36A1
330
A
100
AcDbEntity
  8
KAKURE
100
AcDbLine
 10
190.3000000035899
 20
67.7304082782955
 30
0.0
 11
190.3000000035898
 21
85.73040827829549
 31
0.0
  0
LINE
  5
36A2
330
A
100
AcDbEntity
  8
06
100
AcDbLine
 10
195.3
 20
95.73040827829549
 30
0.0
 11
223.3
 21
95.73040827829549
 31
0.0
  0
LINE
  5
36A3
330
A
100
AcDbEntity
  8
06
100
AcDbLine
 10
223.3
 20
95.73040827829549
 30
0.0
 11
223.3
 21
110.7304082782954
 31
0.0
  0
LINE
  5
36A4
330
A
100
AcDbEntity
  8
06
100
AcDbLine
 10
195.3
 20
95.73040827829549
 30
0.0
 11
195.3
 21
110.7304082782954
 31
0.0
  0
LINE
  5
36A5
330
A
100
AcDbEntity
  8
03
100
AcDbLine
 10
190.3
 20
85.73040827829549
 30
0.0
 11
190.3
 21
110.7304082782954
 31
0.0
  0
LINE
  5
36A6
330
A
100
AcDbEntity
  8
06
100
AcDbLine
 10
201.8
 20
95.73040827829549
 30
0.0
 11
216.8
 21
95.73040827829549
 31
0.0
  0
LINE
  5
36A7
330
A
100
AcDbEntity
  8
06
100
AcDbLine
 10
201.8
 20
70.73040827829548
 30
0.0
 11
216.8
 21
70.73040827829554
 31
0.0
  0
LINE
  5
36A8
330
A
100
AcDbEntity
  8
06
100
AcDbLine
 10
201.8
 20
95.73040827829549
 30
0.0
 11
216.8
 21
70.73040827829554
 31
0.0
  0
LINE
  5
36A9
330
A
100
AcDbEntity
  8
06
100
AcDbLine
 10
216.8
 20
95.73040827829549
 30
0.0
 11
201.8
 21
70.73040827829554
 31
0.0
  0
LINE
  5
36AA
330
A
100
AcDbEntity
  8
06
100
AcDbLine
 10
216.8
 20
95.73040827829549
 30
0.0
 11
216.8
 21
70.73040827829554
 31
0.0
  0
LINE
  5
36AB
330
A
100
AcDbEntity
  8
06
100
AcDbLine
 10
201.8
 20
95.73040827829549
 30
0.0
 11
201.8
 21
70.73040827829554
 31
0.0
  0
LINE
  5
36AD
330
A
100
AcDbEntity
  8
03
100
AcDbLine
 10
225.0179688361339
 20
62.23040827829549
 30
0.0
 11
222.7179688361339
 21
59.93040827829553
 31
0.0
  0
LINE
  5
36AE
330
A
100
AcDbEntity
  8
03
100
AcDbLine
 10
205.499104641919
 20
62.23040827829549
 30
0.0
 11
203.1991046419189
 21
59.93040827829553
 31
0.0
  0
LINE
  5
36B0
330
A
100
AcDbEntity
  8
03
100
AcDbLine
 10
223.0179688361339
 20
62.23040827829549
 30
0.0
 11
220.7179688361339
 21
59.93040827829553
 31
0.0
  0
LINE
  5
36B1
330
A
100
AcDbEntity
  8
03
100
AcDbLine
 10
203.499104641919
 20
62.23040827829549
 30
0.0
 11
201.1991046419189
 21
59.93040827829553
 31
0.0
  0
LINE
  5
36B2
330
A
100
AcDbEntity
  8
03
100
AcDbLine
 10
191.8
 20
72.35662923055324
 30
0.0
 11
194.1
 21
74.65662923055329
 31
0.0
  0
LINE
  5
36B3
330
A
100
AcDbEntity
  8
03
100
AcDbLine
 10
191.8
 20
74.35662923055324
 30
0.0
 11
194.1
 21
76.65662923055331
 31
0.0
  0
LINE
  5
36B4
330
A
100
AcDbEntity
  8
03
100
AcDbLine
 10
191.8
 20
83.26100306431225
 30
0.0
 11
190.3
 21
81.76100306431225
 31
0.0
  0
LINE
  5
36B6
330
A
100
AcDbEntity
  8
03
100
AcDbLine
 10
219.3
 20
76.21520062004525
 30
0.0
 11
217.8
 21
74.71520062004525
 31
0.0
  0
LINE
  5
36B7
330
A
100
AcDbEntity
  8
03
100
AcDbLine
 10
200.8
 20
76.38541854494654
 30
0.0
 11
199.3
 21
74.88541854494655
 31
0.0
  0
LINE
  5
36B8
330
A
100
AcDbEntity
  8
03
100
AcDbLine
 10
212.6384297702208
 20
63.73040827829536
 30
0.0
 11
211.138429770221
 21
62.23040827829549
 31
0.0
  0
LINE
  5
36B9
330
A
100
AcDbEntity
  8
03
100
AcDbLine
 10
224.1887065180175
 20
88.73040827829548
 30
0.0
 11
222.6887065180179
 21
87.23040827829555
 31
0.0
  0
LINE
  5
36BA
330
A
100
AcDbEntity
  8
03
100
AcDbLine
 10
197.0320258999795
 20
88.73040827829539
 30
0.0
 11
195.5320258999794
 21
87.23040827829539
 31
0.0
  0
LINE
  5
36BC
330
A
100
AcDbEntity
  8
03
100
AcDbLine
 10
194.1
 20
87.23040827829548
 30
0.0
 11
194.1
 21
62.23040827829549
 31
0.0
  0
ARC
  5
36BD
330
A
100
AcDbEntity
  8
03
100
AcDbCircle
 10
192.8
 20
60.93040827829552
 30
0.0
 40
1.0
100
AcDbArc
 50
180.0
 51
270.0
  0
LINE
  5
36BF
330
A
100
AcDbEntity
  8
03
100
AcDbLine
 10
192.8
 20
59.93040827829553
 30
0.0
 11
267.2999999999995
 21
59.93040827829553
 31
0.0
  0
LINE
  5
36C0
330
A
100
AcDbEntity
  8
03
100
AcDbLine
 10
219.3
 20
87.23040827829548
 30
0.0
 11
232.2999999999999
 21
87.23040827829548
 31
0.0
  0
LINE
  5
36C1
330
A
100
AcDbEntity
  8
03
100
AcDbLine
 10
191.8
 20
87.23040827829548
 30
0.0
 11
199.3
 21
87.23040827829548
 31
0.0
  0
LINE
  5
36C3
330
A
100
AcDbEntity
  8
03
100
AcDbLine
 10
190.3
 20
78.73040827829548
 30
0.0
 11
191.8
 21
78.73040827829548
 31
0.0
  0
ARC
  5
36C4
330
A
100
AcDbEntity
  8
03
100
AcDbCircle
 10
200.05
 20
62.98040827829549
 30
0.0
 40
0.75
100
AcDbArc
 50
180.0
 51
270.0
  0
LINE
  5
36C5
330
A
100
AcDbEntity
  8
03
100
AcDbLine
 10
199.3
 20
87.23040827829548
 30
0.0
 11
199.3
 21
62.98040827829549
 31
0.0
  0
ARC
  5
36C6
330
A
100
AcDbEntity
  8
03
100
AcDbCircle
 10
218.55
 20
62.98040827829549
 30
0.0
 40
0.75
100
AcDbArc
 50
270.0
 51
0.0
  0
LINE
  5
36C7
330
A
100
AcDbEntity
  8
03
100
AcDbLine
 10
219.3
 20
87.23040827829548
 30
0.0
 11
219.3
 21
62.98040827829549
 31
0.0
  0
LINE
  5
36C9
330
A
100
AcDbEntity
  8
03
100
AcDbLine
 10
191.8
 20
87.23040827829548
 30
0.0
 11
191.8
 21
60.93040827829552
 31
0.0
  0
LINE
  5
36CA
330
A
100
AcDbEntity
  8
03
100
AcDbLine
 10
194.1
 20
62.23040827829549
 30
0.0
 11
265.9999999999998
 21
62.23040827829547
 31
0.0
  0
LINE
  5
36CB
330
A
100
AcDbEntity
  8
03
100
AcDbLine
 10
200.8
 20
63.73040827829548
 30
0.0
 11
217.8
 21
63.73040827829548
 31
0.0
  0
ARC
  5
36CD
330
A
100
AcDbEntity
  8
03
100
AcDbCircle
 10
218.55
 20
87.98040827829549
 30
0.0
 40
0.75
100
AcDbArc
 50
90.0
 51
180.0
  0
LINE
  5
36CE
330
A
100
AcDbEntity
  8
03
100
AcDbLine
 10
218.55
 20
88.73040827829548
 30
0.0
 11
233.05
 21
88.7304082782956
 31
0.0
  0
ARC
  5
36CF
330
A
100
AcDbEntity
  8
03
100
AcDbCircle
 10
191.05
 20
87.98040827829536
 30
0.0
 40
0.75
100
AcDbArc
 50
90.0
 51
180.0
  0
ARC
  5
36D0
330
A
100
AcDbEntity
  8
03
100
AcDbCircle
 10
200.05
 20
87.98040827829559
 30
0.0
 40
0.75
100
AcDbArc
 50
0.0
 51
90.00000000000161
  0
LINE
  5
36D1
330
A
100
AcDbEntity
  8
03
100
AcDbLine
 10
191.05
 20
88.73040827829539
 30
0.0
 11
200.05
 21
88.7304082782956
 31
0.0
  0
LINE
  5
36D3
330
A
100
AcDbEntity
  8
03
100
AcDbLine
 10
217.8
 20
87.98040827829549
 30
0.0
 11
217.8
 21
63.73040827829548
 31
0.0
  0
LINE
  5
36D4
330
A
100
AcDbEntity
  8
03
100
AcDbLine
 10
190.3
 20
87.98040827829536
 30
0.0
 11
190.3
 21
78.73040827829548
 31
0.0
  0
LINE
  5
36D5
330
A
100
AcDbEntity
  8
03
100
AcDbLine
 10
200.8
 20
87.98040827829559
 30
0.0
 11
200.8
 21
63.73040827829548
 31
0.0
  0
LINE
  5
36D6
330
A
100
AcDbEntity
  8
KAKURE
100
AcDbLine
 10
125.8
 20
131.9434115594851
 30
0.0
 11
181.7999999999998
 21
131.9434115594851
 31
0.0
  0
LINE
  5
36D7
330
A
100
AcDbEntity
  8
KAKURE
100
AcDbLine
 10
125.8
 20
67.7304082782955
 30
0.0
 11
190.3000000035899
 21
67.7304082782955
 31
0.0
  0
LINE
  5
3797
330
A
100
AcDbEntity
  8
06
100
AcDbLine
 10
236.8
 20
159.9434115594851
 30
0.0
 11
281.8000000000001
 21
159.9434115594851
 31
0.0
  0
LINE
  5
38B6
330
A
100
AcDbEntity
  8
06
100
AcDbLine
 10
236.7999999999999
 20
159.9434115594851
 30
0.0
 11
281.8000000000001
 21
159.9434115594851
 31
0.0
  0
LINE
  5
38B7
330
A
100
AcDbEntity
  8
06
100
AcDbLine
 10
251.7999999999999
 20
159.9434115594851
 30
0.0
 11
251.7999999999999
 21
134.9434115594852
 31
0.0
  0
LINE
  5
38B8
330
A
100
AcDbEntity
  8
06
100
AcDbLine
 10
266.7999999999996
 20
159.9434115594851
 30
0.0
 11
266.7999999999996
 21
134.9434115594852
 31
0.0
  0
LINE
  5
38B9
330
A
100
AcDbEntity
  8
06
100
AcDbLine
 10
266.7999999999996
 20
159.9434115594851
 30
0.0
 11
251.7999999999999
 21
134.9434115594852
 31
0.0
  0
LINE
  5
38BA
330
A
100
AcDbEntity
  8
06
100
AcDbLine
 10
251.7999999999999
 20
159.9434115594851
 30
0.0
 11
266.7999999999996
 21
134.9434115594852
 31
0.0
  0
LINE
  5
38BB
330
A
100
AcDbEntity
  8
06
100
AcDbLine
 10
251.7999999999999
 20
134.9434115594851
 30
0.0
 11
266.7999999999996
 21
134.9434115594852
 31
0.0
  0
LINE
  5
38BC
330
A
100
AcDbEntity
  8
06
100
AcDbLine
 10
251.7999999999999
 20
159.9434115594851
 30
0.0
 11
266.7999999999996
 21
159.9434115594851
 31
0.0
  0
LINE
  5
38BD
330
A
100
AcDbEntity
  8
03
100
AcDbLine
 10
267.7999999999999
 20
152.1934115594849
 30
0.0
 11
267.7999999999999
 21
127.943411559485
 31
0.0
  0
LINE
  5
38BE
330
A
100
AcDbEntity
  8
03
100
AcDbLine
 10
278.3
 20
152.1934115594849
 30
0.0
 11
278.2999999999999
 21
142.9434115594851
 31
0.0
  0
LINE
  5
38BF
330
A
100
AcDbEntity
  8
03
100
AcDbLine
 10
250.8
 20
152.1934115594849
 30
0.0
 11
250.7999999999999
 21
127.943411559485
 31
0.0
  0
LINE
  5
38C1
330
A
100
AcDbEntity
  8
03
100
AcDbLine
 10
277.55
 20
152.9434115594848
 30
0.0
 11
268.5499999999996
 21
152.9434115594851
 31
0.0
  0
ARC
  5
38C2
330
A
100
AcDbEntity
  8
03
100
AcDbCircle
 10
268.5499999999996
 20
152.1934115594849
 30
0.0
 40
0.75
100
AcDbArc
 50
89.99999999999836
 51
180.0
  0
ARC
  5
38C3
330
A
100
AcDbEntity
  8
03
100
AcDbCircle
 10
277.55
 20
152.1934115594849
 30
0.0
 40
0.75
100
AcDbArc
 50
0.0
 51
90.0
  0
LINE
  5
38C4
330
A
100
AcDbEntity
  8
03
100
AcDbLine
 10
250.05
 20
152.9434115594851
 30
0.0
 11
218.55
 21
152.9434115594851
 31
0.0
  0
ARC
  5
38C5
330
A
100
AcDbEntity
  8
03
100
AcDbCircle
 10
250.05
 20
152.1934115594849
 30
0.0
 40
0.75
100
AcDbArc
 50
0.0
 51
90.0
  0
LINE
  5
38C7
330
A
100
AcDbEntity
  8
03
100
AcDbLine
 10
267.7999999999999
 20
127.943411559485
 30
0.0
 11
250.7999999999999
 21
127.943411559485
 31
0.0
  0
LINE
  5
38C9
330
A
100
AcDbEntity
  8
03
100
AcDbLine
 10
276.7999999999998
 20
151.4434115594851
 30
0.0
 11
276.7999999999998
 21
125.1434115594852
 31
0.0
  0
LINE
  5
38CB
330
A
100
AcDbEntity
  8
03
100
AcDbLine
 10
249.2999999999999
 20
151.4434115594851
 30
0.0
 11
249.2999999999999
 21
127.193411559485
 31
0.0
  0
ARC
  5
38CC
330
A
100
AcDbEntity
  8
03
100
AcDbCircle
 10
250.0499999999999
 20
127.193411559485
 30
0.0
 40
0.75
100
AcDbArc
 50
180.0
 51
270.0
  0
LINE
  5
38CD
330
A
100
AcDbEntity
  8
03
100
AcDbLine
 10
269.2999999999999
 20
151.4434115594851
 30
0.0
 11
269.2999999999999
 21
127.1934115594852
 31
0.0
  0
ARC
  5
38CE
330
A
100
AcDbEntity
  8
03
100
AcDbCircle
 10
268.5499999999995
 20
127.1934115594852
 30
0.0
 40
0.75
100
AcDbArc
 50
270.0
 51
0.0
  0
LINE
  5
38CF
330
A
100
AcDbEntity
  8
03
100
AcDbLine
 10
278.2999999999999
 20
142.9434115594851
 30
0.0
 11
276.7999999999998
 21
142.9434115594851
 31
0.0
  0
LINE
  5
38D1
330
A
100
AcDbEntity
  8
03
100
AcDbLine
 10
276.7999999999998
 20
151.4434115594851
 30
0.0
 11
269.2999999999999
 21
151.4434115594851
 31
0.0
  0
LINE
  5
38D2
330
A
100
AcDbEntity
  8
03
100
AcDbLine
 10
249.2999999999999
 20
151.4434115594851
 30
0.0
 11
219.3
 21
151.4434115594851
 31
0.0
  0
ARC
  5
38D5
330
A
100
AcDbEntity
  8
03
100
AcDbCircle
 10
275.7999999999999
 20
125.1434115594852
 30
0.0
 40
1.0
100
AcDbArc
 50
270.0
 51
0.0
  0
LINE
  5
38D6
330
A
100
AcDbEntity
  8
03
100
AcDbLine
 10
274.5
 20
151.4434115594851
 30
0.0
 11
274.4999999999999
 21
126.4434115594849
 31
0.0
  0
LINE
  5
38D8
330
A
100
AcDbEntity
  8
03
100
AcDbLine
 10
271.5679741000204
 20
152.9434115594848
 30
0.0
 11
273.0679741000205
 21
151.4434115594849
 31
0.0
  0
LINE
  5
38D9
330
A
100
AcDbEntity
  8
03
100
AcDbLine
 10
244.4112934819822
 20
152.9434115594851
 30
0.0
 11
245.9112934819819
 21
151.4434115594851
 31
0.0
  0
LINE
  5
38DA
330
A
100
AcDbEntity
  8
03
100
AcDbLine
 10
255.961570229779
 20
127.943411559485
 30
0.0
 11
257.461570229779
 21
126.4434115594849
 31
0.0
  0
LINE
  5
38DB
330
A
100
AcDbEntity
  8
03
100
AcDbLine
 10
267.7999999999999
 20
140.5984218261362
 30
0.0
 11
269.3
 21
139.0984218261362
 31
0.0
  0
LINE
  5
38DC
330
A
100
AcDbEntity
  8
03
100
AcDbLine
 10
249.2999999999999
 20
140.4282039012349
 30
0.0
 11
250.8
 21
138.9282039012349
 31
0.0
  0
LINE
  5
38DE
330
A
100
AcDbEntity
  8
03
100
AcDbLine
 10
276.7999999999998
 20
147.4740063455018
 30
0.0
 11
278.2999999999999
 21
145.9740063455018
 31
0.0
  0
LINE
  5
38DF
330
A
100
AcDbEntity
  8
03
100
AcDbLine
 10
276.7999999999998
 20
138.5696325117429
 30
0.0
 11
274.5
 21
140.8696325117429
 31
0.0
  0
LINE
  5
38E0
330
A
100
AcDbEntity
  8
03
100
AcDbLine
 10
276.7999999999998
 20
136.5696325117428
 30
0.0
 11
274.5
 21
138.869632511743
 31
0.0
  0
LINE
  5
38E1
330
A
100
AcDbEntity
  8
03
100
AcDbLine
 10
265.1008953580809
 20
126.4434115594849
 30
0.0
 11
267.400895358081
 21
124.1434115594852
 31
0.0
  0
LINE
  5
38E2
330
A
100
AcDbEntity
  8
03
100
AcDbLine
 10
245.5820311638658
 20
126.4434115594852
 30
0.0
 11
247.882031163866
 21
124.1434115594852
 31
0.0
  0
LINE
  5
38E4
330
A
100
AcDbEntity
  8
03
100
AcDbLine
 10
263.1008953580808
 20
126.4434115594849
 30
0.0
 11
265.400895358081
 21
124.1434115594852
 31
0.0
  0
LINE
  5
38E5
330
A
100
AcDbEntity
  8
03
100
AcDbLine
 10
243.5820311638658
 20
126.4434115594852
 30
0.0
 11
245.8820311638659
 21
124.1434115594852
 31
0.0
  0
DIMENSION
  5
38E8
330
A
100
AcDbEntity
  8
SUNPOU
100
AcDbDimension
  2
*D30
 10
267.7999999999999
 20
114.393729598489
 30
0.0
 11
259.2999999999999
 21
118.893729598489
 31
0.0
 70
    32
  3
SUNPOU_2
100
AcDbAlignedDimension
 13
250.7999999999999
 23
127.943411559485
 33
0.0
 14
267.7999999999999
 24
127.943411559485
 34
0.0
100
AcDbRotatedDimension
  0
LINE
  5
393F
330
A
100
AcDbEntity
  8
KAKURE
100
AcDbLine
 10
278.3
 20
131.9434115594852
 30
0.0
 11
278.3
 21
149.9434115594849
 31
0.0
  0
LINE
  5
3940
330
A
100
AcDbEntity
  8
KAKURE
100
AcDbLine
 10
305.8000000000002
 20
131.9434115594852
 30
0.0
 11
278.3
 21
131.9434115594852
 31
0.0
  0
LINE
  5
3AB9
330
A
100
AcDbEntity
  8
06
100
AcDbLine
 10
236.8
 20
268.0324118759409
 30
0.0
 11
281.8000000000001
 21
268.0324118759409
 31
0.0
  0
LINE
  5
3ACE
330
A
100
AcDbEntity
  8
04
100
AcDbLine
 10
247.8001326975284
 20
373.9741817824119
 30
0.0
 11
247.8001278653326
 21
372.974129000677
 31
0.0
  0
LINE
  5
3ACF
330
A
100
AcDbEntity
  8
04
100
AcDbLine
 10
247.8001278653326
 20
372.974129000677
 30
0.0
 11
252.8000039112696
 21
372.9741288667666
 31
0.0
  0
LINE
  5
3AD0
330
A
100
AcDbEntity
  8
04
100
AcDbLine
 10
237.2686871845126
 20
373.9889741709515
 30
0.0
 11
247.7606235852527
 21
373.9890003150502
 31
0.0
  0
LINE
  5
3AD5
330
A
100
AcDbEntity
  8
04
100
AcDbLine
 10
237.268687235585
 20
371.0412147772168
 30
0.0
 11
237.2686871845126
 21
373.9889741709515
 31
0.0
  0
LINE
  5
3AD6
330
A
100
AcDbEntity
  8
04
100
AcDbLine
 10
247.7606942569198
 20
359.0007449286699
 30
0.0
 11
237.2686874441967
 21
359.0007447468869
 31
0.0
  0
LINE
  5
3AD7
330
A
100
AcDbEntity
  8
04
100
AcDbLine
 10
237.2686874441967
 20
359.0007447468869
 30
0.0
 11
237.268689004097
 21
361.9482224223072
 31
0.0
  0
LINE
  5
3ADB
330
A
100
AcDbEntity
  8
04
100
AcDbLine
 10
252.7999982724223
 20
359.9996926490101
 30
0.0
 11
247.7606594155229
 21
359.9997234068962
 31
0.0
  0
LINE
  5
3ADC
330
A
100
AcDbEntity
  8
04
100
AcDbLine
 10
247.7606594155229
 20
359.9997234068962
 30
0.0
 11
247.7606942569198
 21
359.0007449286699
 31
0.0
  0
LINE
  5
3ADD
330
A
100
AcDbEntity
  8
KAKURE
100
AcDbLine
 10
252.8013504833263
 20
280.0283375828971
 30
0.0
 11
252.8013504833263
 21
286.1216928658356
 31
0.0
  0
LINE
  5
3ADE
330
A
100
AcDbEntity
  8
KAKURE
100
AcDbLine
 10
257.8013146191072
 20
279.5270233353379
 30
0.0
 11
257.8013146191072
 21
286.1216928658356
 31
0.0
  0
LINE
  5
3AEE
330
A
100
AcDbEntity
  8
06
100
AcDbLine
 10
245.3
 20
272.5324118759409
 30
0.0
 11
273.3
 21
272.5324118759409
 31
0.0
  0
LINE
  5
3AEF
330
A
100
AcDbEntity
  8
06
100
AcDbLine
 10
273.3
 20
268.0324118759409
 30
0.0
 11
245.3
 21
268.0324118759409
 31
0.0
  0
LINE
  5
3AF0
330
A
100
AcDbEntity
  8
06
100
AcDbLine
 10
245.3
 20
268.0324118759409
 30
0.0
 11
245.3
 21
272.5324118759409
 31
0.0
  0
LINE
  5
3AF1
330
A
100
AcDbEntity
  8
06
100
AcDbLine
 10
273.3
 20
272.5324118759409
 30
0.0
 11
273.3
 21
268.0324118759409
 31
0.0
  0
LINE
  5
3B01
330
A
100
AcDbEntity
  8
04
100
AcDbLine
 10
228.9332030316189
 20
296.0137708077871
 30
0.0
 11
228.9332354089614
 21
292.0169578817978
 31
0.0
  0
LINE
  5
3B02
330
A
100
AcDbEntity
  8
04
100
AcDbLine
 10
228.9333322900116
 20
282.0246798421694
 30
0.0
 11
228.9332030316189
 21
278.0277032016584
 31
0.0
  0
LINE
  5
3B04
330
A
100
AcDbEntity
  8
KAKURE
100
AcDbLine
 10
125.8
 20
149.9434115594849
 30
0.0
 11
125.8
 21
131.9434115594851
 31
0.0
  0
LINE
  5
3B05
330
A
100
AcDbEntity
  8
KAKURE
100
AcDbLine
 10
125.8
 20
85.73040827829549
 30
0.0
 11
125.8
 21
67.7304082782955
 31
0.0
  0
LINE
  5
3B06
330
A
100
AcDbEntity
  8
KAKURE
100
AcDbLine
 10
305.8000000000001
 20
149.9434115594844
 30
0.0
 11
305.8000000000002
 21
131.9434115594852
 31
0.0
  0
LINE
  5
3B26
330
A
100
AcDbEntity
  8
KAKURE
100
AcDbLine
 10
181.7999999999999
 20
149.9434115594849
 30
0.0
 11
181.7999999999998
 21
131.9434115594851
 31
0.0
  0
LINE
  5
3B6F
330
A
100
AcDbEntity
  8
03
100
AcDbLine
 10
233.8
 20
87.98040827829559
 30
0.0
 11
233.8
 21
63.73040827829548
 31
0.0
  0
LINE
  5
3B71
330
A
100
AcDbEntity
  8
03
100
AcDbLine
 10
250.8
 20
87.98040827829549
 30
0.0
 11
250.8
 21
63.73040827829548
 31
0.0
  0
LINE
  5
3B72
330
A
100
AcDbEntity
  8
03
100
AcDbLine
 10
269.7999999999995
 20
87.98040827829549
 30
0.0
 11
269.7999999999995
 21
78.73040827829548
 31
0.0
  0
ARC
  5
3B74
330
A
100
AcDbEntity
  8
03
100
AcDbCircle
 10
233.05
 20
87.98040827829559
 30
0.0
 40
0.75
100
AcDbArc
 50
0.0
 51
90.00000000000161
  0
LINE
  5
3B76
330
A
100
AcDbEntity
  8
03
100
AcDbLine
 10
251.55
 20
88.73040827829548
 30
0.0
 11
269.0499999999995
 21
88.73040827829548
 31
0.0
  0
ARC
  5
3B77
330
A
100
AcDbEntity
  8
03
100
AcDbCircle
 10
251.55
 20
87.98040827829549
 30
0.0
 40
0.75
100
AcDbArc
 50
90.0
 51
180.0
  0
ARC
  5
3B78
330
A
100
AcDbEntity
  8
03
100
AcDbCircle
 10
269.0499999999995
 20
87.98040827829549
 30
0.0
 40
0.75
100
AcDbArc
 50
0.0
 51
90.0
  0
LINE
  5
3B79
330
A
100
AcDbEntity
  8
03
100
AcDbLine
 10
233.8
 20
63.73040827829548
 30
0.0
 11
250.8
 21
63.73040827829548
 31
0.0
  0
LINE
  5
3B7C
330
A
100
AcDbEntity
  8
03
100
AcDbLine
 10
268.2999999999998
 20
87.23040827829548
 30
0.0
 11
268.2999999999998
 21
60.93040827829552
 31
0.0
  0
LINE
  5
3B7D
330
A
100
AcDbEntity
  8
03
100
AcDbLine
 10
252.3
 20
87.23040827829548
 30
0.0
 11
252.3
 21
62.98040827829549
 31
0.0
  0
ARC
  5
3B7E
330
A
100
AcDbEntity
  8
03
100
AcDbCircle
 10
251.55
 20
62.98040827829549
 30
0.0
 40
0.75
100
AcDbArc
 50
270.0
 51
0.0
  0
LINE
  5
3B7F
330
A
100
AcDbEntity
  8
03
100
AcDbLine
 10
232.2999999999999
 20
87.23040827829548
 30
0.0
 11
232.2999999999999
 21
62.98040827829549
 31
0.0
  0
ARC
  5
3B80
330
A
100
AcDbEntity
  8
03
100
AcDbCircle
 10
233.05
 20
62.98040827829549
 30
0.0
 40
0.75
100
AcDbArc
 50
180.0
 51
270.0
  0
LINE
  5
3B82
330
A
100
AcDbEntity
  8
03
100
AcDbLine
 10
268.2999999999998
 20
78.73040827829548
 30
0.0
 11
269.7999999999995
 21
78.73040827829548
 31
0.0
  0
LINE
  5
3B84
330
A
100
AcDbEntity
  8
03
100
AcDbLine
 10
252.3
 20
87.23040827829548
 30
0.0
 11
268.2999999999998
 21
87.23040827829548
 31
0.0
  0
ARC
  5
3B86
330
A
100
AcDbEntity
  8
03
100
AcDbCircle
 10
267.2999999999995
 20
60.93040827829552
 30
0.0
 40
1.0
100
AcDbArc
 50
270.0
 51
0.0
  0
LINE
  5
3B89
330
A
100
AcDbEntity
  8
03
100
AcDbLine
 10
265.9999999999998
 20
87.23040827829548
 30
0.0
 11
265.9999999999998
 21
62.23040827829549
 31
0.0
  0
LINE
  5
3B8A
330
A
100
AcDbEntity
  8
03
100
AcDbLine
 10
230.0320258999795
 20
88.73040827829539
 30
0.0
 11
228.5320258999794
 21
87.23040827829539
 31
0.0
  0
LINE
  5
3B8B
330
A
100
AcDbEntity
  8
03
100
AcDbLine
 10
257.1887065180177
 20
88.73040827829548
 30
0.0
 11
255.6887065180179
 21
87.23040827829555
 31
0.0
  0
LINE
  5
3B8C
330
A
100
AcDbEntity
  8
03
100
AcDbLine
 10
245.6384297702209
 20
63.73040827829536
 30
0.0
 11
244.138429770221
 21
62.23040827829549
 31
0.0
  0
LINE
  5
3B8D
330
A
100
AcDbEntity
  8
03
100
AcDbLine
 10
233.8
 20
76.38541854494654
 30
0.0
 11
232.2999999999999
 21
74.88541854494655
 31
0.0
  0
LINE
  5
3B8E
330
A
100
AcDbEntity
  8
03
100
AcDbLine
 10
252.3
 20
76.21520062004525
 30
0.0
 11
250.8
 21
74.71520062004525
 31
0.0
  0
LINE
  5
3B8F
330
A
100
AcDbEntity
  8
03
100
AcDbLine
 10
269.7999999999995
 20
82.91999564762043
 30
0.0
 11
268.2999999999998
 21
81.41999564762064
 31
0.0
  0
LINE
  5
3B93
330
A
100
AcDbEntity
  8
03
100
AcDbLine
 10
236.499104641919
 20
62.23040827829549
 30
0.0
 11
234.1991046419189
 21
59.93040827829553
 31
0.0
  0
LINE
  5
3B94
330
A
100
AcDbEntity
  8
03
100
AcDbLine
 10
256.017968836134
 20
62.23040827829549
 30
0.0
 11
253.717968836134
 21
59.93040827829553
 31
0.0
  0
LINE
  5
3B95
330
A
100
AcDbEntity
  8
03
100
AcDbLine
 10
268.2999999999998
 20
73.79047709843063
 30
0.0
 11
265.9999999999998
 21
71.49047709843067
 31
0.0
  0
LINE
  5
3B96
330
A
100
AcDbEntity
  8
03
100
AcDbLine
 10
238.499104641919
 20
62.23040827829549
 30
0.0
 11
236.1991046419189
 21
59.93040827829553
 31
0.0
  0
LINE
  5
3B97
330
A
100
AcDbEntity
  8
03
100
AcDbLine
 10
258.017968836134
 20
62.23040827829549
 30
0.0
 11
255.717968836134
 21
59.93040827829553
 31
0.0
  0
LINE
  5
3B98
330
A
100
AcDbEntity
  8
03
100
AcDbLine
 10
268.2999999999998
 20
75.79047709843063
 30
0.0
 11
265.9999999999998
 21
73.49047709843067
 31
0.0
  0
LINE
  5
3B99
330
A
100
AcDbEntity
  8
06
100
AcDbLine
 10
234.8
 20
95.73040827829549
 30
0.0
 11
234.8
 21
70.73040827829554
 31
0.0
  0
LINE
  5
3B9A
330
A
100
AcDbEntity
  8
06
100
AcDbLine
 10
249.8
 20
95.73040827829549
 30
0.0
 11
249.8
 21
70.73040827829554
 31
0.0
  0
LINE
  5
3B9B
330
A
100
AcDbEntity
  8
06
100
AcDbLine
 10
249.8
 20
95.73040827829549
 30
0.0
 11
234.8
 21
70.73040827829554
 31
0.0
  0
LINE
  5
3B9C
330
A
100
AcDbEntity
  8
06
100
AcDbLine
 10
234.8
 20
95.73040827829549
 30
0.0
 11
249.8
 21
70.73040827829554
 31
0.0
  0
LINE
  5
3B9D
330
A
100
AcDbEntity
  8
06
100
AcDbLine
 10
234.8
 20
70.73040827829548
 30
0.0
 11
249.8
 21
70.73040827829554
 31
0.0
  0
LINE
  5
3B9E
330
A
100
AcDbEntity
  8
06
100
AcDbLine
 10
234.8
 20
95.73040827829549
 30
0.0
 11
249.8
 21
95.73040827829549
 31
0.0
  0
LINE
  5
3BA0
330
A
100
AcDbEntity
  8
06
100
AcDbLine
 10
228.3
 20
95.73040827829549
 30
0.0
 11
228.3
 21
110.7304082782954
 31
0.0
  0
LINE
  5
3BA1
330
A
100
AcDbEntity
  8
06
100
AcDbLine
 10
256.3
 20
95.73040827829549
 30
0.0
 11
256.3
 21
110.7304082782954
 31
0.0
  0
LINE
  5
3BA2
330
A
100
AcDbEntity
  8
06
100
AcDbLine
 10
228.3
 20
95.73040827829549
 30
0.0
 11
256.3
 21
95.73040827829549
 31
0.0
  0
LINE
  5
3BA4
330
A
100
AcDbEntity
  8
CHUSIN
100
AcDbLine
 10
242.3
 20
110.7304082782954
 30
0.0
 11
242.3
 21
58.56128049361132
 31
0.0
  0
DIMENSION
  5
3BA5
330
A
100
AcDbEntity
  8
SUNPOU
100
AcDbDimension
  2
*D33
 10
228.3
 20
99.95787774198207
 30
0.0
 11
225.4995632582184
 21
104.4664611593193
 31
0.0
 70
   160
  3
SUNPOU_2
100
AcDbAlignedDimension
 13
223.3
 23
110.7304082782955
 33
0.0
 14
228.3
 24
110.7304082782955
 34
0.0
100
AcDbRotatedDimension
  0
DIMENSION
  5
3BA6
330
A
100
AcDbEntity
  8
SUNPOU
100
AcDbDimension
  2
*D32
 10
256.3
 20
99.95787774198207
 30
0.0
 11
246.6397926397672
 21
104.457877741982
 31
0.0
 70
   160
  3
SUNPOU_2
100
AcDbAlignedDimension
 13
228.3
 23
110.7304082782955
 33
0.0
 14
256.3
 24
110.7304082782955
 34
0.0
100
AcDbRotatedDimension
  0
DIMENSION
  5
3BA7
330
A
100
AcDbEntity
  8
SUNPOU
100
AcDbDimension
  2
*D31
 10
250.8
 20
51.02928619919727
 30
0.0
 11
242.3
 21
55.52928619919727
 31
0.0
 70
    32
  3
SUNPOU_2
100
AcDbAlignedDimension
 13
233.8
 23
63.73040827829544
 33
0.0
 14
250.8
 24
63.73040827829552
 34
0.0
100
AcDbRotatedDimension
  0
LINE
  5
3C0B
330
A
100
AcDbEntity
  8
KAKURE
100
AcDbLine
 10
269.8000000035896
 20
67.73040827829608
 30
0.0
 11
269.8000000035896
 21
85.73040827829606
 31
0.0
  0
LINE
  5
3C0C
330
A
100
AcDbEntity
  8
KAKURE
100
AcDbLine
 10
269.8000000035896
 20
67.73040827829608
 30
0.0
 11
305.8000000000001
 21
67.73040827829607
 31
0.0
  0
LINE
  5
3C0D
330
A
100
AcDbEntity
  8
KAKURE
100
AcDbLine
 10
305.8000000000001
 20
85.73040827829549
 30
0.0
 11
305.8000000000001
 21
67.73040827829607
 31
0.0
  0
LINE
  5
3D05
330
A
100
AcDbEntity
  8
03
100
AcDbLine
 10
125.7999999999997
 20
111.053331944962
 30
0.0
 11
125.7999999999997
 21
85.73040827829551
 31
0.0
  0
LINE
  5
3D06
330
A
100
AcDbEntity
  8
03
100
AcDbLine
 10
131.7999999999996
 20
111.053331944962
 30
0.0
 11
131.7999999999996
 21
85.73040827829551
 31
0.0
  0
LINE
  5
3D07
330
A
100
AcDbEntity
  8
03
100
AcDbLine
 10
305.8000000000001
 20
111.053331944962
 30
0.0
 11
305.8000000000001
 21
85.73040827829553
 31
0.0
  0
LINE
  5
3D49
330
A
100
AcDbEntity
  8
04
100
AcDbLine
 10
235.568668823162
 20
361.4910950905127
 30
0.0
 11
235.2686698954757
 21
361.7910527723361
 31
0.0
  0
LINE
  5
3D4A
330
A
100
AcDbEntity
  8
04
100
AcDbLine
 10
235.5687044706964
 20
371.4912628429546
 30
0.0
 11
235.2687034019262
 21
371.1912811535875
 31
0.0
  0
LINE
  5
3D4B
330
A
100
AcDbEntity
  8
04
100
AcDbLine
 10
235.2701463204454
 20
371.1927239788973
 30
0.0
 11
235.2701128037096
 21
361.7896100624828
 31
0.0
  0
LINE
  5
3D4C
330
A
100
AcDbEntity
  8
04
100
AcDbLine
 10
236.2694590768885
 20
371.4741560135738
 30
0.0
 11
235.5515990951078
 21
371.4741585723353
 31
0.0
  0
LINE
  5
3D4D
330
A
100
AcDbEntity
  8
04
100
AcDbLine
 10
236.2694590768885
 20
361.9482224223072
 30
0.0
 11
236.2695225082195
 21
361.4985480384392
 31
0.0
  0
LINE
  5
3D4E
330
A
100
AcDbEntity
  8
04
100
AcDbLine
 10
236.2695225082195
 20
361.4985480384392
 30
0.0
 11
235.5612123253445
 21
361.4985505631608
 31
0.0
  0
LINE
  5
3D4F
330
A
100
AcDbEntity
  8
04
100
AcDbLine
 10
236.2694590768885
 20
371.4741560135738
 30
0.0
 11
236.2694590768885
 21
371.0412147599043
 31
0.0
  0
LINE
  5
3D50
330
A
100
AcDbEntity
  8
04
100
AcDbLine
 10
237.268689004097
 20
361.9482224223072
 30
0.0
 11
236.2694590768885
 21
361.9482224223072
 31
0.0
  0
LINE
  5
3D51
330
A
100
AcDbEntity
  8
04
100
AcDbLine
 10
236.2694590768885
 20
371.0412147599043
 30
0.0
 11
237.268687235585
 21
371.0412147772168
 31
0.0
  0
TEXT
  5
3DEF
330
A
100
AcDbEntity
  8
MOJI
100
AcDbText
 10
203.4248479542934
 20
210.9499213393615
 30
0.0
 40
6.0
  1
框ドア
 41
0.8
  7
0_8
 72
     1
 11
211.1048479542934
 21
213.9499213393615
 31
0.0
100
AcDbText
 73
     2
  0
LINE
  5
3DF0
330
A
100
AcDbEntity
  8
SAISEN
100
AcDbLine
 10
201.2212248880623
 20
208.9499213393616
 30
0.0
 11
220.0722920322204
 21
208.9499213393616
 31
0.0
  0
LINE
  5
3DF1
330
A
100
AcDbEntity
  8
SAISEN
100
AcDbLine
 10
251.2212248880623
 20
208.9499213393616
 30
0.0
 11
270.0722920322204
 21
208.9499213393616
 31
0.0
  0
TEXT
  5
3DF2
330
A
100
AcDbEntity
  8
MOJI
100
AcDbText
 10
253.4248479542934
 20
210.9499213393615
 30
0.0
 40
6.0
  1
框ドア
 41
0.8
  7
0_8
 72
     1
 11
261.1048479542934
 21
213.9499213393615
 31
0.0
100
AcDbText
 73
     2
  0
DIMENSION
  5
3E6A
330
A
100
AcDbEntity
  8
SUNPOU
100
AcDbDimension
  2
*D34
 10
181.7999999999999
 20
241.7848041893106
 30
0.0
 11
154.6769918599761
 21
246.2848041893106
 31
0.0
 70
   160
  3
SUNPOU_2
100
AcDbAlignedDimension
 13
131.8
 23
241.7848041893106
 33
0.0
 14
181.7999999999999
 24
258.7663352261515
 34
0.0
100
AcDbRotatedDimension
  0
DIMENSION
  5
3ED4
330
A
100
AcDbEntity
  8
SUNPOU
100
AcDbDimension
  2
*D35
 10
302.8
 20
241.7848041893106
 30
0.0
 11
294.8
 21
246.2848041893106
 31
0.0
 70
    32
  3
SUNPOU_2
100
AcDbAlignedDimension
 13
286.8
 23
258.7663352261515
 33
0.0
 14
302.8
 24
258.7663352261515
 34
0.0
100
AcDbRotatedDimension
  0
DIMENSION
  5
3EE1
330
A
100
AcDbEntity
  8
SUNPOU
100
AcDbDimension
  2
*D36
 10
305.8000000000001
 20
241.7848041893106
 30
0.0
 11
313.1847831434543
 21
246.1854690822681
 31
0.0
 70
   160
  3
SUNPOU_2
100
AcDbAlignedDimension
 13
302.8
 23
258.7663352261515
 33
0.0
 14
305.8000000000001
 24
258.7663352261515
 34
0.0
100
AcDbRotatedDimension
  0
CIRCLE
  5
3F38
330
A
100
AcDbEntity
  8
SAISEN
100
AcDbCircle
 10
391.0976380784321
 20
52.54302641223159
 30
0.0
 40
5.0
  0
TEXT
  5
3F39
330
A
100
AcDbEntity
  8
MOJI
100
AcDbText
 10
388.0488190392161
 20
48.27151320611588
 30
0.0
 40
8.0
  1
Ｓ
 41
0.8
  7
0_8
 11
388.0488190392161
 21
56.27151320611588
 31
0.0
100
AcDbText
 73
     3
  0
DIMENSION
  5
3FC3
330
A
100
AcDbEntity
  8
SUNPOU
100
AcDbDimension
  2
*D37
 10
209.2999999999999
 20
330.9588364875871
 30
0.0
 11
201.5240811468838
 21
335.4588364875873
 31
0.0
 70
   160
  3
SUNPOU_2
100
AcDbAlignedDimension
 13
180.3
 23
282.1163352261517
 33
0.0
 14
209.2999999999999
 24
282.1163352261517
 34
0.0
100
AcDbRotatedDimension
  0
DIMENSION
  5
3FD0
330
A
100
AcDbEntity
  8
SUNPOU
100
AcDbDimension
  2
*D38
 10
259.2999999999999
 20
330.9588364875871
 30
0.0
 11
230.7609923015728
 21
335.4588364875873
 31
0.0
 70
   160
  3
SUNPOU_2
100
AcDbAlignedDimension
 13
209.2999999999999
 23
282.1163352261517
 33
0.0
 14
259.2999999999999
 24
288.1730322071855
 34
0.0
100
AcDbRotatedDimension
  0
DIMENSION
  5
3FDD
330
A
100
AcDbEntity
  8
SUNPOU
100
AcDbDimension
  2
*D39
 10
301.3
 20
330.9588364875871
 30
0.0
 11
280.3
 21
335.4588364875873
 31
0.0
 70
    32
  3
SUNPOU_2
100
AcDbAlignedDimension
 13
259.2999999999999
 23
288.1730322071855
 33
0.0
 14
301.3
 24
288.1730322071855
 34
0.0
100
AcDbRotatedDimension
  0
LINE
  5
4042
330
A
100
AcDbEntity
  8
02
100
AcDbLine
 10
190.9917424519969
 20
368.0588185639102
 30
0.0
 11
190.9918264245811
 21
371.9556986476398
 31
0.0
  0
LINE
  5
4054
330
A
100
AcDbEntity
  8
04
100
AcDbLine
 10
227.0639478254758
 20
358.8722033348016
 30
0.0
 11
230.1574186034073
 21
358.8721812818852
 31
0.0
  0
LINE
  5
4055
330
A
100
AcDbEntity
  8
04
100
AcDbLine
 10
225.7649489201379
 20
358.8722125951812
 30
0.0
 11
227.0639478254758
 21
358.8722033348017
 31
0.0
  0
LINE
  5
419B
330
A
100
AcDbEntity
  8
06
100
AcDbLine
 10
254.0501390270406
 20
438.4748978407611
 30
0.0
 11
266.5501342364169
 21
438.4748978407618
 31
0.0
  0
LINE
  5
419C
330
A
100
AcDbEntity
  8
06
100
AcDbLine
 10
257.6898399747871
 20
448.4748940082621
 30
0.0
 11
262.9104332886709
 21
448.4748940082617
 31
0.0
  0
LINE
  5
419E
330
A
100
AcDbEntity
  8
06
100
AcDbLine
 10
256.000137919668
 20
495.4748759955168
 30
0.0
 11
256.000137919668
 21
504.4748725462676
 31
0.0
  0
LINE
  5
41A8
330
A
100
AcDbEntity
  8
06
100
AcDbLine
 10
256.000137919668
 20
495.4748759955168
 30
0.0
 11
262.7244032341975
 21
495.4748759955168
 31
0.0
  0
LINE
  5
41A9
330
A
100
AcDbEntity
  8
06
100
AcDbLine
 10
256.000137919668
 20
504.4748725462676
 30
0.0
 11
266.0001340871689
 21
504.4748725462676
 31
0.0
  0
LINE
  5
41AD
330
A
100
AcDbEntity
  8
06
100
AcDbLine
 10
266.0001340871689
 20
504.4748725462676
 30
0.0
 11
262.7244032341975
 21
495.4748759955168
 31
0.0
  0
LINE
  5
41E2
330
A
100
AcDbEntity
  8
06
100
AcDbLine
 10
266.5501342364169
 20
438.4748978407618
 30
0.0
 11
262.9104332886709
 21
448.4748940082617
 31
0.0
  0
LINE
  5
41E3
330
A
100
AcDbEntity
  8
06
100
AcDbLine
 10
254.0501390270406
 20
438.4748978407611
 30
0.0
 11
257.6898399747871
 21
448.4748940082621
 31
0.0
  0
LINE
  5
41F2
330
A
100
AcDbEntity
  8
CHUSIN
100
AcDbLine
 10
257.8001234290902
 20
510.7893810363377
 30
0.0
 11
257.8001234290902
 21
458.6093852255362
 31
0.0
  0
LINE
  5
420F
330
A
100
AcDbEntity
  8
CHUSIN
100
AcDbLine
 10
260.3001366317288
 20
459.6773000611626
 30
0.0
 11
260.3001366317288
 21
436.4748986072608
 31
0.0
  0
LINE
  5
4238
330
A
100
AcDbEntity
  8
CHUSIN
100
AcDbLine
 10
173.471605267453
 20
471.9752574739604
 30
0.0
 11
273.5445369554116
 21
471.9752574739604
 31
0.0
  0
LINE
  5
4243
330
A
100
AcDbEntity
  8
CHUSIN
100
AcDbLine
 10
260.3001366317288
 20
436.4748986072608
 30
0.0
 11
260.3001366317288
 21
429.6042057904069
 31
0.0
  0
LINE
  5
49DC
330
A
100
AcDbEntity
  8
03
100
AcDbLine
 10
193.082031163866
 20
126.4434115594852
 30
0.0
 11
195.382031163866
 21
124.1434115594852
 31
0.0
  0
LINE
  5
49DD
330
A
100
AcDbEntity
  8
04
100
AcDbLine
 10
201.8057755459367
 20
280.7232601722846
 30
0.0
 11
201.6059295604949
 21
280.7232601722846
 31
0.0
  0
LINE
  5
49DE
330
A
100
AcDbEntity
  8
04
100
AcDbLine
 10
200.8065456187281
 20
278.7248003178675
 30
0.0
 11
201.6059295604949
 21
278.7248003178675
 31
0.0
  0
LINE
  5
49DF
330
A
100
AcDbEntity
  8
04
100
AcDbLine
 10
216.9940704395051
 20
278.7248003178675
 30
0.0
 11
217.7934543812718
 21
278.7248003178675
 31
0.0
  0
LINE
  5
49E0
330
A
100
AcDbEntity
  8
04
100
AcDbLine
 10
203.7820403402754
 20
290.0182731622574
 30
0.0
 11
203.7820403402754
 21
289.5686143571436
 31
0.0
  0
LINE
  5
49E1
330
A
100
AcDbEntity
  8
04
100
AcDbLine
 10
229.9324657955184
 20
292.0170036229626
 30
0.0
 11
229.9324712765805
 21
291.6173083304651
 31
0.0
  0
LINE
  5
49E2
330
A
100
AcDbEntity
  8
04
100
AcDbLine
 10
229.9325587519386
 20
282.4243736721072
 30
0.0
 11
229.9325625552202
 21
282.0246802962816
 31
0.0
  0
LINE
  5
4A13
330
A
100
AcDbEntity
  8
04
100
AcDbLine
 10
231.231558108567
 20
282.4243252640208
 30
0.0
 11
231.2315586828868
 21
282.40560730712
 31
0.0
  0
LINE
  5
4A14
330
A
100
AcDbEntity
  8
04
100
AcDbLine
 10
231.2314672568475
 20
291.6360718858202
 30
0.0
 11
231.2314673009424
 21
291.6173113836512
 31
0.0
  0
LINE
  5
4A15
330
A
100
AcDbEntity
  8
04
100
AcDbLine
 10
234.314093944942
 20
291.6361370906887
 30
0.0
 11
234.7287821970474
 21
290.9178721299843
 31
0.0
  0
LINE
  5
4A16
330
A
100
AcDbEntity
  8
04
100
AcDbLine
 10
234.7288533686571
 20
283.1238534426993
 30
0.0
 11
234.3141835986549
 21
282.4057018907361
 31
0.0
  0
LINE
  5
4A17
330
A
100
AcDbEntity
  8
04
100
AcDbLine
 10
251.605929560495
 20
280.625928266189
 30
0.0
 11
251.8057755459365
 21
280.625928266189
 31
0.0
  0
LINE
  5
4A18
330
A
100
AcDbEntity
  8
04
100
AcDbLine
 10
266.7942244540634
 20
280.625928266189
 30
0.0
 11
266.9940704395051
 21
280.625928266189
 31
0.0
  0
LINE
  5
4A19
330
A
100
AcDbEntity
  8
04
100
AcDbLine
 10
250.8065456187281
 20
278.6274684117722
 30
0.0
 11
251.6059295604949
 21
278.6274684117722
 31
0.0
  0
LINE
  5
4A1A
330
A
100
AcDbEntity
  8
04
100
AcDbLine
 10
266.9940704395051
 20
278.6274684117722
 30
0.0
 11
267.7934543812718
 21
278.6274684117722
 31
0.0
  0
LINE
  5
4A1B
330
A
100
AcDbEntity
  8
06
100
AcDbLine
 10
186.295459040966
 20
316.9977659627098
 30
0.0
 11
186.2954645220282
 21
316.5980706702123
 31
0.0
  0
LINE
  5
4A1C
330
A
100
AcDbEntity
  8
06
100
AcDbLine
 10
186.2955569024449
 20
307.0054426360294
 30
0.0
 11
186.2955717972878
 21
307.4051360111166
 31
0.0
  0
LINE
  5
4A1D
330
A
100
AcDbEntity
  8
06
100
AcDbLine
 10
187.5944605022954
 20
316.6168342255676
 30
0.0
 11
187.5944605463904
 21
316.5980737233985
 31
0.0
  0
LINE
  5
4A1E
330
A
100
AcDbEntity
  8
06
100
AcDbLine
 10
187.5945513540147
 20
307.4050876037682
 30
0.0
 11
187.5945495522536
 21
307.3863696467943
 31
0.0
  0
LINE
  5
4A1F
330
A
100
AcDbEntity
  8
06
100
AcDbLine
 10
186.2935127197378
 20
351.9708134150056
 30
0.0
 11
186.2935136591896
 21
351.5711181224971
 31
0.0
  0
LINE
  5
4A20
330
A
100
AcDbEntity
  8
06
100
AcDbLine
 10
186.2936056761581
 20
342.3781834641502
 30
0.0
 11
186.2936058578037
 21
341.9784900883228
 31
0.0
  0
LINE
  5
4A21
330
A
100
AcDbEntity
  8
06
100
AcDbLine
 10
187.5925141810673
 20
351.5898816778631
 30
0.0
 11
187.5925142251624
 21
351.5711211756942
 31
0.0
  0
LINE
  5
4A22
330
A
100
AcDbEntity
  8
06
100
AcDbLine
 10
187.5926050327866
 20
342.3781350560638
 30
0.0
 11
187.5926032310253
 21
342.3594170990901
 31
0.0
  0
LINE
  5
4A24
330
A
100
AcDbEntity
  8
04
100
AcDbLine
 10
199.6850839548523
 20
369.3620556836525
 30
0.0
 11
199.6850827158074
 21
367.2287160406721
 31
0.0
  0
LINE
  5
4A25
330
A
100
AcDbEntity
  8
04
100
AcDbLine
 10
199.6850806671181
 20
363.7013620027808
 30
0.0
 11
199.6850317378497
 21
361.568074955337
 31
0.0
  0
LINE
  5
4A26
330
A
100
AcDbEntity
  8
04
100
AcDbLine
 10
264.6001370668851
 20
373.0929974516147
 30
0.0
 11
264.6001363916469
 21
373.0741908139498
 31
0.0
  0
LINE
  5
4A27
330
A
100
AcDbEntity
  8
04
100
AcDbLine
 10
264.6002253103393
 20
363.874168197213
 30
0.0
 11
264.6002253916191
 21
363.8553875878118
 31
0.0
  0
LINE
  5
4A28
330
A
100
AcDbEntity
  8
04
100
AcDbLine
 10
263.3001329789322
 20
373.4741910825827
 30
0.0
 11
263.3001399677028
 21
373.0741908139746
 31
0.0
  0
LINE
  5
4A29
330
A
100
AcDbEntity
  8
04
100
AcDbLine
 10
263.3002262184798
 20
363.8741710582468
 30
0.0
 11
263.3002287133125
 21
363.4741708759001
 31
0.0
  0
LINE
  5
4A2A
330
A
100
AcDbEntity
  8
04
100
AcDbLine
 10
262.3001738935067
 20
377.4740732553496
 30
0.0
 11
262.3003569957881
 21
373.4741453164425
 31
0.0
  0
LINE
  5
4A2B
330
A
100
AcDbEntity
  8
04
100
AcDbLine
 10
262.3002295083541
 20
363.4741665549806
 30
0.0
 11
262.3002295083545
 21
359.4739379375332
 31
0.0
  0
LINE
  5
4A2D
330
A
100
AcDbEntity
  8
02
100
AcDbLine
 10
188.4003454937825
 20
419.0745998879008
 30
0.0
 11
188.4003454937825
 21
418.7480998879008
 31
0.0
  0
LINE
  5
4A2E
330
A
100
AcDbEntity
  8
02
100
AcDbLine
 10
188.4003454937825
 20
407.2010998879008
 30
0.0
 11
188.4003454937825
 21
406.8745998879008
 31
0.0
  0
LINE
  5
4A2F
330
A
100
AcDbEntity
  8
02
100
AcDbLine
 10
186.9003454937828
 20
419.2245998879008
 30
0.0
 11
186.9003454937828
 21
419.0745998879008
 31
0.0
  0
LINE
  5
4A30
330
A
100
AcDbEntity
  8
02
100
AcDbLine
 10
186.9003454937828
 20
406.8745998879008
 30
0.0
 11
186.9003454937828
 21
406.7245998879008
 31
0.0
  0
LINE
  5
4A31
330
A
100
AcDbEntity
  8
04
100
AcDbLine
 10
224.3001153239199
 20
415.2245947189588
 30
0.0
 11
224.3001225107206
 21
411.9745950036985
 31
0.0
  0
LINE
  5
4A32
330
A
100
AcDbEntity
  8
04
100
AcDbLine
 10
224.3001225107206
 20
401.9745950036986
 30
0.0
 11
224.3001296975215
 21
398.7245947189651
 31
0.0
  0
LINE
  5
4A34
330
A
100
AcDbEntity
  8
04
100
AcDbLine
 10
266.8004560826369
 20
414.6744534726049
 30
0.0
 11
266.8004546782764
 21
414.4799909393041
 31
0.0
  0
LINE
  5
4A35
330
A
100
AcDbEntity
  8
04
100
AcDbLine
 10
266.8004584566434
 20
399.4688775395353
 30
0.0
 11
266.8004603597108
 21
399.2744491089331
 31
0.0
  0
LINE
  5
4A36
330
A
100
AcDbEntity
  8
04
100
AcDbLine
 10
264.8004392791341
 20
420.9744352018533
 30
0.0
 11
264.8004079984163
 21
414.6744534725055
 31
0.0
  0
LINE
  5
4A37
330
A
100
AcDbEntity
  8
04
100
AcDbLine
 10
264.8004562610303
 20
399.2744295328748
 30
0.0
 11
264.8004767033421
 21
392.9744574150427
 31
0.0
  0
LINE
  5
4D9C
330
A
100
AcDbEntity
  8
KAKURE
100
AcDbLine
 10
214.7651872843848
 20
272.532411875941
 30
0.0
 11
214.7651872843848
 21
277.0324103155664
 31
0.0
  0
MTEXT
  5
5023
330
A
100
AcDbEntity
  8
MOJI
100
AcDbMText
 10
309.9999999999997
 20
32.00000000000022
 30
0.0
 40
7.0
 41
50.0
 71
     5
 72
     1
  1
図番１５－３
  7
0_80
1001
ACAD
1000
MTEXTBEGIN
1070
    73
1070
     1
1070
    44
1040
1.0
1070
    74
1070
     0
1000
MTEXTEND
1000
MTEXTBEGIN
1070
    73
1070
     1
1070
    44
1040
1.0
1070
    74
1070
     0
1000
MTEXTEND
  0
MTEXT
  5
5024
330
A
100
AcDbEntity
  8
MOJI
100
AcDbMText
 10
359.9999999999998
 20
31.5
 30
0.0
 40
7.0
 41
49.99999999999994
 71
     5
 72
     1
  1
たて断面図　
  7
0_80
1001
ACAD
1000
MTEXTBEGIN
1070
    73
1070
     1
1070
    44
1040
1.0
1070
    74
1070
     0
1000
MTEXTEND
1000
MTEXTBEGIN
1070
    73
1070
     1
1070
    44
1040
1.0
1070
    74
1070
     0
1000
MTEXTEND
  0
LINE
  5
5025
330
A
100
AcDbEntity
  8
SAISEN
100
AcDbLine
 10
285.0
 20
44.00000000000022
 30
0.0
 11
285.0
 21
20.0
 31
0.0
  0
LINE
  5
5026
330
A
100
AcDbEntity
  8
SAISEN
100
AcDbLine
 10
225.0
 20
44.00000000000022
 30
0.0
 11
225.0
 21
20.0
 31
0.0
  0
MTEXT
  5
5027
330
A
100
AcDbEntity
  8
MOJI
100
AcDbMText
 10
255.0000000000029
 20
32.0
 30
0.0
 40
7.0
 41
60.0
 71
     5
 72
     1
  1
２重片引き又は\P２重両引き　　
  7
0_8
1001
ACAD
1000
MTEXTBEGIN
1070
    73
1070
     1
1070
    44
1040
1.0
1070
    74
1070
     0
1000
MTEXTEND
1000
MTEXTBEGIN
1070
    73
1070
     1
1070
    44
1040
1.0
1070
    74
1070
     0
1000
MTEXTEND
  0
MTEXT
  5
5028
330
A
100
AcDbEntity
  8
MOJI
100
AcDbMText
 10
145.0
 20
32.0
 30
0.0
 40
7.0
 41
80.0
 71
     4
 72
     1
  1
　　ＳＯＶ－  ６０ＫＭ\P　　ＳＯＶ－１５０ＫＭ
  7
0_8
1001
ACAD
1000
MTEXTBEGIN
1070
    73
1070
     1
1070
    44
1040
1.0
1070
    74
1070
     0
1000
MTEXTEND
1000
MTEXTBEGIN
1070
    73
1070
     1
1070
    44
1040
1.0
1070
    74
1070
     0
1000
MTEXTEND
  0
LINE
  5
5029
330
A
100
AcDbEntity
  8
SAISEN
100
AcDbLine
 10
145.0
 20
44.00000000000022
 30
0.0
 11
145.0
 21
20.0
 31
0.0
  0
MTEXT
  5
502A
330
A
100
AcDbEntity
  8
MOJI
100
AcDbMText
 10
90.0
 20
32.0
 30
0.0
 40
7.0
 41
110.0
 71
     5
 72
     1
  1
ダブルスライド･ドア\P（ユニット台板納り）
  7
0_8
1001
ACAD
1000
MTEXTBEGIN
1070
    73
1070
     1
1070
    44
1040
1.0
1070
    74
1070
     0
1000
MTEXTEND
1000
MTEXTBEGIN
1070
    73
1070
     1
1070
    44
1040
1.0
1070
    74
1070
     0
1000
MTEXTEND
  0
POLYLINE
  5
502B
330
A
100
AcDbEntity
  8
SAISEN
100
AcDb2dPolyline
 66
     1
 10
0.0
 20
0.0
 30
0.0
 70
     1
  0
VERTEX
  5
50CE
330
502B
100
AcDbEntity
  8
SAISEN
100
AcDbVertex
100
AcDb2dVertex
 10
35.0
 20
20.0
 30
0.0
  0
VERTEX
  5
50CF
330
502B
100
AcDbEntity
  8
SAISEN
100
AcDbVertex
100
AcDb2dVertex
 10
385.0
 20
20.0
 30
0.0
  0
VERTEX
  5
50D0
330
502B
100
AcDbEntity
  8
SAISEN
100
AcDbVertex
100
AcDb2dVertex
 10
385.0
 20
44.00000000000022
 30
0.0
  0
VERTEX
  5
50D1
330
502B
100
AcDbEntity
  8
SAISEN
100
AcDbVertex
100
AcDb2dVertex
 10
35.0
 20
44.00000000000022
 30
0.0
  0
SEQEND
  5
50D2
330
502B
100
AcDbEntity
  8
SAISEN
  0
VIEWPORT
  5
D52
102
{ACAD_XDICTIONARY
360
505A
102
}
330
B
100
AcDbEntity
 67
     1
  8
0
100
AcDbViewport
 10
198.310331992124
 20
284.4575533079189
 30
0.0
 40
1080.325176783072
 41
628.3404811992356
 68
     1
 69
     1
1001
ACAD
1000
MVIEW
1002
{
1070
    16
1010
0.0
1020
0.0
1030
0.0
1010
0.0
1020
0.0
1030
1.0
1040
0.0
1040
628.3404811992356
1040
198.310331992124
1040
284.4575533079189
1040
50.0
1040
0.0
1040
0.0
1070
     0
1070
   100
1070
     1
1070
     1
1070
     0
1070
     0
1070
     0
1070
     0
1040
0.0
1040
0.0
1040
0.0
1040
10.0
1040
10.0
1040
10.0
1040
10.0
1070
     0
1002
{
1002
}
1002
}
  0
VIEWPORT
  5
5044
102
{ACAD_XDICTIONARY
360
5060
102
}
330
B
100
AcDbEntity
 67
     1
  8
DEFPOINTS
100
AcDbViewport
 10
198.3103329458667
 20
284.4575523541761
 30
0.0
 40
396.480101038357
 41
570.3979158857633
 68
     2
 69
     2
1001
ACAD
1000
MVIEW
1002
{
1070
    16
1010
0.0
1020
0.0
1030
0.0
1010
0.0
1020
0.0
1030
1.0
1040
0.0
1040
570.3979158857633
1040
210.0
1040
297.0
1040
50.0
1040
0.0
1040
0.0
1070
     0
1070
   100
1070
     1
1070
     1
1070
     0
1070
     0
1070
     0
1070
     0
1040
0.0
1040
0.0
1040
0.0
1040
1.0
1040
1.0
1040
0.0
1040
0.0
1070
     0
1002
{
1002
}
1002
}
  0
ENDSEC
  0
SECTION
  2
OBJECTS
  0
DICTIONARY
  5
19
330
0
100
AcDbDictionary
  3
ACAD_COLOR
350
C0E
  3
ACAD_GROUP
350
1A
  3
ACAD_LAYOUT
350
7AA
  3
ACAD_MATERIAL
350
C0D
  3
ACAD_MLINESTYLE
350
1B
  3
ACAD_PLOTSETTINGS
350
7AB
  3
ACADDIM
350
BF7
  3
ASE_INDEX_DICTIONARY
350
502C
1001
ACAD
1000
TREAT_AS_HARD
1070
     0
1000
TREAT_AS_HARD
1070
     0
1000
TREAT_AS_HARD
1070
     0
1000
TREAT_AS_HARD
1070
     0
  0
DICTIONARY
  5
5013
330
2
100
AcDbDictionary
  3
ACAD_LAYERSTATES
350
5014
1001
ACAD
1000
TREAT_AS_HARD
1070
     1
  0
DICTIONARY
  5
4DB0
330
A
100
AcDbDictionary
  3
ACAD_LAYOUTSELFREF
350
5068
1001
ACAD
1000
TREAT_AS_HARD
1070
     1
1000
TREAT_AS_HARD
1070
     0
1000
TREAT_AS_HARD
1070
     1
  0
DICTIONARY
  5
4DB2
330
B
100
AcDbDictionary
  3
ACAD_LAYOUTSELFREF
350
5069
1001
ACAD
1000
TREAT_AS_HARD
1070
     1
1000
TREAT_AS_HARD
1070
     0
1000
TREAT_AS_HARD
1070
     1
  0
DICTIONARY
  5
505A
330
D52
100
AcDbDictionary
  3
ACAD_XREC_ROUNDTRIP
350
505B
1001
ACAD
1000
TREAT_AS_HARD
1070
     1
  0
DICTIONARY
  5
5060
330
5044
100
AcDbDictionary
  3
ACAD_XREC_ROUNDTRIP
350
5061
1001
ACAD
1000
TREAT_AS_HARD
1070
     1
  0
DICTIONARY
  5
C0E
102
{ACAD_REACTORS
330
19
102
}
330
19
100
AcDbDictionary
1001
ACAD
1000
TREAT_AS_HARD
1070
     0
1000
TREAT_AS_HARD
1070
     0
1000
TREAT_AS_HARD
1070
     0
1000
TREAT_AS_HARD
1070
     0
  0
DICTIONARY
  5
1A
102
{ACAD_REACTORS
330
19
102
}
330
19
100
AcDbDictionary
  3
DAGROUP5AC
350
5AC
  3
DAGROUP5B0
350
5B0
1001
ACAD
1000
TREAT_AS_HARD
1070
     0
1000
TREAT_AS_HARD
1070
     0
1000
TREAT_AS_HARD
1070
     0
1000
TREAT_AS_HARD
1070
     0
  0
DICTIONARY
  5
7AA
102
{ACAD_REACTORS
330
19
102
}
330
19
100
AcDbDictionary
1001
ACAD
1000
TREAT_AS_HARD
1070
     0
1000
TREAT_AS_HARD
1070
     0
1000
TREAT_AS_HARD
1070
     0
1000
TREAT_AS_HARD
1070
     0
  0
DICTIONARY
  5
C0D
102
{ACAD_REACTORS
330
19
102
}
330
19
100
AcDbDictionary
1001
ACAD
1000
TREAT_AS_HARD
1070
     0
1000
TREAT_AS_HARD
1070
     0
1000
TREAT_AS_HARD
1070
     0
1000
TREAT_AS_HARD
1070
     0
  0
DICTIONARY
  5
1B
102
{ACAD_REACTORS
330
19
102
}
330
19
100
AcDbDictionary
  3
STANDARD
350
1C
1001
ACAD
1000
TREAT_AS_HARD
1070
     0
1000
TREAT_AS_HARD
1070
     0
1000
TREAT_AS_HARD
1070
     0
1000
TREAT_AS_HARD
1070
     0
  0
DICTIONARY
  5
7AB
102
{ACAD_REACTORS
330
19
102
}
330
19
100
AcDbDictionary
1001
ACAD
1000
TREAT_AS_HARD
1070
     0
1000
TREAT_AS_HARD
1070
     0
1000
TREAT_AS_HARD
1070
     0
1000
TREAT_AS_HARD
1070
     0
  0
XRECORD
  5
BF7
102
{ACAD_REACTORS
330
19
102
}
330
19
100
AcDbXrecord
 90
   990106
  3

 60
     0
 61
     0
 62
     1
 63
     3
 64
     1
 65
     0
 66
     0
 67
     3
 68
     1
 69
     0
 70
     0
 71
     0
 72
     0
 40
0.0
170
     2
340
0
  0
DICTIONARY
  5
502C
102
{ACAD_REACTORS
330
19
102
}
330
19
100
AcDbDictionary
  3
ASEBLOCKHIERARCHYINDEXRECORD
350
502D
1001
DCO15
1040
1508736331.046
1001
ACAD
1000
TREAT_AS_HARD
1070
     0
  0
DICTIONARY
  5
5014
102
{ACAD_REACTORS
330
5013
102
}
330
5013
100
AcDbDictionary
1001
ACAD
1000
TREAT_AS_HARD
1070
     0
  0
XRECORD
  5
5068
102
{ACAD_REACTORS
330
4DB0
102
}
330
4DB0
100
AcDbXrecord
340
A
  0
XRECORD
  5
5069
102
{ACAD_REACTORS
330
4DB2
102
}
330
4DB2
100
AcDbXrecord
340
B
  0
XRECORD
  5
505B
102
{ACAD_REACTORS
330
505A
102
}
330
505A
100
AcDbXrecord
102
SHADEPLOT
 70
     0
  0
XRECORD
  5
5061
102
{ACAD_REACTORS
330
5060
102
}
330
5060
100
AcDbXrecord
102
SHADEPLOT
 70
     0
  0
GROUP
  5
5AC
102
{ACAD_REACTORS
330
1A
102
}
330
1A
100
AcDbGroup
300

 70
     0
 71
     1
  0
GROUP
  5
5B0
102
{ACAD_REACTORS
330
1A
102
}
330
1A
100
AcDbGroup
300

 70
     0
 71
     1
  0
MLINESTYLE
  5
1C
102
{ACAD_REACTORS
330
1B
102
}
330
1B
100
AcDbMlineStyle
  2
STANDARD
 70
     0
  3

 62
     0
 51
90.00000000000019
 52
90.00000000000019
 71
     2
 49
0.5
 62
   256
  6
BYLAYER
 49
-0.5
 62
   256
  6
BYLAYER
  0
XRECORD
  5
502D
102
{ACAD_REACTORS
330
502C
102
}
330
502C
100
AcDbXrecord
330
290F
330
4DC0
330
4DC1
330
4DCB
330
4DD5
330
4DD6
330
4DDE
330
4DDF
330
39E1
330
39E2
330
3E38
330
3E39
330
3E30
330
3E2F
330
3DD1
330
3DD2
330
3DC8
330
3DC9
330
3DBD
330
3DBE
330
3DB3
330
3DB4
330
3E25
330
3E26
330
3E1C
330
3E1D
330
3E13
330
3E14
330
3E0A
330
3E0B
330
3E01
330
3E02
330
3DF8
330
3DF9
330
39D8
330
39D9
330
3F0D
330
3F0E
330
3B69
330
3B6A
330
4E62
330
4E6D
330
4E6E
330
3D96
330
3D97
330
3D8C
330
3D8D
330
3CFD
330
3CFE
330
3CF5
330
3CF6
330
3CEC
330
3CED
330
38F8
330
38F9
330
3CCC
330
3CCD
330
3CD6
330
3CD7
330
3CE1
330
3CE2
330
3E84
330
3E85
330
3ED9
330
3EDA
330
3F18
330
3F19
330
400A
330
400B
330
4013
330
4014
330
3FE2
330
3FE3
  0
ENDSEC
  0
EOF
