  0
SECTION
  2
HEADER
  9
$ACADVER
  1
AC1012
  9
$DWGCODEPAGE
  3
dos932
  9
$INSBASE
 10
0.0
 20
0.0
 30
0.0
  9
$EXTMIN
 10
0.0
 20
0.0
 30
0.0
  9
$EXTMAX
 10
420.0
 20
594.0
 30
0.0
  9
$LIMMIN
 10
0.0
 20
0.0
  9
$LIMMAX
 10
420.0
 20
594.0
  9
$ORTHOMODE
 70
     0
  9
$REGENMODE
 70
     1
  9
$FILLMODE
 70
     1
  9
$QTEXTMODE
 70
     0
  9
$MIRRTEXT
 70
     1
  9
$DRAGMODE
 70
     2
  9
$LTSCALE
 40
1.0
  9
$OSMODE
 70
    37
  9
$ATTMODE
 70
     1
  9
$TEXTSIZE
 40
4.0
  9
$TRACEWID
 40
0.05
  9
$TEXTSTYLE
  7
1_0
  9
$CLAYER
  8
DEFPOINTS
  9
$CELTYPE
  6
BYLAYER
  9
$CECOLOR
 62
   256
  9
$CELTSCALE
 40
1.0
  9
$DELOBJ
 70
     1
  9
$DISPSILH
 70
     0
  9
$DIMSCALE
 40
2.0
  9
$DIMASZ
 40
2.5
  9
$DIMEXO
 40
1.5
  9
$DIMDLI
 40
0.0
  9
$DIMRND
 40
0.0
  9
$DIMDLE
 40
0.0
  9
$DIMEXE
 40
1.0
  9
$DIMTP
 40
0.0
  9
$DIMTM
 40
0.0
  9
$DIMTXT
 40
2.5
  9
$DIMCEN
 40
0.0
  9
$DIMTSZ
 40
0.0
  9
$DIMTOL
 70
     0
  9
$DIMLIM
 70
     0
  9
$DIMTIH
 70
     0
  9
$DIMTOH
 70
     0
  9
$DIMSE1
 70
     0
  9
$DIMSE2
 70
     0
  9
$DIMTAD
 70
     1
  9
$DIMZIN
 70
     8
  9
$DIMBLK
  1
OPEN30
  9
$DIMASO
 70
     1
  9
$DIMSHO
 70
     1
  9
$DIMPOST
  1

  9
$DIMAPOST
  1

  9
$DIMALT
 70
     0
  9
$DIMALTD
 70
     2
  9
$DIMALTF
 40
25.4
  9
$DIMLFAC
 40
1.0
  9
$DIMTOFL
 70
     1
  9
$DIMTVP
 40
0.0
  9
$DIMTIX
 70
     0
  9
$DIMSOXD
 70
     0
  9
$DIMSAH
 70
     0
  9
$DIMBLK1
  1

  9
$DIMBLK2
  1

  9
$DIMSTYLE
  2
SUNPOU_2
  9
$DIMCLRD
 70
   256
  9
$DIMCLRE
 70
   256
  9
$DIMCLRT
 70
     6
  9
$DIMTFAC
 40
1.0
  9
$DIMGAP
 40
1.0
  9
$DIMJUST
 70
     0
  9
$DIMSD1
 70
     0
  9
$DIMSD2
 70
     0
  9
$DIMTOLJ
 70
     1
  9
$DIMTZIN
 70
     0
  9
$DIMALTZ
 70
     0
  9
$DIMALTTZ
 70
     0
  9
$DIMFIT
 70
     3
  9
$DIMUPT
 70
     0
  9
$DIMUNIT
 70
     2
  9
$DIMDEC
 70
     1
  9
$DIMTDEC
 70
     1
  9
$DIMALTU
 70
     2
  9
$DIMALTTD
 70
     2
  9
$DIMTXSTY
  7
SUNPOU
  9
$DIMAUNIT
 70
     0
  9
$LUNITS
 70
     2
  9
$LUPREC
 70
     4
  9
$SKETCHINC
 40
0.1
  9
$FILLETRAD
 40
0.0
  9
$AUNITS
 70
     0
  9
$AUPREC
 70
     0
  9
$MENU
  1
acad
  9
$ELEVATION
 40
0.0
  9
$PELEVATION
 40
0.0
  9
$THICKNESS
 40
0.0
  9
$LIMCHECK
 70
     0
  9
$BLIPMODE
 70
     0
  9
$CHAMFERA
 40
0.0
  9
$CHAMFERB
 40
0.0
  9
$CHAMFERC
 40
0.0
  9
$CHAMFERD
 40
0.0
  9
$SKPOLY
 70
     0
  9
$TDCREATE
 40
2444972.375000000
  9
$TDUPDATE
 40
2453266.405258970
  9
$TDINDWG
 40
0.7182055093
  9
$TDUSRTIMER
 40
0.7182055093
  9
$USRTIMER
 70
     1
  9
$ANGBASE
 50
0.0
  9
$ANGDIR
 70
     0
  9
$PDMODE
 70
     0
  9
$PDSIZE
 40
1.0
  9
$PLINEWID
 40
0.0
  9
$COORDS
 70
     1
  9
$SPLFRAME
 70
     0
  9
$SPLINETYPE
 70
     6
  9
$SPLINESEGS
 70
     8
  9
$ATTDIA
 70
     0
  9
$ATTREQ
 70
     1
  9
$HANDLING
 70
-16383
  9
$HANDSEED
  5
E30
  9
$SURFTAB1
 70
     6
  9
$SURFTAB2
 70
     6
  9
$SURFTYPE
 70
     6
  9
$SURFU
 70
     6
  9
$SURFV
 70
     6
  9
$UCSNAME
  2

  9
$UCSORG
 10
0.0
 20
0.0
 30
0.0
  9
$UCSXDIR
 10
1.0
 20
0.0
 30
0.0
  9
$UCSYDIR
 10
0.0
 20
1.0
 30
0.0
  9
$PUCSNAME
  2

  9
$PUCSORG
 10
0.0
 20
0.0
 30
0.0
  9
$PUCSXDIR
 10
1.0
 20
0.0
 30
0.0
  9
$PUCSYDIR
 10
0.0
 20
1.0
 30
0.0
  9
$USERI1
 70
     0
  9
$USERI2
 70
     0
  9
$USERI3
 70
     0
  9
$USERI4
 70
     0
  9
$USERI5
 70
     0
  9
$USERR1
 40
0.0
  9
$USERR2
 40
0.0
  9
$USERR3
 40
0.0
  9
$USERR4
 40
0.0
  9
$USERR5
 40
0.0
  9
$WORLDVIEW
 70
     1
  9
$SHADEDGE
 70
     3
  9
$SHADEDIF
 70
    70
  9
$TILEMODE
 70
     1
  9
$MAXACTVP
 70
    16
  9
$PINSBASE
 10
0.0
 20
0.0
 30
0.0
  9
$PLIMCHECK
 70
     0
  9
$PEXTMIN
 10
-0.1933276983398855
 20
-0.0174202791267817
 30
-0.0015258207003583
  9
$PEXTMAX
 10
396.2949895136353
 20
570.3923158424973
 30
0.0000000349246037
  9
$PLIMMIN
 10
-11.94191342824454
 20
-11.76600219398141
  9
$PLIMMAX
 10
408.0435733360149
 20
582.1408996648768
  9
$UNITMODE
 70
     0
  9
$VISRETAIN
 70
     0
  9
$PLINEGEN
 70
     1
  9
$PSLTSCALE
 70
     0
  9
$TREEDEPTH
 70
  3020
  9
$PICKSTYLE
 70
     1
  9
$CMLSTYLE
  2
STANDARD
  9
$CMLJUST
 70
     0
  9
$CMLSCALE
 40
1.0
  9
$SAVEIMAGES
 70
     1
  0
ENDSEC
  0
SECTION
  2
CLASSES
  0
CLASS
  1
LWPOLYLINE
  2
AcDbPolyline
  3
AutoCAD 2000
 90
    32768
280
     0
281
     1
  0
CLASS
  1
IMAGE
  2
AcDbRasterImage
  3
ISM
 90
    32895
280
     0
281
     1
  0
CLASS
  1
OLE2FRAME
  2
AcDbOle2Frame
  3
AutoCAD 2000
 90
    32768
280
     0
281
     1
  0
CLASS
  1
HATCH
  2
AcDbHatch
  3
AutoCAD 2000
 90
    32768
280
     0
281
     1
  0
CLASS
  1
DICTIONARYVAR
  2
AcDbDictionaryVar
  3
AutoCAD 2000
 90
    32768
280
     0
281
     0
  0
CLASS
  1
RASTERVARIABLES
  2
AcDbRasterVariables
  3
ISM
 90
    32768
280
     0
281
     0
  0
CLASS
  1
IMAGEDEF
  2
AcDbRasterImageDef
  3
ISM
 90
    32768
280
     0
281
     0
  0
CLASS
  1
IMAGEDEF_REACTOR
  2
AcDbRasterImageDefReactor
  3
ISM
 90
    32769
280
     0
281
     0
  0
CLASS
  1
IDBUFFER
  2
AcDbIdBuffer
  3
AutoCAD 2000
 90
    32768
280
     0
281
     0
  0
CLASS
  1
SPATIAL_FILTER
  2
AcDbSpatialFilter
  3
AutoCAD 2000
 90
    32768
280
     0
281
     0
  0
CLASS
  1
XRECORD
  2
AcDbXrecord
  3
AutoCAD 2000
 90
    32768
280
     0
281
     0
  0
CLASS
  1
SORTENTSTABLE
  2
AcDbSortentsTable
  3
AutoCAD 2000
 90
    32768
280
     0
281
     0
  0
CLASS
  1
LAYER_INDEX
  2
AcDbLayerIndex
  3
AutoCAD 2000
 90
    32768
280
     0
281
     0
  0
CLASS
  1
SPATIAL_INDEX
  2
AcDbSpatialIndex
  3
AutoCAD 2000
 90
    32768
280
     0
281
     0
  0
CLASS
  1
OBJECT_PTR
  2
CAseDLPNTableRecord
  3
ASE-LPNTableRecord
 90
    32769
280
     0
281
     0
  0
CLASS
  1
ACDBDICTIONARYWDFLT
  2
AcDbDictionaryWithDefault
  3
AutoCAD 2000
 90
    32768
280
     0
281
     0
  0
CLASS
  1
ACDBPLACEHOLDER
  2
AcDbPlaceHolder
  3
AutoCAD 2000
 90
    32768
280
     0
281
     0
  0
CLASS
  1
LAYOUT
  2
AcDbLayout
  3
AutoCAD 2000
 90
    32768
280
     0
281
     0
  0
CLASS
  1
LONG_TRANSACTION
  2
AcDbLongTransaction
  3
AutoCAD 2000
 90
    32768
280
     0
281
     0
  0
CLASS
  1
LWPOLYLINE
  2
AcDbPolyline
  3
AutoCAD 2000
 90
    32768
280
     0
281
     1
  0
CLASS
  1
HATCH
  2
AcDbHatch
  3
AutoCAD 2000
 90
    32768
280
     0
281
     1
  0
CLASS
  1
XRECORD
  2
AcDbXrecord
  3
AutoCAD 2000
 90
    32768
280
     0
281
     0
  0
CLASS
  1
LONG_TRANSACTION
  2
AcDbLongTransaction
  3
AutoCAD 2000
 90
    32768
280
     0
281
     0
  0
CLASS
  1
LWPOLYLINE
  2
AcDbPolyline
  3
AutoCAD 2000
 90
    32768
280
     0
281
     1
  0
CLASS
  1
HATCH
  2
AcDbHatch
  3
AutoCAD 2000
 90
    32768
280
     0
281
     1
  0
CLASS
  1
XRECORD
  2
AcDbXrecord
  3
AutoCAD 2000
 90
    32768
280
     0
281
     0
  0
ENDSEC
  0
SECTION
  2
TABLES
  0
TABLE
  2
VPORT
  5
7
330
0
100
AcDbSymbolTable
 70
     2
  0
VPORT
  5
E18
330
7
100
AcDbSymbolTableRecord
100
AcDbViewportTableRecord
  2
*ACTIVE
 70
     0
 10
0.0
 20
0.0
 11
1.0
 21
1.0
 12
229.3222895401896
 22
297.000001383014
 13
0.0
 23
0.0
 14
1.0
 24
1.0
 15
0.0
 25
0.0
 16
0.0
 26
0.0
 36
1.0
 17
0.0
 27
0.0
 37
0.0
 40
601.5477796081998
 41
1.780442804428044
 42
50.0
 43
0.0
 44
0.0
 50
0.0
 51
0.0
 71
     0
 72
   100
 73
     1
 74
     1
 75
     0
 76
     0
 77
     0
 78
     0
  0
ENDTAB
  0
TABLE
  2
LTYPE
  5
4
330
0
100
AcDbSymbolTable
 70
     4
  0
LTYPE
  5
11
330
4
100
AcDbSymbolTableRecord
100
AcDbLinetypeTableRecord
  2
BYBLOCK
 70
     0
  3

 72
    65
 73
     0
 40
0.0
  0
LTYPE
  5
12
330
4
100
AcDbSymbolTableRecord
100
AcDbLinetypeTableRecord
  2
BYLAYER
 70
     0
  3

 72
    65
 73
     0
 40
0.0
  0
LTYPE
  5
13
330
4
100
AcDbSymbolTableRecord
100
AcDbLinetypeTableRecord
  2
CONTINUOUS
 70
     0
  3
Solid line
 72
    65
 73
     0
 40
0.0
  0
LTYPE
  5
21
330
4
100
AcDbSymbolTableRecord
100
AcDbLinetypeTableRecord
  2
DASHED2
 70
     0
  3
CADPAC FUSION LINETYPE
 72
    65
 73
     2
 40
13.365
 49
8.91
 74
     0
 49
-4.455
 74
     0
  0
LTYPE
  5
4A8
330
4
100
AcDbSymbolTableRecord
100
AcDbLinetypeTableRecord
  2
CENTER2
 70
     0
  3
Center (.5x) ___ _ ___ _ ___ _ ___ _ ___ _ ___
 72
    65
 73
     4
 40
28.57499999999999
 49
19.05
 74
     0
 49
-3.174999999999998
 74
     0
 49
3.174999999999998
 74
     0
 49
-3.174999999999998
 74
     0
  0
LTYPE
  5
4AD
330
4
100
AcDbSymbolTableRecord
100
AcDbLinetypeTableRecord
  2
PHANTOM2
 70
     0
  3
Phantom (.5x) ___ _ _ ___ _ _ ___ _ _ ___ _ _
 72
    65
 73
     6
 40
31.75
 49
15.875
 74
     0
 49
-3.174999999999998
 74
     0
 49
3.174999999999998
 74
     0
 49
-3.174999999999998
 74
     0
 49
3.174999999999998
 74
     0
 49
-3.174999999999998
 74
     0
  0
ENDTAB
  0
TABLE
  2
LAYER
  5
2
102
{ACAD_XDICTIONARY
360
B41
102
}
330
0
100
AcDbSymbolTable
 70
    12
  0
LAYER
  5
14
330
2
100
AcDbSymbolTableRecord
100
AcDbLayerTableRecord
  2
0
 70
     0
 62
     7
  6
CONTINUOUS
  0
LAYER
  5
49F
330
2
100
AcDbSymbolTableRecord
100
AcDbLayerTableRecord
  2
DEFPOINTS
 70
     0
 62
     7
  6
CONTINUOUS
  0
LAYER
  5
4A2
330
2
100
AcDbSymbolTableRecord
100
AcDbLayerTableRecord
  2
03
 70
     0
 62
     3
  6
CONTINUOUS
  0
LAYER
  5
4A3
330
2
100
AcDbSymbolTableRecord
100
AcDbLayerTableRecord
  2
04
 70
     0
 62
     4
  6
CONTINUOUS
  0
LAYER
  5
4A5
330
2
100
AcDbSymbolTableRecord
100
AcDbLayerTableRecord
  2
06
 70
     0
 62
     6
  6
CONTINUOUS
  0
LAYER
  5
4A7
330
2
100
AcDbSymbolTableRecord
100
AcDbLayerTableRecord
  2
CHUSIN
 70
     0
 62
     6
  6
CENTER2
  0
LAYER
  5
4A9
330
2
100
AcDbSymbolTableRecord
100
AcDbLayerTableRecord
  2
HIKIDASI
 70
     0
 62
     6
  6
CONTINUOUS
  0
LAYER
  5
4AA
330
2
100
AcDbSymbolTableRecord
100
AcDbLayerTableRecord
  2
KAKURE
 70
     0
 62
     6
  6
DASHED2
  0
LAYER
  5
4AB
330
2
100
AcDbSymbolTableRecord
100
AcDbLayerTableRecord
  2
MOJI
 70
     0
 62
     3
  6
CONTINUOUS
  0
LAYER
  5
4AC
330
2
100
AcDbSymbolTableRecord
100
AcDbLayerTableRecord
  2
SOUZOU
 70
     0
 62
     6
  6
PHANTOM2
  0
LAYER
  5
4AE
330
2
100
AcDbSymbolTableRecord
100
AcDbLayerTableRecord
  2
SUNPOU
 70
     0
 62
     6
  6
CONTINUOUS
  0
LAYER
  5
C60
330
2
100
AcDbSymbolTableRecord
100
AcDbLayerTableRecord
  2
SAISEN
 70
     0
 62
     3
  6
CONTINUOUS
  0
ENDTAB
  0
TABLE
  2
STYLE
  5
3
330
0
100
AcDbSymbolTable
 70
     5
  0
STYLE
  5
17
330
3
100
AcDbSymbolTableRecord
100
AcDbTextStyleTableRecord
  2
STANDARD
 70
     0
 40
0.0
 41
0.8
 50
0.0
 71
     0
 42
8.0
  3
txt.shx
  4
bigfont.shx
  0
STYLE
  5
4B0
330
3
100
AcDbSymbolTableRecord
100
AcDbTextStyleTableRecord
  2
SUNPOU
 70
     0
 40
0.0
 41
0.8
 50
0.0
 71
     0
 42
0.2
  3
txt.shx
  4
extfont.shx
  0
STYLE
  5
4C1
330
3
100
AcDbSymbolTableRecord
100
AcDbTextStyleTableRecord
  2
1_0
 70
     0
 40
0.0
 41
1.0
 50
0.0
 71
     0
 42
4.0
  3
txt.shx
  4
extfont.shx
  0
STYLE
  5
B22
330
3
100
AcDbSymbolTableRecord
100
AcDbTextStyleTableRecord
  2
0_8
 70
     0
 40
0.0
 41
0.8
 50
0.0
 71
     0
 42
2.5
  3
txt.shx
  4
extfont.shx
  0
STYLE
  5
DBC
330
3
100
AcDbSymbolTableRecord
100
AcDbTextStyleTableRecord
  2
0_80
 70
     0
 40
0.0
 41
0.8
 50
0.0
 71
     0
 42
7.0
  3
txt.shx
  4
extfont.shx
  0
ENDTAB
  0
TABLE
  2
VIEW
  5
5
330
0
100
AcDbSymbolTable
 70
     1
  0
VIEW
  5
135
330
5
100
AcDbSymbolTableRecord
100
AcDbViewTableRecord
  2
QQQQ
 70
     0
 40
941.4726230228472
 10
287.4529876977151
 20
-145.0057117750439
 41
1024.23110281195
 11
0.0
 21
0.0
 31
1.0
 12
100.0
 22
100.0
 32
0.0
 42
50.0
 43
0.0
 44
0.0
 50
0.0
 71
     0
  0
ENDTAB
  0
TABLE
  2
UCS
  5
6
330
0
100
AcDbSymbolTable
 70
     0
  0
ENDTAB
  0
TABLE
  2
APPID
  5
8
330
0
100
AcDbSymbolTable
 70
     3
  0
APPID
  5
16
330
8
100
AcDbSymbolTableRecord
100
AcDbRegAppTableRecord
  2
ACAD
 70
     0
  0
APPID
  5
D7C
330
8
100
AcDbSymbolTableRecord
100
AcDbRegAppTableRecord
  2
CONTENTBLOCKICON
 70
     0
  0
APPID
  5
DB9
330
8
100
AcDbSymbolTableRecord
100
AcDbRegAppTableRecord
  2
DCO15
 70
     0
  0
ENDTAB
  0
TABLE
  2
DIMSTYLE
  5
9
330
0
100
AcDbSymbolTable
 70
     2
  0
DIMSTYLE
105
18
330
9
100
AcDbSymbolTableRecord
100
AcDbDimStyleTableRecord
  2
STANDARD
 70
     0
  3

  4

  5

  6

  7

 40
1.0
 41
0.18
 42
0.0625
 43
0.38
 44
0.18
 45
0.0
 46
0.0
 47
0.0
 48
0.0
140
0.18
141
0.09
142
0.0
143
25.4
144
1.0
145
0.0
146
1.0
147
0.09
 71
     0
 72
     0
 73
     1
 74
     1
 75
     0
 76
     0
 77
     0
 78
     0
170
     0
171
     2
172
     0
173
     0
174
     0
175
     0
176
     0
177
     0
178
     0
270
     2
271
     4
272
     4
273
     2
274
     2
340
17
275
     0
280
     0
281
     0
282
     0
283
     1
284
     0
285
     0
286
     0
287
     3
288
     0
  0
DIMSTYLE
105
4AF
102
{ACAD_REACTORS
330
510
330
51D
330
52A
330
537
330
544
330
551
330
55E
330
57A
330
56B
330
662
330
5BB
330
5AE
330
66F
330
594
330
4F6
330
503
330
655
330
646
330
5A1
330
587
330
4EE
330
4F0
330
4F2
330
4F4
330
A6B
330
A78
330
AA4
330
AB1
330
ABF
330
ACC
330
AED
330
AFA
102
}
330
9
100
AcDbSymbolTableRecord
100
AcDbDimStyleTableRecord
  2
SUNPOU_2
 70
     0
  3

  4

  5
OPEN30
  6

  7

 40
2.0
 41
2.5
 42
1.5
 43
0.0
 44
1.0
 45
0.0
 46
0.0
 47
0.0
 48
0.0
140
2.5
141
0.0
142
0.0
143
25.4
144
1.0
145
0.0
146
1.0
147
1.0
 71
     0
 72
     0
 73
     0
 74
     0
 75
     0
 76
     0
 77
     1
 78
     8
170
     0
171
     2
172
     1
173
     0
174
     0
175
     0
176
   256
177
   256
178
     6
270
     2
271
     1
272
     1
273
     2
274
     2
340
4B0
275
     0
280
     0
281
     0
282
     0
283
     1
284
     0
285
     0
286
     0
287
     3
288
     0
  0
ENDTAB
  0
TABLE
  2
BLOCK_RECORD
  5
1
330
0
100
AcDbSymbolTable
 70
    30
  0
BLOCK_RECORD
  5
A
102
{ACAD_XDICTIONARY
360
D78
102
}
330
1
100
AcDbSymbolTableRecord
100
AcDbBlockTableRecord
  2
*MODEL_SPACE
  0
BLOCK_RECORD
  5
B
102
{ACAD_XDICTIONARY
360
D7A
102
}
330
1
100
AcDbSymbolTableRecord
100
AcDbBlockTableRecord
  2
*PAPER_SPACE
  0
BLOCK_RECORD
  5
4B1
330
1
100
AcDbSymbolTableRecord
100
AcDbBlockTableRecord
  2
_OPEN30
1001
CONTENTBLOCKICON
1071
        0
1004
2800000020000000200000000100080000000000000400000000000000000000000000000000000000000000000080000080000000808000800000008000800080800000C0C0C000C0DCC000F0CAA6000020400000206000002080000020A0000020C0000020E00000400000004020000040400000406000004080000040A0
1004
000040C0000040E00000600000006020000060400000606000006080000060A0000060C0000060E00000800000008020000080400000806000008080000080A0000080C0000080E00000A0000000A0200000A0400000A0600000A0800000A0A00000A0C00000A0E00000C0000000C0200000C0400000C0600000C0800000C0
1004
A00000C0C00000C0E00000E0000000E0200000E0400000E0600000E0800000E0A00000E0C00000E0E00040000000400020004000400040006000400080004000A0004000C0004000E00040200000402020004020400040206000402080004020A0004020C0004020E000404000004040200040404000404060004040800040
1004
40A0004040C0004040E00040600000406020004060400040606000406080004060A0004060C0004060E00040800000408020004080400040806000408080004080A0004080C0004080E00040A0000040A0200040A0400040A0600040A0800040A0A00040A0C00040A0E00040C0000040C0200040C0400040C0600040C08000
1004
40C0A00040C0C00040C0E00040E0000040E0200040E0400040E0600040E0800040E0A00040E0C00040E0E00080000000800020008000400080006000800080008000A0008000C0008000E00080200000802020008020400080206000802080008020A0008020C0008020E00080400000804020008040400080406000804080
1004
008040A0008040C0008040E00080600000806020008060400080606000806080008060A0008060C0008060E00080800000808020008080400080806000808080008080A0008080C0008080E00080A0000080A0200080A0400080A0600080A0800080A0A00080A0C00080A0E00080C0000080C0200080C0400080C0600080C0
1004
800080C0A00080C0C00080C0E00080E0000080E0200080E0400080E0600080E0800080E0A00080E0C00080E0E000C0000000C0002000C0004000C0006000C0008000C000A000C000C000C000E000C0200000C0202000C0204000C0206000C0208000C020A000C020C000C020E000C0400000C0402000C0404000C0406000C0
1004
408000C040A000C040C000C040E000C0600000C0602000C0604000C0606000C0608000C060A000C060C000C060E000C0800000C0802000C0804000C0806000C0808000C080A000C080C000C080E000C0A00000C0A02000C0A04000C0A06000C0A08000C0A0A000C0A0C000C0A0E000C0C00000C0C02000C0C04000C0C06000
1004
C0C08000C0C0A000F0FBFF00A4A0A000808080000000FF0000FF000000FFFF00FF000000FF00FF00FFFF0000FFFFFF0000000000000000000000000000000000000000000000000000000000000000000000000000000000000000000000000000000000000000000000000000000000000000000000000000000000000000
1004
00000000000000000000000000000000000000000000000000000000000000000000000000000000000000000000000000000000000000000000000000000000000000000000000000000000000000000000000000000000000000000000000000000000000000000000000000000000000000000000000000000000000000
1004
000000000000000000000000000000000000000000000000000000000000000000000000000000000000000000000000000000FFFF0000000000000000000000000000000000000000000000000000000000000000FFFFFFFF0000000000000000000000000000000000000000000000000000000000000000FFFFFFFF0000
1004
000000000000000000000000000000000000000000000000000000000000FFFFFF0000000000000000000000000000000000000000000000000000000000000000FFFFFFFF0000000000000000000000000000000000000000000000000000000000000000FFFFFF0000000000000000000000000000000000000000000000
1004
000000000000000000FFFFFFFF0000000000000000000000000000000000000000000000000000000000000000FFFFFFFF00000000FFFFFFFFFFFFFFFFFFFFFFFFFFFFFFFFFFFFFFFFFFFFFFFFFFFFFFFFFFFF00000000000000000000000000000000000000000000000000FFFFFFFF000000000000000000000000000000
1004
000000000000000000FFFFFFFF000000000000000000000000000000000000000000000000FFFFFFFF000000000000000000000000000000000000000000000000FFFFFFFF000000000000000000000000000000000000000000000000FFFFFFFF000000000000000000000000000000000000000000000000FFFFFFFF0000
1004
0000000000000000000000000000000000000000000000FFFFFF0000000000000000000000000000000000000000000000000000000000000000000000000000000000000000000000000000000000000000000000000000000000000000000000000000000000000000000000000000000000000000000000000000000000
1004
00000000000000000000000000000000000000000000000000000000000000000000000000000000000000000000000000000000000000000000000000000000000000000000000000000000000000000000000000000000000000000000000000000000000000000000000000000000000000000000000000000000000000
1004
0000000000000000000000000000000000000000000000000000000000000000000000000000000000000000000000000000000000000000
  0
BLOCK_RECORD
  5
4F7
330
1
100
AcDbSymbolTableRecord
100
AcDbBlockTableRecord
  2
*D1
  0
BLOCK_RECORD
  5
504
330
1
100
AcDbSymbolTableRecord
100
AcDbBlockTableRecord
  2
*D2
  0
BLOCK_RECORD
  5
511
330
1
100
AcDbSymbolTableRecord
100
AcDbBlockTableRecord
  2
*D3
  0
BLOCK_RECORD
  5
51E
330
1
100
AcDbSymbolTableRecord
100
AcDbBlockTableRecord
  2
*D4
  0
BLOCK_RECORD
  5
52B
330
1
100
AcDbSymbolTableRecord
100
AcDbBlockTableRecord
  2
*D5
  0
BLOCK_RECORD
  5
538
330
1
100
AcDbSymbolTableRecord
100
AcDbBlockTableRecord
  2
*D6
  0
BLOCK_RECORD
  5
545
330
1
100
AcDbSymbolTableRecord
100
AcDbBlockTableRecord
  2
*D7
  0
BLOCK_RECORD
  5
552
330
1
100
AcDbSymbolTableRecord
100
AcDbBlockTableRecord
  2
*D8
  0
BLOCK_RECORD
  5
55F
330
1
100
AcDbSymbolTableRecord
100
AcDbBlockTableRecord
  2
*D9
  0
BLOCK_RECORD
  5
56C
330
1
100
AcDbSymbolTableRecord
100
AcDbBlockTableRecord
  2
*D10
  0
BLOCK_RECORD
  5
57B
330
1
100
AcDbSymbolTableRecord
100
AcDbBlockTableRecord
  2
*D11
  0
BLOCK_RECORD
  5
588
330
1
100
AcDbSymbolTableRecord
100
AcDbBlockTableRecord
  2
*D12
  0
BLOCK_RECORD
  5
595
330
1
100
AcDbSymbolTableRecord
100
AcDbBlockTableRecord
  2
*D13
  0
BLOCK_RECORD
  5
5A2
330
1
100
AcDbSymbolTableRecord
100
AcDbBlockTableRecord
  2
*D14
  0
BLOCK_RECORD
  5
5AF
330
1
100
AcDbSymbolTableRecord
100
AcDbBlockTableRecord
  2
*D15
  0
BLOCK_RECORD
  5
5BC
330
1
100
AcDbSymbolTableRecord
100
AcDbBlockTableRecord
  2
*D16
  0
BLOCK_RECORD
  5
647
330
1
100
AcDbSymbolTableRecord
100
AcDbBlockTableRecord
  2
*D17
  0
BLOCK_RECORD
  5
656
330
1
100
AcDbSymbolTableRecord
100
AcDbBlockTableRecord
  2
*D18
  0
BLOCK_RECORD
  5
663
330
1
100
AcDbSymbolTableRecord
100
AcDbBlockTableRecord
  2
*D19
  0
BLOCK_RECORD
  5
670
330
1
100
AcDbSymbolTableRecord
100
AcDbBlockTableRecord
  2
*D20
  0
BLOCK_RECORD
  5
A6C
330
1
100
AcDbSymbolTableRecord
100
AcDbBlockTableRecord
  2
*D21
  0
BLOCK_RECORD
  5
A79
330
1
100
AcDbSymbolTableRecord
100
AcDbBlockTableRecord
  2
*D22
  0
BLOCK_RECORD
  5
AA5
330
1
100
AcDbSymbolTableRecord
100
AcDbBlockTableRecord
  2
*D23
  0
BLOCK_RECORD
  5
AB2
330
1
100
AcDbSymbolTableRecord
100
AcDbBlockTableRecord
  2
*D24
  0
BLOCK_RECORD
  5
AC0
330
1
100
AcDbSymbolTableRecord
100
AcDbBlockTableRecord
  2
*D25
  0
BLOCK_RECORD
  5
ACD
330
1
100
AcDbSymbolTableRecord
100
AcDbBlockTableRecord
  2
*D26
  0
BLOCK_RECORD
  5
AEE
330
1
100
AcDbSymbolTableRecord
100
AcDbBlockTableRecord
  2
*D27
  0
BLOCK_RECORD
  5
AFB
330
1
100
AcDbSymbolTableRecord
100
AcDbBlockTableRecord
  2
*D28
  0
BLOCK_RECORD
  5
D91
330
1
100
AcDbSymbolTableRecord
100
AcDbBlockTableRecord
  2
*X29
  0
ENDTAB
  0
ENDSEC
  0
SECTION
  2
BLOCKS
  0
BLOCK
  5
D
330
A
100
AcDbEntity
  8
0
100
AcDbBlockBegin
  2
*MODEL_SPACE
 70
     0
 10
0.0
 20
0.0
 30
0.0
  3
*MODEL_SPACE
  1

  0
ENDBLK
  5
E
330
A
100
AcDbEntity
  8
0
100
AcDbBlockEnd
  0
BLOCK
  5
F
330
B
100
AcDbEntity
 67
     1
  8
0
100
AcDbBlockBegin
  2
*PAPER_SPACE
 70
     0
 10
0.0
 20
0.0
 30
0.0
  3
*PAPER_SPACE
  1

  0
ENDBLK
  5
10
330
B
100
AcDbEntity
 67
     1
  8
0
100
AcDbBlockEnd
  0
BLOCK
  5
4B5
330
4B1
100
AcDbEntity
  8
0
100
AcDbBlockBegin
  2
_OPEN30
 70
     0
 10
0.0
 20
0.0
 30
0.0
  3
_OPEN30
  1

  0
LINE
  5
4B2
330
4B1
100
AcDbEntity
  8
0
  6
BYBLOCK
 62
     0
100
AcDbLine
 10
-1.0
 20
0.26794919
 30
0.0
 11
0.0
 21
0.0
 31
0.0
  0
LINE
  5
4B3
330
4B1
100
AcDbEntity
  8
0
  6
BYBLOCK
 62
     0
100
AcDbLine
 10
0.0
 20
0.0
 30
0.0
 11
-1.0
 21
-0.26794919
 31
0.0
  0
LINE
  5
4B4
330
4B1
100
AcDbEntity
  8
0
  6
BYBLOCK
 62
     0
100
AcDbLine
 10
0.0
 20
0.0
 30
0.0
 11
-1.0
 21
0.0
 31
0.0
  0
ENDBLK
  5
4B6
330
4B1
100
AcDbEntity
  8
0
100
AcDbBlockEnd
  0
BLOCK
  5
501
330
4F7
100
AcDbEntity
  8
0
100
AcDbBlockBegin
  2
*D1
 70
     1
 10
0.0
 20
0.0
 30
0.0
  3
*D1
  1

  0
LINE
  5
BC0
330
4F7
100
AcDbEntity
  8
SUNPOU
100
AcDbLine
 10
177.3690376618044
 20
504.520140161687
 30
0.0
 11
127.2220150810285
 21
504.5201401616871
 31
0.0
  0
LINE
  5
BC1
330
4F7
100
AcDbEntity
  8
SUNPOU
100
AcDbLine
 10
177.3690376618044
 20
454.5201421616871
 30
0.0
 11
127.2220150810285
 21
454.5201421616871
 31
0.0
  0
LINE
  5
BC2
330
4F7
100
AcDbEntity
  8
SUNPOU
100
AcDbLine
 10
129.2220150810285
 20
499.5201401616871
 30
0.0
 11
129.2220150810285
 21
459.5201421616871
 31
0.0
  0
MTEXT
  5
BC3
330
4F7
100
AcDbEntity
  8
SUNPOU
 62
     6
100
AcDbMText
 10
122.7828036572043
 20
487.7045325565744
 30
0.0
 40
5.0
 41
0.0
 71
     5
 72
     1
  1
\A1;50
  7
SUNPOU
 11
0.0000000000000001
 21
1.0
 31
0.0
1001
ACAD
1000
MTEXTBEGIN
1070
    73
1070
     1
1070
    44
1040
1.0
1070
    74
1070
     0
1000
MTEXTEND
1000
MTEXTBEGIN
1070
    73
1070
     1
1070
    44
1040
1.0
1070
    74
1070
     0
1000
MTEXTEND
  0
INSERT
  5
BC4
330
4F7
100
AcDbEntity
  8
SUNPOU
100
AcDbBlockReference
  2
_OPEN30
 10
129.2220150810285
 20
504.520140161687
 30
0.0
 41
5.0
 42
5.0
 43
5.0
 50
90.0
  0
INSERT
  5
BC5
330
4F7
100
AcDbEntity
  8
SUNPOU
100
AcDbBlockReference
  2
_OPEN30
 10
129.2220150810285
 20
454.5201421616871
 30
0.0
 41
5.0
 42
5.0
 43
5.0
 50
270.0
  0
POINT
  5
BC6
330
4F7
100
AcDbEntity
  8
DEFPOINTS
 62
     0
100
AcDbPoint
 10
180.3690376618044
 20
504.520140161687
 30
0.0
  0
POINT
  5
BC7
330
4F7
100
AcDbEntity
  8
DEFPOINTS
 62
     0
100
AcDbPoint
 10
180.3690376618044
 20
454.5201421616871
 30
0.0
  0
POINT
  5
BC8
330
4F7
100
AcDbEntity
  8
DEFPOINTS
 62
     0
100
AcDbPoint
 10
129.2220150810285
 20
454.5201421616871
 30
0.0
  0
ENDBLK
  5
502
330
4F7
100
AcDbEntity
  8
0
100
AcDbBlockEnd
  0
BLOCK
  5
50E
330
504
100
AcDbEntity
  8
0
100
AcDbBlockBegin
  2
*D2
 70
     1
 10
0.0
 20
0.0
 30
0.0
  3
*D2
  1

  0
LINE
  5
D11
330
504
100
AcDbEntity
  8
SUNPOU
100
AcDbLine
 10
177.3690382727112
 20
504.520140161687
 30
0.0
 11
111.0059819050656
 21
504.5201401616871
 31
0.0
  0
LINE
  5
D12
330
504
100
AcDbEntity
  8
SUNPOU
100
AcDbLine
 10
151.1190476618041
 20
80.02015526168705
 30
0.0
 11
111.0059819050656
 21
80.02015526168705
 31
0.0
  0
LINE
  5
D13
330
504
100
AcDbEntity
  8
SUNPOU
100
AcDbLine
 10
113.0059819050655
 20
499.5201401616871
 30
0.0
 11
113.0059819050655
 21
85.02015526168705
 31
0.0
  0
INSERT
  5
D14
330
504
100
AcDbEntity
  8
SUNPOU
100
AcDbBlockReference
  2
_OPEN30
 10
113.0059819050655
 20
504.5201401616871
 30
0.0
 41
5.0
 42
5.0
 43
5.0
 50
90.0
  0
INSERT
  5
D15
330
504
100
AcDbEntity
  8
SUNPOU
100
AcDbBlockReference
  2
_OPEN30
 10
113.0059819050655
 20
80.02015526168705
 30
0.0
 41
5.0
 42
5.0
 43
5.0
 50
270.0
  0
MTEXT
  5
D16
330
504
100
AcDbEntity
  8
SUNPOU
 62
     6
100
AcDbMText
 10
108.5059819050655
 20
292.2701477116871
 30
0.0
 40
5.0
 41
0.0
 71
     5
 72
     1
  1
\A1;DW1
  7
SUNPOU
 11
0.0000000000000001
 21
1.0
 31
0.0
1001
ACAD
1000
MTEXTBEGIN
1070
    73
1070
     1
1070
    44
1040
1.0
1070
    74
1070
     0
1000
MTEXTEND
1000
MTEXTBEGIN
1070
    73
1070
     1
1070
    44
1040
1.0
1070
    74
1070
     0
1000
MTEXTEND
  0
POINT
  5
D17
330
504
100
AcDbEntity
  8
DEFPOINTS
 62
     0
100
AcDbPoint
 10
180.3690382727112
 20
504.520140161687
 30
0.0
  0
POINT
  5
D18
330
504
100
AcDbEntity
  8
DEFPOINTS
 62
     0
100
AcDbPoint
 10
154.1190476618042
 20
80.02015526168705
 30
0.0
  0
POINT
  5
D19
330
504
100
AcDbEntity
  8
DEFPOINTS
 62
     0
100
AcDbPoint
 10
113.0059819050655
 20
80.02015526168705
 30
0.0
  0
ENDBLK
  5
50F
330
504
100
AcDbEntity
  8
0
100
AcDbBlockEnd
  0
BLOCK
  5
51B
330
511
100
AcDbEntity
  8
0
100
AcDbBlockBegin
  2
*D3
 70
     1
 10
0.0
 20
0.0
 30
0.0
  3
*D3
  1

  0
LINE
  5
D08
330
511
100
AcDbEntity
  8
SUNPOU
100
AcDbLine
 10
151.1190476618041
 20
80.02015526168705
 30
0.0
 11
125.2220150810284
 21
80.02015526168705
 31
0.0
  0
LINE
  5
D09
330
511
100
AcDbEntity
  8
SUNPOU
100
AcDbLine
 10
177.3690376618043
 20
120.020155161687
 30
0.0
 11
125.2220150810285
 21
120.020155161687
 31
0.0
  0
LINE
  5
D0A
330
511
100
AcDbEntity
  8
SUNPOU
100
AcDbLine
 10
127.2220150810283
 20
85.02015526168705
 30
0.0
 11
127.2220150810285
 21
115.020155161687
 31
0.0
  0
INSERT
  5
D0B
330
511
100
AcDbEntity
  8
SUNPOU
100
AcDbBlockReference
  2
_OPEN30
 10
127.2220150810283
 20
80.02015526168705
 30
0.0
 41
5.0
 42
5.0
 43
5.0
 50
270.0
  0
INSERT
  5
D0C
330
511
100
AcDbEntity
  8
SUNPOU
100
AcDbBlockReference
  2
_OPEN30
 10
127.2220150810285
 20
120.020155161687
 30
0.0
 41
5.0
 42
5.0
 43
5.0
 50
90.0
  0
MTEXT
  5
D0D
330
511
100
AcDbEntity
  8
SUNPOU
 62
     6
100
AcDbMText
 10
122.7220150810284
 20
100.020155211687
 30
0.0
 40
5.0
 41
0.0
 71
     5
 72
     1
  1
\A1;40
  7
SUNPOU
 11
0.0000000000000001
 21
1.0
 31
0.0
1001
ACAD
1000
MTEXTBEGIN
1070
    73
1070
     1
1070
    44
1040
1.0
1070
    74
1070
     0
1000
MTEXTEND
1000
MTEXTBEGIN
1070
    73
1070
     1
1070
    44
1040
1.0
1070
    74
1070
     0
1000
MTEXTEND
  0
POINT
  5
D0E
330
511
100
AcDbEntity
  8
DEFPOINTS
 62
     0
100
AcDbPoint
 10
154.1190476618042
 20
80.02015526168705
 30
0.0
  0
POINT
  5
D0F
330
511
100
AcDbEntity
  8
DEFPOINTS
 62
     0
100
AcDbPoint
 10
180.3690376618043
 20
120.020155161687
 30
0.0
  0
POINT
  5
D10
330
511
100
AcDbEntity
  8
DEFPOINTS
 62
     0
100
AcDbPoint
 10
127.2220150810285
 20
120.020155161687
 30
0.0
  0
ENDBLK
  5
51C
330
511
100
AcDbEntity
  8
0
100
AcDbBlockEnd
  0
BLOCK
  5
528
330
51E
100
AcDbEntity
  8
0
100
AcDbBlockBegin
  2
*D4
 70
     1
 10
0.0
 20
0.0
 30
0.0
  3
*D4
  1

  0
LINE
  5
BA5
330
51E
100
AcDbEntity
  8
SUNPOU
100
AcDbLine
 10
177.3690376618043
 20
120.020155161687
 30
0.0
 11
125.2220150810285
 21
120.020155161687
 31
0.0
  0
LINE
  5
BA6
330
51E
100
AcDbEntity
  8
SUNPOU
100
AcDbLine
 10
177.5690476618045
 20
210.020152161687
 30
0.0
 11
125.2220150810285
 21
210.020152161687
 31
0.0
  0
LINE
  5
BA7
330
51E
100
AcDbEntity
  8
SUNPOU
100
AcDbLine
 10
127.2220150810285
 20
125.020155161687
 30
0.0
 11
127.2220150810285
 21
205.020152161687
 31
0.0
  0
INSERT
  5
BA8
330
51E
100
AcDbEntity
  8
SUNPOU
100
AcDbBlockReference
  2
_OPEN30
 10
127.2220150810285
 20
120.020155161687
 30
0.0
 41
5.0
 42
5.0
 43
5.0
 50
270.0
  0
INSERT
  5
BA9
330
51E
100
AcDbEntity
  8
SUNPOU
100
AcDbBlockReference
  2
_OPEN30
 10
127.2220150810285
 20
210.020152161687
 30
0.0
 41
5.0
 42
5.0
 43
5.0
 50
90.0
  0
MTEXT
  5
BAA
330
51E
100
AcDbEntity
  8
SUNPOU
 62
     6
100
AcDbMText
 10
122.7220150810285
 20
165.020153661687
 30
0.0
 40
5.0
 41
0.0
 71
     5
 72
     1
  1
\A1;90
  7
SUNPOU
 11
0.0000000000000001
 21
1.0
 31
0.0
1001
ACAD
1000
MTEXTBEGIN
1070
    73
1070
     1
1070
    44
1040
1.0
1070
    74
1070
     0
1000
MTEXTEND
1000
MTEXTBEGIN
1070
    73
1070
     1
1070
    44
1040
1.0
1070
    74
1070
     0
1000
MTEXTEND
  0
POINT
  5
BAB
330
51E
100
AcDbEntity
  8
DEFPOINTS
 62
     0
100
AcDbPoint
 10
180.3690376618043
 20
120.020155161687
 30
0.0
  0
POINT
  5
BAC
330
51E
100
AcDbEntity
  8
DEFPOINTS
 62
     0
100
AcDbPoint
 10
180.5690476618045
 20
210.020152161687
 30
0.0
  0
POINT
  5
BAD
330
51E
100
AcDbEntity
  8
DEFPOINTS
 62
     0
100
AcDbPoint
 10
127.2220150810285
 20
210.020152161687
 30
0.0
  0
ENDBLK
  5
529
330
51E
100
AcDbEntity
  8
0
100
AcDbBlockEnd
  0
BLOCK
  5
535
330
52B
100
AcDbEntity
  8
0
100
AcDbBlockBegin
  2
*D5
 70
     1
 10
0.0
 20
0.0
 30
0.0
  3
*D5
  1

  0
LINE
  5
C12
330
52B
100
AcDbEntity
  8
SUNPOU
100
AcDbLine
 10
264.8690476618046
 20
188.0201421616872
 30
0.0
 11
278.1138986116029
 21
188.0201421616872
 31
0.0
  0
LINE
  5
C13
330
52B
100
AcDbEntity
  8
SUNPOU
100
AcDbLine
 10
264.8690476618046
 20
232.020152161687
 30
0.0
 11
278.1138986116029
 21
232.020152161687
 31
0.0
  0
LINE
  5
C14
330
52B
100
AcDbEntity
  8
SUNPOU
100
AcDbLine
 10
276.1138986116029
 20
193.0201421616872
 30
0.0
 11
276.1138986116029
 21
227.0201521616871
 31
0.0
  0
MTEXT
  5
C15
330
52B
100
AcDbEntity
  8
SUNPOU
 62
     6
100
AcDbMText
 10
269.3383395354924
 20
203.6398982607098
 30
0.0
 40
5.0
 41
0.0
 71
     5
 72
     1
  1
\A1;44
  7
SUNPOU
 11
0.0000000000000001
 21
1.0
 31
0.0
1001
ACAD
1000
MTEXTBEGIN
1070
    73
1070
     1
1070
    44
1040
1.0
1070
    74
1070
     0
1000
MTEXTEND
1000
MTEXTBEGIN
1070
    73
1070
     1
1070
    44
1040
1.0
1070
    74
1070
     0
1000
MTEXTEND
  0
INSERT
  5
C16
330
52B
100
AcDbEntity
  8
SUNPOU
100
AcDbBlockReference
  2
_OPEN30
 10
276.1138986116029
 20
188.0201421616872
 30
0.0
 41
5.0
 42
5.0
 43
5.0
 50
270.0
  0
INSERT
  5
C17
330
52B
100
AcDbEntity
  8
SUNPOU
100
AcDbBlockReference
  2
_OPEN30
 10
276.1138986116029
 20
232.020152161687
 30
0.0
 41
5.0
 42
5.0
 43
5.0
 50
90.0
  0
POINT
  5
C18
330
52B
100
AcDbEntity
  8
DEFPOINTS
 62
     0
100
AcDbPoint
 10
261.8690476618045
 20
188.0201421616872
 30
0.0
  0
POINT
  5
C19
330
52B
100
AcDbEntity
  8
DEFPOINTS
 62
     0
100
AcDbPoint
 10
261.8690476618045
 20
232.020152161687
 30
0.0
  0
POINT
  5
C1A
330
52B
100
AcDbEntity
  8
DEFPOINTS
 62
     0
100
AcDbPoint
 10
276.1138986116029
 20
232.020152161687
 30
0.0
  0
ENDBLK
  5
536
330
52B
100
AcDbEntity
  8
0
100
AcDbBlockEnd
  0
BLOCK
  5
542
330
538
100
AcDbEntity
  8
0
100
AcDbBlockBegin
  2
*D6
 70
     1
 10
0.0
 20
0.0
 30
0.0
  3
*D6
  1

  0
LINE
  5
D2C
330
538
100
AcDbEntity
  8
SUNPOU
100
AcDbLine
 10
267.8690376618045
 20
454.5193321616871
 30
0.0
 11
303.1211544038102
 21
454.5193321616871
 31
0.0
  0
LINE
  5
D2D
330
538
100
AcDbEntity
  8
SUNPOU
100
AcDbLine
 10
268.6190476618045
 20
100.0201551616869
 30
0.0
 11
303.1211544038101
 21
100.0201551616869
 31
0.0
  0
LINE
  5
D2E
330
538
100
AcDbEntity
  8
SUNPOU
100
AcDbLine
 10
301.1211544038101
 20
449.5193321616871
 30
0.0
 11
301.1211544038101
 21
105.0201551616869
 31
0.0
  0
INSERT
  5
D2F
330
538
100
AcDbEntity
  8
SUNPOU
100
AcDbBlockReference
  2
_OPEN30
 10
301.1211544038101
 20
454.5193321616871
 30
0.0
 41
5.0
 42
5.0
 43
5.0
 50
90.0
  0
INSERT
  5
D30
330
538
100
AcDbEntity
  8
SUNPOU
100
AcDbBlockReference
  2
_OPEN30
 10
301.1211544038101
 20
100.0201551616869
 30
0.0
 41
5.0
 42
5.0
 43
5.0
 50
270.0
  0
MTEXT
  5
D31
330
538
100
AcDbEntity
  8
SUNPOU
 62
     6
100
AcDbMText
 10
296.6211544038101
 20
277.269743661687
 30
0.0
 40
5.0
 41
0.0
 71
     5
 72
     1
  1
\A1;DW2
  7
SUNPOU
 11
0.0000000000000001
 21
1.0
 31
0.0
1001
ACAD
1000
MTEXTBEGIN
1070
    73
1070
     1
1070
    44
1040
1.0
1070
    74
1070
     0
1000
MTEXTEND
1000
MTEXTBEGIN
1070
    73
1070
     1
1070
    44
1040
1.0
1070
    74
1070
     0
1000
MTEXTEND
  0
POINT
  5
D32
330
538
100
AcDbEntity
  8
DEFPOINTS
 62
     0
100
AcDbPoint
 10
264.8690376618045
 20
454.5193321616871
 30
0.0
  0
POINT
  5
D33
330
538
100
AcDbEntity
  8
DEFPOINTS
 62
     0
100
AcDbPoint
 10
265.6190476618045
 20
100.0201551616869
 30
0.0
  0
POINT
  5
D34
330
538
100
AcDbEntity
  8
DEFPOINTS
 62
     0
100
AcDbPoint
 10
301.1211544038101
 20
100.0201551616869
 30
0.0
  0
ENDBLK
  5
543
330
538
100
AcDbEntity
  8
0
100
AcDbBlockEnd
  0
BLOCK
  5
54F
330
545
100
AcDbEntity
  8
0
100
AcDbBlockBegin
  2
*D7
 70
     1
 10
0.0
 20
0.0
 30
0.0
  3
*D7
  1

  0
LINE
  5
D1A
330
545
100
AcDbEntity
  8
SUNPOU
100
AcDbLine
 10
266.3690476618045
 20
210.020147161687
 30
0.0
 11
295.8468107350386
 21
210.020147161687
 31
0.0
  0
LINE
  5
D1B
330
545
100
AcDbEntity
  8
SUNPOU
100
AcDbLine
 10
268.6190476618045
 20
100.0201551616869
 30
0.0
 11
295.8468107350386
 21
100.0201551616869
 31
0.0
  0
LINE
  5
D1C
330
545
100
AcDbEntity
  8
SUNPOU
100
AcDbLine
 10
293.8468107350386
 20
205.0201471616872
 30
0.0
 11
293.8468107350386
 21
105.0201551616869
 31
0.0
  0
INSERT
  5
D1D
330
545
100
AcDbEntity
  8
SUNPOU
100
AcDbBlockReference
  2
_OPEN30
 10
293.8468107350386
 20
210.020147161687
 30
0.0
 41
5.0
 42
5.0
 43
5.0
 50
90.0
  0
INSERT
  5
D1E
330
545
100
AcDbEntity
  8
SUNPOU
100
AcDbBlockReference
  2
_OPEN30
 10
293.8468107350386
 20
100.0201551616869
 30
0.0
 41
5.0
 42
5.0
 43
5.0
 50
270.0
  0
MTEXT
  5
D1F
330
545
100
AcDbEntity
  8
SUNPOU
 62
     6
100
AcDbMText
 10
289.3468107350386
 20
155.0201511616871
 30
0.0
 40
5.0
 41
0.0
 71
     5
 72
     1
  1
\A1;110
  7
SUNPOU
 11
0.0000000000000001
 21
1.0
 31
0.0
1001
ACAD
1000
MTEXTBEGIN
1070
    73
1070
     1
1070
    44
1040
1.0
1070
    74
1070
     0
1000
MTEXTEND
1000
MTEXTBEGIN
1070
    73
1070
     1
1070
    44
1040
1.0
1070
    74
1070
     0
1000
MTEXTEND
  0
POINT
  5
D20
330
545
100
AcDbEntity
  8
DEFPOINTS
 62
     0
100
AcDbPoint
 10
263.3690476618046
 20
210.020147161687
 30
0.0
  0
POINT
  5
D21
330
545
100
AcDbEntity
  8
DEFPOINTS
 62
     0
100
AcDbPoint
 10
265.6190476618045
 20
100.0201551616869
 30
0.0
  0
POINT
  5
D22
330
545
100
AcDbEntity
  8
DEFPOINTS
 62
     0
100
AcDbPoint
 10
293.8468107350386
 20
100.0201551616869
 30
0.0
  0
ENDBLK
  5
550
330
545
100
AcDbEntity
  8
0
100
AcDbBlockEnd
  0
BLOCK
  5
55C
330
552
100
AcDbEntity
  8
0
100
AcDbBlockBegin
  2
*D8
 70
     1
 10
0.0
 20
0.0
 30
0.0
  3
*D8
  1

  0
LINE
  5
D23
330
552
100
AcDbEntity
  8
SUNPOU
100
AcDbLine
 10
268.6190476618045
 20
100.0201551616869
 30
0.0
 11
295.8468107350386
 21
100.0201551616869
 31
0.0
  0
LINE
  5
D24
330
552
100
AcDbEntity
  8
SUNPOU
100
AcDbLine
 10
209.6190376618045
 20
80.02015616168705
 30
0.0
 11
295.8468107350386
 21
80.02015616168703
 31
0.0
  0
LINE
  5
D25
330
552
100
AcDbEntity
  8
SUNPOU
100
AcDbLine
 10
293.8468107350386
 20
95.02015516168704
 30
0.0
 11
293.8468107350386
 21
85.02015616168703
 31
0.0
  0
INSERT
  5
D26
330
552
100
AcDbEntity
  8
SUNPOU
100
AcDbBlockReference
  2
_OPEN30
 10
293.8468107350386
 20
100.0201551616869
 30
0.0
 41
5.0
 42
5.0
 43
5.0
 50
90.0
  0
INSERT
  5
D27
330
552
100
AcDbEntity
  8
SUNPOU
100
AcDbBlockReference
  2
_OPEN30
 10
293.8468107350386
 20
80.02015616168703
 30
0.0
 41
5.0
 42
5.0
 43
5.0
 50
270.0
  0
MTEXT
  5
D28
330
552
100
AcDbEntity
  8
SUNPOU
 62
     6
100
AcDbMText
 10
289.3468107350386
 20
90.02015566168708
 30
0.0
 40
5.0
 41
0.0
 71
     5
 72
     1
  1
\A1;20
  7
SUNPOU
 11
0.0000000000000001
 21
1.0
 31
0.0
1001
ACAD
1000
MTEXTBEGIN
1070
    73
1070
     1
1070
    44
1040
1.0
1070
    74
1070
     0
1000
MTEXTEND
1000
MTEXTBEGIN
1070
    73
1070
     1
1070
    44
1040
1.0
1070
    74
1070
     0
1000
MTEXTEND
  0
POINT
  5
D29
330
552
100
AcDbEntity
  8
DEFPOINTS
 62
     0
100
AcDbPoint
 10
265.6190476618045
 20
100.0201551616869
 30
0.0
  0
POINT
  5
D2A
330
552
100
AcDbEntity
  8
DEFPOINTS
 62
     0
100
AcDbPoint
 10
206.6190376618044
 20
80.02015616168705
 30
0.0
  0
POINT
  5
D2B
330
552
100
AcDbEntity
  8
DEFPOINTS
 62
     0
100
AcDbPoint
 10
293.8468107350386
 20
80.02015616168703
 30
0.0
  0
ENDBLK
  5
55D
330
552
100
AcDbEntity
  8
0
100
AcDbBlockEnd
  0
BLOCK
  5
569
330
55F
100
AcDbEntity
  8
0
100
AcDbBlockBegin
  2
*D9
 70
     1
 10
0.0
 20
0.0
 30
0.0
  3
*D9
  1

  0
LINE
  5
B78
330
55F
100
AcDbEntity
  8
SUNPOU
100
AcDbLine
 10
153.3690376618045
 20
77.77015516168706
 30
0.0
 11
153.3690376618045
 21
68.24331485737459
 31
0.0
  0
LINE
  5
B79
330
55F
100
AcDbEntity
  8
SUNPOU
100
AcDbLine
 10
207.3690376618045
 20
77.77015516168706
 30
0.0
 11
207.3690376618045
 21
68.24331485737459
 31
0.0
  0
LINE
  5
B7A
330
55F
100
AcDbEntity
  8
SUNPOU
100
AcDbLine
 10
158.3690376618045
 20
70.2433148573746
 30
0.0
 11
202.3690376618044
 21
70.2433148573746
 31
0.0
  0
MTEXT
  5
B7B
330
55F
100
AcDbEntity
  8
SUNPOU
 62
     6
100
AcDbMText
 10
179.8736366959146
 20
63.75027162074047
 30
0.0
 40
5.0
 41
0.0
 71
     5
 72
     1
  1
\A1;54
  7
SUNPOU
 11
-1.0
 21
0.0000000000000001
 31
0.0
1001
ACAD
1000
MTEXTBEGIN
1070
    73
1070
     1
1070
    44
1040
1.0
1070
    74
1070
     0
1000
MTEXTEND
1000
MTEXTBEGIN
1070
    73
1070
     1
1070
    44
1040
1.0
1070
    74
1070
     0
1000
MTEXTEND
  0
INSERT
  5
B7C
330
55F
100
AcDbEntity
  8
SUNPOU
100
AcDbBlockReference
  2
_OPEN30
 10
153.3690376618045
 20
70.2433148573746
 30
0.0
 41
5.0
 42
5.0
 43
5.0
 50
180.0
  0
INSERT
  5
B7D
330
55F
100
AcDbEntity
  8
SUNPOU
100
AcDbBlockReference
  2
_OPEN30
 10
207.3690376618045
 20
70.2433148573746
 30
0.0
 41
5.0
 42
5.0
 43
5.0
  0
POINT
  5
B7E
330
55F
100
AcDbEntity
  8
DEFPOINTS
 62
     0
100
AcDbPoint
 10
153.3690376618045
 20
80.77015516168705
 30
0.0
  0
POINT
  5
B7F
330
55F
100
AcDbEntity
  8
DEFPOINTS
 62
     0
100
AcDbPoint
 10
207.3690376618045
 20
80.77015516168705
 30
0.0
  0
POINT
  5
B80
330
55F
100
AcDbEntity
  8
DEFPOINTS
 62
     0
100
AcDbPoint
 10
207.3690376618045
 20
70.2433148573746
 30
0.0
  0
ENDBLK
  5
56A
330
55F
100
AcDbEntity
  8
0
100
AcDbBlockEnd
  0
BLOCK
  5
578
330
56C
100
AcDbEntity
  8
0
100
AcDbBlockBegin
  2
*D10
 70
     1
 10
0.0
 20
0.0
 30
0.0
  3
*D10
  1

  0
LINE
  5
BFE
330
56C
100
AcDbEntity
  8
SUNPOU
100
AcDbLine
 10
207.3690376618045
 20
77.77015516168706
 30
0.0
 11
207.3690376618045
 21
68.24331485737459
 31
0.0
  0
LINE
  5
BFF
330
56C
100
AcDbEntity
  8
SUNPOU
100
AcDbLine
 10
212.3690476618047
 20
97.77015616168705
 30
0.0
 11
212.3690476618047
 21
68.24331485737459
 31
0.0
  0
LINE
  5
C00
330
56C
100
AcDbEntity
  8
SUNPOU
100
AcDbLine
 10
202.3690376618044
 20
70.2433148573746
 30
0.0
 11
197.3690376618043
 21
70.2433148573746
 31
0.0
  0
LINE
  5
C01
330
56C
100
AcDbEntity
  8
SUNPOU
100
AcDbLine
 10
217.3690476618046
 20
70.2433148573746
 30
0.0
 11
222.3690476618047
 21
70.2433148573746
 31
0.0
  0
MTEXT
  5
C02
330
56C
100
AcDbEntity
  8
SUNPOU
 62
     6
100
AcDbMText
 10
210.0097917293201
 20
64.07950903354684
 30
0.0
 40
5.0
 41
0.0
 71
     5
 72
     1
  1
\A1;5
  7
SUNPOU
 11
-1.0
 21
0.0000000000000001
 31
0.0
1001
ACAD
1000
MTEXTBEGIN
1070
    73
1070
     1
1070
    44
1040
1.0
1070
    74
1070
     0
1000
MTEXTEND
1000
MTEXTBEGIN
1070
    73
1070
     1
1070
    44
1040
1.0
1070
    74
1070
     0
1000
MTEXTEND
  0
LINE
  5
C03
330
56C
100
AcDbEntity
  8
SUNPOU
100
AcDbLine
 10
207.3690376618045
 20
70.2433148573746
 30
0.0
 11
212.3690476618047
 21
70.2433148573746
 31
0.0
  0
INSERT
  5
C04
330
56C
100
AcDbEntity
  8
SUNPOU
100
AcDbBlockReference
  2
_OPEN30
 10
207.3690376618045
 20
70.2433148573746
 30
0.0
 41
5.0
 42
5.0
 43
5.0
  0
INSERT
  5
C05
330
56C
100
AcDbEntity
  8
SUNPOU
100
AcDbBlockReference
  2
_OPEN30
 10
212.3690476618047
 20
70.2433148573746
 30
0.0
 41
5.0
 42
5.0
 43
5.0
 50
180.0
  0
POINT
  5
C06
330
56C
100
AcDbEntity
  8
DEFPOINTS
 62
     0
100
AcDbPoint
 10
207.3690376618045
 20
80.77015516168705
 30
0.0
  0
POINT
  5
C07
330
56C
100
AcDbEntity
  8
DEFPOINTS
 62
     0
100
AcDbPoint
 10
212.3690476618047
 20
100.770156161687
 30
0.0
  0
POINT
  5
C08
330
56C
100
AcDbEntity
  8
DEFPOINTS
 62
     0
100
AcDbPoint
 10
212.3690476618047
 20
70.2433148573746
 30
0.0
  0
ENDBLK
  5
579
330
56C
100
AcDbEntity
  8
0
100
AcDbBlockEnd
  0
BLOCK
  5
585
330
57B
100
AcDbEntity
  8
0
100
AcDbBlockBegin
  2
*D11
 70
     1
 10
0.0
 20
0.0
 30
0.0
  3
*D11
  1

  0
LINE
  5
BF5
330
57B
100
AcDbEntity
  8
SUNPOU
100
AcDbLine
 10
212.3690476618047
 20
97.77015616168705
 30
0.0
 11
212.3690476618047
 21
68.24331485737459
 31
0.0
  0
LINE
  5
BF6
330
57B
100
AcDbEntity
  8
SUNPOU
100
AcDbLine
 10
266.3690476618045
 20
97.77015616168705
 30
0.0
 11
266.3690476618045
 21
68.24331485737459
 31
0.0
  0
LINE
  5
BF7
330
57B
100
AcDbEntity
  8
SUNPOU
100
AcDbLine
 10
217.3690476618046
 20
70.2433148573746
 30
0.0
 11
261.3690476618045
 21
70.2433148573746
 31
0.0
  0
MTEXT
  5
BF8
330
57B
100
AcDbEntity
  8
SUNPOU
 62
     6
100
AcDbMText
 10
239.4872317828169
 20
63.75027162074047
 30
0.0
 40
5.0
 41
0.0
 71
     5
 72
     1
  1
\A1;54
  7
SUNPOU
 11
-1.0
 21
0.0000000000000001
 31
0.0
1001
ACAD
1000
MTEXTBEGIN
1070
    73
1070
     1
1070
    44
1040
1.0
1070
    74
1070
     0
1000
MTEXTEND
1000
MTEXTBEGIN
1070
    73
1070
     1
1070
    44
1040
1.0
1070
    74
1070
     0
1000
MTEXTEND
  0
INSERT
  5
BF9
330
57B
100
AcDbEntity
  8
SUNPOU
100
AcDbBlockReference
  2
_OPEN30
 10
212.3690476618047
 20
70.2433148573746
 30
0.0
 41
5.0
 42
5.0
 43
5.0
 50
180.0
  0
INSERT
  5
BFA
330
57B
100
AcDbEntity
  8
SUNPOU
100
AcDbBlockReference
  2
_OPEN30
 10
266.3690476618045
 20
70.2433148573746
 30
0.0
 41
5.0
 42
5.0
 43
5.0
  0
POINT
  5
BFB
330
57B
100
AcDbEntity
  8
DEFPOINTS
 62
     0
100
AcDbPoint
 10
212.3690476618047
 20
100.770156161687
 30
0.0
  0
POINT
  5
BFC
330
57B
100
AcDbEntity
  8
DEFPOINTS
 62
     0
100
AcDbPoint
 10
266.3690476618045
 20
100.770156161687
 30
0.0
  0
POINT
  5
BFD
330
57B
100
AcDbEntity
  8
DEFPOINTS
 62
     0
100
AcDbPoint
 10
266.3690476618045
 20
70.2433148573746
 30
0.0
  0
ENDBLK
  5
586
330
57B
100
AcDbEntity
  8
0
100
AcDbBlockEnd
  0
BLOCK
  5
592
330
588
100
AcDbEntity
  8
0
100
AcDbBlockBegin
  2
*D12
 70
     1
 10
0.0
 20
0.0
 30
0.0
  3
*D12
  1

  0
LINE
  5
B6F
330
588
100
AcDbEntity
  8
SUNPOU
100
AcDbLine
 10
136.3690576618045
 20
541.770162161687
 30
0.0
 11
136.3690576618045
 21
553.457753143166
 31
0.0
  0
LINE
  5
B70
330
588
100
AcDbEntity
  8
SUNPOU
100
AcDbLine
 10
326.3690576618046
 20
541.770162161687
 30
0.0
 11
326.3690576618046
 21
553.457753143166
 31
0.0
  0
LINE
  5
B71
330
588
100
AcDbEntity
  8
SUNPOU
100
AcDbLine
 10
141.3690576618045
 20
551.4577531431662
 30
0.0
 11
321.3690576618048
 21
551.4577531431662
 31
0.0
  0
MTEXT
  5
B72
330
588
100
AcDbEntity
  8
SUNPOU
 62
     6
100
AcDbMText
 10
224.4052846298445
 20
544.9698778407438
 30
0.0
 40
5.0
 41
0.0
 71
     5
 72
     1
  1
\A1;190
  7
SUNPOU
 11
-1.0
 21
0.0000000000000001
 31
0.0
1001
ACAD
1000
MTEXTBEGIN
1070
    73
1070
     1
1070
    44
1040
1.0
1070
    74
1070
     0
1000
MTEXTEND
1000
MTEXTBEGIN
1070
    73
1070
     1
1070
    44
1040
1.0
1070
    74
1070
     0
1000
MTEXTEND
  0
INSERT
  5
B73
330
588
100
AcDbEntity
  8
SUNPOU
100
AcDbBlockReference
  2
_OPEN30
 10
136.3690576618045
 20
551.4577531431662
 30
0.0
 41
5.0
 42
5.0
 43
5.0
 50
180.0
  0
INSERT
  5
B74
330
588
100
AcDbEntity
  8
SUNPOU
100
AcDbBlockReference
  2
_OPEN30
 10
326.3690576618046
 20
551.4577531431662
 30
0.0
 41
5.0
 42
5.0
 43
5.0
  0
POINT
  5
B75
330
588
100
AcDbEntity
  8
DEFPOINTS
 62
     0
100
AcDbPoint
 10
136.3690576618045
 20
538.770162161687
 30
0.0
  0
POINT
  5
B76
330
588
100
AcDbEntity
  8
DEFPOINTS
 62
     0
100
AcDbPoint
 10
326.3690576618046
 20
538.770162161687
 30
0.0
  0
POINT
  5
B77
330
588
100
AcDbEntity
  8
DEFPOINTS
 62
     0
100
AcDbPoint
 10
326.3690576618046
 20
551.4577531431662
 30
0.0
  0
ENDBLK
  5
593
330
588
100
AcDbEntity
  8
0
100
AcDbBlockEnd
  0
BLOCK
  5
59F
330
595
100
AcDbEntity
  8
0
100
AcDbBlockBegin
  2
*D13
 70
     1
 10
0.0
 20
0.0
 30
0.0
  3
*D13
  1

  0
LINE
  5
BC9
330
595
100
AcDbEntity
  8
SUNPOU
100
AcDbLine
 10
141.3690576618045
 20
512.520162161687
 30
0.0
 11
141.3690576618045
 21
530.9818845477897
 31
0.0
  0
LINE
  5
BCA
330
595
100
AcDbEntity
  8
SUNPOU
100
AcDbLine
 10
180.3690376618044
 20
511.8931521616871
 30
0.0
 11
180.3690376618044
 21
530.9818845477897
 31
0.0
  0
LINE
  5
BCB
330
595
100
AcDbEntity
  8
SUNPOU
100
AcDbLine
 10
146.3690576618045
 20
528.9818845477896
 30
0.0
 11
175.3690376618044
 21
528.9818845477896
 31
0.0
  0
MTEXT
  5
BCC
330
595
100
AcDbEntity
  8
SUNPOU
 62
     6
100
AcDbMText
 10
161.8750252963964
 20
522.2728372646911
 30
0.0
 40
5.0
 41
0.0
 71
     5
 72
     1
  1
\A1;39
  7
SUNPOU
 11
-1.0
 21
0.0000000000000001
 31
0.0
1001
ACAD
1000
MTEXTBEGIN
1070
    73
1070
     1
1070
    44
1040
1.0
1070
    74
1070
     0
1000
MTEXTEND
1000
MTEXTBEGIN
1070
    73
1070
     1
1070
    44
1040
1.0
1070
    74
1070
     0
1000
MTEXTEND
  0
INSERT
  5
BCD
330
595
100
AcDbEntity
  8
SUNPOU
100
AcDbBlockReference
  2
_OPEN30
 10
141.3690576618045
 20
528.9818845477896
 30
0.0
 41
5.0
 42
5.0
 43
5.0
 50
180.0
  0
INSERT
  5
BCE
330
595
100
AcDbEntity
  8
SUNPOU
100
AcDbBlockReference
  2
_OPEN30
 10
180.3690376618044
 20
528.9818845477896
 30
0.0
 41
5.0
 42
5.0
 43
5.0
  0
POINT
  5
BCF
330
595
100
AcDbEntity
  8
DEFPOINTS
 62
     0
100
AcDbPoint
 10
141.3690576618045
 20
509.5201621616872
 30
0.0
  0
POINT
  5
BD0
330
595
100
AcDbEntity
  8
DEFPOINTS
 62
     0
100
AcDbPoint
 10
180.3690376618044
 20
508.8931521616872
 30
0.0
  0
POINT
  5
BD1
330
595
100
AcDbEntity
  8
DEFPOINTS
 62
     0
100
AcDbPoint
 10
180.3690376618044
 20
528.9818845477896
 30
0.0
  0
ENDBLK
  5
5A0
330
595
100
AcDbEntity
  8
0
100
AcDbBlockEnd
  0
BLOCK
  5
5AC
330
5A2
100
AcDbEntity
  8
0
100
AcDbBlockBegin
  2
*D14
 70
     1
 10
0.0
 20
0.0
 30
0.0
  3
*D14
  1

  0
LINE
  5
B66
330
5A2
100
AcDbEntity
  8
SUNPOU
100
AcDbLine
 10
180.3690376618044
 20
511.8931521616871
 30
0.0
 11
180.3690376618044
 21
530.9818845477897
 31
0.0
  0
LINE
  5
B67
330
5A2
100
AcDbEntity
  8
SUNPOU
100
AcDbLine
 10
239.3690476618045
 20
512.520162161687
 30
0.0
 11
239.3690476618045
 21
530.9818845477897
 31
0.0
  0
LINE
  5
B68
330
5A2
100
AcDbEntity
  8
SUNPOU
100
AcDbLine
 10
185.3690376618045
 20
528.9818845477896
 30
0.0
 11
234.3690476618045
 21
528.9818845477896
 31
0.0
  0
MTEXT
  5
B69
330
5A2
100
AcDbEntity
  8
SUNPOU
 62
     6
100
AcDbMText
 10
209.9977882718992
 20
522.4201029183734
 30
0.0
 40
5.0
 41
0.0
 71
     5
 72
     1
  1
\A1;59
  7
SUNPOU
 11
-1.0
 21
0.0000000000000001
 31
0.0
1001
ACAD
1000
MTEXTBEGIN
1070
    73
1070
     1
1070
    44
1040
1.0
1070
    74
1070
     0
1000
MTEXTEND
1000
MTEXTBEGIN
1070
    73
1070
     1
1070
    44
1040
1.0
1070
    74
1070
     0
1000
MTEXTEND
  0
INSERT
  5
B6A
330
5A2
100
AcDbEntity
  8
SUNPOU
100
AcDbBlockReference
  2
_OPEN30
 10
180.3690376618044
 20
528.9818845477896
 30
0.0
 41
5.0
 42
5.0
 43
5.0
 50
180.0
  0
INSERT
  5
B6B
330
5A2
100
AcDbEntity
  8
SUNPOU
100
AcDbBlockReference
  2
_OPEN30
 10
239.3690476618045
 20
528.9818845477896
 30
0.0
 41
5.0
 42
5.0
 43
5.0
  0
POINT
  5
B6C
330
5A2
100
AcDbEntity
  8
DEFPOINTS
 62
     0
100
AcDbPoint
 10
180.3690376618044
 20
508.8931521616872
 30
0.0
  0
POINT
  5
B6D
330
5A2
100
AcDbEntity
  8
DEFPOINTS
 62
     0
100
AcDbPoint
 10
239.3690476618045
 20
509.5201621616872
 30
0.0
  0
POINT
  5
B6E
330
5A2
100
AcDbEntity
  8
DEFPOINTS
 62
     0
100
AcDbPoint
 10
239.3690476618045
 20
528.9818845477896
 30
0.0
  0
ENDBLK
  5
5AD
330
5A2
100
AcDbEntity
  8
0
100
AcDbBlockEnd
  0
BLOCK
  5
5B9
330
5AF
100
AcDbEntity
  8
0
100
AcDbBlockBegin
  2
*D15
 70
     1
 10
0.0
 20
0.0
 30
0.0
  3
*D15
  1

  0
LINE
  5
C36
330
5AF
100
AcDbEntity
  8
SUNPOU
100
AcDbLine
 10
239.3690476618045
 20
512.520162161687
 30
0.0
 11
239.3690476618045
 21
530.9818845477897
 31
0.0
  0
LINE
  5
C37
330
5AF
100
AcDbEntity
  8
SUNPOU
100
AcDbLine
 10
321.3690376618048
 20
512.520162161687
 30
0.0
 11
321.3690376618048
 21
530.9818845477897
 31
0.0
  0
LINE
  5
C38
330
5AF
100
AcDbEntity
  8
SUNPOU
100
AcDbLine
 10
244.3690476618046
 20
528.9818845477896
 30
0.0
 11
316.3690376618046
 21
528.9818845477896
 31
0.0
  0
MTEXT
  5
C39
330
5AF
100
AcDbEntity
  8
SUNPOU
 62
     6
100
AcDbMText
 10
280.2639815741283
 20
522.6551302534435
 30
0.0
 40
5.0
 41
0.0
 71
     5
 72
     1
  1
\A1;82
  7
SUNPOU
 11
-1.0
 21
0.0000000000000001
 31
0.0
1001
ACAD
1000
MTEXTBEGIN
1070
    73
1070
     1
1070
    44
1040
1.0
1070
    74
1070
     0
1000
MTEXTEND
1000
MTEXTBEGIN
1070
    73
1070
     1
1070
    44
1040
1.0
1070
    74
1070
     0
1000
MTEXTEND
  0
INSERT
  5
C3A
330
5AF
100
AcDbEntity
  8
SUNPOU
100
AcDbBlockReference
  2
_OPEN30
 10
239.3690476618045
 20
528.9818845477896
 30
0.0
 41
5.0
 42
5.0
 43
5.0
 50
180.0
  0
INSERT
  5
C3B
330
5AF
100
AcDbEntity
  8
SUNPOU
100
AcDbBlockReference
  2
_OPEN30
 10
321.3690376618048
 20
528.9818845477896
 30
0.0
 41
5.0
 42
5.0
 43
5.0
  0
POINT
  5
C3C
330
5AF
100
AcDbEntity
  8
DEFPOINTS
 62
     0
100
AcDbPoint
 10
239.3690476618045
 20
509.5201621616872
 30
0.0
  0
POINT
  5
C3D
330
5AF
100
AcDbEntity
  8
DEFPOINTS
 62
     0
100
AcDbPoint
 10
321.3690376618048
 20
509.5201621616872
 30
0.0
  0
POINT
  5
C3E
330
5AF
100
AcDbEntity
  8
DEFPOINTS
 62
     0
100
AcDbPoint
 10
321.3690376618048
 20
528.9818845477896
 30
0.0
  0
ENDBLK
  5
5BA
330
5AF
100
AcDbEntity
  8
0
100
AcDbBlockEnd
  0
BLOCK
  5
5C6
330
5BC
100
AcDbEntity
  8
0
100
AcDbBlockBegin
  2
*D16
 70
     1
 10
0.0
 20
0.0
 30
0.0
  3
*D16
  1

  0
LINE
  5
C2D
330
5BC
100
AcDbEntity
  8
SUNPOU
100
AcDbLine
 10
326.3690576618047
 20
507.2701621616871
 30
0.0
 11
326.3690576618047
 21
494.2897120454238
 31
0.0
  0
LINE
  5
C2E
330
5BC
100
AcDbEntity
  8
SUNPOU
100
AcDbLine
 10
291.3690576618047
 20
506.520162161687
 30
0.0
 11
291.3690576618047
 21
494.2897120454238
 31
0.0
  0
LINE
  5
C2F
330
5BC
100
AcDbEntity
  8
SUNPOU
100
AcDbLine
 10
321.3690576618048
 20
496.2897120454238
 30
0.0
 11
296.3690576618048
 21
496.2897120454238
 31
0.0
  0
MTEXT
  5
C30
330
5BC
100
AcDbEntity
  8
SUNPOU
 62
     6
100
AcDbMText
 10
309.3279154076913
 20
489.6504239095577
 30
0.0
 40
5.0
 41
0.0
 71
     5
 72
     1
  1
\A1;35
  7
SUNPOU
 11
-1.0
 21
0.0000000000000001
 31
0.0
1001
ACAD
1000
MTEXTBEGIN
1070
    73
1070
     1
1070
    44
1040
1.0
1070
    74
1070
     0
1000
MTEXTEND
1000
MTEXTBEGIN
1070
    73
1070
     1
1070
    44
1040
1.0
1070
    74
1070
     0
1000
MTEXTEND
  0
INSERT
  5
C31
330
5BC
100
AcDbEntity
  8
SUNPOU
100
AcDbBlockReference
  2
_OPEN30
 10
326.3690576618047
 20
496.2897120454238
 30
0.0
 41
5.0
 42
5.0
 43
5.0
  0
INSERT
  5
C32
330
5BC
100
AcDbEntity
  8
SUNPOU
100
AcDbBlockReference
  2
_OPEN30
 10
291.3690576618047
 20
496.2897120454238
 30
0.0
 41
5.0
 42
5.0
 43
5.0
 50
180.0
  0
POINT
  5
C33
330
5BC
100
AcDbEntity
  8
DEFPOINTS
 62
     0
100
AcDbPoint
 10
326.3690576618047
 20
510.2701621616871
 30
0.0
  0
POINT
  5
C34
330
5BC
100
AcDbEntity
  8
DEFPOINTS
 62
     0
100
AcDbPoint
 10
291.3690576618047
 20
509.5201621616872
 30
0.0
  0
POINT
  5
C35
330
5BC
100
AcDbEntity
  8
DEFPOINTS
 62
     0
100
AcDbPoint
 10
291.3690576618047
 20
496.2897120454238
 30
0.0
  0
ENDBLK
  5
5C7
330
5BC
100
AcDbEntity
  8
0
100
AcDbBlockEnd
  0
BLOCK
  5
653
330
647
100
AcDbEntity
  8
0
100
AcDbBlockBegin
  2
*D17
 70
     1
 10
0.0
 20
0.0
 30
0.0
  3
*D17
  1

  0
LINE
  5
B5B
330
647
100
AcDbEntity
  8
SUNPOU
100
AcDbLine
 10
328.6190576618047
 20
509.5201621616872
 30
0.0
 11
343.2982081322653
 21
509.5201621616872
 31
0.0
  0
LINE
  5
B5C
330
647
100
AcDbEntity
  8
SUNPOU
100
AcDbLine
 10
183.3690382727112
 20
504.520140161687
 30
0.0
 11
343.2982081322653
 21
504.520140161687
 31
0.0
  0
LINE
  5
B5D
330
647
100
AcDbEntity
  8
SUNPOU
100
AcDbLine
 10
341.2982081322653
 20
514.520162161687
 30
0.0
 11
341.2982081322653
 21
519.520162161687
 31
0.0
  0
LINE
  5
B5E
330
647
100
AcDbEntity
  8
SUNPOU
100
AcDbLine
 10
341.2982081322653
 20
499.5201401616871
 30
0.0
 11
341.2982081322653
 21
494.5201401616871
 31
0.0
  0
MTEXT
  5
B5F
330
647
100
AcDbEntity
  8
SUNPOU
 62
     6
100
AcDbMText
 10
335.0274117949782
 20
517.13119843672
 30
0.0
 40
5.0
 41
0.0
 71
     5
 72
     1
  1
\A1;5
  7
SUNPOU
 11
0.0000000000000001
 21
1.0
 31
0.0
1001
ACAD
1000
MTEXTBEGIN
1070
    73
1070
     1
1070
    44
1040
1.0
1070
    74
1070
     0
1000
MTEXTEND
1000
MTEXTBEGIN
1070
    73
1070
     1
1070
    44
1040
1.0
1070
    74
1070
     0
1000
MTEXTEND
  0
LINE
  5
B60
330
647
100
AcDbEntity
  8
SUNPOU
100
AcDbLine
 10
341.2982081322653
 20
509.5201621616872
 30
0.0
 11
341.2982081322653
 21
504.520140161687
 31
0.0
  0
INSERT
  5
B61
330
647
100
AcDbEntity
  8
SUNPOU
100
AcDbBlockReference
  2
_OPEN30
 10
341.2982081322653
 20
509.5201621616872
 30
0.0
 41
5.0
 42
5.0
 43
5.0
 50
270.0
  0
INSERT
  5
B62
330
647
100
AcDbEntity
  8
SUNPOU
100
AcDbBlockReference
  2
_OPEN30
 10
341.2982081322653
 20
504.520140161687
 30
0.0
 41
5.0
 42
5.0
 43
5.0
 50
90.0
  0
POINT
  5
B63
330
647
100
AcDbEntity
  8
DEFPOINTS
 62
     0
100
AcDbPoint
 10
325.6190576618048
 20
509.5201621616872
 30
0.0
  0
POINT
  5
B64
330
647
100
AcDbEntity
  8
DEFPOINTS
 62
     0
100
AcDbPoint
 10
180.3690382727112
 20
504.520140161687
 30
0.0
  0
POINT
  5
B65
330
647
100
AcDbEntity
  8
DEFPOINTS
 62
     0
100
AcDbPoint
 10
341.2982081322653
 20
504.520140161687
 30
0.0
  0
ENDBLK
  5
654
330
647
100
AcDbEntity
  8
0
100
AcDbBlockEnd
  0
BLOCK
  5
660
330
656
100
AcDbEntity
  8
0
100
AcDbBlockBegin
  2
*D18
 70
     1
 10
0.0
 20
0.0
 30
0.0
  3
*D18
  1

  0
LINE
  5
B52
330
656
100
AcDbEntity
  8
SUNPOU
100
AcDbLine
 10
183.3690382727112
 20
504.520140161687
 30
0.0
 11
343.2982081322653
 21
504.520140161687
 31
0.0
  0
LINE
  5
B53
330
656
100
AcDbEntity
  8
SUNPOU
100
AcDbLine
 10
267.8690376618045
 20
454.5193321616871
 30
0.0
 11
343.2982081322653
 21
454.5193321616871
 31
0.0
  0
LINE
  5
B54
330
656
100
AcDbEntity
  8
SUNPOU
100
AcDbLine
 10
341.2982081322653
 20
499.5201401616871
 30
0.0
 11
341.2982081322653
 21
459.519332161687
 31
0.0
  0
INSERT
  5
B55
330
656
100
AcDbEntity
  8
SUNPOU
100
AcDbBlockReference
  2
_OPEN30
 10
341.2982081322653
 20
504.520140161687
 30
0.0
 41
5.0
 42
5.0
 43
5.0
 50
90.0
  0
INSERT
  5
B56
330
656
100
AcDbEntity
  8
SUNPOU
100
AcDbBlockReference
  2
_OPEN30
 10
341.2982081322653
 20
454.5193321616871
 30
0.0
 41
5.0
 42
5.0
 43
5.0
 50
270.0
  0
MTEXT
  5
B57
330
656
100
AcDbEntity
  8
SUNPOU
 62
     6
100
AcDbMText
 10
336.7982081322653
 20
479.5197361616871
 30
0.0
 40
5.0
 41
0.0
 71
     5
 72
     1
  1
\A1;50
  7
SUNPOU
 11
0.0000000000000001
 21
1.0
 31
0.0
1001
ACAD
1000
MTEXTBEGIN
1070
    73
1070
     1
1070
    44
1040
1.0
1070
    74
1070
     0
1000
MTEXTEND
1000
MTEXTBEGIN
1070
    73
1070
     1
1070
    44
1040
1.0
1070
    74
1070
     0
1000
MTEXTEND
  0
POINT
  5
B58
330
656
100
AcDbEntity
  8
DEFPOINTS
 62
     0
100
AcDbPoint
 10
180.3690382727112
 20
504.520140161687
 30
0.0
  0
POINT
  5
B59
330
656
100
AcDbEntity
  8
DEFPOINTS
 62
     0
100
AcDbPoint
 10
264.8690376618045
 20
454.5193321616871
 30
0.0
  0
POINT
  5
B5A
330
656
100
AcDbEntity
  8
DEFPOINTS
 62
     0
100
AcDbPoint
 10
341.2982081322653
 20
454.5193321616871
 30
0.0
  0
ENDBLK
  5
661
330
656
100
AcDbEntity
  8
0
100
AcDbBlockEnd
  0
BLOCK
  5
66D
330
663
100
AcDbEntity
  8
0
100
AcDbBlockBegin
  2
*D19
 70
     1
 10
0.0
 20
0.0
 30
0.0
  3
*D19
  1

  0
LINE
  5
C24
330
663
100
AcDbEntity
  8
SUNPOU
100
AcDbLine
 10
267.8690376618045
 20
454.5193321616871
 30
0.0
 11
343.2982081322653
 21
454.5193321616871
 31
0.0
  0
LINE
  5
C25
330
663
100
AcDbEntity
  8
SUNPOU
100
AcDbLine
 10
290.1719159638165
 20
390.520152161687
 30
0.0
 11
343.2982081322653
 21
390.520152161687
 31
0.0
  0
LINE
  5
C26
330
663
100
AcDbEntity
  8
SUNPOU
100
AcDbLine
 10
341.2982081322653
 20
449.5193321616871
 30
0.0
 11
341.2982081322653
 21
395.520152161687
 31
0.0
  0
INSERT
  5
C27
330
663
100
AcDbEntity
  8
SUNPOU
100
AcDbBlockReference
  2
_OPEN30
 10
341.2982081322653
 20
454.5193321616871
 30
0.0
 41
5.0
 42
5.0
 43
5.0
 50
90.0
  0
INSERT
  5
C28
330
663
100
AcDbEntity
  8
SUNPOU
100
AcDbBlockReference
  2
_OPEN30
 10
341.2982081322653
 20
390.520152161687
 30
0.0
 41
5.0
 42
5.0
 43
5.0
 50
270.0
  0
MTEXT
  5
C29
330
663
100
AcDbEntity
  8
SUNPOU
 62
     6
100
AcDbMText
 10
336.7982081322653
 20
422.5197421616871
 30
0.0
 40
5.0
 41
0.0
 71
     5
 72
     1
  1
\A1;64
  7
SUNPOU
 11
0.0000000000000001
 21
1.0
 31
0.0
1001
ACAD
1000
MTEXTBEGIN
1070
    73
1070
     1
1070
    44
1040
1.0
1070
    74
1070
     0
1000
MTEXTEND
1000
MTEXTBEGIN
1070
    73
1070
     1
1070
    44
1040
1.0
1070
    74
1070
     0
1000
MTEXTEND
  0
POINT
  5
C2A
330
663
100
AcDbEntity
  8
DEFPOINTS
 62
     0
100
AcDbPoint
 10
264.8690376618045
 20
454.5193321616871
 30
0.0
  0
POINT
  5
C2B
330
663
100
AcDbEntity
  8
DEFPOINTS
 62
     0
100
AcDbPoint
 10
287.1719159638164
 20
390.520152161687
 30
0.0
  0
POINT
  5
C2C
330
663
100
AcDbEntity
  8
DEFPOINTS
 62
     0
100
AcDbPoint
 10
341.2982081322653
 20
390.520152161687
 30
0.0
  0
ENDBLK
  5
66E
330
663
100
AcDbEntity
  8
0
100
AcDbBlockEnd
  0
BLOCK
  5
67A
330
670
100
AcDbEntity
  8
0
100
AcDbBlockBegin
  2
*D20
 70
     1
 10
0.0
 20
0.0
 30
0.0
  3
*D20
  1

  0
LINE
  5
BDB
330
670
100
AcDbEntity
  8
SUNPOU
100
AcDbLine
 10
328.6190576618047
 20
509.5201621616872
 30
0.0
 11
353.2201420858339
 21
509.5201621616872
 31
0.0
  0
LINE
  5
BDC
330
670
100
AcDbEntity
  8
SUNPOU
100
AcDbLine
 10
351.2201420858339
 20
504.5201621616871
 30
0.0
 11
351.2201420858339
 21
76.31645261592534
 31
0.0
  0
INSERT
  5
BDD
330
670
100
AcDbEntity
  8
SUNPOU
100
AcDbBlockReference
  2
_OPEN30
 10
351.2201420858339
 20
509.5201621616872
 30
0.0
 41
5.0
 42
5.0
 43
5.0
 50
90.0
  0
INSERT
  5
BDE
330
670
100
AcDbEntity
  8
SUNPOU
100
AcDbBlockReference
  2
_OPEN30
 10
351.2201420858339
 20
71.31645261592534
 30
0.0
 41
5.0
 42
5.0
 43
5.0
 50
270.0
  0
MTEXT
  5
BDF
330
670
100
AcDbEntity
  8
SUNPOU
 62
     6
100
AcDbMText
 10
346.7201420858339
 20
290.4183073888063
 30
0.0
 40
5.0
 41
0.0
 71
     5
 72
     1
  1
\A1;Wo
  7
SUNPOU
 11
0.0000000000000001
 21
1.0
 31
0.0
1001
ACAD
1000
MTEXTBEGIN
1070
    73
1070
     1
1070
    44
1040
1.0
1070
    74
1070
     0
1000
MTEXTEND
1000
MTEXTBEGIN
1070
    73
1070
     1
1070
    44
1040
1.0
1070
    74
1070
     0
1000
MTEXTEND
  0
POINT
  5
BE0
330
670
100
AcDbEntity
  8
DEFPOINTS
 62
     0
100
AcDbPoint
 10
325.6190576618048
 20
509.5201621616872
 30
0.0
  0
POINT
  5
BE1
330
670
100
AcDbEntity
  8
DEFPOINTS
 62
     0
100
AcDbPoint
 10
321.3690376618046
 20
71.31645261592534
 30
0.0
  0
POINT
  5
BE2
330
670
100
AcDbEntity
  8
DEFPOINTS
 62
     0
100
AcDbPoint
 10
351.2201420858339
 20
71.31645261592534
 30
0.0
  0
ENDBLK
  5
67B
330
670
100
AcDbEntity
  8
0
100
AcDbBlockEnd
  0
BLOCK
  5
A76
330
A6C
100
AcDbEntity
  8
0
100
AcDbBlockBegin
  2
*D21
 70
     1
 10
0.0
 20
0.0
 30
0.0
  3
*D21
  1

  0
LINE
  5
C09
330
A6C
100
AcDbEntity
  8
SUNPOU
  6
CONTINUOUS
100
AcDbLine
 10
262.3690376618045
 20
167.520152161687
 30
0.0
 11
289.1719159638163
 21
167.520152161687
 31
0.0
  0
LINE
  5
C0A
330
A6C
100
AcDbEntity
  8
SUNPOU
  6
CONTINUOUS
100
AcDbLine
 10
264.8690476618046
 20
210.020147161687
 30
0.0
 11
289.1719159638163
 21
210.020147161687
 31
0.0
  0
LINE
  5
C0B
330
A6C
100
AcDbEntity
  8
SUNPOU
  6
CONTINUOUS
100
AcDbLine
 10
287.1719159638164
 20
172.520152161687
 30
0.0
 11
287.1719159638164
 21
205.0201471616872
 31
0.0
  0
INSERT
  5
C0C
330
A6C
100
AcDbEntity
  8
SUNPOU
  6
CONTINUOUS
100
AcDbBlockReference
  2
_OPEN30
 10
287.1719159638164
 20
167.520152161687
 30
0.0
 41
5.0
 42
5.0
 43
5.0
 50
270.0
  0
INSERT
  5
C0D
330
A6C
100
AcDbEntity
  8
SUNPOU
  6
CONTINUOUS
100
AcDbBlockReference
  2
_OPEN30
 10
287.1719159638164
 20
210.020147161687
 30
0.0
 41
5.0
 42
5.0
 43
5.0
 50
90.0
  0
MTEXT
  5
C0E
330
A6C
100
AcDbEntity
  8
SUNPOU
  6
CONTINUOUS
 62
     6
100
AcDbMText
 10
282.6719159638162
 20
188.7701496616872
 30
0.0
 40
5.0
 41
0.0
 71
     5
 72
     1
  1
\A1;42.5
  7
SUNPOU
 11
0.0000000000000001
 21
1.0
 31
0.0
1001
ACAD
1000
MTEXTBEGIN
1070
    73
1070
     1
1070
    44
1040
1.0
1070
    74
1070
     0
1000
MTEXTEND
1000
MTEXTBEGIN
1070
    73
1070
     1
1070
    44
1040
1.0
1070
    74
1070
     0
1000
MTEXTEND
  0
POINT
  5
C0F
330
A6C
100
AcDbEntity
  8
DEFPOINTS
  6
CONTINUOUS
 62
     0
100
AcDbPoint
 10
259.3690376618045
 20
167.520152161687
 30
0.0
  0
POINT
  5
C10
330
A6C
100
AcDbEntity
  8
DEFPOINTS
  6
CONTINUOUS
 62
     0
100
AcDbPoint
 10
261.8690476618045
 20
210.020147161687
 30
0.0
  0
POINT
  5
C11
330
A6C
100
AcDbEntity
  8
DEFPOINTS
  6
CONTINUOUS
 62
     0
100
AcDbPoint
 10
287.1719159638164
 20
210.020147161687
 30
0.0
  0
ENDBLK
  5
A77
330
A6C
100
AcDbEntity
  8
0
100
AcDbBlockEnd
  0
BLOCK
  5
A83
330
A79
100
AcDbEntity
  8
0
100
AcDbBlockBegin
  2
*D22
 70
     1
 10
0.0
 20
0.0
 30
0.0
  3
*D22
  1

  0
LINE
  5
C1B
330
A79
100
AcDbEntity
  8
SUNPOU
  6
CONTINUOUS
100
AcDbLine
 10
264.8690476618046
 20
210.020147161687
 30
0.0
 11
289.1719159638163
 21
210.020147161687
 31
0.0
  0
LINE
  5
C1C
330
A79
100
AcDbEntity
  8
SUNPOU
  6
CONTINUOUS
100
AcDbLine
 10
279.3573833395413
 20
252.5201521616871
 30
0.0
 11
289.1719159638163
 21
252.5201521616871
 31
0.0
  0
LINE
  5
C1D
330
A79
100
AcDbEntity
  8
SUNPOU
  6
CONTINUOUS
100
AcDbLine
 10
287.1719159638164
 20
215.020147161687
 30
0.0
 11
287.1719159638164
 21
247.520152161687
 31
0.0
  0
INSERT
  5
C1E
330
A79
100
AcDbEntity
  8
SUNPOU
  6
CONTINUOUS
100
AcDbBlockReference
  2
_OPEN30
 10
287.1719159638164
 20
210.020147161687
 30
0.0
 41
5.0
 42
5.0
 43
5.0
 50
270.0
  0
INSERT
  5
C1F
330
A79
100
AcDbEntity
  8
SUNPOU
  6
CONTINUOUS
100
AcDbBlockReference
  2
_OPEN30
 10
287.1719159638164
 20
252.5201521616871
 30
0.0
 41
5.0
 42
5.0
 43
5.0
 50
90.0
  0
MTEXT
  5
C20
330
A79
100
AcDbEntity
  8
SUNPOU
  6
CONTINUOUS
 62
     6
100
AcDbMText
 10
282.6719159638162
 20
231.2701496616872
 30
0.0
 40
5.0
 41
0.0
 71
     5
 72
     1
  1
\A1;42.5
  7
SUNPOU
 11
0.0000000000000001
 21
1.0
 31
0.0
1001
ACAD
1000
MTEXTBEGIN
1070
    73
1070
     1
1070
    44
1040
1.0
1070
    74
1070
     0
1000
MTEXTEND
1000
MTEXTBEGIN
1070
    73
1070
     1
1070
    44
1040
1.0
1070
    74
1070
     0
1000
MTEXTEND
  0
POINT
  5
C21
330
A79
100
AcDbEntity
  8
DEFPOINTS
  6
CONTINUOUS
 62
     0
100
AcDbPoint
 10
261.8690476618045
 20
210.020147161687
 30
0.0
  0
POINT
  5
C22
330
A79
100
AcDbEntity
  8
DEFPOINTS
  6
CONTINUOUS
 62
     0
100
AcDbPoint
 10
276.3573833395414
 20
252.5201521616871
 30
0.0
  0
POINT
  5
C23
330
A79
100
AcDbEntity
  8
DEFPOINTS
  6
CONTINUOUS
 62
     0
100
AcDbPoint
 10
287.1719159638164
 20
252.5201521616871
 30
0.0
  0
ENDBLK
  5
A84
330
A79
100
AcDbEntity
  8
0
100
AcDbBlockEnd
  0
BLOCK
  5
AAF
330
AA5
100
AcDbEntity
  8
0
100
AcDbBlockBegin
  2
*D23
 70
     1
 10
0.0
 20
0.0
 30
0.0
  3
*D23
  1

  0
LINE
  5
B8A
330
AA5
100
AcDbEntity
  8
SUNPOU
  6
CONTINUOUS
100
AcDbLine
 10
167.3690376618045
 20
95.02015716168704
 30
0.0
 11
134.8318430399213
 21
95.02015716168706
 31
0.0
  0
LINE
  5
B8B
330
AA5
100
AcDbEntity
  8
SUNPOU
  6
CONTINUOUS
100
AcDbLine
 10
167.3690376618045
 20
120.020155161687
 30
0.0
 11
134.8318430399213
 21
120.020155161687
 31
0.0
  0
LINE
  5
B8C
330
AA5
100
AcDbEntity
  8
SUNPOU
  6
CONTINUOUS
100
AcDbLine
 10
136.8318430399213
 20
100.0201571616869
 30
0.0
 11
136.8318430399213
 21
115.020155161687
 31
0.0
  0
INSERT
  5
B8D
330
AA5
100
AcDbEntity
  8
SUNPOU
  6
CONTINUOUS
100
AcDbBlockReference
  2
_OPEN30
 10
136.8318430399213
 20
95.02015716168706
 30
0.0
 41
5.0
 42
5.0
 43
5.0
 50
270.0
  0
INSERT
  5
B8E
330
AA5
100
AcDbEntity
  8
SUNPOU
  6
CONTINUOUS
100
AcDbBlockReference
  2
_OPEN30
 10
136.8318430399213
 20
120.020155161687
 30
0.0
 41
5.0
 42
5.0
 43
5.0
 50
90.0
  0
MTEXT
  5
B8F
330
AA5
100
AcDbEntity
  8
SUNPOU
  6
CONTINUOUS
 62
     6
100
AcDbMText
 10
132.3318430399212
 20
107.520156161687
 30
0.0
 40
5.0
 41
0.0
 71
     5
 72
     1
  1
\A1;25
  7
SUNPOU
 11
0.0000000000000001
 21
1.0
 31
0.0
1001
ACAD
1000
MTEXTBEGIN
1070
    73
1070
     1
1070
    44
1040
1.0
1070
    74
1070
     0
1000
MTEXTEND
1000
MTEXTBEGIN
1070
    73
1070
     1
1070
    44
1040
1.0
1070
    74
1070
     0
1000
MTEXTEND
  0
POINT
  5
B90
330
AA5
100
AcDbEntity
  8
DEFPOINTS
  6
CONTINUOUS
 62
     0
100
AcDbPoint
 10
170.3690376618045
 20
95.02015716168704
 30
0.0
  0
POINT
  5
B91
330
AA5
100
AcDbEntity
  8
DEFPOINTS
  6
CONTINUOUS
 62
     0
100
AcDbPoint
 10
170.3690376618045
 20
120.020155161687
 30
0.0
  0
POINT
  5
B92
330
AA5
100
AcDbEntity
  8
DEFPOINTS
  6
CONTINUOUS
 62
     0
100
AcDbPoint
 10
136.8318430399213
 20
120.020155161687
 30
0.0
  0
ENDBLK
  5
AB0
330
AA5
100
AcDbEntity
  8
0
100
AcDbBlockEnd
  0
BLOCK
  5
ABC
330
AB2
100
AcDbEntity
  8
0
100
AcDbBlockBegin
  2
*D24
 70
     1
 10
0.0
 20
0.0
 30
0.0
  3
*D24
  1

  0
LINE
  5
BAE
330
AB2
100
AcDbEntity
  8
SUNPOU
  6
CONTINUOUS
100
AcDbLine
 10
167.3690376618045
 20
120.020155161687
 30
0.0
 11
134.8318430399213
 21
120.020155161687
 31
0.0
  0
LINE
  5
BAF
330
AB2
100
AcDbEntity
  8
SUNPOU
  6
CONTINUOUS
100
AcDbLine
 10
167.3690376618045
 20
145.0201541616871
 30
0.0
 11
134.8318430399213
 21
145.0201541616871
 31
0.0
  0
LINE
  5
BB0
330
AB2
100
AcDbEntity
  8
SUNPOU
  6
CONTINUOUS
100
AcDbLine
 10
136.8318430399213
 20
125.020155161687
 30
0.0
 11
136.8318430399213
 21
140.020154161687
 31
0.0
  0
INSERT
  5
BB1
330
AB2
100
AcDbEntity
  8
SUNPOU
  6
CONTINUOUS
100
AcDbBlockReference
  2
_OPEN30
 10
136.8318430399213
 20
120.020155161687
 30
0.0
 41
5.0
 42
5.0
 43
5.0
 50
270.0
  0
INSERT
  5
BB2
330
AB2
100
AcDbEntity
  8
SUNPOU
  6
CONTINUOUS
100
AcDbBlockReference
  2
_OPEN30
 10
136.8318430399213
 20
145.0201541616871
 30
0.0
 41
5.0
 42
5.0
 43
5.0
 50
90.0
  0
MTEXT
  5
BB3
330
AB2
100
AcDbEntity
  8
SUNPOU
  6
CONTINUOUS
 62
     6
100
AcDbMText
 10
132.3318430399212
 20
132.520154661687
 30
0.0
 40
5.0
 41
0.0
 71
     5
 72
     1
  1
\A1;25
  7
SUNPOU
 11
0.0000000000000001
 21
1.0
 31
0.0
1001
ACAD
1000
MTEXTBEGIN
1070
    73
1070
     1
1070
    44
1040
1.0
1070
    74
1070
     0
1000
MTEXTEND
1000
MTEXTBEGIN
1070
    73
1070
     1
1070
    44
1040
1.0
1070
    74
1070
     0
1000
MTEXTEND
  0
POINT
  5
BB4
330
AB2
100
AcDbEntity
  8
DEFPOINTS
  6
CONTINUOUS
 62
     0
100
AcDbPoint
 10
170.3690376618045
 20
120.020155161687
 30
0.0
  0
POINT
  5
BB5
330
AB2
100
AcDbEntity
  8
DEFPOINTS
  6
CONTINUOUS
 62
     0
100
AcDbPoint
 10
170.3690376618045
 20
145.0201541616871
 30
0.0
  0
POINT
  5
BB6
330
AB2
100
AcDbEntity
  8
DEFPOINTS
  6
CONTINUOUS
 62
     0
100
AcDbPoint
 10
136.8318430399213
 20
145.0201541616871
 30
0.0
  0
ENDBLK
  5
ABD
330
AB2
100
AcDbEntity
  8
0
100
AcDbBlockEnd
  0
BLOCK
  5
ACA
330
AC0
100
AcDbEntity
  8
0
100
AcDbBlockBegin
  2
*D25
 70
     1
 10
0.0
 20
0.0
 30
0.0
  3
*D25
  1

  0
LINE
  5
B9C
330
AC0
100
AcDbEntity
  8
SUNPOU
  6
CONTINUOUS
100
AcDbLine
 10
165.3690376618045
 20
165.0201521616871
 30
0.0
 11
134.8318430399212
 21
165.0201521616871
 31
0.0
  0
LINE
  5
B9D
330
AC0
100
AcDbEntity
  8
SUNPOU
  6
CONTINUOUS
100
AcDbLine
 10
165.3690376618045
 20
210.0201621616871
 30
0.0
 11
134.8318430399213
 21
210.0201621616871
 31
0.0
  0
LINE
  5
B9E
330
AC0
100
AcDbEntity
  8
SUNPOU
  6
CONTINUOUS
100
AcDbLine
 10
136.8318430399212
 20
170.020152161687
 30
0.0
 11
136.8318430399213
 21
205.020162161687
 31
0.0
  0
INSERT
  5
B9F
330
AC0
100
AcDbEntity
  8
SUNPOU
  6
CONTINUOUS
100
AcDbBlockReference
  2
_OPEN30
 10
136.8318430399212
 20
165.0201521616871
 30
0.0
 41
5.0
 42
5.0
 43
5.0
 50
270.0
  0
INSERT
  5
BA0
330
AC0
100
AcDbEntity
  8
SUNPOU
  6
CONTINUOUS
100
AcDbBlockReference
  2
_OPEN30
 10
136.8318430399213
 20
210.0201621616871
 30
0.0
 41
5.0
 42
5.0
 43
5.0
 50
90.0
  0
MTEXT
  5
BA1
330
AC0
100
AcDbEntity
  8
SUNPOU
  6
CONTINUOUS
 62
     6
100
AcDbMText
 10
132.3318430399212
 20
187.520157161687
 30
0.0
 40
5.0
 41
0.0
 71
     5
 72
     1
  1
\A1;45
  7
SUNPOU
 11
0.0000000000000001
 21
1.0
 31
0.0
1001
ACAD
1000
MTEXTBEGIN
1070
    73
1070
     1
1070
    44
1040
1.0
1070
    74
1070
     0
1000
MTEXTEND
1000
MTEXTBEGIN
1070
    73
1070
     1
1070
    44
1040
1.0
1070
    74
1070
     0
1000
MTEXTEND
  0
POINT
  5
BA2
330
AC0
100
AcDbEntity
  8
DEFPOINTS
  6
CONTINUOUS
 62
     0
100
AcDbPoint
 10
168.3690376618045
 20
165.0201521616871
 30
0.0
  0
POINT
  5
BA3
330
AC0
100
AcDbEntity
  8
DEFPOINTS
  6
CONTINUOUS
 62
     0
100
AcDbPoint
 10
168.3690376618045
 20
210.0201621616871
 30
0.0
  0
POINT
  5
BA4
330
AC0
100
AcDbEntity
  8
DEFPOINTS
  6
CONTINUOUS
 62
     0
100
AcDbPoint
 10
136.8318430399213
 20
210.0201621616871
 30
0.0
  0
ENDBLK
  5
ACB
330
AC0
100
AcDbEntity
  8
0
100
AcDbBlockEnd
  0
BLOCK
  5
AD7
330
ACD
100
AcDbEntity
  8
0
100
AcDbBlockBegin
  2
*D26
 70
     1
 10
0.0
 20
0.0
 30
0.0
  3
*D26
  1

  0
LINE
  5
BB7
330
ACD
100
AcDbEntity
  8
SUNPOU
  6
CONTINUOUS
100
AcDbLine
 10
165.3690376618045
 20
210.0201621616871
 30
0.0
 11
134.8318430399213
 21
210.0201621616871
 31
0.0
  0
LINE
  5
BB8
330
ACD
100
AcDbEntity
  8
SUNPOU
  6
CONTINUOUS
100
AcDbLine
 10
165.3690376618045
 20
255.020152161687
 30
0.0
 11
134.8318430399213
 21
255.020152161687
 31
0.0
  0
LINE
  5
BB9
330
ACD
100
AcDbEntity
  8
SUNPOU
  6
CONTINUOUS
100
AcDbLine
 10
136.8318430399213
 20
215.020162161687
 30
0.0
 11
136.8318430399213
 21
250.0201521616871
 31
0.0
  0
INSERT
  5
BBA
330
ACD
100
AcDbEntity
  8
SUNPOU
  6
CONTINUOUS
100
AcDbBlockReference
  2
_OPEN30
 10
136.8318430399213
 20
210.0201621616871
 30
0.0
 41
5.0
 42
5.0
 43
5.0
 50
270.0
  0
INSERT
  5
BBB
330
ACD
100
AcDbEntity
  8
SUNPOU
  6
CONTINUOUS
100
AcDbBlockReference
  2
_OPEN30
 10
136.8318430399213
 20
255.020152161687
 30
0.0
 41
5.0
 42
5.0
 43
5.0
 50
90.0
  0
MTEXT
  5
BBC
330
ACD
100
AcDbEntity
  8
SUNPOU
  6
CONTINUOUS
 62
     6
100
AcDbMText
 10
132.3318430399212
 20
232.5201571616871
 30
0.0
 40
5.0
 41
0.0
 71
     5
 72
     1
  1
\A1;45
  7
SUNPOU
 11
0.0000000000000001
 21
1.0
 31
0.0
1001
ACAD
1000
MTEXTBEGIN
1070
    73
1070
     1
1070
    44
1040
1.0
1070
    74
1070
     0
1000
MTEXTEND
1000
MTEXTBEGIN
1070
    73
1070
     1
1070
    44
1040
1.0
1070
    74
1070
     0
1000
MTEXTEND
  0
POINT
  5
BBD
330
ACD
100
AcDbEntity
  8
DEFPOINTS
  6
CONTINUOUS
 62
     0
100
AcDbPoint
 10
168.3690376618045
 20
210.0201621616871
 30
0.0
  0
POINT
  5
BBE
330
ACD
100
AcDbEntity
  8
DEFPOINTS
  6
CONTINUOUS
 62
     0
100
AcDbPoint
 10
168.3690376618045
 20
255.020152161687
 30
0.0
  0
POINT
  5
BBF
330
ACD
100
AcDbEntity
  8
DEFPOINTS
  6
CONTINUOUS
 62
     0
100
AcDbPoint
 10
136.8318430399213
 20
255.020152161687
 30
0.0
  0
ENDBLK
  5
AD8
330
ACD
100
AcDbEntity
  8
0
100
AcDbBlockEnd
  0
BLOCK
  5
AF8
330
AEE
100
AcDbEntity
  8
0
100
AcDbBlockBegin
  2
*D27
 70
     1
 10
0.0
 20
0.0
 30
0.0
  3
*D27
  1

  0
LINE
  5
D3E
330
AEE
100
AcDbEntity
  8
SUNPOU
  6
CONTINUOUS
100
AcDbLine
 10
249.8690476618044
 20
345.5193121616871
 30
0.0
 11
292.1719159638163
 21
345.5193121616871
 31
0.0
  0
LINE
  5
D3F
330
AEE
100
AcDbEntity
  8
SUNPOU
  6
CONTINUOUS
100
AcDbLine
 10
287.1719159638164
 20
390.520152161687
 30
0.0
 11
288.1719159638165
 21
390.520152161687
 31
0.0
  0
LINE
  5
D40
330
AEE
100
AcDbEntity
  8
SUNPOU
  6
CONTINUOUS
100
AcDbLine
 10
290.1719159638163
 20
350.5193121616871
 30
0.0
 11
290.1719159638165
 21
385.520152161687
 31
0.0
  0
INSERT
  5
D41
330
AEE
100
AcDbEntity
  8
SUNPOU
  6
CONTINUOUS
100
AcDbBlockReference
  2
_OPEN30
 10
290.1719159638163
 20
345.5193121616871
 30
0.0
 41
5.0
 42
5.0
 43
5.0
 50
270.0
  0
INSERT
  5
D42
330
AEE
100
AcDbEntity
  8
SUNPOU
  6
CONTINUOUS
100
AcDbBlockReference
  2
_OPEN30
 10
290.1719159638165
 20
390.520152161687
 30
0.0
 41
5.0
 42
5.0
 43
5.0
 50
90.0
  0
MTEXT
  5
D43
330
AEE
100
AcDbEntity
  8
SUNPOU
  6
CONTINUOUS
 62
     6
100
AcDbMText
 10
285.6719159638164
 20
368.0197321616871
 30
0.0
 40
5.0
 41
0.0
 71
     5
 72
     1
  1
\A1;45
  7
SUNPOU
 11
0.0000000000000001
 21
1.0
 31
0.0
1001
ACAD
1000
MTEXTBEGIN
1070
    73
1070
     1
1070
    44
1040
1.0
1070
    74
1070
     0
1000
MTEXTEND
1000
MTEXTBEGIN
1070
    73
1070
     1
1070
    44
1040
1.0
1070
    74
1070
     0
1000
MTEXTEND
  0
POINT
  5
D44
330
AEE
100
AcDbEntity
  8
DEFPOINTS
  6
CONTINUOUS
 62
     0
100
AcDbPoint
 10
246.8690476618045
 20
345.5193121616871
 30
0.0
  0
POINT
  5
D45
330
AEE
100
AcDbEntity
  8
DEFPOINTS
  6
CONTINUOUS
 62
     0
100
AcDbPoint
 10
290.1719159638165
 20
390.520152161687
 30
0.0
  0
POINT
  5
D46
330
AEE
100
AcDbEntity
  8
DEFPOINTS
  6
CONTINUOUS
 62
     0
100
AcDbPoint
 10
290.1719159638165
 20
390.520152161687
 30
0.0
  0
ENDBLK
  5
AF9
330
AEE
100
AcDbEntity
  8
0
100
AcDbBlockEnd
  0
BLOCK
  5
B05
330
AFB
100
AcDbEntity
  8
0
100
AcDbBlockBegin
  2
*D28
 70
     1
 10
0.0
 20
0.0
 30
0.0
  3
*D28
  1

  0
LINE
  5
D35
330
AFB
100
AcDbEntity
  8
SUNPOU
  6
CONTINUOUS
100
AcDbLine
 10
287.1719159638164
 20
390.520152161687
 30
0.0
 11
288.1719159638165
 21
390.520152161687
 31
0.0
  0
LINE
  5
D36
330
AFB
100
AcDbEntity
  8
SUNPOU
  6
CONTINUOUS
100
AcDbLine
 10
249.8690476618044
 20
435.5193221616871
 30
0.0
 11
292.1719159638163
 21
435.5193221616871
 31
0.0
  0
LINE
  5
D37
330
AFB
100
AcDbEntity
  8
SUNPOU
  6
CONTINUOUS
100
AcDbLine
 10
290.1719159638165
 20
395.520152161687
 30
0.0
 11
290.1719159638165
 21
430.5193221616871
 31
0.0
  0
INSERT
  5
D38
330
AFB
100
AcDbEntity
  8
SUNPOU
  6
CONTINUOUS
100
AcDbBlockReference
  2
_OPEN30
 10
290.1719159638165
 20
390.520152161687
 30
0.0
 41
5.0
 42
5.0
 43
5.0
 50
270.0
  0
INSERT
  5
D39
330
AFB
100
AcDbEntity
  8
SUNPOU
  6
CONTINUOUS
100
AcDbBlockReference
  2
_OPEN30
 10
290.1719159638165
 20
435.5193221616871
 30
0.0
 41
5.0
 42
5.0
 43
5.0
 50
90.0
  0
MTEXT
  5
D3A
330
AFB
100
AcDbEntity
  8
SUNPOU
  6
CONTINUOUS
 62
     6
100
AcDbMText
 10
285.6719159638164
 20
413.0197371616871
 30
0.0
 40
5.0
 41
0.0
 71
     5
 72
     1
  1
\A1;45
  7
SUNPOU
 11
0.0000000000000001
 21
1.0
 31
0.0
1001
ACAD
1000
MTEXTBEGIN
1070
    73
1070
     1
1070
    44
1040
1.0
1070
    74
1070
     0
1000
MTEXTEND
1000
MTEXTBEGIN
1070
    73
1070
     1
1070
    44
1040
1.0
1070
    74
1070
     0
1000
MTEXTEND
  0
POINT
  5
D3B
330
AFB
100
AcDbEntity
  8
DEFPOINTS
  6
CONTINUOUS
 62
     0
100
AcDbPoint
 10
290.1719159638165
 20
390.520152161687
 30
0.0
  0
POINT
  5
D3C
330
AFB
100
AcDbEntity
  8
DEFPOINTS
  6
CONTINUOUS
 62
     0
100
AcDbPoint
 10
246.8690476618045
 20
435.5193221616871
 30
0.0
  0
POINT
  5
D3D
330
AFB
100
AcDbEntity
  8
DEFPOINTS
  6
CONTINUOUS
 62
     0
100
AcDbPoint
 10
290.1719159638165
 20
435.5193221616871
 30
0.0
  0
ENDBLK
  5
B06
330
AFB
100
AcDbEntity
  8
0
100
AcDbBlockEnd
  0
BLOCK
  5
DA4
330
D91
100
AcDbEntity
  8
0
100
AcDbBlockBegin
  2
*X29
 70
     1
 10
0.0
 20
0.0
 30
0.0
  3
*X29
  1

  0
LINE
  5
D92
330
D91
100
AcDbEntity
  8
0
 62
     0
100
AcDbLine
 10
262.2663541862746
 20
188.0201421616872
 30
0.0
 11
263.3690476618046
 21
189.1228356372169
 31
0.0
  0
LINE
  5
D93
330
D91
100
AcDbEntity
  8
0
 62
     0
100
AcDbLine
 10
261.8690476618045
 20
190.2744860666665
 30
0.0
 11
263.3690476618046
 21
191.7744860666664
 31
0.0
  0
LINE
  5
D94
330
D91
100
AcDbEntity
  8
0
 62
     0
100
AcDbLine
 10
261.8690476618045
 20
192.9261364961161
 30
0.0
 11
263.3690476618045
 21
194.4261364961161
 31
0.0
  0
LINE
  5
D95
330
D91
100
AcDbEntity
  8
0
 62
     0
100
AcDbLine
 10
261.8690476618045
 20
195.5777869255656
 30
0.0
 11
263.3690476618045
 21
197.0777869255656
 31
0.0
  0
LINE
  5
D96
330
D91
100
AcDbEntity
  8
0
 62
     0
100
AcDbLine
 10
261.8690476618045
 20
198.2294373550151
 30
0.0
 11
263.3690476618045
 21
199.7294373550152
 31
0.0
  0
LINE
  5
D97
330
D91
100
AcDbEntity
  8
0
 62
     0
100
AcDbLine
 10
261.8690476618045
 20
200.8810877844646
 30
0.0
 11
263.3690476618045
 21
202.3810877844648
 31
0.0
  0
LINE
  5
D98
330
D91
100
AcDbEntity
  8
0
 62
     0
100
AcDbLine
 10
261.8690476618045
 20
203.5327382139143
 30
0.0
 11
263.3690476618045
 21
205.0327382139142
 31
0.0
  0
LINE
  5
D99
330
D91
100
AcDbEntity
  8
0
 62
     0
100
AcDbLine
 10
261.8690476618045
 20
206.1843886433639
 30
0.0
 11
263.3690476618045
 21
207.6843886433638
 31
0.0
  0
LINE
  5
D9A
330
D91
100
AcDbEntity
  8
0
 62
     0
100
AcDbLine
 10
263.0531707506782
 20
210.0201621616871
 30
0.0
 11
263.3690476618046
 21
210.3360390728134
 31
0.0
  0
LINE
  5
D9B
330
D91
100
AcDbEntity
  8
0
 62
     0
100
AcDbLine
 10
261.8690476618045
 20
208.8360390728134
 30
0.0
 11
263.0531707506782
 21
210.0201621616871
 31
0.0
  0
LINE
  5
D9C
330
D91
100
AcDbEntity
  8
0
 62
     0
100
AcDbLine
 10
261.8690476618045
 20
211.4876895022629
 30
0.0
 11
263.3690476618046
 21
212.9876895022629
 31
0.0
  0
LINE
  5
D9D
330
D91
100
AcDbEntity
  8
0
 62
     0
100
AcDbLine
 10
261.8690476618045
 20
214.1393399317125
 30
0.0
 11
263.3690476618046
 21
215.6393399317125
 31
0.0
  0
LINE
  5
D9E
330
D91
100
AcDbEntity
  8
0
 62
     0
100
AcDbLine
 10
261.8690476618045
 20
216.790990361162
 30
0.0
 11
263.3690476618045
 21
218.2909903611621
 31
0.0
  0
LINE
  5
D9F
330
D91
100
AcDbEntity
  8
0
 62
     0
100
AcDbLine
 10
261.8690476618045
 20
219.4426407906116
 30
0.0
 11
263.3690476618045
 21
220.9426407906116
 31
0.0
  0
LINE
  5
DA0
330
D91
100
AcDbEntity
  8
0
 62
     0
100
AcDbLine
 10
261.8690476618045
 20
222.0942912200611
 30
0.0
 11
263.3690476618045
 21
223.5942912200612
 31
0.0
  0
LINE
  5
DA1
330
D91
100
AcDbEntity
  8
0
 62
     0
100
AcDbLine
 10
261.8690476618045
 20
224.7459416495106
 30
0.0
 11
263.3690476618045
 21
226.2459416495107
 31
0.0
  0
LINE
  5
DA2
330
D91
100
AcDbEntity
  8
0
 62
     0
100
AcDbLine
 10
261.8690476618045
 20
227.3975920789603
 30
0.0
 11
263.3690476618045
 21
228.8975920789602
 31
0.0
  0
LINE
  5
DA3
330
D91
100
AcDbEntity
  8
0
 62
     0
100
AcDbLine
 10
261.8690476618045
 20
230.0492425084097
 30
0.0
 11
263.3690476618046
 21
231.5492425084098
 31
0.0
  0
ENDBLK
  5
DA5
330
D91
100
AcDbEntity
  8
0
100
AcDbBlockEnd
  0
ENDSEC
  0
SECTION
  2
ENTITIES
  0
LINE
  5
22C
330
A
100
AcDbEntity
  8
SAISEN
100
AcDbLine
 10
171.3690576619298
 20
559.520162161687
 30
0.0
 11
291.3690576616796
 21
559.520162161687
 31
0.0
  0
LINE
  5
22D
330
A
100
AcDbEntity
  8
03
100
AcDbLine
 10
141.3690576618045
 20
539.520162161687
 30
0.0
 11
141.3690576618045
 21
572.0
 31
0.0
  0
LINE
  5
22E
330
A
100
AcDbEntity
  8
03
100
AcDbLine
 10
321.3690576618048
 20
539.520162161687
 30
0.0
 11
321.3690576618048
 21
572.0
 31
0.0
  0
LINE
  5
22F
330
A
100
AcDbEntity
  8
SAISEN
100
AcDbLine
 10
171.3690576619298
 20
559.520162161687
 30
0.0
 11
171.3690576619298
 21
572.0
 31
0.0
  0
LINE
  5
230
330
A
100
AcDbEntity
  8
SAISEN
100
AcDbLine
 10
291.3690576616796
 20
559.520162161687
 30
0.0
 11
291.3690576616796
 21
572.0
 31
0.0
  0
LINE
  5
231
330
A
100
AcDbEntity
  8
SAISEN
100
AcDbLine
 10
256.36905766173
 20
559.520162161687
 30
0.0
 11
243.889219823417
 21
572.0
 31
0.0
  0
LINE
  5
232
330
A
100
AcDbEntity
  8
SAISEN
100
AcDbLine
 10
261.3690576617301
 20
559.520162161687
 30
0.0
 11
248.889219823417
 21
572.0
 31
0.0
  0
LINE
  5
233
330
A
100
AcDbEntity
  8
SAISEN
100
AcDbLine
 10
266.36905766173
 20
559.520162161687
 30
0.0
 11
253.8892198234169
 21
572.0
 31
0.0
  0
LINE
  5
234
330
A
100
AcDbEntity
  8
03
100
AcDbLine
 10
141.3690576618045
 20
509.5201621616872
 30
0.0
 11
141.3690576618045
 21
71.31645261592534
 31
0.0
  0
LINE
  5
235
330
A
100
AcDbEntity
  8
03
100
AcDbLine
 10
321.3690376618048
 20
509.5201621616872
 30
0.0
 11
321.3690376618046
 21
71.31645261592534
 31
0.0
  0
LINE
  5
236
330
A
100
AcDbEntity
  8
03
100
AcDbLine
 10
207.3690376618045
 20
425.2701421616871
 30
0.0
 11
207.3690376618045
 21
499.1034221616871
 31
0.0
  0
LINE
  5
238
330
A
100
AcDbEntity
  8
03
100
AcDbLine
 10
202.8690376618044
 20
424.5201321616871
 30
0.0
 11
206.6190376618044
 21
424.5201321616871
 31
0.0
  0
LINE
  5
23F
330
A
100
AcDbEntity
  8
03
100
AcDbLine
 10
153.3690376618045
 20
499.1034221616871
 30
0.0
 11
153.3690376618045
 21
425.2701421616871
 31
0.0
  0
LINE
  5
24A
330
A
100
AcDbEntity
  8
03
100
AcDbLine
 10
261.8690476618045
 20
374.5193321616871
 30
0.0
 11
265.6190476618045
 21
374.5193321616871
 31
0.0
  0
LINE
  5
24C
330
A
100
AcDbEntity
  8
03
100
AcDbLine
 10
212.3690476618047
 20
376.0193221616871
 30
0.0
 11
212.3690476618047
 21
453.0193021616873
 31
0.0
  0
LINE
  5
253
330
A
100
AcDbEntity
  8
03
100
AcDbLine
 10
266.3690476618045
 20
453.0193021616873
 30
0.0
 11
266.3690476618045
 21
375.2693121616871
 31
0.0
  0
LINE
  5
25A
330
A
100
AcDbEntity
  8
03
100
AcDbLine
 10
213.8690376618045
 20
454.5193321616871
 30
0.0
 11
264.8690376618045
 21
454.5193321616871
 31
0.0
  0
LINE
  5
25C
330
A
100
AcDbEntity
  8
03
100
AcDbLine
 10
226.8690376618045
 20
152.5201521616871
 30
0.0
 11
226.8690376618045
 21
267.520162161687
 31
0.0
  0
LINE
  5
25D
330
A
100
AcDbEntity
  8
03
100
AcDbLine
 10
251.8690376618045
 20
267.520162161687
 30
0.0
 11
251.8690376618045
 21
152.5201521616871
 31
0.0
  0
LINE
  5
25E
330
A
100
AcDbEntity
  8
03
100
AcDbLine
 10
251.8690376618045
 20
152.5201521616871
 30
0.0
 11
226.8690376618045
 21
152.5201521616871
 31
0.0
  0
LINE
  5
25F
330
A
100
AcDbEntity
  8
03
100
AcDbLine
 10
226.8690376618045
 20
267.520162161687
 30
0.0
 11
251.8690376618045
 21
267.520162161687
 31
0.0
  0
LINE
  5
260
330
A
100
AcDbEntity
  8
03
100
AcDbLine
 10
226.8690376618045
 20
241.020152161687
 30
0.0
 11
251.8690376618045
 21
241.020152161687
 31
0.0
  0
LINE
  5
261
330
A
100
AcDbEntity
  8
03
100
AcDbLine
 10
251.8690376618045
 20
179.0201521616871
 30
0.0
 11
226.8690376618045
 21
179.0201521616871
 31
0.0
  0
LINE
  5
262
330
A
100
AcDbEntity
  8
03
100
AcDbLine
 10
162.3690276618046
 20
152.5201521616871
 30
0.0
 11
162.3690276618046
 21
267.520162161687
 31
0.0
  0
LINE
  5
263
330
A
100
AcDbEntity
  8
03
100
AcDbLine
 10
194.3690376618045
 20
267.520162161687
 30
0.0
 11
194.3690376618045
 21
152.5201521616871
 31
0.0
  0
LINE
  5
264
330
A
100
AcDbEntity
  8
03
100
AcDbLine
 10
194.3690376618045
 20
152.5201521616871
 30
0.0
 11
162.3690276618046
 21
152.5201521616871
 31
0.0
  0
LINE
  5
265
330
A
100
AcDbEntity
  8
03
100
AcDbLine
 10
162.3690276618046
 20
267.520162161687
 30
0.0
 11
194.3690376618045
 21
267.520162161687
 31
0.0
  0
LINE
  5
266
330
A
100
AcDbEntity
  8
03
100
AcDbLine
 10
162.3690276618046
 20
241.020152161687
 30
0.0
 11
194.3690376618045
 21
241.020152161687
 31
0.0
  0
LINE
  5
267
330
A
100
AcDbEntity
  8
03
100
AcDbLine
 10
194.3690376618045
 20
179.0201521616871
 30
0.0
 11
162.3690276618046
 21
179.0201521616871
 31
0.0
  0
LINE
  5
268
330
A
100
AcDbEntity
  8
03
100
AcDbLine
 10
176.5690676618046
 20
190.0201521616871
 30
0.0
 11
172.3690476618046
 21
190.0201521616871
 31
0.0
  0
LINE
  5
269
330
A
100
AcDbEntity
  8
03
100
AcDbLine
 10
172.3690476618046
 20
230.020152161687
 30
0.0
 11
176.5690676618046
 21
230.020152161687
 31
0.0
  0
LINE
  5
26A
330
A
100
AcDbEntity
  8
03
100
AcDbLine
 10
168.3690376618045
 20
202.520162161687
 30
0.0
 11
168.3690376618045
 21
217.5201421616872
 31
0.0
  0
LINE
  5
26B
330
A
100
AcDbEntity
  8
03
100
AcDbLine
 10
180.5690476618045
 20
217.5201421616872
 30
0.0
 11
180.5690476618045
 21
202.520162161687
 31
0.0
  0
LINE
  5
26C
330
A
100
AcDbEntity
  8
03
100
AcDbLine
 10
168.3690376618045
 20
217.5201421616872
 30
0.0
 11
167.3690576618047
 21
218.5201421616872
 31
0.0
  0
LINE
  5
26D
330
A
100
AcDbEntity
  8
03
100
AcDbLine
 10
168.3690376618045
 20
202.520162161687
 30
0.0
 11
167.3690576618047
 21
201.520152161687
 31
0.0
  0
LINE
  5
26E
330
A
100
AcDbEntity
  8
03
100
AcDbLine
 10
180.5690476618045
 20
202.520162161687
 30
0.0
 11
181.5690476618045
 21
201.520152161687
 31
0.0
  0
LINE
  5
26F
330
A
100
AcDbEntity
  8
03
100
AcDbLine
 10
180.5690476618045
 20
217.5201421616872
 30
0.0
 11
181.5690476618045
 21
218.5201421616872
 31
0.0
  0
LINE
  5
270
330
A
100
AcDbEntity
  8
03
100
AcDbLine
 10
167.3690576618047
 20
195.020152161687
 30
0.0
 11
167.3690576618047
 21
201.520152161687
 31
0.0
  0
LINE
  5
271
330
A
100
AcDbEntity
  8
03
100
AcDbLine
 10
167.3690576618047
 20
218.5201421616872
 30
0.0
 11
167.3690576618047
 21
225.0201421616872
 31
0.0
  0
LINE
  5
272
330
A
100
AcDbEntity
  8
03
100
AcDbLine
 10
181.5690476618045
 20
225.0201421616872
 30
0.0
 11
181.5690476618045
 21
218.5201421616872
 31
0.0
  0
LINE
  5
273
330
A
100
AcDbEntity
  8
03
100
AcDbLine
 10
181.5690476618045
 20
201.520152161687
 30
0.0
 11
181.5690476618045
 21
195.020152161687
 31
0.0
  0
LINE
  5
274
330
A
100
AcDbEntity
  8
03
100
AcDbLine
 10
166.3690376618045
 20
87.52015516168707
 30
0.0
 11
166.3690376618045
 21
152.5201521616871
 31
0.0
  0
LINE
  5
275
330
A
100
AcDbEntity
  8
03
100
AcDbLine
 10
194.3690376618045
 20
152.5201521616871
 30
0.0
 11
194.3690376618045
 21
87.52015516168707
 31
0.0
  0
LINE
  5
276
330
A
100
AcDbEntity
  8
03
100
AcDbLine
 10
194.3690376618045
 20
87.52015516168707
 30
0.0
 11
166.3690376618045
 21
87.52015516168707
 31
0.0
  0
LINE
  5
277
330
A
100
AcDbEntity
  8
03
100
AcDbLine
 10
166.3690376618045
 20
152.5201521616871
 30
0.0
 11
194.3690376618045
 21
152.5201521616871
 31
0.0
  0
LINE
  5
278
330
A
100
AcDbEntity
  8
03
100
AcDbLine
 10
166.3690376618045
 20
134.5201571616869
 30
0.0
 11
194.3690376618045
 21
134.5201571616869
 31
0.0
  0
LINE
  5
279
330
A
100
AcDbEntity
  8
03
100
AcDbLine
 10
194.3690376618045
 20
105.5201531616869
 30
0.0
 11
166.3690376618045
 21
105.5201531616869
 31
0.0
  0
LINE
  5
27A
330
A
100
AcDbEntity
  8
03
100
AcDbLine
 10
153.3690376618045
 20
159.270152161687
 30
0.0
 11
153.3690376618045
 21
80.77015516168705
 31
0.0
  0
LINE
  5
27C
330
A
100
AcDbEntity
  8
03
100
AcDbLine
 10
156.3690576618046
 20
160.020152161687
 30
0.0
 11
154.1190476618047
 21
160.020152161687
 31
0.0
  0
LINE
  5
27E
330
A
100
AcDbEntity
  8
03
100
AcDbLine
 10
207.3690376618045
 20
80.77015516168705
 30
0.0
 11
207.3690376618045
 21
159.270152161687
 31
0.0
  0
LINE
  5
27F
330
A
100
AcDbEntity
  8
03
100
AcDbLine
 10
212.3690476618047
 20
100.770156161687
 30
0.0
 11
212.3690476618047
 21
179.270152161687
 31
0.0
  0
LINE
  5
282
330
A
100
AcDbEntity
  8
03
100
AcDbLine
 10
204.3690376618044
 20
160.020152161687
 30
0.0
 11
206.6190376618044
 21
160.020152161687
 31
0.0
  0
LINE
  5
284
330
A
100
AcDbEntity
  8
03
100
AcDbLine
 10
213.1190376618044
 20
180.020152161687
 30
0.0
 11
215.3690476618046
 21
180.020152161687
 31
0.0
  0
LINE
  5
286
330
A
100
AcDbEntity
  8
03
100
AcDbLine
 10
266.3690476618045
 20
179.270152161687
 30
0.0
 11
266.3690476618045
 21
100.770156161687
 31
0.0
  0
LINE
  5
288
330
A
100
AcDbEntity
  8
03
100
AcDbLine
 10
263.3690476618046
 20
180.020152161687
 30
0.0
 11
265.6190476618045
 21
180.020152161687
 31
0.0
  0
LINE
  5
28A
330
A
100
AcDbEntity
  8
03
100
AcDbLine
 10
154.1190476618047
 20
80.02015616168705
 30
0.0
 11
206.6190376618044
 21
80.02015616168705
 31
0.0
  0
LINE
  5
28C
330
A
100
AcDbEntity
  8
03
100
AcDbLine
 10
213.1190376618044
 20
100.0201551616869
 30
0.0
 11
265.6190476618045
 21
100.0201551616869
 31
0.0
  0
LINE
  5
28E
330
A
100
AcDbEntity
  8
03
100
AcDbLine
 10
263.3690476618046
 20
180.020152161687
 30
0.0
 11
263.3690476618046
 21
188.0201421616872
 31
0.0
  0
LINE
  5
28F
330
A
100
AcDbEntity
  8
03
100
AcDbLine
 10
156.3690576618046
 20
424.5201321616871
 30
0.0
 11
156.3690576618046
 21
303.5201621616871
 31
0.0
  0
LINE
  5
290
330
A
100
AcDbEntity
  8
03
100
AcDbLine
 10
204.3690376618044
 20
424.5201321616871
 30
0.0
 11
204.3690376618044
 21
303.5201621616871
 31
0.0
  0
LINE
  5
291
330
A
100
AcDbEntity
  8
03
100
AcDbLine
 10
263.3690476618046
 20
303.5201621616871
 30
0.0
 11
263.3690476618046
 21
374.5193321616871
 31
0.0
  0
LINE
  5
292
330
A
100
AcDbEntity
  8
03
100
AcDbLine
 10
215.3690476618046
 20
303.5201621616871
 30
0.0
 11
215.3690476618046
 21
374.5193321616871
 31
0.0
  0
LINE
  5
293
330
A
100
AcDbEntity
  8
03
100
AcDbLine
 10
156.3690576618046
 20
298.5201621616871
 30
0.0
 11
156.3690576618046
 21
160.020152161687
 31
0.0
  0
LINE
  5
294
330
A
100
AcDbEntity
  8
03
100
AcDbLine
 10
204.3690376618044
 20
298.5201621616871
 30
0.0
 11
204.3690376618044
 21
160.020152161687
 31
0.0
  0
LINE
  5
295
330
A
100
AcDbEntity
  8
03
100
AcDbLine
 10
215.3690476618046
 20
180.020152161687
 30
0.0
 11
215.3690476618046
 21
298.5201621616871
 31
0.0
  0
LINE
  5
296
330
A
100
AcDbEntity
  8
03
100
AcDbLine
 10
263.3690476618046
 20
232.020152161687
 30
0.0
 11
263.3690476618046
 21
298.5201621616871
 31
0.0
  0
ARC
  5
297
330
A
100
AcDbEntity
  8
03
100
AcDbCircle
 10
180.3690376618044
 20
434.5201421616871
 30
0.0
 40
69.99999800000001
100
AcDbArc
 50
67.31191999993625
 51
112.6880789999956
  0
CIRCLE
  5
299
330
A
100
AcDbEntity
  8
03
100
AcDbCircle
 10
180.3690376618044
 20
454.5201421616871
 30
0.0
 40
5.999999899999998
  0
ARC
  5
29A
330
A
100
AcDbEntity
  8
03
100
AcDbCircle
 10
213.8690376618045
 20
376.0193221616871
 30
0.0
 40
1.499999899999999
100
AcDbArc
 50
179.9999999999826
 51
269.9999999999663
  0
ARC
  5
29B
330
A
100
AcDbEntity
  8
03
100
AcDbCircle
 10
213.8690376618045
 20
453.0193021616873
 30
0.0
 40
1.499999899999999
100
AcDbArc
 50
90.0
 51
179.9999999999826
  0
ARC
  5
29C
330
A
100
AcDbEntity
  8
03
100
AcDbCircle
 10
264.8690376618045
 20
453.0193021616873
 30
0.0
 40
1.499999899999999
100
AcDbArc
 50
359.99999999995
 51
90.0
  0
ARC
  5
29D
330
A
100
AcDbEntity
  8
03
100
AcDbCircle
 10
172.3690476618046
 20
225.0201421616872
 30
0.0
 40
5.000000199999998
100
AcDbArc
 50
90.0
 51
179.9999999999829
  0
ARC
  5
29E
330
A
100
AcDbEntity
  8
03
100
AcDbCircle
 10
176.5690676618046
 20
225.0201421616872
 30
0.0
 40
5.000000199999998
100
AcDbArc
 50
359.9999999999488
 51
90.0
  0
ARC
  5
29F
330
A
100
AcDbEntity
  8
03
100
AcDbCircle
 10
176.5690676618046
 20
195.020152161687
 30
0.0
 40
5.000000199999998
100
AcDbArc
 50
269.999999999966
 51
359.9999999999488
  0
ARC
  5
2A0
330
A
100
AcDbEntity
  8
03
100
AcDbCircle
 10
172.3690476618046
 20
195.020152161687
 30
0.0
 40
5.000000199999998
100
AcDbArc
 50
179.9999999999829
 51
269.999999999966
  0
CIRCLE
  5
2A1
330
A
100
AcDbEntity
  8
03
100
AcDbCircle
 10
180.3690376618044
 20
120.020155161687
 30
0.0
 40
10.0
  0
ARC
  5
2A2
330
A
100
AcDbEntity
  8
03
100
AcDbCircle
 10
154.1190476618047
 20
159.270152161687
 30
0.0
 40
0.7499999000000001
100
AcDbArc
 50
90.0
 51
179.9999999999826
  0
ARC
  5
2A3
330
A
100
AcDbEntity
  8
03
100
AcDbCircle
 10
154.1190476618047
 20
80.77015516168705
 30
0.0
 40
0.7499999000000001
100
AcDbArc
 50
179.9999999999831
 51
269.9999999999651
  0
ARC
  5
2A4
330
A
100
AcDbEntity
  8
03
100
AcDbCircle
 10
206.6190376618044
 20
80.77015516168705
 30
0.0
 40
0.7499999000000001
100
AcDbArc
 50
269.9999999999651
 51
359.9999999999488
  0
ARC
  5
2A5
330
A
100
AcDbEntity
  8
03
100
AcDbCircle
 10
206.6190376618044
 20
159.270152161687
 30
0.0
 40
0.7499999000000001
100
AcDbArc
 50
359.9999999999488
 51
90.0
  0
ARC
  5
2A6
330
A
100
AcDbEntity
  8
03
100
AcDbCircle
 10
213.1190376618044
 20
179.270152161687
 30
0.0
 40
0.7499999000000001
100
AcDbArc
 50
90.0
 51
179.9999999999826
  0
ARC
  5
2A7
330
A
100
AcDbEntity
  8
03
100
AcDbCircle
 10
213.1190376618044
 20
100.770156161687
 30
0.0
 40
0.7499999000000001
100
AcDbArc
 50
179.9999999999831
 51
269.9999999999651
  0
ARC
  5
2A8
330
A
100
AcDbEntity
  8
03
100
AcDbCircle
 10
265.6190476618045
 20
100.770156161687
 30
0.0
 40
0.7499999000000001
100
AcDbArc
 50
269.9999999999651
 51
359.9999999999488
  0
ARC
  5
2A9
330
A
100
AcDbEntity
  8
03
100
AcDbCircle
 10
265.6190476618045
 20
179.270152161687
 30
0.0
 40
0.7499999000000001
100
AcDbArc
 50
359.99999999995
 51
90.0
  0
ARC
  5
2AA
330
A
100
AcDbEntity
  8
03
100
AcDbCircle
 10
154.1190476618047
 20
425.2701421616871
 30
0.0
 40
0.7499999000000001
100
AcDbArc
 50
179.9999999999826
 51
269.9999999999651
  0
ARC
  5
2AB
330
A
100
AcDbEntity
  8
03
100
AcDbCircle
 10
206.6190376618044
 20
425.2701421616871
 30
0.0
 40
0.7499999000000001
100
AcDbArc
 50
269.9999999999651
 51
359.9999999999478
  0
ARC
  5
2AE
330
A
100
AcDbEntity
  8
03
100
AcDbCircle
 10
265.6190476618045
 20
375.2693121616871
 30
0.0
 40
0.7499999000000001
100
AcDbArc
 50
269.9999999999651
 51
359.9999999999478
  0
CIRCLE
  5
2B0
330
A
100
AcDbEntity
  8
03
100
AcDbCircle
 10
180.3690376618044
 20
255.020152161687
 30
0.0
 40
3.299999999999998
  0
CIRCLE
  5
2B1
330
A
100
AcDbEntity
  8
03
100
AcDbCircle
 10
180.3690376618044
 20
165.0201521616871
 30
0.0
 40
3.299999999999998
  0
CIRCLE
  5
2B2
330
A
100
AcDbEntity
  8
03
100
AcDbCircle
 10
180.3690376618044
 20
145.0201541616871
 30
0.0
 40
2.3499997
  0
CIRCLE
  5
2B3
330
A
100
AcDbEntity
  8
03
100
AcDbCircle
 10
180.3690376618044
 20
95.02015716168704
 30
0.0
 40
2.3499997
  0
CIRCLE
  5
2B4
330
A
100
AcDbEntity
  8
03
100
AcDbCircle
 10
239.3690476618045
 20
167.520152161687
 30
0.0
 40
4.1999997
  0
CIRCLE
  5
2B5
330
A
100
AcDbEntity
  8
03
100
AcDbCircle
 10
239.3690476618045
 20
252.5201521616871
 30
0.0
 40
4.1999997
  0
LINE
  5
2B9
330
A
100
AcDbEntity
  8
03
100
AcDbLine
 10
154.1190476618042
 20
424.5201422616871
 30
0.0
 11
202.8690376618044
 21
424.5201321616871
 31
0.0
  0
LINE
  5
2C6
330
A
100
AcDbEntity
  8
03
100
AcDbLine
 10
213.8690376618035
 20
374.5193222616871
 30
0.0
 11
261.8690476618045
 21
374.5193321616871
 31
0.0
  0
LINE
  5
2CA
330
A
100
AcDbEntity
  8
03
100
AcDbLine
 10
226.8690376618045
 20
235.0201621616871
 30
0.0
 11
251.8690376618045
 21
235.0201621616871
 31
0.0
  0
LINE
  5
2CB
330
A
100
AcDbEntity
  8
03
100
AcDbLine
 10
226.8690376618045
 20
185.020152161687
 30
0.0
 11
251.8690376618045
 21
185.020152161687
 31
0.0
  0
LINE
  5
2CC
330
A
100
AcDbEntity
  8
03
100
AcDbLine
 10
194.3690376618045
 20
183.520152161687
 30
0.0
 11
162.3690276618046
 21
183.520152161687
 31
0.0
  0
LINE
  5
2CD
330
A
100
AcDbEntity
  8
03
100
AcDbLine
 10
194.3690376618045
 20
236.520152161687
 30
0.0
 11
162.3690276618046
 21
236.520152161687
 31
0.0
  0
LINE
  5
2CE
330
A
100
AcDbEntity
  8
03
100
AcDbLine
 10
166.3690376618045
 20
136.5201511616869
 30
0.0
 11
194.3690376618045
 21
136.5201511616869
 31
0.0
  0
LINE
  5
2CF
330
A
100
AcDbEntity
  8
03
100
AcDbLine
 10
194.3690376618045
 20
103.5201551616869
 30
0.0
 11
166.3690376618045
 21
103.5201551616869
 31
0.0
  0
ARC
  5
2D5
330
A
100
AcDbEntity
  8
SAISEN
100
AcDbCircle
 10
194.5546060444808
 20
561.2671241616841
 30
0.0
 40
4.410758999999998
100
AcDbArc
 50
59.99999592073546
 51
120.0000038735845
  0
ARC
  5
2D6
330
A
100
AcDbEntity
  8
SAISEN
100
AcDbCircle
 10
190.2880420444808
 20
544.5363021616841
 30
0.0
 40
4.410758999999998
100
AcDbArc
 50
149.9999961043744
 51
210.0000038956256
  0
ARC
  5
2D7
330
A
100
AcDbEntity
  8
SAISEN
100
AcDbCircle
 10
194.5546060444808
 20
568.9067861616843
 30
0.0
 40
4.410761999999999
100
AcDbArc
 50
240.0000207636006
 51
299.9999788691214
  0
ARC
  5
2D8
330
A
100
AcDbEntity
  8
SAISEN
100
AcDbCircle
 10
198.9653650444808
 20
561.2671201616841
 30
0.0
 40
4.410761999999999
100
AcDbArc
 50
60.00002113087845
 51
119.9999792363994
  0
LINE
  5
2D9
330
A
100
AcDbEntity
  8
SAISEN
100
AcDbLine
 10
201.1707450444808
 20
565.0869526810812
 30
0.0
 11
201.1707450444808
 21
547.7218511616841
 31
0.0
  0
ARC
  5
2DA
330
A
100
AcDbEntity
  8
SAISEN
100
AcDbCircle
 10
191.3690650444808
 20
547.7218431616843
 30
0.0
 40
9.801680999999996
100
AcDbArc
 50
269.9999568445264
 51
0.0000429718346506
  0
LINE
  5
2DB
330
A
100
AcDbEntity
  8
SAISEN
100
AcDbLine
 10
191.3690570444808
 20
537.9201631616843
 30
0.0
 11
186.4682130444808
 21
537.9201631616843
 31
0.0
  0
ARC
  5
2DC
330
A
100
AcDbEntity
  8
SAISEN
100
AcDbCircle
 10
190.2880460444808
 20
540.1255421616841
 30
0.0
 40
4.410761999999999
100
AcDbArc
 50
150.0000207415594
 51
209.9999792584405
  0
ARC
  5
2DD
330
A
100
AcDbEntity
  8
SAISEN
100
AcDbCircle
 10
182.6483800444808
 20
544.5363021616841
 30
0.0
 40
4.410761999999999
100
AcDbArc
 50
330.0000209472394
 51
29.99997905276051
  0
LINE
  5
2DE
330
A
100
AcDbEntity
  8
SAISEN
100
AcDbLine
 10
186.4682130444808
 20
546.7416821616843
 30
0.0
 11
191.3690570444808
 21
546.7416821616843
 31
0.0
  0
ARC
  5
2DF
330
A
100
AcDbEntity
  8
SAISEN
100
AcDbCircle
 10
191.3690580444808
 20
547.7218501616841
 30
0.0
 40
0.9801680000000001
100
AcDbArc
 50
269.9999568445264
 51
0.0000429718346506
  0
LINE
  5
2E0
330
A
100
AcDbEntity
  8
SAISEN
100
AcDbLine
 10
192.3492260444808
 20
547.7218511616841
 30
0.0
 11
192.3492260444808
 21
565.0869534204223
 31
0.0
  0
ARC
  5
2E1
330
A
100
AcDbEntity
  8
SAISEN
100
AcDbCircle
 10
268.6116628630135
 20
561.2671241616841
 30
0.0
 40
4.410758999999998
100
AcDbArc
 50
59.9999961264154
 51
120.0000040792645
  0
ARC
  5
2E2
330
A
100
AcDbEntity
  8
SAISEN
100
AcDbCircle
 10
272.8782268630136
 20
546.8363011616868
 30
0.0
 40
4.410758999999998
100
AcDbArc
 50
329.9999961043742
 51
30.00000389562563
  0
ARC
  5
2E3
330
A
100
AcDbEntity
  8
SAISEN
100
AcDbCircle
 10
268.6116628630135
 20
568.9067861616843
 30
0.0
 40
4.410761999999999
100
AcDbArc
 50
240.0000211308784
 51
299.9999792363993
  0
ARC
  5
2E4
330
A
100
AcDbEntity
  8
SAISEN
100
AcDbCircle
 10
264.2009038630134
 20
561.2671201616841
 30
0.0
 40
4.410761999999999
100
AcDbArc
 50
60.00002076360059
 51
119.9999788691214
  0
LINE
  5
2E5
330
A
100
AcDbEntity
  8
SAISEN
100
AcDbLine
 10
261.9955238630136
 20
565.0869526810812
 30
0.0
 11
261.9955238630136
 21
550.0262697268608
 31
0.0
  0
ARC
  5
2E6
330
A
100
AcDbEntity
  8
SAISEN
100
AcDbCircle
 10
271.7972038630136
 20
550.0218421616867
 30
0.0
 40
9.801680999999996
100
AcDbArc
 50
179.974118642851
 51
270.0000431554735
  0
LINE
  5
2E7
330
A
100
AcDbEntity
  8
SAISEN
100
AcDbLine
 10
271.7972118630135
 20
540.2201621616867
 30
0.0
 11
276.6980558630135
 21
540.2201621616867
 31
0.0
  0
ARC
  5
2E8
330
A
100
AcDbEntity
  8
SAISEN
100
AcDbCircle
 10
272.8782228630135
 20
542.4255411616867
 30
0.0
 40
4.410761999999999
100
AcDbArc
 50
330.0000207415594
 51
29.99997925844046
  0
ARC
  5
2E9
330
A
100
AcDbEntity
  8
SAISEN
100
AcDbCircle
 10
280.5178888630135
 20
546.8363011616868
 30
0.0
 40
4.410761999999999
100
AcDbArc
 50
150.0000209472393
 51
209.9999790527603
  0
LINE
  5
2EA
330
A
100
AcDbEntity
  8
SAISEN
100
AcDbLine
 10
276.6980558630135
 20
549.0416811616868
 30
0.0
 11
271.7972118630135
 21
549.0416811616868
 31
0.0
  0
ARC
  5
2EB
330
A
100
AcDbEntity
  8
SAISEN
100
AcDbCircle
 10
271.7972108630135
 20
550.0218491616867
 30
0.0
 40
0.9801680000000001
100
AcDbArc
 50
180.0
 51
270.0000431554735
  0
LINE
  5
2EC
330
A
100
AcDbEntity
  8
SAISEN
100
AcDbLine
 10
270.8170428630135
 20
550.0218491616867
 30
0.0
 11
270.8170428630135
 21
565.0869534204223
 31
0.0
  0
LINE
  5
2F9
330
A
100
AcDbEntity
  8
03
100
AcDbLine
 10
264.7690576618046
 20
512.7201621616871
 30
0.0
 11
264.7690576618046
 21
537.9201621616869
 31
0.0
  0
LINE
  5
2FA
330
A
100
AcDbEntity
  8
03
100
AcDbLine
 10
266.3690576618045
 20
536.320162161687
 30
0.0
 11
266.3690576618045
 21
511.120162161687
 31
0.0
  0
LINE
  5
2FB
330
A
100
AcDbEntity
  8
03
100
AcDbLine
 10
266.3690576618045
 20
511.120162161687
 30
0.0
 11
251.3690576618045
 21
511.120162161687
 31
0.0
  0
LINE
  5
2FC
330
A
100
AcDbEntity
  8
03
100
AcDbLine
 10
251.3690576618045
 20
511.120162161687
 30
0.0
 11
251.3690576618045
 21
512.7201621616871
 31
0.0
  0
LINE
  5
2FD
330
A
100
AcDbEntity
  8
03
100
AcDbLine
 10
251.3690576618045
 20
512.7201621616871
 30
0.0
 11
264.7690576618046
 21
512.7201621616871
 31
0.0
  0
LINE
  5
2FE
330
A
100
AcDbEntity
  8
03
100
AcDbLine
 10
266.3690576618045
 20
536.320162161687
 30
0.0
 11
324.7690576618046
 21
536.320162161687
 31
0.0
  0
LINE
  5
2FF
330
A
100
AcDbEntity
  8
03
100
AcDbLine
 10
264.7690576618046
 20
537.9201621616869
 30
0.0
 11
324.7690576618046
 21
537.9201621616869
 31
0.0
  0
LINE
  5
300
330
A
100
AcDbEntity
  8
KAKURE
100
AcDbLine
 10
301.1884987966709
 20
540.2201621616868
 30
0.0
 11
301.1884987966709
 21
537.9201621616869
 31
0.0
  0
LINE
  5
301
330
A
100
AcDbEntity
  8
KAKURE
100
AcDbLine
 10
143.3690576618045
 20
535.6201621616868
 30
0.0
 11
143.3690576618045
 21
537.920162161687
 31
0.0
  0
LINE
  5
302
330
A
100
AcDbEntity
  8
KAKURE
100
AcDbLine
 10
143.3690576618045
 20
537.920162161687
 30
0.0
 11
224.6542617932236
 21
537.920162161687
 31
0.0
  0
LINE
  5
303
330
A
100
AcDbEntity
  8
KAKURE
100
AcDbLine
 10
244.4901319954251
 20
537.9201621616868
 30
0.0
 11
226.9628681567559
 21
537.9201621616869
 31
0.0
  0
LINE
  5
304
330
A
100
AcDbEntity
  8
CHUSIN
100
AcDbLine
 10
231.3690576618046
 20
509.5201621616872
 30
0.0
 11
231.3690576618046
 21
572.0
 31
0.0
  0
LINE
  5
305
330
A
100
AcDbEntity
  8
CHUSIN
100
AcDbLine
 10
36.7363587338607
 20
390.520152161687
 30
0.0
 11
314.0414576618046
 21
390.520152161687
 31
0.0
  0
LINE
  5
306
330
A
100
AcDbEntity
  8
CHUSIN
100
AcDbLine
 10
36.7363587338607
 20
454.5201421616871
 30
0.0
 11
232.5844476618045
 21
454.5201421616871
 31
0.0
  0
LINE
  5
307
330
A
100
AcDbEntity
  8
CHUSIN
 48
0.3
100
AcDbLine
 10
246.8690476618045
 20
435.5193221616871
 30
0.0
 11
231.8690476618046
 21
435.5193221616871
 31
0.0
  0
LINE
  5
30A
330
A
100
AcDbEntity
  8
CHUSIN
 48
0.3
100
AcDbLine
 10
246.8690476618045
 20
345.5193121616871
 30
0.0
 11
231.8690476618046
 21
345.5193121616871
 31
0.0
  0
LINE
  5
30B
330
A
100
AcDbEntity
  8
CHUSIN
 48
0.3
100
AcDbLine
 10
190.3690476618047
 20
95.02015716168704
 30
0.0
 11
170.3690376618045
 21
95.02015716168704
 31
0.0
  0
LINE
  5
30C
330
A
100
AcDbEntity
  8
CHUSIN
100
AcDbLine
 10
162.4162776618045
 20
120.020155161687
 30
0.0
 11
199.4363376618045
 21
120.020155161687
 31
0.0
  0
LINE
  5
30D
330
A
100
AcDbEntity
  8
CHUSIN
 48
0.3
100
AcDbLine
 10
170.3690376618045
 20
145.0201541616871
 30
0.0
 11
190.3690476618047
 21
145.0201541616871
 31
0.0
  0
LINE
  5
30E
330
A
100
AcDbEntity
  8
CHUSIN
 48
0.3
100
AcDbLine
 10
191.7022376618044
 20
165.0201521616871
 30
0.0
 11
168.3690376618045
 21
165.0201521616871
 31
0.0
  0
LINE
  5
30F
330
A
100
AcDbEntity
  8
CHUSIN
100
AcDbLine
 10
180.3690376618043
 20
75.93832634851967
 30
0.0
 11
180.3690376618044
 21
298.5201621616871
 31
0.0
  0
LINE
  5
310
330
A
100
AcDbEntity
  8
CHUSIN
 48
0.3
100
AcDbLine
 10
168.3690376618045
 20
255.020152161687
 30
0.0
 11
191.7022376618044
 21
255.020152161687
 31
0.0
  0
LINE
  5
311
330
A
100
AcDbEntity
  8
CHUSIN
100
AcDbLine
 10
259.3690376618045
 20
252.5201521616871
 30
0.0
 11
219.3690376618044
 21
252.5201521616871
 31
0.0
  0
LINE
  5
312
330
A
100
AcDbEntity
  8
CHUSIN
100
AcDbLine
 10
259.3690376618045
 20
167.520152161687
 30
0.0
 11
219.3690376618044
 21
167.520152161687
 31
0.0
  0
LINE
  5
313
330
A
100
AcDbEntity
  8
CHUSIN
100
AcDbLine
 10
239.3690476618045
 20
506.8931521616871
 30
0.0
 11
239.3690476618044
 21
303.5201621616871
 31
0.0
  0
LINE
  5
314
330
A
100
AcDbEntity
  8
CHUSIN
100
AcDbLine
 10
278.2948576618048
 20
210.0201621616871
 30
0.0
 11
144.5454476618045
 21
210.0201621616871
 31
0.0
1001
ACAD
1000
ASC_BOUNDS
1002
{
1070
    19
1005
CE2
1005
CE2
1002
}
  0
LINE
  5
315
330
A
100
AcDbEntity
  8
CHUSIN
100
AcDbLine
 10
291.3690576618047
 20
494.4561308638636
 30
0.0
 11
291.3690576618047
 21
546.710071650669
 31
0.0
  0
LINE
  5
316
330
A
100
AcDbEntity
  8
SAISEN
100
AcDbLine
 10
150.3690476618047
 20
298.5201621616871
 30
0.0
 11
272.8427261801226
 21
298.5201621616871
 31
0.0
  0
LINE
  5
317
330
A
100
AcDbEntity
  8
SAISEN
100
AcDbLine
 10
272.8427261801226
 20
303.5201621616871
 30
0.0
 11
150.3690476618047
 21
303.5201621616871
 31
0.0
  0
CIRCLE
  5
318
330
A
100
AcDbEntity
  8
03
100
AcDbCircle
 10
180.3690376618044
 20
255.020152161687
 30
0.0
 40
3.999999899999999
  0
CIRCLE
  5
319
330
A
100
AcDbEntity
  8
03
100
AcDbCircle
 10
180.3690376618044
 20
165.0201521616871
 30
0.0
 40
3.999999899999999
  0
CIRCLE
  5
31A
330
A
100
AcDbEntity
  8
03
100
AcDbCircle
 10
180.3690376618044
 20
145.0201541616871
 30
0.0
 40
2.9999999
  0
CIRCLE
  5
31B
330
A
100
AcDbEntity
  8
03
100
AcDbCircle
 10
180.3690376618044
 20
95.02015716168704
 30
0.0
 40
2.9999999
  0
CIRCLE
  5
31C
330
A
100
AcDbEntity
  8
03
100
AcDbCircle
 10
239.3690476618045
 20
167.520152161687
 30
0.0
 40
5.000000199999998
  0
CIRCLE
  5
31D
330
A
100
AcDbEntity
  8
03
100
AcDbCircle
 10
239.3690476618045
 20
252.5201521616871
 30
0.0
 40
5.000000199999998
  0
ARC
  5
31E
330
A
100
AcDbEntity
  8
SOUZOU
 48
0.5
100
AcDbCircle
 10
180.3690376618044
 20
454.5201421616871
 30
0.0
 40
52.121673
100
AcDbArc
 50
328.8005599999547
 51
58.80055999993786
  0
ARC
  5
31F
330
A
100
AcDbEntity
  8
SOUZOU
 48
0.5
100
AcDbCircle
 10
239.3690476618044
 20
390.520152161687
 30
0.0
 40
68.60554499999999
100
AcDbArc
 50
336.8241699999533
 51
66.82416999993641
  0
LINE
  5
322
330
A
100
AcDbEntity
  8
06
100
AcDbLine
 10
261.8690476618045
 20
188.0201421616872
 30
0.0
 11
261.8690476618045
 21
232.020152161687
 31
0.0
1001
ACAD
1000
ASC_BOUNDS
1002
{
1070
    19
1005
CE2
1005
CE2
1002
}
  0
LINE
  5
323
330
A
100
AcDbEntity
  8
06
100
AcDbLine
 10
263.3690476618046
 20
232.020152161687
 30
0.0
 11
263.3690476618046
 21
188.0201421616872
 31
0.0
1001
ACAD
1000
ASC_BOUNDS
1002
{
1070
    19
1005
CE2
1005
CE2
1002
}
  0
CIRCLE
  5
324
330
A
100
AcDbEntity
  8
03
100
AcDbCircle
 10
239.3690476618045
 20
435.5193221616871
 30
0.0
 40
4.1999997
  0
CIRCLE
  5
325
330
A
100
AcDbEntity
  8
03
100
AcDbCircle
 10
239.3690476618045
 20
435.5193221616871
 30
0.0
 40
5.000000199999998
  0
CIRCLE
  5
326
330
A
100
AcDbEntity
  8
03
100
AcDbCircle
 10
239.3690476618045
 20
345.5193121616871
 30
0.0
 40
4.1999997
  0
CIRCLE
  5
327
330
A
100
AcDbEntity
  8
03
100
AcDbCircle
 10
239.3690476618045
 20
345.5193121616871
 30
0.0
 40
5.000000199999998
  0
LINE
  5
33C
330
A
100
AcDbEntity
  8
SOUZOU
100
AcDbLine
 10
36.7363587338607
 20
478.5201721616872
 30
0.0
 11
150.3690476618047
 21
478.5201721616872
 31
0.0
  0
LINE
  5
33D
330
A
100
AcDbEntity
  8
SOUZOU
100
AcDbLine
 10
36.7363587338607
 20
430.5201421616871
 30
0.0
 11
150.3690476618047
 21
430.5201421616871
 31
0.0
  0
LINE
  5
33E
330
A
100
AcDbEntity
  8
SOUZOU
100
AcDbLine
 10
36.7363587338607
 20
414.520152161687
 30
0.0
 11
223.3682176618045
 21
414.520152161687
 31
0.0
  0
LINE
  5
33F
330
A
100
AcDbEntity
  8
SOUZOU
100
AcDbLine
 10
36.7363587338607
 20
366.5201621616871
 30
0.0
 11
223.3682176618045
 21
366.5201621616871
 31
0.0
  0
LINE
  5
340
330
A
100
AcDbEntity
  8
SOUZOU
100
AcDbLine
 10
224.9523276618045
 20
481.5201921616873
 30
0.0
 11
151.8690376618045
 21
481.5201921616873
 31
0.0
  0
LINE
  5
341
330
A
100
AcDbEntity
  8
SOUZOU
100
AcDbLine
 10
151.8690376618045
 20
427.520152161687
 30
0.0
 11
224.9523276618045
 21
427.520152161687
 31
0.0
  0
LINE
  5
342
330
A
100
AcDbEntity
  8
SOUZOU
100
AcDbLine
 10
150.3690476618047
 20
430.5201421616871
 30
0.0
 11
150.3690476618047
 21
429.020142161687
 31
0.0
  0
LINE
  5
343
330
A
100
AcDbEntity
  8
SOUZOU
100
AcDbLine
 10
150.3690476618047
 20
480.0201621616871
 30
0.0
 11
150.3690476618047
 21
478.5201721616872
 31
0.0
  0
LINE
  5
344
330
A
100
AcDbEntity
  8
SOUZOU
100
AcDbLine
 10
224.1182176618044
 20
417.5201421616871
 30
0.0
 11
302.6182276618046
 21
417.5201421616871
 31
0.0
  0
LINE
  5
345
330
A
100
AcDbEntity
  8
SOUZOU
100
AcDbLine
 10
303.3682276618046
 20
416.770162161687
 30
0.0
 11
303.3682276618046
 21
364.270152161687
 31
0.0
  0
LINE
  5
346
330
A
100
AcDbEntity
  8
SOUZOU
100
AcDbLine
 10
302.6182276618046
 20
363.5201321616871
 30
0.0
 11
224.1182176618044
 21
363.5201321616871
 31
0.0
  0
LINE
  5
347
330
A
100
AcDbEntity
  8
SOUZOU
100
AcDbLine
 10
223.3682176618045
 20
366.5201621616871
 30
0.0
 11
223.3682176618045
 21
364.270152161687
 31
0.0
  0
LINE
  5
348
330
A
100
AcDbEntity
  8
SOUZOU
100
AcDbLine
 10
223.3682176618045
 20
416.770162161687
 30
0.0
 11
223.3682176618045
 21
414.520152161687
 31
0.0
  0
ARC
  5
349
330
A
100
AcDbEntity
  8
SOUZOU
100
AcDbCircle
 10
160.3690276618046
 20
454.5201421616871
 30
0.0
 40
69.99999800000001
100
AcDbArc
 50
337.3119199999532
 51
22.68808999994472
  0
ARC
  5
34A
330
A
100
AcDbEntity
  8
SOUZOU
100
AcDbCircle
 10
151.8690376618045
 20
429.020142161687
 30
0.0
 40
1.499999899999999
100
AcDbArc
 50
179.9999999999826
 51
269.9999999999651
  0
ARC
  5
34B
330
A
100
AcDbEntity
  8
SOUZOU
100
AcDbCircle
 10
151.8690376618045
 20
480.0201621616871
 30
0.0
 40
1.499999899999999
100
AcDbArc
 50
90.0
 51
179.9999999999826
  0
ARC
  5
34C
330
A
100
AcDbEntity
  8
SOUZOU
100
AcDbCircle
 10
224.1182176618044
 20
416.770162161687
 30
0.0
 40
0.7499999000000001
100
AcDbArc
 50
90.0
 51
179.9999999999826
  0
ARC
  5
34D
330
A
100
AcDbEntity
  8
SOUZOU
100
AcDbCircle
 10
224.1182176618044
 20
364.270152161687
 30
0.0
 40
0.7499999000000001
100
AcDbArc
 50
179.9999999999826
 51
269.9999999999651
  0
ARC
  5
34E
330
A
100
AcDbEntity
  8
SOUZOU
100
AcDbCircle
 10
302.6182276618046
 20
416.770162161687
 30
0.0
 40
0.7499999000000001
100
AcDbArc
 50
359.9999999999478
 51
90.0
  0
ARC
  5
34F
330
A
100
AcDbEntity
  8
SOUZOU
100
AcDbCircle
 10
302.6182276618046
 20
364.270152161687
 30
0.0
 40
0.7499999000000001
100
AcDbArc
 50
269.9999999999651
 51
359.9999999999478
  0
LINE
  5
3EF
330
A
100
AcDbEntity
  8
04
100
AcDbLine
 10
285.3690576618047
 20
507.520162161687
 30
0.0
 11
283.8690576618048
 21
508.5201621616871
 31
0.0
  0
LINE
  5
3F0
330
A
100
AcDbEntity
  8
04
100
AcDbLine
 10
297.3690576618047
 20
507.520162161687
 30
0.0
 11
298.8690576618047
 21
508.5201621616871
 31
0.0
  0
LINE
  5
3F1
330
A
100
AcDbEntity
  8
04
100
AcDbLine
 10
297.3690576618047
 20
523.520162161687
 30
0.0
 11
285.3690576618047
 21
523.520162161687
 31
0.0
  0
LINE
  5
3F2
330
A
100
AcDbEntity
  8
04
100
AcDbLine
 10
283.8690576618048
 20
509.5201621616872
 30
0.0
 11
283.8690576618048
 21
508.5201621616871
 31
0.0
  0
LINE
  5
3F3
330
A
100
AcDbEntity
  8
04
100
AcDbLine
 10
285.3690576618047
 20
507.520162161687
 30
0.0
 11
297.3690576618047
 21
507.520162161687
 31
0.0
  0
LINE
  5
3F4
330
A
100
AcDbEntity
  8
04
100
AcDbLine
 10
298.8690576618047
 20
508.5201621616871
 30
0.0
 11
298.8690576618047
 21
509.5201621616872
 31
0.0
  0
LINE
  5
3F5
330
A
100
AcDbEntity
  8
04
100
AcDbLine
 10
283.8690576618048
 20
509.5201621616872
 30
0.0
 11
298.8690576618047
 21
509.5201621616872
 31
0.0
  0
LINE
  5
3F6
330
A
100
AcDbEntity
  8
04
100
AcDbLine
 10
285.3690576618047
 20
519.020162161687
 30
0.0
 11
297.3690576618047
 21
519.020162161687
 31
0.0
  0
LINE
  5
3F7
330
A
100
AcDbEntity
  8
04
100
AcDbLine
 10
285.3690576618047
 20
523.520162161687
 30
0.0
 11
285.3690576618047
 21
516.520162161687
 31
0.0
  0
LINE
  5
3F8
330
A
100
AcDbEntity
  8
04
100
AcDbLine
 10
297.3690576618047
 20
516.520162161687
 30
0.0
 11
297.3690576618047
 21
523.520162161687
 31
0.0
  0
LINE
  5
3F9
330
A
100
AcDbEntity
  8
04
100
AcDbLine
 10
283.8690576618048
 20
510.520162161687
 30
0.0
 11
283.8690576618048
 21
513.020162161687
 31
0.0
  0
LINE
  5
3FA
330
A
100
AcDbEntity
  8
04
100
AcDbLine
 10
289.8690576618047
 20
510.520162161687
 30
0.0
 11
292.8690576618047
 21
510.520162161687
 31
0.0
  0
LINE
  5
3FB
330
A
100
AcDbEntity
  8
04
100
AcDbLine
 10
289.3690576618047
 20
513.020162161687
 30
0.0
 11
289.3690576618047
 21
516.2301621616872
 31
0.0
  0
LINE
  5
3FC
330
A
100
AcDbEntity
  8
04
100
AcDbLine
 10
293.3690576618047
 20
516.2301621616872
 30
0.0
 11
293.3690576618047
 21
513.020162161687
 31
0.0
  0
LINE
  5
3FD
330
A
100
AcDbEntity
  8
04
100
AcDbLine
 10
288.7854630916834
 20
509.5201621616872
 30
0.0
 11
288.7854630916834
 21
516.2301621616872
 31
0.0
  0
LINE
  5
3FE
330
A
100
AcDbEntity
  8
04
100
AcDbLine
 10
289.0754630916834
 20
516.520162161687
 30
0.0
 11
289.0790576618048
 21
516.520162161687
 31
0.0
  0
LINE
  5
3FF
330
A
100
AcDbEntity
  8
04
100
AcDbLine
 10
285.3690576618047
 20
516.520162161687
 30
0.0
 11
283.8690576618048
 21
513.020162161687
 31
0.0
  0
ARC
  5
400
330
A
100
AcDbEntity
  8
04
100
AcDbCircle
 10
289.0754630916834
 20
516.2301621616872
 30
0.0
 40
0.29
100
AcDbArc
 50
90.0
 51
180.0
  0
ARC
  5
401
330
A
100
AcDbEntity
  8
04
100
AcDbCircle
 10
289.0790576618048
 20
516.2301621616872
 30
0.0
 40
0.29
100
AcDbArc
 50
0.0
 51
89.99999999999998
  0
LINE
  5
402
330
A
100
AcDbEntity
  8
04
100
AcDbLine
 10
289.3690576618047
 20
513.020162161687
 30
0.0
 11
293.3690576618047
 21
513.020162161687
 31
0.0
  0
LINE
  5
403
330
A
100
AcDbEntity
  8
04
100
AcDbLine
 10
289.3690576618047
 20
513.020162161687
 30
0.0
 11
289.8690576618047
 21
510.520162161687
 31
0.0
  0
LINE
  5
404
330
A
100
AcDbEntity
  8
04
100
AcDbLine
 10
293.3690576618047
 20
513.020162161687
 30
0.0
 11
292.8690576618047
 21
510.520162161687
 31
0.0
  0
LINE
  5
405
330
A
100
AcDbEntity
  8
04
100
AcDbLine
 10
298.8690576618047
 20
510.520162161687
 30
0.0
 11
298.8690576618047
 21
513.020162161687
 31
0.0
  0
LINE
  5
406
330
A
100
AcDbEntity
  8
04
100
AcDbLine
 10
293.952652231926
 20
509.5201621616872
 30
0.0
 11
293.952652231926
 21
516.2301621616872
 31
0.0
  0
LINE
  5
407
330
A
100
AcDbEntity
  8
04
100
AcDbLine
 10
293.6626522319261
 20
516.520162161687
 30
0.0
 11
293.6590576618048
 21
516.520162161687
 31
0.0
  0
LINE
  5
408
330
A
100
AcDbEntity
  8
04
100
AcDbLine
 10
297.3690576618047
 20
516.520162161687
 30
0.0
 11
298.8690576618047
 21
513.020162161687
 31
0.0
  0
ARC
  5
409
330
A
100
AcDbEntity
  8
04
100
AcDbCircle
 10
293.6626522319261
 20
516.2301621616872
 30
0.0
 40
0.29
100
AcDbArc
 50
0.0
 51
89.99999999999998
  0
ARC
  5
40A
330
A
100
AcDbEntity
  8
04
100
AcDbCircle
 10
293.6590576618048
 20
516.2301621616872
 30
0.0
 40
0.29
100
AcDbArc
 50
90.0
 51
180.0
  0
LINE
  5
40B
330
A
100
AcDbEntity
  8
04
100
AcDbLine
 10
286.3690576618047
 20
509.5201621616872
 30
0.0
 11
286.3690576618047
 21
514.520162161687
 31
0.0
  0
LINE
  5
40C
330
A
100
AcDbEntity
  8
04
100
AcDbLine
 10
296.3690576618048
 20
509.5201621616872
 30
0.0
 11
296.3690576618048
 21
514.520162161687
 31
0.0
  0
LINE
  5
40D
330
A
100
AcDbEntity
  8
04
100
AcDbLine
 10
286.3690576618047
 20
514.520162161687
 30
0.0
 11
283.8690576618048
 21
510.520162161687
 31
0.0
  0
LINE
  5
40E
330
A
100
AcDbEntity
  8
04
100
AcDbLine
 10
296.3690576618048
 20
514.520162161687
 30
0.0
 11
298.8690576618047
 21
510.520162161687
 31
0.0
  0
LINE
  5
40F
330
A
100
AcDbEntity
  8
04
100
AcDbLine
 10
290.1190576618048
 20
523.520162161687
 30
0.0
 11
290.1190576618048
 21
529.520162161687
 31
0.0
  0
LINE
  5
410
330
A
100
AcDbEntity
  8
04
100
AcDbLine
 10
292.6190576618047
 20
529.520162161687
 30
0.0
 11
292.6190576618047
 21
523.520162161687
 31
0.0
  0
LINE
  5
41F
330
A
100
AcDbEntity
  8
03
100
AcDbLine
 10
326.3690576618047
 20
510.2701621616871
 30
0.0
 11
326.3690576618047
 21
538.770162161687
 31
0.0
  0
LINE
  5
420
330
A
100
AcDbEntity
  8
03
100
AcDbLine
 10
137.9690576618046
 20
537.920162161687
 30
0.0
 11
137.9690576618046
 21
511.120162161687
 31
0.0
  0
LINE
  5
421
330
A
100
AcDbEntity
  8
03
100
AcDbLine
 10
137.9690576618046
 20
511.120162161687
 30
0.0
 11
324.7690576618047
 21
511.120162161687
 31
0.0
  0
LINE
  5
422
330
A
100
AcDbEntity
  8
03
100
AcDbLine
 10
324.7690576618047
 20
511.120162161687
 30
0.0
 11
324.7690576618046
 21
537.920162161687
 31
0.0
  0
LINE
  5
423
330
A
100
AcDbEntity
  8
03
100
AcDbLine
 10
151.3690576618046
 20
539.520162161687
 30
0.0
 11
151.3690576618046
 21
537.920162161687
 31
0.0
  0
LINE
  5
424
330
A
100
AcDbEntity
  8
03
100
AcDbLine
 10
311.3690576618048
 20
539.520162161687
 30
0.0
 11
311.3690576618048
 21
537.920162161687
 31
0.0
  0
LINE
  5
425
330
A
100
AcDbEntity
  8
03
100
AcDbLine
 10
325.6190576618048
 20
539.520162161687
 30
0.0
 11
311.3690576618048
 21
539.520162161687
 31
0.0
  0
LINE
  5
426
330
A
100
AcDbEntity
  8
03
100
AcDbLine
 10
324.7690576618046
 20
537.920162161687
 30
0.0
 11
311.3690576618048
 21
537.920162161687
 31
0.0
  0
LINE
  5
427
330
A
100
AcDbEntity
  8
03
100
AcDbLine
 10
151.3690576618046
 20
537.920162161687
 30
0.0
 11
137.9690576618046
 21
537.920162161687
 31
0.0
  0
LINE
  5
428
330
A
100
AcDbEntity
  8
03
100
AcDbLine
 10
136.3690576618045
 20
538.770162161687
 30
0.0
 11
136.3690576618045
 21
510.2701621616871
 31
0.0
  0
LINE
  5
429
330
A
100
AcDbEntity
  8
03
100
AcDbLine
 10
137.1190576618045
 20
509.5201621616872
 30
0.0
 11
325.6190576618048
 21
509.5201621616872
 31
0.0
  0
LINE
  5
42A
330
A
100
AcDbEntity
  8
03
100
AcDbLine
 10
151.3690576618046
 20
539.520162161687
 30
0.0
 11
137.1190576618045
 21
539.520162161687
 31
0.0
  0
ARC
  5
42B
330
A
100
AcDbEntity
  8
03
100
AcDbCircle
 10
325.6190576618048
 20
510.2701621616871
 30
0.0
 40
0.75
100
AcDbArc
 50
270.0
 51
0.0
  0
ARC
  5
42C
330
A
100
AcDbEntity
  8
03
100
AcDbCircle
 10
325.6190576618048
 20
538.770162161687
 30
0.0
 40
0.75
100
AcDbArc
 50
0.0
 51
89.99999999999998
  0
ARC
  5
42D
330
A
100
AcDbEntity
  8
03
100
AcDbCircle
 10
137.1190576618045
 20
510.2701621616871
 30
0.0
 40
0.75
100
AcDbArc
 50
180.0
 51
270.0
  0
ARC
  5
42E
330
A
100
AcDbEntity
  8
03
100
AcDbCircle
 10
137.1190576618045
 20
538.770162161687
 30
0.0
 40
0.75
100
AcDbArc
 50
90.0
 51
180.0
  0
POLYLINE
  5
4C6
330
A
100
AcDbEntity
  8
DEFPOINTS
100
AcDb2dPolyline
 66
     1
 10
0.0
 20
0.0
 30
0.0
 70
     1
  0
VERTEX
  5
E1C
330
4C6
100
AcDbEntity
  8
DEFPOINTS
100
AcDbVertex
100
AcDb2dVertex
 10
0.0
 20
0.0
 30
0.0
  0
VERTEX
  5
E1D
330
4C6
100
AcDbEntity
  8
DEFPOINTS
100
AcDbVertex
100
AcDb2dVertex
 10
420.0
 20
0.0
 30
0.0
  0
VERTEX
  5
E1E
330
4C6
100
AcDbEntity
  8
DEFPOINTS
100
AcDbVertex
100
AcDb2dVertex
 10
420.0
 20
594.0
 30
0.0
  0
VERTEX
  5
E1F
330
4C6
100
AcDbEntity
  8
DEFPOINTS
100
AcDbVertex
100
AcDb2dVertex
 10
0.0
 20
594.0
 30
0.0
  0
SEQEND
  5
E20
330
4C6
100
AcDbEntity
  8
DEFPOINTS
  0
LEADER
  5
4EE
330
A
100
AcDbEntity
  8
HIKIDASI
100
AcDbLeader
  3
SUNPOU_2
 73
     0
 75
     1
 40
13.33333333333333
 41
35.73333333333335
 76
     3
 10
319.9853408043963
 20
537.0247261285642
 30
0.0
 10
365.9559295199129
 20
547.3868983479822
 30
0.0
 10
365.9559295199129
 20
542.3868983479821
 30
0.0
340
4EF
211
0.0000000000000001
221
1.0
231
0.0
213
-8.875591220563023
223
-2.799999999999954
233
0.0
1001
ACAD
1000
DSTYLE
1002
{
1070
     5
1000
OPEN30
1070
    77
1070
     1
1070
   147
1040
1.0
1070
   342
1005
4B1
1002
}
1000
LEANOF
1010
-8.875591220563023
1020
-2.799999999999954
1030
0.0
1000
LEANOF
1010
-8.875591220563023
1020
-2.799999999999954
1030
0.0
  0
MTEXT
  5
4EF
330
A
100
AcDbEntity
  8
HIKIDASI
100
AcDbMText
 10
366.1648540738093
 20
543.1868983479821
 30
0.0
 40
5.0
 41
0.0
 71
     6
 72
     1
  1
トロカバー(通し)\P(サッシ工事)
  7
SUNPOU
 11
0.0000000000000001
 21
1.0
 31
0.0
1001
ACAD
1000
MTEXTBEGIN
1070
    73
1070
     1
1070
    44
1040
1.0
1070
    74
1070
     0
1000
MTEXTEND
1000
MTEXTBEGIN
1070
    73
1070
     1
1070
    44
1040
1.0
1070
    74
1070
     0
1000
MTEXTEND
  0
LEADER
  5
4F0
330
A
100
AcDbEntity
  8
HIKIDASI
100
AcDbLeader
  3
SUNPOU_2
 73
     0
 75
     1
 40
5.000000000000001
 41
37.06666666666665
 76
     3
 10
285.3690576618047
 20
507.520162161687
 30
0.0
 10
266.4774702057076
 20
500.5034150669596
 30
0.0
 10
266.4774702057076
 20
495.5034150669596
 30
0.0
340
4F1
211
0.0000000000000001
221
1.0
231
0.0
213
-1.790414950932073
223
-2.873680375198603
233
0.0
1001
ACAD
1000
DSTYLE
1002
{
1070
     5
1000
OPEN30
1070
    77
1070
     1
1070
   147
1040
1.0
1070
   342
1005
4B1
1002
}
1000
LEANOF
1010
-1.790414950932073
1020
-2.873680375198603
1030
0.0
1000
LEANOF
1010
-1.790414950932073
1020
-2.873680375198603
1030
0.0
  0
MTEXT
  5
4F1
330
A
100
AcDbEntity
  8
HIKIDASI
100
AcDbMText
 10
263.7678851566397
 20
496.3770954421582
 30
0.0
 40
5.0
 41
0.0
 71
     6
 72
     1
  1
補助光電スイッチ
  7
SUNPOU
 11
0.0000000000000001
 21
1.0
 31
0.0
1001
ACAD
1000
MTEXTBEGIN
1070
    73
1070
     1
1070
    44
1040
1.0
1070
    74
1070
     0
1000
MTEXTEND
1000
MTEXTBEGIN
1070
    73
1070
     1
1070
    44
1040
1.0
1070
    74
1070
     0
1000
MTEXTEND
  0
LEADER
  5
4F2
330
A
100
AcDbEntity
  8
HIKIDASI
100
AcDbLeader
  3
SUNPOU_2
 73
     0
 74
     0
 75
     1
 40
5.0
 41
17.59999999999999
 76
     3
 10
175.0017636277365
 20
458.2895227795051
 30
0.0
 10
119.9773136428869
 20
518.6641293661028
 30
0.0
 10
119.9773136428869
 20
523.6641293661029
 30
0.0
340
4F3
211
0.0000000000000001
221
1.0
231
0.0
213
-0.7594557797177118
223
5.759879960587567
233
0.0
1001
ACAD
1000
DSTYLE
1002
{
1070
     5
1000
OPEN30
1070
    77
1070
     1
1070
   147
1040
1.0
1070
   342
1005
4B1
1002
}
1000
LEANOF
1010
-0.7594557797177118
1020
5.759879960587567
1030
0.0
1000
LEANOF
1010
-0.7594557797177118
1020
5.759879960587567
1030
0.0
  0
MTEXT
  5
4F3
330
A
100
AcDbEntity
  8
HIKIDASI
100
AcDbMText
 10
118.7367694226046
 20
519.9042494055153
 30
0.0
 40
5.0
 41
0.0
 71
     7
 72
     1
  1
回転軸芯
  7
SUNPOU
 11
0.0000000000000001
 21
1.0
 31
0.0
1001
ACAD
1000
MTEXTBEGIN
1070
    73
1070
     1
1070
    44
1040
1.0
1070
    74
1070
     0
1000
MTEXTEND
1000
MTEXTBEGIN
1070
    73
1070
     1
1070
    44
1040
1.0
1070
    74
1070
     0
1000
MTEXTEND
  0
LEADER
  5
4F4
330
A
100
AcDbEntity
  8
HIKIDASI
100
AcDbLeader
  3
SUNPOU_2
 73
     0
 74
     0
 75
     1
 40
5.0
 41
17.86666666666666
 76
     3
 10
262.3317973117536
 20
220.6291434313337
 30
0.0
 10
276.3573833395414
 20
246.4956198381965
 30
0.0
 10
276.3573833395414
 20
251.4956198381964
 30
0.0
340
4F5
211
0.0000000000000001
221
1.0
231
0.0
213
-0.1795295994039066
223
7.616536723775482
233
0.0
1001
ACAD
1000
DSTYLE
1002
{
1070
     5
1000
OPEN30
1070
    77
1070
     1
1070
   147
1040
1.0
1070
   342
1005
4B1
1002
}
1000
LEANOF
1010
-0.1795295994039066
1020
7.616536723775482
1030
0.0
1000
LEANOF
1010
-0.1795295994039066
1020
7.616536723775482
1030
0.0
  0
MTEXT
  5
4F5
330
A
100
AcDbEntity
  8
HIKIDASI
100
AcDbMText
 10
274.5369129389453
 20
245.8790831144209
 30
0.0
 40
5.0
 41
0.0
 71
     7
 72
     1
  1
切欠き部
  7
SUNPOU
 11
0.0000000000000001
 21
1.0
 31
0.0
1001
ACAD
1000
MTEXTBEGIN
1070
    73
1070
     1
1070
    44
1040
1.0
1070
    74
1070
     0
1000
MTEXTEND
1000
MTEXTBEGIN
1070
    73
1070
     1
1070
    44
1040
1.0
1070
    74
1070
     0
1000
MTEXTEND
  0
DIMENSION
  5
4F6
330
A
100
AcDbEntity
  8
SUNPOU
100
AcDbDimension
  2
*D1
 10
129.2220150810285
 20
454.5201421616871
 30
0.0
 11
122.7828036572043
 21
487.7045325565744
 31
0.0
 70
   160
  3
SUNPOU_2
100
AcDbAlignedDimension
 13
180.3690376618044
 23
504.520140161687
 33
0.0
 14
180.3690376618044
 24
454.5201421616871
 34
0.0
 50
90.0
100
AcDbRotatedDimension
  0
DIMENSION
  5
503
330
A
100
AcDbEntity
  8
SUNPOU
100
AcDbDimension
  2
*D2
 10
113.0059819050655
 20
80.02015526168705
 30
0.0
 11
108.5059819050655
 21
292.2701477116871
 31
0.0
 70
    32
  1
DW1
  3
SUNPOU_2
100
AcDbAlignedDimension
 13
180.3690382727112
 23
504.520140161687
 33
0.0
 14
154.1190476618042
 24
80.02015526168705
 34
0.0
 50
90.0
100
AcDbRotatedDimension
  0
DIMENSION
  5
510
330
A
100
AcDbEntity
  8
SUNPOU
100
AcDbDimension
  2
*D3
 10
127.2220150810285
 20
120.020155161687
 30
0.0
 11
122.7220150810284
 21
100.020155211687
 31
0.0
 70
    32
  3
SUNPOU_2
100
AcDbAlignedDimension
 13
154.1190476618042
 23
80.02015526168705
 33
0.0
 14
180.3690376618043
 24
120.020155161687
 34
0.0
 50
90.0
100
AcDbRotatedDimension
  0
DIMENSION
  5
51D
330
A
100
AcDbEntity
  8
SUNPOU
100
AcDbDimension
  2
*D4
 10
127.2220150810285
 20
210.020152161687
 30
0.0
 11
122.7220150810285
 21
165.020153661687
 31
0.0
 70
    32
  3
SUNPOU_2
100
AcDbAlignedDimension
 13
180.3690376618043
 23
120.020155161687
 33
0.0
 14
180.5690476618045
 24
210.020152161687
 34
0.0
 50
90.0
100
AcDbRotatedDimension
  0
DIMENSION
  5
52A
330
A
100
AcDbEntity
  8
SUNPOU
100
AcDbDimension
  2
*D5
 10
276.1138986116029
 20
232.020152161687
 30
0.0
 11
269.3383395354924
 21
203.6398982607098
 31
0.0
 70
   160
  3
SUNPOU_2
100
AcDbAlignedDimension
 13
261.8690476618045
 23
188.0201421616872
 33
0.0
 14
261.8690476618045
 24
232.020152161687
 34
0.0
 50
90.0
100
AcDbRotatedDimension
  0
DIMENSION
  5
537
330
A
100
AcDbEntity
  8
SUNPOU
100
AcDbDimension
  2
*D6
 10
301.1211544038101
 20
100.0201551616869
 30
0.0
 11
296.6211544038101
 21
277.269743661687
 31
0.0
 70
    32
  1
DW2
  3
SUNPOU_2
100
AcDbAlignedDimension
 13
264.8690376618045
 23
454.5193321616871
 33
0.0
 14
265.6190476618045
 24
100.0201551616869
 34
0.0
 50
90.0
100
AcDbRotatedDimension
  0
DIMENSION
  5
544
330
A
100
AcDbEntity
  8
SUNPOU
100
AcDbDimension
  2
*D7
 10
293.8468107350386
 20
100.0201551616869
 30
0.0
 11
289.3468107350386
 21
155.0201511616871
 31
0.0
 70
    32
  3
SUNPOU_2
100
AcDbAlignedDimension
 13
263.3690476618046
 23
210.020147161687
 33
0.0
 14
265.6190476618045
 24
100.0201551616869
 34
0.0
 50
90.0
100
AcDbRotatedDimension
  0
DIMENSION
  5
551
330
A
100
AcDbEntity
  8
SUNPOU
100
AcDbDimension
  2
*D8
 10
293.8468107350386
 20
80.02015616168703
 30
0.0
 11
289.3468107350386
 21
90.02015566168708
 31
0.0
 70
    32
  3
SUNPOU_2
100
AcDbAlignedDimension
 13
265.6190476618045
 23
100.0201551616869
 33
0.0
 14
206.6190376618044
 24
80.02015616168705
 34
0.0
 50
90.0
100
AcDbRotatedDimension
  0
DIMENSION
  5
55E
330
A
100
AcDbEntity
  8
SUNPOU
100
AcDbDimension
  2
*D9
 10
207.3690376618045
 20
70.2433148573746
 30
0.0
 11
179.8736366959146
 21
63.75027162074047
 31
0.0
 70
   160
  1
<>
 53
180.0
  3
SUNPOU_2
100
AcDbAlignedDimension
 13
153.3690376618045
 23
80.77015516168705
 33
0.0
 14
207.3690376618045
 24
80.77015516168705
 34
0.0
100
AcDbRotatedDimension
  0
DIMENSION
  5
56B
330
A
100
AcDbEntity
  8
SUNPOU
100
AcDbDimension
  2
*D10
 10
212.3690476618047
 20
70.2433148573746
 30
0.0
 11
210.0097917293201
 21
64.07950903354684
 31
0.0
 70
   160
 53
180.0
  3
SUNPOU_2
100
AcDbAlignedDimension
 13
207.3690376618045
 23
80.77015516168705
 33
0.0
 14
212.3690476618047
 24
100.770156161687
 34
0.0
100
AcDbRotatedDimension
  0
DIMENSION
  5
57A
330
A
100
AcDbEntity
  8
SUNPOU
100
AcDbDimension
  2
*D11
 10
266.3690476618045
 20
70.2433148573746
 30
0.0
 11
239.4872317828169
 21
63.75027162074047
 31
0.0
 70
   160
 53
180.0
  3
SUNPOU_2
100
AcDbAlignedDimension
 13
212.3690476618047
 23
100.770156161687
 33
0.0
 14
266.3690476618045
 24
100.770156161687
 34
0.0
100
AcDbRotatedDimension
  0
DIMENSION
  5
587
330
A
100
AcDbEntity
  8
SUNPOU
100
AcDbDimension
  2
*D12
 10
326.3690576618046
 20
551.4577531431662
 30
0.0
 11
224.4052846298445
 21
544.9698778407438
 31
0.0
 70
   160
 53
180.0
  3
SUNPOU_2
100
AcDbAlignedDimension
 13
136.3690576618045
 23
538.770162161687
 33
0.0
 14
326.3690576618046
 24
538.770162161687
 34
0.0
100
AcDbRotatedDimension
  0
DIMENSION
  5
594
330
A
100
AcDbEntity
  8
SUNPOU
100
AcDbDimension
  2
*D13
 10
180.3690376618044
 20
528.9818845477896
 30
0.0
 11
161.8750252963964
 21
522.2728372646911
 31
0.0
 70
   160
 53
180.0
  3
SUNPOU_2
100
AcDbAlignedDimension
 13
141.3690576618045
 23
509.5201621616872
 33
0.0
 14
180.3690376618044
 24
508.8931521616872
 34
0.0
100
AcDbRotatedDimension
  0
DIMENSION
  5
5A1
330
A
100
AcDbEntity
  8
SUNPOU
100
AcDbDimension
  2
*D14
 10
239.3690476618045
 20
528.9818845477896
 30
0.0
 11
209.9977882718992
 21
522.4201029183734
 31
0.0
 70
   160
 53
180.0
  3
SUNPOU_2
100
AcDbAlignedDimension
 13
180.3690376618044
 23
508.8931521616872
 33
0.0
 14
239.3690476618045
 24
509.5201621616872
 34
0.0
100
AcDbRotatedDimension
  0
DIMENSION
  5
5AE
330
A
100
AcDbEntity
  8
SUNPOU
100
AcDbDimension
  2
*D15
 10
321.3690376618048
 20
528.9818845477896
 30
0.0
 11
280.2639815741283
 21
522.6551302534435
 31
0.0
 70
   160
 53
180.0
  3
SUNPOU_2
100
AcDbAlignedDimension
 13
239.3690476618045
 23
509.5201621616872
 33
0.0
 14
321.3690376618048
 24
509.5201621616872
 34
0.0
100
AcDbRotatedDimension
  0
DIMENSION
  5
5BB
330
A
100
AcDbEntity
  8
SUNPOU
100
AcDbDimension
  2
*D16
 10
291.3690576618047
 20
496.2897120454238
 30
0.0
 11
309.3279154076913
 21
489.6504239095577
 31
0.0
 70
   160
 53
180.0
  3
SUNPOU_2
100
AcDbAlignedDimension
 13
326.3690576618047
 23
510.2701621616871
 33
0.0
 14
291.3690576618047
 24
509.5201621616872
 34
0.0
100
AcDbRotatedDimension
  0
DIMENSION
  5
646
330
A
100
AcDbEntity
  8
SUNPOU
100
AcDbDimension
  2
*D17
 10
341.2982081322653
 20
504.520140161687
 30
0.0
 11
335.0274117949782
 21
517.13119843672
 31
0.0
 70
   160
  3
SUNPOU_2
100
AcDbAlignedDimension
 13
325.6190576618048
 23
509.5201621616872
 33
0.0
 14
180.3690382727112
 24
504.520140161687
 34
0.0
 50
90.0
100
AcDbRotatedDimension
  0
DIMENSION
  5
655
330
A
100
AcDbEntity
  8
SUNPOU
100
AcDbDimension
  2
*D18
 10
341.2982081322653
 20
454.5193321616871
 30
0.0
 11
336.7982081322653
 21
479.5197361616871
 31
0.0
 70
    32
  3
SUNPOU_2
100
AcDbAlignedDimension
 13
180.3690382727112
 23
504.520140161687
 33
0.0
 14
264.8690376618045
 24
454.5193321616871
 34
0.0
 50
90.0
100
AcDbRotatedDimension
  0
DIMENSION
  5
662
330
A
100
AcDbEntity
  8
SUNPOU
100
AcDbDimension
  2
*D19
 10
341.2982081322653
 20
390.520152161687
 30
0.0
 11
336.7982081322653
 21
422.5197421616871
 31
0.0
 70
    32
  3
SUNPOU_2
100
AcDbAlignedDimension
 13
264.8690376618045
 23
454.5193321616871
 33
0.0
 14
287.1719159638164
 24
390.520152161687
 34
0.0
 50
90.0
100
AcDbRotatedDimension
  0
DIMENSION
  5
66F
330
A
100
AcDbEntity
  8
SUNPOU
100
AcDbDimension
  2
*D20
 10
351.2201420858339
 20
71.31645261592534
 30
0.0
 11
346.7201420858339
 21
290.4183073888063
 31
0.0
 70
    32
  1
Wo
  3
SUNPOU_2
100
AcDbAlignedDimension
 13
325.6190576618048
 23
509.5201621616872
 33
0.0
 14
321.3690376618046
 24
71.31645261592534
 34
0.0
 50
90.0
100
AcDbRotatedDimension
1001
ACAD
1000
DSTYLE
1002
{
1070
    76
1070
     1
1002
}
  0
LINE
  5
A2A
330
A
100
AcDbEntity
  8
CHUSIN
100
AcDbLine
 10
180.3690376618044
 20
303.5201621616871
 30
0.0
 11
180.3690376618044
 21
506.8931521616871
 31
0.0
  0
LINE
  5
A2B
330
A
100
AcDbEntity
  8
CHUSIN
100
AcDbLine
 10
239.3690476618044
 20
298.5201621616871
 30
0.0
 11
239.3690476618044
 21
96.92041818755354
 31
0.0
  0
DIMENSION
  5
A6B
330
A
100
AcDbEntity
  8
SUNPOU
  6
CONTINUOUS
100
AcDbDimension
  2
*D21
 10
287.1719159638164
 20
210.020147161687
 30
0.0
 11
282.6719159638162
 21
188.7701496616872
 31
0.0
 70
    32
  3
SUNPOU_2
100
AcDbAlignedDimension
 13
259.3690376618045
 23
167.520152161687
 33
0.0
 14
261.8690476618045
 24
210.020147161687
 34
0.0
 50
90.0
100
AcDbRotatedDimension
  0
DIMENSION
  5
A78
330
A
100
AcDbEntity
  8
SUNPOU
  6
CONTINUOUS
100
AcDbDimension
  2
*D22
 10
287.1719159638164
 20
252.5201521616871
 30
0.0
 11
282.6719159638162
 21
231.2701496616872
 31
0.0
 70
    32
  3
SUNPOU_2
100
AcDbAlignedDimension
 13
261.8690476618045
 23
210.020147161687
 33
0.0
 14
276.3573833395414
 24
252.5201521616871
 34
0.0
 50
90.0
100
AcDbRotatedDimension
  0
DIMENSION
  5
AA4
330
A
100
AcDbEntity
  8
SUNPOU
  6
CONTINUOUS
100
AcDbDimension
  2
*D23
 10
136.8318430399213
 20
120.020155161687
 30
0.0
 11
132.3318430399212
 21
107.520156161687
 31
0.0
 70
    32
  3
SUNPOU_2
100
AcDbAlignedDimension
 13
170.3690376618045
 23
95.02015716168704
 33
0.0
 14
170.3690376618045
 24
120.020155161687
 34
0.0
 50
90.0
100
AcDbRotatedDimension
  0
DIMENSION
  5
AB1
330
A
100
AcDbEntity
  8
SUNPOU
  6
CONTINUOUS
100
AcDbDimension
  2
*D24
 10
136.8318430399213
 20
145.0201541616871
 30
0.0
 11
132.3318430399212
 21
132.520154661687
 31
0.0
 70
    32
  3
SUNPOU_2
100
AcDbAlignedDimension
 13
170.3690376618045
 23
120.020155161687
 33
0.0
 14
170.3690376618045
 24
145.0201541616871
 34
0.0
 50
90.0
100
AcDbRotatedDimension
  0
DIMENSION
  5
ABF
330
A
100
AcDbEntity
  8
SUNPOU
  6
CONTINUOUS
100
AcDbDimension
  2
*D25
 10
136.8318430399213
 20
210.0201621616871
 30
0.0
 11
132.3318430399212
 21
187.520157161687
 31
0.0
 70
    32
  3
SUNPOU_2
100
AcDbAlignedDimension
 13
168.3690376618045
 23
165.0201521616871
 33
0.0
 14
168.3690376618045
 24
210.0201621616871
 34
0.0
 50
90.0
100
AcDbRotatedDimension
  0
DIMENSION
  5
ACC
330
A
100
AcDbEntity
  8
SUNPOU
  6
CONTINUOUS
100
AcDbDimension
  2
*D26
 10
136.8318430399213
 20
255.020152161687
 30
0.0
 11
132.3318430399212
 21
232.5201571616871
 31
0.0
 70
    32
  3
SUNPOU_2
100
AcDbAlignedDimension
 13
168.3690376618045
 23
210.0201621616871
 33
0.0
 14
168.3690376618045
 24
255.020152161687
 34
0.0
 50
90.0
100
AcDbRotatedDimension
  0
LINE
  5
AD9
330
A
100
AcDbEntity
  8
SUNPOU
  6
CONTINUOUS
100
AcDbLine
 10
262.3690376618045
 20
252.5201521616871
 30
0.0
 11
267.7891892231414
 21
252.5201521616871
 31
0.0
  0
DIMENSION
  5
AED
330
A
100
AcDbEntity
  8
SUNPOU
  6
CONTINUOUS
100
AcDbDimension
  2
*D27
 10
290.1719159638165
 20
390.520152161687
 30
0.0
 11
285.6719159638164
 21
368.0197321616871
 31
0.0
 70
    32
  3
SUNPOU_2
100
AcDbAlignedDimension
 13
246.8690476618045
 23
345.5193121616871
 33
0.0
 14
290.1719159638165
 24
390.520152161687
 34
0.0
 50
90.0
100
AcDbRotatedDimension
  0
DIMENSION
  5
AFA
330
A
100
AcDbEntity
  8
SUNPOU
  6
CONTINUOUS
100
AcDbDimension
  2
*D28
 10
290.1719159638165
 20
435.5193221616871
 30
0.0
 11
285.6719159638164
 21
413.0197371616871
 31
0.0
 70
    32
  3
SUNPOU_2
100
AcDbAlignedDimension
 13
290.1719159638165
 23
390.520152161687
 33
0.0
 14
246.8690476618045
 24
435.5193221616871
 34
0.0
 50
90.0
100
AcDbRotatedDimension
  0
POLYLINE
  5
B34
330
A
100
AcDbEntity
  8
SAISEN
100
AcDb2dPolyline
 66
     1
 10
0.0
 20
0.0
 30
0.0
 70
     1
  0
VERTEX
  5
E21
330
B34
100
AcDbEntity
  8
SAISEN
100
AcDbVertex
100
AcDb2dVertex
 10
82.37486285344038
 20
272.6818939090546
 30
0.0
  0
VERTEX
  5
E22
330
B34
100
AcDbEntity
  8
SAISEN
100
AcDbVertex
100
AcDb2dVertex
 10
92.37486285344038
 20
272.6818939090546
 30
0.0
  0
VERTEX
  5
E23
330
B34
100
AcDbEntity
  8
SAISEN
100
AcDbVertex
100
AcDb2dVertex
 10
92.37486285344038
 20
302.6818939090546
 30
0.0
  0
VERTEX
  5
E24
330
B34
100
AcDbEntity
  8
SAISEN
100
AcDbVertex
100
AcDb2dVertex
 10
82.37486285344038
 20
302.6818939090546
 30
0.0
  0
SEQEND
  5
E25
330
B34
100
AcDbEntity
  8
SAISEN
  0
MTEXT
  5
B35
330
A
100
AcDbEntity
  8
MOJI
100
AcDbMText
 10
87.37486285344038
 20
287.6818939090546
 30
0.0
 40
6.0
 41
24.32479999999999
 71
     5
 72
     1
  1
外　　部
  7
0_8
 11
0.0000000000000001
 21
1.0
 31
0.0
1001
ACAD
1000
MTEXTBEGIN
1070
    73
1070
     1
1070
    44
1040
1.0
1070
    74
1070
     0
1000
MTEXTEND
1000
MTEXTBEGIN
1070
    73
1070
     1
1070
    44
1040
1.0
1070
    74
1070
     0
1000
MTEXTEND
  0
MTEXT
  5
B36
330
A
100
AcDbEntity
  8
MOJI
100
AcDbMText
 10
364.9976344182157
 20
287.6818939090546
 30
0.0
 40
6.0
 41
24.32479999999999
 71
     5
 72
     1
  1
内　　部
  7
0_8
 11
0.0000000000000001
 21
1.0
 31
0.0
1001
ACAD
1000
MTEXTBEGIN
1070
    73
1070
     1
1070
    44
1040
1.0
1070
    74
1070
     0
1000
MTEXTEND
1000
MTEXTBEGIN
1070
    73
1070
     1
1070
    44
1040
1.0
1070
    74
1070
     0
1000
MTEXTEND
  0
POLYLINE
  5
B37
330
A
100
AcDbEntity
  8
SAISEN
100
AcDb2dPolyline
 66
     1
 10
0.0
 20
0.0
 30
0.0
 70
     1
  0
VERTEX
  5
E26
330
B37
100
AcDbEntity
  8
SAISEN
100
AcDbVertex
100
AcDb2dVertex
 10
359.9976344182157
 20
272.6818939090546
 30
0.0
  0
VERTEX
  5
E27
330
B37
100
AcDbEntity
  8
SAISEN
100
AcDbVertex
100
AcDb2dVertex
 10
369.9976344182157
 20
272.6818939090546
 30
0.0
  0
VERTEX
  5
E28
330
B37
100
AcDbEntity
  8
SAISEN
100
AcDbVertex
100
AcDb2dVertex
 10
369.9976344182157
 20
302.6818939090546
 30
0.0
  0
VERTEX
  5
E29
330
B37
100
AcDbEntity
  8
SAISEN
100
AcDbVertex
100
AcDb2dVertex
 10
359.9976344182157
 20
302.6818939090546
 30
0.0
  0
SEQEND
  5
E2A
330
B37
100
AcDbEntity
  8
SAISEN
  0
LINE
  5
B4E
330
A
100
AcDbEntity
  8
06
  6
CONTINUOUS
100
AcDbLine
 10
261.8690476618045
 20
232.020152161687
 30
0.0
 11
263.3690476618046
 21
232.020152161687
 31
0.0
1001
ACAD
1000
ASC_BOUNDS
1002
{
1070
    19
1005
CE2
1002
}
  0
LINE
  5
B4F
330
A
100
AcDbEntity
  8
06
  6
CONTINUOUS
100
AcDbLine
 10
261.8690476618045
 20
188.0201421616872
 30
0.0
 11
263.3690476618046
 21
188.0201421616872
 31
0.0
1001
ACAD
1000
ASC_BOUNDS
1002
{
1070
    19
1005
CE2
1002
}
  0
MTEXT
  5
CB9
330
A
100
AcDbEntity
  8
MOJI
100
AcDbMText
 10
69.62291405312545
 20
133.5632583666769
 30
0.0
 40
5.0
 41
0.0
 71
     4
 72
     1
  1
2329
  7
SUNPOU
 11
0.0000000000000001
 21
1.0
 31
0.0
1001
ACAD
1000
MTEXTBEGIN
1070
    73
1070
     1
1070
    44
1040
1.0
1070
    74
1070
     0
1000
MTEXTEND
1000
MTEXTBEGIN
1070
    73
1070
     1
1070
    44
1040
1.0
1070
    74
1070
     0
1000
MTEXTEND
  0
MTEXT
  5
CBA
330
A
100
AcDbEntity
  8
MOJI
100
AcDbMText
 10
78.12291405312546
 20
147.9512165591873
 30
0.0
 40
5.0
 41
0.0
 71
     6
 72
     1
  1
654
  7
SUNPOU
 11
0.0000000000000001
 21
1.0
 31
0.0
1001
ACAD
1000
MTEXTBEGIN
1070
    73
1070
     1
1070
    44
1040
1.0
1070
    74
1070
     0
1000
MTEXTEND
1000
MTEXTBEGIN
1070
    73
1070
     1
1070
    44
1040
1.0
1070
    74
1070
     0
1000
MTEXTEND
  0
MTEXT
  5
CBB
330
A
100
AcDbEntity
  8
MOJI
100
AcDbMText
 10
86.62291405312545
 20
147.9512165591873
 30
0.0
 40
5.0
 41
0.0
 71
     6
 72
     1
  1
584
  7
SUNPOU
 11
0.0000000000000001
 21
1.0
 31
0.0
1001
ACAD
1000
MTEXTBEGIN
1070
    73
1070
     1
1070
    44
1040
1.0
1070
    74
1070
     0
1000
MTEXTEND
1000
MTEXTBEGIN
1070
    73
1070
     1
1070
    44
1040
1.0
1070
    74
1070
     0
1000
MTEXTEND
  0
LINE
  5
CBC
330
A
100
AcDbEntity
  8
SAISEN
  6
CONTINUOUS
100
AcDbLine
 10
82.77329765838569
 20
156.020156161687
 30
0.0
 11
82.77329765838569
 21
80.02015616168705
 31
0.0
  0
LINE
  5
CBD
330
A
100
AcDbEntity
  8
SAISEN
  6
CONTINUOUS
100
AcDbLine
 10
74.27329765838568
 20
156.020156161687
 30
0.0
 11
74.27329765838568
 21
80.02015616168705
 31
0.0
  0
LINE
  5
CBE
330
A
100
AcDbEntity
  8
SAISEN
  6
CONTINUOUS
100
AcDbLine
 10
65.77329765838569
 20
156.020156161687
 30
0.0
 11
65.77329765838569
 21
80.02015616168705
 31
0.0
  0
LINE
  5
CBF
330
A
100
AcDbEntity
  8
SAISEN
  6
CONTINUOUS
100
AcDbLine
 10
57.27329765838568
 20
156.020156161687
 30
0.0
 11
57.27329765838568
 21
80.02015616168705
 31
0.0
  0
LINE
  5
CC0
330
A
100
AcDbEntity
  8
SAISEN
  6
CONTINUOUS
100
AcDbLine
 10
91.2732976583857
 20
80.02015616168705
 30
0.0
 11
91.2732976583857
 21
156.020156161687
 31
0.0
  0
LINE
  5
CC1
330
A
100
AcDbEntity
  8
SAISEN
  6
CONTINUOUS
100
AcDbLine
 10
57.27329765838568
 20
80.02015616168705
 30
0.0
 11
65.77329765838569
 21
94.02015616168707
 31
0.0
  0
MTEXT
  5
CC2
330
A
100
AcDbEntity
  8
MOJI
100
AcDbMText
 10
61.12291405312546
 20
134.0606880991157
 30
0.0
 40
5.0
 41
0.0
 71
     4
 72
     1
  1
両引き
  7
SUNPOU
 11
0.0000000000000001
 21
1.0
 31
0.0
1001
ACAD
1000
MTEXTBEGIN
1070
    73
1070
     1
1070
    44
1040
1.0
1070
    74
1070
     0
1000
MTEXTEND
1000
MTEXTBEGIN
1070
    73
1070
     1
1070
    44
1040
1.0
1070
    74
1070
     0
1000
MTEXTEND
  0
MTEXT
  5
CC3
330
A
100
AcDbEntity
  8
MOJI
100
AcDbMText
 10
61.12291405312546
 20
103.0810008670815
 30
0.0
 40
5.0
 41
0.0
 71
     4
 72
     1
  1
片引き
  7
SUNPOU
 11
0.0000000000000001
 21
1.0
 31
0.0
1001
ACAD
1000
MTEXTBEGIN
1070
    73
1070
     1
1070
    44
1040
1.0
1070
    74
1070
     0
1000
MTEXTEND
1000
MTEXTBEGIN
1070
    73
1070
     1
1070
    44
1040
1.0
1070
    74
1070
     0
1000
MTEXTEND
  0
LINE
  5
CC4
330
A
100
AcDbEntity
  8
SAISEN
  6
CONTINUOUS
100
AcDbLine
 10
57.27329765838568
 20
125.020156161687
 30
0.0
 11
91.2732976583857
 21
125.020156161687
 31
0.0
  0
LINE
  5
CC5
330
A
100
AcDbEntity
  8
SAISEN
  6
CONTINUOUS
100
AcDbLine
 10
57.27329765838568
 20
94.02015616168707
 30
0.0
 11
91.2732976583857
 21
94.02015616168707
 31
0.0
  0
LINE
  5
CC6
330
A
100
AcDbEntity
  8
SAISEN
  6
CONTINUOUS
100
AcDbLine
 10
57.27329765838568
 20
80.02015616168705
 30
0.0
 11
91.2732976583857
 21
80.02015616168705
 31
0.0
  0
MTEXT
  5
CC7
330
A
100
AcDbEntity
  8
MOJI
100
AcDbMText
 10
52.78971203958805
 20
80.34285389269166
 30
0.0
 40
5.0
 41
0.0
 71
     4
 72
     1
  1
扉幅最小寸法
  7
SUNPOU
 11
0.0000000000000001
 21
1.0
 31
0.0
1001
ACAD
1000
MTEXTBEGIN
1070
    73
1070
     1
1070
    44
1040
1.0
1070
    74
1070
     0
1000
MTEXTEND
1000
MTEXTBEGIN
1070
    73
1070
     1
1070
    44
1040
1.0
1070
    74
1070
     0
1000
MTEXTEND
  0
MTEXT
  5
CC8
330
A
100
AcDbEntity
  8
MOJI
100
AcDbMText
 10
69.62291405312545
 20
104.5854689582006
 30
0.0
 40
5.0
 41
0.0
 71
     4
 72
     1
  1
1166
  7
SUNPOU
 11
0.0000000000000001
 21
1.0
 31
0.0
1001
ACAD
1000
MTEXTBEGIN
1070
    73
1070
     1
1070
    44
1040
1.0
1070
    74
1070
     0
1000
MTEXTEND
1000
MTEXTBEGIN
1070
    73
1070
     1
1070
    44
1040
1.0
1070
    74
1070
     0
1000
MTEXTEND
  0
MTEXT
  5
CC9
330
A
100
AcDbEntity
  8
MOJI
100
AcDbMText
 10
69.62291405312545
 20
81.35951038166718
 30
0.0
 40
5.0
 41
0.0
 71
     4
 72
     1
  1
W0
  7
SUNPOU
 11
0.0000000000000001
 21
1.0
 31
0.0
1001
ACAD
1000
MTEXTBEGIN
1070
    73
1070
     1
1070
    44
1040
1.0
1070
    74
1070
     0
1000
MTEXTEND
1000
MTEXTBEGIN
1070
    73
1070
     1
1070
    44
1040
1.0
1070
    74
1070
     0
1000
MTEXTEND
  0
MTEXT
  5
CCA
330
A
100
AcDbEntity
  8
MOJI
100
AcDbMText
 10
86.62291405312545
 20
116.5416795032004
 30
0.0
 40
5.0
 41
0.0
 71
     6
 72
     1
  1
584
  7
SUNPOU
 11
0.0000000000000001
 21
1.0
 31
0.0
1001
ACAD
1000
MTEXTBEGIN
1070
    73
1070
     1
1070
    44
1040
1.0
1070
    74
1070
     0
1000
MTEXTEND
1000
MTEXTBEGIN
1070
    73
1070
     1
1070
    44
1040
1.0
1070
    74
1070
     0
1000
MTEXTEND
  0
MTEXT
  5
CCB
330
A
100
AcDbEntity
  8
MOJI
100
AcDbMText
 10
78.12291405312546
 20
116.5416795032004
 30
0.0
 40
5.0
 41
0.0
 71
     6
 72
     1
  1
654
  7
SUNPOU
 11
0.0000000000000001
 21
1.0
 31
0.0
1001
ACAD
1000
MTEXTBEGIN
1070
    73
1070
     1
1070
    44
1040
1.0
1070
    74
1070
     0
1000
MTEXTEND
1000
MTEXTBEGIN
1070
    73
1070
     1
1070
    44
1040
1.0
1070
    74
1070
     0
1000
MTEXTEND
  0
MTEXT
  5
CCC
330
A
100
AcDbEntity
  8
MOJI
100
AcDbMText
 10
78.12291405312546
 20
81.35951038166718
 30
0.0
 40
5.0
 41
0.0
 71
     4
 72
     1
  1
DW1
  7
SUNPOU
 11
0.0000000000000001
 21
1.0
 31
0.0
1001
ACAD
1000
MTEXTBEGIN
1070
    73
1070
     1
1070
    44
1040
1.0
1070
    74
1070
     0
1000
MTEXTEND
1000
MTEXTBEGIN
1070
    73
1070
     1
1070
    44
1040
1.0
1070
    74
1070
     0
1000
MTEXTEND
  0
MTEXT
  5
CCD
330
A
100
AcDbEntity
  8
MOJI
100
AcDbMText
 10
86.62291405312545
 20
81.35951038166718
 30
0.0
 40
5.0
 41
0.0
 71
     4
 72
     1
  1
DW2
  7
SUNPOU
 11
0.0000000000000001
 21
1.0
 31
0.0
1001
ACAD
1000
MTEXTBEGIN
1070
    73
1070
     1
1070
    44
1040
1.0
1070
    74
1070
     0
1000
MTEXTEND
1000
MTEXTBEGIN
1070
    73
1070
     1
1070
    44
1040
1.0
1070
    74
1070
     0
1000
MTEXTEND
  0
LINE
  5
CCE
330
A
100
AcDbEntity
  8
SAISEN
  6
CONTINUOUS
100
AcDbLine
 10
91.2732976583857
 20
156.020156161687
 30
0.0
 11
57.27329765838568
 21
156.020156161687
 31
0.0
  0
INSERT
  5
CE2
330
A
100
AcDbEntity
  8
06
  6
CONTINUOUS
100
AcDbBlockReference
  2
*X29
 10
0.0
 20
0.0
 30
0.0
1001
ACAD
1000
HATCH
1002
{
1070
    19
1000
ANSI31
1040
15.0
1040
0.0
1000
ASC_BOUNDS
1070
     2
1070
     1
1070
     4
1005
323
1005
B4F
1005
322
1005
314
1070
     1
1070
     4
1005
323
1005
314
1005
322
1005
B4E
1000
ASC_SEEDPOINT
1011
262.5370324838653
1021
227.6779171544549
1031
0.0
1000
R14_HATCH_DATA
1000
CE2
1011
1.0
1021
0.0
1031
0.0
1011
0.0
1021
1.0
1031
0.0
1011
0.0
1021
0.0
1031
1.0
1040
0.0
1010
0.0
1020
0.0
1030
1.0
1000
ANSI31
1070
     0
1070
     1
1071
        2
1071
        7
1070
     0
1070
     1
1071
        4
1040
261.8690476618045
1040
210.0201621616871
1040
263.3690476618046
1040
210.0201621616871
1040
263.3690476618046
1040
232.020152161687
1040
261.8690476618045
1040
232.020152161687
1071
        4
1005
B4E
1005
322
1005
314
1005
323
1071
        7
1070
     0
1070
     1
1071
        4
1040
263.3690476618046
1040
210.0201621616871
1040
261.8690476618045
1040
210.0201621616871
1040
261.8690476618045
1040
188.0201421616872
1040
263.3690476618046
1040
188.0201421616872
1071
        4
1005
314
1005
322
1005
B4F
1005
323
1070
     0
1070
     1
1040
0.0
1040
15.0
1070
     0
1070
     1
1040
0.7853981633974483
1040
0.0
1040
0.0
1040
-1.325825214724775
1040
1.325825214724775
1070
     0
1040
0.1206611727215392
1071
        2
1040
262.5370324838653
1040
227.6779171544549
1040
0.0
1040
262.6484684560646
1040
207.4093028189071
1040
0.0
1002
}
  0
LINE
  5
CF8
330
A
100
AcDbEntity
  8
KAKURE
100
AcDbLine
 10
253.0738488528336
 20
540.2201621616867
 30
0.0
 11
301.1884987966709
 21
540.2201621616868
 31
0.0
  0
LINE
  5
CF9
330
A
100
AcDbEntity
  8
KAKURE
100
AcDbLine
 10
244.7929327398759
 20
535.6201621616868
 30
0.0
 11
143.3690576618045
 21
535.6201621616868
 31
0.0
  0
LINE
  5
CFA
330
A
100
AcDbEntity
  8
KAKURE
100
AcDbLine
 10
253.0738488528336
 20
540.2201621616867
 30
0.0
 11
244.4901319954251
 21
537.9201621616868
 31
0.0
  0
LINE
  5
CFB
330
A
100
AcDbEntity
  8
KAKURE
100
AcDbLine
 10
253.3766495972844
 20
537.9201621616869
 30
0.0
 11
244.7929327398759
 21
535.6201621616868
 31
0.0
  0
LEADER
  5
D48
330
A
100
AcDbEntity
  8
HIKIDASI
  6
CONTINUOUS
100
AcDbLeader
  3
SUNPOU_2
 73
     0
 75
     1
 40
5.0
 41
21.06666666666666
 76
     3
 10
180.3690426618045
 20
145.0201541616871
 30
0.0
 10
151.5450476943746
 20
125.7782048757978
 30
0.0
 10
151.5450476943746
 20
120.7782048757978
 30
0.0
340
D49
211
0.0000000000000001
221
1.0
231
0.0
1001
ACAD
1000
DSTYLE
1002
{
1070
     5
1000
OPEN30
1070
    77
1070
     1
1070
   147
1040
1.0
1070
   342
1005
4B1
1002
}
1000
LEANOF
1010
0.0
1020
0.0
1030
0.0
1000
LEANOF
1010
0.0
1020
0.0
1030
0.0
  0
MTEXT
  5
D49
330
A
100
AcDbEntity
  8
HIKIDASI
  6
CONTINUOUS
 62
     6
100
AcDbMText
 10
149.5450476943746
 20
97.71153820913127
 30
0.0
 40
5.0
 41
0.0
 71
     7
 72
     1
  1
M6タップ
  7
SUNPOU
 11
0.0000000000000001
 21
1.0
 31
0.0
1001
ACAD
1000
MTEXTBEGIN
1070
    73
1070
     1
1070
    44
1040
1.0
1070
    74
1070
     0
1000
MTEXTEND
1000
MTEXTBEGIN
1070
    73
1070
     1
1070
    44
1040
1.0
1070
    74
1070
     0
1000
MTEXTEND
  0
LEADER
  5
D4A
330
A
100
AcDbEntity
  8
HIKIDASI
  6
CONTINUOUS
100
AcDbLeader
  3
SUNPOU_2
 76
     2
 10
180.3690376618043
 20
95.02015716168704
 30
0.0
 10
151.5450476943746
 20
125.7782048757978
 30
0.0
1001
ACAD
1000
DSTYLE
1002
{
1070
     5
1000
OPEN30
1070
   342
1005
4B1
1002
}
1000
LEANOF
1010
0.0
1020
0.0
1030
0.0
1000
LEANOF
1010
0.0
1020
0.0
1030
0.0
  0
LEADER
  5
D4B
330
A
100
AcDbEntity
  8
HIKIDASI
  6
CONTINUOUS
100
AcDbLeader
  3
SUNPOU_2
 73
     0
 74
     0
 75
     1
 40
5.0
 41
21.06666666666666
 76
     3
 10
180.3690376618044
 20
255.020152161687
 30
0.0
 10
153.2249947915543
 20
263.6391547027398
 30
0.0
 10
153.2249947915543
 20
268.6391547027398
 30
0.0
340
D4C
211
0.0000000000000001
221
1.0
231
0.0
1001
ACAD
1000
DSTYLE
1002
{
1070
     5
1000
OPEN30
1070
    77
1070
     1
1070
   147
1040
1.0
1070
   342
1005
4B1
1002
}
1000
LEANOF
1010
0.0
1020
0.0
1030
0.0
1000
LEANOF
1010
0.0
1020
0.0
1030
0.0
  0
MTEXT
  5
D4C
330
A
100
AcDbEntity
  8
HIKIDASI
  6
CONTINUOUS
 62
     6
100
AcDbMText
 10
148.7249947915543
 20
270.6391547027398
 30
0.0
 40
5.0
 41
0.0
 71
     4
 72
     1
  1
M8タップ
  7
SUNPOU
 11
0.0000000000000001
 21
1.0
 31
0.0
1001
ACAD
1000
MTEXTBEGIN
1070
    73
1070
     1
1070
    44
1040
1.0
1070
    74
1070
     0
1000
MTEXTEND
1000
MTEXTBEGIN
1070
    73
1070
     1
1070
    44
1040
1.0
1070
    74
1070
     0
1000
MTEXTEND
  0
MTEXT
  5
D4E
330
A
100
AcDbEntity
  8
HIKIDASI
  6
CONTINUOUS
 62
     6
100
AcDbMText
 10
148.3915947915543
 20
180.6391547027399
 30
0.0
 40
5.0
 41
0.0
 71
     4
 72
     1
  1
M8タップ
  7
SUNPOU
 11
0.0000000000000001
 21
1.0
 31
0.0
1001
ACAD
1000
MTEXTBEGIN
1070
    73
1070
     1
1070
    44
1040
1.0
1070
    74
1070
     0
1000
MTEXTEND
1000
MTEXTBEGIN
1070
    73
1070
     1
1070
    44
1040
1.0
1070
    74
1070
     0
1000
MTEXTEND
  0
LEADER
  5
D4F
330
A
100
AcDbEntity
  8
HIKIDASI
  6
CONTINUOUS
100
AcDbLeader
  3
SUNPOU_2
 73
     0
 74
     0
 75
     1
 40
5.0
 41
21.06666666666666
 76
     3
 10
180.0356376618045
 20
165.0201521616871
 30
0.0
 10
152.8915947915541
 20
173.6391547027398
 30
0.0
 10
152.8915947915541
 20
178.6391547027398
 30
0.0
340
D4E
211
0.0000000000000001
221
1.0
231
0.0
1001
ACAD
1000
DSTYLE
1002
{
1070
     5
1000
OPEN30
1070
    77
1070
     1
1070
   147
1040
1.0
1070
   342
1005
4B1
1002
}
1000
LEANOF
1010
0.0
1020
0.0
1030
0.0
1000
LEANOF
1010
0.0
1020
0.0
1030
0.0
  0
LEADER
  5
D50
330
A
100
AcDbEntity
  8
HIKIDASI
  6
CONTINUOUS
100
AcDbLeader
  3
SUNPOU_2
 73
     0
 74
     0
 75
     1
 40
5.0
 41
23.06666666666667
 76
     3
 10
239.3690476618045
 20
252.5201521616871
 30
0.0
 10
288.7351511040823
 20
284.9670419509608
 30
0.0
 10
288.7351511040823
 20
289.9670419509608
 30
0.0
340
D51
211
0.0000000000000001
221
1.0
231
0.0
1001
ACAD
1000
DSTYLE
1002
{
1070
     5
1000
OPEN30
1070
    77
1070
     1
1070
   147
1040
1.0
1070
   342
1005
4B1
1002
}
1000
LEANOF
1010
0.0
1020
0.0
1030
0.0
1000
LEANOF
1010
0.0
1020
0.0
1030
0.0
  0
MTEXT
  5
D51
330
A
100
AcDbEntity
  8
HIKIDASI
  6
CONTINUOUS
 62
     6
100
AcDbMText
 10
286.7351511040823
 20
291.9670419509608
 30
0.0
 40
5.0
 41
0.0
 71
     7
 72
     1
  1
M10タップ
  7
SUNPOU
 11
0.0000000000000001
 21
1.0
 31
0.0
1001
ACAD
1000
MTEXTBEGIN
1070
    73
1070
     1
1070
    44
1040
1.0
1070
    74
1070
     0
1000
MTEXTEND
1000
MTEXTBEGIN
1070
    73
1070
     1
1070
    44
1040
1.0
1070
    74
1070
     0
1000
MTEXTEND
  0
LEADER
  5
D53
330
A
100
AcDbEntity
  8
HIKIDASI
  6
CONTINUOUS
100
AcDbLeader
  3
SUNPOU_2
 73
     0
 75
     1
 40
5.0
 41
23.06666666666667
 76
     3
 10
239.3690476618045
 20
167.520152161687
 30
0.0
 10
280.4105293161496
 20
147.3133300565695
 30
0.0
 10
280.4105293161496
 20
142.3133300565695
 30
0.0
340
D54
211
0.0000000000000001
221
1.0
231
0.0
1001
ACAD
1000
DSTYLE
1002
{
1070
     5
1000
OPEN30
1070
    77
1070
     1
1070
   147
1040
1.0
1070
   342
1005
4B1
1002
}
1000
LEANOF
1010
0.0
1020
0.0
1030
0.0
1000
LEANOF
1010
0.0
1020
0.0
1030
0.0
  0
MTEXT
  5
D54
330
A
100
AcDbEntity
  8
HIKIDASI
  6
CONTINUOUS
 62
     6
100
AcDbMText
 10
275.9105293161496
 20
140.3133300565695
 30
0.0
 40
5.0
 41
0.0
 71
     6
 72
     1
  1
M10タップ
  7
SUNPOU
 11
0.0000000000000001
 21
1.0
 31
0.0
1001
ACAD
1000
MTEXTBEGIN
1070
    73
1070
     1
1070
    44
1040
1.0
1070
    74
1070
     0
1000
MTEXTEND
1000
MTEXTBEGIN
1070
    73
1070
     1
1070
    44
1040
1.0
1070
    74
1070
     0
1000
MTEXTEND
  0
LEADER
  5
D56
330
A
100
AcDbEntity
  8
HIKIDASI
  6
CONTINUOUS
100
AcDbLeader
  3
SUNPOU_2
 73
     0
 74
     0
 75
     1
 40
5.0
 41
23.06666666666667
 76
     3
 10
239.3690476618045
 20
435.5193221616871
 30
0.0
 10
287.4069566697966
 20
459.5526500340998
 30
0.0
 10
287.4069566697966
 20
464.5526500340998
 30
0.0
340
D57
211
0.0000000000000001
221
1.0
231
0.0
1001
ACAD
1000
DSTYLE
1002
{
1070
     5
1000
OPEN30
1070
    77
1070
     1
1070
   147
1040
1.0
1070
   342
1005
4B1
1002
}
1000
LEANOF
1010
0.0
1020
0.0
1030
0.0
1000
LEANOF
1010
0.0
1020
0.0
1030
0.0
  0
MTEXT
  5
D57
330
A
100
AcDbEntity
  8
HIKIDASI
  6
CONTINUOUS
 62
     6
100
AcDbMText
 10
285.4069566697966
 20
466.5526500340996
 30
0.0
 40
5.0
 41
0.0
 71
     7
 72
     1
  1
M10タップ
  7
SUNPOU
 11
0.0000000000000001
 21
1.0
 31
0.0
1001
ACAD
1000
MTEXTBEGIN
1070
    73
1070
     1
1070
    44
1040
1.0
1070
    74
1070
     0
1000
MTEXTEND
1000
MTEXTBEGIN
1070
    73
1070
     1
1070
    44
1040
1.0
1070
    74
1070
     0
1000
MTEXTEND
  0
LEADER
  5
D58
330
A
100
AcDbEntity
  8
HIKIDASI
  6
CONTINUOUS
100
AcDbLeader
  3
SUNPOU_2
 73
     0
 75
     1
 40
5.0
 41
23.06666666666667
 76
     3
 10
239.3690476618045
 20
345.5193121616871
 30
0.0
 10
279.5720631073168
 20
337.2143668665496
 30
0.0
 10
279.5720631073168
 20
332.2143668665495
 30
0.0
340
D59
211
0.0000000000000001
221
1.0
231
0.0
1001
ACAD
1000
DSTYLE
1002
{
1070
     5
1000
OPEN30
1070
    77
1070
     1
1070
   147
1040
1.0
1070
   342
1005
4B1
1002
}
1000
LEANOF
1010
0.0
1020
0.0
1030
0.0
1000
LEANOF
1010
0.0
1020
0.0
1030
0.0
  0
MTEXT
  5
D59
330
A
100
AcDbEntity
  8
HIKIDASI
  6
CONTINUOUS
 62
     6
100
AcDbMText
 10
275.0720631073168
 20
330.2143668665495
 30
0.0
 40
5.0
 41
0.0
 71
     6
 72
     1
  1
M10タップ
  7
SUNPOU
 11
0.0000000000000001
 21
1.0
 31
0.0
1001
ACAD
1000
MTEXTBEGIN
1070
    73
1070
     1
1070
    44
1040
1.0
1070
    74
1070
     0
1000
MTEXTEND
1000
MTEXTBEGIN
1070
    73
1070
     1
1070
    44
1040
1.0
1070
    74
1070
     0
1000
MTEXTEND
  0
LINE
  5
D63
330
A
100
AcDbEntity
  8
KAKURE
100
AcDbLine
 10
253.3766495972844
 20
537.9201621616869
 30
0.0
 11
264.7690576618046
 21
537.9201621616869
 31
0.0
  0
MTEXT
  5
DCC
330
A
100
AcDbEntity
  8
MOJI
100
AcDbMText
 10
359.9999999999968
 20
28.5
 30
0.0
 40
7.0
 41
49.99999999999994
 71
     5
 72
     1
  1
よこ断面図　
  7
0_80
1001
ACAD
1000
MTEXTBEGIN
1070
    73
1070
     1
1070
    44
1040
1.0
1070
    74
1070
     0
1000
MTEXTEND
1000
MTEXTBEGIN
1070
    73
1070
     1
1070
    44
1040
1.0
1070
    74
1070
     0
1000
MTEXTEND
  0
MTEXT
  5
DCD
330
A
100
AcDbEntity
  8
MOJI
100
AcDbMText
 10
309.9999999999965
 20
29.00000000000023
 30
0.0
 40
7.0
 41
50.0
 71
     5
 72
     1
  1
図番１４－３
  7
0_80
1001
ACAD
1000
MTEXTBEGIN
1070
    73
1070
     1
1070
    44
1040
1.0
1070
    74
1070
     0
1000
MTEXTEND
1000
MTEXTBEGIN
1070
    73
1070
     1
1070
    44
1040
1.0
1070
    74
1070
     0
1000
MTEXTEND
  0
MTEXT
  5
DCE
330
A
100
AcDbEntity
  8
MOJI
100
AcDbMText
 10
254.9999999999997
 20
29.0
 30
0.0
 40
7.0
 41
60.0
 71
     5
 72
     1
  1
片引き又は両引き
  7
0_8
1001
ACAD
1000
MTEXTBEGIN
1070
    73
1070
     1
1070
    44
1040
1.0
1070
    74
1070
     0
1000
MTEXTEND
1000
MTEXTBEGIN
1070
    73
1070
     1
1070
    44
1040
1.0
1070
    74
1070
     0
1000
MTEXTEND
  0
POLYLINE
  5
DCF
330
A
100
AcDbEntity
  8
SAISEN
100
AcDb2dPolyline
 66
     1
 10
0.0
 20
0.0
 30
0.0
 70
     1
  0
VERTEX
  5
E2B
330
DCF
100
AcDbEntity
  8
SAISEN
100
AcDbVertex
100
AcDb2dVertex
 10
34.99999999999693
 20
17.0
 30
0.0
  0
VERTEX
  5
E2C
330
DCF
100
AcDbEntity
  8
SAISEN
100
AcDbVertex
100
AcDb2dVertex
 10
384.9999999999969
 20
17.0
 30
0.0
  0
VERTEX
  5
E2D
330
DCF
100
AcDbEntity
  8
SAISEN
100
AcDbVertex
100
AcDb2dVertex
 10
384.9999999999969
 20
41.00000000000022
 30
0.0
  0
VERTEX
  5
E2E
330
DCF
100
AcDbEntity
  8
SAISEN
100
AcDbVertex
100
AcDb2dVertex
 10
34.99999999999693
 20
41.00000000000022
 30
0.0
  0
SEQEND
  5
E2F
330
DCF
100
AcDbEntity
  8
SAISEN
  0
MTEXT
  5
DD0
330
A
100
AcDbEntity
  8
MOJI
100
AcDbMText
 10
184.9999999999969
 20
29.0
 30
0.0
 40
7.0
 41
80.0
 71
     5
 72
     1
  1
ＴＦ－１２００Ｓ\PＴＦ－１２００Ｄ
  7
0_8
1001
ACAD
1000
MTEXTBEGIN
1070
    73
1070
     1
1070
    44
1040
1.0
1070
    74
1070
     0
1000
MTEXTEND
1000
MTEXTBEGIN
1070
    73
1070
     1
1070
    44
1040
1.0
1070
    74
1070
     0
1000
MTEXTEND
  0
MTEXT
  5
DD1
330
A
100
AcDbEntity
  8
MOJI
100
AcDbMText
 10
89.99999999999692
 20
29.0
 30
0.0
 40
7.0
 41
110.0
 71
     5
 72
     1
  1
フルオープナー(ステンレス框ドア)
  7
0_8
1001
ACAD
1000
MTEXTBEGIN
1070
    73
1070
     1
1070
    44
1040
1.0
1070
    74
1070
     0
1000
MTEXTEND
1000
MTEXTBEGIN
1070
    73
1070
     1
1070
    44
1040
1.0
1070
    74
1070
     0
1000
MTEXTEND
  0
LINE
  5
DD2
330
A
100
AcDbEntity
  8
SAISEN
100
AcDbLine
 10
144.9999999999969
 20
41.00000000000022
 30
0.0
 11
144.9999999999969
 21
17.0
 31
0.0
  0
LINE
  5
DD3
330
A
100
AcDbEntity
  8
SAISEN
100
AcDbLine
 10
224.9999999999969
 20
41.00000000000022
 30
0.0
 11
224.9999999999969
 21
17.0
 31
0.0
  0
LINE
  5
DD4
330
A
100
AcDbEntity
  8
SAISEN
100
AcDbLine
 10
284.9999999999969
 20
41.00000000000022
 30
0.0
 11
284.9999999999969
 21
17.0
 31
0.0
  0
CIRCLE
  5
DDD
330
A
100
AcDbEntity
  8
SAISEN
100
AcDbCircle
 10
391.0976380784291
 20
49.54302641223165
 30
0.0
 40
5.0
  0
TEXT
  5
DDE
330
A
100
AcDbEntity
  8
MOJI
100
AcDbText
 10
388.0488190392129
 20
45.27151320611595
 30
0.0
 40
8.0
  1
Ｓ
 41
0.8
  7
0_8
 11
388.0488190392129
 21
53.27151320611595
 31
0.0
100
AcDbText
 73
     3
  0
VIEWPORT
  5
4CA
102
{ACAD_XDICTIONARY
360
E0B
102
}
330
B
100
AcDbEntity
 67
     1
  8
0
100
AcDbViewport
 10
198.0508299538852
 20
285.1874487354477
 30
0.0
 40
1080.347564134148
 41
628.3535021666721
 68
     1
 69
     1
1001
ACAD
1000
MVIEW
1002
{
1070
    16
1010
0.0
1020
0.0
1030
0.0
1010
0.0
1020
0.0
1030
1.0
1040
0.0
1040
628.3535021666721
1040
198.0508299538852
1040
285.1874487354477
1040
50.0
1040
0.0
1040
0.0
1070
     0
1070
   100
1070
     1
1070
     1
1070
     0
1070
     0
1070
     0
1070
     0
1040
0.0
1040
0.0
1040
0.0
1040
10.0
1040
10.0
1040
10.0
1040
10.0
1070
     0
1002
{
1002
}
1002
}
  0
VIEWPORT
  5
DF5
102
{ACAD_XDICTIONARY
360
E11
102
}
330
B
100
AcDbEntity
 67
     1
  8
DEFPOINTS
100
AcDbViewport
 10
198.0508309076477
 20
285.1874477816852
 30
0.0
 40
396.4883172119752
 41
570.409736121624
 68
     2
 69
     2
1001
ACAD
1000
MVIEW
1002
{
1070
    16
1010
0.0
1020
0.0
1030
0.0
1010
0.0
1020
0.0
1030
1.0
1040
0.0
1040
570.409736121624
1040
210.0
1040
297.0
1040
50.0
1040
0.0
1040
0.0
1070
     0
1070
   100
1070
     1
1070
     1
1070
     0
1070
     0
1070
     0
1070
     0
1040
0.0
1040
0.0
1040
0.0
1040
1.0
1040
1.0
1040
0.0
1040
0.0
1070
     0
1002
{
1002
}
1002
}
  0
ENDSEC
  0
SECTION
  2
OBJECTS
  0
DICTIONARY
  5
19
330
0
100
AcDbDictionary
  3
ACAD_COLOR
350
DB0
  3
ACAD_GROUP
350
1A
  3
ACAD_LAYOUT
350
376
  3
ACAD_MATERIAL
350
DAF
  3
ACAD_MLINESTYLE
350
1B
  3
ACAD_PLOTSETTINGS
350
377
  3
ACADDIM
350
D52
  3
ASE_INDEX_DICTIONARY
350
DB8
1001
ACAD
1000
TREAT_AS_HARD
1070
     0
1000
TREAT_AS_HARD
1070
     0
  0
DICTIONARY
  5
B41
330
2
100
AcDbDictionary
  3
ACAD_LAYERFILTERS
350
B42
  3
ACAD_LAYERSTATES
350
CFE
1001
ACAD
1000
TREAT_AS_HARD
1070
     1
1000
TREAT_AS_HARD
1070
     1
  0
DICTIONARY
  5
D78
330
A
100
AcDbDictionary
  3
ACAD_LAYOUTSELFREF
350
E19
1001
ACAD
1000
TREAT_AS_HARD
1070
     1
  0
DICTIONARY
  5
D7A
330
B
100
AcDbDictionary
  3
ACAD_LAYOUTSELFREF
350
E1A
1001
ACAD
1000
TREAT_AS_HARD
1070
     1
  0
DICTIONARY
  5
E0B
330
4CA
100
AcDbDictionary
  3
ACAD_XREC_ROUNDTRIP
350
E0C
1001
ACAD
1000
TREAT_AS_HARD
1070
     1
  0
DICTIONARY
  5
E11
330
DF5
100
AcDbDictionary
  3
ACAD_XREC_ROUNDTRIP
350
E12
1001
ACAD
1000
TREAT_AS_HARD
1070
     1
  0
DICTIONARY
  5
DB0
102
{ACAD_REACTORS
330
19
102
}
330
19
100
AcDbDictionary
1001
ACAD
1000
TREAT_AS_HARD
1070
     0
  0
DICTIONARY
  5
1A
102
{ACAD_REACTORS
330
19
102
}
330
19
100
AcDbDictionary
1001
ACAD
1000
TREAT_AS_HARD
1070
     0
1000
TREAT_AS_HARD
1070
     0
  0
DICTIONARY
  5
376
102
{ACAD_REACTORS
330
19
102
}
330
19
100
AcDbDictionary
1001
ACAD
1000
TREAT_AS_HARD
1070
     0
1000
TREAT_AS_HARD
1070
     0
  0
DICTIONARY
  5
DAF
102
{ACAD_REACTORS
330
19
102
}
330
19
100
AcDbDictionary
1001
ACAD
1000
TREAT_AS_HARD
1070
     0
  0
DICTIONARY
  5
1B
102
{ACAD_REACTORS
330
19
102
}
330
19
100
AcDbDictionary
  3
STANDARD
350
1C
1001
ACAD
1000
TREAT_AS_HARD
1070
     0
1000
TREAT_AS_HARD
1070
     0
  0
DICTIONARY
  5
377
102
{ACAD_REACTORS
330
19
102
}
330
19
100
AcDbDictionary
1001
ACAD
1000
TREAT_AS_HARD
1070
     0
1000
TREAT_AS_HARD
1070
     0
  0
XRECORD
  5
D52
102
{ACAD_REACTORS
330
19
102
}
330
19
100
AcDbXrecord
 90
   990106
  3

 60
     0
 61
     0
 62
     4
 63
     4
 64
     1
 65
     0
 66
     0
 67
     3
 68
     1
 69
     1
 70
     0
 71
     0
 72
     0
 40
0.0
170
     2
340
D54
  0
DICTIONARY
  5
DB8
102
{ACAD_REACTORS
330
19
102
}
330
19
100
AcDbDictionary
  3
ASEBLOCKHIERARCHYINDEXRECORD
350
DBA
1001
DCO15
1040
1508735886.203
1001
ACAD
1000
TREAT_AS_HARD
1070
     0
  0
DICTIONARY
  5
B42
102
{ACAD_REACTORS
330
B41
102
}
330
B41
100
AcDbDictionary
  3
HIHYOJI
350
B43
  3
TUIKA
350
C51
1001
ACAD
1000
TREAT_AS_HARD
1070
     1
1000
TREAT_AS_HARD
1070
     0
  0
DICTIONARY
  5
CFE
102
{ACAD_REACTORS
330
B41
102
}
330
B41
100
AcDbDictionary
1001
ACAD
1000
TREAT_AS_HARD
1070
     0
1000
TREAT_AS_HARD
1070
     0
  0
XRECORD
  5
E19
102
{ACAD_REACTORS
330
D78
102
}
330
D78
100
AcDbXrecord
340
A
  0
XRECORD
  5
E1A
102
{ACAD_REACTORS
330
D7A
102
}
330
D7A
100
AcDbXrecord
340
B
  0
XRECORD
  5
E0C
102
{ACAD_REACTORS
330
E0B
102
}
330
E0B
100
AcDbXrecord
102
SHADEPLOT
 70
     0
  0
XRECORD
  5
E12
102
{ACAD_REACTORS
330
E11
102
}
330
E11
100
AcDbXrecord
102
SHADEPLOT
 70
     0
  0
MLINESTYLE
  5
1C
102
{ACAD_REACTORS
330
1B
102
}
330
1B
100
AcDbMlineStyle
  2
STANDARD
 70
     0
  3

 62
     0
 51
90.00000000000019
 52
90.00000000000019
 71
     2
 49
0.5
 62
   256
  6
BYLAYER
 49
-0.5
 62
   256
  6
BYLAYER
  0
XRECORD
  5
DBA
102
{ACAD_REACTORS
330
DB8
102
}
330
DB8
100
AcDbXrecord
330
CE2
330
BC4
330
BC5
330
D14
330
D15
330
D0B
330
D0C
330
BA8
330
BA9
330
C16
330
C17
330
D2F
330
D30
330
D1D
330
D1E
330
D26
330
D27
330
B7C
330
B7D
330
C04
330
C05
330
BF9
330
BFA
330
B73
330
B74
330
BCD
330
BCE
330
B6A
330
B6B
330
C3A
330
C3B
330
C31
330
C32
330
B61
330
B62
330
B55
330
B56
330
C28
330
C27
330
BDD
330
BDE
330
C0C
330
C0D
330
C1E
330
C1F
330
B8D
330
B8E
330
BB1
330
BB2
330
B9F
330
BA0
330
BBA
330
BBB
330
D41
330
D42
330
D38
330
D39
  0
XRECORD
  5
B43
102
{ACAD_REACTORS
330
B42
102
}
330
B42
100
AcDbXrecord
  1
hihyoji
  1
08,09,*_h
  1
*
  1
*
 70
     0
  1
*
  1
*
  0
XRECORD
  5
C51
102
{ACAD_REACTORS
330
B42
102
}
330
B42
100
AcDbXrecord
  1
tuika
  1
*_t
  1
*
  1
*
 70
     0
  1
*
  1
*
  0
ENDSEC
  0
EOF
