  0
SECTION
  2
HEADER
  9
$ACADVER
  1
AC1012
  9
$DWGCODEPAGE
  3
dos932
  9
$INSBASE
 10
0.0
 20
0.0
 30
0.0
  9
$EXTMIN
 10
0.0
 20
0.0
 30
0.0
  9
$EXTMAX
 10
594.0
 20
841.0
 30
6.976169102290099
  9
$LIMMIN
 10
0.0
 20
0.0
  9
$LIMMAX
 10
594.0
 20
841.0
  9
$ORTHOMODE
 70
     0
  9
$REGENMODE
 70
     1
  9
$FILLMODE
 70
     1
  9
$QTEXTMODE
 70
     0
  9
$MIRRTEXT
 70
     1
  9
$DRAGMODE
 70
     2
  9
$LTSCALE
 40
1.0
  9
$OSMODE
 70
    37
  9
$ATTMODE
 70
     1
  9
$TEXTSIZE
 40
2.5
  9
$TRACEWID
 40
0.05
  9
$TEXTSTYLE
  7
0_8
  9
$CLAYER
  8
SAISEN
  9
$CELTYPE
  6
BYLAYER
  9
$CECOLOR
 62
   256
  9
$CELTSCALE
 40
1.0
  9
$DELOBJ
 70
     1
  9
$DISPSILH
 70
     0
  9
$DIMSCALE
 40
2.0
  9
$DIMASZ
 40
2.5
  9
$DIMEXO
 40
1.5
  9
$DIMDLI
 40
0.0
  9
$DIMRND
 40
0.0
  9
$DIMDLE
 40
0.0
  9
$DIMEXE
 40
1.0
  9
$DIMTP
 40
0.0
  9
$DIMTM
 40
0.0
  9
$DIMTXT
 40
2.5
  9
$DIMCEN
 40
0.0
  9
$DIMTSZ
 40
0.0
  9
$DIMTOL
 70
     0
  9
$DIMLIM
 70
     0
  9
$DIMTIH
 70
     0
  9
$DIMTOH
 70
     0
  9
$DIMSE1
 70
     0
  9
$DIMSE2
 70
     0
  9
$DIMTAD
 70
     1
  9
$DIMZIN
 70
     8
  9
$DIMBLK
  1
OPEN30
  9
$DIMASO
 70
     1
  9
$DIMSHO
 70
     1
  9
$DIMPOST
  1

  9
$DIMAPOST
  1

  9
$DIMALT
 70
     0
  9
$DIMALTD
 70
     2
  9
$DIMALTF
 40
25.4
  9
$DIMLFAC
 40
1.0
  9
$DIMTOFL
 70
     1
  9
$DIMTVP
 40
0.0
  9
$DIMTIX
 70
     0
  9
$DIMSOXD
 70
     0
  9
$DIMSAH
 70
     0
  9
$DIMBLK1
  1

  9
$DIMBLK2
  1

  9
$DIMSTYLE
  2
SUNPOU_2
  9
$DIMCLRD
 70
   256
  9
$DIMCLRE
 70
   256
  9
$DIMCLRT
 70
   256
  9
$DIMTFAC
 40
1.0
  9
$DIMGAP
 40
1.0
  9
$DIMJUST
 70
     0
  9
$DIMSD1
 70
     0
  9
$DIMSD2
 70
     0
  9
$DIMTOLJ
 70
     1
  9
$DIMTZIN
 70
     0
  9
$DIMALTZ
 70
     0
  9
$DIMALTTZ
 70
     0
  9
$DIMFIT
 70
     3
  9
$DIMUPT
 70
     0
  9
$DIMUNIT
 70
     2
  9
$DIMDEC
 70
     1
  9
$DIMTDEC
 70
     1
  9
$DIMALTU
 70
     2
  9
$DIMALTTD
 70
     2
  9
$DIMTXSTY
  7
SUNPOU
  9
$DIMAUNIT
 70
     0
  9
$LUNITS
 70
     2
  9
$LUPREC
 70
     4
  9
$SKETCHINC
 40
0.1
  9
$FILLETRAD
 40
0.0
  9
$AUNITS
 70
     0
  9
$AUPREC
 70
     0
  9
$MENU
  1
acad
  9
$ELEVATION
 40
0.0
  9
$PELEVATION
 40
0.0
  9
$THICKNESS
 40
0.0
  9
$LIMCHECK
 70
     0
  9
$BLIPMODE
 70
     0
  9
$CHAMFERA
 40
0.0
  9
$CHAMFERB
 40
0.0
  9
$CHAMFERC
 40
0.0
  9
$CHAMFERD
 40
0.0
  9
$SKPOLY
 70
     0
  9
$TDCREATE
 40
2444972.375000000
  9
$TDUPDATE
 40
2453266.405441076
  9
$TDINDWG
 40
0.5288597569
  9
$TDUSRTIMER
 40
0.5288597569
  9
$USRTIMER
 70
     1
  9
$ANGBASE
 50
0.0
  9
$ANGDIR
 70
     0
  9
$PDMODE
 70
     0
  9
$PDSIZE
 40
1.0
  9
$PLINEWID
 40
0.0
  9
$COORDS
 70
     1
  9
$SPLFRAME
 70
     0
  9
$SPLINETYPE
 70
     6
  9
$SPLINESEGS
 70
     8
  9
$ATTDIA
 70
     0
  9
$ATTREQ
 70
     1
  9
$HANDLING
 70
-16383
  9
$HANDSEED
  5
2065
  9
$SURFTAB1
 70
     6
  9
$SURFTAB2
 70
     6
  9
$SURFTYPE
 70
     6
  9
$SURFU
 70
     6
  9
$SURFV
 70
     6
  9
$UCSNAME
  2

  9
$UCSORG
 10
0.0
 20
0.0
 30
0.0
  9
$UCSXDIR
 10
1.0
 20
0.0
 30
0.0
  9
$UCSYDIR
 10
0.0
 20
1.0
 30
0.0
  9
$PUCSNAME
  2

  9
$PUCSORG
 10
0.0
 20
0.0
 30
0.0
  9
$PUCSXDIR
 10
1.0
 20
0.0
 30
0.0
  9
$PUCSYDIR
 10
0.0
 20
1.0
 30
0.0
  9
$USERI1
 70
     0
  9
$USERI2
 70
     0
  9
$USERI3
 70
     0
  9
$USERI4
 70
     0
  9
$USERI5
 70
     0
  9
$USERR1
 40
0.0
  9
$USERR2
 40
0.0
  9
$USERR3
 40
0.0
  9
$USERR4
 40
0.0
  9
$USERR5
 40
0.0
  9
$WORLDVIEW
 70
     1
  9
$SHADEDGE
 70
     3
  9
$SHADEDIF
 70
    70
  9
$TILEMODE
 70
     1
  9
$MAXACTVP
 70
    16
  9
$PINSBASE
 10
0.0
 20
0.0
 30
0.0
  9
$PLIMCHECK
 70
     0
  9
$PEXTMIN
 10
-0.0199665812376679
 20
-0.0261304186901725
 30
-0.0015258207003583
  9
$PEXTMAX
 10
594.1825074907353
 20
855.5884737637461
 30
0.0000000349246037
  9
$PLIMMIN
 10
-17.91287014236687
 20
-17.64900329097213
  9
$PLIMMAX
 10
612.0653600040226
 20
873.2113494973155
  9
$UNITMODE
 70
     0
  9
$VISRETAIN
 70
     0
  9
$PLINEGEN
 70
     1
  9
$PSLTSCALE
 70
     0
  9
$TREEDEPTH
 70
  3020
  9
$PICKSTYLE
 70
     1
  9
$CMLSTYLE
  2
STANDARD
  9
$CMLJUST
 70
     0
  9
$CMLSCALE
 40
1.0
  9
$SAVEIMAGES
 70
     1
  0
ENDSEC
  0
SECTION
  2
CLASSES
  0
CLASS
  1
LWPOLYLINE
  2
AcDbPolyline
  3
AutoCAD 2000
 90
    32768
280
     0
281
     1
  0
CLASS
  1
IMAGE
  2
AcDbRasterImage
  3
ISM
 90
    32895
280
     0
281
     1
  0
CLASS
  1
OLE2FRAME
  2
AcDbOle2Frame
  3
AutoCAD 2000
 90
    32768
280
     0
281
     1
  0
CLASS
  1
HATCH
  2
AcDbHatch
  3
AutoCAD 2000
 90
    32768
280
     0
281
     1
  0
CLASS
  1
DICTIONARYVAR
  2
AcDbDictionaryVar
  3
AutoCAD 2000
 90
    32768
280
     0
281
     0
  0
CLASS
  1
RASTERVARIABLES
  2
AcDbRasterVariables
  3
ISM
 90
    32768
280
     0
281
     0
  0
CLASS
  1
IMAGEDEF
  2
AcDbRasterImageDef
  3
ISM
 90
    32768
280
     0
281
     0
  0
CLASS
  1
IMAGEDEF_REACTOR
  2
AcDbRasterImageDefReactor
  3
ISM
 90
    32769
280
     0
281
     0
  0
CLASS
  1
IDBUFFER
  2
AcDbIdBuffer
  3
AutoCAD 2000
 90
    32768
280
     0
281
     0
  0
CLASS
  1
SPATIAL_FILTER
  2
AcDbSpatialFilter
  3
AutoCAD 2000
 90
    32768
280
     0
281
     0
  0
CLASS
  1
XRECORD
  2
AcDbXrecord
  3
AutoCAD 2000
 90
    32768
280
     0
281
     0
  0
CLASS
  1
SORTENTSTABLE
  2
AcDbSortentsTable
  3
AutoCAD 2000
 90
    32768
280
     0
281
     0
  0
CLASS
  1
LAYER_INDEX
  2
AcDbLayerIndex
  3
AutoCAD 2000
 90
    32768
280
     0
281
     0
  0
CLASS
  1
SPATIAL_INDEX
  2
AcDbSpatialIndex
  3
AutoCAD 2000
 90
    32768
280
     0
281
     0
  0
CLASS
  1
OBJECT_PTR
  2
CAseDLPNTableRecord
  3
ASE-LPNTableRecord
 90
    32769
280
     0
281
     0
  0
CLASS
  1
ACDBDICTIONARYWDFLT
  2
AcDbDictionaryWithDefault
  3
AutoCAD 2000
 90
    32768
280
     0
281
     0
  0
CLASS
  1
ACDBPLACEHOLDER
  2
AcDbPlaceHolder
  3
AutoCAD 2000
 90
    32768
280
     0
281
     0
  0
CLASS
  1
LAYOUT
  2
AcDbLayout
  3
AutoCAD 2000
 90
    32768
280
     0
281
     0
  0
CLASS
  1
LONG_TRANSACTION
  2
AcDbLongTransaction
  3
AutoCAD 2000
 90
    32768
280
     0
281
     0
  0
CLASS
  1
LWPOLYLINE
  2
AcDbPolyline
  3
AutoCAD 2000
 90
    32768
280
     0
281
     1
  0
CLASS
  1
HATCH
  2
AcDbHatch
  3
AutoCAD 2000
 90
    32768
280
     0
281
     1
  0
CLASS
  1
XRECORD
  2
AcDbXrecord
  3
AutoCAD 2000
 90
    32768
280
     0
281
     0
  0
CLASS
  1
LONG_TRANSACTION
  2
AcDbLongTransaction
  3
AutoCAD 2000
 90
    32768
280
     0
281
     0
  0
CLASS
  1
LWPOLYLINE
  2
AcDbPolyline
  3
AutoCAD 2000
 90
    32768
280
     0
281
     1
  0
CLASS
  1
HATCH
  2
AcDbHatch
  3
AutoCAD 2000
 90
    32768
280
     0
281
     1
  0
CLASS
  1
XRECORD
  2
AcDbXrecord
  3
AutoCAD 2000
 90
    32768
280
     0
281
     0
  0
ENDSEC
  0
SECTION
  2
TABLES
  0
TABLE
  2
VPORT
  5
7
330
0
100
AcDbSymbolTable
 70
     2
  0
VPORT
  5
2043
330
7
100
AcDbSymbolTableRecord
100
AcDbViewportTableRecord
  2
*ACTIVE
 70
     0
 10
0.0
 20
0.0
 11
1.0
 21
1.0
 12
322.98680776555
 22
420.5000039163311
 13
0.0
 23
0.0
 14
1.0
 24
1.0
 15
0.0
 25
0.0
 16
0.0
 26
0.0
 36
1.0
 17
0.0
 27
0.0
 37
0.0
 40
850.9940327126864
 41
1.780442804428044
 42
50.0
 43
0.0
 44
0.0
 50
0.0
 51
0.0
 71
     0
 72
   100
 73
     1
 74
     1
 75
     0
 76
     0
 77
     0
 78
     0
  0
ENDTAB
  0
TABLE
  2
LTYPE
  5
4
330
0
100
AcDbSymbolTable
 70
     4
  0
LTYPE
  5
11
330
4
100
AcDbSymbolTableRecord
100
AcDbLinetypeTableRecord
  2
BYBLOCK
 70
     0
  3

 72
    65
 73
     0
 40
0.0
  0
LTYPE
  5
12
330
4
100
AcDbSymbolTableRecord
100
AcDbLinetypeTableRecord
  2
BYLAYER
 70
     0
  3

 72
    65
 73
     0
 40
0.0
  0
LTYPE
  5
13
330
4
100
AcDbSymbolTableRecord
100
AcDbLinetypeTableRecord
  2
CONTINUOUS
 70
     0
  3
Solid line
 72
    65
 73
     0
 40
0.0
  0
LTYPE
  5
70D
330
4
100
AcDbSymbolTableRecord
100
AcDbLinetypeTableRecord
  2
CENTER2
 70
     0
  3
Center (.5x) ___ _ ___ _ ___ _ ___ _ ___ _ ___
 72
    65
 73
     4
 40
28.57499999999999
 49
19.05
 74
     0
 49
-3.174999999999998
 74
     0
 49
3.174999999999998
 74
     0
 49
-3.174999999999998
 74
     0
  0
LTYPE
  5
710
330
4
100
AcDbSymbolTableRecord
100
AcDbLinetypeTableRecord
  2
DASHED2
 70
     0
  3
Dashed (.5x) _ _ _ _ _ _ _ _ _ _ _ _ _ _ _ _ _
 72
    65
 73
     2
 40
9.524999999999996
 49
6.349999999999998
 74
     0
 49
-3.174999999999998
 74
     0
  0
LTYPE
  5
713
330
4
100
AcDbSymbolTableRecord
100
AcDbLinetypeTableRecord
  2
PHANTOM2
 70
     0
  3
Phantom (.5x) ___ _ _ ___ _ _ ___ _ _ ___ _ _
 72
    65
 73
     6
 40
31.75
 49
15.875
 74
     0
 49
-3.174999999999998
 74
     0
 49
3.174999999999998
 74
     0
 49
-3.174999999999998
 74
     0
 49
3.174999999999998
 74
     0
 49
-3.174999999999998
 74
     0
  0
ENDTAB
  0
TABLE
  2
LAYER
  5
2
102
{ACAD_XDICTIONARY
360
1E89
102
}
330
0
100
AcDbSymbolTable
 70
    13
  0
LAYER
  5
14
330
2
100
AcDbSymbolTableRecord
100
AcDbLayerTableRecord
  2
0
 70
     0
 62
     7
  6
CONTINUOUS
  0
LAYER
  5
704
330
2
100
AcDbSymbolTableRecord
100
AcDbLayerTableRecord
  2
DEFPOINTS
 70
     0
 62
     7
  6
CONTINUOUS
  0
LAYER
  5
706
330
2
100
AcDbSymbolTableRecord
100
AcDbLayerTableRecord
  2
02
 70
     0
 62
     2
  6
CONTINUOUS
  0
LAYER
  5
707
330
2
100
AcDbSymbolTableRecord
100
AcDbLayerTableRecord
  2
03
 70
     0
 62
     3
  6
CONTINUOUS
  0
LAYER
  5
708
330
2
100
AcDbSymbolTableRecord
100
AcDbLayerTableRecord
  2
04
 70
     0
 62
     4
  6
CONTINUOUS
  0
LAYER
  5
70A
330
2
100
AcDbSymbolTableRecord
100
AcDbLayerTableRecord
  2
06
 70
     0
 62
     6
  6
CONTINUOUS
  0
LAYER
  5
70C
330
2
100
AcDbSymbolTableRecord
100
AcDbLayerTableRecord
  2
CHUSIN
 70
     0
 62
     6
  6
CENTER2
  0
LAYER
  5
70E
330
2
100
AcDbSymbolTableRecord
100
AcDbLayerTableRecord
  2
HIKIDASI
 70
     0
 62
     6
  6
CONTINUOUS
  0
LAYER
  5
70F
330
2
100
AcDbSymbolTableRecord
100
AcDbLayerTableRecord
  2
KAKURE
 70
     0
 62
     6
  6
DASHED2
  0
LAYER
  5
711
330
2
100
AcDbSymbolTableRecord
100
AcDbLayerTableRecord
  2
MOJI
 70
     0
 62
     3
  6
CONTINUOUS
  0
LAYER
  5
712
330
2
100
AcDbSymbolTableRecord
100
AcDbLayerTableRecord
  2
SOUZOU
 70
     0
 62
     6
  6
PHANTOM2
  0
LAYER
  5
714
330
2
100
AcDbSymbolTableRecord
100
AcDbLayerTableRecord
  2
SUNPOU
 70
     0
 62
     6
  6
CONTINUOUS
  0
LAYER
  5
1F52
330
2
100
AcDbSymbolTableRecord
100
AcDbLayerTableRecord
  2
SAISEN
 70
     0
 62
     3
  6
CONTINUOUS
  0
ENDTAB
  0
TABLE
  2
STYLE
  5
3
330
0
100
AcDbSymbolTable
 70
     4
  0
STYLE
  5
17
330
3
100
AcDbSymbolTableRecord
100
AcDbTextStyleTableRecord
  2
STANDARD
 70
     0
 40
0.0
 41
0.8
 50
0.0
 71
     0
 42
9.0
  3
txt.shx
  4
bigfont.shx
  0
STYLE
  5
716
330
3
100
AcDbSymbolTableRecord
100
AcDbTextStyleTableRecord
  2
SUNPOU
 70
     0
 40
0.0
 41
0.8
 50
0.0
 71
     0
 42
0.2
  3
txt.shx
  4
extfont.shx
  0
STYLE
  5
71E
330
3
100
AcDbSymbolTableRecord
100
AcDbTextStyleTableRecord
  2
0_8
 70
     0
 40
0.0
 41
0.8
 50
0.0
 71
     0
 42
2.5
  3
txt.shx
  4
extfont.shx
  0
STYLE
  5
1FD7
330
3
100
AcDbSymbolTableRecord
100
AcDbTextStyleTableRecord
  2
0_80
 70
     0
 40
0.0
 41
0.8
 50
0.0
 71
     0
 42
7.0
  3
txt.shx
  4
extfont.shx
  0
ENDTAB
  0
TABLE
  2
VIEW
  5
5
330
0
100
AcDbSymbolTable
 70
     1
  0
VIEW
  5
135
330
5
100
AcDbSymbolTableRecord
100
AcDbViewTableRecord
  2
QQQQ
 70
     0
 40
920.2737126537787
 10
-8.398916200728931
 20
5.086555360281123
 41
611.6142533097622
 11
0.0
 21
0.0
 31
1.0
 12
100.0
 22
100.0
 32
0.0
 42
50.0
 43
0.0
 44
0.0
 50
0.0
 71
     0
  0
ENDTAB
  0
TABLE
  2
UCS
  5
6
330
0
100
AcDbSymbolTable
 70
     0
  0
ENDTAB
  0
TABLE
  2
APPID
  5
8
330
0
100
AcDbSymbolTable
 70
     3
  0
APPID
  5
16
330
8
100
AcDbSymbolTableRecord
100
AcDbRegAppTableRecord
  2
ACAD
 70
     0
  0
APPID
  5
1FA2
330
8
100
AcDbSymbolTableRecord
100
AcDbRegAppTableRecord
  2
CONTENTBLOCKICON
 70
     0
  0
APPID
  5
1FD4
330
8
100
AcDbSymbolTableRecord
100
AcDbRegAppTableRecord
  2
DCO15
 70
     0
  0
ENDTAB
  0
TABLE
  2
DIMSTYLE
  5
9
330
0
100
AcDbSymbolTable
 70
     4
  0
DIMSTYLE
105
18
330
9
100
AcDbSymbolTableRecord
100
AcDbDimStyleTableRecord
  2
STANDARD
 70
     0
  3

  4

  5

  6

  7

 40
1.0
 41
0.18
 42
0.0625
 43
0.38
 44
0.18
 45
0.0
 46
0.0
 47
0.0
 48
0.0
140
0.18
141
0.09
142
0.0
143
25.4
144
1.0
145
0.0
146
1.0
147
0.09
 71
     0
 72
     0
 73
     1
 74
     1
 75
     0
 76
     0
 77
     0
 78
     0
170
     0
171
     2
172
     0
173
     0
174
     0
175
     0
176
     0
177
     0
178
     0
270
     2
271
     4
272
     4
273
     2
274
     2
340
17
275
     0
280
     0
281
     0
282
     0
283
     1
284
     0
285
     0
286
     0
287
     3
288
     0
  0
DIMSTYLE
105
715
102
{ACAD_REACTORS
330
763
330
770
330
77D
330
799
330
7A6
330
7B5
330
7C2
330
7EF
330
7FC
330
80B
330
818
330
825
330
834
330
84E
330
85B
330
86A
330
78C
330
F6B
330
EA6
330
744
330
748
330
749
330
74A
330
74C
330
74E
330
751
330
753
102
}
330
9
100
AcDbSymbolTableRecord
100
AcDbDimStyleTableRecord
  2
SUNPOU_3
 70
     0
  3

  4

  5
OPEN30
  6

  7

 40
3.0
 41
2.5
 42
1.5
 43
0.0
 44
1.0
 45
0.0
 46
0.0
 47
0.0
 48
0.0
140
2.5
141
0.0
142
0.0
143
25.4
144
1.0
145
0.0
146
1.0
147
1.0
 71
     0
 72
     0
 73
     0
 74
     0
 75
     0
 76
     0
 77
     1
 78
     8
170
     0
171
     2
172
     1
173
     0
174
     0
175
     0
176
   256
177
   256
178
     6
270
     2
271
     1
272
     1
273
     2
274
     2
340
716
275
     0
280
     0
281
     0
282
     0
283
     1
284
     0
285
     0
286
     0
287
     3
288
     0
  0
DIMSTYLE
105
A9E
102
{ACAD_REACTORS
330
AD5
330
AE4
330
B19
330
B80
330
B9C
330
BA9
330
BF8
330
D06
330
D3C
330
D13
330
DA6
330
DB3
330
DC0
330
E46
330
192C
330
192D
102
}
330
9
100
AcDbSymbolTableRecord
100
AcDbDimStyleTableRecord
  2
SUNPOU_3_12
 70
     0
  3

  4

  5
OPEN30
  6

  7

 40
3.0
 41
2.5
 42
1.5
 43
0.0
 44
1.0
 45
0.0
 46
0.0
 47
0.0
 48
0.0
140
2.5
141
0.0
142
0.0
143
25.4
144
12.0
145
0.0
146
1.0
147
1.0
 71
     0
 72
     0
 73
     0
 74
     0
 75
     0
 76
     0
 77
     1
 78
     8
170
     0
171
     2
172
     1
173
     0
174
     0
175
     0
176
   256
177
   256
178
     6
270
     2
271
     1
272
     1
273
     2
274
     2
340
716
275
     0
280
     0
281
     0
282
     0
283
     1
284
     0
285
     0
286
     0
287
     3
288
     0
  0
DIMSTYLE
105
1FF1
330
9
100
AcDbSymbolTableRecord
100
AcDbDimStyleTableRecord
  2
SUNPOU_2
 70
     0
  3

  4

  5
OPEN30
  6

  7

 40
2.0
 41
2.5
 42
1.5
 43
0.0
 44
1.0
 45
0.0
 46
0.0
 47
0.0
 48
0.0
140
2.5
141
0.0
142
0.0
143
25.4
144
1.0
145
0.0
146
1.0
147
1.0
 71
     0
 72
     0
 73
     0
 74
     0
 75
     0
 76
     0
 77
     1
 78
     8
170
     0
171
     2
172
     1
173
     0
174
     0
175
     0
176
   256
177
   256
178
   256
270
     2
271
     1
272
     1
273
     2
274
     2
340
716
275
     0
280
     0
281
     0
282
     0
283
     1
284
     0
285
     0
286
     0
287
     3
288
     0
  0
ENDTAB
  0
TABLE
  2
BLOCK_RECORD
  5
1
330
0
100
AcDbSymbolTable
 70
    36
  0
BLOCK_RECORD
  5
A
102
{ACAD_XDICTIONARY
360
1F9E
102
}
330
1
100
AcDbSymbolTableRecord
100
AcDbBlockTableRecord
  2
*MODEL_SPACE
  0
BLOCK_RECORD
  5
B
102
{ACAD_XDICTIONARY
360
1FA0
102
}
330
1
100
AcDbSymbolTableRecord
100
AcDbBlockTableRecord
  2
*PAPER_SPACE
  0
BLOCK_RECORD
  5
717
330
1
100
AcDbSymbolTableRecord
100
AcDbBlockTableRecord
  2
_OPEN30
1001
CONTENTBLOCKICON
1071
        0
1004
2800000020000000200000000100080000000000000400000000000000000000000000000000000000000000000080000080000000808000800000008000800080800000C0C0C000C0DCC000F0CAA6000020400000206000002080000020A0000020C0000020E00000400000004020000040400000406000004080000040A0
1004
000040C0000040E00000600000006020000060400000606000006080000060A0000060C0000060E00000800000008020000080400000806000008080000080A0000080C0000080E00000A0000000A0200000A0400000A0600000A0800000A0A00000A0C00000A0E00000C0000000C0200000C0400000C0600000C0800000C0
1004
A00000C0C00000C0E00000E0000000E0200000E0400000E0600000E0800000E0A00000E0C00000E0E00040000000400020004000400040006000400080004000A0004000C0004000E00040200000402020004020400040206000402080004020A0004020C0004020E000404000004040200040404000404060004040800040
1004
40A0004040C0004040E00040600000406020004060400040606000406080004060A0004060C0004060E00040800000408020004080400040806000408080004080A0004080C0004080E00040A0000040A0200040A0400040A0600040A0800040A0A00040A0C00040A0E00040C0000040C0200040C0400040C0600040C08000
1004
40C0A00040C0C00040C0E00040E0000040E0200040E0400040E0600040E0800040E0A00040E0C00040E0E00080000000800020008000400080006000800080008000A0008000C0008000E00080200000802020008020400080206000802080008020A0008020C0008020E00080400000804020008040400080406000804080
1004
008040A0008040C0008040E00080600000806020008060400080606000806080008060A0008060C0008060E00080800000808020008080400080806000808080008080A0008080C0008080E00080A0000080A0200080A0400080A0600080A0800080A0A00080A0C00080A0E00080C0000080C0200080C0400080C0600080C0
1004
800080C0A00080C0C00080C0E00080E0000080E0200080E0400080E0600080E0800080E0A00080E0C00080E0E000C0000000C0002000C0004000C0006000C0008000C000A000C000C000C000E000C0200000C0202000C0204000C0206000C0208000C020A000C020C000C020E000C0400000C0402000C0404000C0406000C0
1004
408000C040A000C040C000C040E000C0600000C0602000C0604000C0606000C0608000C060A000C060C000C060E000C0800000C0802000C0804000C0806000C0808000C080A000C080C000C080E000C0A00000C0A02000C0A04000C0A06000C0A08000C0A0A000C0A0C000C0A0E000C0C00000C0C02000C0C04000C0C06000
1004
C0C08000C0C0A000F0FBFF00A4A0A000808080000000FF0000FF000000FFFF00FF000000FF00FF00FFFF0000FFFFFF0000000000000000000000000000000000000000000000000000000000000000000000000000000000000000000000000000000000000000000000000000000000000000000000000000000000000000
1004
00000000000000000000000000000000000000000000000000000000000000000000000000000000000000000000000000000000000000000000000000000000000000000000000000000000000000000000000000000000000000000000000000000000000000000000000000000000000000000000000000000000000000
1004
000000000000000000000000000000000000000000000000000000000000000000000000000000000000000000000000000000FFFF0000000000000000000000000000000000000000000000000000000000000000FFFFFFFF0000000000000000000000000000000000000000000000000000000000000000FFFFFFFF0000
1004
000000000000000000000000000000000000000000000000000000000000FFFFFF0000000000000000000000000000000000000000000000000000000000000000FFFFFFFF0000000000000000000000000000000000000000000000000000000000000000FFFFFF0000000000000000000000000000000000000000000000
1004
000000000000000000FFFFFFFF0000000000000000000000000000000000000000000000000000000000000000FFFFFFFF00000000FFFFFFFFFFFFFFFFFFFFFFFFFFFFFFFFFFFFFFFFFFFFFFFFFFFFFFFFFFFF00000000000000000000000000000000000000000000000000FFFFFFFF000000000000000000000000000000
1004
000000000000000000FFFFFFFF000000000000000000000000000000000000000000000000FFFFFFFF000000000000000000000000000000000000000000000000FFFFFFFF000000000000000000000000000000000000000000000000FFFFFFFF000000000000000000000000000000000000000000000000FFFFFFFF0000
1004
0000000000000000000000000000000000000000000000FFFFFF0000000000000000000000000000000000000000000000000000000000000000000000000000000000000000000000000000000000000000000000000000000000000000000000000000000000000000000000000000000000000000000000000000000000
1004
00000000000000000000000000000000000000000000000000000000000000000000000000000000000000000000000000000000000000000000000000000000000000000000000000000000000000000000000000000000000000000000000000000000000000000000000000000000000000000000000000000000000000
1004
0000000000000000000000000000000000000000000000000000000000000000000000000000000000000000000000000000000000000000
  0
BLOCK_RECORD
  5
764
330
1
100
AcDbSymbolTableRecord
100
AcDbBlockTableRecord
  2
*D1
  0
BLOCK_RECORD
  5
771
330
1
100
AcDbSymbolTableRecord
100
AcDbBlockTableRecord
  2
*D2
  0
BLOCK_RECORD
  5
77E
330
1
100
AcDbSymbolTableRecord
100
AcDbBlockTableRecord
  2
*D3
  0
BLOCK_RECORD
  5
78D
330
1
100
AcDbSymbolTableRecord
100
AcDbBlockTableRecord
  2
*D4
  0
BLOCK_RECORD
  5
79A
330
1
100
AcDbSymbolTableRecord
100
AcDbBlockTableRecord
  2
*D5
  0
BLOCK_RECORD
  5
7A7
330
1
100
AcDbSymbolTableRecord
100
AcDbBlockTableRecord
  2
*D6
  0
BLOCK_RECORD
  5
7B6
330
1
100
AcDbSymbolTableRecord
100
AcDbBlockTableRecord
  2
*D7
  0
BLOCK_RECORD
  5
7C3
330
1
100
AcDbSymbolTableRecord
100
AcDbBlockTableRecord
  2
*D8
  0
BLOCK_RECORD
  5
7F0
330
1
100
AcDbSymbolTableRecord
100
AcDbBlockTableRecord
  2
*D9
  0
BLOCK_RECORD
  5
7FD
330
1
100
AcDbSymbolTableRecord
100
AcDbBlockTableRecord
  2
*D10
  0
BLOCK_RECORD
  5
80C
330
1
100
AcDbSymbolTableRecord
100
AcDbBlockTableRecord
  2
*D11
  0
BLOCK_RECORD
  5
819
330
1
100
AcDbSymbolTableRecord
100
AcDbBlockTableRecord
  2
*D12
  0
BLOCK_RECORD
  5
826
330
1
100
AcDbSymbolTableRecord
100
AcDbBlockTableRecord
  2
*D13
  0
BLOCK_RECORD
  5
835
330
1
100
AcDbSymbolTableRecord
100
AcDbBlockTableRecord
  2
*D14
  0
BLOCK_RECORD
  5
84F
330
1
100
AcDbSymbolTableRecord
100
AcDbBlockTableRecord
  2
*D15
  0
BLOCK_RECORD
  5
85C
330
1
100
AcDbSymbolTableRecord
100
AcDbBlockTableRecord
  2
*D16
  0
BLOCK_RECORD
  5
86B
330
1
100
AcDbSymbolTableRecord
100
AcDbBlockTableRecord
  2
*D17
  0
BLOCK_RECORD
  5
AD6
330
1
100
AcDbSymbolTableRecord
100
AcDbBlockTableRecord
  2
*D18
  0
BLOCK_RECORD
  5
AE5
330
1
100
AcDbSymbolTableRecord
100
AcDbBlockTableRecord
  2
*D19
  0
BLOCK_RECORD
  5
B1A
330
1
100
AcDbSymbolTableRecord
100
AcDbBlockTableRecord
  2
*D20
  0
BLOCK_RECORD
  5
B81
330
1
100
AcDbSymbolTableRecord
100
AcDbBlockTableRecord
  2
*D21
  0
BLOCK_RECORD
  5
B9D
330
1
100
AcDbSymbolTableRecord
100
AcDbBlockTableRecord
  2
*D22
  0
BLOCK_RECORD
  5
BAA
330
1
100
AcDbSymbolTableRecord
100
AcDbBlockTableRecord
  2
*D23
  0
BLOCK_RECORD
  5
BF9
330
1
100
AcDbSymbolTableRecord
100
AcDbBlockTableRecord
  2
*D24
  0
BLOCK_RECORD
  5
D07
330
1
100
AcDbSymbolTableRecord
100
AcDbBlockTableRecord
  2
*D25
  0
BLOCK_RECORD
  5
D14
330
1
100
AcDbSymbolTableRecord
100
AcDbBlockTableRecord
  2
*D26
  0
BLOCK_RECORD
  5
D3D
330
1
100
AcDbSymbolTableRecord
100
AcDbBlockTableRecord
  2
*D27
  0
BLOCK_RECORD
  5
DA7
330
1
100
AcDbSymbolTableRecord
100
AcDbBlockTableRecord
  2
*D28
  0
BLOCK_RECORD
  5
DB4
330
1
100
AcDbSymbolTableRecord
100
AcDbBlockTableRecord
  2
*D29
  0
BLOCK_RECORD
  5
DC1
330
1
100
AcDbSymbolTableRecord
100
AcDbBlockTableRecord
  2
*D30
  0
BLOCK_RECORD
  5
E47
330
1
100
AcDbSymbolTableRecord
100
AcDbBlockTableRecord
  2
*D31
  0
BLOCK_RECORD
  5
EA7
330
1
100
AcDbSymbolTableRecord
100
AcDbBlockTableRecord
  2
*D32
  0
BLOCK_RECORD
  5
F6C
330
1
100
AcDbSymbolTableRecord
100
AcDbBlockTableRecord
  2
*D33
  0
BLOCK_RECORD
  5
1969
330
1
100
AcDbSymbolTableRecord
100
AcDbBlockTableRecord
  2
*D34
  0
BLOCK_RECORD
  5
1977
330
1
100
AcDbSymbolTableRecord
100
AcDbBlockTableRecord
  2
*D35
  0
ENDTAB
  0
ENDSEC
  0
SECTION
  2
BLOCKS
  0
BLOCK
  5
D
330
A
100
AcDbEntity
  8
0
100
AcDbBlockBegin
  2
*MODEL_SPACE
 70
     0
 10
0.0
 20
0.0
 30
0.0
  3
*MODEL_SPACE
  1

  0
ENDBLK
  5
E
330
A
100
AcDbEntity
  8
0
100
AcDbBlockEnd
  0
BLOCK
  5
F
330
B
100
AcDbEntity
 67
     1
  8
0
100
AcDbBlockBegin
  2
*PAPER_SPACE
 70
     0
 10
0.0
 20
0.0
 30
0.0
  3
*PAPER_SPACE
  1

  0
ENDBLK
  5
10
330
B
100
AcDbEntity
 67
     1
  8
0
100
AcDbBlockEnd
  0
BLOCK
  5
71B
330
717
100
AcDbEntity
  8
0
100
AcDbBlockBegin
  2
_OPEN30
 70
     0
 10
0.0
 20
0.0
 30
0.0
  3
_OPEN30
  1

  0
LINE
  5
718
330
717
100
AcDbEntity
  8
0
  6
BYBLOCK
 62
     0
100
AcDbLine
 10
-1.0
 20
0.26794919
 30
0.0
 11
0.0
 21
0.0
 31
0.0
  0
LINE
  5
719
330
717
100
AcDbEntity
  8
0
  6
BYBLOCK
 62
     0
100
AcDbLine
 10
0.0
 20
0.0
 30
0.0
 11
-1.0
 21
-0.26794919
 31
0.0
  0
LINE
  5
71A
330
717
100
AcDbEntity
  8
0
  6
BYBLOCK
 62
     0
100
AcDbLine
 10
0.0
 20
0.0
 30
0.0
 11
-1.0
 21
0.0
 31
0.0
  0
ENDBLK
  5
71C
330
717
100
AcDbEntity
  8
0
100
AcDbBlockEnd
  0
BLOCK
  5
76E
330
764
100
AcDbEntity
  8
0
100
AcDbBlockBegin
  2
*D1
 70
     1
 10
0.0
 20
0.0
 30
0.0
  3
*D1
  1

  0
LINE
  5
1DBC
330
764
100
AcDbEntity
  8
SUNPOU
100
AcDbLine
 10
186.7490663567663
 20
793.9811325898256
 30
0.0
 11
186.7490663567663
 21
817.2920994960152
 31
0.0
  0
LINE
  5
1DBD
330
764
100
AcDbEntity
  8
SUNPOU
100
AcDbLine
 10
287.7490663567663
 20
793.9811325898256
 30
0.0
 11
287.7490663567663
 21
817.2920994960152
 31
0.0
  0
LINE
  5
1DBE
330
764
100
AcDbEntity
  8
SUNPOU
100
AcDbLine
 10
194.2490663567663
 20
814.2920994960155
 30
0.0
 11
280.2490663567663
 21
814.2920994960155
 31
0.0
  0
MTEXT
  5
1DBF
330
764
100
AcDbEntity
  8
SUNPOU
 62
     6
100
AcDbMText
 10
237.4623947301943
 20
805.7583609756633
 30
0.0
 40
7.5
 41
0.0
 71
     5
 72
     1
  1
\A1;101
  7
SUNPOU
 11
-1.0
 21
0.0000000000000001
 31
0.0
1001
ACAD
1000
MTEXTBEGIN
1070
    73
1070
     1
1070
    44
1040
1.0
1070
    74
1070
     0
1000
MTEXTEND
1000
MTEXTBEGIN
1070
    73
1070
     1
1070
    44
1040
1.0
1070
    74
1070
     0
1000
MTEXTEND
  0
INSERT
  5
1DC0
330
764
100
AcDbEntity
  8
SUNPOU
100
AcDbBlockReference
  2
_OPEN30
 10
186.7490663567663
 20
814.2920994960155
 30
0.0
 41
7.5
 42
7.5
 43
7.5
 50
180.0
  0
INSERT
  5
1DC1
330
764
100
AcDbEntity
  8
SUNPOU
100
AcDbBlockReference
  2
_OPEN30
 10
287.7490663567663
 20
814.2920994960155
 30
0.0
 41
7.5
 42
7.5
 43
7.5
  0
POINT
  5
1DC2
330
764
100
AcDbEntity
  8
DEFPOINTS
 62
     0
100
AcDbPoint
 10
186.7490663567663
 20
789.4811325898256
 30
0.0
  0
POINT
  5
1DC3
330
764
100
AcDbEntity
  8
DEFPOINTS
 62
     0
100
AcDbPoint
 10
287.7490663567663
 20
789.4811325898256
 30
0.0
  0
POINT
  5
1DC4
330
764
100
AcDbEntity
  8
DEFPOINTS
 62
     0
100
AcDbPoint
 10
287.7490663567663
 20
814.2920994960155
 30
0.0
  0
ENDBLK
  5
76F
330
764
100
AcDbEntity
  8
0
100
AcDbBlockEnd
  0
BLOCK
  5
77B
330
771
100
AcDbEntity
  8
0
100
AcDbBlockBegin
  2
*D2
 70
     1
 10
0.0
 20
0.0
 30
0.0
  3
*D2
  1

  0
LINE
  5
1DCE
330
771
100
AcDbEntity
  8
SUNPOU
100
AcDbLine
 10
182.2490663567663
 20
789.4811325898256
 30
0.0
 11
171.334513992159
 21
789.4811325898256
 31
0.0
  0
LINE
  5
1DCF
330
771
100
AcDbEntity
  8
SUNPOU
100
AcDbLine
 10
182.2490663567663
 20
761.4811325898259
 30
0.0
 11
171.334513992159
 21
761.4811325898259
 31
0.0
  0
LINE
  5
1DD0
330
771
100
AcDbEntity
  8
SUNPOU
100
AcDbLine
 10
174.334513992159
 20
781.9811325898256
 30
0.0
 11
174.334513992159
 21
768.9811325898257
 31
0.0
  0
MTEXT
  5
1DD1
330
771
100
AcDbEntity
  8
SUNPOU
 62
     6
100
AcDbMText
 10
166.234513992159
 20
778.1428041148087
 30
0.0
 40
7.5
 41
0.0
 71
     5
 72
     1
  1
\A1;28
  7
SUNPOU
 11
0.0000000000000001
 21
1.0
 31
0.0
1001
ACAD
1000
MTEXTBEGIN
1070
    73
1070
     1
1070
    44
1040
1.0
1070
    74
1070
     0
1000
MTEXTEND
1000
MTEXTBEGIN
1070
    73
1070
     1
1070
    44
1040
1.0
1070
    74
1070
     0
1000
MTEXTEND
  0
INSERT
  5
1DD2
330
771
100
AcDbEntity
  8
SUNPOU
100
AcDbBlockReference
  2
_OPEN30
 10
174.334513992159
 20
789.4811325898256
 30
0.0
 41
7.5
 42
7.5
 43
7.5
 50
90.0
  0
INSERT
  5
1DD3
330
771
100
AcDbEntity
  8
SUNPOU
100
AcDbBlockReference
  2
_OPEN30
 10
174.334513992159
 20
761.4811325898259
 30
0.0
 41
7.5
 42
7.5
 43
7.5
 50
270.0
  0
POINT
  5
1DD4
330
771
100
AcDbEntity
  8
DEFPOINTS
 62
     0
100
AcDbPoint
 10
186.7490663567663
 20
789.4811325898256
 30
0.0
  0
POINT
  5
1DD5
330
771
100
AcDbEntity
  8
DEFPOINTS
 62
     0
100
AcDbPoint
 10
186.7490663567663
 20
761.4811325898259
 30
0.0
  0
POINT
  5
1DD6
330
771
100
AcDbEntity
  8
DEFPOINTS
 62
     0
100
AcDbPoint
 10
174.334513992159
 20
761.4811325898259
 30
0.0
  0
ENDBLK
  5
77C
330
771
100
AcDbEntity
  8
0
100
AcDbBlockEnd
  0
BLOCK
  5
78A
330
77E
100
AcDbEntity
  8
0
100
AcDbBlockBegin
  2
*D3
 70
     1
 10
0.0
 20
0.0
 30
0.0
  3
*D3
  1

  0
LINE
  5
1DC5
330
77E
100
AcDbEntity
  8
SUNPOU
100
AcDbLine
 10
182.2490663567663
 20
789.4811325898256
 30
0.0
 11
155.4084198942204
 21
789.4811325898256
 31
0.0
  0
LINE
  5
1DC6
330
77E
100
AcDbEntity
  8
SUNPOU
100
AcDbLine
 10
182.2490663567663
 20
767.481091324447
 30
0.0
 11
155.4084198942204
 21
767.481091324447
 31
0.0
  0
LINE
  5
1DC7
330
77E
100
AcDbEntity
  8
SUNPOU
100
AcDbLine
 10
158.4084198942204
 20
781.9811325898256
 30
0.0
 11
158.4084198942204
 21
774.981091324447
 31
0.0
  0
INSERT
  5
1DC8
330
77E
100
AcDbEntity
  8
SUNPOU
100
AcDbBlockReference
  2
_OPEN30
 10
158.4084198942204
 20
789.4811325898256
 30
0.0
 41
7.5
 42
7.5
 43
7.5
 50
90.0
  0
INSERT
  5
1DC9
330
77E
100
AcDbEntity
  8
SUNPOU
100
AcDbBlockReference
  2
_OPEN30
 10
158.4084198942204
 20
767.481091324447
 30
0.0
 41
7.5
 42
7.5
 43
7.5
 50
270.0
  0
MTEXT
  5
1DCA
330
77E
100
AcDbEntity
  8
SUNPOU
 62
     6
100
AcDbMText
 10
151.6584198942201
 20
778.4811119571362
 30
0.0
 40
7.5
 41
0.0
 71
     5
 72
     1
  1
\A1;22
  7
SUNPOU
 11
0.0000000000000001
 21
1.0
 31
0.0
1001
ACAD
1000
MTEXTBEGIN
1070
    73
1070
     1
1070
    44
1040
1.0
1070
    74
1070
     0
1000
MTEXTEND
1000
MTEXTBEGIN
1070
    73
1070
     1
1070
    44
1040
1.0
1070
    74
1070
     0
1000
MTEXTEND
  0
POINT
  5
1DCB
330
77E
100
AcDbEntity
  8
DEFPOINTS
 62
     0
100
AcDbPoint
 10
186.7490663567663
 20
789.4811325898256
 30
0.0
  0
POINT
  5
1DCC
330
77E
100
AcDbEntity
  8
DEFPOINTS
 62
     0
100
AcDbPoint
 10
186.7490663567663
 20
767.481091324447
 30
0.0
  0
POINT
  5
1DCD
330
77E
100
AcDbEntity
  8
DEFPOINTS
 62
     0
100
AcDbPoint
 10
158.4084198942204
 20
767.481091324447
 30
0.0
  0
ENDBLK
  5
78B
330
77E
100
AcDbEntity
  8
0
100
AcDbBlockEnd
  0
BLOCK
  5
797
330
78D
100
AcDbEntity
  8
0
100
AcDbBlockBegin
  2
*D4
 70
     1
 10
0.0
 20
0.0
 30
0.0
  3
*D4
  1

  0
LINE
  5
1D7F
330
78D
100
AcDbEntity
  8
SUNPOU
100
AcDbLine
 10
182.2490663567663
 20
789.4811325898256
 30
0.0
 11
135.5151467735517
 21
789.4811325898256
 31
0.0
  0
LINE
  5
1D80
330
78D
100
AcDbEntity
  8
SUNPOU
100
AcDbLine
 10
182.2490663567663
 20
630.4810900590687
 30
0.0
 11
135.5151467735517
 21
630.4810900590687
 31
0.0
  0
LINE
  5
1D81
330
78D
100
AcDbEntity
  8
SUNPOU
100
AcDbLine
 10
138.5151467735517
 20
781.9811325898256
 30
0.0
 11
138.5151467735517
 21
637.9810900590687
 31
0.0
  0
MTEXT
  5
1D82
330
78D
100
AcDbEntity
  8
SUNPOU
 62
     6
100
AcDbMText
 10
129.9170302727542
 20
695.292965608457
 30
0.0
 40
7.5
 41
0.0
 71
     5
 72
     1
  1
\A1;159
  7
SUNPOU
 11
0.0000000000000001
 21
1.0
 31
0.0
1001
ACAD
1000
MTEXTBEGIN
1070
    73
1070
     1
1070
    44
1040
1.0
1070
    74
1070
     0
1000
MTEXTEND
1000
MTEXTBEGIN
1070
    73
1070
     1
1070
    44
1040
1.0
1070
    74
1070
     0
1000
MTEXTEND
  0
INSERT
  5
1D83
330
78D
100
AcDbEntity
  8
SUNPOU
100
AcDbBlockReference
  2
_OPEN30
 10
138.5151467735517
 20
789.4811325898256
 30
0.0
 41
7.5
 42
7.5
 43
7.5
 50
90.0
  0
INSERT
  5
1D84
330
78D
100
AcDbEntity
  8
SUNPOU
100
AcDbBlockReference
  2
_OPEN30
 10
138.5151467735517
 20
630.4810900590687
 30
0.0
 41
7.5
 42
7.5
 43
7.5
 50
270.0
  0
POINT
  5
1D85
330
78D
100
AcDbEntity
  8
DEFPOINTS
 62
     0
100
AcDbPoint
 10
186.7490663567663
 20
789.4811325898256
 30
0.0
  0
POINT
  5
1D86
330
78D
100
AcDbEntity
  8
DEFPOINTS
 62
     0
100
AcDbPoint
 10
186.7490663567663
 20
630.4810900590687
 30
0.0
  0
POINT
  5
1D87
330
78D
100
AcDbEntity
  8
DEFPOINTS
 62
     0
100
AcDbPoint
 10
138.5151467735517
 20
630.4810900590687
 30
0.0
  0
ENDBLK
  5
798
330
78D
100
AcDbEntity
  8
0
100
AcDbBlockEnd
  0
BLOCK
  5
7A4
330
79A
100
AcDbEntity
  8
0
100
AcDbBlockBegin
  2
*D5
 70
     1
 10
0.0
 20
0.0
 30
0.0
  3
*D5
  1

  0
LINE
  5
1DAE
330
79A
100
AcDbEntity
  8
SUNPOU
100
AcDbLine
 10
182.2490663567663
 20
658.4810900590683
 30
0.0
 11
171.334513992159
 21
658.4810900590683
 31
0.0
  0
LINE
  5
1DAF
330
79A
100
AcDbEntity
  8
SUNPOU
100
AcDbLine
 10
182.2490663567663
 20
630.4810900590687
 30
0.0
 11
171.334513992159
 21
630.4810900590687
 31
0.0
  0
LINE
  5
1DB0
330
79A
100
AcDbEntity
  8
SUNPOU
100
AcDbLine
 10
174.334513992159
 20
650.9810900590685
 30
0.0
 11
174.334513992159
 21
637.9810900590687
 31
0.0
  0
MTEXT
  5
1DB1
330
79A
100
AcDbEntity
  8
SUNPOU
 62
     6
100
AcDbMText
 10
166.234513992159
 20
642.8511827415141
 30
0.0
 40
7.5
 41
0.0
 71
     5
 72
     1
  1
\A1;28
  7
SUNPOU
 11
0.0000000000000001
 21
1.0
 31
0.0
1001
ACAD
1000
MTEXTBEGIN
1070
    73
1070
     1
1070
    44
1040
1.0
1070
    74
1070
     0
1000
MTEXTEND
1000
MTEXTBEGIN
1070
    73
1070
     1
1070
    44
1040
1.0
1070
    74
1070
     0
1000
MTEXTEND
  0
INSERT
  5
1DB2
330
79A
100
AcDbEntity
  8
SUNPOU
100
AcDbBlockReference
  2
_OPEN30
 10
174.334513992159
 20
658.4810900590683
 30
0.0
 41
7.5
 42
7.5
 43
7.5
 50
90.0
  0
INSERT
  5
1DB3
330
79A
100
AcDbEntity
  8
SUNPOU
100
AcDbBlockReference
  2
_OPEN30
 10
174.334513992159
 20
630.4810900590687
 30
0.0
 41
7.5
 42
7.5
 43
7.5
 50
270.0
  0
POINT
  5
1DB4
330
79A
100
AcDbEntity
  8
DEFPOINTS
 62
     0
100
AcDbPoint
 10
186.7490663567663
 20
658.4810900590683
 30
0.0
  0
POINT
  5
1DB5
330
79A
100
AcDbEntity
  8
DEFPOINTS
 62
     0
100
AcDbPoint
 10
186.7490663567663
 20
630.4810900590687
 30
0.0
  0
POINT
  5
1DB6
330
79A
100
AcDbEntity
  8
DEFPOINTS
 62
     0
100
AcDbPoint
 10
174.334513992159
 20
630.4810900590687
 30
0.0
  0
ENDBLK
  5
7A5
330
79A
100
AcDbEntity
  8
0
100
AcDbBlockEnd
  0
BLOCK
  5
7B3
330
7A7
100
AcDbEntity
  8
0
100
AcDbBlockBegin
  2
*D6
 70
     1
 10
0.0
 20
0.0
 30
0.0
  3
*D6
  1

  0
LINE
  5
1DA5
330
7A7
100
AcDbEntity
  8
SUNPOU
100
AcDbLine
 10
182.2490663567663
 20
630.4810900590687
 30
0.0
 11
155.4084198942204
 21
630.4810900590687
 31
0.0
  0
LINE
  5
1DA6
330
7A7
100
AcDbEntity
  8
SUNPOU
100
AcDbLine
 10
182.2490663567663
 20
652.481101324447
 30
0.0
 11
155.4084198942204
 21
652.481101324447
 31
0.0
  0
LINE
  5
1DA7
330
7A7
100
AcDbEntity
  8
SUNPOU
100
AcDbLine
 10
158.4084198942204
 20
637.9810900590687
 30
0.0
 11
158.4084198942204
 21
644.9811013244469
 31
0.0
  0
INSERT
  5
1DA8
330
7A7
100
AcDbEntity
  8
SUNPOU
100
AcDbBlockReference
  2
_OPEN30
 10
158.4084198942204
 20
630.4810900590687
 30
0.0
 41
7.5
 42
7.5
 43
7.5
 50
270.0
  0
INSERT
  5
1DA9
330
7A7
100
AcDbEntity
  8
SUNPOU
100
AcDbBlockReference
  2
_OPEN30
 10
158.4084198942204
 20
652.481101324447
 30
0.0
 41
7.5
 42
7.5
 43
7.5
 50
90.0
  0
MTEXT
  5
1DAA
330
7A7
100
AcDbEntity
  8
SUNPOU
 62
     6
100
AcDbMText
 10
151.6584198942201
 20
641.4810956917579
 30
0.0
 40
7.5
 41
0.0
 71
     5
 72
     1
  1
\A1;22
  7
SUNPOU
 11
0.0000000000000001
 21
1.0
 31
0.0
1001
ACAD
1000
MTEXTBEGIN
1070
    73
1070
     1
1070
    44
1040
1.0
1070
    74
1070
     0
1000
MTEXTEND
1000
MTEXTBEGIN
1070
    73
1070
     1
1070
    44
1040
1.0
1070
    74
1070
     0
1000
MTEXTEND
  0
POINT
  5
1DAB
330
7A7
100
AcDbEntity
  8
DEFPOINTS
 62
     0
100
AcDbPoint
 10
186.7490663567663
 20
630.4810900590687
 30
0.0
  0
POINT
  5
1DAC
330
7A7
100
AcDbEntity
  8
DEFPOINTS
 62
     0
100
AcDbPoint
 10
186.7490663567663
 20
652.481101324447
 30
0.0
  0
POINT
  5
1DAD
330
7A7
100
AcDbEntity
  8
DEFPOINTS
 62
     0
100
AcDbPoint
 10
158.4084198942204
 20
652.481101324447
 30
0.0
  0
ENDBLK
  5
7B4
330
7A7
100
AcDbEntity
  8
0
100
AcDbBlockEnd
  0
BLOCK
  5
7C0
330
7B6
100
AcDbEntity
  8
0
100
AcDbBlockBegin
  2
*D7
 70
     1
 10
0.0
 20
0.0
 30
0.0
  3
*D7
  1

  0
LINE
  5
1D76
330
7B6
100
AcDbEntity
  8
SUNPOU
100
AcDbLine
 10
182.2490663567663
 20
652.481101324447
 30
0.0
 11
155.4084198942204
 21
652.481101324447
 31
0.0
  0
LINE
  5
1D77
330
7B6
100
AcDbEntity
  8
SUNPOU
100
AcDbLine
 10
162.9084198942203
 20
767.481091324447
 30
0.0
 11
161.4084198942204
 21
767.481091324447
 31
0.0
  0
LINE
  5
1D78
330
7B6
100
AcDbEntity
  8
SUNPOU
100
AcDbLine
 10
158.4084198942204
 20
659.9811013244468
 30
0.0
 11
158.4084198942204
 21
759.981091324447
 31
0.0
  0
MTEXT
  5
1D79
330
7B6
100
AcDbEntity
  8
SUNPOU
 62
     6
100
AcDbMText
 10
149.9244698210604
 20
695.0867173137027
 30
0.0
 40
7.5
 41
0.0
 71
     5
 72
     1
  1
\A1;115
  7
SUNPOU
 11
0.0000000000000001
 21
1.0
 31
0.0
1001
ACAD
1000
MTEXTBEGIN
1070
    73
1070
     1
1070
    44
1040
1.0
1070
    74
1070
     0
1000
MTEXTEND
1000
MTEXTBEGIN
1070
    73
1070
     1
1070
    44
1040
1.0
1070
    74
1070
     0
1000
MTEXTEND
  0
INSERT
  5
1D7A
330
7B6
100
AcDbEntity
  8
SUNPOU
100
AcDbBlockReference
  2
_OPEN30
 10
158.4084198942204
 20
652.481101324447
 30
0.0
 41
7.5
 42
7.5
 43
7.5
 50
270.0
  0
INSERT
  5
1D7B
330
7B6
100
AcDbEntity
  8
SUNPOU
100
AcDbBlockReference
  2
_OPEN30
 10
158.4084198942204
 20
767.481091324447
 30
0.0
 41
7.5
 42
7.5
 43
7.5
 50
90.0
  0
POINT
  5
1D7C
330
7B6
100
AcDbEntity
  8
DEFPOINTS
 62
     0
100
AcDbPoint
 10
186.7490663567663
 20
652.481101324447
 30
0.0
  0
POINT
  5
1D7D
330
7B6
100
AcDbEntity
  8
DEFPOINTS
 62
     0
100
AcDbPoint
 10
158.4084198942204
 20
767.481091324447
 30
0.0
  0
POINT
  5
1D7E
330
7B6
100
AcDbEntity
  8
DEFPOINTS
 62
     0
100
AcDbPoint
 10
158.4084198942204
 20
767.481091324447
 30
0.0
  0
ENDBLK
  5
7C1
330
7B6
100
AcDbEntity
  8
0
100
AcDbBlockEnd
  0
BLOCK
  5
7CF
330
7C3
100
AcDbEntity
  8
0
100
AcDbBlockBegin
  2
*D8
 70
     1
 10
0.0
 20
0.0
 30
0.0
  3
*D8
  1

  0
LINE
  5
1DD7
330
7C3
100
AcDbEntity
  8
SUNPOU
100
AcDbLine
 10
259.656871746195
 20
783.4811325898257
 30
0.0
 11
261.1568717461949
 21
783.4811325898257
 31
0.0
  0
LINE
  5
1DD8
330
7C3
100
AcDbEntity
  8
SUNPOU
100
AcDbLine
 10
259.656871746195
 20
767.481091324447
 30
0.0
 11
261.1568717461949
 21
767.481091324447
 31
0.0
  0
LINE
  5
1DD9
330
7C3
100
AcDbEntity
  8
SUNPOU
100
AcDbLine
 10
264.156871746195
 20
790.9811325898257
 30
0.0
 11
264.156871746195
 21
798.4811325898257
 31
0.0
  0
LINE
  5
1DDA
330
7C3
100
AcDbEntity
  8
SUNPOU
100
AcDbLine
 10
264.156871746195
 20
759.981091324447
 30
0.0
 11
264.156871746195
 21
752.4810913244468
 31
0.0
  0
MTEXT
  5
1DDB
330
7C3
100
AcDbEntity
  8
SUNPOU
 62
     6
100
AcDbMText
 10
256.2355013424816
 20
777.7848063495806
 30
0.0
 40
7.5
 41
0.0
 71
     5
 72
     1
  1
\A1;16
  7
SUNPOU
 11
0.0000000000000001
 21
1.0
 31
0.0
1001
ACAD
1000
MTEXTBEGIN
1070
    73
1070
     1
1070
    44
1040
1.0
1070
    74
1070
     0
1000
MTEXTEND
1000
MTEXTBEGIN
1070
    73
1070
     1
1070
    44
1040
1.0
1070
    74
1070
     0
1000
MTEXTEND
  0
LINE
  5
1DDC
330
7C3
100
AcDbEntity
  8
SUNPOU
100
AcDbLine
 10
264.156871746195
 20
783.4811325898257
 30
0.0
 11
264.156871746195
 21
767.481091324447
 31
0.0
  0
INSERT
  5
1DDD
330
7C3
100
AcDbEntity
  8
SUNPOU
100
AcDbBlockReference
  2
_OPEN30
 10
264.156871746195
 20
783.4811325898257
 30
0.0
 41
7.5
 42
7.5
 43
7.5
 50
270.0
  0
INSERT
  5
1DDE
330
7C3
100
AcDbEntity
  8
SUNPOU
100
AcDbBlockReference
  2
_OPEN30
 10
264.156871746195
 20
767.481091324447
 30
0.0
 41
7.5
 42
7.5
 43
7.5
 50
90.0
  0
POINT
  5
1DDF
330
7C3
100
AcDbEntity
  8
DEFPOINTS
 62
     0
100
AcDbPoint
 10
264.156871746195
 20
783.4811325898257
 30
0.0
  0
POINT
  5
1DE0
330
7C3
100
AcDbEntity
  8
DEFPOINTS
 62
     0
100
AcDbPoint
 10
264.156871746195
 20
767.481091324447
 30
0.0
  0
POINT
  5
1DE1
330
7C3
100
AcDbEntity
  8
DEFPOINTS
 62
     0
100
AcDbPoint
 10
264.156871746195
 20
767.481091324447
 30
0.0
  0
ENDBLK
  5
7D0
330
7C3
100
AcDbEntity
  8
0
100
AcDbBlockEnd
  0
BLOCK
  5
7FA
330
7F0
100
AcDbEntity
  8
0
100
AcDbBlockBegin
  2
*D9
 70
     1
 10
0.0
 20
0.0
 30
0.0
  3
*D9
  1

  0
LINE
  5
1D64
330
7F0
100
AcDbEntity
  8
SUNPOU
100
AcDbLine
 10
118.4990633567664
 20
770.4811113244471
 30
0.0
 11
88.91427605786148
 21
770.4811113244471
 31
0.0
  0
LINE
  5
1D65
330
7F0
100
AcDbEntity
  8
SUNPOU
100
AcDbLine
 10
118.4990633567664
 20
716.4811113244471
 30
0.0
 11
88.91427605786146
 21
716.4811113244471
 31
0.0
  0
LINE
  5
1D66
330
7F0
100
AcDbEntity
  8
SUNPOU
100
AcDbLine
 10
91.91427605786149
 20
762.9811113244471
 30
0.0
 11
91.91427605786149
 21
723.9811113244472
 31
0.0
  0
INSERT
  5
1D67
330
7F0
100
AcDbEntity
  8
SUNPOU
100
AcDbBlockReference
  2
_OPEN30
 10
91.91427605786149
 20
770.4811113244471
 30
0.0
 41
7.5
 42
7.5
 43
7.5
 50
90.0
  0
INSERT
  5
1D68
330
7F0
100
AcDbEntity
  8
SUNPOU
100
AcDbBlockReference
  2
_OPEN30
 10
91.91427605786149
 20
716.4811113244471
 30
0.0
 41
7.5
 42
7.5
 43
7.5
 50
270.0
  0
MTEXT
  5
1D69
330
7F0
100
AcDbEntity
  8
SUNPOU
 62
     6
100
AcDbMText
 10
85.16427605786136
 20
743.4811113244471
 30
0.0
 40
7.5
 41
0.0
 71
     5
 72
     1
  1
\A1;54
  7
SUNPOU
 11
0.0000000000000001
 21
1.0
 31
0.0
1001
ACAD
1000
MTEXTBEGIN
1070
    73
1070
     1
1070
    44
1040
1.0
1070
    74
1070
     0
1000
MTEXTEND
1000
MTEXTBEGIN
1070
    73
1070
     1
1070
    44
1040
1.0
1070
    74
1070
     0
1000
MTEXTEND
  0
POINT
  5
1D6A
330
7F0
100
AcDbEntity
  8
DEFPOINTS
 62
     0
100
AcDbPoint
 10
122.9990633567664
 20
770.4811113244471
 30
0.0
  0
POINT
  5
1D6B
330
7F0
100
AcDbEntity
  8
DEFPOINTS
 62
     0
100
AcDbPoint
 10
122.9990633567664
 20
716.4811113244471
 30
0.0
  0
POINT
  5
1D6C
330
7F0
100
AcDbEntity
  8
DEFPOINTS
 62
     0
100
AcDbPoint
 10
91.91427605786149
 20
716.4811113244471
 30
0.0
  0
ENDBLK
  5
7FB
330
7F0
100
AcDbEntity
  8
0
100
AcDbBlockEnd
  0
BLOCK
  5
809
330
7FD
100
AcDbEntity
  8
0
100
AcDbBlockBegin
  2
*D10
 70
     1
 10
0.0
 20
0.0
 30
0.0
  3
*D10
  1

  0
LINE
  5
1D59
330
7FD
100
AcDbEntity
  8
SUNPOU
100
AcDbLine
 10
118.4990633567664
 20
716.4811113244471
 30
0.0
 11
88.91427605786146
 21
716.4811113244471
 31
0.0
  0
LINE
  5
1D5A
330
7FD
100
AcDbEntity
  8
SUNPOU
100
AcDbLine
 10
182.9990673567665
 20
706.4811112244472
 30
0.0
 11
88.91427605786146
 21
706.4811112244472
 31
0.0
  0
LINE
  5
1D5B
330
7FD
100
AcDbEntity
  8
SUNPOU
100
AcDbLine
 10
91.91427605786149
 20
723.9811113244472
 30
0.0
 11
91.91427605786149
 21
731.4811113244472
 31
0.0
  0
LINE
  5
1D5C
330
7FD
100
AcDbEntity
  8
SUNPOU
100
AcDbLine
 10
91.91427605786149
 20
698.9811112244471
 30
0.0
 11
91.91427605786149
 21
691.4811112244471
 31
0.0
  0
MTEXT
  5
1D5D
330
7FD
100
AcDbEntity
  8
SUNPOU
 62
     6
100
AcDbMText
 10
82.18875823897858
 20
710.9154388733877
 30
0.0
 40
7.5
 41
0.0
 71
     5
 72
     1
  1
\A1;10
  7
SUNPOU
 11
0.0000000000000001
 21
1.0
 31
0.0
1001
ACAD
1000
MTEXTBEGIN
1070
    73
1070
     1
1070
    44
1040
1.0
1070
    74
1070
     0
1000
MTEXTEND
1000
MTEXTBEGIN
1070
    73
1070
     1
1070
    44
1040
1.0
1070
    74
1070
     0
1000
MTEXTEND
  0
LINE
  5
1D5E
330
7FD
100
AcDbEntity
  8
SUNPOU
100
AcDbLine
 10
91.91427605786149
 20
716.4811113244471
 30
0.0
 11
91.91427605786149
 21
706.4811112244472
 31
0.0
  0
INSERT
  5
1D5F
330
7FD
100
AcDbEntity
  8
SUNPOU
100
AcDbBlockReference
  2
_OPEN30
 10
91.91427605786149
 20
716.4811113244471
 30
0.0
 41
7.5
 42
7.5
 43
7.5
 50
270.0
  0
INSERT
  5
1D60
330
7FD
100
AcDbEntity
  8
SUNPOU
100
AcDbBlockReference
  2
_OPEN30
 10
91.91427605786149
 20
706.4811112244472
 30
0.0
 41
7.5
 42
7.5
 43
7.5
 50
90.0
  0
POINT
  5
1D61
330
7FD
100
AcDbEntity
  8
DEFPOINTS
 62
     0
100
AcDbPoint
 10
122.9990633567664
 20
716.4811113244471
 30
0.0
  0
POINT
  5
1D62
330
7FD
100
AcDbEntity
  8
DEFPOINTS
 62
     0
100
AcDbPoint
 10
187.4990673567665
 20
706.4811112244472
 30
0.0
  0
POINT
  5
1D63
330
7FD
100
AcDbEntity
  8
DEFPOINTS
 62
     0
100
AcDbPoint
 10
91.91427605786149
 20
706.4811112244472
 30
0.0
  0
ENDBLK
  5
80A
330
7FD
100
AcDbEntity
  8
0
100
AcDbBlockEnd
  0
BLOCK
  5
816
330
80C
100
AcDbEntity
  8
0
100
AcDbBlockBegin
  2
*D11
 70
     1
 10
0.0
 20
0.0
 30
0.0
  3
*D11
  1

  0
LINE
  5
1D50
330
80C
100
AcDbEntity
  8
SUNPOU
100
AcDbLine
 10
182.9990673567665
 20
706.4811112244472
 30
0.0
 11
88.91427605786146
 21
706.4811112244472
 31
0.0
  0
LINE
  5
1D51
330
80C
100
AcDbEntity
  8
SUNPOU
100
AcDbLine
 10
182.9990673567665
 20
652.481101324447
 30
0.0
 11
88.91427605786146
 21
652.481101324447
 31
0.0
  0
LINE
  5
1D52
330
80C
100
AcDbEntity
  8
SUNPOU
100
AcDbLine
 10
91.91427605786149
 20
698.9811112244471
 30
0.0
 11
91.91427605786143
 21
659.9811013244468
 31
0.0
  0
INSERT
  5
1D53
330
80C
100
AcDbEntity
  8
SUNPOU
100
AcDbBlockReference
  2
_OPEN30
 10
91.91427605786149
 20
706.4811112244472
 30
0.0
 41
7.5
 42
7.5
 43
7.5
 50
90.0
  0
INSERT
  5
1D54
330
80C
100
AcDbEntity
  8
SUNPOU
100
AcDbBlockReference
  2
_OPEN30
 10
91.91427605786143
 20
652.481101324447
 30
0.0
 41
7.5
 42
7.5
 43
7.5
 50
270.0
  0
MTEXT
  5
1D55
330
80C
100
AcDbEntity
  8
SUNPOU
 62
     6
100
AcDbMText
 10
85.16427605786136
 20
679.481106274447
 30
0.0
 40
7.5
 41
0.0
 71
     5
 72
     1
  1
\A1;54
  7
SUNPOU
 11
0.0000000000000001
 21
1.0
 31
0.0
1001
ACAD
1000
MTEXTBEGIN
1070
    73
1070
     1
1070
    44
1040
1.0
1070
    74
1070
     0
1000
MTEXTEND
1000
MTEXTBEGIN
1070
    73
1070
     1
1070
    44
1040
1.0
1070
    74
1070
     0
1000
MTEXTEND
  0
POINT
  5
1D56
330
80C
100
AcDbEntity
  8
DEFPOINTS
 62
     0
100
AcDbPoint
 10
187.4990673567665
 20
706.4811112244472
 30
0.0
  0
POINT
  5
1D57
330
80C
100
AcDbEntity
  8
DEFPOINTS
 62
     0
100
AcDbPoint
 10
187.4990673567665
 20
652.481101324447
 30
0.0
  0
POINT
  5
1D58
330
80C
100
AcDbEntity
  8
DEFPOINTS
 62
     0
100
AcDbPoint
 10
91.91427605786143
 20
652.481101324447
 30
0.0
  0
ENDBLK
  5
817
330
80C
100
AcDbEntity
  8
0
100
AcDbBlockEnd
  0
BLOCK
  5
823
330
819
100
AcDbEntity
  8
0
100
AcDbBlockBegin
  2
*D12
 70
     1
 10
0.0
 20
0.0
 30
0.0
  3
*D12
  1

  0
LINE
  5
1D6D
330
819
100
AcDbEntity
  8
SUNPOU
100
AcDbLine
 10
87.41427605786146
 20
770.4811113244471
 30
0.0
 11
67.35029065837526
 21
770.4811113244471
 31
0.0
  0
LINE
  5
1D6E
330
819
100
AcDbEntity
  8
SUNPOU
100
AcDbLine
 10
87.41427605786146
 20
652.481101324447
 30
0.0
 11
67.35029065837522
 21
652.481101324447
 31
0.0
  0
LINE
  5
1D6F
330
819
100
AcDbEntity
  8
SUNPOU
100
AcDbLine
 10
70.35029065837526
 20
762.9811113244471
 30
0.0
 11
70.35029065837523
 21
659.9811013244468
 31
0.0
  0
MTEXT
  5
1D70
330
819
100
AcDbEntity
  8
SUNPOU
 62
     6
100
AcDbMText
 10
61.82159877842559
 20
703.5651437240335
 30
0.0
 40
7.5
 41
0.0
 71
     5
 72
     1
  1
\A1;118
  7
SUNPOU
 11
0.0000000000000001
 21
1.0
 31
0.0
1001
ACAD
1000
MTEXTBEGIN
1070
    73
1070
     1
1070
    44
1040
1.0
1070
    74
1070
     0
1000
MTEXTEND
1000
MTEXTBEGIN
1070
    73
1070
     1
1070
    44
1040
1.0
1070
    74
1070
     0
1000
MTEXTEND
  0
INSERT
  5
1D71
330
819
100
AcDbEntity
  8
SUNPOU
100
AcDbBlockReference
  2
_OPEN30
 10
70.35029065837526
 20
770.4811113244471
 30
0.0
 41
7.5
 42
7.5
 43
7.5
 50
90.0
  0
INSERT
  5
1D72
330
819
100
AcDbEntity
  8
SUNPOU
100
AcDbBlockReference
  2
_OPEN30
 10
70.35029065837523
 20
652.481101324447
 30
0.0
 41
7.5
 42
7.5
 43
7.5
 50
270.0
  0
POINT
  5
1D73
330
819
100
AcDbEntity
  8
DEFPOINTS
 62
     0
100
AcDbPoint
 10
91.91427605786143
 20
770.4811113244471
 30
0.0
  0
POINT
  5
1D74
330
819
100
AcDbEntity
  8
DEFPOINTS
 62
     0
100
AcDbPoint
 10
91.91427605786143
 20
652.481101324447
 30
0.0
  0
POINT
  5
1D75
330
819
100
AcDbEntity
  8
DEFPOINTS
 62
     0
100
AcDbPoint
 10
70.35029065837523
 20
652.481101324447
 30
0.0
  0
ENDBLK
  5
824
330
819
100
AcDbEntity
  8
0
100
AcDbBlockEnd
  0
BLOCK
  5
832
330
826
100
AcDbEntity
  8
0
100
AcDbBlockBegin
  2
*D13
 70
     1
 10
0.0
 20
0.0
 30
0.0
  3
*D13
  1

  0
LINE
  5
1D9A
330
826
100
AcDbEntity
  8
SUNPOU
100
AcDbLine
 10
177.749066356767
 20
589.2310900590683
 30
0.0
 11
150.6516138458733
 21
589.2310900590683
 31
0.0
  0
LINE
  5
1D9B
330
826
100
AcDbEntity
  8
SUNPOU
100
AcDbLine
 10
177.749066356767
 20
585.2310900590683
 30
0.0
 11
150.6516138458733
 21
585.2310900590683
 31
0.0
  0
LINE
  5
1D9C
330
826
100
AcDbEntity
  8
SUNPOU
100
AcDbLine
 10
153.6516138458733
 20
596.7310900590682
 30
0.0
 11
153.6516138458733
 21
604.2310900590682
 31
0.0
  0
LINE
  5
1D9D
330
826
100
AcDbEntity
  8
SUNPOU
100
AcDbLine
 10
153.6516138458733
 20
577.7310900590682
 30
0.0
 11
153.6516138458733
 21
570.2310900590682
 31
0.0
  0
MTEXT
  5
1D9E
330
826
100
AcDbEntity
  8
SUNPOU
 62
     6
100
AcDbMText
 10
144.7967310238235
 20
594.9341779075885
 30
0.0
 40
7.5
 41
0.0
 71
     5
 72
     1
  1
\A1;4
  7
SUNPOU
 11
0.0000000000000001
 21
1.0
 31
0.0
1001
ACAD
1000
MTEXTBEGIN
1070
    73
1070
     1
1070
    44
1040
1.0
1070
    74
1070
     0
1000
MTEXTEND
1000
MTEXTBEGIN
1070
    73
1070
     1
1070
    44
1040
1.0
1070
    74
1070
     0
1000
MTEXTEND
  0
LINE
  5
1D9F
330
826
100
AcDbEntity
  8
SUNPOU
100
AcDbLine
 10
153.6516138458733
 20
589.2310900590683
 30
0.0
 11
153.6516138458733
 21
585.2310900590683
 31
0.0
  0
INSERT
  5
1DA0
330
826
100
AcDbEntity
  8
SUNPOU
100
AcDbBlockReference
  2
_OPEN30
 10
153.6516138458733
 20
589.2310900590683
 30
0.0
 41
7.5
 42
7.5
 43
7.5
 50
270.0
  0
INSERT
  5
1DA1
330
826
100
AcDbEntity
  8
SUNPOU
100
AcDbBlockReference
  2
_OPEN30
 10
153.6516138458733
 20
585.2310900590683
 30
0.0
 41
7.5
 42
7.5
 43
7.5
 50
90.0
  0
POINT
  5
1DA2
330
826
100
AcDbEntity
  8
DEFPOINTS
 62
     0
100
AcDbPoint
 10
182.249066356767
 20
589.2310900590683
 30
0.0
  0
POINT
  5
1DA3
330
826
100
AcDbEntity
  8
DEFPOINTS
 62
     0
100
AcDbPoint
 10
182.249066356767
 20
585.2310900590683
 30
0.0
  0
POINT
  5
1DA4
330
826
100
AcDbEntity
  8
DEFPOINTS
 62
     0
100
AcDbPoint
 10
153.6516138458733
 20
585.2310900590683
 30
0.0
  0
ENDBLK
  5
833
330
826
100
AcDbEntity
  8
0
100
AcDbBlockEnd
  0
BLOCK
  5
83F
330
835
100
AcDbEntity
  8
0
100
AcDbBlockBegin
  2
*D14
 70
     1
 10
0.0
 20
0.0
 30
0.0
  3
*D14
  1

  0
LINE
  5
1D91
330
835
100
AcDbEntity
  8
SUNPOU
100
AcDbLine
 10
177.749066356767
 20
585.2310900590683
 30
0.0
 11
150.6516138458734
 21
585.2310900590683
 31
0.0
  0
LINE
  5
1D92
330
835
100
AcDbEntity
  8
SUNPOU
100
AcDbLine
 10
177.749066356767
 20
538.7310900590687
 30
0.0
 11
150.6516138458733
 21
538.7310900590687
 31
0.0
  0
LINE
  5
1D93
330
835
100
AcDbEntity
  8
SUNPOU
100
AcDbLine
 10
153.6516138458734
 20
577.7310900590682
 30
0.0
 11
153.6516138458733
 21
546.2310900590686
 31
0.0
  0
INSERT
  5
1D94
330
835
100
AcDbEntity
  8
SUNPOU
100
AcDbBlockReference
  2
_OPEN30
 10
153.6516138458734
 20
585.2310900590683
 30
0.0
 41
7.5
 42
7.5
 43
7.5
 50
90.0
  0
INSERT
  5
1D95
330
835
100
AcDbEntity
  8
SUNPOU
100
AcDbBlockReference
  2
_OPEN30
 10
153.6516138458733
 20
538.7310900590687
 30
0.0
 41
7.5
 42
7.5
 43
7.5
 50
270.0
  0
MTEXT
  5
1D96
330
835
100
AcDbEntity
  8
SUNPOU
 62
     6
100
AcDbMText
 10
146.9016138458733
 20
561.9810900590683
 30
0.0
 40
7.5
 41
0.0
 71
     5
 72
     1
  1
\A1;46.5
  7
SUNPOU
 11
0.0000000000000001
 21
1.0
 31
0.0
1001
ACAD
1000
MTEXTBEGIN
1070
    73
1070
     1
1070
    44
1040
1.0
1070
    74
1070
     0
1000
MTEXTEND
1000
MTEXTBEGIN
1070
    73
1070
     1
1070
    44
1040
1.0
1070
    74
1070
     0
1000
MTEXTEND
  0
POINT
  5
1D97
330
835
100
AcDbEntity
  8
DEFPOINTS
 62
     0
100
AcDbPoint
 10
182.249066356767
 20
585.2310900590683
 30
0.0
  0
POINT
  5
1D98
330
835
100
AcDbEntity
  8
DEFPOINTS
 62
     0
100
AcDbPoint
 10
182.249066356767
 20
538.7310900590687
 30
0.0
  0
POINT
  5
1D99
330
835
100
AcDbEntity
  8
DEFPOINTS
 62
     0
100
AcDbPoint
 10
153.6516138458733
 20
538.7310900590687
 30
0.0
  0
ENDBLK
  5
840
330
835
100
AcDbEntity
  8
0
100
AcDbBlockEnd
  0
BLOCK
  5
859
330
84F
100
AcDbEntity
  8
0
100
AcDbBlockBegin
  2
*D15
 70
     1
 10
0.0
 20
0.0
 30
0.0
  3
*D15
  1

  0
LINE
  5
1D88
330
84F
100
AcDbEntity
  8
SUNPOU
100
AcDbLine
 10
182.2490663567663
 20
538.7310900590687
 30
0.0
 11
150.6516138458733
 21
538.7310900590687
 31
0.0
  0
LINE
  5
1D89
330
84F
100
AcDbEntity
  8
SUNPOU
100
AcDbLine
 10
240.0990663567658
 20
509.7310900590685
 30
0.0
 11
150.6516138458733
 21
509.7310900590685
 31
0.0
  0
LINE
  5
1D8A
330
84F
100
AcDbEntity
  8
SUNPOU
100
AcDbLine
 10
153.6516138458733
 20
531.2310900590687
 30
0.0
 11
153.6516138458733
 21
517.2310900590685
 31
0.0
  0
INSERT
  5
1D8B
330
84F
100
AcDbEntity
  8
SUNPOU
100
AcDbBlockReference
  2
_OPEN30
 10
153.6516138458733
 20
538.7310900590687
 30
0.0
 41
7.5
 42
7.5
 43
7.5
 50
90.0
  0
INSERT
  5
1D8C
330
84F
100
AcDbEntity
  8
SUNPOU
100
AcDbBlockReference
  2
_OPEN30
 10
153.6516138458733
 20
509.7310900590685
 30
0.0
 41
7.5
 42
7.5
 43
7.5
 50
270.0
  0
MTEXT
  5
1D8D
330
84F
100
AcDbEntity
  8
SUNPOU
 62
     6
100
AcDbMText
 10
146.9016138458733
 20
524.2310900590687
 30
0.0
 40
7.5
 41
0.0
 71
     5
 72
     1
  1
\A1;29
  7
SUNPOU
 11
0.0000000000000001
 21
1.0
 31
0.0
1001
ACAD
1000
MTEXTBEGIN
1070
    73
1070
     1
1070
    44
1040
1.0
1070
    74
1070
     0
1000
MTEXTEND
1000
MTEXTBEGIN
1070
    73
1070
     1
1070
    44
1040
1.0
1070
    74
1070
     0
1000
MTEXTEND
  0
POINT
  5
1D8E
330
84F
100
AcDbEntity
  8
DEFPOINTS
 62
     0
100
AcDbPoint
 10
186.7490663567663
 20
538.7310900590687
 30
0.0
  0
POINT
  5
1D8F
330
84F
100
AcDbEntity
  8
DEFPOINTS
 62
     0
100
AcDbPoint
 10
244.5990663567659
 20
509.7310900590685
 30
0.0
  0
POINT
  5
1D90
330
84F
100
AcDbEntity
  8
DEFPOINTS
 62
     0
100
AcDbPoint
 10
153.6516138458733
 20
509.7310900590685
 30
0.0
  0
ENDBLK
  5
85A
330
84F
100
AcDbEntity
  8
0
100
AcDbBlockEnd
  0
BLOCK
  5
868
330
85C
100
AcDbEntity
  8
0
100
AcDbBlockBegin
  2
*D16
 70
     1
 10
0.0
 20
0.0
 30
0.0
  3
*D16
  1

  0
LINE
  5
1DEB
330
85C
100
AcDbEntity
  8
SUNPOU
100
AcDbLine
 10
557.8795733567663
 20
798.4810813244466
 30
0.0
 11
581.3496147086659
 21
798.4810813244466
 31
0.0
  0
LINE
  5
1DEC
330
85C
100
AcDbEntity
  8
SUNPOU
100
AcDbLine
 10
413.8795739676727
 20
793.4810593244467
 30
0.0
 11
581.3496147086659
 21
793.4810593244467
 31
0.0
  0
LINE
  5
1DED
330
85C
100
AcDbEntity
  8
SUNPOU
100
AcDbLine
 10
578.3496147086657
 20
805.9810813244466
 30
0.0
 11
578.3496147086657
 21
813.4810813244467
 31
0.0
  0
LINE
  5
1DEE
330
85C
100
AcDbEntity
  8
SUNPOU
100
AcDbLine
 10
578.3496147086657
 20
785.9810593244469
 30
0.0
 11
578.3496147086657
 21
778.4810593244467
 31
0.0
  0
MTEXT
  5
1DEF
330
85C
100
AcDbEntity
  8
SUNPOU
 62
     6
100
AcDbMText
 10
569.613897767133
 20
803.6556676078184
 30
0.0
 40
7.5
 41
0.0
 71
     5
 72
     1
  1
\A1;5
  7
SUNPOU
 11
0.0000000000000001
 21
1.0
 31
0.0
1001
ACAD
1000
MTEXTBEGIN
1070
    73
1070
     1
1070
    44
1040
1.0
1070
    74
1070
     0
1000
MTEXTEND
1000
MTEXTBEGIN
1070
    73
1070
     1
1070
    44
1040
1.0
1070
    74
1070
     0
1000
MTEXTEND
  0
LINE
  5
1DF0
330
85C
100
AcDbEntity
  8
SUNPOU
100
AcDbLine
 10
578.3496147086657
 20
798.4810813244466
 30
0.0
 11
578.3496147086657
 21
793.4810593244467
 31
0.0
  0
INSERT
  5
1DF1
330
85C
100
AcDbEntity
  8
SUNPOU
100
AcDbBlockReference
  2
_OPEN30
 10
578.3496147086657
 20
798.4810813244466
 30
0.0
 41
7.5
 42
7.5
 43
7.5
 50
270.0
  0
INSERT
  5
1DF2
330
85C
100
AcDbEntity
  8
SUNPOU
100
AcDbBlockReference
  2
_OPEN30
 10
578.3496147086657
 20
793.4810593244467
 30
0.0
 41
7.5
 42
7.5
 43
7.5
 50
90.0
  0
POINT
  5
1DF3
330
85C
100
AcDbEntity
  8
DEFPOINTS
 62
     0
100
AcDbPoint
 10
553.3795733567663
 20
798.4810813244466
 30
0.0
  0
POINT
  5
1DF4
330
85C
100
AcDbEntity
  8
DEFPOINTS
 62
     0
100
AcDbPoint
 10
409.3795739676727
 20
793.4810593244467
 30
0.0
  0
POINT
  5
1DF5
330
85C
100
AcDbEntity
  8
DEFPOINTS
 62
     0
100
AcDbPoint
 10
578.3496147086657
 20
793.4810593244467
 30
0.0
  0
ENDBLK
  5
869
330
85C
100
AcDbEntity
  8
0
100
AcDbBlockEnd
  0
BLOCK
  5
875
330
86B
100
AcDbEntity
  8
0
100
AcDbBlockBegin
  2
*D17
 70
     1
 10
0.0
 20
0.0
 30
0.0
  3
*D17
  1

  0
LINE
  5
1F2D
330
86B
100
AcDbEntity
  8
SUNPOU
100
AcDbLine
 10
413.8795739676727
 20
793.4810593244467
 30
0.0
 11
581.3496147086659
 21
793.4810593244467
 31
0.0
  0
LINE
  5
1F2E
330
86B
100
AcDbEntity
  8
SUNPOU
100
AcDbLine
 10
546.0350833900106
 20
743.4802513244467
 30
0.0
 11
581.3496147086657
 21
743.4802513244467
 31
0.0
  0
LINE
  5
1F2F
330
86B
100
AcDbEntity
  8
SUNPOU
100
AcDbLine
 10
578.3496147086657
 20
785.9810593244469
 30
0.0
 11
578.3496147086657
 21
750.9802513244467
 31
0.0
  0
INSERT
  5
1F30
330
86B
100
AcDbEntity
  8
SUNPOU
100
AcDbBlockReference
  2
_OPEN30
 10
578.3496147086657
 20
793.4810593244467
 30
0.0
 41
7.5
 42
7.5
 43
7.5
 50
90.0
  0
INSERT
  5
1F31
330
86B
100
AcDbEntity
  8
SUNPOU
100
AcDbBlockReference
  2
_OPEN30
 10
578.3496147086657
 20
743.4802513244467
 30
0.0
 41
7.5
 42
7.5
 43
7.5
 50
270.0
  0
MTEXT
  5
1F32
330
86B
100
AcDbEntity
  8
SUNPOU
 62
     6
100
AcDbMText
 10
571.5996147086656
 20
768.4806553244468
 30
0.0
 40
7.5
 41
0.0
 71
     5
 72
     1
  1
\A1;50
  7
SUNPOU
 11
0.0000000000000001
 21
1.0
 31
0.0
1001
ACAD
1000
MTEXTBEGIN
1070
    73
1070
     1
1070
    44
1040
1.0
1070
    74
1070
     0
1000
MTEXTEND
1000
MTEXTBEGIN
1070
    73
1070
     1
1070
    44
1040
1.0
1070
    74
1070
     0
1000
MTEXTEND
  0
POINT
  5
1F33
330
86B
100
AcDbEntity
  8
DEFPOINTS
 62
     0
100
AcDbPoint
 10
409.3795739676727
 20
793.4810593244467
 30
0.0
  0
POINT
  5
1F34
330
86B
100
AcDbEntity
  8
DEFPOINTS
 62
     0
100
AcDbPoint
 10
541.5350833900106
 20
743.4802513244467
 30
0.0
  0
POINT
  5
1F35
330
86B
100
AcDbEntity
  8
DEFPOINTS
 62
     0
100
AcDbPoint
 10
578.3496147086657
 20
743.4802513244467
 30
0.0
  0
ENDBLK
  5
876
330
86B
100
AcDbEntity
  8
0
100
AcDbBlockEnd
  0
BLOCK
  5
AE2
330
AD6
100
AcDbEntity
  8
0
100
AcDbBlockBegin
  2
*D18
 70
     1
 10
0.0
 20
0.0
 30
0.0
  3
*D18
  1

  0
LINE
  5
1CB1
330
AD6
100
AcDbEntity
  8
SUNPOU
100
AcDbLine
 10
500.8990684777726
 20
117.8544694724227
 30
0.0
 11
485.3986152938793
 21
117.8544694724227
 31
0.0
  0
LINE
  5
1CB2
330
AD6
100
AcDbEntity
  8
SUNPOU
100
AcDbLine
 10
499.8497129222172
 20
117.4378028057562
 30
0.0
 11
485.3986152938793
 21
117.4378028057562
 31
0.0
  0
LINE
  5
1CB3
330
AD6
100
AcDbEntity
  8
SUNPOU
100
AcDbLine
 10
488.3986152938795
 20
125.3544694724229
 30
0.0
 11
488.3986152938795
 21
132.8544694724227
 31
0.0
  0
LINE
  5
1CB4
330
AD6
100
AcDbEntity
  8
SUNPOU
100
AcDbLine
 10
488.3986152938795
 20
109.9378028057562
 30
0.0
 11
488.3986152938795
 21
102.4378028057562
 31
0.0
  0
MTEXT
  5
1CB5
330
AD6
100
AcDbEntity
  8
SUNPOU
 62
     6
100
AcDbMText
 10
478.4647154700177
 20
111.6870808735363
 30
0.0
 40
7.5
 41
0.0
 71
     5
 72
     1
  1
\A1;5
  7
SUNPOU
 11
0.0000000000000001
 21
1.0
 31
0.0
1001
ACAD
1000
MTEXTBEGIN
1070
    73
1070
     1
1070
    44
1040
1.0
1070
    74
1070
     0
1000
MTEXTEND
1000
MTEXTBEGIN
1070
    73
1070
     1
1070
    44
1040
1.0
1070
    74
1070
     0
1000
MTEXTEND
  0
LINE
  5
1CB6
330
AD6
100
AcDbEntity
  8
SUNPOU
100
AcDbLine
 10
488.3986152938795
 20
117.8544694724227
 30
0.0
 11
488.3986152938795
 21
117.4378028057562
 31
0.0
  0
INSERT
  5
1CB7
330
AD6
100
AcDbEntity
  8
SUNPOU
100
AcDbBlockReference
  2
_OPEN30
 10
488.3986152938795
 20
117.8544694724227
 30
0.0
 41
7.5
 42
7.5
 43
7.5
 50
270.0
  0
INSERT
  5
1CB8
330
AD6
100
AcDbEntity
  8
SUNPOU
100
AcDbBlockReference
  2
_OPEN30
 10
488.3986152938795
 20
117.4378028057562
 30
0.0
 41
7.5
 42
7.5
 43
7.5
 50
90.0
  0
POINT
  5
1CB9
330
AD6
100
AcDbEntity
  8
DEFPOINTS
 62
     0
100
AcDbPoint
 10
505.3990684777728
 20
117.8544694724227
 30
0.0
  0
POINT
  5
1CBA
330
AD6
100
AcDbEntity
  8
DEFPOINTS
 62
     0
100
AcDbPoint
 10
504.3497129222171
 20
117.4378028057562
 30
0.0
  0
POINT
  5
1CBB
330
AD6
100
AcDbEntity
  8
DEFPOINTS
 62
     0
100
AcDbPoint
 10
488.3986152938795
 20
117.4378028057562
 30
0.0
  0
ENDBLK
  5
AE3
330
AD6
100
AcDbEntity
  8
0
100
AcDbBlockEnd
  0
BLOCK
  5
AEF
330
AE5
100
AcDbEntity
  8
0
100
AcDbBlockBegin
  2
*D19
 70
     1
 10
0.0
 20
0.0
 30
0.0
  3
*D19
  1

  0
LINE
  5
1CBC
330
AE5
100
AcDbEntity
  8
SUNPOU
100
AcDbLine
 10
500.8990684777725
 20
117.8544694724227
 30
0.0
 11
485.3986152938793
 21
117.8544694724227
 31
0.0
  0
LINE
  5
1CBD
330
AE5
100
AcDbEntity
  8
SUNPOU
100
AcDbLine
 10
500.8990684777726
 20
201.1878028057561
 30
0.0
 11
485.3986152938793
 21
201.1878028057561
 31
0.0
  0
LINE
  5
1CBE
330
AE5
100
AcDbEntity
  8
SUNPOU
100
AcDbLine
 10
488.3986152938794
 20
125.3544694724229
 30
0.0
 11
488.3986152938795
 21
193.6878028057561
 31
0.0
  0
INSERT
  5
1CBF
330
AE5
100
AcDbEntity
  8
SUNPOU
100
AcDbBlockReference
  2
_OPEN30
 10
488.3986152938794
 20
117.8544694724227
 30
0.0
 41
7.5
 42
7.5
 43
7.5
 50
270.0
  0
INSERT
  5
1CC0
330
AE5
100
AcDbEntity
  8
SUNPOU
100
AcDbBlockReference
  2
_OPEN30
 10
488.3986152938795
 20
201.1878028057561
 30
0.0
 41
7.5
 42
7.5
 43
7.5
 50
90.0
  0
MTEXT
  5
1CC1
330
AE5
100
AcDbEntity
  8
SUNPOU
 62
     6
100
AcDbMText
 10
481.6486152938794
 20
159.5211361390895
 30
0.0
 40
7.5
 41
0.0
 71
     5
 72
     1
  1
\A1;DW1
  7
SUNPOU
 11
0.0000000000000001
 21
1.0
 31
0.0
1001
ACAD
1000
MTEXTBEGIN
1070
    73
1070
     1
1070
    44
1040
1.0
1070
    74
1070
     0
1000
MTEXTEND
1000
MTEXTBEGIN
1070
    73
1070
     1
1070
    44
1040
1.0
1070
    74
1070
     0
1000
MTEXTEND
  0
POINT
  5
1CC2
330
AE5
100
AcDbEntity
  8
DEFPOINTS
 62
     0
100
AcDbPoint
 10
505.3990684777725
 20
117.8544694724227
 30
0.0
  0
POINT
  5
1CC3
330
AE5
100
AcDbEntity
  8
DEFPOINTS
 62
     0
100
AcDbPoint
 10
505.3990684777728
 20
201.1878028057561
 30
0.0
  0
POINT
  5
1CC4
330
AE5
100
AcDbEntity
  8
DEFPOINTS
 62
     0
100
AcDbPoint
 10
488.3986152938795
 20
201.1878028057561
 30
0.0
  0
ENDBLK
  5
AF0
330
AE5
100
AcDbEntity
  8
0
100
AcDbBlockEnd
  0
BLOCK
  5
B26
330
B1A
100
AcDbEntity
  8
0
100
AcDbBlockBegin
  2
*D20
 70
     1
 10
0.0
 20
0.0
 30
0.0
  3
*D20
  1

  0
LINE
  5
1CC5
330
B1A
100
AcDbEntity
  8
SUNPOU
100
AcDbLine
 10
516.982401811106
 20
276.9378028057563
 30
0.0
 11
549.7648320926328
 21
276.9378028057563
 31
0.0
  0
LINE
  5
1CC6
330
B1A
100
AcDbEntity
  8
SUNPOU
100
AcDbLine
 10
516.982401811106
 20
276.6878028057563
 30
0.0
 11
549.7648320926328
 21
276.6878028057563
 31
0.0
  0
LINE
  5
1CC7
330
B1A
100
AcDbEntity
  8
SUNPOU
100
AcDbLine
 10
546.7648320926326
 20
284.4378028057561
 30
0.0
 11
546.7648320926326
 21
291.9378028057563
 31
0.0
  0
LINE
  5
1CC8
330
B1A
100
AcDbEntity
  8
SUNPOU
100
AcDbLine
 10
546.7648320926326
 20
269.1878028057562
 30
0.0
 11
546.7648320926326
 21
261.6878028057561
 31
0.0
  0
MTEXT
  5
1CC9
330
B1A
100
AcDbEntity
  8
SUNPOU
 62
     6
100
AcDbMText
 10
556.9551565294394
 20
276.7380003346483
 30
0.0
 40
7.5
 41
0.0
 71
     5
 72
     1
  1
\A1;3
  7
SUNPOU
 11
0.0000000000000001
 21
1.0
 31
0.0
1001
ACAD
1000
MTEXTBEGIN
1070
    73
1070
     1
1070
    44
1040
1.0
1070
    74
1070
     0
1000
MTEXTEND
1000
MTEXTBEGIN
1070
    73
1070
     1
1070
    44
1040
1.0
1070
    74
1070
     0
1000
MTEXTEND
  0
LINE
  5
1CCA
330
B1A
100
AcDbEntity
  8
SUNPOU
100
AcDbLine
 10
546.7648320926326
 20
276.9378028057563
 30
0.0
 11
546.7648320926326
 21
276.6878028057563
 31
0.0
  0
INSERT
  5
1CCB
330
B1A
100
AcDbEntity
  8
SUNPOU
100
AcDbBlockReference
  2
_OPEN30
 10
546.7648320926326
 20
276.9378028057563
 30
0.0
 41
7.5
 42
7.5
 43
7.5
 50
270.0
  0
INSERT
  5
1CCC
330
B1A
100
AcDbEntity
  8
SUNPOU
100
AcDbBlockReference
  2
_OPEN30
 10
546.7648320926326
 20
276.6878028057563
 30
0.0
 41
7.5
 42
7.5
 43
7.5
 50
90.0
  0
POINT
  5
1CCD
330
B1A
100
AcDbEntity
  8
DEFPOINTS
 62
     0
100
AcDbPoint
 10
512.482401811106
 20
276.9378028057563
 30
0.0
  0
POINT
  5
1CCE
330
B1A
100
AcDbEntity
  8
DEFPOINTS
 62
     0
100
AcDbPoint
 10
512.482401811106
 20
276.6878028057563
 30
0.0
  0
POINT
  5
1CCF
330
B1A
100
AcDbEntity
  8
DEFPOINTS
 62
     0
100
AcDbPoint
 10
546.7648320926326
 20
276.6878028057563
 30
0.0
  0
ENDBLK
  5
B27
330
B1A
100
AcDbEntity
  8
0
100
AcDbBlockEnd
  0
BLOCK
  5
B8B
330
B81
100
AcDbEntity
  8
0
100
AcDbBlockBegin
  2
*D21
 70
     1
 10
0.0
 20
0.0
 30
0.0
  3
*D21
  1

  0
LINE
  5
1CD0
330
B81
100
AcDbEntity
  8
SUNPOU
100
AcDbLine
 10
516.982401811106
 20
359.1044694724231
 30
0.0
 11
549.7648320926328
 21
359.1044694724231
 31
0.0
  0
LINE
  5
1CD1
330
B81
100
AcDbEntity
  8
SUNPOU
100
AcDbLine
 10
516.9824018111062
 20
276.9378028057563
 30
0.0
 11
549.7648320926328
 21
276.9378028057563
 31
0.0
  0
LINE
  5
1CD2
330
B81
100
AcDbEntity
  8
SUNPOU
100
AcDbLine
 10
546.7648320926326
 20
351.604469472423
 30
0.0
 11
546.7648320926326
 21
284.4378028057561
 31
0.0
  0
INSERT
  5
1CD3
330
B81
100
AcDbEntity
  8
SUNPOU
100
AcDbBlockReference
  2
_OPEN30
 10
546.7648320926326
 20
359.1044694724231
 30
0.0
 41
7.5
 42
7.5
 43
7.5
 50
90.0
  0
INSERT
  5
1CD4
330
B81
100
AcDbEntity
  8
SUNPOU
100
AcDbBlockReference
  2
_OPEN30
 10
546.7648320926326
 20
276.9378028057563
 30
0.0
 41
7.5
 42
7.5
 43
7.5
 50
270.0
  0
MTEXT
  5
1CD5
330
B81
100
AcDbEntity
  8
SUNPOU
 62
     6
100
AcDbMText
 10
540.0148320926327
 20
318.0211361390897
 30
0.0
 40
7.5
 41
0.0
 71
     5
 72
     1
  1
\A1;DW2
  7
SUNPOU
 11
0.0000000000000001
 21
1.0
 31
0.0
1001
ACAD
1000
MTEXTBEGIN
1070
    73
1070
     1
1070
    44
1040
1.0
1070
    74
1070
     0
1000
MTEXTEND
1000
MTEXTBEGIN
1070
    73
1070
     1
1070
    44
1040
1.0
1070
    74
1070
     0
1000
MTEXTEND
  0
POINT
  5
1CD6
330
B81
100
AcDbEntity
  8
DEFPOINTS
 62
     0
100
AcDbPoint
 10
512.482401811106
 20
359.1044694724231
 30
0.0
  0
POINT
  5
1CD7
330
B81
100
AcDbEntity
  8
DEFPOINTS
 62
     0
100
AcDbPoint
 10
512.4824018111062
 20
276.9378028057563
 30
0.0
  0
POINT
  5
1CD8
330
B81
100
AcDbEntity
  8
DEFPOINTS
 62
     0
100
AcDbPoint
 10
546.7648320926326
 20
276.9378028057563
 30
0.0
  0
ENDBLK
  5
B8C
330
B81
100
AcDbEntity
  8
0
100
AcDbBlockEnd
  0
BLOCK
  5
BA7
330
B9D
100
AcDbEntity
  8
0
100
AcDbBlockBegin
  2
*D22
 70
     1
 10
0.0
 20
0.0
 30
0.0
  3
*D22
  1

  0
LINE
  5
1CD9
330
B9D
100
AcDbEntity
  8
SUNPOU
100
AcDbLine
 10
542.2648320926326
 20
276.6878028057563
 30
0.0
 11
543.7648320926325
 21
276.6878028057563
 31
0.0
  0
LINE
  5
1CDA
330
B9D
100
AcDbEntity
  8
SUNPOU
100
AcDbLine
 10
516.982401811106
 20
194.5211361390894
 30
0.0
 11
549.7648320926325
 21
194.5211361390894
 31
0.0
  0
LINE
  5
1CDB
330
B9D
100
AcDbEntity
  8
SUNPOU
100
AcDbLine
 10
546.7648320926326
 20
269.1878028057562
 30
0.0
 11
546.7648320926326
 21
202.0211361390894
 31
0.0
  0
INSERT
  5
1CDC
330
B9D
100
AcDbEntity
  8
SUNPOU
100
AcDbBlockReference
  2
_OPEN30
 10
546.7648320926326
 20
276.6878028057563
 30
0.0
 41
7.5
 42
7.5
 43
7.5
 50
90.0
  0
INSERT
  5
1CDD
330
B9D
100
AcDbEntity
  8
SUNPOU
100
AcDbBlockReference
  2
_OPEN30
 10
546.7648320926326
 20
194.5211361390894
 30
0.0
 41
7.5
 42
7.5
 43
7.5
 50
270.0
  0
MTEXT
  5
1CDE
330
B9D
100
AcDbEntity
  8
SUNPOU
 62
     6
100
AcDbMText
 10
540.0148320926326
 20
235.6044694724229
 30
0.0
 40
7.5
 41
0.0
 71
     5
 72
     1
  1
\A1;DW2
  7
SUNPOU
 11
0.0000000000000001
 21
1.0
 31
0.0
1001
ACAD
1000
MTEXTBEGIN
1070
    73
1070
     1
1070
    44
1040
1.0
1070
    74
1070
     0
1000
MTEXTEND
1000
MTEXTBEGIN
1070
    73
1070
     1
1070
    44
1040
1.0
1070
    74
1070
     0
1000
MTEXTEND
  0
POINT
  5
1CDF
330
B9D
100
AcDbEntity
  8
DEFPOINTS
 62
     0
100
AcDbPoint
 10
546.7648320926326
 20
276.6878028057563
 30
0.0
  0
POINT
  5
1CE0
330
B9D
100
AcDbEntity
  8
DEFPOINTS
 62
     0
100
AcDbPoint
 10
512.482401811106
 20
194.5211361390894
 30
0.0
  0
POINT
  5
1CE1
330
B9D
100
AcDbEntity
  8
DEFPOINTS
 62
     0
100
AcDbPoint
 10
546.7648320926326
 20
194.5211361390894
 30
0.0
  0
ENDBLK
  5
BA8
330
B9D
100
AcDbEntity
  8
0
100
AcDbBlockEnd
  0
BLOCK
  5
BB6
330
BAA
100
AcDbEntity
  8
0
100
AcDbBlockBegin
  2
*D23
 70
     1
 10
0.0
 20
0.0
 30
0.0
  3
*D23
  1

  0
LINE
  5
1CE2
330
BAA
100
AcDbEntity
  8
SUNPOU
100
AcDbLine
 10
516.982401811106
 20
194.5211361390894
 30
0.0
 11
532.5822542500089
 21
194.5211361390894
 31
0.0
  0
LINE
  5
1CE3
330
BAA
100
AcDbEntity
  8
SUNPOU
100
AcDbLine
 10
516.9824018111062
 20
201.1878028057561
 30
0.0
 11
532.5822542500089
 21
201.1878028057561
 31
0.0
  0
LINE
  5
1CE4
330
BAA
100
AcDbEntity
  8
SUNPOU
100
AcDbLine
 10
529.5822542500091
 20
187.0211361390895
 30
0.0
 11
529.5822542500091
 21
179.5211361390894
 31
0.0
  0
LINE
  5
1CE5
330
BAA
100
AcDbEntity
  8
SUNPOU
100
AcDbLine
 10
529.5822542500091
 20
208.6878028057561
 30
0.0
 11
529.5822542500091
 21
216.1878028057561
 31
0.0
  0
MTEXT
  5
1CE6
330
BAA
100
AcDbEntity
  8
SUNPOU
 62
     6
100
AcDbMText
 10
520.4025305160524
 20
186.2788790920548
 30
0.0
 40
7.5
 41
0.0
 71
     5
 72
     1
  1
\A1;80
  7
SUNPOU
 11
0.0000000000000001
 21
1.0
 31
0.0
1001
ACAD
1000
MTEXTBEGIN
1070
    73
1070
     1
1070
    44
1040
1.0
1070
    74
1070
     0
1000
MTEXTEND
1000
MTEXTBEGIN
1070
    73
1070
     1
1070
    44
1040
1.0
1070
    74
1070
     0
1000
MTEXTEND
  0
LINE
  5
1CE7
330
BAA
100
AcDbEntity
  8
SUNPOU
100
AcDbLine
 10
529.5822542500091
 20
194.5211361390894
 30
0.0
 11
529.5822542500091
 21
201.1878028057561
 31
0.0
  0
INSERT
  5
1CE8
330
BAA
100
AcDbEntity
  8
SUNPOU
100
AcDbBlockReference
  2
_OPEN30
 10
529.5822542500091
 20
194.5211361390894
 30
0.0
 41
7.5
 42
7.5
 43
7.5
 50
90.0
  0
INSERT
  5
1CE9
330
BAA
100
AcDbEntity
  8
SUNPOU
100
AcDbBlockReference
  2
_OPEN30
 10
529.5822542500091
 20
201.1878028057561
 30
0.0
 41
7.5
 42
7.5
 43
7.5
 50
270.0
  0
POINT
  5
1CEA
330
BAA
100
AcDbEntity
  8
DEFPOINTS
 62
     0
100
AcDbPoint
 10
512.482401811106
 20
194.5211361390894
 30
0.0
  0
POINT
  5
1CEB
330
BAA
100
AcDbEntity
  8
DEFPOINTS
 62
     0
100
AcDbPoint
 10
512.4824018111062
 20
201.1878028057561
 30
0.0
  0
POINT
  5
1CEC
330
BAA
100
AcDbEntity
  8
DEFPOINTS
 62
     0
100
AcDbPoint
 10
529.5822542500091
 20
201.1878028057561
 30
0.0
  0
ENDBLK
  5
BB7
330
BAA
100
AcDbEntity
  8
0
100
AcDbBlockEnd
  0
BLOCK
  5
C05
330
BF9
100
AcDbEntity
  8
0
100
AcDbBlockBegin
  2
*D24
 70
     1
 10
0.0
 20
0.0
 30
0.0
  3
*D24
  1

  0
LINE
  5
1CED
330
BF9
100
AcDbEntity
  8
SUNPOU
100
AcDbLine
 10
516.982401811106
 20
352.4378028057564
 30
0.0
 11
532.5822542500089
 21
352.4378028057564
 31
0.0
  0
LINE
  5
1CEE
330
BF9
100
AcDbEntity
  8
SUNPOU
100
AcDbLine
 10
516.982401811106
 20
359.1044694724231
 30
0.0
 11
532.5822542500089
 21
359.1044694724231
 31
0.0
  0
LINE
  5
1CEF
330
BF9
100
AcDbEntity
  8
SUNPOU
100
AcDbLine
 10
529.5822542500091
 20
344.9378028057564
 30
0.0
 11
529.5822542500091
 21
337.4378028057563
 31
0.0
  0
LINE
  5
1CF0
330
BF9
100
AcDbEntity
  8
SUNPOU
100
AcDbLine
 10
529.5822542500091
 20
366.604469472423
 30
0.0
 11
529.5822542500091
 21
374.1044694724231
 31
0.0
  0
MTEXT
  5
1CF1
330
BF9
100
AcDbEntity
  8
SUNPOU
 62
     6
100
AcDbMText
 10
519.8688371301214
 20
366.9394742600987
 30
0.0
 40
7.5
 41
0.0
 71
     5
 72
     1
  1
\A1;80
  7
SUNPOU
 11
0.0000000000000001
 21
1.0
 31
0.0
1001
ACAD
1000
MTEXTBEGIN
1070
    73
1070
     1
1070
    44
1040
1.0
1070
    74
1070
     0
1000
MTEXTEND
1000
MTEXTBEGIN
1070
    73
1070
     1
1070
    44
1040
1.0
1070
    74
1070
     0
1000
MTEXTEND
  0
LINE
  5
1CF2
330
BF9
100
AcDbEntity
  8
SUNPOU
100
AcDbLine
 10
529.5822542500091
 20
352.4378028057564
 30
0.0
 11
529.5822542500091
 21
359.1044694724231
 31
0.0
  0
INSERT
  5
1CF3
330
BF9
100
AcDbEntity
  8
SUNPOU
100
AcDbBlockReference
  2
_OPEN30
 10
529.5822542500091
 20
352.4378028057564
 30
0.0
 41
7.5
 42
7.5
 43
7.5
 50
90.0
  0
INSERT
  5
1CF4
330
BF9
100
AcDbEntity
  8
SUNPOU
100
AcDbBlockReference
  2
_OPEN30
 10
529.5822542500091
 20
359.1044694724231
 30
0.0
 41
7.5
 42
7.5
 43
7.5
 50
270.0
  0
POINT
  5
1CF5
330
BF9
100
AcDbEntity
  8
DEFPOINTS
 62
     0
100
AcDbPoint
 10
512.482401811106
 20
352.4378028057564
 30
0.0
  0
POINT
  5
1CF6
330
BF9
100
AcDbEntity
  8
DEFPOINTS
 62
     0
100
AcDbPoint
 10
512.482401811106
 20
359.1044694724231
 30
0.0
  0
POINT
  5
1CF7
330
BF9
100
AcDbEntity
  8
DEFPOINTS
 62
     0
100
AcDbPoint
 10
529.5822542500091
 20
359.1044694724231
 30
0.0
  0
ENDBLK
  5
C06
330
BF9
100
AcDbEntity
  8
0
100
AcDbBlockEnd
  0
BLOCK
  5
D11
330
D07
100
AcDbEntity
  8
0
100
AcDbBlockBegin
  2
*D25
 70
     1
 10
0.0
 20
0.0
 30
0.0
  3
*D25
  1

  0
LINE
  5
1CF8
330
D07
100
AcDbEntity
  8
SUNPOU
100
AcDbLine
 10
304.0832902475892
 20
436.0628028057564
 30
0.0
 11
326.315681757661
 21
436.0628028057564
 31
0.0
  0
LINE
  5
1CF9
330
D07
100
AcDbEntity
  8
SUNPOU
100
AcDbLine
 10
304.0832902475892
 20
117.3128028057562
 30
0.0
 11
326.3156817576608
 21
117.3128028057562
 31
0.0
  0
LINE
  5
1CFA
330
D07
100
AcDbEntity
  8
SUNPOU
100
AcDbLine
 10
323.315681757661
 20
428.5628028057564
 30
0.0
 11
323.3156817576608
 21
124.8128028057562
 31
0.0
  0
INSERT
  5
1CFB
330
D07
100
AcDbEntity
  8
SUNPOU
100
AcDbBlockReference
  2
_OPEN30
 10
323.315681757661
 20
436.0628028057564
 30
0.0
 41
7.5
 42
7.5
 43
7.5
 50
90.0
  0
INSERT
  5
1CFC
330
D07
100
AcDbEntity
  8
SUNPOU
100
AcDbBlockReference
  2
_OPEN30
 10
323.3156817576608
 20
117.3128028057562
 30
0.0
 41
7.5
 42
7.5
 43
7.5
 50
270.0
  0
MTEXT
  5
1CFD
330
D07
100
AcDbEntity
  8
SUNPOU
 62
     6
100
AcDbMText
 10
316.5656817576608
 20
276.6878028057563
 30
0.0
 40
7.5
 41
0.0
 71
     5
 72
     1
  1
\A1;Wo
  7
SUNPOU
 11
0.0000000000000001
 21
1.0
 31
0.0
1001
ACAD
1000
MTEXTBEGIN
1070
    73
1070
     1
1070
    44
1040
1.0
1070
    74
1070
     0
1000
MTEXTEND
1000
MTEXTBEGIN
1070
    73
1070
     1
1070
    44
1040
1.0
1070
    74
1070
     0
1000
MTEXTEND
  0
POINT
  5
1CFE
330
D07
100
AcDbEntity
  8
DEFPOINTS
 62
     0
100
AcDbPoint
 10
299.5832902475894
 20
436.0628028057564
 30
0.0
  0
POINT
  5
1CFF
330
D07
100
AcDbEntity
  8
DEFPOINTS
 62
     0
100
AcDbPoint
 10
299.5832902475892
 20
117.3128028057562
 30
0.0
  0
POINT
  5
1D00
330
D07
100
AcDbEntity
  8
DEFPOINTS
 62
     0
100
AcDbPoint
 10
323.3156817576608
 20
117.3128028057562
 30
0.0
  0
ENDBLK
  5
D12
330
D07
100
AcDbEntity
  8
0
100
AcDbBlockEnd
  0
BLOCK
  5
D1E
330
D14
100
AcDbEntity
  8
0
100
AcDbBlockBegin
  2
*D26
 70
     1
 10
0.0
 20
0.0
 30
0.0
  3
*D26
  1

  0
LINE
  5
1E5B
330
D14
100
AcDbEntity
  8
SUNPOU
100
AcDbLine
 10
104.249956914256
 20
112.8128028057562
 30
0.0
 11
104.249956914256
 21
82.53019773404094
 31
0.0
  0
LINE
  5
1E5C
330
D14
100
AcDbEntity
  8
SUNPOU
100
AcDbLine
 10
131.7499569142559
 20
112.8961361390895
 30
0.0
 11
131.7499569142559
 21
82.53019773404094
 31
0.0
  0
LINE
  5
1E5D
330
D14
100
AcDbEntity
  8
SUNPOU
100
AcDbLine
 10
111.7499569142559
 20
85.53019773404093
 30
0.0
 11
124.2499569142559
 21
85.53019773404093
 31
0.0
  0
MTEXT
  5
1E5E
330
D14
100
AcDbEntity
  8
SUNPOU
 62
     6
100
AcDbMText
 10
117.248348824215
 20
76.21549937195618
 30
0.0
 40
7.5
 41
0.0
 71
     5
 72
     1
  1
\A1;330
  7
SUNPOU
 11
-1.0
 21
0.0000000000000001
 31
0.0
1001
ACAD
1000
MTEXTBEGIN
1070
    73
1070
     1
1070
    44
1040
1.0
1070
    74
1070
     0
1000
MTEXTEND
1000
MTEXTBEGIN
1070
    73
1070
     1
1070
    44
1040
1.0
1070
    74
1070
     0
1000
MTEXTEND
  0
INSERT
  5
1E5F
330
D14
100
AcDbEntity
  8
SUNPOU
100
AcDbBlockReference
  2
_OPEN30
 10
104.249956914256
 20
85.53019773404093
 30
0.0
 41
7.5
 42
7.5
 43
7.5
 50
180.0
  0
INSERT
  5
1E60
330
D14
100
AcDbEntity
  8
SUNPOU
100
AcDbBlockReference
  2
_OPEN30
 10
131.7499569142559
 20
85.53019773404093
 30
0.0
 41
7.5
 42
7.5
 43
7.5
  0
POINT
  5
1E61
330
D14
100
AcDbEntity
  8
DEFPOINTS
 62
     0
100
AcDbPoint
 10
104.249956914256
 20
117.3128028057562
 30
0.0
  0
POINT
  5
1E62
330
D14
100
AcDbEntity
  8
DEFPOINTS
 62
     0
100
AcDbPoint
 10
131.7499569142559
 20
117.3961361390895
 30
0.0
  0
POINT
  5
1E63
330
D14
100
AcDbEntity
  8
DEFPOINTS
 62
     0
100
AcDbPoint
 10
131.7499569142559
 20
85.53019773404093
 30
0.0
  0
ENDBLK
  5
D1F
330
D14
100
AcDbEntity
  8
0
100
AcDbBlockEnd
  0
BLOCK
  5
D49
330
D3D
100
AcDbEntity
  8
0
100
AcDbBlockBegin
  2
*D27
 70
     1
 10
0.0
 20
0.0
 30
0.0
  3
*D27
  1

  0
LINE
  5
1E64
330
D3D
100
AcDbEntity
  8
SUNPOU
100
AcDbLine
 10
132.0832902475894
 20
113.229469472423
 30
0.0
 11
132.0832902475894
 21
99.69836076468865
 31
0.0
  0
LINE
  5
1E65
330
D3D
100
AcDbEntity
  8
SUNPOU
100
AcDbLine
 10
131.7499569142559
 20
113.229469472423
 30
0.0
 11
131.7499569142559
 21
99.69836076468865
 31
0.0
  0
LINE
  5
1E66
330
D3D
100
AcDbEntity
  8
SUNPOU
100
AcDbLine
 10
139.5832902475893
 20
102.6983607646885
 30
0.0
 11
147.0832902475893
 21
102.6983607646885
 31
0.0
  0
LINE
  5
1E67
330
D3D
100
AcDbEntity
  8
SUNPOU
100
AcDbLine
 10
124.2499569142559
 20
102.6983607646885
 30
0.0
 11
116.749956914256
 21
102.6983607646885
 31
0.0
  0
MTEXT
  5
1E68
330
D3D
100
AcDbEntity
  8
SUNPOU
 62
     6
100
AcDbMText
 10
138.6034966529454
 20
94.0686699194539
 30
0.0
 40
7.5
 41
0.0
 71
     5
 72
     1
  1
\A1;4
  7
SUNPOU
 11
-1.0
 21
0.0000000000000001
 31
0.0
1001
ACAD
1000
MTEXTBEGIN
1070
    73
1070
     1
1070
    44
1040
1.0
1070
    74
1070
     0
1000
MTEXTEND
1000
MTEXTBEGIN
1070
    73
1070
     1
1070
    44
1040
1.0
1070
    74
1070
     0
1000
MTEXTEND
  0
LINE
  5
1E69
330
D3D
100
AcDbEntity
  8
SUNPOU
100
AcDbLine
 10
132.0832902475894
 20
102.6983607646885
 30
0.0
 11
131.7499569142559
 21
102.6983607646885
 31
0.0
  0
INSERT
  5
1E6A
330
D3D
100
AcDbEntity
  8
SUNPOU
100
AcDbBlockReference
  2
_OPEN30
 10
132.0832902475894
 20
102.6983607646885
 30
0.0
 41
7.5
 42
7.5
 43
7.5
 50
180.0
  0
INSERT
  5
1E6B
330
D3D
100
AcDbEntity
  8
SUNPOU
100
AcDbBlockReference
  2
_OPEN30
 10
131.7499569142559
 20
102.6983607646885
 30
0.0
 41
7.5
 42
7.5
 43
7.5
  0
POINT
  5
1E6C
330
D3D
100
AcDbEntity
  8
DEFPOINTS
 62
     0
100
AcDbPoint
 10
132.0832902475894
 20
117.7294694724229
 30
0.0
  0
POINT
  5
1E6D
330
D3D
100
AcDbEntity
  8
DEFPOINTS
 62
     0
100
AcDbPoint
 10
131.7499569142559
 20
117.7294694724229
 30
0.0
  0
POINT
  5
1E6E
330
D3D
100
AcDbEntity
  8
DEFPOINTS
 62
     0
100
AcDbPoint
 10
131.7499569142559
 20
102.6983607646885
 30
0.0
  0
ENDBLK
  5
D4A
330
D3D
100
AcDbEntity
  8
0
100
AcDbBlockEnd
  0
BLOCK
  5
DB1
330
DA7
100
AcDbEntity
  8
0
100
AcDbBlockBegin
  2
*D28
 70
     1
 10
0.0
 20
0.0
 30
0.0
  3
*D28
  1

  0
LINE
  5
1E52
330
DA7
100
AcDbEntity
  8
SUNPOU
100
AcDbLine
 10
131.7499569142559
 20
112.8961361390894
 30
0.0
 11
131.7499569142559
 21
82.53019773404094
 31
0.0
  0
LINE
  5
1E53
330
DA7
100
AcDbEntity
  8
SUNPOU
100
AcDbLine
 10
299.5832902475892
 20
112.8961361390895
 30
0.0
 11
299.5832902475892
 21
82.53019773404094
 31
0.0
  0
LINE
  5
1E54
330
DA7
100
AcDbEntity
  8
SUNPOU
100
AcDbLine
 10
139.2499569142559
 20
85.53019773404093
 30
0.0
 11
292.0832902475893
 21
85.53019773404093
 31
0.0
  0
MTEXT
  5
1E55
330
DA7
100
AcDbEntity
  8
SUNPOU
 62
     6
100
AcDbMText
 10
215.7995829927128
 20
75.82738628362017
 30
0.0
 40
7.5
 41
0.0
 71
     5
 72
     1
  1
\A1;H
  7
SUNPOU
 11
-1.0
 21
0.0000000000000001
 31
0.0
1001
ACAD
1000
MTEXTBEGIN
1070
    73
1070
     1
1070
    44
1040
1.0
1070
    74
1070
     0
1000
MTEXTEND
1000
MTEXTBEGIN
1070
    73
1070
     1
1070
    44
1040
1.0
1070
    74
1070
     0
1000
MTEXTEND
  0
INSERT
  5
1E56
330
DA7
100
AcDbEntity
  8
SUNPOU
100
AcDbBlockReference
  2
_OPEN30
 10
131.7499569142559
 20
85.53019773404093
 30
0.0
 41
7.5
 42
7.5
 43
7.5
 50
180.0
  0
INSERT
  5
1E57
330
DA7
100
AcDbEntity
  8
SUNPOU
100
AcDbBlockReference
  2
_OPEN30
 10
299.5832902475892
 20
85.53019773404093
 30
0.0
 41
7.5
 42
7.5
 43
7.5
  0
POINT
  5
1E58
330
DA7
100
AcDbEntity
  8
DEFPOINTS
 62
     0
100
AcDbPoint
 10
131.7499569142559
 20
117.3961361390895
 30
0.0
  0
POINT
  5
1E59
330
DA7
100
AcDbEntity
  8
DEFPOINTS
 62
     0
100
AcDbPoint
 10
299.5832902475892
 20
117.3961361390895
 30
0.0
  0
POINT
  5
1E5A
330
DA7
100
AcDbEntity
  8
DEFPOINTS
 62
     0
100
AcDbPoint
 10
299.5832902475892
 20
85.53019773404093
 30
0.0
  0
ENDBLK
  5
DB2
330
DA7
100
AcDbEntity
  8
0
100
AcDbBlockEnd
  0
BLOCK
  5
DBE
330
DB4
100
AcDbEntity
  8
0
100
AcDbBlockBegin
  2
*D29
 70
     1
 10
0.0
 20
0.0
 30
0.0
  3
*D29
  1

  0
LINE
  5
1E0A
330
DB4
100
AcDbEntity
  8
SUNPOU
100
AcDbLine
 10
132.0832902475894
 20
113.229469472423
 30
0.0
 11
132.0832902475894
 21
99.69836076468865
 31
0.0
  0
LINE
  5
1E0B
330
DB4
100
AcDbEntity
  8
SUNPOU
100
AcDbLine
 10
298.7499569142559
 20
113.2294694724229
 30
0.0
 11
298.7499569142559
 21
99.69836076468865
 31
0.0
  0
LINE
  5
1E0C
330
DB4
100
AcDbEntity
  8
SUNPOU
100
AcDbLine
 10
139.5832902475893
 20
102.6983607646885
 30
0.0
 11
291.2499569142559
 21
102.6983607646885
 31
0.0
  0
MTEXT
  5
1E0D
330
DB4
100
AcDbEntity
  8
SUNPOU
 62
     6
100
AcDbMText
 10
215.4939596264838
 20
94.8448960961257
 30
0.0
 40
7.5
 41
0.0
 71
     5
 72
     1
  1
\A1;DH
  7
SUNPOU
 11
-1.0
 21
0.0000000000000001
 31
0.0
1001
ACAD
1000
MTEXTBEGIN
1070
    73
1070
     1
1070
    44
1040
1.0
1070
    74
1070
     0
1000
MTEXTEND
1000
MTEXTBEGIN
1070
    73
1070
     1
1070
    44
1040
1.0
1070
    74
1070
     0
1000
MTEXTEND
  0
INSERT
  5
1E0E
330
DB4
100
AcDbEntity
  8
SUNPOU
100
AcDbBlockReference
  2
_OPEN30
 10
132.0832902475894
 20
102.6983607646885
 30
0.0
 41
7.5
 42
7.5
 43
7.5
 50
180.0
  0
INSERT
  5
1E0F
330
DB4
100
AcDbEntity
  8
SUNPOU
100
AcDbBlockReference
  2
_OPEN30
 10
298.7499569142559
 20
102.6983607646885
 30
0.0
 41
7.5
 42
7.5
 43
7.5
  0
POINT
  5
1E10
330
DB4
100
AcDbEntity
  8
DEFPOINTS
 62
     0
100
AcDbPoint
 10
132.0832902475894
 20
117.7294694724229
 30
0.0
  0
POINT
  5
1E11
330
DB4
100
AcDbEntity
  8
DEFPOINTS
 62
     0
100
AcDbPoint
 10
298.7499569142559
 20
117.7294694724229
 30
0.0
  0
POINT
  5
1E12
330
DB4
100
AcDbEntity
  8
DEFPOINTS
 62
     0
100
AcDbPoint
 10
298.7499569142559
 20
102.6983607646885
 30
0.0
  0
ENDBLK
  5
DBF
330
DB4
100
AcDbEntity
  8
0
100
AcDbBlockEnd
  0
BLOCK
  5
DCD
330
DC1
100
AcDbEntity
  8
0
100
AcDbBlockBegin
  2
*D30
 70
     1
 10
0.0
 20
0.0
 30
0.0
  3
*D30
  1

  0
LINE
  5
1E7A
330
DC1
100
AcDbEntity
  8
SUNPOU
100
AcDbLine
 10
298.7499569142559
 20
113.2294694724229
 30
0.0
 11
298.7499569142559
 21
99.69836076468865
 31
0.0
  0
LINE
  5
1E7B
330
DC1
100
AcDbEntity
  8
SUNPOU
100
AcDbLine
 10
299.5832902475892
 20
107.1983607646885
 30
0.0
 11
299.5832902475892
 21
105.6983607646885
 31
0.0
  0
LINE
  5
1E7C
330
DC1
100
AcDbEntity
  8
SUNPOU
100
AcDbLine
 10
291.2499569142559
 20
102.6983607646885
 30
0.0
 11
283.7499569142559
 21
102.6983607646885
 31
0.0
  0
LINE
  5
1E7D
330
DC1
100
AcDbEntity
  8
SUNPOU
100
AcDbLine
 10
307.0832902475892
 20
102.6983607646885
 30
0.0
 11
314.5832902475892
 21
102.6983607646885
 31
0.0
  0
MTEXT
  5
1E7E
330
DC1
100
AcDbEntity
  8
SUNPOU
 62
     6
100
AcDbMText
 10
286.8501987527181
 20
93.68055880086512
 30
0.0
 40
7.5
 41
0.0
 71
     5
 72
     1
  1
\A1;10
  7
SUNPOU
 11
-1.0
 21
0.0000000000000001
 31
0.0
1001
ACAD
1000
MTEXTBEGIN
1070
    73
1070
     1
1070
    44
1040
1.0
1070
    74
1070
     0
1000
MTEXTEND
1000
MTEXTBEGIN
1070
    73
1070
     1
1070
    44
1040
1.0
1070
    74
1070
     0
1000
MTEXTEND
  0
LINE
  5
1E7F
330
DC1
100
AcDbEntity
  8
SUNPOU
100
AcDbLine
 10
298.7499569142559
 20
102.6983607646885
 30
0.0
 11
299.5832902475892
 21
102.6983607646885
 31
0.0
  0
INSERT
  5
1E80
330
DC1
100
AcDbEntity
  8
SUNPOU
100
AcDbBlockReference
  2
_OPEN30
 10
298.7499569142559
 20
102.6983607646885
 30
0.0
 41
7.5
 42
7.5
 43
7.5
  0
INSERT
  5
1E81
330
DC1
100
AcDbEntity
  8
SUNPOU
100
AcDbBlockReference
  2
_OPEN30
 10
299.5832902475892
 20
102.6983607646885
 30
0.0
 41
7.5
 42
7.5
 43
7.5
 50
180.0
  0
POINT
  5
1E82
330
DC1
100
AcDbEntity
  8
DEFPOINTS
 62
     0
100
AcDbPoint
 10
298.7499569142559
 20
117.7294694724229
 30
0.0
  0
POINT
  5
1E83
330
DC1
100
AcDbEntity
  8
DEFPOINTS
 62
     0
100
AcDbPoint
 10
299.5832902475892
 20
102.6983607646885
 30
0.0
  0
POINT
  5
1E84
330
DC1
100
AcDbEntity
  8
DEFPOINTS
 62
     0
100
AcDbPoint
 10
299.5832902475892
 20
102.6983607646885
 30
0.0
  0
ENDBLK
  5
DCE
330
DC1
100
AcDbEntity
  8
0
100
AcDbBlockEnd
  0
BLOCK
  5
E51
330
E47
100
AcDbEntity
  8
0
100
AcDbBlockBegin
  2
*D31
 70
     1
 10
0.0
 20
0.0
 30
0.0
  3
*D31
  1

  0
LINE
  5
1D32
330
E47
100
AcDbEntity
  8
SUNPOU
100
AcDbLine
 10
299.5832902475892
 20
383.365395306713
 30
0.0
 11
299.5832902475892
 21
381.865395306713
 31
0.0
  0
LINE
  5
1D33
330
E47
100
AcDbEntity
  8
SUNPOU
100
AcDbLine
 10
249.5832902475894
 20
362.1461361390895
 30
0.0
 11
249.5832902475894
 21
381.865395306713
 31
0.0
  0
LINE
  5
1D34
330
E47
100
AcDbEntity
  8
SUNPOU
100
AcDbLine
 10
292.0832902475893
 20
378.8653953067131
 30
0.0
 11
257.0832902475892
 21
378.8653953067131
 31
0.0
  0
MTEXT
  5
1D35
330
E47
100
AcDbEntity
  8
SUNPOU
 62
     6
100
AcDbMText
 10
274.8547787257239
 20
369.3470373881721
 30
0.0
 40
7.5
 41
0.0
 71
     5
 72
     1
  1
\A1;600
  7
SUNPOU
 11
-1.0
 21
0.0000000000000001
 31
0.0
1001
ACAD
1000
MTEXTBEGIN
1070
    73
1070
     1
1070
    44
1040
1.0
1070
    74
1070
     0
1000
MTEXTEND
1000
MTEXTBEGIN
1070
    73
1070
     1
1070
    44
1040
1.0
1070
    74
1070
     0
1000
MTEXTEND
  0
INSERT
  5
1D36
330
E47
100
AcDbEntity
  8
SUNPOU
100
AcDbBlockReference
  2
_OPEN30
 10
299.5832902475892
 20
378.8653953067131
 30
0.0
 41
7.5
 42
7.5
 43
7.5
  0
INSERT
  5
1D37
330
E47
100
AcDbEntity
  8
SUNPOU
100
AcDbBlockReference
  2
_OPEN30
 10
249.5832902475894
 20
378.8653953067131
 30
0.0
 41
7.5
 42
7.5
 43
7.5
 50
180.0
  0
POINT
  5
1D38
330
E47
100
AcDbEntity
  8
DEFPOINTS
 62
     0
100
AcDbPoint
 10
299.5832902475892
 20
378.8653953067131
 30
0.0
  0
POINT
  5
1D39
330
E47
100
AcDbEntity
  8
DEFPOINTS
 62
     0
100
AcDbPoint
 10
249.5832902475894
 20
357.6461361390895
 30
0.0
  0
POINT
  5
1D3A
330
E47
100
AcDbEntity
  8
DEFPOINTS
 62
     0
100
AcDbPoint
 10
249.5832902475894
 20
378.8653953067131
 30
0.0
  0
ENDBLK
  5
E52
330
E47
100
AcDbEntity
  8
0
100
AcDbBlockEnd
  0
BLOCK
  5
EAD
330
EA7
100
AcDbEntity
  8
0
100
AcDbBlockBegin
  2
*D32
 70
     1
 10
0.0
 20
0.0
 30
0.0
  3
*D32
  1

  0
LINE
  5
1DB7
330
EA7
100
AcDbEntity
  8
SUNPOU
100
AcDbLine
 10
244.599066356766
 20
543.8810900590685
 30
0.0
 11
260.2902685487443
 21
522.3402294966295
 31
0.0
  0
MTEXT
  5
1DB8
330
EA7
100
AcDbEntity
  8
SUNPOU
 62
     6
100
AcDbMText
 10
249.3447402716863
 20
521.4787693349445
 30
0.0
 40
7.5
 41
0.0
 71
     5
 72
     1
  1
\A1;R34
  7
SUNPOU
 11
-0.5735764363510462
 21
0.8191520442889917
 31
0.0
1001
ACAD
1000
MTEXTBEGIN
1070
    73
1070
     1
1070
    44
1040
1.0
1070
    74
1070
     0
1000
MTEXTEND
1000
MTEXTBEGIN
1070
    73
1070
     1
1070
    44
1040
1.0
1070
    74
1070
     0
1000
MTEXTEND
  0
INSERT
  5
1DB9
330
EA7
100
AcDbEntity
  8
SUNPOU
100
AcDbBlockReference
  2
_OPEN30
 10
264.7061791093388
 20
516.2780736160178
 30
0.0
 41
7.5
 42
7.5
 43
7.5
 50
306.0710533962758
  0
POINT
  5
1DBA
330
EA7
100
AcDbEntity
  8
DEFPOINTS
 62
     0
100
AcDbPoint
 10
264.7061791093388
 20
516.2780736160178
 30
0.0
  0
POINT
  5
1DBB
330
EA7
100
AcDbEntity
  8
DEFPOINTS
 62
     0
100
AcDbPoint
 10
244.599066356766
 20
543.8810900590685
 30
0.0
  0
ENDBLK
  5
EAE
330
EA7
100
AcDbEntity
  8
0
100
AcDbBlockEnd
  0
BLOCK
  5
F76
330
F6C
100
AcDbEntity
  8
0
100
AcDbBlockBegin
  2
*D33
 70
     1
 10
0.0
 20
0.0
 30
0.0
  3
*D33
  1

  0
LINE
  5
1F36
330
F6C
100
AcDbEntity
  8
SUNPOU
100
AcDbLine
 10
546.0350833900106
 20
743.4802513244467
 30
0.0
 11
581.3496147086657
 21
743.4802513244467
 31
0.0
  0
LINE
  5
1F37
330
F6C
100
AcDbEntity
  8
SUNPOU
100
AcDbLine
 10
545.114594032716
 20
679.4810713244467
 30
0.0
 11
581.3496147086657
 21
679.4810713244467
 31
0.0
  0
LINE
  5
1F38
330
F6C
100
AcDbEntity
  8
SUNPOU
100
AcDbLine
 10
578.3496147086657
 20
735.9802513244467
 30
0.0
 11
578.3496147086657
 21
686.9810713244467
 31
0.0
  0
INSERT
  5
1F39
330
F6C
100
AcDbEntity
  8
SUNPOU
100
AcDbBlockReference
  2
_OPEN30
 10
578.3496147086657
 20
743.4802513244467
 30
0.0
 41
7.5
 42
7.5
 43
7.5
 50
90.0
  0
INSERT
  5
1F3A
330
F6C
100
AcDbEntity
  8
SUNPOU
100
AcDbBlockReference
  2
_OPEN30
 10
578.3496147086657
 20
679.4810713244467
 30
0.0
 41
7.5
 42
7.5
 43
7.5
 50
270.0
  0
MTEXT
  5
1F3B
330
F6C
100
AcDbEntity
  8
SUNPOU
 62
     6
100
AcDbMText
 10
571.5996147086656
 20
711.4806613244468
 30
0.0
 40
7.5
 41
0.0
 71
     5
 72
     1
  1
\A1;64
  7
SUNPOU
 11
0.0000000000000001
 21
1.0
 31
0.0
1001
ACAD
1000
MTEXTBEGIN
1070
    73
1070
     1
1070
    44
1040
1.0
1070
    74
1070
     0
1000
MTEXTEND
1000
MTEXTBEGIN
1070
    73
1070
     1
1070
    44
1040
1.0
1070
    74
1070
     0
1000
MTEXTEND
  0
POINT
  5
1F3C
330
F6C
100
AcDbEntity
  8
DEFPOINTS
 62
     0
100
AcDbPoint
 10
541.5350833900106
 20
743.4802513244467
 30
0.0
  0
POINT
  5
1F3D
330
F6C
100
AcDbEntity
  8
DEFPOINTS
 62
     0
100
AcDbPoint
 10
540.614594032716
 20
679.4810713244467
 30
0.0
  0
POINT
  5
1F3E
330
F6C
100
AcDbEntity
  8
DEFPOINTS
 62
     0
100
AcDbPoint
 10
578.3496147086657
 20
679.4810713244467
 30
0.0
  0
ENDBLK
  5
F77
330
F6C
100
AcDbEntity
  8
0
100
AcDbBlockEnd
  0
BLOCK
  5
1975
330
1969
100
AcDbEntity
  8
0
100
AcDbBlockBegin
  2
*D34
 70
     1
 10
0.0
 20
0.0
 30
0.0
  3
*D34
  1

  0
LINE
  5
1D3B
330
1969
100
AcDbEntity
  8
SUNPOU
100
AcDbLine
 10
500.8990684777726
 20
435.7711361390896
 30
0.0
 11
485.3986152938793
 21
435.7711361390896
 31
0.0
  0
LINE
  5
1D3C
330
1969
100
AcDbEntity
  8
SUNPOU
100
AcDbLine
 10
499.8497129222172
 20
436.1878028057563
 30
0.0
 11
485.3986152938793
 21
436.1878028057563
 31
0.0
  0
LINE
  5
1D3D
330
1969
100
AcDbEntity
  8
SUNPOU
100
AcDbLine
 10
488.3986152938795
 20
428.2711361390896
 30
0.0
 11
488.3986152938795
 21
420.7711361390896
 31
0.0
  0
LINE
  5
1D3E
330
1969
100
AcDbEntity
  8
SUNPOU
100
AcDbLine
 10
488.3986152938795
 20
443.6878028057562
 30
0.0
 11
488.3986152938795
 21
451.1878028057562
 31
0.0
  0
MTEXT
  5
1D3F
330
1969
100
AcDbEntity
  8
SUNPOU
 62
     6
100
AcDbMText
 10
478.4647154700177
 20
441.9385247379763
 30
0.0
 40
7.5
 41
0.0
 71
     5
 72
     1
  1
\A1;5
  7
SUNPOU
 11
0.0000000000000001
 21
1.0
 31
0.0
1001
ACAD
1000
MTEXTBEGIN
1070
    73
1070
     1
1070
    44
1040
1.0
1070
    74
1070
     0
1000
MTEXTEND
1000
MTEXTBEGIN
1070
    73
1070
     1
1070
    44
1040
1.0
1070
    74
1070
     0
1000
MTEXTEND
  0
LINE
  5
1D40
330
1969
100
AcDbEntity
  8
SUNPOU
100
AcDbLine
 10
488.3986152938795
 20
435.7711361390896
 30
0.0
 11
488.3986152938795
 21
436.1878028057563
 31
0.0
  0
INSERT
  5
1D41
330
1969
100
AcDbEntity
  8
SUNPOU
100
AcDbBlockReference
  2
_OPEN30
 10
488.3986152938795
 20
435.7711361390896
 30
0.0
 41
7.5
 42
7.5
 43
7.5
 50
90.0
  0
INSERT
  5
1D42
330
1969
100
AcDbEntity
  8
SUNPOU
100
AcDbBlockReference
  2
_OPEN30
 10
488.3986152938795
 20
436.1878028057563
 30
0.0
 41
7.5
 42
7.5
 43
7.5
 50
270.0
  0
POINT
  5
1D43
330
1969
100
AcDbEntity
  8
DEFPOINTS
 62
     0
100
AcDbPoint
 10
505.3990684777728
 20
435.7711361390896
 30
0.0
  0
POINT
  5
1D44
330
1969
100
AcDbEntity
  8
DEFPOINTS
 62
     0
100
AcDbPoint
 10
504.3497129222171
 20
436.1878028057563
 30
0.0
  0
POINT
  5
1D45
330
1969
100
AcDbEntity
  8
DEFPOINTS
 62
     0
100
AcDbPoint
 10
488.3986152938795
 20
436.1878028057563
 30
0.0
  0
ENDBLK
  5
1976
330
1969
100
AcDbEntity
  8
0
100
AcDbBlockEnd
  0
BLOCK
  5
1981
330
1977
100
AcDbEntity
  8
0
100
AcDbBlockBegin
  2
*D35
 70
     1
 10
0.0
 20
0.0
 30
0.0
  3
*D35
  1

  0
LINE
  5
1D46
330
1977
100
AcDbEntity
  8
SUNPOU
100
AcDbLine
 10
500.8990684777725
 20
435.7711361390896
 30
0.0
 11
485.3986152938793
 21
435.7711361390896
 31
0.0
  0
LINE
  5
1D47
330
1977
100
AcDbEntity
  8
SUNPOU
100
AcDbLine
 10
500.8990684777726
 20
352.4378028057564
 30
0.0
 11
485.3986152938793
 21
352.4378028057564
 31
0.0
  0
LINE
  5
1D48
330
1977
100
AcDbEntity
  8
SUNPOU
100
AcDbLine
 10
488.3986152938795
 20
428.2711361390896
 30
0.0
 11
488.3986152938795
 21
359.9378028057564
 31
0.0
  0
INSERT
  5
1D49
330
1977
100
AcDbEntity
  8
SUNPOU
100
AcDbBlockReference
  2
_OPEN30
 10
488.3986152938795
 20
435.7711361390896
 30
0.0
 41
7.5
 42
7.5
 43
7.5
 50
90.0
  0
INSERT
  5
1D4A
330
1977
100
AcDbEntity
  8
SUNPOU
100
AcDbBlockReference
  2
_OPEN30
 10
488.3986152938795
 20
352.4378028057564
 30
0.0
 41
7.5
 42
7.5
 43
7.5
 50
270.0
  0
MTEXT
  5
1D4B
330
1977
100
AcDbEntity
  8
SUNPOU
 62
     6
100
AcDbMText
 10
481.6486152938794
 20
394.104469472423
 30
0.0
 40
7.5
 41
0.0
 71
     5
 72
     1
  1
\A1;DW1
  7
SUNPOU
 11
0.0000000000000001
 21
1.0
 31
0.0
1001
ACAD
1000
MTEXTBEGIN
1070
    73
1070
     1
1070
    44
1040
1.0
1070
    74
1070
     0
1000
MTEXTEND
1000
MTEXTBEGIN
1070
    73
1070
     1
1070
    44
1040
1.0
1070
    74
1070
     0
1000
MTEXTEND
  0
POINT
  5
1D4C
330
1977
100
AcDbEntity
  8
DEFPOINTS
 62
     0
100
AcDbPoint
 10
505.3990684777725
 20
435.7711361390896
 30
0.0
  0
POINT
  5
1D4D
330
1977
100
AcDbEntity
  8
DEFPOINTS
 62
     0
100
AcDbPoint
 10
505.3990684777728
 20
352.4378028057564
 30
0.0
  0
POINT
  5
1D4E
330
1977
100
AcDbEntity
  8
DEFPOINTS
 62
     0
100
AcDbPoint
 10
488.3986152938795
 20
352.4378028057564
 30
0.0
  0
ENDBLK
  5
1982
330
1977
100
AcDbEntity
  8
0
100
AcDbBlockEnd
  0
ENDSEC
  0
SECTION
  2
ENTITIES
  0
LINE
  5
357
330
A
100
AcDbEntity
  8
03
100
AcDbLine
 10
299.5832902475894
 20
80.15429002544818
 30
0.0
 11
299.5832902475894
 21
499.3575430015398
 31
0.0
  0
LINE
  5
358
330
A
100
AcDbEntity
  8
03
100
AcDbLine
 10
52.08329024758938
 20
437.9146546574229
 30
0.0
 11
52.08329024758938
 21
115.4609509540895
 31
0.0
  0
LINE
  5
359
330
A
100
AcDbEntity
  8
03
100
AcDbLine
 10
131.7499569142559
 20
117.3128028057562
 30
0.0
 11
131.7499569142559
 21
436.0628028057564
 31
0.0
  0
LINE
  5
35A
330
A
100
AcDbEntity
  8
03
100
AcDbLine
 10
104.1732082660788
 20
117.3128028057562
 30
0.0
 11
104.1732082660789
 21
436.0628028057564
 31
0.0
  0
LINE
  5
35B
330
A
100
AcDbEntity
  8
03
100
AcDbLine
 10
104.1732082660788
 20
352.2294694724228
 30
0.0
 11
52.08329024758938
 21
352.2294694724228
 31
0.0
  0
LINE
  5
35C
330
A
100
AcDbEntity
  8
03
100
AcDbLine
 10
52.08329024758938
 20
358.979469472423
 30
0.0
 11
104.1732082660788
 21
358.979469472423
 31
0.0
  0
LINE
  5
35D
330
A
100
AcDbEntity
  8
03
100
AcDbLine
 10
104.1732082660788
 20
201.0628028057561
 30
0.0
 11
52.08329024758938
 21
201.0628028057561
 31
0.0
  0
LINE
  5
35E
330
A
100
AcDbEntity
  8
03
100
AcDbLine
 10
104.1732082660788
 20
194.3961361390895
 30
0.0
 11
52.08329024758938
 21
194.3961361390895
 31
0.0
  0
LINE
  5
35F
330
A
100
AcDbEntity
  8
03
100
AcDbLine
 10
54.58329024758938
 20
436.0628028057564
 30
0.0
 11
54.58329024758938
 21
358.979469472423
 31
0.0
  0
LINE
  5
360
330
A
100
AcDbEntity
  8
03
100
AcDbLine
 10
54.58329024758938
 20
352.2294694724228
 30
0.0
 11
54.58329024758938
 21
201.0628028057561
 31
0.0
  0
LINE
  5
361
330
A
100
AcDbEntity
  8
03
100
AcDbLine
 10
54.58329024758938
 20
194.3961361390895
 30
0.0
 11
54.58329024758938
 21
117.3128028057562
 31
0.0
  0
LINE
  5
362
330
A
100
AcDbEntity
  8
03
100
AcDbLine
 10
299.5832902475892
 20
117.3128028057562
 30
0.0
 11
52.08329024758933
 21
117.3128028057562
 31
0.0
  0
LINE
  5
363
330
A
100
AcDbEntity
  8
03
100
AcDbLine
 10
299.5832902475894
 20
436.0628028057564
 30
0.0
 11
52.08329024758938
 21
436.0628028057564
 31
0.0
  0
LINE
  5
364
330
A
100
AcDbEntity
  8
03
100
AcDbLine
 10
299.5832902475894
 20
115.4609509540895
 30
0.0
 11
52.08329024758938
 21
115.4609509540895
 31
0.0
  0
LINE
  5
365
330
A
100
AcDbEntity
  8
03
100
AcDbLine
 10
299.5832902475894
 20
437.9146546574229
 30
0.0
 11
52.08329024758938
 21
437.9146546574229
 31
0.0
  0
LINE
  5
36A
330
A
100
AcDbEntity
  8
02
100
AcDbLine
 10
186.7490663567663
 20
538.7310900590687
 30
0.0
 11
117.3220900365012
 21
538.7310900590687
 31
0.0
  0
LINE
  5
36B
330
A
100
AcDbEntity
  8
02
100
AcDbLine
 10
287.7490663567662
 20
538.7310900590687
 30
0.0
 11
320.5472789483577
 21
538.7310900590687
 31
0.0
  0
LINE
  5
36C
330
A
100
AcDbEntity
  8
02
100
AcDbLine
 10
174.5566050792217
 20
538.7310900590687
 30
0.0
 11
154.9227014169261
 21
558.3649937213643
 31
0.0
  0
LINE
  5
36D
330
A
100
AcDbEntity
  8
02
100
AcDbLine
 10
177.5566050792217
 20
538.7310900590687
 30
0.0
 11
157.922701416926
 21
558.3649937213643
 31
0.0
  0
LINE
  5
36E
330
A
100
AcDbEntity
  8
02
100
AcDbLine
 10
180.5566050792217
 20
538.7310900590687
 30
0.0
 11
160.922701416926
 21
558.3649937213643
 31
0.0
  0
LINE
  5
36F
330
A
100
AcDbEntity
  8
02
100
AcDbLine
 10
314.5472789483577
 20
538.7310900590687
 30
0.0
 11
294.913375286062
 21
558.3649937213643
 31
0.0
  0
LINE
  5
370
330
A
100
AcDbEntity
  8
02
100
AcDbLine
 10
317.5472789483577
 20
538.7310900590687
 30
0.0
 11
297.913375286062
 21
558.3649937213643
 31
0.0
  0
LINE
  5
371
330
A
100
AcDbEntity
  8
02
100
AcDbLine
 10
320.5472789483577
 20
538.7310900590687
 30
0.0
 11
300.913375286062
 21
558.3649937213643
 31
0.0
  0
LINE
  5
399
330
A
100
AcDbEntity
  8
SAISEN
100
AcDbLine
 10
210.592650211432
 20
246.7968332073709
 30
0.0
 11
210.592650211432
 21
238.4634998740375
 31
0.0
  0
LINE
  5
39A
330
A
100
AcDbEntity
  8
SAISEN
100
AcDbLine
 10
218.9259835447654
 20
238.4634998740374
 30
0.0
 11
218.9259835447654
 21
246.7968332073709
 31
0.0
  0
LINE
  5
39B
330
A
100
AcDbEntity
  8
SAISEN
100
AcDbLine
 10
218.9259835447654
 20
246.7968332073709
 30
0.0
 11
210.592650211432
 21
246.7968332073709
 31
0.0
  0
LINE
  5
39C
330
A
100
AcDbEntity
  8
SAISEN
100
AcDbLine
 10
210.592650211432
 20
238.4634998740375
 30
0.0
 11
204.342650211432
 21
238.4634998740375
 31
0.0
  0
LINE
  5
39D
330
A
100
AcDbEntity
  8
SAISEN
100
AcDbLine
 10
218.9259835447654
 20
238.4634998740374
 30
0.0
 11
225.1759835447654
 21
238.4634998740374
 31
0.0
  0
LINE
  5
39E
330
A
100
AcDbEntity
  8
SAISEN
100
AcDbLine
 10
204.342650211432
 20
238.4634998740375
 30
0.0
 11
214.7565586897505
 21
232.4510270107642
 31
0.0
  0
LINE
  5
39F
330
A
100
AcDbEntity
  8
SAISEN
100
AcDbLine
 10
214.7565586897505
 20
232.4510270107642
 30
0.0
 11
225.1759835447654
 21
238.4634998740374
 31
0.0
  0
LINE
  5
3A0
330
A
100
AcDbEntity
  8
SAISEN
100
AcDbLine
 10
210.592650211432
 20
306.4954390708081
 30
0.0
 11
210.592650211432
 21
314.8287724041415
 31
0.0
  0
LINE
  5
3A1
330
A
100
AcDbEntity
  8
SAISEN
100
AcDbLine
 10
218.9259835447654
 20
314.8287724041415
 30
0.0
 11
218.9259835447654
 21
306.4954390708081
 31
0.0
  0
LINE
  5
3A2
330
A
100
AcDbEntity
  8
SAISEN
100
AcDbLine
 10
218.9259835447654
 20
306.4954390708081
 30
0.0
 11
210.592650211432
 21
306.4954390708081
 31
0.0
  0
LINE
  5
3A3
330
A
100
AcDbEntity
  8
SAISEN
100
AcDbLine
 10
210.592650211432
 20
314.8287724041415
 30
0.0
 11
204.342650211432
 21
314.8287724041415
 31
0.0
  0
LINE
  5
3A4
330
A
100
AcDbEntity
  8
SAISEN
100
AcDbLine
 10
218.9259835447654
 20
314.8287724041415
 30
0.0
 11
225.1759835447654
 21
314.8287724041415
 31
0.0
  0
LINE
  5
3A5
330
A
100
AcDbEntity
  8
SAISEN
100
AcDbLine
 10
204.342650211432
 20
314.8287724041415
 30
0.0
 11
214.7565586897505
 21
320.8412452674148
 31
0.0
  0
LINE
  5
3A6
330
A
100
AcDbEntity
  8
SAISEN
100
AcDbLine
 10
214.7565586897505
 20
320.8412452674148
 30
0.0
 11
225.1759835447654
 21
314.8287724041415
 31
0.0
  0
LINE
  5
3A7
330
A
100
AcDbEntity
  8
SAISEN
100
AcDbLine
 10
181.7267643286733
 20
226.8831917021556
 30
0.0
 11
162.0295906241062
 21
246.5803654067228
 31
0.0
  0
LINE
  5
3A8
330
A
100
AcDbEntity
  8
SAISEN
100
AcDbLine
 10
163.0390235252304
 20
244.0816978967631
 30
0.0
 11
179.3120767687191
 21
227.8086446532749
 31
0.0
  0
LINE
  5
3A9
330
A
100
AcDbEntity
  8
SAISEN
100
AcDbLine
 10
179.6446708685834
 20
230.5146378403267
 30
0.0
 11
163.835220562665
 21
246.3240881462453
 31
0.0
  0
LINE
  5
3AA
330
A
100
AcDbEntity
  8
SAISEN
100
AcDbLine
 10
181.7267643286733
 20
308.0498583688221
 30
0.0
 11
162.0295906241062
 21
327.7470320733893
 31
0.0
  0
LINE
  5
3AB
330
A
100
AcDbEntity
  8
SAISEN
100
AcDbLine
 10
163.0390235252304
 20
325.2483645634299
 30
0.0
 11
179.3120767687191
 21
308.9753113199414
 31
0.0
  0
LINE
  5
3AC
330
A
100
AcDbEntity
  8
SAISEN
100
AcDbLine
 10
179.6446708685834
 20
311.6813045069935
 30
0.0
 11
163.835220562665
 21
327.4907548129117
 31
0.0
  0
LINE
  5
3AD
330
A
100
AcDbEntity
  8
SAISEN
100
AcDbLine
 10
181.7267643286731
 20
151.466525035489
 30
0.0
 11
162.029590624106
 21
171.163698740056
 31
0.0
  0
LINE
  5
3AE
330
A
100
AcDbEntity
  8
SAISEN
100
AcDbLine
 10
163.0390235252304
 20
168.6650312300965
 30
0.0
 11
179.3120767687189
 21
152.3919779866081
 31
0.0
  0
LINE
  5
3AF
330
A
100
AcDbEntity
  8
SAISEN
100
AcDbLine
 10
179.6446708685834
 20
155.0979711736601
 30
0.0
 11
163.8352205626649
 21
170.9074214795785
 31
0.0
  0
LINE
  5
3B0
330
A
100
AcDbEntity
  8
SAISEN
100
AcDbLine
 10
181.7267643286731
 20
385.9665250354888
 30
0.0
 11
162.0295906241062
 21
405.663698740056
 31
0.0
  0
LINE
  5
3B1
330
A
100
AcDbEntity
  8
SAISEN
100
AcDbLine
 10
163.0390235252304
 20
403.1650312300966
 30
0.0
 11
179.3120767687189
 21
386.8919779866081
 31
0.0
  0
LINE
  5
3B2
330
A
100
AcDbEntity
  8
SAISEN
100
AcDbLine
 10
179.6446708685834
 20
389.5979711736602
 30
0.0
 11
163.8352205626649
 21
405.4074214795784
 31
0.0
  0
LINE
  5
3B3
330
A
100
AcDbEntity
  8
SAISEN
100
AcDbLine
 10
218.9259835447654
 20
381.4954390708081
 30
0.0
 11
218.9259835447654
 21
414.8287724041415
 31
0.0
  0
ARC
  5
3B4
330
A
100
AcDbEntity
  8
SAISEN
100
AcDbCircle
 10
223.8910440757735
 20
405.4601191648447
 30
0.0
 40
24.47361268971309
100
AcDbArc
 50
200.7276584990784
 51
258.29492475128
  0
LINE
  5
3B5
330
A
100
AcDbEntity
  8
SAISEN
100
AcDbLine
 10
199.8115556712431
 20
396.4155532188616
 30
0.0
 11
202.1915000480404
 21
397.1809712506269
 31
0.0
  0
LINE
  5
3B6
330
A
100
AcDbEntity
  8
SAISEN
100
AcDbLine
 10
200.2361098278766
 20
399.1782066115415
 30
0.0
 11
199.8115556712431
 21
396.4155532188616
 31
0.0
  0
LINE
  5
3B7
330
A
100
AcDbEntity
  8
SAISEN
100
AcDbLine
 10
200.2361098278766
 20
399.1782066115415
 30
0.0
 11
202.1915000480404
 21
397.1809712506269
 31
0.0
  0
LINE
  5
3B8
330
A
100
AcDbEntity
  8
SAISEN
100
AcDbLine
 10
218.9259835447654
 20
171.7968332073709
 30
0.0
 11
218.9259835447654
 21
138.4634998740374
 31
0.0
  0
ARC
  5
3B9
330
A
100
AcDbEntity
  8
SAISEN
100
AcDbCircle
 10
223.8910440757735
 20
147.8321531133344
 30
0.0
 40
24.47361268971309
100
AcDbArc
 50
101.70507524872
 51
159.2723415009215
  0
LINE
  5
3BA
330
A
100
AcDbEntity
  8
SAISEN
100
AcDbLine
 10
199.8115556712431
 20
156.8767190593173
 30
0.0
 11
202.1915000480404
 21
156.111301027552
 31
0.0
  0
LINE
  5
3BB
330
A
100
AcDbEntity
  8
SAISEN
100
AcDbLine
 10
200.2361098278766
 20
154.1140656666376
 30
0.0
 11
199.8115556712431
 21
156.8767190593173
 31
0.0
  0
LINE
  5
3BC
330
A
100
AcDbEntity
  8
SAISEN
100
AcDbLine
 10
200.2361098278766
 20
154.1140656666376
 30
0.0
 11
202.1915000480404
 21
156.111301027552
 31
0.0
  0
LINE
  5
3C5
330
A
100
AcDbEntity
  8
03
100
AcDbLine
 10
439.1074018111061
 20
120.0628028057559
 30
0.0
 11
439.1074018111061
 21
117.7294694724226
 31
0.0
  0
LINE
  5
3C6
330
A
100
AcDbEntity
  8
03
100
AcDbLine
 10
439.1074018111061
 20
117.7294694724226
 30
0.0
 11
447.5240684777728
 21
117.7294694724225
 31
0.0
  0
LINE
  5
3C7
330
A
100
AcDbEntity
  8
03
100
AcDbLine
 10
447.5240684777728
 20
117.7294694724225
 30
0.0
 11
447.5240684777728
 21
120.0628028057559
 31
0.0
  0
LINE
  5
3C8
330
A
100
AcDbEntity
  8
03
100
AcDbLine
 10
447.5240684777728
 20
120.0628028057559
 30
0.0
 11
439.1074018111061
 21
120.0628028057559
 31
0.0
  0
LINE
  5
3C9
330
A
100
AcDbEntity
  8
03
100
AcDbLine
 10
447.5240684777728
 20
127.8544694724228
 30
0.0
 11
447.5240684777728
 21
130.1878028057562
 31
0.0
  0
LINE
  5
3CA
330
A
100
AcDbEntity
  8
03
100
AcDbLine
 10
447.5240684777728
 20
130.1878028057562
 30
0.0
 11
439.107401811106
 21
130.1878028057562
 31
0.0
  0
LINE
  5
3CB
330
A
100
AcDbEntity
  8
03
100
AcDbLine
 10
439.107401811106
 20
130.1878028057562
 30
0.0
 11
439.107401811106
 21
127.8544694724228
 31
0.0
  0
LINE
  5
3CC
330
A
100
AcDbEntity
  8
03
100
AcDbLine
 10
439.107401811106
 20
127.8544694724228
 30
0.0
 11
447.5240684777728
 21
127.8544694724228
 31
0.0
  0
LINE
  5
3D5
330
A
100
AcDbEntity
  8
SAISEN
100
AcDbLine
 10
89.12955733657376
 20
385.9665250354888
 30
0.0
 11
69.43238363200674
 21
405.663698740056
 31
0.0
  0
LINE
  5
3D6
330
A
100
AcDbEntity
  8
SAISEN
100
AcDbLine
 10
70.44181653313109
 20
403.1650312300966
 30
0.0
 11
86.7148697766196
 21
386.8919779866081
 31
0.0
  0
LINE
  5
3D7
330
A
100
AcDbEntity
  8
SAISEN
100
AcDbLine
 10
87.04746387648397
 20
389.5979711736602
 30
0.0
 11
71.23801357056549
 21
405.4074214795784
 31
0.0
  0
LINE
  5
3D8
330
A
100
AcDbEntity
  8
SAISEN
100
AcDbLine
 10
89.12955733657376
 20
151.466525035489
 30
0.0
 11
69.43238363200663
 21
171.163698740056
 31
0.0
  0
LINE
  5
3D9
330
A
100
AcDbEntity
  8
SAISEN
100
AcDbLine
 10
70.44181653313103
 20
168.6650312300965
 30
0.0
 11
86.7148697766196
 21
152.3919779866081
 31
0.0
  0
LINE
  5
3DA
330
A
100
AcDbEntity
  8
SAISEN
100
AcDbLine
 10
87.04746387648397
 20
155.0979711736601
 30
0.0
 11
71.23801357056549
 21
170.9074214795785
 31
0.0
  0
LINE
  5
3DB
330
A
100
AcDbEntity
  8
SAISEN
100
AcDbLine
 10
89.12955733657376
 20
268.1331917021556
 30
0.0
 11
69.43238363200674
 21
287.8303654067227
 31
0.0
  0
LINE
  5
3DC
330
A
100
AcDbEntity
  8
SAISEN
100
AcDbLine
 10
70.44181653313109
 20
285.331697896763
 30
0.0
 11
86.7148697766196
 21
269.0586446532749
 31
0.0
  0
LINE
  5
3DD
330
A
100
AcDbEntity
  8
SAISEN
100
AcDbLine
 10
87.04746387648397
 20
271.7646378403268
 30
0.0
 11
71.23801357056549
 21
287.5740881462454
 31
0.0
  0
LINE
  5
3E2
330
A
100
AcDbEntity
  8
03
100
AcDbLine
 10
370.3795933567661
 20
828.4810813244467
 30
0.0
 11
370.3795933567661
 21
838.654192045009
 31
0.0
  0
LINE
  5
3E3
330
A
100
AcDbEntity
  8
03
100
AcDbLine
 10
550.3795933567665
 20
828.4810813244467
 30
0.0
 11
550.3795933567665
 21
838.654192045009
 31
0.0
  0
LINE
  5
3E4
330
A
100
AcDbEntity
  8
03
100
AcDbLine
 10
370.3795933567661
 20
798.4810813244466
 30
0.0
 11
370.3795933567661
 21
506.1707263488191
 31
0.0
  0
LINE
  5
3E5
330
A
100
AcDbEntity
  8
03
100
AcDbLine
 10
550.3795733567662
 20
798.4810813244466
 30
0.0
 11
550.3795733567661
 21
505.2031151805995
 31
0.0
  0
LINE
  5
3E6
330
A
100
AcDbEntity
  8
03
100
AcDbLine
 10
436.379573356766
 20
714.2310613244467
 30
0.0
 11
436.3795733567662
 21
788.0643413244467
 31
0.0
  0
LINE
  5
3E7
330
A
100
AcDbEntity
  8
03
100
AcDbLine
 10
433.3795733567661
 20
713.4810513244469
 30
0.0
 11
435.6295733567661
 21
713.4810513244469
 31
0.0
  0
LINE
  5
3E8
330
A
100
AcDbEntity
  8
03
100
AcDbLine
 10
382.379573356766
 20
788.0643413244467
 30
0.0
 11
382.379573356766
 21
714.2310613244467
 31
0.0
  0
LINE
  5
3E9
330
A
100
AcDbEntity
  8
03
100
AcDbLine
 10
383.1295833567661
 20
713.4810513244469
 30
0.0
 11
385.3795933567661
 21
713.4810513244469
 31
0.0
  0
LINE
  5
3EA
330
A
100
AcDbEntity
  8
03
100
AcDbLine
 10
442.879573356766
 20
663.4802513244467
 30
0.0
 11
444.3795833567662
 21
663.4802513244467
 31
0.0
  0
LINE
  5
3EB
330
A
100
AcDbEntity
  8
03
100
AcDbLine
 10
492.3795833567663
 20
663.4802513244467
 30
0.0
 11
494.6295833567663
 21
663.4802513244467
 31
0.0
  0
LINE
  5
3EC
330
A
100
AcDbEntity
  8
03
100
AcDbLine
 10
441.3795833567664
 20
664.9802413244469
 30
0.0
 11
441.3795833567664
 21
741.9802213244467
 31
0.0
  0
LINE
  5
3ED
330
A
100
AcDbEntity
  8
03
100
AcDbLine
 10
495.3795833567662
 20
741.9802213244467
 30
0.0
 11
495.3795833567662
 21
664.2302313244469
 31
0.0
  0
LINE
  5
3EE
330
A
100
AcDbEntity
  8
03
100
AcDbLine
 10
442.879573356766
 20
743.4802513244467
 30
0.0
 11
493.8795733567663
 21
743.4802513244467
 31
0.0
  0
LINE
  5
3EF
330
A
100
AcDbEntity
  8
03
100
AcDbLine
 10
385.3795933567661
 20
713.4810513244469
 30
0.0
 11
385.3795933567661
 21
506.1707263488191
 31
0.0
  0
LINE
  5
3F0
330
A
100
AcDbEntity
  8
03
100
AcDbLine
 10
433.3795733567661
 20
713.4810513244469
 30
0.0
 11
433.3795733567661
 21
505.2031151805995
 31
0.0
  0
LINE
  5
3F1
330
A
100
AcDbEntity
  8
03
100
AcDbLine
 10
492.3795833567661
 20
505.2031151805995
 30
0.0
 11
492.3795833567663
 21
663.4802513244467
 31
0.0
  0
LINE
  5
3F2
330
A
100
AcDbEntity
  8
03
100
AcDbLine
 10
444.3795833567661
 20
505.2031151805995
 30
0.0
 11
444.3795833567662
 21
663.4802513244467
 31
0.0
  0
ARC
  5
3F3
330
A
100
AcDbEntity
  8
03
100
AcDbCircle
 10
409.379573356766
 20
723.4810613244466
 30
0.0
 40
69.99999800000023
100
AcDbArc
 50
67.31191999993637
 51
112.6880789999956
  0
ARC
  5
3F4
330
A
100
AcDbEntity
  8
03
100
AcDbCircle
 10
442.879573356766
 20
664.9802413244469
 30
0.0
 40
1.499999899999999
100
AcDbArc
 50
179.9999999999826
 51
269.9999999999663
  0
ARC
  5
3F5
330
A
100
AcDbEntity
  8
03
100
AcDbCircle
 10
442.879573356766
 20
741.9802213244467
 30
0.0
 40
1.499999899999999
100
AcDbArc
 50
90.0
 51
179.9999999999826
  0
ARC
  5
3F6
330
A
100
AcDbEntity
  8
03
100
AcDbCircle
 10
493.8795733567663
 20
741.9802213244467
 30
0.0
 40
1.499999899999999
100
AcDbArc
 50
359.99999999995
 51
90.0
  0
ARC
  5
3F7
330
A
100
AcDbEntity
  8
03
100
AcDbCircle
 10
383.1295833567661
 20
714.2310613244467
 30
0.0
 40
0.7499999000000001
100
AcDbArc
 50
179.9999999999826
 51
269.9999999999651
  0
ARC
  5
3F8
330
A
100
AcDbEntity
  8
03
100
AcDbCircle
 10
435.6295733567661
 20
714.2310613244467
 30
0.0
 40
0.7499999000000001
100
AcDbArc
 50
269.9999999999651
 51
359.9999999999478
  0
ARC
  5
3F9
330
A
100
AcDbEntity
  8
03
100
AcDbCircle
 10
494.6295833567663
 20
664.2302313244469
 30
0.0
 40
0.7499999000000001
100
AcDbArc
 50
269.9999999999651
 51
359.9999999999478
  0
LINE
  5
3FA
330
A
100
AcDbEntity
  8
03
100
AcDbLine
 10
186.7490663567663
 20
538.7310900590687
 30
0.0
 11
287.7490663567662
 21
538.7310900590687
 31
0.0
  0
LINE
  5
3FB
330
A
100
AcDbEntity
  8
04
100
AcDbLine
 10
287.7490663567662
 20
538.7310900590687
 30
0.0
 11
287.7490663567662
 21
541.7310900590686
 31
0.0
  0
LINE
  5
3FD
330
A
100
AcDbEntity
  8
04
100
AcDbLine
 10
186.7490663567663
 20
541.7310900590689
 30
0.0
 11
186.7490663567663
 21
538.7310900590687
 31
0.0
  0
LINE
  5
3FF
330
A
100
AcDbEntity
  8
04
100
AcDbLine
 10
286.7490663567662
 20
541.7310900590689
 30
0.0
 11
286.7490663567662
 21
585.2310900590687
 31
0.0
  0
LINE
  5
400
330
A
100
AcDbEntity
  8
04
100
AcDbLine
 10
187.7490663567663
 20
585.2310900590687
 30
0.0
 11
187.7490663567663
 21
541.7310900590689
 31
0.0
  0
LINE
  5
401
330
A
100
AcDbEntity
  8
SAISEN
100
AcDbLine
 10
79.49455868455095
 20
491.2768978015499
 30
0.0
 11
79.49455868455095
 21
608.5462009484148
 31
0.0
  0
LINE
  5
404
330
A
100
AcDbEntity
  8
03
100
AcDbLine
 10
504.6583548974949
 20
115.5859509540895
 30
0.0
 11
504.6583548974949
 21
113.6245327755178
 31
0.0
  0
LINE
  5
405
330
A
100
AcDbEntity
  8
03
100
AcDbLine
 10
515.7694660074947
 20
115.5859509540895
 30
0.0
 11
515.7694660074947
 21
113.6245327755178
 31
0.0
  0
ARC
  5
408
330
A
100
AcDbEntity
  8
SOUZOU
100
AcDbCircle
 10
513.6832691737351
 20
125.8408225077567
 30
0.0
 40
75.80102519885937
100
AcDbArc
 50
96.27431782561806
 51
178.792799951171
  0
ARC
  5
409
330
A
100
AcDbEntity
  8
SOUZOU
100
AcDbCircle
 10
507.0657351444394
 20
122.0211361390895
 30
0.0
 40
79.16666666666666
100
AcDbArc
 50
91.34908225115749
 51
178.79395122078
  0
ARC
  5
40A
330
A
100
AcDbEntity
  8
SOUZOU
100
AcDbCircle
 10
244.5990663567659
 20
543.8810900590685
 30
0.0
 40
34.15
100
AcDbArc
 50
188.6735960555366
 51
351.3264039444633
  0
LINE
  5
40B
330
A
100
AcDbEntity
  8
SOUZOU
100
AcDbLine
 10
211.1027979078775
 20
537.2310900590687
 30
0.0
 11
278.0953348056544
 21
537.2310900590687
 31
0.0
  0
LINE
  5
40C
330
A
100
AcDbEntity
  8
SAISEN
100
AcDbLine
 10
193.8332902475894
 20
452.1461361390895
 30
0.0
 11
193.8332902475894
 21
457.9794694724228
 31
0.0
  0
LINE
  5
40D
330
A
100
AcDbEntity
  8
SAISEN
100
AcDbLine
 10
193.8332902475894
 20
457.9794694724228
 30
0.0
 11
202.9999569142559
 21
457.9794694724228
 31
0.0
  0
LINE
  5
40E
330
A
100
AcDbEntity
  8
SAISEN
100
AcDbLine
 10
202.9999569142559
 20
457.9794694724228
 30
0.0
 11
202.9999569142559
 21
452.1461361390895
 31
0.0
  0
LINE
  5
40F
330
A
100
AcDbEntity
  8
SAISEN
100
AcDbLine
 10
202.9999569142559
 20
452.1461361390895
 30
0.0
 11
193.8332902475894
 21
452.1461361390895
 31
0.0
  0
LINE
  5
41A
330
A
100
AcDbEntity
  8
CHUSIN
100
AcDbLine
 10
249.5832902475894
 20
117.3961361390895
 30
0.0
 11
249.5832902475894
 21
435.8961361390893
 31
0.0
  0
LINE
  5
41B
330
A
100
AcDbEntity
  8
KAKURE
100
AcDbLine
 10
27.97322320953304
 20
456.3128028057561
 30
0.0
 11
193.8332902475894
 21
456.3128028057561
 31
0.0
  0
LINE
  5
41C
330
A
100
AcDbEntity
  8
KAKURE
100
AcDbLine
 10
121.2446891120505
 20
429.6063344736288
 30
0.0
 11
121.2446891120505
 21
453.8128028057561
 31
0.0
  0
LINE
  5
41D
330
A
100
AcDbEntity
  8
KAKURE
100
AcDbLine
 10
193.8332902475894
 20
453.8128028057561
 30
0.0
 11
121.2446891120505
 21
453.8128028057561
 31
0.0
  0
LINE
  5
41E
330
A
100
AcDbEntity
  8
CHUSIN
100
AcDbLine
 10
460.3795933567663
 20
798.4810813244466
 30
0.0
 11
460.3795933567663
 21
838.654192045009
 31
0.0
  0
LINE
  5
41F
330
A
100
AcDbEntity
  8
CHUSIN
100
AcDbLine
 10
125.110787915891
 20
679.4810713244467
 30
0.0
 11
543.0519933567661
 21
679.4810713244467
 31
0.0
  0
LINE
  5
420
330
A
100
AcDbEntity
  8
CHUSIN
100
AcDbLine
 10
103.4843905198572
 20
743.4810613244467
 30
0.0
 11
461.5949833567661
 21
743.4810613244467
 31
0.0
  0
LINE
  5
421
330
A
100
AcDbEntity
  8
CHUSIN
100
AcDbLine
 10
409.379573356766
 20
506.1707263488191
 30
0.0
 11
409.379573356766
 21
795.8540713244468
 31
0.0
  0
LINE
  5
422
330
A
100
AcDbEntity
  8
CHUSIN
100
AcDbLine
 10
468.3795833567661
 20
795.8540713244468
 30
0.0
 11
468.3795833567661
 21
505.2031151805995
 31
0.0
  0
LINE
  5
423
330
A
100
AcDbEntity
  8
CHUSIN
 48
0.3
100
AcDbLine
 10
244.5990663567662
 20
530.5278345033496
 30
0.0
 11
244.5990663567662
 21
549.4441432614726
 31
0.0
  0
LINE
  5
424
330
A
100
AcDbEntity
  8
CHUSIN
100
AcDbLine
 10
186.7490663567663
 20
543.8810900590685
 30
0.0
 11
287.7490663567662
 21
543.8810900590685
 31
0.0
  0
LINE
  5
427
330
A
100
AcDbEntity
  8
CHUSIN
100
AcDbLine
 10
510.2139104524948
 20
117.4378028057562
 30
0.0
 11
510.2139104524948
 21
113.6245327755178
 31
0.0
  0
LINE
  5
428
330
A
100
AcDbEntity
  8
CHUSIN
100
AcDbLine
 10
514.5349135383281
 20
118.2340417984169
 30
0.0
 11
514.5349135383281
 21
116.6632035280434
 31
0.0
  0
LINE
  5
429
330
A
100
AcDbEntity
  8
SAISEN
100
AcDbLine
 10
111.3721835293434
 20
458.3763905022316
 30
0.0
 11
116.4936948292732
 21
453.3347446547201
 31
0.0
  0
LINE
  5
42A
330
A
100
AcDbEntity
  8
SAISEN
100
AcDbLine
 10
109.8871726556962
 20
457.6197396693324
 30
0.0
 11
115.008683955626
 21
452.5780938218209
 31
0.0
  0
LINE
  5
434
330
A
100
AcDbEntity
  8
SAISEN
100
AcDbLine
 10
303.7490733567663
 20
773.481101324447
 30
0.0
 11
303.7490733567663
 21
648.481101324447
 31
0.0
  0
LINE
  5
435
330
A
100
AcDbEntity
  8
SAISEN
100
AcDbLine
 10
313.7490733567663
 20
648.481101324447
 30
0.0
 11
313.7490733567663
 21
773.481101324447
 31
0.0
  0
ARC
  5
44F
330
A
100
AcDbEntity
  8
06
100
AcDbCircle
 10
244.5990663567659
 20
543.8810900590685
 30
0.0
 40
22.5
100
AcDbArc
 50
318.3257894728898
 51
39.705046730791
  0
LINE
  5
450
330
A
100
AcDbEntity
  8
06
100
AcDbLine
 10
261.9092903383739
 20
558.2548907292658
 30
0.0
 11
266.3341568392224
 21
552.1992688413282
 31
6.976169102290099
  0
LINE
  5
451
330
A
100
AcDbEntity
  8
06
100
AcDbLine
 10
261.9092903383739
 20
558.2548907292658
 30
0.0
 11
264.9784295146881
 21
551.4116177757434
 31
6.976169102290099
  0
LINE
  5
471
330
A
100
AcDbEntity
  8
SOUZOU
100
AcDbLine
 10
122.9990633567664
 20
770.4811113244471
 30
0.0
 11
44.49906635676632
 21
770.4811113244471
 31
0.0
  0
LINE
  5
472
330
A
100
AcDbEntity
  8
SOUZOU
100
AcDbLine
 10
44.49906635676632
 20
716.4811113244471
 30
0.0
 11
122.9990633567664
 21
716.4811113244471
 31
0.0
  0
LINE
  5
473
330
A
100
AcDbEntity
  8
SOUZOU
100
AcDbLine
 10
187.4990673567663
 20
706.481101324447
 30
0.0
 11
265.9990633567663
 21
706.481101324447
 31
0.0
  0
LINE
  5
474
330
A
100
AcDbEntity
  8
SOUZOU
100
AcDbLine
 10
265.9990633567663
 20
652.481101324447
 30
0.0
 11
187.4990673567663
 21
652.481101324447
 31
0.0
  0
LINE
  5
475
330
A
100
AcDbEntity
  8
SOUZOU
100
AcDbLine
 10
43.7490673567663
 20
769.7311013244468
 30
0.0
 11
43.7490673567663
 21
717.2311113244472
 31
0.0
  0
LINE
  5
476
330
A
100
AcDbEntity
  8
SOUZOU
100
AcDbLine
 10
186.7490663567663
 20
705.7311113244471
 30
0.0
 11
186.7490663567663
 21
653.2311013244468
 31
0.0
  0
LINE
  5
477
330
A
100
AcDbEntity
  8
SOUZOU
100
AcDbLine
 10
303.7490733567663
 20
767.481091324447
 30
0.0
 11
123.7490633567664
 21
767.481091324447
 31
0.0
  0
LINE
  5
478
330
A
100
AcDbEntity
  8
SOUZOU
100
AcDbLine
 10
303.7490733567663
 20
719.4811113244472
 30
0.0
 11
123.7490633567664
 21
719.4811113244472
 31
0.0
  0
LINE
  5
479
330
A
100
AcDbEntity
  8
SOUZOU
100
AcDbLine
 10
265.9990633567663
 20
703.4811013244469
 30
0.0
 11
303.7490733567663
 21
703.4811013244469
 31
0.0
  0
LINE
  5
47A
330
A
100
AcDbEntity
  8
SOUZOU
100
AcDbLine
 10
265.9990633567663
 20
655.4811013244468
 30
0.0
 11
303.7490733567663
 21
655.4811013244468
 31
0.0
  0
LINE
  5
47B
330
A
100
AcDbEntity
  8
SOUZOU
100
AcDbLine
 10
313.7490733567663
 20
767.481091324447
 30
0.0
 11
379.3795833567662
 21
767.481091324447
 31
0.0
  0
LINE
  5
47C
330
A
100
AcDbEntity
  8
SOUZOU
100
AcDbLine
 10
313.7490733567663
 20
719.4810613244467
 30
0.0
 11
379.3795833567662
 21
719.4810613244467
 31
0.0
  0
LINE
  5
47D
330
A
100
AcDbEntity
  8
SOUZOU
100
AcDbLine
 10
313.1791133567661
 20
703.4810713244467
 30
0.0
 11
452.3787533567662
 21
703.4810713244467
 31
0.0
  0
LINE
  5
47E
330
A
100
AcDbEntity
  8
SOUZOU
100
AcDbLine
 10
313.1791133567661
 20
655.4810813244467
 30
0.0
 11
452.3787533567662
 21
655.4810813244467
 31
0.0
  0
LINE
  5
47F
330
A
100
AcDbEntity
  8
SOUZOU
100
AcDbLine
 10
453.9628633567661
 20
770.4811113244468
 30
0.0
 11
380.8795733567659
 21
770.4811113244468
 31
0.0
  0
LINE
  5
480
330
A
100
AcDbEntity
  8
SOUZOU
100
AcDbLine
 10
380.8795733567659
 20
716.4810713244467
 30
0.0
 11
453.9628633567661
 21
716.4810713244467
 31
0.0
  0
LINE
  5
481
330
A
100
AcDbEntity
  8
SOUZOU
100
AcDbLine
 10
453.1287533567661
 20
706.4810613244467
 30
0.0
 11
531.6287633567664
 21
706.4810613244467
 31
0.0
  0
LINE
  5
482
330
A
100
AcDbEntity
  8
SOUZOU
100
AcDbLine
 10
532.3787633567664
 20
705.7310813244466
 30
0.0
 11
532.3787633567664
 21
653.2310713244466
 31
0.0
  0
LINE
  5
483
330
A
100
AcDbEntity
  8
SOUZOU
100
AcDbLine
 10
531.6287633567664
 20
652.4810513244467
 30
0.0
 11
453.1287533567661
 21
652.4810513244467
 31
0.0
  0
ARC
  5
484
330
A
100
AcDbEntity
  8
SOUZOU
100
AcDbCircle
 10
389.3795633567662
 20
743.4810613244467
 30
0.0
 40
69.99999800000001
100
AcDbArc
 50
337.3119199999532
 51
22.68808999994472
  0
LINE
  5
485
330
A
100
AcDbEntity
  8
SOUZOU
100
AcDbLine
 10
123.7490633567664
 20
767.481091324447
 30
0.0
 11
123.7490633567664
 21
769.7311013244468
 31
0.0
  0
LINE
  5
486
330
A
100
AcDbEntity
  8
SOUZOU
100
AcDbLine
 10
123.7490633567664
 20
719.4811113244472
 30
0.0
 11
123.7490633567664
 21
717.2311113244472
 31
0.0
  0
LINE
  5
487
330
A
100
AcDbEntity
  8
SOUZOU
100
AcDbLine
 10
266.7490633567664
 20
705.7311113244471
 30
0.0
 11
266.7490633567664
 21
703.4811013244469
 31
0.0
  0
LINE
  5
488
330
A
100
AcDbEntity
  8
SOUZOU
100
AcDbLine
 10
266.7490633567664
 20
655.4811013244468
 30
0.0
 11
266.7490633567664
 21
653.2311013244468
 31
0.0
  0
ARC
  5
489
330
A
100
AcDbEntity
  8
SOUZOU
100
AcDbCircle
 10
122.9990633567664
 20
769.7311013244468
 30
0.0
 40
0.7499999000000001
100
AcDbArc
 50
0.0
 51
89.99999999998264
  0
ARC
  5
48A
330
A
100
AcDbEntity
  8
SOUZOU
100
AcDbCircle
 10
44.49906635676632
 20
769.7311013244468
 30
0.0
 40
0.7499999000000001
100
AcDbArc
 50
89.99999999998317
 51
179.9999999999651
  0
ARC
  5
48B
330
A
100
AcDbEntity
  8
SOUZOU
100
AcDbCircle
 10
44.49906635676632
 20
717.2311113244472
 30
0.0
 40
0.7499999000000001
100
AcDbArc
 50
179.9999999999651
 51
269.9999999999489
  0
ARC
  5
48C
330
A
100
AcDbEntity
  8
SOUZOU
100
AcDbCircle
 10
122.9990633567664
 20
717.2311113244472
 30
0.0
 40
0.7499999000000001
100
AcDbArc
 50
269.9999999999489
 51
0.0
  0
ARC
  5
48D
330
A
100
AcDbEntity
  8
SOUZOU
100
AcDbCircle
 10
265.9990633567663
 20
705.7311113244471
 30
0.0
 40
0.7499999000000001
100
AcDbArc
 50
0.0
 51
89.99999999998264
  0
ARC
  5
48E
330
A
100
AcDbEntity
  8
SOUZOU
100
AcDbCircle
 10
187.4990673567663
 20
705.7311113244471
 30
0.0
 40
0.7499999000000001
100
AcDbArc
 50
89.99999999998317
 51
179.9999999999651
  0
ARC
  5
48F
330
A
100
AcDbEntity
  8
SOUZOU
100
AcDbCircle
 10
187.4990673567663
 20
653.2311013244468
 30
0.0
 40
0.7499999000000001
100
AcDbArc
 50
179.9999999999651
 51
269.9999999999489
  0
ARC
  5
490
330
A
100
AcDbEntity
  8
SOUZOU
100
AcDbCircle
 10
265.9990633567663
 20
653.2311013244468
 30
0.0
 40
0.7499999000000001
100
AcDbArc
 50
269.9999999999499
 51
0.0
  0
LINE
  5
491
330
A
100
AcDbEntity
  8
SOUZOU
100
AcDbLine
 10
379.3795833567662
 20
719.4810613244467
 30
0.0
 11
379.3795833567662
 21
717.9810613244467
 31
0.0
  0
LINE
  5
492
330
A
100
AcDbEntity
  8
SOUZOU
100
AcDbLine
 10
379.3795833567662
 20
768.9810813244466
 30
0.0
 11
379.3795833567662
 21
767.481091324447
 31
0.0
  0
LINE
  5
493
330
A
100
AcDbEntity
  8
SOUZOU
100
AcDbLine
 10
452.3787533567662
 20
655.4810813244467
 30
0.0
 11
452.3787533567662
 21
653.2310713244466
 31
0.0
  0
LINE
  5
494
330
A
100
AcDbEntity
  8
SOUZOU
100
AcDbLine
 10
452.3787533567662
 20
705.7310813244466
 30
0.0
 11
452.3787533567662
 21
703.4810713244467
 31
0.0
  0
ARC
  5
495
330
A
100
AcDbEntity
  8
SOUZOU
100
AcDbCircle
 10
380.8795733567659
 20
717.9810613244467
 30
0.0
 40
1.499999899999999
100
AcDbArc
 50
179.9999999999826
 51
269.9999999999651
  0
ARC
  5
496
330
A
100
AcDbEntity
  8
SOUZOU
100
AcDbCircle
 10
380.8795733567659
 20
768.9810813244466
 30
0.0
 40
1.499999899999999
100
AcDbArc
 50
90.0
 51
179.9999999999826
  0
ARC
  5
497
330
A
100
AcDbEntity
  8
SOUZOU
100
AcDbCircle
 10
453.1287533567661
 20
705.7310813244466
 30
0.0
 40
0.7499999000000001
100
AcDbArc
 50
90.0
 51
179.9999999999826
  0
ARC
  5
498
330
A
100
AcDbEntity
  8
SOUZOU
100
AcDbCircle
 10
453.1287533567661
 20
653.2310713244466
 30
0.0
 40
0.7499999000000001
100
AcDbArc
 50
179.9999999999826
 51
269.9999999999651
  0
ARC
  5
499
330
A
100
AcDbEntity
  8
SOUZOU
100
AcDbCircle
 10
531.6287633567664
 20
705.7310813244466
 30
0.0
 40
0.7499999000000001
100
AcDbArc
 50
359.9999999999478
 51
90.0
  0
ARC
  5
49A
330
A
100
AcDbEntity
  8
SOUZOU
100
AcDbCircle
 10
531.6287633567664
 20
653.2310713244466
 30
0.0
 40
0.7499999000000001
100
AcDbArc
 50
269.9999999999651
 51
359.9999999999478
  0
LINE
  5
4BE
330
A
100
AcDbEntity
  8
SOUZOU
 48
0.5
100
AcDbLine
 10
205.901757550225
 20
589.2310900590683
 30
0.0
 11
268.5963751633088
 21
589.2310900590683
 31
0.0
  0
LINE
  5
4BF
330
A
100
AcDbEntity
  8
SOUZOU
 48
0.3
100
AcDbLine
 10
182.249066356767
 20
599.2310900590682
 30
0.0
 11
182.249066356767
 21
596.9310900590682
 31
0.0
  0
LINE
  5
4C0
330
A
100
AcDbEntity
  8
SOUZOU
 48
0.3
100
AcDbLine
 10
292.2490663567669
 20
596.9310900590682
 30
0.0
 11
292.2490663567669
 21
599.2310900590682
 31
0.0
  0
LINE
  5
4C1
330
A
100
AcDbEntity
  8
SOUZOU
 48
0.5
100
AcDbLine
 10
205.9017575502249
 20
591.5310900590681
 30
0.0
 11
268.5963751633088
 21
591.5310900590681
 31
0.0
  0
LINE
  5
4C2
330
A
100
AcDbEntity
  8
SOUZOU
 48
0.3
100
AcDbLine
 10
197.2490663567668
 20
596.9310900590682
 30
0.0
 11
204.275411953496
 21
589.904744462339
 31
0.0
  0
LINE
  5
4C3
330
A
100
AcDbEntity
  8
SOUZOU
 48
0.3
100
AcDbLine
 10
205.9017575502249
 20
591.531090059068
 30
0.0
 11
198.875411953496
 21
598.5574356557972
 31
0.0
  0
LINE
  5
4C4
330
A
100
AcDbEntity
  8
SOUZOU
 48
0.3
100
AcDbLine
 10
277.249066356767
 20
596.9310900590682
 30
0.0
 11
270.2227207600379
 21
589.904744462339
 31
0.0
  0
LINE
  5
4C5
330
A
100
AcDbEntity
  8
SOUZOU
 48
0.3
100
AcDbLine
 10
268.5963751633088
 20
591.531090059068
 30
0.0
 11
275.622720760038
 21
598.5574356557972
 31
0.0
  0
LINE
  5
4C6
330
A
100
AcDbEntity
  8
SOUZOU
 48
0.3
100
AcDbLine
 10
182.249066356767
 20
596.9310900590682
 30
0.0
 11
197.2490663567668
 21
596.9310900590682
 31
0.0
  0
LINE
  5
4C7
330
A
100
AcDbEntity
  8
SOUZOU
 48
0.3
100
AcDbLine
 10
277.249066356767
 20
596.9310900590682
 30
0.0
 11
292.2490663567669
 21
596.9310900590682
 31
0.0
  0
LINE
  5
4C8
330
A
100
AcDbEntity
  8
SOUZOU
 48
0.3
100
AcDbLine
 10
292.2490663567669
 20
599.2310900590682
 30
0.0
 11
277.249066356767
 21
599.2310900590682
 31
0.0
  0
LINE
  5
4C9
330
A
100
AcDbEntity
  8
SOUZOU
 48
0.3
100
AcDbLine
 10
197.2490663567668
 20
599.2310900590682
 30
0.0
 11
182.249066356767
 21
599.2310900590682
 31
0.0
  0
ARC
  5
4CA
330
A
100
AcDbEntity
  8
SOUZOU
 48
0.5
100
AcDbCircle
 10
268.5963751633088
 20
591.5310900590681
 30
0.0
 40
2.299999999999998
100
AcDbArc
 50
270.0
 51
314.999999999998
  0
ARC
  5
4CB
330
A
100
AcDbEntity
  8
SOUZOU
 48
0.3
100
AcDbCircle
 10
277.249066356767
 20
596.9310900590682
 30
0.0
 40
2.299999999999998
100
AcDbArc
 50
90.0
 51
134.999999999999
  0
ARC
  5
4CC
330
A
100
AcDbEntity
  8
SOUZOU
 48
0.5
100
AcDbCircle
 10
205.901757550225
 20
591.5310900590681
 30
0.0
 40
2.299999999999998
100
AcDbArc
 50
225.000000000003
 51
270.0
  0
ARC
  5
4CD
330
A
100
AcDbEntity
  8
SOUZOU
 48
0.3
100
AcDbCircle
 10
197.2490663567668
 20
596.9310900590682
 30
0.0
 40
2.299999999999998
100
AcDbArc
 50
44.99999999999699
 51
90.0
  0
LINE
  5
4CF
330
A
100
AcDbEntity
  8
04
100
AcDbLine
 10
182.249066356767
 20
589.2310900590683
 30
0.0
 11
292.2490663567669
 21
589.2310900590683
 31
0.0
  0
LINE
  5
4D0
330
A
100
AcDbEntity
  8
04
100
AcDbLine
 10
292.2490663567669
 20
589.2310900590683
 30
0.0
 11
292.2490663567669
 21
585.2310900590683
 31
0.0
  0
LINE
  5
4D1
330
A
100
AcDbEntity
  8
04
100
AcDbLine
 10
182.249066356767
 20
585.2310900590683
 30
0.0
 11
182.249066356767
 21
589.2310900590683
 31
0.0
  0
LINE
  5
4D6
330
A
100
AcDbEntity
  8
SOUZOU
100
AcDbLine
 10
512.0657351444391
 20
124.2294694724227
 30
0.0
 11
444.5657351444394
 21
124.2294694724227
 31
0.0
  0
LINE
  5
4D7
330
A
100
AcDbEntity
  8
SOUZOU
100
AcDbLine
 10
444.5657351444394
 20
127.3128028057562
 30
0.0
 11
512.0657351444391
 21
127.3128028057562
 31
0.0
  0
LINE
  5
4E0
330
A
100
AcDbEntity
  8
SOUZOU
100
AcDbLine
 10
504.5657351444392
 20
120.4794694724229
 30
0.0
 11
434.5657351444393
 21
120.4794694724229
 31
0.0
  0
LINE
  5
4E1
330
A
100
AcDbEntity
  8
SOUZOU
100
AcDbLine
 10
434.5657351444393
 20
123.5628028057562
 30
0.0
 11
504.5657351444392
 21
123.5628028057562
 31
0.0
  0
LINE
  5
500
330
A
100
AcDbEntity
  8
03
100
AcDbLine
 10
516.0781079827726
 20
117.4378028057562
 30
0.0
 11
516.0781079827726
 21
115.5859509540895
 31
0.0
  0
LINE
  5
501
330
A
100
AcDbEntity
  8
03
100
AcDbLine
 10
516.0781079827726
 20
115.5859509540895
 30
0.0
 11
515.152182056939
 21
115.5859509540895
 31
0.0
  0
LINE
  5
502
330
A
100
AcDbEntity
  8
03
100
AcDbLine
 10
504.3497129222171
 20
115.5859509540895
 30
0.0
 11
504.3497129222171
 21
117.4378028057562
 31
0.0
  0
LINE
  5
503
330
A
100
AcDbEntity
  8
03
100
AcDbLine
 10
504.3497129222171
 20
117.4378028057562
 30
0.0
 11
516.0781079827726
 21
117.4378028057562
 31
0.0
  0
LINE
  5
504
330
A
100
AcDbEntity
  8
03
100
AcDbLine
 10
505.2756388480506
 20
115.5859509540895
 30
0.0
 11
504.3497129222171
 21
115.5859509540895
 31
0.0
  0
LINE
  5
56C
330
A
100
AcDbEntity
  8
03
100
AcDbLine
 10
186.7490663567663
 20
761.4811325898259
 30
0.0
 11
186.7490663567663
 21
789.4811325898256
 31
0.0
  0
LINE
  5
56D
330
A
100
AcDbEntity
  8
03
100
AcDbLine
 10
186.7490663567663
 20
789.4811325898256
 30
0.0
 11
287.7490663567663
 21
789.4811325898257
 31
0.0
  0
LINE
  5
56E
330
A
100
AcDbEntity
  8
03
100
AcDbLine
 10
287.7490663567663
 20
789.4811325898257
 30
0.0
 11
287.7490663567663
 21
761.4811325898259
 31
0.0
  0
LINE
  5
56F
330
A
100
AcDbEntity
  8
03
100
AcDbLine
 10
287.7490663567663
 20
761.4811325898259
 30
0.0
 11
186.7490663567663
 21
761.4811325898259
 31
0.0
  0
LINE
  5
570
330
A
100
AcDbEntity
  8
03
100
AcDbLine
 10
198.7490663567663
 20
767.4811325898257
 30
0.0
 11
198.7490663567663
 21
783.4811325898256
 31
0.0
  0
LINE
  5
572
330
A
100
AcDbEntity
  8
03
100
AcDbLine
 10
278.2490663567663
 20
767.4811325898254
 30
0.0
 11
278.2490663567663
 21
767.7311325898261
 31
0.0
  0
LINE
  5
574
330
A
100
AcDbEntity
  8
03
100
AcDbLine
 10
278.2490663567663
 20
783.2311325898261
 30
0.0
 11
278.2490663567663
 21
783.4811325898257
 31
0.0
  0
LINE
  5
575
330
A
100
AcDbEntity
  8
03
100
AcDbLine
 10
198.7490663567641
 20
783.4811325898256
 30
0.0
 11
278.2490663567663
 21
783.4811325898257
 31
0.0
  0
LINE
  5
576
330
A
100
AcDbEntity
  8
03
100
AcDbLine
 10
278.2490663567663
 20
767.4811325898257
 30
0.0
 11
198.7490663567681
 21
767.4811325898257
 31
0.0
  0
LINE
  5
57D
330
A
100
AcDbEntity
  8
06
100
AcDbLine
 10
198.7490663567641
 20
783.2311325898256
 30
0.0
 11
278.7490663567663
 21
783.2311325898257
 31
0.0
  0
LINE
  5
57E
330
A
100
AcDbEntity
  8
06
100
AcDbLine
 10
278.7490663567663
 20
767.7311325898259
 30
0.0
 11
198.7490663567681
 21
767.7311325898259
 31
0.0
  0
LINE
  5
57F
330
A
100
AcDbEntity
  8
06
100
AcDbLine
 10
278.7490663567663
 20
767.7311325898256
 30
0.0
 11
278.7490663567663
 21
783.2311325898257
 31
0.0
  0
LINE
  5
581
330
A
100
AcDbEntity
  8
03
100
AcDbLine
 10
186.7490663567663
 20
658.4810900590683
 30
0.0
 11
186.7490663567663
 21
630.4810900590687
 31
0.0
  0
LINE
  5
582
330
A
100
AcDbEntity
  8
03
100
AcDbLine
 10
186.7490663567663
 20
630.4810900590687
 30
0.0
 11
287.7490663567663
 21
630.4810900590685
 31
0.0
  0
LINE
  5
583
330
A
100
AcDbEntity
  8
03
100
AcDbLine
 10
287.7490663567663
 20
630.4810900590685
 30
0.0
 11
287.7490663567663
 21
658.4810900590683
 31
0.0
  0
LINE
  5
584
330
A
100
AcDbEntity
  8
03
100
AcDbLine
 10
287.7490663567663
 20
658.4810900590683
 30
0.0
 11
186.7490663567663
 21
658.4810900590683
 31
0.0
  0
LINE
  5
585
330
A
100
AcDbEntity
  8
03
100
AcDbLine
 10
198.7490663567663
 20
652.4810900590685
 30
0.0
 11
198.7490663567663
 21
636.4810900590687
 31
0.0
  0
LINE
  5
587
330
A
100
AcDbEntity
  8
03
100
AcDbLine
 10
278.2490663567663
 20
652.4810900590689
 30
0.0
 11
278.2490663567663
 21
652.231090059068
 31
0.0
  0
LINE
  5
589
330
A
100
AcDbEntity
  8
03
100
AcDbLine
 10
278.2490663567663
 20
636.7310900590682
 30
0.0
 11
278.2490663567663
 21
636.4810900590684
 31
0.0
  0
LINE
  5
58A
330
A
100
AcDbEntity
  8
03
100
AcDbLine
 10
198.7490663567641
 20
636.4810900590687
 30
0.0
 11
278.2490663567663
 21
636.4810900590684
 31
0.0
  0
LINE
  5
58B
330
A
100
AcDbEntity
  8
03
100
AcDbLine
 10
278.2490663567663
 20
652.4810900590685
 30
0.0
 11
198.7490663567681
 21
652.4810900590685
 31
0.0
  0
LINE
  5
592
330
A
100
AcDbEntity
  8
06
100
AcDbLine
 10
198.7490663567641
 20
636.7310900590687
 30
0.0
 11
278.7490663567663
 21
636.7310900590685
 31
0.0
  0
LINE
  5
593
330
A
100
AcDbEntity
  8
06
100
AcDbLine
 10
278.7490663567663
 20
652.2310900590683
 30
0.0
 11
198.7490663567681
 21
652.2310900590683
 31
0.0
  0
LINE
  5
594
330
A
100
AcDbEntity
  8
06
100
AcDbLine
 10
278.7490663567663
 20
652.2310900590687
 30
0.0
 11
278.7490663567663
 21
636.7310900590685
 31
0.0
  0
LINE
  5
596
330
A
100
AcDbEntity
  8
03
100
AcDbLine
 10
555.3795933567663
 20
798.4810813244466
 30
0.0
 11
555.3795933567663
 21
828.4810813244467
 31
0.0
  0
LINE
  5
597
330
A
100
AcDbEntity
  8
03
100
AcDbLine
 10
366.9795933567662
 20
826.8810813244467
 30
0.0
 11
366.9795933567662
 21
800.0810813244466
 31
0.0
  0
LINE
  5
598
330
A
100
AcDbEntity
  8
03
100
AcDbLine
 10
366.9795933567662
 20
800.0810813244466
 30
0.0
 11
553.7795933567663
 21
800.0810813244466
 31
0.0
  0
LINE
  5
599
330
A
100
AcDbEntity
  8
03
100
AcDbLine
 10
553.7795933567663
 20
800.0810813244466
 30
0.0
 11
553.7795933567663
 21
826.8810813244467
 31
0.0
  0
LINE
  5
59A
330
A
100
AcDbEntity
  8
03
100
AcDbLine
 10
380.3795933567661
 20
828.4810813244467
 30
0.0
 11
380.3795933567661
 21
826.8810813244467
 31
0.0
  0
LINE
  5
59B
330
A
100
AcDbEntity
  8
03
100
AcDbLine
 10
540.3795933567663
 20
828.4810813244467
 30
0.0
 11
540.3795933567663
 21
826.8810813244467
 31
0.0
  0
LINE
  5
59C
330
A
100
AcDbEntity
  8
03
100
AcDbLine
 10
555.3795933567663
 20
828.4810813244467
 30
0.0
 11
540.3795933567663
 21
828.4810813244467
 31
0.0
  0
LINE
  5
59D
330
A
100
AcDbEntity
  8
03
100
AcDbLine
 10
553.7795933567663
 20
826.8810813244467
 30
0.0
 11
540.3795933567663
 21
826.8810813244467
 31
0.0
  0
LINE
  5
59E
330
A
100
AcDbEntity
  8
03
100
AcDbLine
 10
380.3795933567661
 20
826.8810813244467
 30
0.0
 11
366.9795933567662
 21
826.8810813244467
 31
0.0
  0
LINE
  5
59F
330
A
100
AcDbEntity
  8
03
100
AcDbLine
 10
365.3795933567661
 20
828.4810813244467
 30
0.0
 11
365.3795933567661
 21
798.4810813244466
 31
0.0
  0
LINE
  5
5A0
330
A
100
AcDbEntity
  8
03
100
AcDbLine
 10
365.3795933567661
 20
798.4810813244466
 30
0.0
 11
555.3795933567663
 21
798.4810813244466
 31
0.0
  0
LINE
  5
5A1
330
A
100
AcDbEntity
  8
03
100
AcDbLine
 10
380.3795933567661
 20
828.4810813244467
 30
0.0
 11
365.3795933567661
 21
828.4810813244467
 31
0.0
  0
LINE
  5
5FA
330
A
100
AcDbEntity
  8
03
100
AcDbLine
 10
512.3574018111058
 20
201.1878028057561
 30
0.0
 11
512.3574018111058
 21
270.0211361390896
 31
0.0
  0
LINE
  5
5FB
330
A
100
AcDbEntity
  8
03
100
AcDbLine
 10
509.2740684777727
 20
270.0211361390896
 30
0.0
 11
509.2740684777727
 21
201.1878028057561
 31
0.0
  0
LINE
  5
5FC
330
A
100
AcDbEntity
  8
03
100
AcDbLine
 10
509.1490684777727
 20
194.5211361390894
 30
0.0
 11
512.482401811106
 21
194.5211361390894
 31
0.0
  0
LINE
  5
5FD
330
A
100
AcDbEntity
  8
03
100
AcDbLine
 10
509.1490684777727
 20
201.1878028057561
 30
0.0
 11
512.482401811106
 21
201.1878028057561
 31
0.0
  0
LINE
  5
5FE
330
A
100
AcDbEntity
  8
03
100
AcDbLine
 10
509.1490684777727
 20
201.1878028057561
 30
0.0
 11
509.1490684777727
 21
194.5211361390894
 31
0.0
  0
LINE
  5
5FF
330
A
100
AcDbEntity
  8
03
100
AcDbLine
 10
512.482401811106
 20
201.1878028057561
 30
0.0
 11
512.482401811106
 21
194.5211361390894
 31
0.0
  0
LINE
  5
604
330
A
100
AcDbEntity
  8
03
100
AcDbLine
 10
508.6074018111059
 20
124.5211361390895
 30
0.0
 11
508.6074018111059
 21
194.5211361390895
 31
0.0
  0
LINE
  5
605
330
A
100
AcDbEntity
  8
03
100
AcDbLine
 10
505.5240684777727
 20
194.5211361390895
 30
0.0
 11
505.5240684777727
 21
124.5211361390895
 31
0.0
  0
LINE
  5
61E
330
A
100
AcDbEntity
  8
03
100
AcDbLine
 10
132.0832902475894
 20
352.2294694724228
 30
0.0
 11
132.0832902475894
 21
435.6461361390898
 31
0.0
  0
LINE
  5
61F
330
A
100
AcDbEntity
  8
03
100
AcDbLine
 10
298.7499569142559
 20
435.6461361390898
 30
0.0
 11
298.7499569142559
 21
352.2294694724228
 31
0.0
  0
LINE
  5
620
330
A
100
AcDbEntity
  8
06
100
AcDbLine
 10
298.7499569142559
 20
352.2294694724228
 30
0.0
 11
132.0832902475894
 21
352.2294694724228
 31
0.0
  0
LINE
  5
621
330
A
100
AcDbEntity
  8
03
100
AcDbLine
 10
132.0832902475894
 20
435.6461361390898
 30
0.0
 11
298.7499569142559
 21
435.6461361390898
 31
0.0
  0
LINE
  5
622
330
A
100
AcDbEntity
  8
06
100
AcDbLine
 10
132.0832902475894
 20
358.979469472423
 30
0.0
 11
298.7499569142559
 21
358.979469472423
 31
0.0
  0
LINE
  5
623
330
A
100
AcDbEntity
  8
03
100
AcDbLine
 10
132.0832902475894
 20
428.979469472423
 30
0.0
 11
298.7499569142559
 21
428.979469472423
 31
0.0
  0
LINE
  5
624
330
A
100
AcDbEntity
  8
03
100
AcDbLine
 10
140.4166235809227
 20
428.979469472423
 30
0.0
 11
140.4166235809227
 21
358.979469472423
 31
0.0
  0
LINE
  5
625
330
A
100
AcDbEntity
  8
03
100
AcDbLine
 10
290.4166235809227
 20
428.979469472423
 30
0.0
 11
290.4166235809227
 21
358.979469472423
 31
0.0
  0
LINE
  5
626
330
A
100
AcDbEntity
  8
03
100
AcDbLine
 10
132.0832902475894
 20
117.7294694724229
 30
0.0
 11
132.0832902475894
 21
201.0628028057563
 31
0.0
  0
LINE
  5
627
330
A
100
AcDbEntity
  8
03
100
AcDbLine
 10
298.7499569142559
 20
201.0628028057563
 30
0.0
 11
298.7499569142559
 21
117.7294694724229
 31
0.0
  0
LINE
  5
628
330
A
100
AcDbEntity
  8
03
100
AcDbLine
 10
298.7499569142559
 20
117.7294694724229
 30
0.0
 11
132.0832902475894
 21
117.7294694724229
 31
0.0
  0
LINE
  5
629
330
A
100
AcDbEntity
  8
06
100
AcDbLine
 10
132.0832902475894
 20
201.0628028057563
 30
0.0
 11
298.7499569142559
 21
201.0628028057561
 31
0.0
  0
LINE
  5
62A
330
A
100
AcDbEntity
  8
03
100
AcDbLine
 10
132.0832902475894
 20
124.3961361390895
 30
0.0
 11
298.7499569142559
 21
124.3961361390895
 31
0.0
  0
LINE
  5
62B
330
A
100
AcDbEntity
  8
06
100
AcDbLine
 10
132.0832902475894
 20
194.3961361390895
 30
0.0
 11
298.7499569142559
 21
194.3961361390895
 31
0.0
  0
LINE
  5
62C
330
A
100
AcDbEntity
  8
03
100
AcDbLine
 10
140.4166235809227
 20
194.3961361390895
 30
0.0
 11
140.4166235809227
 21
124.3961361390895
 31
0.0
  0
LINE
  5
62D
330
A
100
AcDbEntity
  8
03
100
AcDbLine
 10
290.4166235809227
 20
194.3961361390895
 30
0.0
 11
290.4166235809227
 21
124.3961361390895
 31
0.0
  0
LINE
  5
62E
330
A
100
AcDbEntity
  8
06
100
AcDbLine
 10
132.0832902475895
 20
276.5628028057562
 30
0.0
 11
132.0832902475894
 21
195.6461361390895
 31
0.0
  0
LINE
  5
62F
330
A
100
AcDbEntity
  8
06
100
AcDbLine
 10
298.7499569142559
 20
195.6461361390895
 30
0.0
 11
298.7499569142561
 21
276.5628028057562
 31
0.0
  0
LINE
  5
630
330
A
100
AcDbEntity
  8
06
100
AcDbLine
 10
298.7499569142561
 20
276.5628028057562
 30
0.0
 11
132.0832902475895
 21
276.5628028057562
 31
0.0
  0
LINE
  5
631
330
A
100
AcDbEntity
  8
06
100
AcDbLine
 10
132.0832902475894
 20
194.3961361390895
 30
0.0
 11
298.7499569142559
 21
194.3961361390895
 31
0.0
  0
LINE
  5
632
330
A
100
AcDbEntity
  8
06
100
AcDbLine
 10
132.0832902475895
 20
269.8961361390896
 30
0.0
 11
298.7499569142561
 21
269.8961361390896
 31
0.0
  0
LINE
  5
633
330
A
100
AcDbEntity
  8
06
100
AcDbLine
 10
132.0832902475894
 20
201.0628028057561
 30
0.0
 11
298.7499569142559
 21
201.0628028057561
 31
0.0
  0
LINE
  5
634
330
A
100
AcDbEntity
  8
06
100
AcDbLine
 10
140.4166235809227
 20
201.0628028057561
 30
0.0
 11
140.4166235809227
 21
269.8961361390896
 31
0.0
  0
LINE
  5
635
330
A
100
AcDbEntity
  8
06
100
AcDbLine
 10
290.4166235809227
 20
201.0628028057561
 30
0.0
 11
290.4166235809227
 21
269.8961361390896
 31
0.0
  0
LINE
  5
636
330
A
100
AcDbEntity
  8
06
100
AcDbLine
 10
132.0832902475895
 20
276.8128028057561
 30
0.0
 11
132.0832902475895
 21
357.6461361390895
 31
0.0
  0
LINE
  5
637
330
A
100
AcDbEntity
  8
06
100
AcDbLine
 10
298.7499569142559
 20
357.6461361390895
 30
0.0
 11
298.7499569142559
 21
276.8128028057561
 31
0.0
  0
LINE
  5
638
330
A
100
AcDbEntity
  8
06
100
AcDbLine
 10
298.7499569142559
 20
276.8128028057561
 30
0.0
 11
132.0832902475895
 21
276.8128028057561
 31
0.0
  0
LINE
  5
639
330
A
100
AcDbEntity
  8
06
100
AcDbLine
 10
132.0832902475895
 20
358.979469472423
 30
0.0
 11
298.7499569142559
 21
358.979469472423
 31
0.0
  0
LINE
  5
63A
330
A
100
AcDbEntity
  8
06
100
AcDbLine
 10
132.0832902475895
 20
283.4794694724229
 30
0.0
 11
298.7499569142561
 21
283.4794694724229
 31
0.0
  0
LINE
  5
63B
330
A
100
AcDbEntity
  8
06
100
AcDbLine
 10
132.0832902475895
 20
352.2294694724228
 30
0.0
 11
298.7499569142559
 21
352.2294694724228
 31
0.0
  0
LINE
  5
63C
330
A
100
AcDbEntity
  8
06
100
AcDbLine
 10
140.4166235809227
 20
352.2294694724228
 30
0.0
 11
140.4166235809227
 21
283.4794694724229
 31
0.0
  0
LINE
  5
63D
330
A
100
AcDbEntity
  8
06
100
AcDbLine
 10
290.4166235809227
 20
352.2294694724228
 30
0.0
 11
290.4166235809227
 21
283.4794694724229
 31
0.0
  0
POLYLINE
  5
72B
330
A
100
AcDbEntity
  8
DEFPOINTS
100
AcDb2dPolyline
 66
     1
 10
0.0
 20
0.0
 30
0.0
 70
     1
  0
VERTEX
  5
2047
330
72B
100
AcDbEntity
  8
DEFPOINTS
100
AcDbVertex
100
AcDb2dVertex
 10
0.0
 20
0.0
 30
0.0
  0
VERTEX
  5
2048
330
72B
100
AcDbEntity
  8
DEFPOINTS
100
AcDbVertex
100
AcDb2dVertex
 10
594.0
 20
0.0
 30
0.0
  0
VERTEX
  5
2049
330
72B
100
AcDbEntity
  8
DEFPOINTS
100
AcDbVertex
100
AcDb2dVertex
 10
594.0
 20
841.0
 30
0.0
  0
VERTEX
  5
204A
330
72B
100
AcDbEntity
  8
DEFPOINTS
100
AcDbVertex
100
AcDb2dVertex
 10
0.0
 20
841.0
 30
0.0
  0
SEQEND
  5
204B
330
72B
100
AcDbEntity
  8
DEFPOINTS
  0
LEADER
  5
744
330
A
100
AcDbEntity
  8
HIKIDASI
100
AcDbLeader
  3
SUNPOU_3
 73
     0
 75
     1
 40
24.0
 41
84.96
 76
     3
 10
287.7490663567663
 20
761.4811325898259
 30
0.0
 10
341.350413454022
 20
593.0386143114782
 30
0.0
 10
341.350413454022
 20
585.5386143114782
 30
0.0
340
745
211
0.0000000000000001
221
1.0
231
0.0
213
-14.87668533203907
223
-5.761455824264544
233
0.0
1001
ACAD
1000
DSTYLE
1002
{
1070
     5
1000
OPEN30
1070
    77
1070
     1
1070
   147
1040
1.0
1070
   342
1005
717
1002
}
1000
LEANOF
1010
-14.87668533203907
1020
-5.761455824264544
1030
0.0
1000
LEANOF
1010
-14.87668533203907
1020
-5.761455824264544
1030
0.0
  0
MTEXT
  5
745
330
A
100
AcDbEntity
  8
HIKIDASI
100
AcDbMText
 10
353.2270987860611
 20
503.3400701357427
 30
0.0
 40
9.0
 41
0.0
 71
     7
 72
     1
  1
回転ストッパー\P床埋込型(サッシ工事)
  7
SUNPOU
 11
0.0000000000000001
 21
1.0
 31
0.0
1001
ACAD
1000
MTEXTBEGIN
1070
    73
1070
     1
1070
    44
1040
1.0
1070
    74
1070
     0
1000
MTEXTEND
1000
MTEXTBEGIN
1070
    73
1070
     1
1070
    44
1040
1.0
1070
    74
1070
     0
1000
MTEXTEND
  0
LEADER
  5
748
330
A
100
AcDbEntity
  8
HIKIDASI
100
AcDbLeader
  3
SUNPOU_3
 76
     2
 10
287.7490663567663
 20
630.4810900590685
 30
0.0
 10
341.950413454022
 20
595.1386143114782
 30
0.0
1001
ACAD
1000
DSTYLE
1002
{
1070
     5
1000
OPEN30
1070
    77
1070
     1
1070
   147
1040
1.0
1070
   342
1005
717
1002
}
1000
LEANOF
1010
0.0
1020
0.0
1030
0.0
1000
LEANOF
1010
0.0
1020
0.0
1030
0.0
  0
LEADER
  5
749
330
A
100
AcDbEntity
  8
HIKIDASI
100
AcDbLeader
  3
SUNPOU_3
 76
     2
 10
263.510707043396
 20
578.2791345892838
 30
0.0
 10
341.950413454022
 20
595.1386143114782
 30
0.0
1001
ACAD
1000
DSTYLE
1002
{
1070
     5
1000
OPEN30
1070
    77
1070
     1
1070
   147
1040
1.0
1070
   342
1005
717
1002
}
1000
LEANOF
1010
0.0
1020
0.0
1030
0.0
1000
LEANOF
1010
0.0
1020
0.0
1030
0.0
  0
LEADER
  5
74A
330
A
100
AcDbEntity
  8
HIKIDASI
100
AcDbLeader
  3
SUNPOU_3
 73
     0
 74
     0
 75
     1
 40
24.0
 41
49.44000000000002
 76
     3
 10
202.9999569142559
 20
457.9794694724228
 30
0.0
 10
234.1069967796588
 20
440.5000184879638
 30
0.0
 10
234.1069967796588
 20
448.0000184879639
 30
0.0
340
74B
211
0.0000000000000001
221
1.0
231
0.0
213
-16.59868601230258
223
3.599999999999995
233
0.0
1001
ACAD
1000
DSTYLE
1002
{
1070
     5
1000
OPEN30
1070
    77
1070
     1
1070
   147
1040
1.0
1070
   342
1005
717
1002
}
1000
LEANOF
1010
-16.59868601230258
1020
3.599999999999995
1030
0.0
1000
LEANOF
1010
-16.59868601230258
1020
3.599999999999995
1030
0.0
  0
MTEXT
  5
74B
330
A
100
AcDbEntity
  8
HIKIDASI
100
AcDbMText
 10
247.7056827919614
 20
447.4000184879638
 30
0.0
 40
9.0
 41
0.0
 71
     7
 72
     1
  1
電源スイッチ\P(電気工事)
  7
SUNPOU
 11
0.0000000000000001
 21
1.0
 31
0.0
1001
ACAD
1000
MTEXTBEGIN
1070
    73
1070
     1
1070
    44
1040
1.0
1070
    74
1070
     0
1000
MTEXTEND
1000
MTEXTBEGIN
1070
    73
1070
     1
1070
    44
1040
1.0
1070
    74
1070
     0
1000
MTEXTEND
  0
LEADER
  5
74C
330
A
100
AcDbEntity
  8
HIKIDASI
100
AcDbLeader
  3
SUNPOU_3
 73
     0
 75
     1
 40
24.0
 41
70.08000000000001
 76
     3
 10
39.23689679001737
 20
456.3128028057561
 30
0.0
 10
28.89514619258618
 20
428.3542622617195
 30
0.0
 10
28.89514619258618
 20
420.8542622617195
 30
0.0
340
74D
211
0.0000000000000001
221
1.0
231
0.0
213
-15.63684672319858
223
-5.328732400507884
233
0.0
1001
ACAD
1000
DSTYLE
1002
{
1070
     5
1000
OPEN30
1070
    77
1070
     1
1070
   147
1040
1.0
1070
   342
1005
717
1002
}
1000
LEANOF
1010
-15.63684672319858
1020
-5.328732400507884
1030
0.0
1000
LEANOF
1010
-15.63684672319858
1020
-5.328732400507884
1030
0.0
  0
MTEXT
  5
74D
330
A
100
AcDbEntity
  8
HIKIDASI
100
AcDbMText
 10
29.53199291578476
 20
388.1429946622274
 30
0.0
 40
9.0
 41
0.0
 71
     5
 72
     1
  1
電源AC100V5A\P(電気工事)
  7
SUNPOU
 11
0.0000000000000001
 21
1.0
 31
0.0
1001
ACAD
1000
MTEXTBEGIN
1070
    73
1070
     1
1070
    44
1040
1.0
1070
    74
1070
     0
1000
MTEXTEND
1000
MTEXTBEGIN
1070
    73
1070
     1
1070
    44
1040
1.0
1070
    74
1070
     0
1000
MTEXTEND
  0
LEADER
  5
74E
330
A
100
AcDbEntity
  8
HIKIDASI
100
AcDbLeader
  3
SUNPOU_3
 73
     0
 74
     0
 75
     1
 40
9.0
 41
57.60000000000002
 76
     3
 10
439.1074018111061
 20
117.7294694724226
 30
0.0
 10
403.6992563431986
 20
98.85887429011852
 30
0.0
 10
403.6992563431986
 20
106.3588742901184
 30
0.0
340
74F
211
0.0000000000000001
221
1.0
231
0.0
1001
ACAD
1000
DSTYLE
1002
{
1070
     5
1000
OPEN30
1070
    77
1070
     1
1070
   147
1040
1.0
1070
   342
1005
717
1002
}
1000
LEANOF
1010
0.0
1020
0.0
1030
0.0
1000
LEANOF
1010
0.0
1020
0.0
1030
0.0
  0
MTEXT
  5
74F
330
A
100
AcDbEntity
  8
HIKIDASI
100
AcDbMText
 10
396.1992563431986
 20
109.3588742901185
 30
0.0
 40
9.0
 41
0.0
 71
     4
 72
     1
  1
回転ストッパー
  7
SUNPOU
 11
0.0000000000000001
 21
1.0
 31
0.0
1001
ACAD
1000
MTEXTBEGIN
1070
    73
1070
     1
1070
    44
1040
1.0
1070
    74
1070
     0
1000
MTEXTEND
1000
MTEXTBEGIN
1070
    73
1070
     1
1070
    44
1040
1.0
1070
    74
1070
     0
1000
MTEXTEND
  0
LEADER
  5
751
330
A
100
AcDbEntity
  8
HIKIDASI
100
AcDbLeader
  3
SUNPOU_3
 73
     0
 74
     0
 75
     1
 40
9.000000000000003
 41
66.71999999999998
 76
     3
 10
514.5349135383281
 20
118.3173751317498
 30
0.0
 10
573.6752280864078
 20
136.2517874310271
 30
0.0
 10
573.6752280864078
 20
143.7517874310271
 30
0.0
340
752
211
0.0000000000000001
221
1.0
231
0.0
213
0.8625236873461339
223
10.09060074769962
233
0.0
1001
ACAD
1000
DSTYLE
1002
{
1070
     5
1000
OPEN30
1070
    77
1070
     1
1070
   147
1040
1.0
1070
   342
1005
717
1002
}
1000
LEANOF
1010
0.8625236873461339
1020
10.09060074769962
1030
0.0
1000
LEANOF
1010
0.8625236873461339
1020
10.09060074769962
1030
0.0
  0
MTEXT
  5
752
330
A
100
AcDbEntity
  8
HIKIDASI
100
AcDbMText
 10
569.8127043990617
 20
136.6611866833275
 30
0.0
 40
9.0
 41
0.0
 71
     7
 72
     1
  1
補助光電スイッチ
  7
SUNPOU
 11
0.0000000000000001
 21
1.0
 31
0.0
1001
ACAD
1000
MTEXTBEGIN
1070
    73
1070
     1
1070
    44
1040
1.0
1070
    74
1070
     0
1000
MTEXTEND
1000
MTEXTBEGIN
1070
    73
1070
     1
1070
    44
1040
1.0
1070
    74
1070
     0
1000
MTEXTEND
  0
LEADER
  5
753
330
A
100
AcDbEntity
  8
HIKIDASI
100
AcDbLeader
  3
SUNPOU_3
 73
     0
 75
     1
 40
9.000000000000003
 41
66.71999999999998
 76
     3
 10
514.5349135383281
 20
435.2248971464288
 30
0.0
 10
573.8854137330593
 20
417.1061093819386
 30
0.0
 10
573.8854137330593
 20
409.6061093819386
 30
0.0
340
754
211
0.0000000000000001
221
1.0
231
0.0
213
0.6981067067493365
223
-8.932623547438726
233
0.0
1001
ACAD
1000
DSTYLE
1002
{
1070
     5
1000
OPEN30
1070
    77
1070
     1
1070
   147
1040
1.0
1070
   342
1005
717
1002
}
1000
LEANOF
1010
0.6981067067493365
1020
-8.932623547438726
1030
0.0
1000
LEANOF
1010
0.6981067067493365
1020
-8.932623547438726
1030
0.0
  0
MTEXT
  5
754
330
A
100
AcDbEntity
  8
HIKIDASI
100
AcDbMText
 10
565.68730702631
 20
415.5387329293773
 30
0.0
 40
9.0
 41
0.0
 71
     6
 72
     1
  1
補助光電スイッチ
  7
SUNPOU
 11
0.0000000000000001
 21
1.0
 31
0.0
1001
ACAD
1000
MTEXTBEGIN
1070
    73
1070
     1
1070
    44
1040
1.0
1070
    74
1070
     0
1000
MTEXTEND
1000
MTEXTBEGIN
1070
    73
1070
     1
1070
    44
1040
1.0
1070
    74
1070
     0
1000
MTEXTEND
  0
DIMENSION
  5
763
330
A
100
AcDbEntity
  8
SUNPOU
100
AcDbDimension
  2
*D1
 10
287.7490663567663
 20
814.2920994960155
 30
0.0
 11
237.4623947301943
 21
805.7583609756633
 31
0.0
 70
   160
 53
180.0
  3
SUNPOU_3
100
AcDbAlignedDimension
 13
186.7490663567663
 23
789.4811325898256
 33
0.0
 14
287.7490663567663
 24
789.4811325898256
 34
0.0
100
AcDbRotatedDimension
  0
DIMENSION
  5
770
330
A
100
AcDbEntity
  8
SUNPOU
100
AcDbDimension
  2
*D2
 10
174.334513992159
 20
761.4811325898259
 30
0.0
 11
166.234513992159
 21
778.1428041148087
 31
0.0
 70
   160
  3
SUNPOU_3
100
AcDbAlignedDimension
 13
186.7490663567663
 23
789.4811325898256
 33
0.0
 14
186.7490663567663
 24
761.4811325898259
 34
0.0
 50
90.0
100
AcDbRotatedDimension
  0
DIMENSION
  5
77D
330
A
100
AcDbEntity
  8
SUNPOU
100
AcDbDimension
  2
*D3
 10
158.4084198942204
 20
767.481091324447
 30
0.0
 11
151.6584198942201
 21
778.4811119571362
 31
0.0
 70
    32
  3
SUNPOU_3
100
AcDbAlignedDimension
 13
186.7490663567663
 23
789.4811325898256
 33
0.0
 14
186.7490663567663
 24
767.481091324447
 34
0.0
 50
90.0
100
AcDbRotatedDimension
  0
DIMENSION
  5
78C
330
A
100
AcDbEntity
  8
SUNPOU
100
AcDbDimension
  2
*D4
 10
138.5151467735517
 20
630.4810900590687
 30
0.0
 11
129.9170302727542
 21
695.292965608457
 31
0.0
 70
   160
  3
SUNPOU_3
100
AcDbAlignedDimension
 13
186.7490663567663
 23
789.4811325898256
 33
0.0
 14
186.7490663567663
 24
630.4810900590687
 34
0.0
 50
90.0
100
AcDbRotatedDimension
  0
DIMENSION
  5
799
330
A
100
AcDbEntity
  8
SUNPOU
100
AcDbDimension
  2
*D5
 10
174.334513992159
 20
630.4810900590687
 30
0.0
 11
166.234513992159
 21
642.8511827415141
 31
0.0
 70
   160
  3
SUNPOU_3
100
AcDbAlignedDimension
 13
186.7490663567663
 23
658.4810900590683
 33
0.0
 14
186.7490663567663
 24
630.4810900590687
 34
0.0
 50
90.0
100
AcDbRotatedDimension
  0
DIMENSION
  5
7A6
330
A
100
AcDbEntity
  8
SUNPOU
100
AcDbDimension
  2
*D6
 10
158.4084198942204
 20
652.481101324447
 30
0.0
 11
151.6584198942201
 21
641.4810956917579
 31
0.0
 70
    32
  3
SUNPOU_3
100
AcDbAlignedDimension
 13
186.7490663567663
 23
630.4810900590687
 33
0.0
 14
186.7490663567663
 24
652.481101324447
 34
0.0
 50
90.0
100
AcDbRotatedDimension
  0
DIMENSION
  5
7B5
330
A
100
AcDbEntity
  8
SUNPOU
100
AcDbDimension
  2
*D7
 10
158.4084198942204
 20
767.481091324447
 30
0.0
 11
149.9244698210604
 21
695.0867173137027
 31
0.0
 70
   160
  3
SUNPOU_3
100
AcDbAlignedDimension
 13
186.7490663567663
 23
652.481101324447
 33
0.0
 14
158.4084198942204
 24
767.481091324447
 34
0.0
 50
90.0
100
AcDbRotatedDimension
  0
DIMENSION
  5
7C2
330
A
100
AcDbEntity
  8
SUNPOU
100
AcDbDimension
  2
*D8
 10
264.156871746195
 20
767.481091324447
 30
0.0
 11
256.2355013424816
 21
777.7848063495806
 31
0.0
 70
   160
  3
SUNPOU_3
100
AcDbAlignedDimension
 13
264.156871746195
 23
783.4811325898257
 33
0.0
 14
264.156871746195
 24
767.481091324447
 34
0.0
 50
90.0
100
AcDbRotatedDimension
  0
DIMENSION
  5
7EF
330
A
100
AcDbEntity
  8
SUNPOU
100
AcDbDimension
  2
*D9
 10
91.91427605786149
 20
716.4811113244471
 30
0.0
 11
85.16427605786136
 21
743.4811113244471
 31
0.0
 70
    32
  3
SUNPOU_3
100
AcDbAlignedDimension
 13
122.9990633567664
 23
770.4811113244471
 33
0.0
 14
122.9990633567664
 24
716.4811113244471
 34
0.0
 50
90.0
100
AcDbRotatedDimension
  0
DIMENSION
  5
7FC
330
A
100
AcDbEntity
  8
SUNPOU
100
AcDbDimension
  2
*D10
 10
91.91427605786149
 20
706.4811112244472
 30
0.0
 11
82.18875823897858
 21
710.9154388733877
 31
0.0
 70
   160
  3
SUNPOU_3
100
AcDbAlignedDimension
 13
122.9990633567664
 23
716.4811113244471
 33
0.0
 14
187.4990673567665
 24
706.4811112244472
 34
0.0
 50
90.0
100
AcDbRotatedDimension
  0
DIMENSION
  5
80B
330
A
100
AcDbEntity
  8
SUNPOU
100
AcDbDimension
  2
*D11
 10
91.91427605786143
 20
652.481101324447
 30
0.0
 11
85.16427605786136
 21
679.481106274447
 31
0.0
 70
    32
  3
SUNPOU_3
100
AcDbAlignedDimension
 13
187.4990673567665
 23
706.4811112244472
 33
0.0
 14
187.4990673567665
 24
652.481101324447
 34
0.0
 50
90.0
100
AcDbRotatedDimension
  0
DIMENSION
  5
818
330
A
100
AcDbEntity
  8
SUNPOU
100
AcDbDimension
  2
*D12
 10
70.35029065837523
 20
652.481101324447
 30
0.0
 11
61.82159877842559
 21
703.5651437240335
 31
0.0
 70
   160
  3
SUNPOU_3
100
AcDbAlignedDimension
 13
91.91427605786143
 23
770.4811113244471
 33
0.0
 14
91.91427605786143
 24
652.481101324447
 34
0.0
 50
90.0
100
AcDbRotatedDimension
  0
DIMENSION
  5
825
330
A
100
AcDbEntity
  8
SUNPOU
100
AcDbDimension
  2
*D13
 10
153.6516138458733
 20
585.2310900590683
 30
0.0
 11
144.7967310238235
 21
594.9341779075885
 31
0.0
 70
   160
  3
SUNPOU_3
100
AcDbAlignedDimension
 13
182.249066356767
 23
589.2310900590683
 33
0.0
 14
182.249066356767
 24
585.2310900590683
 34
0.0
 50
90.0
100
AcDbRotatedDimension
  0
DIMENSION
  5
834
330
A
100
AcDbEntity
  8
SUNPOU
100
AcDbDimension
  2
*D14
 10
153.6516138458733
 20
538.7310900590687
 30
0.0
 11
146.9016138458733
 21
561.9810900590683
 31
0.0
 70
    32
  3
SUNPOU_3
100
AcDbAlignedDimension
 13
182.249066356767
 23
585.2310900590683
 33
0.0
 14
182.249066356767
 24
538.7310900590687
 34
0.0
 50
90.0
100
AcDbRotatedDimension
  0
DIMENSION
  5
84E
330
A
100
AcDbEntity
  8
SUNPOU
100
AcDbDimension
  2
*D15
 10
153.6516138458733
 20
509.7310900590685
 30
0.0
 11
146.9016138458733
 21
524.2310900590687
 31
0.0
 70
    32
  3
SUNPOU_3
100
AcDbAlignedDimension
 13
186.7490663567663
 23
538.7310900590687
 33
0.0
 14
244.5990663567659
 24
509.7310900590685
 34
0.0
 50
90.0
100
AcDbRotatedDimension
  0
DIMENSION
  5
85B
330
A
100
AcDbEntity
  8
SUNPOU
100
AcDbDimension
  2
*D16
 10
578.3496147086657
 20
793.4810593244467
 30
0.0
 11
569.613897767133
 21
803.6556676078184
 31
0.0
 70
   160
  3
SUNPOU_3
100
AcDbAlignedDimension
 13
553.3795733567663
 23
798.4810813244466
 33
0.0
 14
409.3795739676727
 24
793.4810593244467
 34
0.0
 50
90.0
100
AcDbRotatedDimension
  0
DIMENSION
  5
86A
330
A
100
AcDbEntity
  8
SUNPOU
100
AcDbDimension
  2
*D17
 10
578.3496147086657
 20
743.4802513244467
 30
0.0
 11
571.5996147086656
 21
768.4806553244468
 31
0.0
 70
    32
  3
SUNPOU_3
100
AcDbAlignedDimension
 13
409.3795739676727
 23
793.4810593244467
 33
0.0
 14
541.5350833900106
 24
743.4802513244467
 34
0.0
 50
90.0
100
AcDbRotatedDimension
  0
DIMENSION
  5
AD5
330
A
100
AcDbEntity
  8
SUNPOU
100
AcDbDimension
  2
*D18
 10
488.3986152938795
 20
117.4378028057562
 30
0.0
 11
478.4647154700177
 21
111.6870808735363
 31
0.0
 70
   160
  3
SUNPOU_3_12
100
AcDbAlignedDimension
 13
505.3990684777728
 23
117.8544694724227
 33
0.0
 14
504.3497129222171
 24
117.4378028057562
 34
0.0
 50
90.0
100
AcDbRotatedDimension
  0
DIMENSION
  5
AE4
330
A
100
AcDbEntity
  8
SUNPOU
100
AcDbDimension
  2
*D19
 10
488.3986152938795
 20
201.1878028057561
 30
0.0
 11
481.6486152938794
 21
159.5211361390895
 31
0.0
 70
    32
  1
DW1
  3
SUNPOU_3_12
100
AcDbAlignedDimension
 13
505.3990684777725
 23
117.8544694724227
 33
0.0
 14
505.3990684777728
 24
201.1878028057561
 34
0.0
 50
90.0
100
AcDbRotatedDimension
  0
DIMENSION
  5
B19
330
A
100
AcDbEntity
  8
SUNPOU
100
AcDbDimension
  2
*D20
 10
546.7648320926326
 20
276.6878028057563
 30
0.0
 11
556.9551565294394
 21
276.7380003346483
 31
0.0
 70
   160
  1
<>
  3
SUNPOU_3_12
100
AcDbAlignedDimension
 13
512.482401811106
 23
276.9378028057563
 33
0.0
 14
512.482401811106
 24
276.6878028057563
 34
0.0
 50
90.0
100
AcDbRotatedDimension
  0
DIMENSION
  5
B80
330
A
100
AcDbEntity
  8
SUNPOU
100
AcDbDimension
  2
*D21
 10
546.7648320926326
 20
276.9378028057563
 30
0.0
 11
540.0148320926327
 21
318.0211361390897
 31
0.0
 70
    32
  1
DW2
  3
SUNPOU_3_12
100
AcDbAlignedDimension
 13
512.482401811106
 23
359.1044694724231
 33
0.0
 14
512.4824018111062
 24
276.9378028057563
 34
0.0
 50
90.0
100
AcDbRotatedDimension
  0
DIMENSION
  5
B9C
330
A
100
AcDbEntity
  8
SUNPOU
100
AcDbDimension
  2
*D22
 10
546.7648320926326
 20
194.5211361390894
 30
0.0
 11
540.0148320926326
 21
235.6044694724229
 31
0.0
 70
    32
  1
DW2
  3
SUNPOU_3_12
100
AcDbAlignedDimension
 13
546.7648320926326
 23
276.6878028057563
 33
0.0
 14
512.482401811106
 24
194.5211361390894
 34
0.0
 50
90.0
100
AcDbRotatedDimension
  0
DIMENSION
  5
BA9
330
A
100
AcDbEntity
  8
SUNPOU
100
AcDbDimension
  2
*D23
 10
529.5822542500091
 20
201.1878028057561
 30
0.0
 11
520.4025305160524
 21
186.2788790920548
 31
0.0
 70
   160
  3
SUNPOU_3_12
100
AcDbAlignedDimension
 13
512.482401811106
 23
194.5211361390894
 33
0.0
 14
512.4824018111062
 24
201.1878028057561
 34
0.0
 50
90.0
100
AcDbRotatedDimension
  0
DIMENSION
  5
BF8
330
A
100
AcDbEntity
  8
SUNPOU
100
AcDbDimension
  2
*D24
 10
529.5822542500091
 20
359.1044694724231
 30
0.0
 11
519.8688371301214
 21
366.9394742600987
 31
0.0
 70
   160
  3
SUNPOU_3_12
100
AcDbAlignedDimension
 13
512.482401811106
 23
352.4378028057564
 33
0.0
 14
512.482401811106
 24
359.1044694724231
 34
0.0
 50
90.0
100
AcDbRotatedDimension
  0
DIMENSION
  5
D06
330
A
100
AcDbEntity
  8
SUNPOU
100
AcDbDimension
  2
*D25
 10
323.3156817576608
 20
117.3128028057562
 30
0.0
 11
316.5656817576608
 21
276.6878028057563
 31
0.0
 70
    32
  1
Wo
  3
SUNPOU_3_12
100
AcDbAlignedDimension
 13
299.5832902475894
 23
436.0628028057564
 33
0.0
 14
299.5832902475892
 24
117.3128028057562
 34
0.0
 50
90.0
100
AcDbRotatedDimension
  0
DIMENSION
  5
D13
330
A
100
AcDbEntity
  8
SUNPOU
100
AcDbDimension
  2
*D26
 10
131.7499569142559
 20
85.53019773404093
 30
0.0
 11
117.248348824215
 21
76.21549937195618
 31
0.0
 70
   160
 53
180.0
  3
SUNPOU_3_12
100
AcDbAlignedDimension
 13
104.249956914256
 23
117.3128028057562
 33
0.0
 14
131.7499569142559
 24
117.3961361390895
 34
0.0
100
AcDbRotatedDimension
  0
DIMENSION
  5
D3C
330
A
100
AcDbEntity
  8
SUNPOU
100
AcDbDimension
  2
*D27
 10
131.7499569142559
 20
102.6983607646885
 30
0.0
 11
138.6034966529454
 21
94.0686699194539
 31
0.0
 70
   160
  1
4
 53
180.0
  3
SUNPOU_3_12
100
AcDbAlignedDimension
 13
132.0832902475894
 23
117.7294694724229
 33
0.0
 14
131.7499569142559
 24
117.7294694724229
 34
0.0
100
AcDbRotatedDimension
  0
DIMENSION
  5
DA6
330
A
100
AcDbEntity
  8
SUNPOU
100
AcDbDimension
  2
*D28
 10
299.5832902475892
 20
85.53019773404093
 30
0.0
 11
215.7995829927128
 21
75.82738628362017
 31
0.0
 70
   160
  1
H
 53
180.0
  3
SUNPOU_3_12
100
AcDbAlignedDimension
 13
131.7499569142559
 23
117.3961361390895
 33
0.0
 14
299.5832902475892
 24
117.3961361390895
 34
0.0
100
AcDbRotatedDimension
  0
DIMENSION
  5
DB3
330
A
100
AcDbEntity
  8
SUNPOU
100
AcDbDimension
  2
*D29
 10
298.7499569142559
 20
102.6983607646885
 30
0.0
 11
215.4939596264838
 21
94.8448960961257
 31
0.0
 70
   160
  1
DH
 53
180.0
  3
SUNPOU_3_12
100
AcDbAlignedDimension
 13
132.0832902475894
 23
117.7294694724229
 33
0.0
 14
298.7499569142559
 24
117.7294694724229
 34
0.0
100
AcDbRotatedDimension
  0
DIMENSION
  5
DC0
330
A
100
AcDbEntity
  8
SUNPOU
100
AcDbDimension
  2
*D30
 10
299.5832902475892
 20
102.6983607646885
 30
0.0
 11
286.8501987527181
 21
93.68055880086512
 31
0.0
 70
   160
  1
10
 53
180.0
  3
SUNPOU_3_12
100
AcDbAlignedDimension
 13
298.7499569142559
 23
117.7294694724229
 33
0.0
 14
299.5832902475892
 24
102.6983607646885
 34
0.0
100
AcDbRotatedDimension
  0
DIMENSION
  5
E46
330
A
100
AcDbEntity
  8
SUNPOU
100
AcDbDimension
  2
*D31
 10
249.5832902475894
 20
378.8653953067131
 30
0.0
 11
274.8547787257239
 21
369.3470373881721
 31
0.0
 70
   160
 53
180.0
  3
SUNPOU_3_12
100
AcDbAlignedDimension
 13
299.5832902475892
 23
378.8653953067131
 33
0.0
 14
249.5832902475894
 24
357.6461361390895
 34
0.0
100
AcDbRotatedDimension
  0
DIMENSION
  5
EA6
330
A
100
AcDbEntity
  8
SUNPOU
100
AcDbDimension
  2
*D32
 10
244.599066356766
 20
543.8810900590685
 30
0.0
 11
249.3447402716863
 21
521.4787693349445
 31
0.0
 70
   164
  1
R34
 53
125.0
  3
SUNPOU_3
100
AcDbRadialDimension
 15
264.7061791093388
 25
516.2780736160178
 35
0.0
 40
0.0
1001
ACAD
1000
DSTYLE
1002
{
1070
   288
1070
     1
1002
}
  0
DIMENSION
  5
F6B
330
A
100
AcDbEntity
  8
SUNPOU
100
AcDbDimension
  2
*D33
 10
578.3496147086657
 20
679.4810713244467
 30
0.0
 11
571.5996147086656
 21
711.4806613244468
 31
0.0
 70
    32
  3
SUNPOU_3
100
AcDbAlignedDimension
 13
541.5350833900106
 23
743.4802513244467
 33
0.0
 14
540.614594032716
 24
679.4810713244467
 34
0.0
 50
90.0
100
AcDbRotatedDimension
  0
LINE
  5
18BF
330
A
100
AcDbEntity
  8
03
100
AcDbLine
 10
509.1490684777727
 20
270.0211361390896
 30
0.0
 11
512.482401811106
 21
270.0211361390896
 31
0.0
  0
LINE
  5
18C0
330
A
100
AcDbEntity
  8
03
100
AcDbLine
 10
509.1490684777727
 20
276.6878028057563
 30
0.0
 11
512.482401811106
 21
276.6878028057563
 31
0.0
  0
LINE
  5
18C1
330
A
100
AcDbEntity
  8
03
100
AcDbLine
 10
509.1490684777727
 20
276.6878028057563
 30
0.0
 11
509.1490684777727
 21
270.0211361390896
 31
0.0
  0
LINE
  5
18C2
330
A
100
AcDbEntity
  8
03
100
AcDbLine
 10
512.482401811106
 20
276.6878028057563
 30
0.0
 11
512.482401811106
 21
270.0211361390896
 31
0.0
  0
LINE
  5
18C3
330
A
100
AcDbEntity
  8
03
100
AcDbLine
 10
505.3990684777725
 20
194.5211361390895
 30
0.0
 11
508.7324018111059
 21
194.5211361390895
 31
0.0
  0
LINE
  5
18C4
330
A
100
AcDbEntity
  8
03
100
AcDbLine
 10
505.3990684777725
 20
201.1878028057561
 30
0.0
 11
508.7324018111059
 21
201.1878028057561
 31
0.0
  0
LINE
  5
18C5
330
A
100
AcDbEntity
  8
03
100
AcDbLine
 10
505.3990684777725
 20
201.1878028057561
 30
0.0
 11
505.3990684777725
 21
194.5211361390895
 31
0.0
  0
LINE
  5
18C6
330
A
100
AcDbEntity
  8
03
100
AcDbLine
 10
508.7324018111059
 20
201.1878028057561
 30
0.0
 11
508.7324018111059
 21
194.5211361390895
 31
0.0
  0
LINE
  5
1912
330
A
100
AcDbEntity
  8
03
100
AcDbLine
 10
505.3990684777725
 20
124.5211361390895
 30
0.0
 11
508.7324018111059
 21
124.5211361390895
 31
0.0
  0
LINE
  5
1913
330
A
100
AcDbEntity
  8
03
100
AcDbLine
 10
505.3990684777725
 20
117.8544694724227
 30
0.0
 11
508.7324018111059
 21
117.8544694724227
 31
0.0
  0
LINE
  5
1914
330
A
100
AcDbEntity
  8
03
100
AcDbLine
 10
505.3990684777725
 20
124.5211361390895
 30
0.0
 11
505.3990684777725
 21
117.8544694724227
 31
0.0
  0
LINE
  5
1915
330
A
100
AcDbEntity
  8
03
100
AcDbLine
 10
508.7324018111059
 20
124.5211361390895
 30
0.0
 11
508.7324018111059
 21
117.8544694724227
 31
0.0
  0
LINE
  5
191C
330
A
100
AcDbEntity
  8
SOUZOU
100
AcDbLine
 10
518.732401811106
 20
124.1044694724227
 30
0.0
 11
512.0657351444391
 21
124.1044694724227
 31
0.0
  0
LINE
  5
191D
330
A
100
AcDbEntity
  8
SOUZOU
100
AcDbLine
 10
518.732401811106
 20
127.437802805756
 30
0.0
 11
512.0657351444391
 21
127.437802805756
 31
0.0
  0
LINE
  5
191E
330
A
100
AcDbEntity
  8
SOUZOU
100
AcDbLine
 10
512.0657351444391
 20
127.437802805756
 30
0.0
 11
512.0657351444391
 21
124.1044694724227
 31
0.0
  0
LINE
  5
191F
330
A
100
AcDbEntity
  8
SOUZOU
100
AcDbLine
 10
518.732401811106
 20
127.437802805756
 30
0.0
 11
518.732401811106
 21
124.1044694724227
 31
0.0
  0
LINE
  5
1920
330
A
100
AcDbEntity
  8
SOUZOU
100
AcDbLine
 10
511.232401811106
 20
120.3544694724228
 30
0.0
 11
504.5657351444392
 21
120.3544694724228
 31
0.0
  0
LINE
  5
1921
330
A
100
AcDbEntity
  8
SOUZOU
100
AcDbLine
 10
511.232401811106
 20
123.6878028057562
 30
0.0
 11
504.5657351444392
 21
123.6878028057562
 31
0.0
  0
LINE
  5
1922
330
A
100
AcDbEntity
  8
SOUZOU
100
AcDbLine
 10
504.5657351444392
 20
123.6878028057562
 30
0.0
 11
504.5657351444392
 21
120.3544694724228
 31
0.0
  0
LINE
  5
1923
330
A
100
AcDbEntity
  8
SOUZOU
100
AcDbLine
 10
511.232401811106
 20
123.6878028057562
 30
0.0
 11
511.232401811106
 21
120.3544694724228
 31
0.0
  0
LINE
  5
1924
330
A
100
AcDbEntity
  8
SOUZOU
100
AcDbLine
 10
444.5657351444394
 20
124.1044694724227
 30
0.0
 11
437.8990684777726
 21
124.1044694724227
 31
0.0
  0
LINE
  5
1925
330
A
100
AcDbEntity
  8
SOUZOU
100
AcDbLine
 10
444.5657351444394
 20
127.437802805756
 30
0.0
 11
437.8990684777726
 21
127.437802805756
 31
0.0
  0
LINE
  5
1926
330
A
100
AcDbEntity
  8
SOUZOU
100
AcDbLine
 10
437.8990684777726
 20
127.437802805756
 30
0.0
 11
437.8990684777726
 21
124.1044694724227
 31
0.0
  0
LINE
  5
1927
330
A
100
AcDbEntity
  8
SOUZOU
100
AcDbLine
 10
444.5657351444394
 20
127.437802805756
 30
0.0
 11
444.5657351444394
 21
124.1044694724227
 31
0.0
  0
LINE
  5
1928
330
A
100
AcDbEntity
  8
SOUZOU
100
AcDbLine
 10
434.5657351444393
 20
120.3544694724228
 30
0.0
 11
427.8990684777727
 21
120.3544694724228
 31
0.0
  0
LINE
  5
1929
330
A
100
AcDbEntity
  8
SOUZOU
100
AcDbLine
 10
434.5657351444393
 20
123.6878028057562
 30
0.0
 11
427.8990684777727
 21
123.6878028057562
 31
0.0
  0
LINE
  5
192A
330
A
100
AcDbEntity
  8
SOUZOU
100
AcDbLine
 10
427.8990684777727
 20
123.6878028057562
 30
0.0
 11
427.8990684777727
 21
120.3544694724228
 31
0.0
  0
LINE
  5
192B
330
A
100
AcDbEntity
  8
SOUZOU
100
AcDbLine
 10
434.5657351444393
 20
123.6878028057562
 30
0.0
 11
434.5657351444393
 21
120.3544694724228
 31
0.0
  0
DIMENSION
  5
192C
330
A
100
AcDbEntity
  8
SUNPOU
100
AcDbDimension
  2
*D34
 10
488.3986152938795
 20
436.1878028057563
 30
0.0
 11
478.4647154700177
 21
441.9385247379763
 31
0.0
 70
   160
  3
SUNPOU_3_12
100
AcDbAlignedDimension
 13
505.3990684777728
 23
435.7711361390896
 33
0.0
 14
504.3497129222171
 24
436.1878028057563
 34
0.0
 50
270.0
100
AcDbRotatedDimension
  0
DIMENSION
  5
192D
330
A
100
AcDbEntity
  8
SUNPOU
100
AcDbDimension
  2
*D35
 10
488.3986152938795
 20
352.4378028057564
 30
0.0
 11
481.6486152938794
 21
394.104469472423
 31
0.0
 70
    32
  1
DW1
  3
SUNPOU_3_12
100
AcDbAlignedDimension
 13
505.3990684777725
 23
435.7711361390896
 33
0.0
 14
505.3990684777728
 24
352.4378028057564
 34
0.0
 50
270.0
100
AcDbRotatedDimension
  0
LINE
  5
192E
330
A
100
AcDbEntity
  8
03
100
AcDbLine
 10
505.5240684777727
 20
359.1044694724228
 30
0.0
 11
505.5240684777727
 21
429.104469472423
 31
0.0
  0
LINE
  5
192F
330
A
100
AcDbEntity
  8
03
100
AcDbLine
 10
508.6074018111059
 20
429.104469472423
 30
0.0
 11
508.6074018111059
 21
359.1044694724228
 31
0.0
  0
LINE
  5
1930
330
A
100
AcDbEntity
  8
SOUZOU
100
AcDbLine
 10
511.232401811106
 20
429.9378028057563
 30
0.0
 11
504.5657351444392
 21
429.9378028057563
 31
0.0
  0
LINE
  5
1931
330
A
100
AcDbEntity
  8
SOUZOU
100
AcDbLine
 10
511.232401811106
 20
433.2711361390896
 30
0.0
 11
504.5657351444392
 21
433.2711361390896
 31
0.0
  0
LINE
  5
1932
330
A
100
AcDbEntity
  8
03
100
AcDbLine
 10
505.3990684777725
 20
435.7711361390896
 30
0.0
 11
508.7324018111059
 21
435.7711361390896
 31
0.0
  0
LINE
  5
1933
330
A
100
AcDbEntity
  8
03
100
AcDbLine
 10
505.3990684777725
 20
429.104469472423
 30
0.0
 11
508.7324018111059
 21
429.104469472423
 31
0.0
  0
LINE
  5
1934
330
A
100
AcDbEntity
  8
03
100
AcDbLine
 10
504.3497129222171
 20
436.1878028057563
 30
0.0
 11
516.0781079827726
 21
436.1878028057563
 31
0.0
  0
LINE
  5
1935
330
A
100
AcDbEntity
  8
SOUZOU
100
AcDbLine
 10
504.5657351444392
 20
429.9378028057563
 30
0.0
 11
504.5657351444392
 21
433.2711361390896
 31
0.0
  0
LINE
  5
1936
330
A
100
AcDbEntity
  8
03
100
AcDbLine
 10
505.3990684777725
 20
429.104469472423
 30
0.0
 11
505.3990684777725
 21
435.7711361390896
 31
0.0
  0
LINE
  5
1937
330
A
100
AcDbEntity
  8
03
100
AcDbLine
 10
504.6583548974949
 20
438.039654657423
 30
0.0
 11
504.6583548974949
 21
440.0010728359947
 31
0.0
  0
LINE
  5
1938
330
A
100
AcDbEntity
  8
03
100
AcDbLine
 10
504.3497129222171
 20
438.039654657423
 30
0.0
 11
504.3497129222171
 21
436.1878028057563
 31
0.0
  0
LINE
  5
1939
330
A
100
AcDbEntity
  8
03
100
AcDbLine
 10
505.2756388480506
 20
438.039654657423
 30
0.0
 11
504.3497129222171
 21
438.039654657423
 31
0.0
  0
LINE
  5
193A
330
A
100
AcDbEntity
  8
SOUZOU
100
AcDbLine
 10
518.732401811106
 20
426.1878028057564
 30
0.0
 11
512.0657351444391
 21
426.1878028057564
 31
0.0
  0
LINE
  5
193B
330
A
100
AcDbEntity
  8
SOUZOU
100
AcDbLine
 10
518.732401811106
 20
429.5211361390896
 30
0.0
 11
512.0657351444391
 21
429.5211361390896
 31
0.0
  0
LINE
  5
193C
330
A
100
AcDbEntity
  8
SOUZOU
100
AcDbLine
 10
512.0657351444391
 20
426.1878028057564
 30
0.0
 11
512.0657351444391
 21
429.5211361390896
 31
0.0
  0
LINE
  5
193D
330
A
100
AcDbEntity
  8
SOUZOU
100
AcDbLine
 10
511.232401811106
 20
429.9378028057563
 30
0.0
 11
511.232401811106
 21
433.2711361390896
 31
0.0
  0
LINE
  5
193E
330
A
100
AcDbEntity
  8
03
100
AcDbLine
 10
508.7324018111059
 20
429.104469472423
 30
0.0
 11
508.7324018111059
 21
435.7711361390896
 31
0.0
  0
LINE
  5
193F
330
A
100
AcDbEntity
  8
CHUSIN
100
AcDbLine
 10
510.2139104524948
 20
436.1878028057563
 30
0.0
 11
510.2139104524948
 21
440.0010728359947
 31
0.0
  0
LINE
  5
1940
330
A
100
AcDbEntity
  8
03
100
AcDbLine
 10
515.7694660074947
 20
438.039654657423
 30
0.0
 11
515.7694660074947
 21
440.0010728359947
 31
0.0
  0
LINE
  5
1941
330
A
100
AcDbEntity
  8
03
100
AcDbLine
 10
516.0781079827726
 20
436.1878028057563
 30
0.0
 11
516.0781079827726
 21
438.039654657423
 31
0.0
  0
LINE
  5
1942
330
A
100
AcDbEntity
  8
03
100
AcDbLine
 10
516.0781079827726
 20
438.039654657423
 30
0.0
 11
515.152182056939
 21
438.039654657423
 31
0.0
  0
LINE
  5
1943
330
A
100
AcDbEntity
  8
CHUSIN
100
AcDbLine
 10
514.5349135383281
 20
435.3915638130954
 30
0.0
 11
514.5349135383281
 21
436.9624020834691
 31
0.0
  0
LINE
  5
1944
330
A
100
AcDbEntity
  8
SOUZOU
100
AcDbLine
 10
518.732401811106
 20
426.1878028057564
 30
0.0
 11
518.732401811106
 21
429.5211361390896
 31
0.0
  0
LINE
  5
1945
330
A
100
AcDbEntity
  8
03
100
AcDbLine
 10
512.482401811106
 20
276.9378028057563
 30
0.0
 11
512.482401811106
 21
283.6044694724228
 31
0.0
  0
LINE
  5
1946
330
A
100
AcDbEntity
  8
03
100
AcDbLine
 10
509.1490684777727
 20
276.9378028057563
 30
0.0
 11
509.1490684777727
 21
283.6044694724228
 31
0.0
  0
LINE
  5
1947
330
A
100
AcDbEntity
  8
03
100
AcDbLine
 10
509.2740684777727
 20
283.6044694724228
 30
0.0
 11
509.2740684777727
 21
352.4378028057564
 31
0.0
  0
LINE
  5
1948
330
A
100
AcDbEntity
  8
03
100
AcDbLine
 10
512.3574018111058
 20
352.4378028057564
 30
0.0
 11
512.3574018111058
 21
283.6044694724228
 31
0.0
  0
LINE
  5
1949
330
A
100
AcDbEntity
  8
03
100
AcDbLine
 10
505.3990684777725
 20
352.4378028057562
 30
0.0
 11
508.7324018111059
 21
352.4378028057562
 31
0.0
  0
LINE
  5
194A
330
A
100
AcDbEntity
  8
03
100
AcDbLine
 10
505.3990684777725
 20
359.1044694724228
 30
0.0
 11
508.7324018111059
 21
359.1044694724228
 31
0.0
  0
LINE
  5
194B
330
A
100
AcDbEntity
  8
03
100
AcDbLine
 10
505.3990684777725
 20
352.4378028057562
 30
0.0
 11
505.3990684777725
 21
359.1044694724228
 31
0.0
  0
LINE
  5
194C
330
A
100
AcDbEntity
  8
03
100
AcDbLine
 10
509.1490684777727
 20
359.1044694724231
 30
0.0
 11
512.482401811106
 21
359.1044694724231
 31
0.0
  0
LINE
  5
194D
330
A
100
AcDbEntity
  8
03
100
AcDbLine
 10
509.1490684777727
 20
352.4378028057564
 30
0.0
 11
512.482401811106
 21
352.4378028057564
 31
0.0
  0
LINE
  5
194E
330
A
100
AcDbEntity
  8
03
100
AcDbLine
 10
508.7324018111059
 20
352.4378028057562
 30
0.0
 11
508.7324018111059
 21
359.1044694724228
 31
0.0
  0
LINE
  5
194F
330
A
100
AcDbEntity
  8
03
100
AcDbLine
 10
509.1490684777727
 20
352.4378028057564
 30
0.0
 11
509.1490684777727
 21
359.1044694724231
 31
0.0
  0
LINE
  5
1950
330
A
100
AcDbEntity
  8
03
100
AcDbLine
 10
512.482401811106
 20
352.4378028057564
 30
0.0
 11
512.482401811106
 21
359.1044694724231
 31
0.0
  0
LINE
  5
1951
330
A
100
AcDbEntity
  8
03
100
AcDbLine
 10
509.1490684777727
 20
283.6044694724228
 30
0.0
 11
512.482401811106
 21
283.6044694724228
 31
0.0
  0
LINE
  5
1952
330
A
100
AcDbEntity
  8
03
100
AcDbLine
 10
509.1490684777727
 20
276.9378028057563
 30
0.0
 11
512.482401811106
 21
276.9378028057563
 31
0.0
  0
LINE
  5
1953
330
A
100
AcDbEntity
  8
SOUZOU
100
AcDbLine
 10
504.5657351444392
 20
433.1461361390896
 30
0.0
 11
434.5657351444393
 21
433.1461361390896
 31
0.0
  0
LINE
  5
1954
330
A
100
AcDbEntity
  8
SOUZOU
100
AcDbLine
 10
434.5657351444393
 20
430.0628028057563
 30
0.0
 11
504.5657351444392
 21
430.0628028057563
 31
0.0
  0
LINE
  5
1955
330
A
100
AcDbEntity
  8
SOUZOU
100
AcDbLine
 10
512.0657351444391
 20
429.3961361390897
 30
0.0
 11
444.5657351444394
 21
429.3961361390897
 31
0.0
  0
LINE
  5
1956
330
A
100
AcDbEntity
  8
SOUZOU
100
AcDbLine
 10
444.5657351444394
 20
426.3128028057563
 30
0.0
 11
512.0657351444391
 21
426.3128028057563
 31
0.0
  0
ARC
  5
1957
330
A
100
AcDbEntity
  8
SOUZOU
100
AcDbCircle
 10
513.6832691737351
 20
427.7847831037558
 30
0.0
 40
75.80102519885937
100
AcDbArc
 50
181.2072000488288
 51
263.7256821743819
  0
ARC
  5
1958
330
A
100
AcDbEntity
  8
SOUZOU
100
AcDbCircle
 10
507.0657351444394
 20
431.6044694724229
 30
0.0
 40
79.16666666666666
100
AcDbArc
 50
181.20604877922
 51
268.6509177488425
  0
LINE
  5
1959
330
A
100
AcDbEntity
  8
SOUZOU
100
AcDbLine
 10
434.5657351444393
 20
429.9378028057563
 30
0.0
 11
427.8990684777727
 21
429.9378028057563
 31
0.0
  0
LINE
  5
195A
330
A
100
AcDbEntity
  8
SOUZOU
100
AcDbLine
 10
434.5657351444393
 20
433.2711361390896
 30
0.0
 11
427.8990684777727
 21
433.2711361390896
 31
0.0
  0
LINE
  5
195C
330
A
100
AcDbEntity
  8
SOUZOU
100
AcDbLine
 10
434.5657351444393
 20
429.9378028057563
 30
0.0
 11
434.5657351444393
 21
433.2711361390896
 31
0.0
  0
LINE
  5
195D
330
A
100
AcDbEntity
  8
SOUZOU
100
AcDbLine
 10
444.5657351444394
 20
426.1878028057564
 30
0.0
 11
444.5657351444394
 21
429.5211361390896
 31
0.0
  0
LINE
  5
195E
330
A
100
AcDbEntity
  8
SOUZOU
100
AcDbLine
 10
437.8990684777726
 20
426.1878028057564
 30
0.0
 11
437.8990684777726
 21
429.5211361390896
 31
0.0
  0
LINE
  5
195F
330
A
100
AcDbEntity
  8
SOUZOU
100
AcDbLine
 10
444.5657351444394
 20
429.5211361390896
 30
0.0
 11
437.8990684777726
 21
429.5211361390896
 31
0.0
  0
LINE
  5
1960
330
A
100
AcDbEntity
  8
03
100
AcDbLine
 10
439.1074018111061
 20
435.8961361390898
 30
0.0
 11
447.5240684777728
 21
435.8961361390899
 31
0.0
  0
LINE
  5
1961
330
A
100
AcDbEntity
  8
03
100
AcDbLine
 10
447.5240684777728
 20
433.5628028057564
 30
0.0
 11
439.1074018111061
 21
433.5628028057564
 31
0.0
  0
LINE
  5
1962
330
A
100
AcDbEntity
  8
03
100
AcDbLine
 10
439.1074018111061
 20
433.5628028057564
 30
0.0
 11
439.1074018111061
 21
435.8961361390898
 31
0.0
  0
LINE
  5
1963
330
A
100
AcDbEntity
  8
03
100
AcDbLine
 10
447.5240684777728
 20
435.8961361390899
 30
0.0
 11
447.5240684777728
 21
433.5628028057564
 31
0.0
  0
LINE
  5
1964
330
A
100
AcDbEntity
  8
SOUZOU
100
AcDbLine
 10
444.5657351444394
 20
426.1878028057564
 30
0.0
 11
437.8990684777726
 21
426.1878028057564
 31
0.0
  0
LINE
  5
1965
330
A
100
AcDbEntity
  8
03
100
AcDbLine
 10
447.5240684777728
 20
423.4378028057562
 30
0.0
 11
439.107401811106
 21
423.4378028057562
 31
0.0
  0
LINE
  5
1966
330
A
100
AcDbEntity
  8
03
100
AcDbLine
 10
439.107401811106
 20
425.7711361390896
 30
0.0
 11
447.5240684777728
 21
425.7711361390896
 31
0.0
  0
LINE
  5
1967
330
A
100
AcDbEntity
  8
03
100
AcDbLine
 10
439.107401811106
 20
423.4378028057562
 30
0.0
 11
439.107401811106
 21
425.7711361390896
 31
0.0
  0
LINE
  5
1968
330
A
100
AcDbEntity
  8
03
100
AcDbLine
 10
447.5240684777728
 20
425.7711361390896
 30
0.0
 11
447.5240684777728
 21
423.4378028057562
 31
0.0
  0
MTEXT
  5
1AB8
330
A
100
AcDbEntity
  8
MOJI
100
AcDbMText
 10
575.1264833198121
 20
281.2286551020313
 30
0.0
 40
9.0
 41
36.4872
 71
     5
 72
     1
  1
内　　部
  7
0_8
 11
0.0000000000000001
 21
1.0
 31
0.0
1001
ACAD
1000
MTEXTBEGIN
1070
    73
1070
     1
1070
    44
1040
1.0
1070
    74
1070
     0
1000
MTEXTEND
1000
MTEXTBEGIN
1070
    73
1070
     1
1070
    44
1040
1.0
1070
    74
1070
     0
1000
MTEXTEND
  0
POLYLINE
  5
1AB9
330
A
100
AcDbEntity
  8
SAISEN
100
AcDb2dPolyline
 66
     1
 10
0.0
 20
0.0
 30
0.0
 70
     1
  0
VERTEX
  5
204C
330
1AB9
100
AcDbEntity
  8
SAISEN
100
AcDbVertex
100
AcDb2dVertex
 10
567.626483319812
 20
258.7286551020313
 30
0.0
  0
VERTEX
  5
204D
330
1AB9
100
AcDbEntity
  8
SAISEN
100
AcDbVertex
100
AcDb2dVertex
 10
582.6264833198121
 20
258.7286551020313
 30
0.0
  0
VERTEX
  5
204E
330
1AB9
100
AcDbEntity
  8
SAISEN
100
AcDbVertex
100
AcDb2dVertex
 10
582.6264833198121
 20
303.7286551020313
 30
0.0
  0
VERTEX
  5
204F
330
1AB9
100
AcDbEntity
  8
SAISEN
100
AcDbVertex
100
AcDb2dVertex
 10
567.626483319812
 20
303.7286551020313
 30
0.0
  0
SEQEND
  5
2050
330
1AB9
100
AcDbEntity
  8
SAISEN
  0
POLYLINE
  5
1ABA
330
A
100
AcDbEntity
  8
SAISEN
100
AcDb2dPolyline
 66
     1
 10
0.0
 20
0.0
 30
0.0
 70
     1
  0
VERTEX
  5
2051
330
1ABA
100
AcDbEntity
  8
SAISEN
100
AcDbVertex
100
AcDb2dVertex
 10
459.4367642514038
 20
255.9617607089566
 30
0.0
  0
VERTEX
  5
2052
330
1ABA
100
AcDbEntity
  8
SAISEN
100
AcDbVertex
100
AcDb2dVertex
 10
474.4367642514038
 20
255.9617607089566
 30
0.0
  0
VERTEX
  5
2053
330
1ABA
100
AcDbEntity
  8
SAISEN
100
AcDbVertex
100
AcDb2dVertex
 10
474.4367642514038
 20
300.9617607089566
 30
0.0
  0
VERTEX
  5
2054
330
1ABA
100
AcDbEntity
  8
SAISEN
100
AcDbVertex
100
AcDb2dVertex
 10
459.4367642514038
 20
300.9617607089566
 30
0.0
  0
SEQEND
  5
2055
330
1ABA
100
AcDbEntity
  8
SAISEN
  0
MTEXT
  5
1ABB
330
A
100
AcDbEntity
  8
MOJI
100
AcDbMText
 10
466.9367642514038
 20
278.4617607089566
 30
0.0
 40
9.0
 41
36.4872
 71
     5
 72
     1
  1
外　　部
  7
0_8
 11
0.0000000000000001
 21
1.0
 31
0.0
1001
ACAD
1000
MTEXTBEGIN
1070
    73
1070
     1
1070
    44
1040
1.0
1070
    74
1070
     0
1000
MTEXTEND
1000
MTEXTBEGIN
1070
    73
1070
     1
1070
    44
1040
1.0
1070
    74
1070
     0
1000
MTEXTEND
  0
MTEXT
  5
1ABC
330
A
100
AcDbEntity
  8
MOJI
100
AcDbMText
 10
27.23359755237424
 20
275.0959671736747
 30
0.0
 40
9.0
 41
53.0
 71
     5
 72
     1
  1
内観図(両引)
  7
0_8
 11
0.0000000000000001
 21
1.0
 31
0.0
1001
ACAD
1000
MTEXTBEGIN
1070
    73
1070
     1
1070
    44
1040
1.0
1070
    74
1070
     0
1000
MTEXTEND
1000
MTEXTBEGIN
1070
    73
1070
     1
1070
    44
1040
1.0
1070
    74
1070
     0
1000
MTEXTEND
  0
POLYLINE
  5
1ABD
330
A
100
AcDbEntity
  8
SAISEN
100
AcDb2dPolyline
 66
     1
 10
0.0
 20
0.0
 30
0.0
 70
     1
  0
VERTEX
  5
2056
330
1ABD
100
AcDbEntity
  8
SAISEN
100
AcDbVertex
100
AcDb2dVertex
 10
34.73359755237424
 20
301.3459671736748
 30
0.0
  0
VERTEX
  5
2057
330
1ABD
100
AcDbEntity
  8
SAISEN
100
AcDbVertex
100
AcDb2dVertex
 10
19.73359755237424
 20
301.3459671736748
 30
0.0
  0
VERTEX
  5
2058
330
1ABD
100
AcDbEntity
  8
SAISEN
100
AcDbVertex
100
AcDb2dVertex
 10
19.73359755237424
 20
248.8459671736748
 30
0.0
  0
VERTEX
  5
2059
330
1ABD
100
AcDbEntity
  8
SAISEN
100
AcDbVertex
100
AcDb2dVertex
 10
34.73359755237424
 20
248.8459671736748
 30
0.0
  0
SEQEND
  5
205A
330
1ABD
100
AcDbEntity
  8
SAISEN
  0
LINE
  5
1AEF
330
A
100
AcDbEntity
  8
03
  6
CONTINUOUS
100
AcDbLine
 10
104.1732082660788
 20
276.6878028057563
 30
0.0
 11
131.7499569142559
 21
276.6878028057563
 31
0.0
  0
POINT
  5
1AF4
330
A
100
AcDbEntity
  8
DEFPOINTS
100
AcDbPoint
 10
104.1732082660788
 20
197.0003028057562
 30
0.0
  0
POINT
  5
1AF5
330
A
100
AcDbEntity
  8
SOUZOU
100
AcDbPoint
 10
104.1732082660788
 20
276.6878028057563
 30
0.0
  0
POINT
  5
1AF6
330
A
100
AcDbEntity
  8
SOUZOU
100
AcDbPoint
 10
104.1732082660788
 20
356.3753028057563
 30
0.0
  0
LINE
  5
1AF7
330
A
100
AcDbEntity
  8
SOUZOU
100
AcDbLine
 10
131.7499569142559
 20
117.3128028057562
 30
0.0
 11
104.1732082660788
 21
197.0003028057562
 31
0.0
  0
LINE
  5
1AF8
330
A
100
AcDbEntity
  8
SOUZOU
100
AcDbLine
 10
104.1732082660788
 20
197.0003028057562
 30
0.0
 11
131.7499569142559
 21
276.6878028057563
 31
0.0
  0
LINE
  5
1AF9
330
A
100
AcDbEntity
  8
SOUZOU
100
AcDbLine
 10
131.7499569142559
 20
276.6878028057563
 30
0.0
 11
104.1732082660788
 21
356.3753028057563
 31
0.0
  0
LINE
  5
1AFA
330
A
100
AcDbEntity
  8
SOUZOU
100
AcDbLine
 10
104.1732082660788
 20
356.3753028057563
 30
0.0
 11
131.7499569142559
 21
436.0628028057564
 31
0.0
  0
LINE
  5
1E94
330
A
100
AcDbEntity
  8
04
100
AcDbLine
 10
182.249066356767
 20
585.2310900590683
 30
0.0
 11
187.7490663567663
 21
585.2310900590683
 31
0.0
  0
LINE
  5
1E95
330
A
100
AcDbEntity
  8
04
100
AcDbLine
 10
292.2490663567669
 20
585.2310900590683
 30
0.0
 11
286.7490663567662
 21
585.2310900590687
 31
0.0
  0
LINE
  5
1E96
330
A
100
AcDbEntity
  8
04
100
AcDbLine
 10
287.7490663567662
 20
541.7310900590686
 30
0.0
 11
286.7490663567662
 21
541.7310900590686
 31
0.0
  0
LINE
  5
1E97
330
A
100
AcDbEntity
  8
04
100
AcDbLine
 10
186.7490663567663
 20
541.7310900590689
 30
0.0
 11
187.7490663567663
 21
541.7310900590689
 31
0.0
  0
LINE
  5
1EC9
330
A
100
AcDbEntity
  8
KAKURE
100
AcDbLine
 10
495.3795933567662
 20
825.2810813244467
 30
0.0
 11
553.7795933567663
 21
825.2810813244467
 31
0.0
  0
LINE
  5
1ECA
330
A
100
AcDbEntity
  8
KAKURE
100
AcDbLine
 10
493.7795933567662
 20
826.8810813244467
 30
0.0
 11
553.7795933567663
 21
826.8810813244467
 31
0.0
  0
LINE
  5
1ECB
330
A
100
AcDbEntity
  8
KAKURE
100
AcDbLine
 10
493.7795933567662
 20
801.5810813244467
 30
0.0
 11
493.7795933567662
 21
826.8810813244467
 31
0.0
  0
LINE
  5
1ECC
330
A
100
AcDbEntity
  8
KAKURE
100
AcDbLine
 10
495.3795933567662
 20
825.2810813244467
 30
0.0
 11
495.3795933567662
 21
800.0810813244466
 31
0.0
  0
LINE
  5
1ECE
330
A
100
AcDbEntity
  8
KAKURE
100
AcDbLine
 10
480.3795933567662
 20
801.5810813244467
 30
0.0
 11
493.7795933567662
 21
801.5810813244467
 31
0.0
  0
LINE
  5
1ECF
330
A
100
AcDbEntity
  8
KAKURE
100
AcDbLine
 10
495.3795933567661
 20
799.9810813244466
 30
0.0
 11
480.3795933567662
 21
799.9810813244466
 31
0.0
  0
LINE
  5
1ED0
330
A
100
AcDbEntity
  8
KAKURE
100
AcDbLine
 10
480.3795933567662
 20
799.9810813244466
 30
0.0
 11
480.3795933567662
 21
801.5810813244467
 31
0.0
  0
LINE
  5
1ED1
330
A
100
AcDbEntity
  8
04
100
AcDbLine
 10
514.2795933567663
 20
796.4810813244467
 30
0.0
 11
512.7795933567663
 21
797.4810813244467
 31
0.0
  0
LINE
  5
1ED2
330
A
100
AcDbEntity
  8
04
100
AcDbLine
 10
512.7795933567663
 20
798.4810813244466
 30
0.0
 11
527.7795933567663
 21
798.4810813244466
 31
0.0
  0
LINE
  5
1ED3
330
A
100
AcDbEntity
  8
04
100
AcDbLine
 10
514.2795933567663
 20
805.4810813244467
 30
0.0
 11
512.7795933567663
 21
801.9810813244466
 31
0.0
  0
LINE
  5
1ED4
330
A
100
AcDbEntity
  8
04
100
AcDbLine
 10
515.2795933567663
 20
803.4810813244467
 30
0.0
 11
512.7795933567663
 21
799.4810813244466
 31
0.0
  0
LINE
  5
1ED5
330
A
100
AcDbEntity
  8
04
100
AcDbLine
 10
512.7795933567663
 20
798.4810813244466
 30
0.0
 11
512.7795933567663
 21
797.4810813244467
 31
0.0
  0
LINE
  5
1ED6
330
A
100
AcDbEntity
  8
04
100
AcDbLine
 10
512.7795933567663
 20
799.4810813244466
 30
0.0
 11
512.7795933567663
 21
801.9810813244466
 31
0.0
  0
LINE
  5
1ED7
330
A
100
AcDbEntity
  8
04
100
AcDbLine
 10
514.2795933567663
 20
812.4810813244467
 30
0.0
 11
514.2795933567663
 21
805.4810813244467
 31
0.0
  0
LINE
  5
1ED8
330
A
100
AcDbEntity
  8
04
100
AcDbLine
 10
526.2795933567663
 20
805.4810813244467
 30
0.0
 11
526.2795933567663
 21
812.4810813244467
 31
0.0
  0
LINE
  5
1ED9
330
A
100
AcDbEntity
  8
04
100
AcDbLine
 10
514.2795933567663
 20
796.4810813244467
 30
0.0
 11
526.2795933567663
 21
796.4810813244467
 31
0.0
  0
LINE
  5
1EDA
330
A
100
AcDbEntity
  8
04
100
AcDbLine
 10
518.7795933567663
 20
799.4810813244466
 30
0.0
 11
521.7795933567663
 21
799.4810813244466
 31
0.0
  0
LINE
  5
1EDB
330
A
100
AcDbEntity
  8
04
100
AcDbLine
 10
518.2795933567663
 20
801.9810813244466
 30
0.0
 11
522.2795933567663
 21
801.9810813244466
 31
0.0
  0
LINE
  5
1EDC
330
A
100
AcDbEntity
  8
04
100
AcDbLine
 10
514.2795933567663
 20
807.9810813244467
 30
0.0
 11
526.2795933567663
 21
807.9810813244467
 31
0.0
  0
LINE
  5
1EDD
330
A
100
AcDbEntity
  8
04
100
AcDbLine
 10
515.2795933567663
 20
798.4810813244466
 30
0.0
 11
515.2795933567663
 21
803.4810813244467
 31
0.0
  0
LINE
  5
1EDE
330
A
100
AcDbEntity
  8
04
100
AcDbLine
 10
517.695998786645
 20
798.4810813244466
 30
0.0
 11
517.695998786645
 21
805.1910813244466
 31
0.0
  0
LINE
  5
1EDF
330
A
100
AcDbEntity
  8
04
100
AcDbLine
 10
518.2795933567663
 20
801.9810813244466
 30
0.0
 11
518.7795933567663
 21
799.4810813244466
 31
0.0
  0
LINE
  5
1EE0
330
A
100
AcDbEntity
  8
04
100
AcDbLine
 10
518.2795933567663
 20
801.9810813244466
 30
0.0
 11
518.2795933567663
 21
805.1910813244466
 31
0.0
  0
LINE
  5
1EE1
330
A
100
AcDbEntity
  8
04
100
AcDbLine
 10
517.9859987866449
 20
805.4810813244467
 30
0.0
 11
517.9895933567662
 21
805.4810813244467
 31
0.0
  0
ARC
  5
1EE2
330
A
100
AcDbEntity
  8
04
100
AcDbCircle
 10
517.9859987866449
 20
805.1910813244466
 30
0.0
 40
0.29
100
AcDbArc
 50
90.0
 51
180.0
  0
ARC
  5
1EE3
330
A
100
AcDbEntity
  8
04
100
AcDbCircle
 10
517.9895933567662
 20
805.1910813244466
 30
0.0
 40
0.29
100
AcDbArc
 50
0.0
 51
90.0
  0
LINE
  5
1EE4
330
A
100
AcDbEntity
  8
04
100
AcDbLine
 10
525.2795933567663
 20
798.4810813244466
 30
0.0
 11
525.2795933567663
 21
803.4810813244467
 31
0.0
  0
LINE
  5
1EE5
330
A
100
AcDbEntity
  8
04
100
AcDbLine
 10
522.8631879268874
 20
798.4810813244466
 30
0.0
 11
522.8631879268874
 21
805.1910813244466
 31
0.0
  0
LINE
  5
1EE6
330
A
100
AcDbEntity
  8
04
100
AcDbLine
 10
526.2795933567663
 20
796.4810813244467
 30
0.0
 11
527.7795933567663
 21
797.4810813244467
 31
0.0
  0
LINE
  5
1EE7
330
A
100
AcDbEntity
  8
04
100
AcDbLine
 10
527.7795933567663
 20
797.4810813244467
 30
0.0
 11
527.7795933567663
 21
798.4810813244466
 31
0.0
  0
LINE
  5
1EE8
330
A
100
AcDbEntity
  8
04
100
AcDbLine
 10
525.2795933567663
 20
803.4810813244467
 30
0.0
 11
527.7795933567663
 21
799.4810813244466
 31
0.0
  0
LINE
  5
1EE9
330
A
100
AcDbEntity
  8
04
100
AcDbLine
 10
522.2795933567663
 20
801.9810813244466
 30
0.0
 11
521.7795933567663
 21
799.4810813244466
 31
0.0
  0
LINE
  5
1EEA
330
A
100
AcDbEntity
  8
04
100
AcDbLine
 10
522.2795933567663
 20
805.1910813244466
 30
0.0
 11
522.2795933567663
 21
801.9810813244466
 31
0.0
  0
LINE
  5
1EEB
330
A
100
AcDbEntity
  8
04
100
AcDbLine
 10
522.5731879268876
 20
805.4810813244467
 30
0.0
 11
522.5695933567663
 21
805.4810813244467
 31
0.0
  0
ARC
  5
1EEC
330
A
100
AcDbEntity
  8
04
100
AcDbCircle
 10
522.5731879268876
 20
805.1910813244466
 30
0.0
 40
0.29
100
AcDbArc
 50
0.0
 51
90.0
  0
ARC
  5
1EED
330
A
100
AcDbEntity
  8
04
100
AcDbCircle
 10
522.5695933567663
 20
805.1910813244466
 30
0.0
 40
0.29
100
AcDbArc
 50
90.0
 51
180.0
  0
LINE
  5
1EEE
330
A
100
AcDbEntity
  8
04
100
AcDbLine
 10
527.7795933567663
 20
799.4810813244466
 30
0.0
 11
527.7795933567663
 21
801.9810813244466
 31
0.0
  0
LINE
  5
1EEF
330
A
100
AcDbEntity
  8
04
100
AcDbLine
 10
526.2795933567663
 20
805.4810813244467
 30
0.0
 11
527.7795933567663
 21
801.9810813244466
 31
0.0
  0
LINE
  5
1EF0
330
A
100
AcDbEntity
  8
04
100
AcDbLine
 10
526.2795933567663
 20
812.4810813244467
 30
0.0
 11
514.2795933567663
 21
812.4810813244467
 31
0.0
  0
LINE
  5
1EF1
330
A
100
AcDbEntity
  8
04
100
AcDbLine
 10
519.0295933567663
 20
814.0810813244467
 30
0.0
 11
519.0295933567663
 21
820.0810813244467
 31
0.0
  0
LINE
  5
1EF2
330
A
100
AcDbEntity
  8
04
100
AcDbLine
 10
521.5295933567663
 20
820.0810813244467
 30
0.0
 11
521.5295933567663
 21
814.0810813244467
 31
0.0
  0
LINE
  5
1EF3
330
A
100
AcDbEntity
  8
CHUSIN
100
AcDbLine
 10
520.2795933567663
 20
783.4170500266232
 30
0.0
 11
520.2795933567663
 21
835.6709908134288
 31
0.0
  0
LEADER
  5
1EF4
330
A
100
AcDbEntity
  8
HIKIDASI
100
AcDbLeader
  3
SUNPOU_3
 73
     0
 75
     1
 40
9.000000000000001
 41
66.71999999999998
 76
     3
 10
520.2795933567663
 20
796.3144146577798
 30
0.0
 10
543.4638970883236
 20
777.553469093319
 30
0.0
 10
543.4638970883236
 20
770.0534690933189
 30
0.0
340
1EF5
211
0.0000000000000001
221
1.0
231
0.0
213
0.6981067067493365
223
-8.932623547438726
233
0.0
1001
ACAD
1000
DSTYLE
1002
{
1070
     5
1000
OPEN30
1070
    77
1070
     1
1070
   147
1040
1.0
1070
   342
1005
717
1002
}
1000
LEANOF
1010
0.6981067067493365
1020
-8.932623547438726
1030
0.0
1000
LEANOF
1010
0.6981067067493365
1020
-8.932623547438726
1030
0.0
  0
MTEXT
  5
1EF5
330
A
100
AcDbEntity
  8
HIKIDASI
100
AcDbMText
 10
535.2657903815743
 20
775.9860926407577
 30
0.0
 40
9.0
 41
0.0
 71
     6
 72
     1
  1
補助光電スイッチ
  7
SUNPOU
 11
0.0000000000000001
 21
1.0
 31
0.0
1001
ACAD
1000
MTEXTBEGIN
1070
    73
1070
     1
1070
    44
1040
1.0
1070
    74
1070
     0
1000
MTEXTEND
1000
MTEXTBEGIN
1070
    73
1070
     1
1070
    44
1040
1.0
1070
    74
1070
     0
1000
MTEXTEND
  0
LINE
  5
1EF6
330
A
100
AcDbEntity
  8
SUNPOU
100
AcDbLine
 10
498.3795733567663
 20
743.4802513244467
 30
0.0
 11
528.057962799242
 21
743.4802212244468
 31
0.0
  0
POLYLINE
  5
1F53
330
A
100
AcDbEntity
  8
SAISEN
100
AcDb2dPolyline
 66
     1
 10
0.0
 20
0.0
 30
0.0
 70
     1
  0
VERTEX
  5
205B
330
1F53
100
AcDbEntity
  8
SAISEN
100
AcDbVertex
100
AcDb2dVertex
 10
338.8495815825161
 20
369.0775591280004
 30
0.0
  0
VERTEX
  5
205C
330
1F53
100
AcDbEntity
  8
SAISEN
100
AcDbVertex
100
AcDb2dVertex
 10
417.7300586527998
 20
369.0775591280004
 30
0.0
  0
VERTEX
  5
205D
330
1F53
100
AcDbEntity
  8
SAISEN
100
AcDbVertex
100
AcDb2dVertex
 10
417.7300586527998
 20
481.3520517831054
 30
0.0
  0
VERTEX
  5
205E
330
1F53
100
AcDbEntity
  8
SAISEN
100
AcDbVertex
100
AcDb2dVertex
 10
338.8495815825161
 20
481.3520517831054
 30
0.0
  0
SEQEND
  5
205F
330
1F53
100
AcDbEntity
  8
SAISEN
  0
MTEXT
  5
1F54
330
A
100
AcDbEntity
  8
MOJI
100
AcDbMText
 10
242.9630053693408
 20
235.611714182354
 30
0.0
 40
9.0
 41
0.0
 71
     5
 72
     1
  1
補助光電スイッチ
  7
0_8
 11
0.0000000000000001
 21
1.0
 31
0.0
1001
ACAD
1000
MTEXTBEGIN
1070
    73
1070
     1
1070
    44
1040
1.0
1070
    74
1070
     0
1000
MTEXTEND
1000
MTEXTBEGIN
1070
    73
1070
     1
1070
    44
1040
1.0
1070
    74
1070
     0
1000
MTEXTEND
  0
MTEXT
  5
1F55
330
A
100
AcDbEntity
  8
MOJI
100
AcDbMText
 10
378.9068351107398
 20
376.7661538763151
 30
0.0
 40
9.0
 41
0.0
 71
     4
 72
     1
  1
DW1=DW2+70\PDW2=1100以内\PDH=3000以内\P扉質量1枚　100kg以内
  7
0_8
 11
0.0000000000000001
 21
1.0
 31
0.0
1001
ACAD
1000
MTEXTBEGIN
1070
    73
1070
     1
1070
    44
1040
1.0
1070
    74
1070
     0
1000
MTEXTEND
1000
MTEXTBEGIN
1070
    73
1070
     1
1070
    44
1040
1.0
1070
    74
1070
     0
1000
MTEXTEND
  0
MTEXT
  5
1F56
330
A
100
AcDbEntity
  8
MOJI
100
AcDbMText
 10
396.5081328232368
 20
581.1582614240785
 30
0.0
 40
9.0
 41
0.0
 71
     5
 72
     1
  1
Fix　スイングドア
  7
0_8
 11
0.0000000000000001
 21
1.0
 31
0.0
1001
ACAD
1000
MTEXTBEGIN
1070
    73
1070
     1
1070
    44
1040
1.0
1070
    74
1070
     0
1000
MTEXTEND
1000
MTEXTBEGIN
1070
    73
1070
     1
1070
    44
1040
1.0
1070
    74
1070
     0
1000
MTEXTEND
  0
MTEXT
  5
1F57
330
A
100
AcDbEntity
  8
MOJI
100
AcDbMText
 10
456.837867049276
 20
566.6734789395802
 30
0.0
 40
9.0
 41
0.0
 71
     5
 72
     1
  1
スライドドア
  7
0_8
 11
0.0000000000000001
 21
1.0
 31
0.0
1001
ACAD
1000
MTEXTBEGIN
1070
    73
1070
     1
1070
    44
1040
1.0
1070
    74
1070
     0
1000
MTEXTEND
1000
MTEXTBEGIN
1070
    73
1070
     1
1070
    44
1040
1.0
1070
    74
1070
     0
1000
MTEXTEND
  0
MTEXT
  5
1F60
330
A
100
AcDbEntity
  8
MOJI
  6
CONTINUOUS
100
AcDbMText
 10
290.2489722245249
 20
491.2014610881787
 30
0.0
 40
8.0
 41
0.0
 71
     5
 72
     1
  1
F.L
  7
0_8
 11
0.0000000000000001
 21
1.0
 31
0.0
1001
ACAD
1000
MTEXTBEGIN
1070
    73
1070
     1
1070
    44
1040
1.0
1070
    74
1070
     0
1000
MTEXTEND
1000
MTEXTBEGIN
1070
    73
1070
     1
1070
    44
1040
1.0
1070
    74
1070
     0
1000
MTEXTEND
  0
MTEXT
  5
1F61
330
A
100
AcDbEntity
  8
MOJI
  6
CONTINUOUS
100
AcDbMText
 10
124.0991436051144
 20
530.33146853226
 30
0.0
 40
8.0
 41
0.0
 71
     5
 72
     1
  1
F.L
  7
0_8
 11
-1.0
 21
0.0000000000000001
 31
0.0
1001
ACAD
1000
MTEXTBEGIN
1070
    73
1070
     1
1070
    44
1040
1.0
1070
    74
1070
     0
1000
MTEXTEND
1000
MTEXTBEGIN
1070
    73
1070
     1
1070
    44
1040
1.0
1070
    74
1070
     0
1000
MTEXTEND
  0
MTEXT
  5
1F62
330
A
100
AcDbEntity
  8
MOJI
100
AcDbMText
 10
79.49455868455095
 20
551.6418004614702
 30
0.0
 40
9.0
 41
0.0
 71
     5
 72
     1
  1
回転ストッパー取付詳細\PRSD-30
  7
0_8
 11
0.0000000000000001
 21
1.0
 31
0.0
1001
ACAD
1000
MTEXTBEGIN
1070
    73
1070
     1
1070
    44
1040
1.0
1070
    74
1070
     0
1000
MTEXTEND
1000
MTEXTBEGIN
1070
    73
1070
     1
1070
    44
1040
1.0
1070
    74
1070
     0
1000
MTEXTEND
  0
LINE
  5
1F7C
330
A
100
AcDbEntity
  8
SOUZOU
100
AcDbLine
 10
427.8990684777727
 20
429.9378028057563
 30
0.0
 11
427.8990684777727
 21
433.2711361390896
 31
0.0
  0
MTEXT
  5
1FE7
330
A
100
AcDbEntity
  8
MOJI
100
AcDbMText
 10
446.9999999999994
 20
43.50000000000045
 30
0.0
 40
10.5
 41
75.0
 71
     5
 72
     1
  1
図番１４－１
  7
0_80
1001
ACAD
1000
MTEXTBEGIN
1070
    73
1070
     1
1070
    44
1040
1.0
1070
    74
1070
     0
1000
MTEXTEND
1000
MTEXTBEGIN
1070
    73
1070
     1
1070
    44
1040
1.0
1070
    74
1070
     0
1000
MTEXTEND
  0
MTEXT
  5
1FE8
330
A
100
AcDbEntity
  8
MOJI
100
AcDbMText
 10
522.0000000000001
 20
42.75000000000045
 30
0.0
 40
10.5
 41
74.99999999999966
 71
     5
 72
     1
  1
姿図　　　　\P平面図　　　
  7
0_80
1001
ACAD
1000
MTEXTBEGIN
1070
    73
1070
     1
1070
    44
1040
1.0
1070
    74
1070
     0
1000
MTEXTEND
1000
MTEXTBEGIN
1070
    73
1070
     1
1070
    44
1040
1.0
1070
    74
1070
     0
1000
MTEXTEND
  0
MTEXT
  5
1FE9
330
A
100
AcDbEntity
  8
MOJI
100
AcDbMText
 10
259.5
 20
43.50000000000022
 30
0.0
 40
10.5
 41
120.0
 71
     5
 72
     1
  1
ＴＦ－１２００Ｓ\PＴＦ－１２００Ｄ
  7
0_8
1001
ACAD
1000
MTEXTBEGIN
1070
    73
1070
     1
1070
    44
1040
1.0
1070
    74
1070
     0
1000
MTEXTEND
1000
MTEXTBEGIN
1070
    73
1070
     1
1070
    44
1040
1.0
1070
    74
1070
     0
1000
MTEXTEND
  0
POLYLINE
  5
1FEA
330
A
100
AcDbEntity
  8
SAISEN
100
AcDb2dPolyline
 66
     1
 10
0.0
 20
0.0
 30
0.0
 70
     1
  0
VERTEX
  5
2060
330
1FEA
100
AcDbEntity
  8
SAISEN
100
AcDbVertex
100
AcDb2dVertex
 10
34.5
 20
25.5
 30
0.0
  0
VERTEX
  5
2061
330
1FEA
100
AcDbEntity
  8
SAISEN
100
AcDbVertex
100
AcDb2dVertex
 10
559.5000000000001
 20
25.5
 30
0.0
  0
VERTEX
  5
2062
330
1FEA
100
AcDbEntity
  8
SAISEN
100
AcDbVertex
100
AcDb2dVertex
 10
559.5000000000001
 20
61.50000000000023
 30
0.0
  0
VERTEX
  5
2063
330
1FEA
100
AcDbEntity
  8
SAISEN
100
AcDbVertex
100
AcDb2dVertex
 10
34.5
 20
61.50000000000023
 30
0.0
  0
SEQEND
  5
2064
330
1FEA
100
AcDbEntity
  8
SAISEN
  0
MTEXT
  5
1FEB
330
A
100
AcDbEntity
  8
MOJI
100
AcDbMText
 10
117.0
 20
43.50000000000022
 30
0.0
 40
10.5
 41
165.0
 71
     5
 72
     1
  1
フルオープナー(ステンレス框ドア)
  7
0_8
1001
ACAD
1000
MTEXTBEGIN
1070
    73
1070
     1
1070
    44
1040
1.0
1070
    74
1070
     0
1000
MTEXTEND
1000
MTEXTBEGIN
1070
    73
1070
     1
1070
    44
1040
1.0
1070
    74
1070
     0
1000
MTEXTEND
  0
LINE
  5
1FEC
330
A
100
AcDbEntity
  8
SAISEN
100
AcDbLine
 10
199.5
 20
61.50000000000023
 30
0.0
 11
199.5
 21
25.5
 31
0.0
  0
LINE
  5
1FED
330
A
100
AcDbEntity
  8
SAISEN
100
AcDbLine
 10
319.5
 20
61.50000000000023
 30
0.0
 11
319.5
 21
25.5
 31
0.0
  0
MTEXT
  5
1FEE
330
A
100
AcDbEntity
  8
MOJI
100
AcDbMText
 10
364.5000000000043
 20
43.50000000000022
 30
0.0
 40
10.5
 41
90.0
 71
     5
 72
     1
  1
片引き又は両引き
  7
0_8
1001
ACAD
1000
MTEXTBEGIN
1070
    73
1070
     1
1070
    44
1040
1.0
1070
    74
1070
     0
1000
MTEXTEND
1000
MTEXTBEGIN
1070
    73
1070
     1
1070
    44
1040
1.0
1070
    74
1070
     0
1000
MTEXTEND
  0
LINE
  5
1FEF
330
A
100
AcDbEntity
  8
SAISEN
100
AcDbLine
 10
409.4999999999997
 20
61.50000000000023
 30
0.0
 11
409.4999999999997
 21
25.5
 31
0.0
  0
CIRCLE
  5
1FF9
330
A
100
AcDbEntity
  8
SAISEN
100
AcDbCircle
 10
568.6464571176485
 20
74.31453961834737
 30
0.0
 40
7.5
  0
TEXT
  5
1FFA
330
A
100
AcDbEntity
  8
MOJI
100
AcDbText
 10
564.0732285588241
 20
67.90726980917381
 30
0.0
 40
12.0
  1
Ｓ
 41
0.8
  7
0_8
 11
564.0732285588241
 21
79.90726980917381
 31
0.0
100
AcDbText
 73
     3
  0
VIEWPORT
  5
732
102
{ACAD_XDICTIONARY
360
2036
102
}
330
B
100
AcDbEntity
 67
     1
  8
0
100
AcDbViewport
 10
297.0762449308279
 20
427.7811731031716
 30
0.0
 40
1620.521346201222
 41
942.5302532500083
 68
     1
 69
     1
1001
ACAD
1000
MVIEW
1002
{
1070
    16
1010
0.0
1020
0.0
1030
0.0
1010
0.0
1020
0.0
1030
1.0
1040
0.0
1040
942.5302532500083
1040
297.0762449308279
1040
427.7811731031716
1040
50.0
1040
0.0
1040
0.0
1070
     0
1070
   100
1070
     1
1070
     1
1070
     0
1070
     0
1070
     0
1070
     0
1040
0.0
1040
0.0
1040
0.0
1040
10.0
1040
10.0
1040
10.0
1040
10.0
1070
     0
1002
{
1002
}
1002
}
  0
VIEWPORT
  5
1E87
102
{ACAD_XDICTIONARY
360
2038
102
}
330
B
100
AcDbEntity
 67
     1
  8
DEFPOINTS
100
AcDbViewport
 10
297.0847613811491
 20
427.7677395343779
 30
0.0
 40
594.1695227622984
 41
855.5354790687561
 68
     2
 69
     2
1001
ACAD
1000
MVIEW
1002
{
1070
    16
1010
0.0
1020
0.0
1030
0.0
1010
0.0
1020
0.0
1030
1.0
1040
0.0
1040
855.5354790687561
1040
297.0
1040
420.5
1040
50.0
1040
0.0
1040
0.0
1070
     0
1070
   100
1070
     1
1070
     1
1070
     0
1070
     0
1070
     0
1070
     0
1040
0.0
1040
0.0
1040
0.0
1040
1.0
1040
1.0
1040
0.0
1040
0.0
1070
     0
1002
{
1002
}
1002
}
  0
ENDSEC
  0
SECTION
  2
OBJECTS
  0
DICTIONARY
  5
19
330
0
100
AcDbDictionary
  3
ACAD_COLOR
350
1FCB
  3
ACAD_GROUP
350
1A
  3
ACAD_LAYOUT
350
4A1
  3
ACAD_MATERIAL
350
1FCA
  3
ACAD_MLINESTYLE
350
1B
  3
ACAD_PLOTSETTINGS
350
4A2
  3
ACADDIM
350
750
  3
ASE_INDEX_DICTIONARY
350
1FD3
1001
ACAD
1000
TREAT_AS_HARD
1070
     0
1000
TREAT_AS_HARD
1070
     0
  0
DICTIONARY
  5
1E89
330
2
100
AcDbDictionary
  3
ACAD_LAYERFILTERS
350
1E8A
  3
ACAD_LAYERSTATES
350
1F7E
1001
ACAD
1000
TREAT_AS_HARD
1070
     1
1000
TREAT_AS_HARD
1070
     1
  0
DICTIONARY
  5
1F9E
330
A
100
AcDbDictionary
  3
ACAD_LAYOUTSELFREF
350
2044
1001
ACAD
1000
TREAT_AS_HARD
1070
     1
  0
DICTIONARY
  5
1FA0
330
B
100
AcDbDictionary
  3
ACAD_LAYOUTSELFREF
350
2045
1001
ACAD
1000
TREAT_AS_HARD
1070
     1
  0
DICTIONARY
  5
2036
330
732
100
AcDbDictionary
  3
ACAD_XREC_ROUNDTRIP
350
2037
1001
ACAD
1000
TREAT_AS_HARD
1070
     1
  0
DICTIONARY
  5
2038
330
1E87
100
AcDbDictionary
  3
ACAD_XREC_ROUNDTRIP
350
2039
1001
ACAD
1000
TREAT_AS_HARD
1070
     1
  0
DICTIONARY
  5
1FCB
102
{ACAD_REACTORS
330
19
102
}
330
19
100
AcDbDictionary
1001
ACAD
1000
TREAT_AS_HARD
1070
     0
  0
DICTIONARY
  5
1A
102
{ACAD_REACTORS
330
19
102
}
330
19
100
AcDbDictionary
  3
DAGROUP438
350
438
  3
DAGROUP43B
350
43B
  3
DAGROUP43E
350
43E
  3
DAGROUP442
350
442
  3
DAGROUP446
350
446
  3
DAGROUP44A
350
44A
  3
DAGROUP44E
350
44E
  3
DAGROUP452
350
452
1001
ACAD
1000
TREAT_AS_HARD
1070
     0
1000
TREAT_AS_HARD
1070
     0
  0
DICTIONARY
  5
4A1
102
{ACAD_REACTORS
330
19
102
}
330
19
100
AcDbDictionary
1001
ACAD
1000
TREAT_AS_HARD
1070
     0
1000
TREAT_AS_HARD
1070
     0
  0
DICTIONARY
  5
1FCA
102
{ACAD_REACTORS
330
19
102
}
330
19
100
AcDbDictionary
1001
ACAD
1000
TREAT_AS_HARD
1070
     0
  0
DICTIONARY
  5
1B
102
{ACAD_REACTORS
330
19
102
}
330
19
100
AcDbDictionary
  3
STANDARD
350
1C
1001
ACAD
1000
TREAT_AS_HARD
1070
     0
1000
TREAT_AS_HARD
1070
     0
  0
DICTIONARY
  5
4A2
102
{ACAD_REACTORS
330
19
102
}
330
19
100
AcDbDictionary
1001
ACAD
1000
TREAT_AS_HARD
1070
     0
1000
TREAT_AS_HARD
1070
     0
  0
XRECORD
  5
750
102
{ACAD_REACTORS
330
19
102
}
330
19
100
AcDbXrecord
 90
   990106
  3

 60
     0
 61
     0
 62
     4
 63
     4
 64
     1
 65
     0
 66
     0
 67
     3
 68
     0
 69
     1
 70
     0
 71
     0
 72
     0
 40
0.0
170
     2
340
754
  0
DICTIONARY
  5
1FD3
102
{ACAD_REACTORS
330
19
102
}
330
19
100
AcDbDictionary
  3
ASEBLOCKHIERARCHYINDEXRECORD
350
1FD5
1001
DCO15
1040
1508735756.671
1001
ACAD
1000
TREAT_AS_HARD
1070
     0
  0
DICTIONARY
  5
1E8A
102
{ACAD_REACTORS
330
1E89
102
}
330
1E89
100
AcDbDictionary
  3
HIHYOJI
350
1E8B
1001
ACAD
1000
TREAT_AS_HARD
1070
     1
1000
TREAT_AS_HARD
1070
     0
  0
DICTIONARY
  5
1F7E
102
{ACAD_REACTORS
330
1E89
102
}
330
1E89
100
AcDbDictionary
1001
ACAD
1000
TREAT_AS_HARD
1070
     0
1000
TREAT_AS_HARD
1070
     0
  0
XRECORD
  5
2044
102
{ACAD_REACTORS
330
1F9E
102
}
330
1F9E
100
AcDbXrecord
340
A
  0
XRECORD
  5
2045
102
{ACAD_REACTORS
330
1FA0
102
}
330
1FA0
100
AcDbXrecord
340
B
  0
XRECORD
  5
2037
102
{ACAD_REACTORS
330
2036
102
}
330
2036
100
AcDbXrecord
102
SHADEPLOT
 70
     0
  0
XRECORD
  5
2039
102
{ACAD_REACTORS
330
2038
102
}
330
2038
100
AcDbXrecord
102
SHADEPLOT
 70
     0
  0
GROUP
  5
438
102
{ACAD_REACTORS
330
1A
102
}
330
1A
100
AcDbGroup
300

 70
     0
 71
     1
  0
GROUP
  5
43B
102
{ACAD_REACTORS
330
1A
102
}
330
1A
100
AcDbGroup
300

 70
     0
 71
     1
  0
GROUP
  5
43E
102
{ACAD_REACTORS
330
1A
102
}
330
1A
100
AcDbGroup
300

 70
     0
 71
     1
  0
GROUP
  5
442
102
{ACAD_REACTORS
330
1A
102
}
330
1A
100
AcDbGroup
300

 70
     0
 71
     1
  0
GROUP
  5
446
102
{ACAD_REACTORS
330
1A
102
}
330
1A
100
AcDbGroup
300

 70
     0
 71
     1
  0
GROUP
  5
44A
102
{ACAD_REACTORS
330
1A
102
}
330
1A
100
AcDbGroup
300

 70
     0
 71
     1
  0
GROUP
  5
44E
102
{ACAD_REACTORS
330
1A
102
}
330
1A
100
AcDbGroup
300

 70
     0
 71
     1
  0
GROUP
  5
452
102
{ACAD_REACTORS
330
1A
102
}
330
1A
100
AcDbGroup
300

 70
     0
 71
     1
340
44F
340
450
340
451
  0
MLINESTYLE
  5
1C
102
{ACAD_REACTORS
330
1B
102
}
330
1B
100
AcDbMlineStyle
  2
STANDARD
 70
     0
  3

 62
     0
 51
90.00000000000019
 52
90.00000000000019
 71
     2
 49
0.5
 62
   256
  6
BYLAYER
 49
-0.5
 62
   256
  6
BYLAYER
  0
XRECORD
  5
1FD5
102
{ACAD_REACTORS
330
1FD3
102
}
330
1FD3
100
AcDbXrecord
330
1DC0
330
1DC1
330
1DD2
330
1DD3
330
1DC8
330
1DC9
330
1D83
330
1D84
330
1DB2
330
1DB3
330
1DA8
330
1DA9
330
1D7A
330
1D7B
330
1DDD
330
1DDE
330
1D67
330
1D68
330
1D60
330
1D5F
330
1D53
330
1D54
330
1D71
330
1D72
330
1DA0
330
1DA1
330
1D94
330
1D95
330
1D8B
330
1D8C
330
1DF1
330
1DF2
330
1F30
330
1F31
330
1CB7
330
1CB8
330
1CBF
330
1CC0
330
1CCB
330
1CCC
330
1CD3
330
1CD4
330
1CDC
330
1CDD
330
1CE8
330
1CE9
330
1CF3
330
1CF4
330
1CFB
330
1CFC
330
1E5F
330
1E60
330
1E6A
330
1E6B
330
1E56
330
1E57
330
1E0E
330
1E0F
330
1E80
330
1E81
330
1D36
330
1D37
330
1DB9
330
1F39
330
1F3A
330
1D41
330
1D42
330
1D49
330
1D4A
  0
XRECORD
  5
1E8B
102
{ACAD_REACTORS
330
1E8A
102
}
330
1E8A
100
AcDbXrecord
  1
hihyoji
  1
08,09,*_h
  1
*
  1
*
 70
     0
  1
*
  1
*
  0
ENDSEC
  0
EOF
