  0
SECTION
  2
HEADER
  9
$ACADVER
  1
AC1012
  9
$DWGCODEPAGE
  3
dos932
  9
$INSBASE
 10
0.0
 20
0.0
 30
0.0
  9
$EXTMIN
 10
0.0
 20
0.0
 30
0.0
  9
$EXTMAX
 10
420.0
 20
594.0
 30
0.0
  9
$LIMMIN
 10
0.0
 20
0.0
  9
$LIMMAX
 10
420.0
 20
594.0
  9
$ORTHOMODE
 70
     0
  9
$REGENMODE
 70
     1
  9
$FILLMODE
 70
     1
  9
$QTEXTMODE
 70
     0
  9
$MIRRTEXT
 70
     1
  9
$DRAGMODE
 70
     2
  9
$LTSCALE
 40
0.3
  9
$OSMODE
 70
    37
  9
$ATTMODE
 70
     1
  9
$TEXTSIZE
 40
2.5
  9
$TRACEWID
 40
0.05
  9
$TEXTSTYLE
  7
0_8
  9
$CLAYER
  8
DEFPOINTS
  9
$CELTYPE
  6
BYLAYER
  9
$CECOLOR
 62
   256
  9
$CELTSCALE
 40
1.0
  9
$DELOBJ
 70
     1
  9
$DISPSILH
 70
     0
  9
$DIMSCALE
 40
2.0
  9
$DIMASZ
 40
2.5
  9
$DIMEXO
 40
1.5
  9
$DIMDLI
 40
0.0
  9
$DIMRND
 40
0.0
  9
$DIMDLE
 40
0.0
  9
$DIMEXE
 40
1.0
  9
$DIMTP
 40
0.0
  9
$DIMTM
 40
0.0
  9
$DIMTXT
 40
2.5
  9
$DIMCEN
 40
0.0
  9
$DIMTSZ
 40
0.0
  9
$DIMTOL
 70
     0
  9
$DIMLIM
 70
     0
  9
$DIMTIH
 70
     0
  9
$DIMTOH
 70
     0
  9
$DIMSE1
 70
     0
  9
$DIMSE2
 70
     0
  9
$DIMTAD
 70
     1
  9
$DIMZIN
 70
     8
  9
$DIMBLK
  1
OPEN30
  9
$DIMASO
 70
     1
  9
$DIMSHO
 70
     1
  9
$DIMPOST
  1

  9
$DIMAPOST
  1

  9
$DIMALT
 70
     0
  9
$DIMALTD
 70
     2
  9
$DIMALTF
 40
25.4
  9
$DIMLFAC
 40
1.0
  9
$DIMTOFL
 70
     1
  9
$DIMTVP
 40
0.0
  9
$DIMTIX
 70
     0
  9
$DIMSOXD
 70
     0
  9
$DIMSAH
 70
     0
  9
$DIMBLK1
  1

  9
$DIMBLK2
  1

  9
$DIMSTYLE
  2
SUNPOU_2
  9
$DIMCLRD
 70
   256
  9
$DIMCLRE
 70
   256
  9
$DIMCLRT
 70
     6
  9
$DIMTFAC
 40
1.0
  9
$DIMGAP
 40
1.0
  9
$DIMJUST
 70
     0
  9
$DIMSD1
 70
     0
  9
$DIMSD2
 70
     0
  9
$DIMTOLJ
 70
     1
  9
$DIMTZIN
 70
     0
  9
$DIMALTZ
 70
     0
  9
$DIMALTTZ
 70
     0
  9
$DIMFIT
 70
     3
  9
$DIMUPT
 70
     0
  9
$DIMUNIT
 70
     2
  9
$DIMDEC
 70
     1
  9
$DIMTDEC
 70
     1
  9
$DIMALTU
 70
     2
  9
$DIMALTTD
 70
     2
  9
$DIMTXSTY
  7
SUNPOU
  9
$DIMAUNIT
 70
     0
  9
$LUNITS
 70
     2
  9
$LUPREC
 70
     4
  9
$SKETCHINC
 40
0.1
  9
$FILLETRAD
 40
0.0
  9
$AUNITS
 70
     0
  9
$AUPREC
 70
     0
  9
$MENU
  1
acad
  9
$ELEVATION
 40
0.0
  9
$PELEVATION
 40
0.0
  9
$THICKNESS
 40
0.0
  9
$LIMCHECK
 70
     0
  9
$BLIPMODE
 70
     0
  9
$CHAMFERA
 40
0.0
  9
$CHAMFERB
 40
0.0
  9
$CHAMFERC
 40
0.0
  9
$CHAMFERD
 40
0.0
  9
$SKPOLY
 70
     0
  9
$TDCREATE
 40
2444972.375000000
  9
$TDUPDATE
 40
2453266.405528784
  9
$TDINDWG
 40
0.1920254861
  9
$TDUSRTIMER
 40
0.1920253125
  9
$USRTIMER
 70
     1
  9
$ANGBASE
 50
0.0
  9
$ANGDIR
 70
     0
  9
$PDMODE
 70
     0
  9
$PDSIZE
 40
1.0
  9
$PLINEWID
 40
0.0
  9
$COORDS
 70
     1
  9
$SPLFRAME
 70
     0
  9
$SPLINETYPE
 70
     6
  9
$SPLINESEGS
 70
     8
  9
$ATTDIA
 70
     0
  9
$ATTREQ
 70
     1
  9
$HANDLING
 70
-16383
  9
$HANDSEED
  5
2AC1
  9
$SURFTAB1
 70
     6
  9
$SURFTAB2
 70
     6
  9
$SURFTYPE
 70
     6
  9
$SURFU
 70
     6
  9
$SURFV
 70
     6
  9
$UCSNAME
  2

  9
$UCSORG
 10
0.0
 20
0.0
 30
0.0
  9
$UCSXDIR
 10
1.0
 20
0.0
 30
0.0
  9
$UCSYDIR
 10
0.0
 20
1.0
 30
0.0
  9
$PUCSNAME
  2

  9
$PUCSORG
 10
0.0
 20
0.0
 30
0.0
  9
$PUCSXDIR
 10
1.0
 20
0.0
 30
0.0
  9
$PUCSYDIR
 10
0.0
 20
1.0
 30
0.0
  9
$USERI1
 70
     0
  9
$USERI2
 70
     0
  9
$USERI3
 70
     0
  9
$USERI4
 70
     0
  9
$USERI5
 70
     0
  9
$USERR1
 40
0.0
  9
$USERR2
 40
0.0
  9
$USERR3
 40
0.0
  9
$USERR4
 40
0.0
  9
$USERR5
 40
0.0
  9
$WORLDVIEW
 70
     1
  9
$SHADEDGE
 70
     3
  9
$SHADEDIF
 70
    70
  9
$TILEMODE
 70
     1
  9
$MAXACTVP
 70
    16
  9
$PINSBASE
 10
0.0
 20
0.0
 30
0.0
  9
$PLIMCHECK
 70
     0
  9
$PEXTMIN
 10
-0.1631446651821307
 20
-0.0031352180712929
 30
-0.0000000349181948
  9
$PEXTMAX
 10
396.3288912282554
 20
570.3780354545616
 30
0.0000000814935747
  9
$PLIMMIN
 10
-11.91093707221789
 20
-11.75112877775568
  9
$PLIMMAX
 10
408.0535173126142
 20
582.1260309216754
  9
$UNITMODE
 70
     0
  9
$VISRETAIN
 70
     0
  9
$PLINEGEN
 70
     1
  9
$PSLTSCALE
 70
     0
  9
$TREEDEPTH
 70
  3020
  9
$PICKSTYLE
 70
     1
  9
$CMLSTYLE
  2
STANDARD
  9
$CMLJUST
 70
     0
  9
$CMLSCALE
 40
1.0
  9
$SAVEIMAGES
 70
     1
  0
ENDSEC
  0
SECTION
  2
CLASSES
  0
CLASS
  1
LWPOLYLINE
  2
AcDbPolyline
  3
AutoCAD 2000
 90
    32768
280
     0
281
     1
  0
CLASS
  1
IMAGE
  2
AcDbRasterImage
  3
ISM
 90
    32895
280
     0
281
     1
  0
CLASS
  1
OLE2FRAME
  2
AcDbOle2Frame
  3
AutoCAD 2000
 90
    32768
280
     0
281
     1
  0
CLASS
  1
HATCH
  2
AcDbHatch
  3
AutoCAD 2000
 90
    32768
280
     0
281
     1
  0
CLASS
  1
DICTIONARYVAR
  2
AcDbDictionaryVar
  3
AutoCAD 2000
 90
    32768
280
     0
281
     0
  0
CLASS
  1
RASTERVARIABLES
  2
AcDbRasterVariables
  3
ISM
 90
    32768
280
     0
281
     0
  0
CLASS
  1
IMAGEDEF
  2
AcDbRasterImageDef
  3
ISM
 90
    32768
280
     0
281
     0
  0
CLASS
  1
IMAGEDEF_REACTOR
  2
AcDbRasterImageDefReactor
  3
ISM
 90
    32769
280
     0
281
     0
  0
CLASS
  1
IDBUFFER
  2
AcDbIdBuffer
  3
AutoCAD 2000
 90
    32768
280
     0
281
     0
  0
CLASS
  1
SPATIAL_FILTER
  2
AcDbSpatialFilter
  3
AutoCAD 2000
 90
    32768
280
     0
281
     0
  0
CLASS
  1
XRECORD
  2
AcDbXrecord
  3
AutoCAD 2000
 90
    32768
280
     0
281
     0
  0
CLASS
  1
SORTENTSTABLE
  2
AcDbSortentsTable
  3
AutoCAD 2000
 90
    32768
280
     0
281
     0
  0
CLASS
  1
LAYER_INDEX
  2
AcDbLayerIndex
  3
AutoCAD 2000
 90
    32768
280
     0
281
     0
  0
CLASS
  1
SPATIAL_INDEX
  2
AcDbSpatialIndex
  3
AutoCAD 2000
 90
    32768
280
     0
281
     0
  0
CLASS
  1
OBJECT_PTR
  2
CAseDLPNTableRecord
  3
ASE-LPNTableRecord
 90
    32769
280
     0
281
     0
  0
CLASS
  1
ACDBDICTIONARYWDFLT
  2
AcDbDictionaryWithDefault
  3
AutoCAD 2000
 90
    32768
280
     0
281
     0
  0
CLASS
  1
ACDBPLACEHOLDER
  2
AcDbPlaceHolder
  3
AutoCAD 2000
 90
    32768
280
     0
281
     0
  0
CLASS
  1
LAYOUT
  2
AcDbLayout
  3
AutoCAD 2000
 90
    32768
280
     0
281
     0
  0
CLASS
  1
LONG_TRANSACTION
  2
AcDbLongTransaction
  3
AutoCAD 2000
 90
    32768
280
     0
281
     0
  0
CLASS
  1
LWPOLYLINE
  2
AcDbPolyline
  3
AutoCAD 2000
 90
    32768
280
     0
281
     1
  0
CLASS
  1
HATCH
  2
AcDbHatch
  3
AutoCAD 2000
 90
    32768
280
     0
281
     1
  0
CLASS
  1
XRECORD
  2
AcDbXrecord
  3
AutoCAD 2000
 90
    32768
280
     0
281
     0
  0
CLASS
  1
LONG_TRANSACTION
  2
AcDbLongTransaction
  3
AutoCAD 2000
 90
    32768
280
     0
281
     0
  0
CLASS
  1
LWPOLYLINE
  2
AcDbPolyline
  3
AutoCAD 2000
 90
    32768
280
     0
281
     1
  0
CLASS
  1
HATCH
  2
AcDbHatch
  3
AutoCAD 2000
 90
    32768
280
     0
281
     1
  0
CLASS
  1
XRECORD
  2
AcDbXrecord
  3
AutoCAD 2000
 90
    32768
280
     0
281
     0
  0
CLASS
  1
LONG_TRANSACTION
  2
AcDbLongTransaction
  3
AutoCAD 2000
 90
    32768
280
     0
281
     0
  0
CLASS
  1
LWPOLYLINE
  2
AcDbPolyline
  3
AutoCAD 2000
 90
    32768
280
     0
281
     1
  0
CLASS
  1
HATCH
  2
AcDbHatch
  3
AutoCAD 2000
 90
    32768
280
     0
281
     1
  0
CLASS
  1
XRECORD
  2
AcDbXrecord
  3
AutoCAD 2000
 90
    32768
280
     0
281
     0
  0
ENDSEC
  0
SECTION
  2
TABLES
  0
TABLE
  2
VPORT
  5
7
330
0
100
AcDbSymbolTable
 70
     2
  0
VPORT
  5
2AA9
330
7
100
AcDbSymbolTableRecord
100
AcDbViewportTableRecord
  2
*ACTIVE
 70
     0
 10
0.0
 20
0.0
 11
1.0
 21
1.0
 12
229.3130312648413
 22
297.000001383014
 13
0.0
 23
0.0
 14
1.0
 24
1.0
 15
0.0
 25
0.0
 16
0.0
 26
0.0
 36
1.0
 17
0.0
 27
0.0
 37
0.0
 40
601.0075267670982
 41
1.780442804428044
 42
50.0
 43
0.0
 44
0.0
 50
0.0
 51
0.0
 71
     0
 72
   100
 73
     1
 74
     1
 75
     0
 76
     0
 77
     0
 78
     0
  0
ENDTAB
  0
TABLE
  2
LTYPE
  5
4
330
0
100
AcDbSymbolTable
 70
     3
  0
LTYPE
  5
11
330
4
100
AcDbSymbolTableRecord
100
AcDbLinetypeTableRecord
  2
BYBLOCK
 70
     0
  3

 72
    65
 73
     0
 40
0.0
  0
LTYPE
  5
12
330
4
100
AcDbSymbolTableRecord
100
AcDbLinetypeTableRecord
  2
BYLAYER
 70
     0
  3

 72
    65
 73
     0
 40
0.0
  0
LTYPE
  5
13
330
4
100
AcDbSymbolTableRecord
100
AcDbLinetypeTableRecord
  2
CONTINUOUS
 70
     0
  3
Solid line
 72
    65
 73
     0
 40
0.0
  0
LTYPE
  5
21
330
4
100
AcDbSymbolTableRecord
100
AcDbLinetypeTableRecord
  2
DASHED2
 70
     0
  3
Dashed (.5x) _ _ _ _ _ _ _ _ _ _ _ _ _ _ _ _ _
 72
    65
 73
     2
 40
9.524999999999996
 49
6.349999999999997
 74
     0
 49
-3.174999999999998
 74
     0
  0
LTYPE
  5
20EF
330
4
100
AcDbSymbolTableRecord
100
AcDbLinetypeTableRecord
  2
CENTER2
 70
     0
  3
Center (.5x) ___ _ ___ _ ___ _ ___ _ ___ _ ___
 72
    65
 73
     4
 40
28.57499999999999
 49
19.05
 74
     0
 49
-3.174999999999998
 74
     0
 49
3.174999999999998
 74
     0
 49
-3.174999999999998
 74
     0
  0
ENDTAB
  0
TABLE
  2
LAYER
  5
2
102
{ACAD_XDICTIONARY
360
2A52
102
}
330
0
100
AcDbSymbolTable
 70
    12
  0
LAYER
  5
14
330
2
100
AcDbSymbolTableRecord
100
AcDbLayerTableRecord
  2
0
 70
     0
 62
     7
  6
CONTINUOUS
  0
LAYER
  5
20B3
330
2
100
AcDbSymbolTableRecord
100
AcDbLayerTableRecord
  2
DEFPOINTS
 70
     0
 62
     7
  6
CONTINUOUS
  0
LAYER
  5
20F3
330
2
100
AcDbSymbolTableRecord
100
AcDbLayerTableRecord
  2
03
 70
     0
 62
     3
  6
CONTINUOUS
  0
LAYER
  5
20F8
330
2
100
AcDbSymbolTableRecord
100
AcDbLayerTableRecord
  2
CHUSIN
 70
     0
 62
     6
  6
CENTER2
  0
LAYER
  5
20F9
330
2
100
AcDbSymbolTableRecord
100
AcDbLayerTableRecord
  2
HIKIDASI
 70
     0
 62
     6
  6
CONTINUOUS
  0
LAYER
  5
20FA
330
2
100
AcDbSymbolTableRecord
100
AcDbLayerTableRecord
  2
KAKURE
 70
     0
 62
     6
  6
DASHED2
  0
LAYER
  5
20FB
330
2
100
AcDbSymbolTableRecord
100
AcDbLayerTableRecord
  2
MOJI
 70
     0
 62
     3
  6
CONTINUOUS
  0
LAYER
  5
20FD
330
2
100
AcDbSymbolTableRecord
100
AcDbLayerTableRecord
  2
SUNPOU
 70
     0
 62
     6
  6
CONTINUOUS
  0
LAYER
  5
2333
330
2
100
AcDbSymbolTableRecord
100
AcDbLayerTableRecord
  2
SAISEN
 70
     0
 62
     3
  6
CONTINUOUS
  0
LAYER
  5
2990
330
2
100
AcDbSymbolTableRecord
100
AcDbLayerTableRecord
  2
04
 70
     0
 62
     4
  6
CONTINUOUS
  0
LAYER
  5
2991
330
2
100
AcDbSymbolTableRecord
100
AcDbLayerTableRecord
  2
06
 70
     0
 62
     6
  6
CONTINUOUS
  0
LAYER
  5
29AB
330
2
100
AcDbSymbolTableRecord
100
AcDbLayerTableRecord
  2
02
 70
     0
 62
     2
  6
CONTINUOUS
  0
ENDTAB
  0
TABLE
  2
STYLE
  5
3
330
0
100
AcDbSymbolTable
 70
     4
  0
STYLE
  5
17
330
3
100
AcDbSymbolTableRecord
100
AcDbTextStyleTableRecord
  2
STANDARD
 70
     0
 40
0.0
 41
0.8
 50
0.0
 71
     0
 42
0.6000000000000001
  3
txt.shx
  4
bigfont.shx
  0
STYLE
  5
20B4
330
3
100
AcDbSymbolTableRecord
100
AcDbTextStyleTableRecord
  2
SUNPOU
 70
     0
 40
0.0
 41
0.8
 50
0.0
 71
     0
 42
0.2
  3
txt.shx
  4
extfont.shx
  0
STYLE
  5
20E5
330
3
100
AcDbSymbolTableRecord
100
AcDbTextStyleTableRecord
  2
0_8
 70
     0
 40
0.0
 41
0.8
 50
0.0
 71
     0
 42
2.5
  3
txt.shx
  4
extfont.shx
  0
STYLE
  5
2A50
330
3
100
AcDbSymbolTableRecord
100
AcDbTextStyleTableRecord
  2
0_80
 70
     0
 40
0.0
 41
0.8
 50
0.0
 71
     0
 42
7.0
  3
txt.shx
  4
extfont.shx
  0
ENDTAB
  0
TABLE
  2
VIEW
  5
5
330
0
100
AcDbSymbolTable
 70
     1
  0
VIEW
  5
135
330
5
100
AcDbSymbolTableRecord
100
AcDbViewTableRecord
  2
QQQQ
 70
     0
 40
6964.233697299095
 10
1682.808397541112
 20
4.317999504421776
 41
4094.706558565857
 11
0.0
 21
0.0
 31
1.0
 12
100.0
 22
100.0
 32
0.0
 42
50.0
 43
0.0
 44
0.0
 50
0.0
 71
     0
  0
ENDTAB
  0
TABLE
  2
UCS
  5
6
330
0
100
AcDbSymbolTable
 70
     0
  0
ENDTAB
  0
TABLE
  2
APPID
  5
8
330
0
100
AcDbSymbolTable
 70
     3
  0
APPID
  5
16
330
8
100
AcDbSymbolTableRecord
100
AcDbRegAppTableRecord
  2
ACAD
 70
     0
  0
APPID
  5
1FA0
330
8
100
AcDbSymbolTableRecord
100
AcDbRegAppTableRecord
  2
DCO15
 70
     0
  0
APPID
  5
2A04
330
8
100
AcDbSymbolTableRecord
100
AcDbRegAppTableRecord
  2
CONTENTBLOCKICON
 70
     0
  0
ENDTAB
  0
TABLE
  2
DIMSTYLE
  5
9
330
0
100
AcDbSymbolTable
 70
     2
  0
DIMSTYLE
105
20DB
102
{ACAD_REACTORS
330
2102
330
2118
330
2127
330
214C
330
2166
330
2173
330
2182
330
218F
330
219E
330
21AD
330
21BA
330
21C9
330
21D6
330
21E3
330
224A
330
2257
330
2273
330
2264
330
22A3
330
22B2
330
22BF
330
22CE
330
22FC
330
2309
330
2326
102
}
330
9
100
AcDbSymbolTableRecord
100
AcDbDimStyleTableRecord
  2
SUNPOU_2
 70
     0
  3

  4

  5
OPEN30
  6

  7

 40
2.0
 41
2.5
 42
1.5
 43
0.0
 44
1.0
 45
0.0
 46
0.0
 47
0.0
 48
0.0
140
2.5
141
0.0
142
0.0
143
25.4
144
1.0
145
0.0
146
1.0
147
1.0
 71
     0
 72
     0
 73
     0
 74
     0
 75
     0
 76
     0
 77
     1
 78
     8
170
     0
171
     2
172
     1
173
     0
174
     0
175
     0
176
   256
177
   256
178
     6
270
     2
271
     1
272
     1
273
     2
274
     2
340
20B4
275
     0
280
     0
281
     0
282
     0
283
     1
284
     0
285
     0
286
     0
287
     3
288
     0
  0
DIMSTYLE
105
25E7
330
9
100
AcDbSymbolTableRecord
100
AcDbDimStyleTableRecord
  2
STANDARD
 70
     0
  3

  4

  5

  6

  7

 40
1.0
 41
0.18
 42
0.0625
 43
0.38
 44
0.18
 45
0.0
 46
0.0
 47
0.0
 48
0.0
140
0.18
141
0.09
142
0.0
143
25.4
144
1.0
145
0.0
146
1.0
147
0.09
 71
     0
 72
     0
 73
     1
 74
     1
 75
     0
 76
     0
 77
     0
 78
     0
170
     0
171
     2
172
     0
173
     0
174
     0
175
     0
176
     0
177
     0
178
     0
270
     2
271
     4
272
     4
273
     2
274
     2
340
17
275
     0
280
     0
281
     0
282
     0
283
     1
284
     0
285
     0
286
     0
287
     3
288
     0
  0
ENDTAB
  0
TABLE
  2
BLOCK_RECORD
  5
1
330
0
100
AcDbSymbolTable
 70
    26
  0
BLOCK_RECORD
  5
A
102
{ACAD_XDICTIONARY
360
2A00
102
}
330
1
100
AcDbSymbolTableRecord
100
AcDbBlockTableRecord
  2
*MODEL_SPACE
  0
BLOCK_RECORD
  5
B
102
{ACAD_XDICTIONARY
360
2A02
102
}
330
1
100
AcDbSymbolTableRecord
100
AcDbBlockTableRecord
  2
*PAPER_SPACE
  0
BLOCK_RECORD
  5
20AD
330
1
100
AcDbSymbolTableRecord
100
AcDbBlockTableRecord
  2
_OPEN30
1001
CONTENTBLOCKICON
1071
        0
1004
2800000020000000200000000100080000000000000400000000000000000000000000000000000000000000000080000080000000808000800000008000800080800000C0C0C000C0DCC000F0CAA6000020400000206000002080000020A0000020C0000020E00000400000004020000040400000406000004080000040A0
1004
000040C0000040E00000600000006020000060400000606000006080000060A0000060C0000060E00000800000008020000080400000806000008080000080A0000080C0000080E00000A0000000A0200000A0400000A0600000A0800000A0A00000A0C00000A0E00000C0000000C0200000C0400000C0600000C0800000C0
1004
A00000C0C00000C0E00000E0000000E0200000E0400000E0600000E0800000E0A00000E0C00000E0E00040000000400020004000400040006000400080004000A0004000C0004000E00040200000402020004020400040206000402080004020A0004020C0004020E000404000004040200040404000404060004040800040
1004
40A0004040C0004040E00040600000406020004060400040606000406080004060A0004060C0004060E00040800000408020004080400040806000408080004080A0004080C0004080E00040A0000040A0200040A0400040A0600040A0800040A0A00040A0C00040A0E00040C0000040C0200040C0400040C0600040C08000
1004
40C0A00040C0C00040C0E00040E0000040E0200040E0400040E0600040E0800040E0A00040E0C00040E0E00080000000800020008000400080006000800080008000A0008000C0008000E00080200000802020008020400080206000802080008020A0008020C0008020E00080400000804020008040400080406000804080
1004
008040A0008040C0008040E00080600000806020008060400080606000806080008060A0008060C0008060E00080800000808020008080400080806000808080008080A0008080C0008080E00080A0000080A0200080A0400080A0600080A0800080A0A00080A0C00080A0E00080C0000080C0200080C0400080C0600080C0
1004
800080C0A00080C0C00080C0E00080E0000080E0200080E0400080E0600080E0800080E0A00080E0C00080E0E000C0000000C0002000C0004000C0006000C0008000C000A000C000C000C000E000C0200000C0202000C0204000C0206000C0208000C020A000C020C000C020E000C0400000C0402000C0404000C0406000C0
1004
408000C040A000C040C000C040E000C0600000C0602000C0604000C0606000C0608000C060A000C060C000C060E000C0800000C0802000C0804000C0806000C0808000C080A000C080C000C080E000C0A00000C0A02000C0A04000C0A06000C0A08000C0A0A000C0A0C000C0A0E000C0C00000C0C02000C0C04000C0C06000
1004
C0C08000C0C0A000F0FBFF00A4A0A000808080000000FF0000FF000000FFFF00FF000000FF00FF00FFFF0000FFFFFF0000000000000000000000000000000000000000000000000000000000000000000000000000000000000000000000000000000000000000000000000000000000000000000000000000000000000000
1004
00000000000000000000000000000000000000000000000000000000000000000000000000000000000000000000000000000000000000000000000000000000000000000000000000000000000000000000000000000000000000000000000000000000000000000000000000000000000000000000000000000000000000
1004
000000000000000000000000000000000000000000000000000000000000000000000000000000000000000000000000000000FFFF0000000000000000000000000000000000000000000000000000000000000000FFFFFFFF0000000000000000000000000000000000000000000000000000000000000000FFFFFFFF0000
1004
000000000000000000000000000000000000000000000000000000000000FFFFFF0000000000000000000000000000000000000000000000000000000000000000FFFFFFFF0000000000000000000000000000000000000000000000000000000000000000FFFFFF0000000000000000000000000000000000000000000000
1004
000000000000000000FFFFFFFF0000000000000000000000000000000000000000000000000000000000000000FFFFFFFF00000000FFFFFFFFFFFFFFFFFFFFFFFFFFFFFFFFFFFFFFFFFFFFFFFFFFFFFFFFFFFF00000000000000000000000000000000000000000000000000FFFFFFFF000000000000000000000000000000
1004
000000000000000000FFFFFFFF000000000000000000000000000000000000000000000000FFFFFFFF000000000000000000000000000000000000000000000000FFFFFFFF000000000000000000000000000000000000000000000000FFFFFFFF000000000000000000000000000000000000000000000000FFFFFFFF0000
1004
0000000000000000000000000000000000000000000000FFFFFF0000000000000000000000000000000000000000000000000000000000000000000000000000000000000000000000000000000000000000000000000000000000000000000000000000000000000000000000000000000000000000000000000000000000
1004
00000000000000000000000000000000000000000000000000000000000000000000000000000000000000000000000000000000000000000000000000000000000000000000000000000000000000000000000000000000000000000000000000000000000000000000000000000000000000000000000000000000000000
1004
0000000000000000000000000000000000000000000000000000000000000000000000000000000000000000000000000000000000000000
  0
BLOCK_RECORD
  5
2103
330
1
100
AcDbSymbolTableRecord
100
AcDbBlockTableRecord
  2
*D1
  0
BLOCK_RECORD
  5
2119
330
1
100
AcDbSymbolTableRecord
100
AcDbBlockTableRecord
  2
*D2
  0
BLOCK_RECORD
  5
2128
330
1
100
AcDbSymbolTableRecord
100
AcDbBlockTableRecord
  2
*D3
  0
BLOCK_RECORD
  5
214D
330
1
100
AcDbSymbolTableRecord
100
AcDbBlockTableRecord
  2
*D4
  0
BLOCK_RECORD
  5
2167
330
1
100
AcDbSymbolTableRecord
100
AcDbBlockTableRecord
  2
*D5
  0
BLOCK_RECORD
  5
2174
330
1
100
AcDbSymbolTableRecord
100
AcDbBlockTableRecord
  2
*D6
  0
BLOCK_RECORD
  5
2183
330
1
100
AcDbSymbolTableRecord
100
AcDbBlockTableRecord
  2
*D7
  0
BLOCK_RECORD
  5
2190
330
1
100
AcDbSymbolTableRecord
100
AcDbBlockTableRecord
  2
*D8
  0
BLOCK_RECORD
  5
219F
330
1
100
AcDbSymbolTableRecord
100
AcDbBlockTableRecord
  2
*D9
  0
BLOCK_RECORD
  5
21AE
330
1
100
AcDbSymbolTableRecord
100
AcDbBlockTableRecord
  2
*D10
  0
BLOCK_RECORD
  5
21BB
330
1
100
AcDbSymbolTableRecord
100
AcDbBlockTableRecord
  2
*D11
  0
BLOCK_RECORD
  5
21CA
330
1
100
AcDbSymbolTableRecord
100
AcDbBlockTableRecord
  2
*D12
  0
BLOCK_RECORD
  5
21D7
330
1
100
AcDbSymbolTableRecord
100
AcDbBlockTableRecord
  2
*D13
  0
BLOCK_RECORD
  5
21E4
330
1
100
AcDbSymbolTableRecord
100
AcDbBlockTableRecord
  2
*D14
  0
BLOCK_RECORD
  5
224B
330
1
100
AcDbSymbolTableRecord
100
AcDbBlockTableRecord
  2
*D15
  0
BLOCK_RECORD
  5
2258
330
1
100
AcDbSymbolTableRecord
100
AcDbBlockTableRecord
  2
*D16
  0
BLOCK_RECORD
  5
2265
330
1
100
AcDbSymbolTableRecord
100
AcDbBlockTableRecord
  2
*D17
  0
BLOCK_RECORD
  5
2274
330
1
100
AcDbSymbolTableRecord
100
AcDbBlockTableRecord
  2
*D18
  0
BLOCK_RECORD
  5
22A4
330
1
100
AcDbSymbolTableRecord
100
AcDbBlockTableRecord
  2
*D19
  0
BLOCK_RECORD
  5
22B3
330
1
100
AcDbSymbolTableRecord
100
AcDbBlockTableRecord
  2
*D20
  0
BLOCK_RECORD
  5
22C0
330
1
100
AcDbSymbolTableRecord
100
AcDbBlockTableRecord
  2
*D21
  0
BLOCK_RECORD
  5
22CF
330
1
100
AcDbSymbolTableRecord
100
AcDbBlockTableRecord
  2
*D22
  0
BLOCK_RECORD
  5
22FD
330
1
100
AcDbSymbolTableRecord
100
AcDbBlockTableRecord
  2
*D23
  0
BLOCK_RECORD
  5
230A
330
1
100
AcDbSymbolTableRecord
100
AcDbBlockTableRecord
  2
*D24
  0
BLOCK_RECORD
  5
2327
330
1
100
AcDbSymbolTableRecord
100
AcDbBlockTableRecord
  2
*D25
  0
ENDTAB
  0
ENDSEC
  0
SECTION
  2
BLOCKS
  0
BLOCK
  5
D
330
A
100
AcDbEntity
  8
0
100
AcDbBlockBegin
  2
*MODEL_SPACE
 70
     0
 10
0.0
 20
0.0
 30
0.0
  3
*MODEL_SPACE
  1

  0
ENDBLK
  5
E
330
A
100
AcDbEntity
  8
0
100
AcDbBlockEnd
  0
BLOCK
  5
F
330
B
100
AcDbEntity
 67
     1
  8
0
100
AcDbBlockBegin
  2
*PAPER_SPACE
 70
     0
 10
0.0
 20
0.0
 30
0.0
  3
*PAPER_SPACE
  1

  0
ENDBLK
  5
10
330
B
100
AcDbEntity
 67
     1
  8
0
100
AcDbBlockEnd
  0
BLOCK
  5
20AE
330
20AD
100
AcDbEntity
  8
0
100
AcDbBlockBegin
  2
_OPEN30
 70
     0
 10
0.0
 20
0.0
 30
0.0
  3
_OPEN30
  1

  0
LINE
  5
20AF
330
20AD
100
AcDbEntity
  8
0
  6
BYBLOCK
 62
     0
100
AcDbLine
 10
-1.0
 20
0.26794919
 30
0.0
 11
0.0
 21
0.0
 31
0.0
  0
LINE
  5
20B0
330
20AD
100
AcDbEntity
  8
0
  6
BYBLOCK
 62
     0
100
AcDbLine
 10
0.0
 20
0.0
 30
0.0
 11
-1.0
 21
-0.26794919
 31
0.0
  0
LINE
  5
20B1
330
20AD
100
AcDbEntity
  8
0
  6
BYBLOCK
 62
     0
100
AcDbLine
 10
0.0
 20
0.0
 30
0.0
 11
-1.0
 21
0.0
 31
0.0
  0
ENDBLK
  5
20B2
330
20AD
100
AcDbEntity
  8
0
100
AcDbBlockEnd
  0
BLOCK
  5
210D
330
2103
100
AcDbEntity
  8
0
100
AcDbBlockBegin
  2
*D1
 70
     1
 10
0.0
 20
0.0
 30
0.0
  3
*D1
  1

  0
LINE
  5
2541
330
2103
100
AcDbEntity
  8
SUNPOU
100
AcDbLine
 10
199.6203866432336
 20
420.3795079086119
 30
0.0
 11
199.6203866432336
 21
433.3524942544275
 31
0.0
  0
LINE
  5
2542
330
2103
100
AcDbEntity
  8
SUNPOU
100
AcDbLine
 10
233.6203866432336
 20
434.3524942544275
 30
0.0
 11
233.6203866432336
 21
433.3524942544275
 31
0.0
  0
LINE
  5
2543
330
2103
100
AcDbEntity
  8
SUNPOU
100
AcDbLine
 10
204.6203866432336
 20
431.3524942544272
 30
0.0
 11
228.6203866432336
 21
431.3524942544272
 31
0.0
  0
INSERT
  5
2544
330
2103
100
AcDbEntity
  8
SUNPOU
100
AcDbBlockReference
  2
_OPEN30
 10
199.6203866432336
 20
431.3524942544272
 30
0.0
 41
5.0
 42
5.0
 43
5.0
 50
180.0
  0
INSERT
  5
2545
330
2103
100
AcDbEntity
  8
SUNPOU
100
AcDbBlockReference
  2
_OPEN30
 10
233.6203866432336
 20
431.3524942544272
 30
0.0
 41
5.0
 42
5.0
 43
5.0
  0
MTEXT
  5
2546
330
2103
100
AcDbEntity
  8
SUNPOU
 62
     6
100
AcDbMText
 10
216.6203866432336
 20
435.8524942544272
 30
0.0
 40
5.0
 41
0.0
 71
     5
 72
     1
  1
\A1;34
  7
SUNPOU
1001
ACAD
1000
MTEXTBEGIN
1070
    73
1070
     1
1070
    44
1040
1.0
1070
    74
1070
     0
1000
MTEXTEND
1000
MTEXTBEGIN
1070
    73
1070
     1
1070
    44
1040
1.0
1070
    74
1070
     0
1000
MTEXTEND
  0
POINT
  5
2547
330
2103
100
AcDbEntity
  8
DEFPOINTS
 62
     0
100
AcDbPoint
 10
199.6203866432336
 20
417.3795079086119
 30
0.0
  0
POINT
  5
2548
330
2103
100
AcDbEntity
  8
DEFPOINTS
 62
     0
100
AcDbPoint
 10
233.6203866432336
 20
431.3524942544272
 30
0.0
  0
POINT
  5
2549
330
2103
100
AcDbEntity
  8
DEFPOINTS
 62
     0
100
AcDbPoint
 10
233.6203866432336
 20
431.3524942544272
 30
0.0
  0
ENDBLK
  5
210E
330
2103
100
AcDbEntity
  8
0
100
AcDbBlockEnd
  0
BLOCK
  5
2125
330
2119
100
AcDbEntity
  8
0
100
AcDbBlockBegin
  2
*D2
 70
     1
 10
0.0
 20
0.0
 30
0.0
  3
*D2
  1

  0
LINE
  5
2536
330
2119
100
AcDbEntity
  8
SUNPOU
100
AcDbLine
 10
162.6203874061733
 20
391.1031769636338
 30
0.0
 11
162.6203874061733
 21
390.103176963634
 31
0.0
  0
LINE
  5
2537
330
2119
100
AcDbEntity
  8
SUNPOU
100
AcDbLine
 10
163.1203874061731
 20
391.1031769636338
 30
0.0
 11
163.1203874061731
 21
390.103176963634
 31
0.0
  0
LINE
  5
2538
330
2119
100
AcDbEntity
  8
SUNPOU
100
AcDbLine
 10
157.6203874061731
 20
388.103176963634
 30
0.0
 11
152.6203874061733
 21
388.103176963634
 31
0.0
  0
LINE
  5
2539
330
2119
100
AcDbEntity
  8
SUNPOU
100
AcDbLine
 10
168.1203874061731
 20
388.103176963634
 30
0.0
 11
173.1203874061731
 21
388.103176963634
 31
0.0
  0
MTEXT
  5
253A
330
2119
100
AcDbEntity
  8
SUNPOU
 62
     6
100
AcDbMText
 10
153.553855605729
 20
392.5318460899648
 30
0.0
 40
5.0
 41
0.0
 71
     5
 72
     1
  1
\A1;0.5
  7
SUNPOU
1001
ACAD
1000
MTEXTBEGIN
1070
    73
1070
     1
1070
    44
1040
1.0
1070
    74
1070
     0
1000
MTEXTEND
1000
MTEXTBEGIN
1070
    73
1070
     1
1070
    44
1040
1.0
1070
    74
1070
     0
1000
MTEXTEND
  0
LINE
  5
253B
330
2119
100
AcDbEntity
  8
SUNPOU
100
AcDbLine
 10
162.6203874061733
 20
388.103176963634
 30
0.0
 11
163.1203874061731
 21
388.103176963634
 31
0.0
  0
INSERT
  5
253C
330
2119
100
AcDbEntity
  8
SUNPOU
100
AcDbBlockReference
  2
_OPEN30
 10
162.6203874061733
 20
388.103176963634
 30
0.0
 41
5.0
 42
5.0
 43
5.0
  0
INSERT
  5
253D
330
2119
100
AcDbEntity
  8
SUNPOU
100
AcDbBlockReference
  2
_OPEN30
 10
163.1203874061731
 20
388.103176963634
 30
0.0
 41
5.0
 42
5.0
 43
5.0
 50
180.0
  0
POINT
  5
253E
330
2119
100
AcDbEntity
  8
DEFPOINTS
 62
     0
100
AcDbPoint
 10
162.6203874061733
 20
388.103176963634
 30
0.0
  0
POINT
  5
253F
330
2119
100
AcDbEntity
  8
DEFPOINTS
 62
     0
100
AcDbPoint
 10
163.1203874061731
 20
388.103176963634
 30
0.0
  0
POINT
  5
2540
330
2119
100
AcDbEntity
  8
DEFPOINTS
 62
     0
100
AcDbPoint
 10
163.1203874061731
 20
388.103176963634
 30
0.0
  0
ENDBLK
  5
2126
330
2119
100
AcDbEntity
  8
0
100
AcDbBlockEnd
  0
BLOCK
  5
2132
330
2128
100
AcDbEntity
  8
0
100
AcDbBlockBegin
  2
*D3
 70
     1
 10
0.0
 20
0.0
 30
0.0
  3
*D3
  1

  0
LINE
  5
252D
330
2128
100
AcDbEntity
  8
SUNPOU
100
AcDbLine
 10
163.1203874061731
 20
391.1031769636338
 30
0.0
 11
163.1203874061731
 21
390.103176963634
 31
0.0
  0
LINE
  5
252E
330
2128
100
AcDbEntity
  8
SUNPOU
100
AcDbLine
 10
185.6203866432336
 20
391.1031769636338
 30
0.0
 11
185.6203866432336
 21
390.103176963634
 31
0.0
  0
LINE
  5
252F
330
2128
100
AcDbEntity
  8
SUNPOU
100
AcDbLine
 10
168.1203874061731
 20
388.103176963634
 30
0.0
 11
180.6203866432336
 21
388.103176963634
 31
0.0
  0
INSERT
  5
2530
330
2128
100
AcDbEntity
  8
SUNPOU
100
AcDbBlockReference
  2
_OPEN30
 10
163.1203874061731
 20
388.103176963634
 30
0.0
 41
5.0
 42
5.0
 43
5.0
 50
180.0
  0
INSERT
  5
2531
330
2128
100
AcDbEntity
  8
SUNPOU
100
AcDbBlockReference
  2
_OPEN30
 10
185.6203866432336
 20
388.103176963634
 30
0.0
 41
5.0
 42
5.0
 43
5.0
  0
MTEXT
  5
2532
330
2128
100
AcDbEntity
  8
SUNPOU
 62
     6
100
AcDbMText
 10
174.3703870247033
 20
392.603176963634
 30
0.0
 40
5.0
 41
0.0
 71
     5
 72
     1
  1
\A1;22.5
  7
SUNPOU
1001
ACAD
1000
MTEXTBEGIN
1070
    73
1070
     1
1070
    44
1040
1.0
1070
    74
1070
     0
1000
MTEXTEND
1000
MTEXTBEGIN
1070
    73
1070
     1
1070
    44
1040
1.0
1070
    74
1070
     0
1000
MTEXTEND
  0
POINT
  5
2533
330
2128
100
AcDbEntity
  8
DEFPOINTS
 62
     0
100
AcDbPoint
 10
163.1203874061731
 20
388.103176963634
 30
0.0
  0
POINT
  5
2534
330
2128
100
AcDbEntity
  8
DEFPOINTS
 62
     0
100
AcDbPoint
 10
185.6203866432336
 20
388.1031769636338
 30
0.0
  0
POINT
  5
2535
330
2128
100
AcDbEntity
  8
DEFPOINTS
 62
     0
100
AcDbPoint
 10
185.6203866432336
 20
388.103176963634
 30
0.0
  0
ENDBLK
  5
2133
330
2128
100
AcDbEntity
  8
0
100
AcDbBlockEnd
  0
BLOCK
  5
2159
330
214D
100
AcDbEntity
  8
0
100
AcDbBlockBegin
  2
*D4
 70
     1
 10
0.0
 20
0.0
 30
0.0
  3
*D4
  1

  0
LINE
  5
2522
330
214D
100
AcDbEntity
  8
SUNPOU
100
AcDbLine
 10
162.6203874061733
 20
303.4553197242126
 30
0.0
 11
162.6203874061733
 21
302.4553197242123
 31
0.0
  0
LINE
  5
2523
330
214D
100
AcDbEntity
  8
SUNPOU
100
AcDbLine
 10
168.6203866432335
 20
303.4553197242126
 30
0.0
 11
168.6203866432335
 21
302.4553197242123
 31
0.0
  0
LINE
  5
2524
330
214D
100
AcDbEntity
  8
SUNPOU
100
AcDbLine
 10
157.6203874061732
 20
300.4553197242123
 30
0.0
 11
152.6203874061733
 21
300.4553197242123
 31
0.0
  0
LINE
  5
2525
330
214D
100
AcDbEntity
  8
SUNPOU
100
AcDbLine
 10
173.6203866432336
 20
300.4553197242123
 30
0.0
 11
178.6203866432336
 21
300.4553197242123
 31
0.0
  0
MTEXT
  5
2526
330
214D
100
AcDbEntity
  8
SUNPOU
 62
     6
100
AcDbMText
 10
165.6203870247034
 20
304.9687456167786
 30
0.0
 40
5.0
 41
0.0
 71
     5
 72
     1
  1
\A1;6
  7
SUNPOU
1001
ACAD
1000
MTEXTBEGIN
1070
    73
1070
     1
1070
    44
1040
1.0
1070
    74
1070
     0
1000
MTEXTEND
1000
MTEXTBEGIN
1070
    73
1070
     1
1070
    44
1040
1.0
1070
    74
1070
     0
1000
MTEXTEND
  0
LINE
  5
2527
330
214D
100
AcDbEntity
  8
SUNPOU
100
AcDbLine
 10
162.6203874061733
 20
300.4553197242123
 30
0.0
 11
168.6203866432335
 21
300.4553197242123
 31
0.0
  0
INSERT
  5
2528
330
214D
100
AcDbEntity
  8
SUNPOU
100
AcDbBlockReference
  2
_OPEN30
 10
162.6203874061733
 20
300.4553197242123
 30
0.0
 41
5.0
 42
5.0
 43
5.0
  0
INSERT
  5
2529
330
214D
100
AcDbEntity
  8
SUNPOU
100
AcDbBlockReference
  2
_OPEN30
 10
168.6203866432335
 20
300.4553197242123
 30
0.0
 41
5.0
 42
5.0
 43
5.0
 50
180.0
  0
POINT
  5
252A
330
214D
100
AcDbEntity
  8
DEFPOINTS
 62
     0
100
AcDbPoint
 10
162.6203874061733
 20
300.4553197242123
 30
0.0
  0
POINT
  5
252B
330
214D
100
AcDbEntity
  8
DEFPOINTS
 62
     0
100
AcDbPoint
 10
168.6203866432335
 20
300.4553197242123
 30
0.0
  0
POINT
  5
252C
330
214D
100
AcDbEntity
  8
DEFPOINTS
 62
     0
100
AcDbPoint
 10
168.6203866432335
 20
300.4553197242123
 30
0.0
  0
ENDBLK
  5
215A
330
214D
100
AcDbEntity
  8
0
100
AcDbBlockEnd
  0
BLOCK
  5
2171
330
2167
100
AcDbEntity
  8
0
100
AcDbBlockBegin
  2
*D5
 70
     1
 10
0.0
 20
0.0
 30
0.0
  3
*D5
  1

  0
LINE
  5
258F
330
2167
100
AcDbEntity
  8
SUNPOU
100
AcDbLine
 10
168.6203866432335
 20
303.4553197242126
 30
0.0
 11
168.6203866432335
 21
302.4553197242123
 31
0.0
  0
LINE
  5
2590
330
2167
100
AcDbEntity
  8
SUNPOU
100
AcDbLine
 10
208.6203866432336
 20
303.4553197242126
 30
0.0
 11
208.6203866432336
 21
302.4553197242123
 31
0.0
  0
LINE
  5
2591
330
2167
100
AcDbEntity
  8
SUNPOU
100
AcDbLine
 10
173.6203866432336
 20
300.4553197242123
 30
0.0
 11
203.6203866432336
 21
300.4553197242123
 31
0.0
  0
MTEXT
  5
2592
330
2167
100
AcDbEntity
  8
SUNPOU
 62
     6
100
AcDbMText
 10
192.4874724001356
 20
304.9553197242126
 30
0.0
 40
5.0
 41
0.0
 71
     5
 72
     1
  1
\A1;40
  7
SUNPOU
1001
ACAD
1000
MTEXTBEGIN
1070
    73
1070
     1
1070
    44
1040
1.0
1070
    74
1070
     0
1000
MTEXTEND
1000
MTEXTBEGIN
1070
    73
1070
     1
1070
    44
1040
1.0
1070
    74
1070
     0
1000
MTEXTEND
  0
INSERT
  5
2593
330
2167
100
AcDbEntity
  8
SUNPOU
100
AcDbBlockReference
  2
_OPEN30
 10
168.6203866432335
 20
300.4553197242123
 30
0.0
 41
5.0
 42
5.0
 43
5.0
 50
180.0
  0
INSERT
  5
2594
330
2167
100
AcDbEntity
  8
SUNPOU
100
AcDbBlockReference
  2
_OPEN30
 10
208.6203866432336
 20
300.4553197242123
 30
0.0
 41
5.0
 42
5.0
 43
5.0
  0
POINT
  5
2595
330
2167
100
AcDbEntity
  8
DEFPOINTS
 62
     0
100
AcDbPoint
 10
168.6203866432335
 20
300.4553197242123
 30
0.0
  0
POINT
  5
2596
330
2167
100
AcDbEntity
  8
DEFPOINTS
 62
     0
100
AcDbPoint
 10
208.6203866432336
 20
300.4553197242123
 30
0.0
  0
POINT
  5
2597
330
2167
100
AcDbEntity
  8
DEFPOINTS
 62
     0
100
AcDbPoint
 10
208.6203866432336
 20
300.4553197242123
 30
0.0
  0
ENDBLK
  5
2172
330
2167
100
AcDbEntity
  8
0
100
AcDbBlockEnd
  0
BLOCK
  5
2180
330
2174
100
AcDbEntity
  8
0
100
AcDbBlockBegin
  2
*D6
 70
     1
 10
0.0
 20
0.0
 30
0.0
  3
*D6
  1

  0
LINE
  5
250E
330
2174
100
AcDbEntity
  8
SUNPOU
100
AcDbLine
 10
208.6203866432336
 20
303.4553197242126
 30
0.0
 11
208.6203866432336
 21
302.4553197242123
 31
0.0
  0
LINE
  5
250F
330
2174
100
AcDbEntity
  8
SUNPOU
100
AcDbLine
 10
213.6203866432336
 20
303.4553197242126
 30
0.0
 11
213.6203866432336
 21
302.4553197242123
 31
0.0
  0
LINE
  5
2510
330
2174
100
AcDbEntity
  8
SUNPOU
100
AcDbLine
 10
203.6203866432336
 20
300.4553197242123
 30
0.0
 11
198.6203866432336
 21
300.4553197242123
 31
0.0
  0
LINE
  5
2511
330
2174
100
AcDbEntity
  8
SUNPOU
100
AcDbLine
 10
218.6203866432335
 20
300.4553197242123
 30
0.0
 11
223.6203866432336
 21
300.4553197242123
 31
0.0
  0
MTEXT
  5
2512
330
2174
100
AcDbEntity
  8
SUNPOU
 62
     6
100
AcDbMText
 10
211.1203866432336
 20
305.0229109018729
 30
0.0
 40
5.0
 41
0.0
 71
     5
 72
     1
  1
\A1;5
  7
SUNPOU
1001
ACAD
1000
MTEXTBEGIN
1070
    73
1070
     1
1070
    44
1040
1.0
1070
    74
1070
     0
1000
MTEXTEND
1000
MTEXTBEGIN
1070
    73
1070
     1
1070
    44
1040
1.0
1070
    74
1070
     0
1000
MTEXTEND
  0
LINE
  5
2513
330
2174
100
AcDbEntity
  8
SUNPOU
100
AcDbLine
 10
208.6203866432336
 20
300.4553197242123
 30
0.0
 11
213.6203866432336
 21
300.4553197242123
 31
0.0
  0
INSERT
  5
2514
330
2174
100
AcDbEntity
  8
SUNPOU
100
AcDbBlockReference
  2
_OPEN30
 10
208.6203866432336
 20
300.4553197242123
 30
0.0
 41
5.0
 42
5.0
 43
5.0
  0
INSERT
  5
2515
330
2174
100
AcDbEntity
  8
SUNPOU
100
AcDbBlockReference
  2
_OPEN30
 10
213.6203866432336
 20
300.4553197242123
 30
0.0
 41
5.0
 42
5.0
 43
5.0
 50
180.0
  0
POINT
  5
2516
330
2174
100
AcDbEntity
  8
DEFPOINTS
 62
     0
100
AcDbPoint
 10
208.6203866432336
 20
300.4553197242123
 30
0.0
  0
POINT
  5
2517
330
2174
100
AcDbEntity
  8
DEFPOINTS
 62
     0
100
AcDbPoint
 10
213.6203866432336
 20
300.4553197242123
 30
0.0
  0
POINT
  5
2518
330
2174
100
AcDbEntity
  8
DEFPOINTS
 62
     0
100
AcDbPoint
 10
213.6203866432336
 20
300.4553197242123
 30
0.0
  0
ENDBLK
  5
2181
330
2174
100
AcDbEntity
  8
0
100
AcDbBlockEnd
  0
BLOCK
  5
218D
330
2183
100
AcDbEntity
  8
0
100
AcDbBlockBegin
  2
*D7
 70
     1
 10
0.0
 20
0.0
 30
0.0
  3
*D7
  1

  0
LINE
  5
2586
330
2183
100
AcDbEntity
  8
SUNPOU
100
AcDbLine
 10
213.6203866432336
 20
303.4553197242126
 30
0.0
 11
213.6203866432336
 21
302.4553197242123
 31
0.0
  0
LINE
  5
2587
330
2183
100
AcDbEntity
  8
SUNPOU
100
AcDbLine
 10
253.6203866432336
 20
303.4553197242126
 30
0.0
 11
253.6203866432336
 21
302.4553197242123
 31
0.0
  0
LINE
  5
2588
330
2183
100
AcDbEntity
  8
SUNPOU
100
AcDbLine
 10
218.6203866432335
 20
300.4553197242123
 30
0.0
 11
248.6203866432336
 21
300.4553197242123
 31
0.0
  0
MTEXT
  5
2589
330
2183
100
AcDbEntity
  8
SUNPOU
 62
     6
100
AcDbMText
 10
237.1729263996169
 20
304.9553197242126
 30
0.0
 40
5.0
 41
0.0
 71
     5
 72
     1
  1
\A1;40
  7
SUNPOU
1001
ACAD
1000
MTEXTBEGIN
1070
    73
1070
     1
1070
    44
1040
1.0
1070
    74
1070
     0
1000
MTEXTEND
1000
MTEXTBEGIN
1070
    73
1070
     1
1070
    44
1040
1.0
1070
    74
1070
     0
1000
MTEXTEND
  0
INSERT
  5
258A
330
2183
100
AcDbEntity
  8
SUNPOU
100
AcDbBlockReference
  2
_OPEN30
 10
213.6203866432336
 20
300.4553197242123
 30
0.0
 41
5.0
 42
5.0
 43
5.0
 50
180.0
  0
INSERT
  5
258B
330
2183
100
AcDbEntity
  8
SUNPOU
100
AcDbBlockReference
  2
_OPEN30
 10
253.6203866432336
 20
300.4553197242123
 30
0.0
 41
5.0
 42
5.0
 43
5.0
  0
POINT
  5
258C
330
2183
100
AcDbEntity
  8
DEFPOINTS
 62
     0
100
AcDbPoint
 10
213.6203866432336
 20
300.4553197242123
 30
0.0
  0
POINT
  5
258D
330
2183
100
AcDbEntity
  8
DEFPOINTS
 62
     0
100
AcDbPoint
 10
253.6203866432336
 20
300.4553197242123
 30
0.0
  0
POINT
  5
258E
330
2183
100
AcDbEntity
  8
DEFPOINTS
 62
     0
100
AcDbPoint
 10
253.6203866432336
 20
300.4553197242123
 30
0.0
  0
ENDBLK
  5
218E
330
2183
100
AcDbEntity
  8
0
100
AcDbBlockEnd
  0
BLOCK
  5
219C
330
2190
100
AcDbEntity
  8
0
100
AcDbBlockBegin
  2
*D8
 70
     1
 10
0.0
 20
0.0
 30
0.0
  3
*D8
  1

  0
LINE
  5
24FA
330
2190
100
AcDbEntity
  8
SUNPOU
100
AcDbLine
 10
253.6203866432336
 20
303.4553197242126
 30
0.0
 11
253.6203866432336
 21
302.4553197242123
 31
0.0
  0
LINE
  5
24FB
330
2190
100
AcDbEntity
  8
SUNPOU
100
AcDbLine
 10
262.6203874061733
 20
303.4553197242126
 30
0.0
 11
262.6203874061733
 21
302.4553197242123
 31
0.0
  0
LINE
  5
24FC
330
2190
100
AcDbEntity
  8
SUNPOU
100
AcDbLine
 10
248.6203866432336
 20
300.4553197242123
 30
0.0
 11
243.6203866432335
 21
300.4553197242123
 31
0.0
  0
LINE
  5
24FD
330
2190
100
AcDbEntity
  8
SUNPOU
100
AcDbLine
 10
267.6203874061733
 20
300.4553197242123
 30
0.0
 11
272.6203874061734
 21
300.4553197242123
 31
0.0
  0
LINE
  5
24FE
330
2190
100
AcDbEntity
  8
SUNPOU
100
AcDbLine
 10
253.6203866432336
 20
300.4553197242123
 30
0.0
 11
262.6203874061733
 21
300.4553197242123
 31
0.0
  0
INSERT
  5
24FF
330
2190
100
AcDbEntity
  8
SUNPOU
100
AcDbBlockReference
  2
_OPEN30
 10
253.6203866432336
 20
300.4553197242123
 30
0.0
 41
5.0
 42
5.0
 43
5.0
  0
INSERT
  5
2500
330
2190
100
AcDbEntity
  8
SUNPOU
100
AcDbBlockReference
  2
_OPEN30
 10
262.6203874061733
 20
300.4553197242123
 30
0.0
 41
5.0
 42
5.0
 43
5.0
 50
180.0
  0
MTEXT
  5
2501
330
2190
100
AcDbEntity
  8
SUNPOU
 62
     6
100
AcDbMText
 10
258.1203870247033
 20
304.9553197242126
 30
0.0
 40
5.0
 41
0.0
 71
     5
 72
     1
  1
\A1;9
  7
SUNPOU
1001
ACAD
1000
MTEXTBEGIN
1070
    73
1070
     1
1070
    44
1040
1.0
1070
    74
1070
     0
1000
MTEXTEND
1000
MTEXTBEGIN
1070
    73
1070
     1
1070
    44
1040
1.0
1070
    74
1070
     0
1000
MTEXTEND
  0
POINT
  5
2502
330
2190
100
AcDbEntity
  8
DEFPOINTS
 62
     0
100
AcDbPoint
 10
253.6203866432336
 20
300.4553197242123
 30
0.0
  0
POINT
  5
2503
330
2190
100
AcDbEntity
  8
DEFPOINTS
 62
     0
100
AcDbPoint
 10
262.6203874061733
 20
300.4553197242123
 30
0.0
  0
POINT
  5
2504
330
2190
100
AcDbEntity
  8
DEFPOINTS
 62
     0
100
AcDbPoint
 10
262.6203874061733
 20
300.4553197242123
 30
0.0
  0
ENDBLK
  5
219D
330
2190
100
AcDbEntity
  8
0
100
AcDbBlockEnd
  0
BLOCK
  5
21AB
330
219F
100
AcDbEntity
  8
0
100
AcDbBlockBegin
  2
*D9
 70
     1
 10
0.0
 20
0.0
 30
0.0
  3
*D9
  1

  0
LINE
  5
2732
330
219F
100
AcDbEntity
  8
SUNPOU
100
AcDbLine
 10
162.6203874061733
 20
291.1294679691225
 30
0.0
 11
162.6203874061733
 21
290.1294679691225
 31
0.0
  0
LINE
  5
2733
330
219F
100
AcDbEntity
  8
SUNPOU
100
AcDbLine
 10
163.1203874061731
 20
354.9995079086118
 30
0.0
 11
163.1203874061731
 21
286.1294679691225
 31
0.0
  0
LINE
  5
2734
330
219F
100
AcDbEntity
  8
SUNPOU
100
AcDbLine
 10
157.6203874061732
 20
288.1294679691225
 30
0.0
 11
152.6203874061733
 21
288.1294679691225
 31
0.0
  0
LINE
  5
2735
330
219F
100
AcDbEntity
  8
SUNPOU
100
AcDbLine
 10
168.1203874061731
 20
288.1294679691225
 30
0.0
 11
173.1203874061731
 21
288.1294679691225
 31
0.0
  0
MTEXT
  5
2736
330
219F
100
AcDbEntity
  8
SUNPOU
 62
     6
100
AcDbMText
 10
153.337631260178
 20
292.6805364922553
 30
0.0
 40
5.0
 41
0.0
 71
     5
 72
     1
  1
\A1;0.5
  7
SUNPOU
1001
ACAD
1000
MTEXTBEGIN
1070
    73
1070
     1
1070
    44
1040
1.0
1070
    74
1070
     0
1000
MTEXTEND
1000
MTEXTBEGIN
1070
    73
1070
     1
1070
    44
1040
1.0
1070
    74
1070
     0
1000
MTEXTEND
  0
LINE
  5
2737
330
219F
100
AcDbEntity
  8
SUNPOU
100
AcDbLine
 10
162.6203874061733
 20
288.1294679691225
 30
0.0
 11
163.1203874061731
 21
288.1294679691225
 31
0.0
  0
INSERT
  5
2738
330
219F
100
AcDbEntity
  8
SUNPOU
100
AcDbBlockReference
  2
_OPEN30
 10
162.6203874061733
 20
288.1294679691225
 30
0.0
 41
5.0
 42
5.0
 43
5.0
  0
INSERT
  5
2739
330
219F
100
AcDbEntity
  8
SUNPOU
100
AcDbBlockReference
  2
_OPEN30
 10
163.1203874061731
 20
288.1294679691225
 30
0.0
 41
5.0
 42
5.0
 43
5.0
 50
180.0
  0
POINT
  5
273A
330
219F
100
AcDbEntity
  8
DEFPOINTS
 62
     0
100
AcDbPoint
 10
162.6203874061733
 20
288.1294679691225
 30
0.0
  0
POINT
  5
273B
330
219F
100
AcDbEntity
  8
DEFPOINTS
 62
     0
100
AcDbPoint
 10
163.1203874061731
 20
357.9995079086117
 30
0.0
  0
POINT
  5
273C
330
219F
100
AcDbEntity
  8
DEFPOINTS
 62
     0
100
AcDbPoint
 10
163.1203874061731
 20
288.1294679691225
 30
0.0
  0
ENDBLK
  5
21AC
330
219F
100
AcDbEntity
  8
0
100
AcDbBlockEnd
  0
BLOCK
  5
21B8
330
21AE
100
AcDbEntity
  8
0
100
AcDbBlockBegin
  2
*D10
 70
     1
 10
0.0
 20
0.0
 30
0.0
  3
*D10
  1

  0
LINE
  5
2776
330
21AE
100
AcDbEntity
  8
SUNPOU
100
AcDbLine
 10
163.1203874061731
 20
354.9995079086118
 30
0.0
 11
163.1203874061731
 21
286.1294679691225
 31
0.0
  0
LINE
  5
2777
330
21AE
100
AcDbEntity
  8
SUNPOU
100
AcDbLine
 10
262.120387406173
 20
354.9995079086115
 30
0.0
 11
262.120387406173
 21
286.1294679691225
 31
0.0
  0
LINE
  5
2778
330
21AE
100
AcDbEntity
  8
SUNPOU
100
AcDbLine
 10
168.1203874061731
 20
288.1294679691225
 30
0.0
 11
257.1203874061731
 21
288.1294679691225
 31
0.0
  0
MTEXT
  5
2779
330
21AE
100
AcDbEntity
  8
SUNPOU
 62
     6
100
AcDbMText
 10
222.578686467116
 20
292.6743409490334
 30
0.0
 40
5.0
 41
0.0
 71
     5
 72
     1
  1
\A1;99
  7
SUNPOU
1001
ACAD
1000
MTEXTBEGIN
1070
    73
1070
     1
1070
    44
1040
1.0
1070
    74
1070
     0
1000
MTEXTEND
1000
MTEXTBEGIN
1070
    73
1070
     1
1070
    44
1040
1.0
1070
    74
1070
     0
1000
MTEXTEND
  0
INSERT
  5
277A
330
21AE
100
AcDbEntity
  8
SUNPOU
100
AcDbBlockReference
  2
_OPEN30
 10
163.1203874061731
 20
288.1294679691225
 30
0.0
 41
5.0
 42
5.0
 43
5.0
 50
180.0
  0
INSERT
  5
277B
330
21AE
100
AcDbEntity
  8
SUNPOU
100
AcDbBlockReference
  2
_OPEN30
 10
262.120387406173
 20
288.1294679691225
 30
0.0
 41
5.0
 42
5.0
 43
5.0
  0
POINT
  5
277C
330
21AE
100
AcDbEntity
  8
DEFPOINTS
 62
     0
100
AcDbPoint
 10
163.1203874061731
 20
357.9995079086117
 30
0.0
  0
POINT
  5
277D
330
21AE
100
AcDbEntity
  8
DEFPOINTS
 62
     0
100
AcDbPoint
 10
262.120387406173
 20
357.9995079086117
 30
0.0
  0
POINT
  5
277E
330
21AE
100
AcDbEntity
  8
DEFPOINTS
 62
     0
100
AcDbPoint
 10
262.120387406173
 20
288.1294679691225
 30
0.0
  0
ENDBLK
  5
21B9
330
21AE
100
AcDbEntity
  8
0
100
AcDbBlockEnd
  0
BLOCK
  5
21C7
330
21BB
100
AcDbEntity
  8
0
100
AcDbBlockBegin
  2
*D11
 70
     1
 10
0.0
 20
0.0
 30
0.0
  3
*D11
  1

  0
LINE
  5
257B
330
21BB
100
AcDbEntity
  8
SUNPOU
100
AcDbLine
 10
262.120387406173
 20
354.9995079086115
 30
0.0
 11
262.120387406173
 21
286.1743409490334
 31
0.0
  0
LINE
  5
257C
330
21BB
100
AcDbEntity
  8
SUNPOU
100
AcDbLine
 10
262.6203874061733
 20
291.1743409490334
 30
0.0
 11
262.6203874061733
 21
290.1743409490334
 31
0.0
  0
LINE
  5
257D
330
21BB
100
AcDbEntity
  8
SUNPOU
100
AcDbLine
 10
257.1203874061731
 20
288.1743409490334
 30
0.0
 11
252.1203874061731
 21
288.1743409490334
 31
0.0
  0
LINE
  5
257E
330
21BB
100
AcDbEntity
  8
SUNPOU
100
AcDbLine
 10
267.6203874061733
 20
288.1743409490334
 30
0.0
 11
272.6203874061734
 21
288.1743409490334
 31
0.0
  0
MTEXT
  5
257F
330
21BB
100
AcDbEntity
  8
SUNPOU
 62
     6
100
AcDbMText
 10
271.8049814478777
 20
292.6906660640218
 30
0.0
 40
5.0
 41
0.0
 71
     5
 72
     1
  1
\A1;0.5
  7
SUNPOU
1001
ACAD
1000
MTEXTBEGIN
1070
    73
1070
     1
1070
    44
1040
1.0
1070
    74
1070
     0
1000
MTEXTEND
1000
MTEXTBEGIN
1070
    73
1070
     1
1070
    44
1040
1.0
1070
    74
1070
     0
1000
MTEXTEND
  0
LINE
  5
2580
330
21BB
100
AcDbEntity
  8
SUNPOU
100
AcDbLine
 10
262.120387406173
 20
288.1743409490334
 30
0.0
 11
262.6203874061733
 21
288.1743409490334
 31
0.0
  0
INSERT
  5
2581
330
21BB
100
AcDbEntity
  8
SUNPOU
100
AcDbBlockReference
  2
_OPEN30
 10
262.120387406173
 20
288.1743409490334
 30
0.0
 41
5.0
 42
5.0
 43
5.0
  0
INSERT
  5
2582
330
21BB
100
AcDbEntity
  8
SUNPOU
100
AcDbBlockReference
  2
_OPEN30
 10
262.6203874061733
 20
288.1743409490334
 30
0.0
 41
5.0
 42
5.0
 43
5.0
 50
180.0
  0
POINT
  5
2583
330
21BB
100
AcDbEntity
  8
DEFPOINTS
 62
     0
100
AcDbPoint
 10
262.120387406173
 20
357.9995079086117
 30
0.0
  0
POINT
  5
2584
330
21BB
100
AcDbEntity
  8
DEFPOINTS
 62
     0
100
AcDbPoint
 10
262.6203874061733
 20
288.1743409490334
 30
0.0
  0
POINT
  5
2585
330
21BB
100
AcDbEntity
  8
DEFPOINTS
 62
     0
100
AcDbPoint
 10
262.6203874061733
 20
288.1743409490334
 30
0.0
  0
ENDBLK
  5
21C8
330
21BB
100
AcDbEntity
  8
0
100
AcDbBlockEnd
  0
BLOCK
  5
21D4
330
21CA
100
AcDbEntity
  8
0
100
AcDbBlockBegin
  2
*D12
 70
     1
 10
0.0
 20
0.0
 30
0.0
  3
*D12
  1

  0
LINE
  5
25A1
330
21CA
100
AcDbEntity
  8
SUNPOU
100
AcDbLine
 10
162.6203874061733
 20
279.3430579964849
 30
0.0
 11
162.6203874061733
 21
278.3430579964849
 31
0.0
  0
LINE
  5
25A2
330
21CA
100
AcDbEntity
  8
SUNPOU
100
AcDbLine
 10
262.6203874061733
 20
279.3430579964848
 30
0.0
 11
262.6203874061733
 21
278.3430579964849
 31
0.0
  0
LINE
  5
25A3
330
21CA
100
AcDbEntity
  8
SUNPOU
100
AcDbLine
 10
167.6203874061734
 20
276.3430579964849
 30
0.0
 11
257.6203874061734
 21
276.3430579964849
 31
0.0
  0
MTEXT
  5
25A4
330
21CA
100
AcDbEntity
  8
SUNPOU
 62
     6
100
AcDbMText
 10
222.4282312125756
 20
280.8430579964849
 30
0.0
 40
5.0
 41
0.0
 71
     5
 72
     1
  1
\A1;100
  7
SUNPOU
1001
ACAD
1000
MTEXTBEGIN
1070
    73
1070
     1
1070
    44
1040
1.0
1070
    74
1070
     0
1000
MTEXTEND
1000
MTEXTBEGIN
1070
    73
1070
     1
1070
    44
1040
1.0
1070
    74
1070
     0
1000
MTEXTEND
  0
INSERT
  5
25A5
330
21CA
100
AcDbEntity
  8
SUNPOU
100
AcDbBlockReference
  2
_OPEN30
 10
162.6203874061733
 20
276.3430579964849
 30
0.0
 41
5.0
 42
5.0
 43
5.0
 50
180.0
  0
INSERT
  5
25A6
330
21CA
100
AcDbEntity
  8
SUNPOU
100
AcDbBlockReference
  2
_OPEN30
 10
262.6203874061733
 20
276.3430579964849
 30
0.0
 41
5.0
 42
5.0
 43
5.0
  0
POINT
  5
25A7
330
21CA
100
AcDbEntity
  8
DEFPOINTS
 62
     0
100
AcDbPoint
 10
162.6203874061733
 20
276.3430579964849
 30
0.0
  0
POINT
  5
25A8
330
21CA
100
AcDbEntity
  8
DEFPOINTS
 62
     0
100
AcDbPoint
 10
262.6203874061733
 20
276.3430579964849
 30
0.0
  0
POINT
  5
25A9
330
21CA
100
AcDbEntity
  8
DEFPOINTS
 62
     0
100
AcDbPoint
 10
262.6203874061733
 20
276.3430579964849
 30
0.0
  0
ENDBLK
  5
21D5
330
21CA
100
AcDbEntity
  8
0
100
AcDbBlockEnd
  0
BLOCK
  5
21E1
330
21D7
100
AcDbEntity
  8
0
100
AcDbBlockBegin
  2
*D13
 70
     1
 10
0.0
 20
0.0
 30
0.0
  3
*D13
  1

  0
LINE
  5
24C9
330
21D7
100
AcDbEntity
  8
SUNPOU
100
AcDbLine
 10
225.1203866432336
 20
97.99950790861165
 30
0.0
 11
225.1203866432336
 21
71.06983912396919
 31
0.0
  0
LINE
  5
24CA
330
21D7
100
AcDbEntity
  8
SUNPOU
100
AcDbLine
 10
242.1203866432336
 20
97.99950790861162
 30
0.0
 11
242.1203866432336
 21
71.06983912396919
 31
0.0
  0
LINE
  5
24CB
330
21D7
100
AcDbEntity
  8
SUNPOU
100
AcDbLine
 10
230.1203866432336
 20
73.06983912396919
 30
0.0
 11
237.1203866432336
 21
73.06983912396919
 31
0.0
  0
INSERT
  5
24CC
330
21D7
100
AcDbEntity
  8
SUNPOU
100
AcDbBlockReference
  2
_OPEN30
 10
225.1203866432336
 20
73.06983912396919
 30
0.0
 41
5.0
 42
5.0
 43
5.0
 50
180.0
  0
INSERT
  5
24CD
330
21D7
100
AcDbEntity
  8
SUNPOU
100
AcDbBlockReference
  2
_OPEN30
 10
242.1203866432336
 20
73.06983912396919
 30
0.0
 41
5.0
 42
5.0
 43
5.0
  0
MTEXT
  5
24CE
330
21D7
100
AcDbEntity
  8
SUNPOU
 62
     6
100
AcDbMText
 10
233.6203866432336
 20
77.56983912396918
 30
0.0
 40
5.0
 41
0.0
 71
     5
 72
     1
  1
\A1;17
  7
SUNPOU
1001
ACAD
1000
MTEXTBEGIN
1070
    73
1070
     1
1070
    44
1040
1.0
1070
    74
1070
     0
1000
MTEXTEND
1000
MTEXTBEGIN
1070
    73
1070
     1
1070
    44
1040
1.0
1070
    74
1070
     0
1000
MTEXTEND
  0
POINT
  5
24CF
330
21D7
100
AcDbEntity
  8
DEFPOINTS
 62
     0
100
AcDbPoint
 10
225.1203866432336
 20
100.9995079086116
 30
0.0
  0
POINT
  5
24D0
330
21D7
100
AcDbEntity
  8
DEFPOINTS
 62
     0
100
AcDbPoint
 10
242.1203866432336
 20
100.9995079086116
 30
0.0
  0
POINT
  5
24D1
330
21D7
100
AcDbEntity
  8
DEFPOINTS
 62
     0
100
AcDbPoint
 10
242.1203866432336
 20
73.06983912396919
 30
0.0
  0
ENDBLK
  5
21E2
330
21D7
100
AcDbEntity
  8
0
100
AcDbBlockEnd
  0
BLOCK
  5
21EE
330
21E4
100
AcDbEntity
  8
0
100
AcDbBlockBegin
  2
*D14
 70
     1
 10
0.0
 20
0.0
 30
0.0
  3
*D14
  1

  0
LINE
  5
24C0
330
21E4
100
AcDbEntity
  8
SUNPOU
100
AcDbLine
 10
162.6203874061733
 20
95.99950790861177
 30
0.0
 11
162.6203874061733
 21
71.06983912396919
 31
0.0
  0
LINE
  5
24C1
330
21E4
100
AcDbEntity
  8
SUNPOU
100
AcDbLine
 10
214.1203866432336
 20
113.9995079086115
 30
0.0
 11
214.1203866432336
 21
71.06983912396919
 31
0.0
  0
LINE
  5
24C2
330
21E4
100
AcDbEntity
  8
SUNPOU
100
AcDbLine
 10
167.6203874061734
 20
73.06983912396919
 30
0.0
 11
209.1203866432336
 21
73.06983912396919
 31
0.0
  0
INSERT
  5
24C3
330
21E4
100
AcDbEntity
  8
SUNPOU
100
AcDbBlockReference
  2
_OPEN30
 10
162.6203874061733
 20
73.06983912396919
 30
0.0
 41
5.0
 42
5.0
 43
5.0
 50
180.0
  0
INSERT
  5
24C4
330
21E4
100
AcDbEntity
  8
SUNPOU
100
AcDbBlockReference
  2
_OPEN30
 10
214.1203866432336
 20
73.06983912396919
 30
0.0
 41
5.0
 42
5.0
 43
5.0
  0
MTEXT
  5
24C5
330
21E4
100
AcDbEntity
  8
SUNPOU
 62
     6
100
AcDbMText
 10
188.3703870247035
 20
77.56983912396918
 30
0.0
 40
5.0
 41
0.0
 71
     5
 72
     1
  1
\A1;プレート51
  7
SUNPOU
1001
ACAD
1000
MTEXTBEGIN
1070
    73
1070
     1
1070
    44
1040
1.0
1070
    74
1070
     0
1000
MTEXTEND
1000
MTEXTBEGIN
1070
    73
1070
     1
1070
    44
1040
1.0
1070
    74
1070
     0
1000
MTEXTEND
  0
POINT
  5
24C6
330
21E4
100
AcDbEntity
  8
DEFPOINTS
 62
     0
100
AcDbPoint
 10
162.6203874061733
 20
98.99950790861179
 30
0.0
  0
POINT
  5
24C7
330
21E4
100
AcDbEntity
  8
DEFPOINTS
 62
     0
100
AcDbPoint
 10
214.1203866432336
 20
116.9995079086115
 30
0.0
  0
POINT
  5
24C8
330
21E4
100
AcDbEntity
  8
DEFPOINTS
 62
     0
100
AcDbPoint
 10
214.1203866432336
 20
73.06983912396919
 30
0.0
  0
ENDBLK
  5
21EF
330
21E4
100
AcDbEntity
  8
0
100
AcDbBlockEnd
  0
BLOCK
  5
2255
330
224B
100
AcDbEntity
  8
0
100
AcDbBlockBegin
  2
*D15
 70
     1
 10
0.0
 20
0.0
 30
0.0
  3
*D15
  1

  0
LINE
  5
24B7
330
224B
100
AcDbEntity
  8
SUNPOU
100
AcDbLine
 10
165.6203866432336
 20
88.9995079086116
 30
0.0
 11
142.3637961335676
 21
88.99950790861167
 31
0.0
  0
LINE
  5
24B8
330
224B
100
AcDbEntity
  8
SUNPOU
100
AcDbLine
 10
141.3637961335675
 20
123.9995079086117
 30
0.0
 11
142.3637961335676
 21
123.9995079086117
 31
0.0
  0
LINE
  5
24B9
330
224B
100
AcDbEntity
  8
SUNPOU
100
AcDbLine
 10
144.3637961335675
 20
93.99950790861165
 30
0.0
 11
144.3637961335675
 21
118.9995079086117
 31
0.0
  0
INSERT
  5
24BA
330
224B
100
AcDbEntity
  8
SUNPOU
100
AcDbBlockReference
  2
_OPEN30
 10
144.3637961335675
 20
88.99950790861167
 30
0.0
 41
5.0
 42
5.0
 43
5.0
 50
270.0
  0
INSERT
  5
24BB
330
224B
100
AcDbEntity
  8
SUNPOU
100
AcDbBlockReference
  2
_OPEN30
 10
144.3637961335675
 20
123.9995079086117
 30
0.0
 41
5.0
 42
5.0
 43
5.0
 50
90.0
  0
MTEXT
  5
24BC
330
224B
100
AcDbEntity
  8
SUNPOU
 62
     6
100
AcDbMText
 10
139.8637961335676
 20
106.4995079086117
 30
0.0
 40
5.0
 41
0.0
 71
     5
 72
     1
  1
\A1;35
  7
SUNPOU
 11
0.0000000000000001
 21
1.0
 31
0.0
1001
ACAD
1000
MTEXTBEGIN
1070
    73
1070
     1
1070
    44
1040
1.0
1070
    74
1070
     0
1000
MTEXTEND
1000
MTEXTBEGIN
1070
    73
1070
     1
1070
    44
1040
1.0
1070
    74
1070
     0
1000
MTEXTEND
  0
POINT
  5
24BD
330
224B
100
AcDbEntity
  8
DEFPOINTS
 62
     0
100
AcDbPoint
 10
168.6203866432335
 20
88.9995079086116
 30
0.0
  0
POINT
  5
24BE
330
224B
100
AcDbEntity
  8
DEFPOINTS
 62
     0
100
AcDbPoint
 10
144.3637961335675
 20
123.9995079086117
 30
0.0
  0
POINT
  5
24BF
330
224B
100
AcDbEntity
  8
DEFPOINTS
 62
     0
100
AcDbPoint
 10
144.3637961335675
 20
123.9995079086117
 30
0.0
  0
ENDBLK
  5
2256
330
224B
100
AcDbEntity
  8
0
100
AcDbBlockEnd
  0
BLOCK
  5
2262
330
2258
100
AcDbEntity
  8
0
100
AcDbBlockBegin
  2
*D16
 70
     1
 10
0.0
 20
0.0
 30
0.0
  3
*D16
  1

  0
LINE
  5
288E
330
2258
100
AcDbEntity
  8
SUNPOU
100
AcDbLine
 10
246.1203866432336
 20
101.9995079068167
 30
0.0
 11
295.5932134649181
 21
101.9995079068167
 31
0.0
  0
LINE
  5
288F
330
2258
100
AcDbEntity
  8
SUNPOU
100
AcDbLine
 10
261.1203866468234
 20
126.9995079086116
 30
0.0
 11
295.5932134649181
 21
126.9995079086116
 31
0.0
  0
LINE
  5
2890
330
2258
100
AcDbEntity
  8
SUNPOU
100
AcDbLine
 10
293.5932134649181
 20
106.9995079068167
 30
0.0
 11
293.5932134649181
 21
121.9995079086116
 31
0.0
  0
MTEXT
  5
2891
330
2258
100
AcDbEntity
  8
SUNPOU
 62
     6
100
AcDbMText
 10
298.0932134649181
 20
115.5802031700009
 30
0.0
 40
5.0
 41
0.0
 71
     5
 72
     1
  1
\A1;25
  7
SUNPOU
 11
0.0000000000000001
 21
1.0
 31
0.0
1001
ACAD
1000
MTEXTBEGIN
1070
    73
1070
     1
1070
    44
1040
1.0
1070
    74
1070
     0
1000
MTEXTEND
1000
MTEXTBEGIN
1070
    73
1070
     1
1070
    44
1040
1.0
1070
    74
1070
     0
1000
MTEXTEND
  0
INSERT
  5
2892
330
2258
100
AcDbEntity
  8
SUNPOU
100
AcDbBlockReference
  2
_OPEN30
 10
293.5932134649181
 20
101.9995079068167
 30
0.0
 41
5.0
 42
5.0
 43
5.0
 50
270.0
  0
INSERT
  5
2893
330
2258
100
AcDbEntity
  8
SUNPOU
100
AcDbBlockReference
  2
_OPEN30
 10
293.5932134649181
 20
126.9995079086116
 30
0.0
 41
5.0
 42
5.0
 43
5.0
 50
90.0
  0
POINT
  5
2894
330
2258
100
AcDbEntity
  8
DEFPOINTS
 62
     0
100
AcDbPoint
 10
243.1203866432336
 20
101.9995079068167
 30
0.0
  0
POINT
  5
2895
330
2258
100
AcDbEntity
  8
DEFPOINTS
 62
     0
100
AcDbPoint
 10
258.1203866468234
 20
126.9995079086116
 30
0.0
  0
POINT
  5
2896
330
2258
100
AcDbEntity
  8
DEFPOINTS
 62
     0
100
AcDbPoint
 10
293.5932134649181
 20
126.9995079086116
 30
0.0
  0
ENDBLK
  5
2263
330
2258
100
AcDbEntity
  8
0
100
AcDbBlockEnd
  0
BLOCK
  5
2271
330
2265
100
AcDbEntity
  8
0
100
AcDbBlockBegin
  2
*D17
 70
     1
 10
0.0
 20
0.0
 30
0.0
  3
*D17
  1

  0
LINE
  5
24A3
330
2265
100
AcDbEntity
  8
SUNPOU
100
AcDbLine
 10
269.8705118205267
 20
123.9995079086116
 30
0.0
 11
270.8705118205267
 21
123.9995079086116
 31
0.0
  0
LINE
  5
24A4
330
2265
100
AcDbEntity
  8
SUNPOU
100
AcDbLine
 10
261.1203866468234
 20
126.9995079086116
 30
0.0
 11
274.8705118205267
 21
126.9995079086116
 31
0.0
  0
LINE
  5
24A5
330
2265
100
AcDbEntity
  8
SUNPOU
100
AcDbLine
 10
272.8705118205267
 20
118.9995079086116
 30
0.0
 11
272.8705118205267
 21
113.9995079086115
 31
0.0
  0
LINE
  5
24A6
330
2265
100
AcDbEntity
  8
SUNPOU
100
AcDbLine
 10
272.8705118205267
 20
131.9995079086116
 30
0.0
 11
272.8705118205267
 21
136.9995079086116
 31
0.0
  0
MTEXT
  5
24A7
330
2265
100
AcDbEntity
  8
SUNPOU
 62
     6
100
AcDbMText
 10
268.3107901928492
 20
115.3068499322648
 30
0.0
 40
5.0
 41
0.0
 71
     5
 72
     1
  1
\A1;3
  7
SUNPOU
 11
0.0000000000000001
 21
1.0
 31
0.0
1001
ACAD
1000
MTEXTBEGIN
1070
    73
1070
     1
1070
    44
1040
1.0
1070
    74
1070
     0
1000
MTEXTEND
1000
MTEXTBEGIN
1070
    73
1070
     1
1070
    44
1040
1.0
1070
    74
1070
     0
1000
MTEXTEND
  0
LINE
  5
24A8
330
2265
100
AcDbEntity
  8
SUNPOU
100
AcDbLine
 10
272.8705118205267
 20
123.9995079086116
 30
0.0
 11
272.8705118205267
 21
126.9995079086116
 31
0.0
  0
INSERT
  5
24A9
330
2265
100
AcDbEntity
  8
SUNPOU
100
AcDbBlockReference
  2
_OPEN30
 10
272.8705118205267
 20
123.9995079086116
 30
0.0
 41
5.0
 42
5.0
 43
5.0
 50
90.0
  0
INSERT
  5
24AA
330
2265
100
AcDbEntity
  8
SUNPOU
100
AcDbBlockReference
  2
_OPEN30
 10
272.8705118205267
 20
126.9995079086116
 30
0.0
 41
5.0
 42
5.0
 43
5.0
 50
270.0
  0
POINT
  5
24AB
330
2265
100
AcDbEntity
  8
DEFPOINTS
 62
     0
100
AcDbPoint
 10
272.8705118205267
 20
123.9995079086116
 30
0.0
  0
POINT
  5
24AC
330
2265
100
AcDbEntity
  8
DEFPOINTS
 62
     0
100
AcDbPoint
 10
258.1203866468234
 20
126.9995079086116
 30
0.0
  0
POINT
  5
24AD
330
2265
100
AcDbEntity
  8
DEFPOINTS
 62
     0
100
AcDbPoint
 10
272.8705118205267
 20
126.9995079086116
 30
0.0
  0
ENDBLK
  5
2272
330
2265
100
AcDbEntity
  8
0
100
AcDbBlockEnd
  0
BLOCK
  5
227E
330
2274
100
AcDbEntity
  8
0
100
AcDbBlockBegin
  2
*D18
 70
     1
 10
0.0
 20
0.0
 30
0.0
  3
*D18
  1

  0
LINE
  5
249A
330
2274
100
AcDbEntity
  8
SUNPOU
100
AcDbLine
 10
256.6203866432337
 20
133.9995079086119
 30
0.0
 11
295.5932134649181
 21
133.9995079086119
 31
0.0
  0
LINE
  5
249B
330
2274
100
AcDbEntity
  8
SUNPOU
100
AcDbLine
 10
252.1203866432336
 20
159.4995079086119
 30
0.0
 11
295.5932134649181
 21
159.4995079086119
 31
0.0
  0
LINE
  5
249C
330
2274
100
AcDbEntity
  8
SUNPOU
100
AcDbLine
 10
293.5932134649181
 20
138.9995079086119
 30
0.0
 11
293.5932134649181
 21
154.4995079086119
 31
0.0
  0
INSERT
  5
249D
330
2274
100
AcDbEntity
  8
SUNPOU
100
AcDbBlockReference
  2
_OPEN30
 10
293.5932134649181
 20
133.9995079086119
 30
0.0
 41
5.0
 42
5.0
 43
5.0
 50
270.0
  0
INSERT
  5
249E
330
2274
100
AcDbEntity
  8
SUNPOU
100
AcDbBlockReference
  2
_OPEN30
 10
293.5932134649181
 20
159.4995079086119
 30
0.0
 41
5.0
 42
5.0
 43
5.0
 50
90.0
  0
MTEXT
  5
249F
330
2274
100
AcDbEntity
  8
SUNPOU
 62
     6
100
AcDbMText
 10
289.093213464918
 20
146.7495079086119
 30
0.0
 40
5.0
 41
0.0
 71
     5
 72
     1
  1
\A1;25.5
  7
SUNPOU
 11
0.0000000000000001
 21
1.0
 31
0.0
1001
ACAD
1000
MTEXTBEGIN
1070
    73
1070
     1
1070
    44
1040
1.0
1070
    74
1070
     0
1000
MTEXTEND
1000
MTEXTBEGIN
1070
    73
1070
     1
1070
    44
1040
1.0
1070
    74
1070
     0
1000
MTEXTEND
  0
POINT
  5
24A0
330
2274
100
AcDbEntity
  8
DEFPOINTS
 62
     0
100
AcDbPoint
 10
253.6203866432336
 20
133.9995079086119
 30
0.0
  0
POINT
  5
24A1
330
2274
100
AcDbEntity
  8
DEFPOINTS
 62
     0
100
AcDbPoint
 10
249.1203866432336
 20
159.4995079086119
 30
0.0
  0
POINT
  5
24A2
330
2274
100
AcDbEntity
  8
DEFPOINTS
 62
     0
100
AcDbPoint
 10
293.5932134649181
 20
159.4995079086119
 30
0.0
  0
ENDBLK
  5
227F
330
2274
100
AcDbEntity
  8
0
100
AcDbBlockEnd
  0
BLOCK
  5
22B0
330
22A4
100
AcDbEntity
  8
0
100
AcDbBlockBegin
  2
*D19
 70
     1
 10
0.0
 20
0.0
 30
0.0
  3
*D19
  1

  0
LINE
  5
248F
330
22A4
100
AcDbEntity
  8
SUNPOU
100
AcDbLine
 10
303.9065296741922
 20
123.9995079086117
 30
0.0
 11
304.9065296741922
 21
123.9995079086117
 31
0.0
  0
LINE
  5
2490
330
22A4
100
AcDbEntity
  8
SUNPOU
100
AcDbLine
 10
256.6203866432337
 20
133.9995079086119
 30
0.0
 11
308.9065296741921
 21
133.9995079086119
 31
0.0
  0
LINE
  5
2491
330
22A4
100
AcDbEntity
  8
SUNPOU
100
AcDbLine
 10
306.9065296741921
 20
118.9995079086117
 30
0.0
 11
306.9065296741921
 21
113.9995079086117
 31
0.0
  0
LINE
  5
2492
330
22A4
100
AcDbEntity
  8
SUNPOU
100
AcDbLine
 10
306.9065296741921
 20
138.9995079086119
 30
0.0
 11
306.9065296741921
 21
143.9995079086119
 31
0.0
  0
LINE
  5
2493
330
22A4
100
AcDbEntity
  8
SUNPOU
100
AcDbLine
 10
306.9065296741921
 20
123.9995079086117
 30
0.0
 11
306.9065296741921
 21
133.9995079086119
 31
0.0
  0
INSERT
  5
2494
330
22A4
100
AcDbEntity
  8
SUNPOU
100
AcDbBlockReference
  2
_OPEN30
 10
306.9065296741921
 20
123.9995079086117
 30
0.0
 41
5.0
 42
5.0
 43
5.0
 50
90.0
  0
INSERT
  5
2495
330
22A4
100
AcDbEntity
  8
SUNPOU
100
AcDbBlockReference
  2
_OPEN30
 10
306.9065296741921
 20
133.9995079086119
 30
0.0
 41
5.0
 42
5.0
 43
5.0
 50
270.0
  0
MTEXT
  5
2496
330
22A4
100
AcDbEntity
  8
SUNPOU
 62
     6
100
AcDbMText
 10
302.4065296741921
 20
128.9995079086118
 30
0.0
 40
5.0
 41
0.0
 71
     5
 72
     1
  1
\A1;10
  7
SUNPOU
 11
0.0000000000000001
 21
1.0
 31
0.0
1001
ACAD
1000
MTEXTBEGIN
1070
    73
1070
     1
1070
    44
1040
1.0
1070
    74
1070
     0
1000
MTEXTEND
1000
MTEXTBEGIN
1070
    73
1070
     1
1070
    44
1040
1.0
1070
    74
1070
     0
1000
MTEXTEND
  0
POINT
  5
2497
330
22A4
100
AcDbEntity
  8
DEFPOINTS
 62
     0
100
AcDbPoint
 10
306.9065296741921
 20
123.9995079086117
 30
0.0
  0
POINT
  5
2498
330
22A4
100
AcDbEntity
  8
DEFPOINTS
 62
     0
100
AcDbPoint
 10
253.6203866432336
 20
133.9995079086119
 30
0.0
  0
POINT
  5
2499
330
22A4
100
AcDbEntity
  8
DEFPOINTS
 62
     0
100
AcDbPoint
 10
306.9065296741921
 20
133.9995079086119
 30
0.0
  0
ENDBLK
  5
22B1
330
22A4
100
AcDbEntity
  8
0
100
AcDbBlockEnd
  0
BLOCK
  5
22BD
330
22B3
100
AcDbEntity
  8
0
100
AcDbBlockBegin
  2
*D20
 70
     1
 10
0.0
 20
0.0
 30
0.0
  3
*D20
  1

  0
LINE
  5
2486
330
22B3
100
AcDbEntity
  8
SUNPOU
100
AcDbLine
 10
256.6203866432337
 20
133.9995079086119
 30
0.0
 11
308.9065296741923
 21
133.9995079086119
 31
0.0
  0
LINE
  5
2487
330
22B3
100
AcDbEntity
  8
SUNPOU
100
AcDbLine
 10
256.6203866432337
 20
354.9995079086115
 30
0.0
 11
308.9065296741923
 21
354.9995079086115
 31
0.0
  0
LINE
  5
2488
330
22B3
100
AcDbEntity
  8
SUNPOU
100
AcDbLine
 10
306.9065296741923
 20
138.9995079086119
 30
0.0
 11
306.9065296741923
 21
349.9995079086115
 31
0.0
  0
INSERT
  5
2489
330
22B3
100
AcDbEntity
  8
SUNPOU
100
AcDbBlockReference
  2
_OPEN30
 10
306.9065296741923
 20
133.9995079086119
 30
0.0
 41
5.0
 42
5.0
 43
5.0
 50
270.0
  0
INSERT
  5
248A
330
22B3
100
AcDbEntity
  8
SUNPOU
100
AcDbBlockReference
  2
_OPEN30
 10
306.9065296741923
 20
354.9995079086115
 30
0.0
 41
5.0
 42
5.0
 43
5.0
 50
90.0
  0
MTEXT
  5
248B
330
22B3
100
AcDbEntity
  8
SUNPOU
 62
     6
100
AcDbMText
 10
302.4065296741921
 20
244.4995079086118
 30
0.0
 40
5.0
 41
0.0
 71
     5
 72
     1
  1
\A1;DH
  7
SUNPOU
 11
0.0000000000000001
 21
1.0
 31
0.0
1001
ACAD
1000
MTEXTBEGIN
1070
    73
1070
     1
1070
    44
1040
1.0
1070
    74
1070
     0
1000
MTEXTEND
1000
MTEXTBEGIN
1070
    73
1070
     1
1070
    44
1040
1.0
1070
    74
1070
     0
1000
MTEXTEND
  0
POINT
  5
248C
330
22B3
100
AcDbEntity
  8
DEFPOINTS
 62
     0
100
AcDbPoint
 10
253.6203866432336
 20
133.9995079086119
 30
0.0
  0
POINT
  5
248D
330
22B3
100
AcDbEntity
  8
DEFPOINTS
 62
     0
100
AcDbPoint
 10
253.6203866432336
 20
354.9995079086115
 30
0.0
  0
POINT
  5
248E
330
22B3
100
AcDbEntity
  8
DEFPOINTS
 62
     0
100
AcDbPoint
 10
306.9065296741923
 20
354.9995079086115
 30
0.0
  0
ENDBLK
  5
22BE
330
22B3
100
AcDbEntity
  8
0
100
AcDbBlockEnd
  0
BLOCK
  5
22CC
330
22C0
100
AcDbEntity
  8
0
100
AcDbBlockBegin
  2
*D21
 70
     1
 10
0.0
 20
0.0
 30
0.0
  3
*D21
  1

  0
LINE
  5
247B
330
22C0
100
AcDbEntity
  8
SUNPOU
100
AcDbLine
 10
256.6203866432337
 20
354.9995079086115
 30
0.0
 11
308.9065296741923
 21
354.9995079086115
 31
0.0
  0
LINE
  5
247C
330
22C0
100
AcDbEntity
  8
SUNPOU
100
AcDbLine
 10
265.1203874061731
 20
357.9995079086117
 30
0.0
 11
308.9065296741923
 21
357.9995079086117
 31
0.0
  0
LINE
  5
247D
330
22C0
100
AcDbEntity
  8
SUNPOU
100
AcDbLine
 10
306.9065296741923
 20
349.9995079086115
 30
0.0
 11
306.9065296741923
 21
344.9995079086117
 31
0.0
  0
LINE
  5
247E
330
22C0
100
AcDbEntity
  8
SUNPOU
100
AcDbLine
 10
306.9065296741923
 20
362.9995079086115
 30
0.0
 11
306.9065296741923
 21
367.9995079086117
 31
0.0
  0
MTEXT
  5
247F
330
22C0
100
AcDbEntity
  8
SUNPOU
 62
     6
100
AcDbMText
 10
302.4465291965103
 20
365.4654021795863
 30
0.0
 40
5.0
 41
0.0
 71
     5
 72
     1
  1
\A1;3
  7
SUNPOU
 11
0.0000000000000001
 21
1.0
 31
0.0
1001
ACAD
1000
MTEXTBEGIN
1070
    73
1070
     1
1070
    44
1040
1.0
1070
    74
1070
     0
1000
MTEXTEND
1000
MTEXTBEGIN
1070
    73
1070
     1
1070
    44
1040
1.0
1070
    74
1070
     0
1000
MTEXTEND
  0
LINE
  5
2480
330
22C0
100
AcDbEntity
  8
SUNPOU
100
AcDbLine
 10
306.9065296741923
 20
354.9995079086115
 30
0.0
 11
306.9065296741923
 21
357.9995079086117
 31
0.0
  0
INSERT
  5
2481
330
22C0
100
AcDbEntity
  8
SUNPOU
100
AcDbBlockReference
  2
_OPEN30
 10
306.9065296741923
 20
354.9995079086115
 30
0.0
 41
5.0
 42
5.0
 43
5.0
 50
90.0
  0
INSERT
  5
2482
330
22C0
100
AcDbEntity
  8
SUNPOU
100
AcDbBlockReference
  2
_OPEN30
 10
306.9065296741923
 20
357.9995079086117
 30
0.0
 41
5.0
 42
5.0
 43
5.0
 50
270.0
  0
POINT
  5
2483
330
22C0
100
AcDbEntity
  8
DEFPOINTS
 62
     0
100
AcDbPoint
 10
253.6203866432336
 20
354.9995079086115
 30
0.0
  0
POINT
  5
2484
330
22C0
100
AcDbEntity
  8
DEFPOINTS
 62
     0
100
AcDbPoint
 10
262.120387406173
 20
357.9995079086117
 30
0.0
  0
POINT
  5
2485
330
22C0
100
AcDbEntity
  8
DEFPOINTS
 62
     0
100
AcDbPoint
 10
306.9065296741923
 20
357.9995079086117
 30
0.0
  0
ENDBLK
  5
22CD
330
22C0
100
AcDbEntity
  8
0
100
AcDbBlockEnd
  0
BLOCK
  5
22D9
330
22CF
100
AcDbEntity
  8
0
100
AcDbBlockBegin
  2
*D22
 70
     1
 10
0.0
 20
0.0
 30
0.0
  3
*D22
  1

  0
LINE
  5
2472
330
22CF
100
AcDbEntity
  8
SUNPOU
100
AcDbLine
 10
252.1203866432336
 20
329.4995079086116
 30
0.0
 11
295.5932134649181
 21
329.4995079086116
 31
0.0
  0
LINE
  5
2473
330
22CF
100
AcDbEntity
  8
SUNPOU
100
AcDbLine
 10
256.6203866432337
 20
354.9995079086115
 30
0.0
 11
295.5932134649181
 21
354.9995079086115
 31
0.0
  0
LINE
  5
2474
330
22CF
100
AcDbEntity
  8
SUNPOU
100
AcDbLine
 10
293.5932134649181
 20
334.4995079086117
 30
0.0
 11
293.5932134649181
 21
349.9995079086115
 31
0.0
  0
INSERT
  5
2475
330
22CF
100
AcDbEntity
  8
SUNPOU
100
AcDbBlockReference
  2
_OPEN30
 10
293.5932134649181
 20
329.4995079086116
 30
0.0
 41
5.0
 42
5.0
 43
5.0
 50
270.0
  0
INSERT
  5
2476
330
22CF
100
AcDbEntity
  8
SUNPOU
100
AcDbBlockReference
  2
_OPEN30
 10
293.5932134649181
 20
354.9995079086115
 30
0.0
 41
5.0
 42
5.0
 43
5.0
 50
90.0
  0
MTEXT
  5
2477
330
22CF
100
AcDbEntity
  8
SUNPOU
 62
     6
100
AcDbMText
 10
289.093213464918
 20
342.2495079086116
 30
0.0
 40
5.0
 41
0.0
 71
     5
 72
     1
  1
\A1;25.5
  7
SUNPOU
 11
0.0000000000000001
 21
1.0
 31
0.0
1001
ACAD
1000
MTEXTBEGIN
1070
    73
1070
     1
1070
    44
1040
1.0
1070
    74
1070
     0
1000
MTEXTEND
1000
MTEXTBEGIN
1070
    73
1070
     1
1070
    44
1040
1.0
1070
    74
1070
     0
1000
MTEXTEND
  0
POINT
  5
2478
330
22CF
100
AcDbEntity
  8
DEFPOINTS
 62
     0
100
AcDbPoint
 10
249.1203866432336
 20
329.4995079086116
 30
0.0
  0
POINT
  5
2479
330
22CF
100
AcDbEntity
  8
DEFPOINTS
 62
     0
100
AcDbPoint
 10
253.6203866432336
 20
354.9995079086115
 30
0.0
  0
POINT
  5
247A
330
22CF
100
AcDbEntity
  8
DEFPOINTS
 62
     0
100
AcDbPoint
 10
293.5932134649181
 20
354.9995079086115
 30
0.0
  0
ENDBLK
  5
22DA
330
22CF
100
AcDbEntity
  8
0
100
AcDbBlockEnd
  0
BLOCK
  5
2307
330
22FD
100
AcDbEntity
  8
0
100
AcDbBlockBegin
  2
*D23
 70
     1
 10
0.0
 20
0.0
 30
0.0
  3
*D23
  1

  0
LINE
  5
2469
330
22FD
100
AcDbEntity
  8
SUNPOU
100
AcDbLine
 10
322.2280654319316
 20
123.9995079086117
 30
0.0
 11
323.2280654319318
 21
123.9995079086117
 31
0.0
  0
LINE
  5
246A
330
22FD
100
AcDbEntity
  8
SUNPOU
100
AcDbLine
 10
265.1203874061731
 20
357.9995079086117
 30
0.0
 11
327.2280654319316
 21
357.9995079086117
 31
0.0
  0
LINE
  5
246B
330
22FD
100
AcDbEntity
  8
SUNPOU
100
AcDbLine
 10
325.2280654319316
 20
128.9995079086116
 30
0.0
 11
325.2280654319316
 21
352.9995079086115
 31
0.0
  0
INSERT
  5
246C
330
22FD
100
AcDbEntity
  8
SUNPOU
100
AcDbBlockReference
  2
_OPEN30
 10
325.2280654319316
 20
123.9995079086117
 30
0.0
 41
5.0
 42
5.0
 43
5.0
 50
270.0
  0
INSERT
  5
246D
330
22FD
100
AcDbEntity
  8
SUNPOU
100
AcDbBlockReference
  2
_OPEN30
 10
325.2280654319316
 20
357.9995079086117
 30
0.0
 41
5.0
 42
5.0
 43
5.0
 50
90.0
  0
MTEXT
  5
246E
330
22FD
100
AcDbEntity
  8
SUNPOU
 62
     6
100
AcDbMText
 10
320.7280654319315
 20
240.9995079086117
 30
0.0
 40
5.0
 41
0.0
 71
     5
 72
     1
  1
\A1;H
  7
SUNPOU
 11
0.0000000000000001
 21
1.0
 31
0.0
1001
ACAD
1000
MTEXTBEGIN
1070
    73
1070
     1
1070
    44
1040
1.0
1070
    74
1070
     0
1000
MTEXTEND
1000
MTEXTBEGIN
1070
    73
1070
     1
1070
    44
1040
1.0
1070
    74
1070
     0
1000
MTEXTEND
  0
POINT
  5
246F
330
22FD
100
AcDbEntity
  8
DEFPOINTS
 62
     0
100
AcDbPoint
 10
325.2280654319316
 20
123.9995079086117
 30
0.0
  0
POINT
  5
2470
330
22FD
100
AcDbEntity
  8
DEFPOINTS
 62
     0
100
AcDbPoint
 10
262.120387406173
 20
357.9995079086117
 30
0.0
  0
POINT
  5
2471
330
22FD
100
AcDbEntity
  8
DEFPOINTS
 62
     0
100
AcDbPoint
 10
325.2280654319316
 20
357.9995079086117
 30
0.0
  0
ENDBLK
  5
2308
330
22FD
100
AcDbEntity
  8
0
100
AcDbBlockEnd
  0
BLOCK
  5
2314
330
230A
100
AcDbEntity
  8
0
100
AcDbBlockBegin
  2
*D24
 70
     1
 10
0.0
 20
0.0
 30
0.0
  3
*D24
  1

  0
LINE
  5
2460
330
230A
100
AcDbEntity
  8
SUNPOU
100
AcDbLine
 10
265.1203874061731
 20
357.9995079086117
 30
0.0
 11
327.2280654319316
 21
357.9995079086117
 31
0.0
  0
LINE
  5
2461
330
230A
100
AcDbEntity
  8
SUNPOU
100
AcDbLine
 10
265.1203874061733
 20
527.9995079086115
 30
0.0
 11
327.2280654319319
 21
527.9995079086115
 31
0.0
  0
LINE
  5
2462
330
230A
100
AcDbEntity
  8
SUNPOU
100
AcDbLine
 10
325.2280654319316
 20
362.9995079086115
 30
0.0
 11
325.2280654319319
 21
522.9995079086116
 31
0.0
  0
INSERT
  5
2463
330
230A
100
AcDbEntity
  8
SUNPOU
100
AcDbBlockReference
  2
_OPEN30
 10
325.2280654319316
 20
357.9995079086117
 30
0.0
 41
5.0
 42
5.0
 43
5.0
 50
270.0
  0
INSERT
  5
2464
330
230A
100
AcDbEntity
  8
SUNPOU
100
AcDbBlockReference
  2
_OPEN30
 10
325.2280654319319
 20
527.9995079086115
 30
0.0
 41
5.0
 42
5.0
 43
5.0
 50
90.0
  0
MTEXT
  5
2465
330
230A
100
AcDbEntity
  8
SUNPOU
 62
     6
100
AcDbMText
 10
320.7280654319315
 20
442.9995079086117
 30
0.0
 40
5.0
 41
0.0
 71
     5
 72
     1
  1
\A1;170
  7
SUNPOU
 11
0.0000000000000001
 21
1.0
 31
0.0
1001
ACAD
1000
MTEXTBEGIN
1070
    73
1070
     1
1070
    44
1040
1.0
1070
    74
1070
     0
1000
MTEXTEND
1000
MTEXTBEGIN
1070
    73
1070
     1
1070
    44
1040
1.0
1070
    74
1070
     0
1000
MTEXTEND
  0
POINT
  5
2466
330
230A
100
AcDbEntity
  8
DEFPOINTS
 62
     0
100
AcDbPoint
 10
262.120387406173
 20
357.9995079086117
 30
0.0
  0
POINT
  5
2467
330
230A
100
AcDbEntity
  8
DEFPOINTS
 62
     0
100
AcDbPoint
 10
262.1203874061734
 20
527.9995079086115
 30
0.0
  0
POINT
  5
2468
330
230A
100
AcDbEntity
  8
DEFPOINTS
 62
     0
100
AcDbPoint
 10
325.2280654319319
 20
527.9995079086115
 30
0.0
  0
ENDBLK
  5
2315
330
230A
100
AcDbEntity
  8
0
100
AcDbBlockEnd
  0
BLOCK
  5
2331
330
2327
100
AcDbEntity
  8
0
100
AcDbBlockBegin
  2
*D25
 70
     1
 10
0.0
 20
0.0
 30
0.0
  3
*D25
  1

  0
LINE
  5
2457
330
2327
100
AcDbEntity
  8
SUNPOU
100
AcDbLine
 10
160.1203874061731
 20
357.9995079086117
 30
0.0
 11
137.6669730972016
 21
357.9995079086117
 31
0.0
  0
LINE
  5
2458
330
2327
100
AcDbEntity
  8
SUNPOU
100
AcDbLine
 10
165.620386621695
 20
375.1995079086118
 30
0.0
 11
137.6669730972016
 21
375.1995079086118
 31
0.0
  0
LINE
  5
2459
330
2327
100
AcDbEntity
  8
SUNPOU
100
AcDbLine
 10
139.6669730972016
 20
362.9995079086118
 30
0.0
 11
139.6669730972016
 21
370.1995079086119
 31
0.0
  0
INSERT
  5
245A
330
2327
100
AcDbEntity
  8
SUNPOU
100
AcDbBlockReference
  2
_OPEN30
 10
139.6669730972016
 20
357.9995079086117
 30
0.0
 41
5.0
 42
5.0
 43
5.0
 50
270.0
  0
INSERT
  5
245B
330
2327
100
AcDbEntity
  8
SUNPOU
100
AcDbBlockReference
  2
_OPEN30
 10
139.6669730972016
 20
375.1995079086118
 30
0.0
 41
5.0
 42
5.0
 43
5.0
 50
90.0
  0
MTEXT
  5
245C
330
2327
100
AcDbEntity
  8
SUNPOU
 62
     6
100
AcDbMText
 10
135.1669730972014
 20
366.5995079086119
 30
0.0
 40
5.0
 41
0.0
 71
     5
 72
     1
  1
\A1;17.2
  7
SUNPOU
 11
0.0000000000000001
 21
1.0
 31
0.0
1001
ACAD
1000
MTEXTBEGIN
1070
    73
1070
     1
1070
    44
1040
1.0
1070
    74
1070
     0
1000
MTEXTEND
1000
MTEXTBEGIN
1070
    73
1070
     1
1070
    44
1040
1.0
1070
    74
1070
     0
1000
MTEXTEND
  0
POINT
  5
245D
330
2327
100
AcDbEntity
  8
DEFPOINTS
 62
     0
100
AcDbPoint
 10
163.1203874061731
 20
357.9995079086117
 30
0.0
  0
POINT
  5
245E
330
2327
100
AcDbEntity
  8
DEFPOINTS
 62
     0
100
AcDbPoint
 10
168.6203866216949
 20
375.1995079086118
 30
0.0
  0
POINT
  5
245F
330
2327
100
AcDbEntity
  8
DEFPOINTS
 62
     0
100
AcDbPoint
 10
139.6669730972016
 20
375.1995079086118
 30
0.0
  0
ENDBLK
  5
2332
330
2327
100
AcDbEntity
  8
0
100
AcDbBlockEnd
  0
ENDSEC
  0
SECTION
  2
ENTITIES
  0
LINE
  5
2F8
330
A
100
AcDbEntity
  8
KAKURE
100
AcDbLine
 10
162.6203874061733
 20
98.99950790861179
 30
0.0
 11
162.6203874061733
 21
123.9995079086117
 31
0.0
  0
LINE
  5
2F9
330
A
100
AcDbEntity
  8
KAKURE
100
AcDbLine
 10
262.6203874061733
 20
123.9995079086117
 30
0.0
 11
262.6203874061733
 21
98.99950790861179
 31
0.0
  0
LINE
  5
2FA
330
A
100
AcDbEntity
  8
06
100
AcDbLine
 10
236.6203866432336
 20
264.9995079086114
 30
0.0
 11
236.6203866432336
 21
245.4995079086117
 31
0.0
  0
LINE
  5
2FB
330
A
100
AcDbEntity
  8
06
100
AcDbLine
 10
230.6203866432336
 20
264.9995079086114
 30
0.0
 11
230.6203866432336
 21
245.4995079086117
 31
0.0
  0
LINE
  5
2FC
330
A
100
AcDbEntity
  8
06
100
AcDbLine
 10
235.4203866432337
 20
264.9995079086114
 30
0.0
 11
235.4203866432337
 21
245.4995079086117
 31
0.0
  0
LINE
  5
2FD
330
A
100
AcDbEntity
  8
06
100
AcDbLine
 10
231.8203866432337
 20
264.9995079086114
 30
0.0
 11
231.8203866432337
 21
245.4995079086117
 31
0.0
  0
LINE
  5
2FE
330
A
100
AcDbEntity
  8
06
100
AcDbLine
 10
230.6203866432336
 20
264.9995079086114
 30
0.0
 11
236.6203866432336
 21
264.9995079086114
 31
0.0
  0
LINE
  5
2FF
330
A
100
AcDbEntity
  8
06
100
AcDbLine
 10
191.6203866432336
 20
264.9995079086114
 30
0.0
 11
191.6203866432336
 21
245.4995079086117
 31
0.0
  0
LINE
  5
300
330
A
100
AcDbEntity
  8
06
100
AcDbLine
 10
185.6203866432336
 20
264.9995079086114
 30
0.0
 11
185.6203866432336
 21
245.4995079086117
 31
0.0
  0
LINE
  5
301
330
A
100
AcDbEntity
  8
06
100
AcDbLine
 10
190.4203866432338
 20
264.9995079086114
 30
0.0
 11
190.4203866432338
 21
245.4995079086117
 31
0.0
  0
LINE
  5
302
330
A
100
AcDbEntity
  8
06
100
AcDbLine
 10
186.8203866432338
 20
264.9995079086114
 30
0.0
 11
186.8203866432338
 21
245.4995079086117
 31
0.0
  0
LINE
  5
303
330
A
100
AcDbEntity
  8
06
100
AcDbLine
 10
185.6203866432336
 20
264.9995079086114
 30
0.0
 11
191.6203866432336
 21
264.9995079086114
 31
0.0
  0
LINE
  5
304
330
A
100
AcDbEntity
  8
06
100
AcDbLine
 10
191.6203866432336
 20
223.9995079086119
 30
0.0
 11
191.6203866432336
 21
242.4995079086115
 31
0.0
  0
LINE
  5
305
330
A
100
AcDbEntity
  8
06
100
AcDbLine
 10
185.6203866432336
 20
223.9995079086119
 30
0.0
 11
185.6203866432336
 21
242.4995079086115
 31
0.0
  0
LINE
  5
306
330
A
100
AcDbEntity
  8
06
100
AcDbLine
 10
190.4203866432338
 20
223.9995079086119
 30
0.0
 11
190.4203866432338
 21
242.4995079086115
 31
0.0
  0
LINE
  5
307
330
A
100
AcDbEntity
  8
06
100
AcDbLine
 10
186.8203866432338
 20
223.9995079086119
 30
0.0
 11
186.8203866432338
 21
242.4995079086115
 31
0.0
  0
LINE
  5
308
330
A
100
AcDbEntity
  8
06
100
AcDbLine
 10
185.6203866432336
 20
223.9995079086119
 30
0.0
 11
191.6203866432336
 21
223.9995079086119
 31
0.0
  0
LINE
  5
309
330
A
100
AcDbEntity
  8
06
100
AcDbLine
 10
236.6203866432336
 20
223.9995079086119
 30
0.0
 11
236.6203866432336
 21
242.4995079086115
 31
0.0
  0
LINE
  5
30A
330
A
100
AcDbEntity
  8
06
100
AcDbLine
 10
230.6203866432336
 20
223.9995079086119
 30
0.0
 11
230.6203866432336
 21
242.4995079086115
 31
0.0
  0
LINE
  5
30B
330
A
100
AcDbEntity
  8
06
100
AcDbLine
 10
235.4203866432337
 20
223.9995079086119
 30
0.0
 11
235.4203866432337
 21
242.4995079086115
 31
0.0
  0
LINE
  5
30C
330
A
100
AcDbEntity
  8
06
100
AcDbLine
 10
231.8203866432337
 20
223.9995079086119
 30
0.0
 11
231.8203866432337
 21
242.4995079086115
 31
0.0
  0
LINE
  5
30D
330
A
100
AcDbEntity
  8
06
100
AcDbLine
 10
230.6203866432336
 20
223.9995079086119
 30
0.0
 11
236.6203866432336
 21
223.9995079086119
 31
0.0
  0
LINE
  5
330
330
A
100
AcDbEntity
  8
02
100
AcDbLine
 10
165.6203866432336
 20
378.1995079086119
 30
0.0
 11
165.6203866432336
 21
498.1995079086118
 31
0.0
  0
ARC
  5
331
330
A
100
AcDbEntity
  8
02
100
AcDbCircle
 10
167.6203866432335
 20
498.1995079086118
 30
0.0
 40
2.0
100
AcDbArc
 50
89.99999979432001
 51
179.9999996914799
  0
LINE
  5
332
330
A
100
AcDbEntity
  8
02
100
AcDbLine
 10
167.6203866432335
 20
500.1995079086118
 30
0.0
 11
197.6203866432336
 21
500.1995079086118
 31
0.0
  0
LINE
  5
333
330
A
100
AcDbEntity
  8
02
100
AcDbLine
 10
197.6203866432336
 20
500.1995079086118
 30
0.0
 11
197.6203866432336
 21
498.1995079086118
 31
0.0
  0
LINE
  5
334
330
A
100
AcDbEntity
  8
02
100
AcDbLine
 10
197.6203866432336
 20
498.1995079086118
 30
0.0
 11
175.8203866432338
 21
498.1995079086118
 31
0.0
  0
LINE
  5
335
330
A
100
AcDbEntity
  8
02
100
AcDbLine
 10
175.8203866432338
 20
498.1995079086118
 30
0.0
 11
175.8203866432338
 21
496.1995079086118
 31
0.0
  0
LINE
  5
336
330
A
100
AcDbEntity
  8
02
100
AcDbLine
 10
175.8203866432338
 20
496.1995079086118
 30
0.0
 11
173.8203866432336
 21
496.1995079086118
 31
0.0
  0
LINE
  5
337
330
A
100
AcDbEntity
  8
02
100
AcDbLine
 10
173.8203866432336
 20
496.1995079086118
 30
0.0
 11
173.8203866432336
 21
498.1995079086118
 31
0.0
  0
LINE
  5
338
330
A
100
AcDbEntity
  8
02
100
AcDbLine
 10
173.8203866432336
 20
498.1995079086118
 30
0.0
 11
169.6203866432336
 21
498.1995079086118
 31
0.0
  0
LINE
  5
339
330
A
100
AcDbEntity
  8
02
100
AcDbLine
 10
169.6203866432336
 20
498.1995079086118
 30
0.0
 11
169.6203866432336
 21
421.1995079086118
 31
0.0
  0
LINE
  5
33A
330
A
100
AcDbEntity
  8
02
100
AcDbLine
 10
169.6203866432336
 20
421.1995079086118
 30
0.0
 11
173.8203866432336
 21
421.1995079086118
 31
0.0
  0
LINE
  5
33B
330
A
100
AcDbEntity
  8
02
100
AcDbLine
 10
173.8203866432336
 20
421.1995079086118
 30
0.0
 11
173.8203866432336
 21
423.1995079086119
 31
0.0
  0
LINE
  5
33C
330
A
100
AcDbEntity
  8
02
100
AcDbLine
 10
173.8203866432336
 20
423.1995079086119
 30
0.0
 11
175.8203866432338
 21
423.1995079086119
 31
0.0
  0
LINE
  5
33D
330
A
100
AcDbEntity
  8
02
100
AcDbLine
 10
175.8203866432338
 20
423.1995079086119
 30
0.0
 11
175.8203866432338
 21
421.1995079086118
 31
0.0
  0
LINE
  5
33E
330
A
100
AcDbEntity
  8
02
100
AcDbLine
 10
168.6203866432335
 20
375.1995079086118
 30
0.0
 11
203.6203866432336
 21
375.1995079086118
 31
0.0
  0
ARC
  5
33F
330
A
100
AcDbEntity
  8
02
100
AcDbCircle
 10
203.6203866432336
 20
376.1995079086119
 30
0.0
 40
1.0
100
AcDbArc
 50
270.0
 51
359.9999998971599
  0
ARC
  5
340
330
A
100
AcDbEntity
  8
02
100
AcDbCircle
 10
168.6203866432335
 20
378.1995079086119
 30
0.0
 40
3.0
100
AcDbArc
 50
179.9999996914799
 51
269.99999958864
  0
LINE
  5
341
330
A
100
AcDbEntity
  8
02
100
AcDbLine
 10
204.6203866432336
 20
380.2395079086119
 30
0.0
 11
204.6203866432336
 21
376.1995079086119
 31
0.0
  0
LINE
  5
342
330
A
100
AcDbEntity
  8
02
100
AcDbLine
 10
194.6203866432336
 20
380.2395079086119
 30
0.0
 11
194.6203866432336
 21
379.4995079086119
 31
0.0
  0
LINE
  5
343
330
A
100
AcDbEntity
  8
02
100
AcDbLine
 10
194.3203866432338
 20
379.1995079086118
 30
0.0
 11
175.6203866432336
 21
379.1995079086118
 31
0.0
  0
ARC
  5
344
330
A
100
AcDbEntity
  8
02
100
AcDbCircle
 10
194.3203866432338
 20
379.4995079086119
 30
0.0
 40
0.3
100
AcDbArc
 50
270.0
 51
359.9999998971599
  0
ARC
  5
345
330
A
100
AcDbEntity
  8
02
100
AcDbCircle
 10
175.6203866432336
 20
384.1995079086119
 30
0.0
 40
5.0
100
AcDbArc
 50
179.9999996914799
 51
269.99999958864
  0
LINE
  5
346
330
A
100
AcDbEntity
  8
02
100
AcDbLine
 10
170.6203866432336
 20
384.1995079086119
 30
0.0
 11
170.6203866432336
 21
387.6229086240173
 31
0.0
  0
LINE
  5
347
330
A
100
AcDbEntity
  8
02
100
AcDbLine
 10
170.6203866432336
 20
397.3485872744298
 30
0.0
 11
170.6203866432336
 21
412.1995079086119
 31
0.0
  0
ARC
  5
348
330
A
100
AcDbEntity
  8
02
100
AcDbCircle
 10
171.6203866432335
 20
412.1995079086119
 30
0.0
 40
1.0
100
AcDbArc
 50
89.99999979432001
 51
179.9999996914799
  0
LINE
  5
349
330
A
100
AcDbEntity
  8
02
100
AcDbLine
 10
207.1203866432336
 20
421.1995079086118
 30
0.0
 11
182.7403866432335
 21
421.1995079086118
 31
0.0
  0
LINE
  5
34A
330
A
100
AcDbEntity
  8
02
100
AcDbLine
 10
207.1203866432336
 20
421.1995079086118
 30
0.0
 11
207.1203866432336
 21
416.6995079086118
 31
0.0
  0
LINE
  5
34B
330
A
100
AcDbEntity
  8
02
100
AcDbLine
 10
207.1203866432336
 20
416.6995079086118
 30
0.0
 11
204.6203866432336
 21
416.6995079086118
 31
0.0
  0
LINE
  5
34C
330
A
100
AcDbEntity
  8
02
100
AcDbLine
 10
204.6203866432336
 20
416.6995079086118
 30
0.0
 11
204.6203866432336
 21
418.1995079086119
 31
0.0
  0
LINE
  5
34D
330
A
100
AcDbEntity
  8
02
100
AcDbLine
 10
204.6203866432336
 20
418.1995079086119
 30
0.0
 11
187.1203866432336
 21
418.1995079086119
 31
0.0
  0
LINE
  5
34E
330
A
100
AcDbEntity
  8
02
100
AcDbLine
 10
187.1203866432336
 20
418.1995079086119
 30
0.0
 11
187.1203866432336
 21
415.1995079086119
 31
0.0
  0
ARC
  5
34F
330
A
100
AcDbEntity
  8
02
100
AcDbCircle
 10
185.1203866432336
 20
415.1995079086119
 30
0.0
 40
2.0
100
AcDbArc
 50
270.0
 51
359.9999998971599
  0
LINE
  5
350
330
A
100
AcDbEntity
  8
02
100
AcDbLine
 10
171.6203866432335
 20
413.1995079086118
 30
0.0
 11
185.1203866432336
 21
413.1995079086118
 31
0.0
  0
LINE
  5
351
330
A
100
AcDbEntity
  8
02
100
AcDbLine
 10
182.7403866432335
 20
421.1995079086118
 30
0.0
 11
182.7403866432335
 21
419.6995079086119
 31
0.0
  0
LINE
  5
352
330
A
100
AcDbEntity
  8
02
100
AcDbLine
 10
182.7403866432335
 20
419.6995079086119
 30
0.0
 11
184.2403866432335
 21
419.6995079086119
 31
0.0
  0
LINE
  5
353
330
A
100
AcDbEntity
  8
02
100
AcDbLine
 10
184.2403866432335
 20
419.6995079086119
 30
0.0
 11
184.2403866432335
 21
416.1995079086119
 31
0.0
  0
LINE
  5
354
330
A
100
AcDbEntity
  8
02
100
AcDbLine
 10
184.2403866432335
 20
416.1995079086119
 30
0.0
 11
177.0403866432338
 21
416.1995079086119
 31
0.0
  0
LINE
  5
355
330
A
100
AcDbEntity
  8
02
100
AcDbLine
 10
177.0403866432338
 20
416.1995079086119
 30
0.0
 11
177.0403866432338
 21
419.6995079086119
 31
0.0
  0
LINE
  5
356
330
A
100
AcDbEntity
  8
02
100
AcDbLine
 10
177.0403866432338
 20
419.6995079086119
 30
0.0
 11
178.5403866432336
 21
419.6995079086119
 31
0.0
  0
LINE
  5
357
330
A
100
AcDbEntity
  8
02
100
AcDbLine
 10
178.5403866432336
 20
419.6995079086119
 30
0.0
 11
178.5403866432336
 21
421.1995079086118
 31
0.0
  0
LINE
  5
358
330
A
100
AcDbEntity
  8
02
100
AcDbLine
 10
178.5403866432336
 20
421.1995079086118
 30
0.0
 11
175.8203866432338
 21
421.1995079086118
 31
0.0
  0
ARC
  5
359
330
A
100
AcDbEntity
  8
02
100
AcDbCircle
 10
199.6203866432336
 20
377.4995079086119
 30
0.0
 40
5.7
100
AcDbArc
 50
28.7222220865623
 51
151.2777775020776
  0
LINE
  5
35A
330
A
100
AcDbEntity
  8
04
100
AcDbLine
 10
192.1203866432336
 20
414.1995079086119
 30
0.0
 11
192.1203866432336
 21
380.1995079086119
 31
0.0
  0
LINE
  5
35B
330
A
100
AcDbEntity
  8
04
100
AcDbLine
 10
192.1203866432336
 20
380.1995079086119
 30
0.0
 11
194.4203866432338
 21
380.1995079086119
 31
0.0
  0
LINE
  5
35C
330
A
100
AcDbEntity
  8
04
100
AcDbLine
 10
204.8203866432336
 20
380.1995079086119
 30
0.0
 11
207.1203866432336
 21
380.1995079086119
 31
0.0
  0
LINE
  5
35D
330
A
100
AcDbEntity
  8
04
100
AcDbLine
 10
207.1203866432336
 20
380.1995079086119
 30
0.0
 11
207.1203866432336
 21
414.1995079086119
 31
0.0
  0
LINE
  5
35E
330
A
100
AcDbEntity
  8
04
100
AcDbLine
 10
207.1203866432336
 20
414.1995079086119
 30
0.0
 11
204.8203866432336
 21
414.1995079086119
 31
0.0
  0
LINE
  5
35F
330
A
100
AcDbEntity
  8
04
100
AcDbLine
 10
194.4203866432338
 20
414.1995079086119
 30
0.0
 11
192.1203866432336
 21
414.1995079086119
 31
0.0
  0
ARC
  5
360
330
A
100
AcDbEntity
  8
04
100
AcDbCircle
 10
199.6203866432336
 20
417.1995079086118
 30
0.0
 40
6.0
100
AcDbArc
 50
209.977777435003
 51
330.0222221536368
  0
ARC
  5
361
330
A
100
AcDbEntity
  8
04
100
AcDbCircle
 10
199.6203866432336
 20
377.1995079086118
 30
0.0
 40
6.0
100
AcDbArc
 50
29.97777764068318
 51
150.0222219479566
  0
LINE
  5
364
330
A
100
AcDbEntity
  8
04
100
AcDbLine
 10
213.6203866432336
 20
409.1995079086118
 30
0.0
 11
213.6203866432336
 21
383.1995079086119
 31
0.0
  0
ARC
  5
365
330
A
100
AcDbEntity
  8
04
100
AcDbCircle
 10
217.6203866432336
 20
409.1995079086118
 30
0.0
 40
4.0
100
AcDbArc
 50
89.99999999999978
 51
179.9999999999995
  0
LINE
  5
366
330
A
100
AcDbEntity
  8
04
100
AcDbLine
 10
213.6203866432336
 20
387.1995079086119
 30
0.0
 11
208.6203866432336
 21
387.1995079086119
 31
0.0
  0
LINE
  5
367
330
A
100
AcDbEntity
  8
04
100
AcDbLine
 10
208.6203866432336
 20
387.1995079086119
 30
0.0
 11
208.6203866432336
 21
407.1995079086119
 31
0.0
  0
LINE
  5
368
330
A
100
AcDbEntity
  8
04
100
AcDbLine
 10
208.6203866432336
 20
407.1995079086119
 30
0.0
 11
213.6203866432336
 21
407.1995079086119
 31
0.0
  0
LINE
  5
369
330
A
100
AcDbEntity
  8
04
100
AcDbLine
 10
208.6203866432336
 20
403.1995079086119
 30
0.0
 11
207.1203866432336
 21
403.1995079086119
 31
0.0
  0
LINE
  5
36A
330
A
100
AcDbEntity
  8
04
100
AcDbLine
 10
207.1203866432336
 20
391.0795079086119
 30
0.0
 11
208.6203866432336
 21
391.0795079086119
 31
0.0
  0
LINE
  5
36B
330
A
100
AcDbEntity
  8
04
100
AcDbLine
 10
187.1203866432336
 20
400.1995079086118
 30
0.0
 11
187.1203866432336
 21
394.1995079086119
 31
0.0
  0
LINE
  5
36C
330
A
100
AcDbEntity
  8
04
100
AcDbLine
 10
187.1203866432336
 20
394.1995079086119
 30
0.0
 11
192.1203866432336
 21
394.1995079086119
 31
0.0
  0
LINE
  5
36D
330
A
100
AcDbEntity
  8
04
100
AcDbLine
 10
187.1203866432336
 20
400.1995079086118
 30
0.0
 11
192.1203866432336
 21
400.1995079086118
 31
0.0
  0
LINE
  5
36E
330
A
100
AcDbEntity
  8
04
100
AcDbLine
 10
217.6203866432336
 20
413.1995079086118
 30
0.0
 11
250.6203866432336
 21
413.1995079086118
 31
0.0
  0
LINE
  5
36F
330
A
100
AcDbEntity
  8
04
100
AcDbLine
 10
250.6203866432336
 20
413.1995079086118
 30
0.0
 11
250.6203866432336
 21
409.1995079086118
 31
0.0
  0
LINE
  5
370
330
A
100
AcDbEntity
  8
04
100
AcDbLine
 10
250.6203866432336
 20
409.1995079086118
 30
0.0
 11
217.6203866432336
 21
409.1995079086118
 31
0.0
  0
LINE
  5
371
330
A
100
AcDbEntity
  8
04
100
AcDbLine
 10
217.6203866432336
 20
409.1995079086118
 30
0.0
 11
217.6203866432336
 21
383.1995079086119
 31
0.0
  0
LINE
  5
372
330
A
100
AcDbEntity
  8
04
100
AcDbLine
 10
217.6203866432336
 20
383.1995079086119
 30
0.0
 11
213.6203866432336
 21
383.1995079086119
 31
0.0
  0
LINE
  5
373
330
A
100
AcDbEntity
  8
03
100
AcDbLine
 10
189.1203866432338
 20
506.9995079086115
 30
0.0
 11
189.1203866432338
 21
507.9785322343608
 31
0.0
  0
ARC
  5
374
330
A
100
AcDbEntity
  8
03
100
AcDbCircle
 10
187.8203866432339
 20
507.9785322343608
 30
0.0
 40
1.299999999999998
100
AcDbArc
 50
359.9999999999998
 51
73.39845040097966
  0
ARC
  5
375
330
A
100
AcDbEntity
  8
03
100
AcDbCircle
 10
185.6203866432339
 20
500.5995079086115
 30
0.0
 40
9.0
100
AcDbArc
 50
73.39845040097967
 51
106.6015495990201
  0
ARC
  5
376
330
A
100
AcDbEntity
  8
03
100
AcDbCircle
 10
183.4203866432341
 20
507.9785322343608
 30
0.0
 40
1.299999999999998
100
AcDbArc
 50
106.6015495990201
 51
179.9999999999998
  0
LINE
  5
377
330
A
100
AcDbEntity
  8
03
100
AcDbLine
 10
182.1203866432341
 20
507.9785322343608
 30
0.0
 11
182.1203866432341
 21
506.9995079086118
 31
0.0
  0
LINE
  5
378
330
A
100
AcDbEntity
  8
03
100
AcDbLine
 10
187.6203866432341
 20
504.7995071456723
 30
0.0
 11
187.6203866432333
 21
500.1995079086118
 31
0.0
  0
LINE
  5
379
330
A
100
AcDbEntity
  8
03
100
AcDbLine
 10
187.6203866432341
 20
498.1995079086118
 30
0.0
 11
187.6203866432343
 21
494.9995079086115
 31
0.0
  0
LINE
  5
37A
330
A
100
AcDbEntity
  8
03
100
AcDbLine
 10
183.6203866432349
 20
500.1995079086118
 30
0.0
 11
183.6203866432343
 21
504.7995071456723
 31
0.0
  0
LINE
  5
37B
330
A
100
AcDbEntity
  8
03
100
AcDbLine
 10
187.6203866432341
 20
494.9995079086115
 30
0.0
 11
185.1203866432336
 21
494.9995079086115
 31
0.0
  0
LINE
  5
37C
330
A
100
AcDbEntity
  8
03
100
AcDbLine
 10
182.1203866432336
 20
372.9995079086119
 30
0.0
 11
182.1203866432336
 21
372.0204835828623
 31
0.0
  0
ARC
  5
37D
330
A
100
AcDbEntity
  8
03
100
AcDbCircle
 10
183.4203866432336
 20
372.0204835828623
 30
0.0
 40
1.299999999999998
100
AcDbArc
 50
179.9999999999995
 51
253.3984504009795
  0
ARC
  5
37E
330
A
100
AcDbEntity
  8
03
100
AcDbCircle
 10
185.6203866432336
 20
379.3995079086119
 30
0.0
 40
9.0
100
AcDbArc
 50
253.3984504009795
 51
286.6015495990203
  0
ARC
  5
37F
330
A
100
AcDbEntity
  8
03
100
AcDbCircle
 10
187.8203866432338
 20
372.0204835828623
 30
0.0
 40
1.299999999999998
100
AcDbArc
 50
286.6015495990203
 51
0.0000000000000799
  0
LINE
  5
380
330
A
100
AcDbEntity
  8
03
100
AcDbLine
 10
189.1203866432336
 20
372.0204835828623
 30
0.0
 11
189.1203866432336
 21
372.9995079086118
 31
0.0
  0
LINE
  5
381
330
A
100
AcDbEntity
  8
02
100
AcDbLine
 10
183.6203866432336
 20
379.1995079086118
 30
0.0
 11
183.6203866432336
 21
384.9995079086119
 31
0.0
  0
LINE
  5
382
330
A
100
AcDbEntity
  8
02
100
AcDbLine
 10
187.6203866432336
 20
384.9995079086117
 30
0.0
 11
187.6203866432336
 21
379.1995079086118
 31
0.0
  0
LINE
  5
383
330
A
100
AcDbEntity
  8
02
100
AcDbLine
 10
187.6203866432336
 20
384.9995079086117
 30
0.0
 11
183.6203866432336
 21
384.9995079086119
 31
0.0
  0
LINE
  5
384
330
A
100
AcDbEntity
  8
CHUSIN
100
AcDbLine
 10
179.6203866432336
 20
397.1995079086119
 30
0.0
 11
238.8803866432336
 21
397.1995079086119
 31
0.0
  0
LINE
  5
385
330
A
100
AcDbEntity
  8
CHUSIN
100
AcDbLine
 10
199.6203866432336
 20
417.3795079086119
 30
0.0
 11
199.6203866432336
 21
377.3795079086119
 31
0.0
  0
LINE
  5
386
330
A
100
AcDbEntity
  8
CHUSIN
100
AcDbLine
 10
185.6203866432336
 20
512.8774470363572
 30
0.0
 11
185.6203866432336
 21
488.9800553195255
 31
0.0
  0
LINE
  5
387
330
A
100
AcDbEntity
  8
CHUSIN
100
AcDbLine
 10
185.6203866432336
 20
365.3215687808664
 30
0.0
 11
185.6203866432336
 21
389.4189604976982
 31
0.0
  0
LINE
  5
388
330
A
100
AcDbEntity
  8
SAISEN
100
AcDbLine
 10
274.4703874061729
 20
245.4995079086117
 30
0.0
 11
154.270387406173
 21
245.4995079086117
 31
0.0
  0
LINE
  5
389
330
A
100
AcDbEntity
  8
SAISEN
100
AcDbLine
 10
154.270387406173
 20
242.4995079086115
 30
0.0
 11
274.4703874061729
 21
242.4995079086115
 31
0.0
  0
LINE
  5
390
330
A
100
AcDbEntity
  8
SAISEN
100
AcDbLine
 10
154.270387406173
 20
537.9995079086118
 30
0.0
 11
274.4703874061729
 21
537.9995079086118
 31
0.0
  0
LINE
  5
391
330
A
100
AcDbEntity
  8
SAISEN
100
AcDbLine
 10
274.4703874061729
 20
540.9995079086118
 30
0.0
 11
154.270387406173
 21
540.9995079086118
 31
0.0
  0
LINE
  5
392
330
A
100
AcDbEntity
  8
KAKURE
100
AcDbLine
 10
187.6203866432339
 20
500.1995079086118
 30
0.0
 11
187.6203866432341
 21
498.1995079086118
 31
0.0
  0
LINE
  5
393
330
A
100
AcDbEntity
  8
KAKURE
100
AcDbLine
 10
187.6203866432341
 20
506.9995079086115
 30
0.0
 11
187.6203866432346
 21
504.7995071456723
 31
0.0
  0
LINE
  5
395
330
A
100
AcDbEntity
  8
KAKURE
100
AcDbLine
 10
185.1203866432336
 20
494.9995079086115
 30
0.0
 11
183.6203866432341
 21
494.9995079086118
 31
0.0
  0
LINE
  5
396
330
A
100
AcDbEntity
  8
KAKURE
100
AcDbLine
 10
183.6203866432336
 20
372.9995079086119
 30
0.0
 11
183.6203866432336
 21
379.1995079086118
 31
0.0
  0
LINE
  5
399
330
A
100
AcDbEntity
  8
KAKURE
100
AcDbLine
 10
187.6203866432336
 20
372.9995079086118
 30
0.0
 11
187.6203866432336
 21
379.1995079086118
 31
0.0
  0
LINE
  5
39E
330
A
100
AcDbEntity
  8
KAKURE
100
AcDbLine
 10
183.6203866432346
 20
500.1995079086118
 30
0.0
 11
183.6203866432346
 21
498.1995079086118
 31
0.0
  0
LINE
  5
39F
330
A
100
AcDbEntity
  8
KAKURE
100
AcDbLine
 10
183.6203866432351
 20
497.4595079086117
 30
0.0
 11
183.620386643235
 21
494.9995079086115
 31
0.0
  0
LINE
  5
3A0
330
A
100
AcDbEntity
  8
KAKURE
100
AcDbLine
 10
183.6203866432351
 20
506.9995079086115
 30
0.0
 11
183.6203866432351
 21
504.7995071456723
 31
0.0
  0
LINE
  5
3A1
330
A
100
AcDbEntity
  8
CHUSIN
100
AcDbLine
 10
233.6203866432336
 20
84.11950790861164
 30
0.0
 11
233.6203866432336
 21
437.6995079086118
 31
0.0
  0
LINE
  5
3A2
330
A
100
AcDbEntity
  8
CHUSIN
100
AcDbLine
 10
153.5603866432338
 20
459.6995079086118
 30
0.0
 11
266.3003866432338
 21
459.6995079086118
 31
0.0
  0
LINE
  5
3A3
330
A
100
AcDbEntity
  8
CHUSIN
100
AcDbLine
 10
243.1203866432336
 20
499.6995079086118
 30
0.0
 11
243.1203866432336
 21
419.6995079086119
 31
0.0
  0
LINE
  5
3E0
330
A
100
AcDbEntity
  8
CHUSIN
100
AcDbLine
 10
188.6203866432336
 20
385.0595079086117
 30
0.0
 11
188.6203866432336
 21
84.11950790861174
 31
0.0
  0
LINE
  5
413
330
A
100
AcDbEntity
  8
KAKURE
100
AcDbLine
 10
247.6203866432336
 20
367.9995079086119
 30
0.0
 11
219.6203866432336
 21
367.9995079086119
 31
0.0
  0
LINE
  5
414
330
A
100
AcDbEntity
  8
KAKURE
100
AcDbLine
 10
204.6203866432336
 20
118.9995079086116
 30
0.0
 11
172.6203866432336
 21
118.9995079086116
 31
0.0
  0
LINE
  5
415
330
A
100
AcDbEntity
  8
KAKURE
100
AcDbLine
 10
201.1203866432336
 20
114.7995079086115
 30
0.0
 11
176.1203866432336
 21
114.7995079086115
 31
0.0
  0
LINE
  5
416
330
A
100
AcDbEntity
  8
KAKURE
100
AcDbLine
 10
200.7203866432336
 20
153.4995079086115
 30
0.0
 11
200.7203866432336
 21
154.4995079086115
 31
0.0
  0
LINE
  5
417
330
A
100
AcDbEntity
  8
KAKURE
100
AcDbLine
 10
200.7203866432336
 20
154.4995079086115
 30
0.0
 11
192.5203866432336
 21
154.4995079086115
 31
0.0
  0
LINE
  5
418
330
A
100
AcDbEntity
  8
KAKURE
100
AcDbLine
 10
192.5203866432336
 20
154.4995079086115
 30
0.0
 11
192.5203866432336
 21
153.4995079086115
 31
0.0
  0
LINE
  5
419
330
A
100
AcDbEntity
  8
KAKURE
100
AcDbLine
 10
200.7203866432336
 20
154.4995079086115
 30
0.0
 11
199.1203866432336
 21
156.0995079086116
 31
0.0
  0
LINE
  5
41A
330
A
100
AcDbEntity
  8
KAKURE
100
AcDbLine
 10
192.5203866432336
 20
154.4995079086115
 30
0.0
 11
194.1203866432336
 21
156.0995079086116
 31
0.0
  0
LINE
  5
41B
330
A
100
AcDbEntity
  8
KAKURE
100
AcDbLine
 10
199.1203866432336
 20
156.0995079086116
 30
0.0
 11
199.1203866432336
 21
165.4995079086118
 31
0.0
  0
LINE
  5
41C
330
A
100
AcDbEntity
  8
KAKURE
100
AcDbLine
 10
194.1203866432336
 20
156.0995079086116
 30
0.0
 11
194.1203866432336
 21
165.4995079086118
 31
0.0
  0
LINE
  5
41F
330
A
100
AcDbEntity
  8
KAKURE
100
AcDbLine
 10
199.1203866432336
 20
156.0995079086116
 30
0.0
 11
194.1203866432336
 21
156.0995079086116
 31
0.0
  0
LINE
  5
420
330
A
100
AcDbEntity
  8
KAKURE
100
AcDbLine
 10
244.1203866432336
 20
150.9995079086119
 30
0.0
 11
244.1203866432336
 21
165.4995079086119
 31
0.0
  0
LINE
  5
421
330
A
100
AcDbEntity
  8
KAKURE
100
AcDbLine
 10
239.1203866432336
 20
150.9995079086119
 30
0.0
 11
239.1203866432336
 21
165.4995079086119
 31
0.0
  0
LINE
  5
424
330
A
100
AcDbEntity
  8
KAKURE
100
AcDbLine
 10
244.1203866432336
 20
150.9995079086119
 30
0.0
 11
239.1203866432336
 21
150.9995079086119
 31
0.0
  0
LINE
  5
425
330
A
100
AcDbEntity
  8
KAKURE
100
AcDbLine
 10
228.1203866432336
 20
150.9995079086119
 30
0.0
 11
228.1203866432336
 21
165.4995079086119
 31
0.0
  0
LINE
  5
426
330
A
100
AcDbEntity
  8
KAKURE
100
AcDbLine
 10
223.1203866432336
 20
150.9995079086119
 30
0.0
 11
223.1203866432336
 21
165.4995079086119
 31
0.0
  0
LINE
  5
429
330
A
100
AcDbEntity
  8
KAKURE
100
AcDbLine
 10
228.1203866432336
 20
150.9995079086119
 30
0.0
 11
223.1203866432336
 21
150.9995079086119
 31
0.0
  0
LINE
  5
42A
330
A
100
AcDbEntity
  8
KAKURE
100
AcDbLine
 10
184.7203866432336
 20
153.4995079086115
 30
0.0
 11
184.7203866432336
 21
154.4995079086115
 31
0.0
  0
LINE
  5
42B
330
A
100
AcDbEntity
  8
KAKURE
100
AcDbLine
 10
184.7203866432336
 20
154.4995079086115
 30
0.0
 11
176.5203866432336
 21
154.4995079086115
 31
0.0
  0
LINE
  5
42C
330
A
100
AcDbEntity
  8
KAKURE
100
AcDbLine
 10
176.5203866432336
 20
154.4995079086115
 30
0.0
 11
176.5203866432336
 21
153.4995079086115
 31
0.0
  0
LINE
  5
42D
330
A
100
AcDbEntity
  8
KAKURE
100
AcDbLine
 10
184.7203866432336
 20
154.4995079086115
 30
0.0
 11
183.1203866432336
 21
156.0995079086116
 31
0.0
  0
LINE
  5
42E
330
A
100
AcDbEntity
  8
KAKURE
100
AcDbLine
 10
176.5203866432336
 20
154.4995079086115
 30
0.0
 11
178.1203866432336
 21
156.0995079086116
 31
0.0
  0
LINE
  5
42F
330
A
100
AcDbEntity
  8
KAKURE
100
AcDbLine
 10
183.1203866432336
 20
156.0995079086116
 30
0.0
 11
183.1203866432336
 21
165.4995079086118
 31
0.0
  0
LINE
  5
430
330
A
100
AcDbEntity
  8
KAKURE
100
AcDbLine
 10
178.1203866432336
 20
156.0995079086116
 30
0.0
 11
178.1203866432336
 21
165.4995079086118
 31
0.0
  0
LINE
  5
433
330
A
100
AcDbEntity
  8
KAKURE
100
AcDbLine
 10
183.1203866432336
 20
156.0995079086116
 30
0.0
 11
178.1203866432336
 21
156.0995079086116
 31
0.0
  0
LINE
  5
4E0
330
A
100
AcDbEntity
  8
04
100
AcDbLine
 10
247.6203866432336
 20
354.9995079086119
 30
0.0
 11
247.6203866432336
 21
358.9995079086119
 31
0.0
  0
LINE
  5
4E1
330
A
100
AcDbEntity
  8
04
100
AcDbLine
 10
247.6203866432336
 20
358.9995079086119
 30
0.0
 11
219.6203866432336
 21
358.9995079086119
 31
0.0
  0
LINE
  5
4E2
330
A
100
AcDbEntity
  8
04
100
AcDbLine
 10
219.6203866432336
 20
358.9995079086119
 30
0.0
 11
219.6203866432336
 21
354.9995079086119
 31
0.0
  0
LINE
  5
4E3
330
A
100
AcDbEntity
  8
04
100
AcDbLine
 10
249.6203866432336
 20
386.9995079086119
 30
0.0
 11
217.6203866432336
 21
386.9995079086119
 31
0.0
  0
LINE
  5
4E4
330
A
100
AcDbEntity
  8
03
100
AcDbLine
 10
347.8851901336814
 20
123.9995079086117
 30
0.0
 11
259.1203866432337
 21
123.9995079086116
 31
0.0
  0
LINE
  5
4E5
330
A
100
AcDbEntity
  8
03
100
AcDbLine
 10
214.1203866432336
 20
123.9995079086116
 30
0.0
 11
111.2303874061731
 21
123.9995079086117
 31
0.0
  0
LINE
  5
4E6
330
A
100
AcDbEntity
  8
04
100
AcDbLine
 10
176.1203866432336
 20
153.4995079086115
 30
0.0
 11
176.1203866432336
 21
149.4995079086116
 31
0.0
  0
LINE
  5
4E7
330
A
100
AcDbEntity
  8
04
100
AcDbLine
 10
201.1203866432336
 20
153.4995079086115
 30
0.0
 11
201.1203866432336
 21
149.4995079086116
 31
0.0
  0
LINE
  5
4E8
330
A
100
AcDbEntity
  8
04
100
AcDbLine
 10
241.3203866432338
 20
141.4995079086116
 30
0.0
 11
225.9203866432338
 21
141.4995079086116
 31
0.0
  0
LINE
  5
4E9
330
A
100
AcDbEntity
  8
04
100
AcDbLine
 10
225.9203866432338
 20
141.4995079086116
 30
0.0
 11
225.9203866432338
 21
143.4995079086116
 31
0.0
  0
LINE
  5
4EA
330
A
100
AcDbEntity
  8
04
100
AcDbLine
 10
241.3203866432338
 20
143.4995079086116
 30
0.0
 11
241.3203866432338
 21
141.4995079086116
 31
0.0
  0
LINE
  5
4EB
330
A
100
AcDbEntity
  8
04
100
AcDbLine
 10
227.3603866432337
 20
141.4995079086116
 30
0.0
 11
239.8803866432337
 21
141.4995079086116
 31
0.0
  0
LINE
  5
4EC
330
A
100
AcDbEntity
  8
04
100
AcDbLine
 10
241.1203866432336
 20
140.7795079086116
 30
0.0
 11
239.8803866432337
 21
141.4995079086116
 31
0.0
  0
LINE
  5
4ED
330
A
100
AcDbEntity
  8
04
100
AcDbLine
 10
226.1203866432336
 20
140.7795079086116
 30
0.0
 11
227.3603866432337
 21
141.4995079086116
 31
0.0
  0
LINE
  5
4EE
330
A
100
AcDbEntity
  8
04
100
AcDbLine
 10
241.1203866432336
 20
140.7795079086116
 30
0.0
 11
241.1203866432336
 21
137.2195079086116
 31
0.0
  0
LINE
  5
4EF
330
A
100
AcDbEntity
  8
04
100
AcDbLine
 10
226.1203866432336
 20
140.7795079086116
 30
0.0
 11
226.1203866432336
 21
137.2195079086116
 31
0.0
  0
LINE
  5
4F0
330
A
100
AcDbEntity
  8
04
100
AcDbLine
 10
241.1203866432336
 20
137.2195079086116
 30
0.0
 11
239.8803866432337
 21
136.4995079086116
 31
0.0
  0
LINE
  5
4F1
330
A
100
AcDbEntity
  8
04
100
AcDbLine
 10
226.1203866432336
 20
137.2195079086116
 30
0.0
 11
227.3603866432337
 21
136.4995079086116
 31
0.0
  0
LINE
  5
4F2
330
A
100
AcDbEntity
  8
04
100
AcDbLine
 10
227.3603866432337
 20
136.4995079086116
 30
0.0
 11
239.8803866432337
 21
136.4995079086116
 31
0.0
  0
LINE
  5
4FB
330
A
100
AcDbEntity
  8
04
100
AcDbLine
 10
242.1203866432336
 20
125.9995079086116
 30
0.0
 11
242.1203866432336
 21
101.9995079086116
 31
0.0
  0
ARC
  5
4FC
330
A
100
AcDbEntity
  8
04
100
AcDbCircle
 10
243.1203866432336
 20
125.9995079086116
 30
0.0
 40
1.0
100
AcDbArc
 50
89.99999979432001
 51
179.9999996914799
  0
LINE
  5
4FD
330
A
100
AcDbEntity
  8
04
100
AcDbLine
 10
242.1203866432336
 20
101.9995079086116
 30
0.0
 11
225.1203866432336
 21
101.9995079086116
 31
0.0
  0
LINE
  5
4FE
330
A
100
AcDbEntity
  8
04
100
AcDbLine
 10
225.1203866432336
 20
101.9995079086116
 30
0.0
 11
225.1203866432336
 21
125.9995079086116
 31
0.0
  0
LINE
  5
4FF
330
A
100
AcDbEntity
  8
04
100
AcDbLine
 10
224.1203866432336
 20
126.9995079086116
 30
0.0
 11
215.1203866432336
 21
126.9995079086116
 31
0.0
  0
ARC
  5
500
330
A
100
AcDbEntity
  8
04
100
AcDbCircle
 10
224.1203866432336
 20
125.9995079086116
 30
0.0
 40
1.0
100
AcDbArc
 50
359.9999998971599
 51
89.99999979431995
  0
LINE
  5
501
330
A
100
AcDbEntity
  8
04
100
AcDbLine
 10
214.1203866432336
 20
125.9995079086116
 30
0.0
 11
214.1203866432336
 21
116.9995079086115
 31
0.0
  0
ARC
  5
502
330
A
100
AcDbEntity
  8
04
100
AcDbCircle
 10
215.1203866432336
 20
125.9995079086116
 30
0.0
 40
1.0
100
AcDbArc
 50
89.99999979432001
 51
179.9999996914799
  0
LINE
  5
503
330
A
100
AcDbEntity
  8
04
100
AcDbLine
 10
214.1203866432336
 20
116.9995079086115
 30
0.0
 11
215.1203866432336
 21
116.9995079086115
 31
0.0
  0
LINE
  5
504
330
A
100
AcDbEntity
  8
04
100
AcDbLine
 10
243.1203866432336
 20
126.9995079086116
 30
0.0
 11
258.1203866432336
 21
126.9995079086116
 31
0.0
  0
ARC
  5
505
330
A
100
AcDbEntity
  8
04
100
AcDbCircle
 10
258.1203866432336
 20
125.9995079086116
 30
0.0
 40
1.0
100
AcDbArc
 50
359.9999998971599
 51
89.99999979431995
  0
LINE
  5
506
330
A
100
AcDbEntity
  8
04
100
AcDbLine
 10
259.1203866432337
 20
125.9995079086116
 30
0.0
 11
259.1203866432337
 21
116.9995079086115
 31
0.0
  0
LINE
  5
507
330
A
100
AcDbEntity
  8
04
100
AcDbLine
 10
259.1203866432337
 20
116.9995079086115
 30
0.0
 11
258.1203866432336
 21
116.9995079086115
 31
0.0
  0
LINE
  5
508
330
A
100
AcDbEntity
  8
04
100
AcDbLine
 10
258.1203866432336
 20
125.9995079086116
 30
0.0
 11
243.1203866432336
 21
125.9995079086116
 31
0.0
  0
LINE
  5
509
330
A
100
AcDbEntity
  8
04
100
AcDbLine
 10
243.1203866432336
 20
125.9995079086116
 30
0.0
 11
243.1203866432336
 21
101.9995079068167
 31
0.0
  0
LINE
  5
50A
330
A
100
AcDbEntity
  8
04
100
AcDbLine
 10
242.1203866432336
 20
100.9995079086116
 30
0.0
 11
225.1203866432336
 21
100.9995079086116
 31
0.0
  0
ARC
  5
50B
330
A
100
AcDbEntity
  8
04
100
AcDbCircle
 10
242.1203866432336
 20
101.9995079086116
 30
0.0
 40
1.0
100
AcDbArc
 50
270.0
 51
359.9999998971599
  0
LINE
  5
50C
330
A
100
AcDbEntity
  8
04
100
AcDbLine
 10
224.1203866432336
 20
101.9995079086116
 30
0.0
 11
224.1203866432336
 21
125.9995079086116
 31
0.0
  0
ARC
  5
50D
330
A
100
AcDbEntity
  8
04
100
AcDbCircle
 10
225.1203866432336
 20
101.9995079086116
 30
0.0
 40
1.0
100
AcDbArc
 50
179.9999996914799
 51
269.99999958864
  0
LINE
  5
50E
330
A
100
AcDbEntity
  8
04
100
AcDbLine
 10
224.1203866432336
 20
125.9995079086116
 30
0.0
 11
215.1203866432336
 21
125.9995079086116
 31
0.0
  0
LINE
  5
50F
330
A
100
AcDbEntity
  8
04
100
AcDbLine
 10
241.1203866432336
 20
135.9995079086116
 30
0.0
 11
241.1203866432336
 21
112.9995079086116
 31
0.0
  0
LINE
  5
510
330
A
100
AcDbEntity
  8
04
100
AcDbLine
 10
241.1203866432336
 20
112.9995079086116
 30
0.0
 11
226.1203866432336
 21
112.9995079086116
 31
0.0
  0
LINE
  5
511
330
A
100
AcDbEntity
  8
04
100
AcDbLine
 10
226.1203866432336
 20
112.9995079086116
 30
0.0
 11
226.1203866432336
 21
135.9995079086116
 31
0.0
  0
LINE
  5
512
330
A
100
AcDbEntity
  8
04
100
AcDbLine
 10
226.1203866432336
 20
135.9995079086116
 30
0.0
 11
241.1203866432336
 21
135.9995079086116
 31
0.0
  0
LINE
  5
513
330
A
100
AcDbEntity
  8
04
100
AcDbLine
 10
201.6203866432336
 20
134.4995079086116
 30
0.0
 11
175.6203866432336
 21
134.4995079086116
 31
0.0
  0
LINE
  5
514
330
A
100
AcDbEntity
  8
04
100
AcDbLine
 10
175.6203866432336
 20
149.4995079086116
 30
0.0
 11
175.6203866432336
 21
134.4995079086116
 31
0.0
  0
LINE
  5
515
330
A
100
AcDbEntity
  8
04
100
AcDbLine
 10
201.6203866432336
 20
134.4995079086116
 30
0.0
 11
201.6203866432336
 21
149.4995079086116
 31
0.0
  0
LINE
  5
516
330
A
100
AcDbEntity
  8
04
100
AcDbLine
 10
201.6203866432336
 20
149.4995079086116
 30
0.0
 11
175.6203866432336
 21
149.4995079086116
 31
0.0
  0
LINE
  5
517
330
A
100
AcDbEntity
  8
04
100
AcDbLine
 10
214.1203866432336
 20
125.4995079086116
 30
0.0
 11
162.6203874061733
 21
125.4995079086117
 31
0.0
  0
LINE
  5
518
330
A
100
AcDbEntity
  8
04
100
AcDbLine
 10
203.1203866432336
 20
134.4995079086116
 30
0.0
 11
174.1203866432336
 21
134.4995079086116
 31
0.0
  0
LINE
  5
519
330
A
100
AcDbEntity
  8
04
100
AcDbLine
 10
174.1203866432336
 20
134.4995079086116
 30
0.0
 11
174.1203866432336
 21
125.4995079086116
 31
0.0
  0
LINE
  5
51A
330
A
100
AcDbEntity
  8
04
100
AcDbLine
 10
203.1203866432336
 20
134.4995079086116
 30
0.0
 11
203.1203866432336
 21
125.4995079086116
 31
0.0
  0
LINE
  5
51B
330
A
100
AcDbEntity
  8
04
100
AcDbLine
 10
162.6203874061733
 20
123.9995079086117
 30
0.0
 11
162.6203874061733
 21
125.4995079086117
 31
0.0
  0
LINE
  5
51C
330
A
100
AcDbEntity
  8
04
100
AcDbLine
 10
208.6203866432336
 20
88.9995079086116
 30
0.0
 11
168.6203866432335
 21
88.9995079086116
 31
0.0
  0
LINE
  5
51D
330
A
100
AcDbEntity
  8
04
100
AcDbLine
 10
208.6203866432336
 20
92.99950790861165
 30
0.0
 11
168.6203866432335
 21
92.99950790861165
 31
0.0
  0
LINE
  5
51E
330
A
100
AcDbEntity
  8
04
100
AcDbLine
 10
204.6203866432336
 20
117.9995079086116
 30
0.0
 11
172.6203866432336
 21
117.9995079086116
 31
0.0
  0
LINE
  5
51F
330
A
100
AcDbEntity
  8
04
100
AcDbLine
 10
201.1203866432336
 20
117.9995079086116
 30
0.0
 11
201.1203866432336
 21
92.99950790861165
 31
0.0
  0
LINE
  5
520
330
A
100
AcDbEntity
  8
04
100
AcDbLine
 10
176.1203866432336
 20
117.9995079086116
 30
0.0
 11
176.1203866432336
 21
92.99950790861165
 31
0.0
  0
LINE
  5
521
330
A
100
AcDbEntity
  8
04
100
AcDbLine
 10
208.6203866432336
 20
88.9995079086116
 30
0.0
 11
208.6203866432336
 21
118.9995079086116
 31
0.0
  0
LINE
  5
522
330
A
100
AcDbEntity
  8
04
100
AcDbLine
 10
168.6203866432335
 20
88.9995079086116
 30
0.0
 11
168.6203866432335
 21
118.9995079086116
 31
0.0
  0
LINE
  5
523
330
A
100
AcDbEntity
  8
04
100
AcDbLine
 10
204.6203866432336
 20
117.9995079086116
 30
0.0
 11
204.6203866432336
 21
123.9995079086116
 31
0.0
  0
LINE
  5
524
330
A
100
AcDbEntity
  8
04
100
AcDbLine
 10
172.6203866432336
 20
117.9995079086116
 30
0.0
 11
172.6203866432336
 21
123.9995079086116
 31
0.0
  0
LINE
  5
525
330
A
100
AcDbEntity
  8
04
100
AcDbLine
 10
208.6203866432336
 20
118.9995079086116
 30
0.0
 11
204.6203866432336
 21
118.9995079086116
 31
0.0
  0
LINE
  5
526
330
A
100
AcDbEntity
  8
04
100
AcDbLine
 10
172.6203866432336
 20
118.9995079086116
 30
0.0
 11
168.6203866432335
 21
118.9995079086116
 31
0.0
  0
LINE
  5
527
330
A
100
AcDbEntity
  8
04
100
AcDbLine
 10
201.1203866432336
 20
96.19950790861162
 30
0.0
 11
176.1203866432336
 21
96.19950790861162
 31
0.0
  0
LINE
  5
528
330
A
100
AcDbEntity
  8
06
100
AcDbLine
 10
198.2203866432335
 20
179.4995079086114
 30
0.0
 11
195.0203866432336
 21
179.4995079086114
 31
0.0
  0
LINE
  5
529
330
A
100
AcDbEntity
  8
06
100
AcDbLine
 10
195.0203866432336
 20
179.4995079086114
 30
0.0
 11
194.1203866432336
 21
178.5995079086116
 31
0.0
  0
LINE
  5
52A
330
A
100
AcDbEntity
  8
06
100
AcDbLine
 10
198.2203866432335
 20
179.4995079086114
 30
0.0
 11
199.1203866432336
 21
178.5995079086116
 31
0.0
  0
LINE
  5
52B
330
A
100
AcDbEntity
  8
06
100
AcDbLine
 10
199.1203866432331
 20
165.4995079086118
 30
0.0
 11
199.1203866432336
 21
178.5995079086116
 31
0.0
  0
LINE
  5
52C
330
A
100
AcDbEntity
  8
06
100
AcDbLine
 10
194.1203866432329
 20
165.4995079086118
 30
0.0
 11
194.1203866432336
 21
178.5995079086116
 31
0.0
  0
LINE
  5
52D
330
A
100
AcDbEntity
  8
04
100
AcDbLine
 10
201.1203866432336
 20
151.4995079086116
 30
0.0
 11
176.1203866432336
 21
151.4995079086116
 31
0.0
  0
LINE
  5
52E
330
A
100
AcDbEntity
  8
04
100
AcDbLine
 10
201.1203866432336
 20
152.4995079086115
 30
0.0
 11
176.1203866432336
 21
152.4995079086115
 31
0.0
  0
LINE
  5
52F
330
A
100
AcDbEntity
  8
04
100
AcDbLine
 10
201.1203866432336
 20
153.4995079086115
 30
0.0
 11
176.1203866432336
 21
153.4995079086115
 31
0.0
  0
LINE
  5
530
330
A
100
AcDbEntity
  8
04
100
AcDbLine
 10
201.1203866432336
 20
159.4995079086116
 30
0.0
 11
201.1203866432336
 21
153.4995079086115
 31
0.0
  0
LINE
  5
531
330
A
100
AcDbEntity
  8
04
100
AcDbLine
 10
176.1203866432336
 20
153.4995079086115
 30
0.0
 11
176.1203866432336
 21
159.4995079086116
 31
0.0
  0
LINE
  5
532
330
A
100
AcDbEntity
  8
06
100
AcDbLine
 10
243.2203866432335
 20
174.3995079086118
 30
0.0
 11
240.0203866432338
 21
174.3995079086118
 31
0.0
  0
LINE
  5
533
330
A
100
AcDbEntity
  8
06
100
AcDbLine
 10
240.0203866432338
 20
174.3995079086118
 30
0.0
 11
239.1203866432336
 21
173.4995079086119
 31
0.0
  0
LINE
  5
534
330
A
100
AcDbEntity
  8
06
100
AcDbLine
 10
243.2203866432335
 20
174.3995079086118
 30
0.0
 11
244.1203866432336
 21
173.4995079086119
 31
0.0
  0
LINE
  5
535
330
A
100
AcDbEntity
  8
06
100
AcDbLine
 10
244.1203866432336
 20
165.4995079086119
 30
0.0
 11
244.1203866432336
 21
173.499507908612
 31
0.0
  0
LINE
  5
536
330
A
100
AcDbEntity
  8
06
100
AcDbLine
 10
239.1203866432336
 20
165.4995079086119
 30
0.0
 11
239.1203866432336
 21
173.4995079086115
 31
0.0
  0
LINE
  5
537
330
A
100
AcDbEntity
  8
06
100
AcDbLine
 10
227.2203866432338
 20
174.3995079086118
 30
0.0
 11
224.0203866432338
 21
174.3995079086118
 31
0.0
  0
LINE
  5
538
330
A
100
AcDbEntity
  8
06
100
AcDbLine
 10
224.0203866432338
 20
174.3995079086118
 30
0.0
 11
223.1203866432336
 21
173.4995079086119
 31
0.0
  0
LINE
  5
539
330
A
100
AcDbEntity
  8
06
100
AcDbLine
 10
227.2203866432338
 20
174.3995079086118
 30
0.0
 11
228.1203866432336
 21
173.4995079086119
 31
0.0
  0
LINE
  5
53A
330
A
100
AcDbEntity
  8
06
100
AcDbLine
 10
228.1203866432336
 20
165.4995079086119
 30
0.0
 11
228.1203866432336
 21
173.499507908612
 31
0.0
  0
LINE
  5
53B
330
A
100
AcDbEntity
  8
06
100
AcDbLine
 10
223.1203866432336
 20
165.4995079086119
 30
0.0
 11
223.1203866432336
 21
173.4995079086115
 31
0.0
  0
LINE
  5
53C
330
A
100
AcDbEntity
  8
04
100
AcDbLine
 10
201.1203866432336
 20
150.4995079086116
 30
0.0
 11
176.1203866432336
 21
150.4995079086116
 31
0.0
  0
LINE
  5
53D
330
A
100
AcDbEntity
  8
06
100
AcDbLine
 10
182.2203866432336
 20
179.4995079086114
 30
0.0
 11
179.0203866432336
 21
179.4995079086114
 31
0.0
  0
LINE
  5
53E
330
A
100
AcDbEntity
  8
06
100
AcDbLine
 10
179.0203866432336
 20
179.4995079086114
 30
0.0
 11
178.1203866432336
 21
178.5995079086116
 31
0.0
  0
LINE
  5
53F
330
A
100
AcDbEntity
  8
06
100
AcDbLine
 10
182.2203866432336
 20
179.4995079086114
 30
0.0
 11
183.1203866432336
 21
178.5995079086116
 31
0.0
  0
LINE
  5
540
330
A
100
AcDbEntity
  8
06
100
AcDbLine
 10
183.1203866432333
 20
165.4995079086118
 30
0.0
 11
183.1203866432336
 21
178.5995079086116
 31
0.0
  0
LINE
  5
541
330
A
100
AcDbEntity
  8
06
100
AcDbLine
 10
178.1203866432329
 20
165.4995079086118
 30
0.0
 11
178.1203866432336
 21
178.5995079086116
 31
0.0
  0
LINE
  5
692
330
A
100
AcDbEntity
  8
03
100
AcDbLine
 10
187.1203874061735
 20
552.9995079086115
 30
0.0
 11
194.1203874061733
 21
552.9995079086115
 31
0.0
  0
LINE
  5
693
330
A
100
AcDbEntity
  8
KAKURE
100
AcDbLine
 10
258.1203866432336
 20
98.99950790861165
 30
0.0
 11
258.1203866432336
 21
125.9995079086116
 31
0.0
  0
LINE
  5
694
330
A
100
AcDbEntity
  8
KAKURE
100
AcDbLine
 10
215.1203866432336
 20
125.9995079086116
 30
0.0
 11
215.1203866432336
 21
98.99950790861165
 31
0.0
  0
ARC
  5
695
330
A
100
AcDbEntity
  8
KAKURE
100
AcDbCircle
 10
218.3203866432338
 20
98.99950790861165
 30
0.0
 40
3.2
100
AcDbArc
 50
179.9999996914799
 51
269.99999958864
  0
LINE
  5
696
330
A
100
AcDbEntity
  8
KAKURE
100
AcDbLine
 10
254.9203866432338
 20
125.9995079086116
 30
0.0
 11
254.9203866432338
 21
98.99950790861165
 31
0.0
  0
LINE
  5
697
330
A
100
AcDbEntity
  8
KAKURE
100
AcDbLine
 10
218.3203866432338
 20
125.9995079086116
 30
0.0
 11
218.3203866432338
 21
98.99950790861165
 31
0.0
  0
LINE
  5
698
330
A
100
AcDbEntity
  8
KAKURE
100
AcDbLine
 10
254.9203866432338
 20
98.99950790861165
 30
0.0
 11
218.3203866432338
 21
98.99950790861165
 31
0.0
  0
LINE
  5
699
330
A
100
AcDbEntity
  8
KAKURE
100
AcDbLine
 10
254.9203866432338
 20
95.79950790861165
 30
0.0
 11
218.3203866432338
 21
95.79950790861165
 31
0.0
  0
ARC
  5
69A
330
A
100
AcDbEntity
  8
KAKURE
100
AcDbCircle
 10
254.9203866432338
 20
98.99950790861165
 30
0.0
 40
3.2
100
AcDbArc
 50
270.0
 51
359.9999998971599
  0
LINE
  5
69B
330
A
100
AcDbEntity
  8
04
100
AcDbLine
 10
249.6203866432336
 20
386.9995079086119
 30
0.0
 11
249.6203866432336
 21
404.1995079086118
 31
0.0
  0
LINE
  5
69C
330
A
100
AcDbEntity
  8
04
100
AcDbLine
 10
249.6203866432336
 20
404.1995079086118
 30
0.0
 11
244.6203866432336
 21
409.1995079086118
 31
0.0
  0
LINE
  5
69D
330
A
100
AcDbEntity
  8
04
100
AcDbLine
 10
244.6203866432336
 20
409.1995079086118
 30
0.0
 11
222.6203866432336
 21
409.1995079086118
 31
0.0
  0
LINE
  5
69E
330
A
100
AcDbEntity
  8
04
100
AcDbLine
 10
222.6203866432336
 20
409.1995079086118
 30
0.0
 11
217.6203866432336
 21
404.1995079086118
 31
0.0
  0
LINE
  5
69F
330
A
100
AcDbEntity
  8
04
100
AcDbLine
 10
217.6203866432336
 20
404.1995079086118
 30
0.0
 11
217.6203866432336
 21
386.9995079086119
 31
0.0
  0
LINE
  5
6A0
330
A
100
AcDbEntity
  8
04
100
AcDbLine
 10
217.6203866432336
 20
364.9995079086119
 30
0.0
 11
249.6203866432336
 21
364.9995079086119
 31
0.0
  0
LINE
  5
6A1
330
A
100
AcDbEntity
  8
04
100
AcDbLine
 10
249.6203866432336
 20
364.9995079086119
 30
0.0
 11
249.6203866432336
 21
386.9995079086119
 31
0.0
  0
LINE
  5
6A2
330
A
100
AcDbEntity
  8
04
100
AcDbLine
 10
217.6203866432336
 20
364.9995079086119
 30
0.0
 11
217.6203866432336
 21
386.9995079086119
 31
0.0
  0
LINE
  5
6A3
330
A
100
AcDbEntity
  8
04
100
AcDbLine
 10
247.6203866432336
 20
364.9995079086119
 30
0.0
 11
247.6203866432336
 21
364.4995079086119
 31
0.0
  0
LINE
  5
6A4
330
A
100
AcDbEntity
  8
04
100
AcDbLine
 10
219.6203866432336
 20
364.9995079086119
 30
0.0
 11
219.6203866432336
 21
364.4995079086119
 31
0.0
  0
LINE
  5
6A5
330
A
100
AcDbEntity
  8
04
100
AcDbLine
 10
219.6203866432336
 20
358.9995079086119
 30
0.0
 11
219.6203866432336
 21
362.4995079086119
 31
0.0
  0
LINE
  5
6A6
330
A
100
AcDbEntity
  8
04
100
AcDbLine
 10
247.6203866432336
 20
358.9995079086119
 30
0.0
 11
247.6203866432336
 21
362.4995079086119
 31
0.0
  0
LINE
  5
6A7
330
A
100
AcDbEntity
  8
04
100
AcDbLine
 10
247.6203866432336
 20
364.4995079086119
 30
0.0
 11
219.6203866432336
 21
364.4995079086119
 31
0.0
  0
LINE
  5
6A8
330
A
100
AcDbEntity
  8
04
100
AcDbLine
 10
247.6203866432336
 20
362.4995079086119
 30
0.0
 11
219.6203866432336
 21
362.4995079086119
 31
0.0
  0
LINE
  5
6A9
330
A
100
AcDbEntity
  8
04
100
AcDbLine
 10
246.1203866432336
 20
364.4995079086119
 30
0.0
 11
246.1203866432336
 21
362.4995079086119
 31
0.0
  0
LINE
  5
6AA
330
A
100
AcDbEntity
  8
04
100
AcDbLine
 10
221.1203866432336
 20
362.4995079086119
 30
0.0
 11
221.1203866432336
 21
364.4995079086119
 31
0.0
  0
LINE
  5
83F
330
A
100
AcDbEntity
  8
KAKURE
100
AcDbLine
 10
247.6203866432336
 20
367.9995079086119
 30
0.0
 11
247.6203866432336
 21
364.9995079086119
 31
0.0
  0
LINE
  5
840
330
A
100
AcDbEntity
  8
KAKURE
100
AcDbLine
 10
219.6203866432336
 20
367.9995079086119
 30
0.0
 11
219.6203866432336
 21
364.9995079086119
 31
0.0
  0
LINE
  5
891
330
A
100
AcDbEntity
  8
02
100
AcDbLine
 10
173.8203866432336
 20
498.2195079086118
 30
0.0
 11
169.8203866432335
 21
498.2195079086118
 31
0.0
  0
LINE
  5
892
330
A
100
AcDbEntity
  8
02
100
AcDbLine
 10
169.8203866432335
 20
498.2195079086118
 30
0.0
 11
169.8203866432335
 21
421.2195079086119
 31
0.0
  0
LINE
  5
893
330
A
100
AcDbEntity
  8
02
100
AcDbLine
 10
169.8203866432335
 20
421.2195079086119
 30
0.0
 11
173.8203866432336
 21
421.2195079086119
 31
0.0
  0
LINE
  5
894
330
A
100
AcDbEntity
  8
02
100
AcDbLine
 10
173.8203866432336
 20
421.2195079086119
 30
0.0
 11
173.8203866432336
 21
498.2195079086118
 31
0.0
  0
LINE
  5
895
330
A
100
AcDbEntity
  8
06
100
AcDbLine
 10
173.8203866432336
 20
479.7195079086119
 30
0.0
 11
181.6203866432336
 21
479.7195079086119
 31
0.0
  0
LINE
  5
896
330
A
100
AcDbEntity
  8
06
100
AcDbLine
 10
173.8203866432336
 20
439.7195079086118
 30
0.0
 11
181.6203866432336
 21
439.7195079086118
 31
0.0
  0
LINE
  5
897
330
A
100
AcDbEntity
  8
06
100
AcDbLine
 10
185.1203866432336
 20
497.4595079086118
 30
0.0
 11
185.1203866432336
 21
421.9595079086118
 31
0.0
  0
LINE
  5
898
330
A
100
AcDbEntity
  8
06
100
AcDbLine
 10
185.1203866432336
 20
421.9595079086118
 30
0.0
 11
177.1203866432336
 21
421.9595079086118
 31
0.0
  0
LINE
  5
899
330
A
100
AcDbEntity
  8
06
100
AcDbLine
 10
185.1203866432336
 20
497.4595079086118
 30
0.0
 11
177.1203866432336
 21
497.4595079086118
 31
0.0
  0
LINE
  5
89A
330
A
100
AcDbEntity
  8
06
100
AcDbLine
 10
177.1203866432336
 20
497.4595079086118
 30
0.0
 11
177.1203866432336
 21
495.4595079086118
 31
0.0
  0
LINE
  5
89B
330
A
100
AcDbEntity
  8
06
100
AcDbLine
 10
177.1203866432336
 20
421.9595079086118
 30
0.0
 11
177.1203866432336
 21
423.9595079086119
 31
0.0
  0
LINE
  5
89C
330
A
100
AcDbEntity
  8
06
100
AcDbLine
 10
177.1203866432336
 20
495.4595079086118
 30
0.0
 11
181.6203866432336
 21
495.4595079086118
 31
0.0
  0
LINE
  5
89D
330
A
100
AcDbEntity
  8
06
100
AcDbLine
 10
177.1203866432336
 20
423.9595079086119
 30
0.0
 11
181.6203866432336
 21
423.9595079086119
 31
0.0
  0
LINE
  5
89E
330
A
100
AcDbEntity
  8
06
100
AcDbLine
 10
181.6203866432336
 20
495.4595079086118
 30
0.0
 11
181.6203866432336
 21
423.9595079086119
 31
0.0
  0
LINE
  5
89F
330
A
100
AcDbEntity
  8
06
100
AcDbLine
 10
185.1203866432336
 20
494.6995079086118
 30
0.0
 11
234.6203866432336
 21
494.6995079086118
 31
0.0
  0
LINE
  5
8A0
330
A
100
AcDbEntity
  8
06
100
AcDbLine
 10
251.1403866432337
 20
494.6995079086118
 30
0.0
 11
253.1203866432336
 21
494.6995079086118
 31
0.0
  0
LINE
  5
8A1
330
A
100
AcDbEntity
  8
06
100
AcDbLine
 10
255.1203866432336
 20
492.6995079086118
 30
0.0
 11
255.1203866432336
 21
426.6995079086119
 31
0.0
  0
ARC
  5
8A2
330
A
100
AcDbEntity
  8
06
100
AcDbCircle
 10
253.1203866432336
 20
492.6995079086118
 30
0.0
 40
2.0
100
AcDbArc
 50
359.9999998971599
 51
89.99999979431995
  0
LINE
  5
8A3
330
A
100
AcDbEntity
  8
06
100
AcDbLine
 10
253.1203866432336
 20
424.6995079086119
 30
0.0
 11
251.1403866432337
 21
424.6995079086119
 31
0.0
  0
ARC
  5
8A4
330
A
100
AcDbEntity
  8
06
100
AcDbCircle
 10
253.1203866432336
 20
426.6995079086119
 30
0.0
 40
2.0
100
AcDbArc
 50
270.0
 51
359.9999998971599
  0
LINE
  5
8A5
330
A
100
AcDbEntity
  8
06
100
AcDbLine
 10
234.6203866432336
 20
424.6995079086119
 30
0.0
 11
185.1203866432336
 21
424.6995079086119
 31
0.0
  0
LINE
  5
8A6
330
A
100
AcDbEntity
  8
06
100
AcDbLine
 10
249.6203866432336
 20
494.6995079086118
 30
0.0
 11
236.6203866432336
 21
494.6995079086118
 31
0.0
  0
LINE
  5
8A7
330
A
100
AcDbEntity
  8
06
100
AcDbLine
 10
249.6203866432336
 20
424.6995079086119
 30
0.0
 11
236.6203866432336
 21
424.6995079086119
 31
0.0
  0
LINE
  5
8A8
330
A
100
AcDbEntity
  8
06
100
AcDbLine
 10
246.8603866432335
 20
485.6995079086118
 30
0.0
 11
239.3603866432335
 21
485.6995079086118
 31
0.0
  0
LINE
  5
8A9
330
A
100
AcDbEntity
  8
06
100
AcDbLine
 10
246.8603866432335
 20
433.6995079086118
 30
0.0
 11
239.3603866432335
 21
433.6995079086118
 31
0.0
  0
LINE
  5
8AA
330
A
100
AcDbEntity
  8
06
100
AcDbLine
 10
239.3603866432335
 20
485.6995079086118
 30
0.0
 11
236.6203866432336
 21
494.6995079086118
 31
0.0
  0
LINE
  5
8AB
330
A
100
AcDbEntity
  8
06
100
AcDbLine
 10
246.8603866432335
 20
485.6995079086118
 30
0.0
 11
249.6203866432336
 21
494.6995079086118
 31
0.0
  0
LINE
  5
8AC
330
A
100
AcDbEntity
  8
06
100
AcDbLine
 10
246.8603866432335
 20
433.6995079086118
 30
0.0
 11
249.6203866432336
 21
424.6995079086119
 31
0.0
  0
LINE
  5
8AD
330
A
100
AcDbEntity
  8
06
100
AcDbLine
 10
236.6203866432336
 20
424.6995079086119
 30
0.0
 11
239.3603866432335
 21
433.6995079086118
 31
0.0
  0
LINE
  5
8AE
330
A
100
AcDbEntity
  8
03
100
AcDbLine
 10
183.6203866432313
 20
497.4595079086117
 30
0.0
 11
183.6203866432318
 21
498.1995079086118
 31
0.0
  0
LINE
  5
10C7
330
A
100
AcDbEntity
  8
03
100
AcDbLine
 10
163.1203874061734
 20
527.9995079086115
 30
0.0
 11
203.6203874061734
 21
527.9995079086115
 31
0.0
  0
LINE
  5
10C8
330
A
100
AcDbEntity
  8
03
100
AcDbLine
 10
203.6203874061734
 20
527.9995079086115
 30
0.0
 11
203.6203874061734
 21
525.9995079086117
 31
0.0
  0
LINE
  5
10C9
330
A
100
AcDbEntity
  8
03
100
AcDbLine
 10
203.6203874061734
 20
525.9995079086117
 30
0.0
 11
206.1203874061734
 21
525.9995079086117
 31
0.0
  0
LINE
  5
10CA
330
A
100
AcDbEntity
  8
03
100
AcDbLine
 10
206.1203874061734
 20
525.9995079086117
 30
0.0
 11
206.1203874061733
 21
523.9995079086115
 31
0.0
  0
LINE
  5
10CB
330
A
100
AcDbEntity
  8
03
100
AcDbLine
 10
206.1203874061733
 20
523.9995079086115
 30
0.0
 11
203.1203874061733
 21
523.9995079086115
 31
0.0
  0
LINE
  5
10CC
330
A
100
AcDbEntity
  8
03
100
AcDbLine
 10
201.1203874061734
 20
526.4995079086117
 30
0.0
 11
165.1203874061735
 21
526.4995079086117
 31
0.0
  0
ARC
  5
10CD
330
A
100
AcDbEntity
  8
03
100
AcDbCircle
 10
201.1203874061734
 20
525.9995079086117
 30
0.0
 40
0.5
100
AcDbArc
 50
0.0
 51
89.99999999999998
  0
ARC
  5
10CE
330
A
100
AcDbEntity
  8
03
100
AcDbCircle
 10
165.1203874061735
 20
525.9995079086117
 30
0.0
 40
0.5
100
AcDbArc
 50
89.99999999999998
 51
179.9999999999999
  0
LINE
  5
10CF
330
A
100
AcDbEntity
  8
03
100
AcDbLine
 10
203.1203874061733
 20
523.9995079086115
 30
0.0
 11
203.1203874061733
 21
508.9995079086117
 31
0.0
  0
LINE
  5
10D0
330
A
100
AcDbEntity
  8
03
100
AcDbLine
 10
201.6203874061734
 20
508.2995079086115
 30
0.0
 11
201.6203874061734
 21
525.9995079086117
 31
0.0
  0
ARC
  5
10D1
330
A
100
AcDbEntity
  8
03
100
AcDbCircle
 10
204.0203872542108
 20
508.3995079086117
 30
0.0
 40
0.6
100
AcDbArc
 50
270.0000145113615
 51
89.99998548863835
  0
LINE
  5
10D2
330
A
100
AcDbEntity
  8
03
100
AcDbLine
 10
204.0203874061734
 20
507.7995079086115
 30
0.0
 11
202.1203874061735
 21
507.7995079086115
 31
0.0
  0
ARC
  5
10D3
330
A
100
AcDbEntity
  8
03
100
AcDbCircle
 10
202.1203874061735
 20
508.2995079086115
 30
0.0
 40
0.5
100
AcDbArc
 50
179.9999999999999
 51
269.9999999999999
  0
LINE
  5
10D4
330
A
100
AcDbEntity
  8
03
100
AcDbLine
 10
203.1203874061733
 20
508.9995079086117
 30
0.0
 11
205.1203874061735
 21
508.9995079086117
 31
0.0
  0
LINE
  5
10D5
330
A
100
AcDbEntity
  8
03
100
AcDbLine
 10
164.6203874061735
 20
525.9995079086117
 30
0.0
 11
164.6203874061735
 21
511.4995079086114
 31
0.0
  0
LINE
  5
10D6
330
A
100
AcDbEntity
  8
03
100
AcDbLine
 10
164.6203874061735
 20
511.4995079086114
 30
0.0
 11
167.5496767280549
 21
511.9179778117376
 31
0.0
  0
ARC
  5
10D7
330
A
100
AcDbEntity
  8
03
100
AcDbCircle
 10
167.6203874061735
 20
511.423003064907
 30
0.0
 40
0.5
100
AcDbArc
 50
0.0
 51
98.13010235415596
  0
LINE
  5
10D8
330
A
100
AcDbEntity
  8
03
100
AcDbLine
 10
166.6203874061735
 20
510.2699933774977
 30
0.0
 11
164.7269891239716
 21
509.9995079086116
 31
0.0
  0
LINE
  5
10D9
330
A
100
AcDbEntity
  8
03
100
AcDbLine
 10
166.6203874061735
 20
510.2699933774977
 30
0.0
 11
166.6203874061759
 21
508.9995079086115
 31
0.0
  0
LINE
  5
10DA
330
A
100
AcDbEntity
  8
03
100
AcDbLine
 10
168.1203874061733
 20
511.423003064907
 30
0.0
 11
168.1203874061734
 21
506.9995079086119
 31
0.0
  0
LINE
  5
10DB
330
A
100
AcDbEntity
  8
03
100
AcDbLine
 10
167.6203874061735
 20
506.4995079086116
 30
0.0
 11
167.4294044005486
 21
506.4995079086116
 31
0.0
  0
ARC
  5
10DC
330
A
100
AcDbEntity
  8
03
100
AcDbCircle
 10
167.6203874061735
 20
506.9995079086119
 30
0.0
 40
0.5
100
AcDbArc
 50
269.9999999999999
 51
0.0
  0
LINE
  5
10DD
330
A
100
AcDbEntity
  8
03
100
AcDbLine
 10
166.6203874061759
 20
508.9995079086115
 30
0.0
 11
166.375214272227
 21
508.7543347746641
 31
0.0
  0
LINE
  5
10DE
330
A
100
AcDbEntity
  8
03
100
AcDbLine
 10
166.2815540673194
 20
508.17717458632
 30
0.0
 11
166.9821908050485
 21
506.7759011108618
 31
0.0
  0
ARC
  5
10DF
330
A
100
AcDbEntity
  8
03
100
AcDbCircle
 10
166.7287676628193
 20
508.40078138407
 30
0.0
 40
0.5
100
AcDbArc
 50
134.9999999998387
 51
206.5650511770765
  0
ARC
  5
10E0
330
A
100
AcDbEntity
  8
03
100
AcDbCircle
 10
167.4294044005485
 20
506.9995079086118
 30
0.0
 40
0.5
100
AcDbArc
 50
206.5650511770757
 51
270.0000000000211
  0
LINE
  5
10E1
330
A
100
AcDbEntity
  8
03
100
AcDbLine
 10
162.6203874061735
 20
550.9995079086118
 30
0.0
 11
162.6203874061735
 21
580.9995079086117
 31
0.0
  0
LINE
  5
10E2
330
A
100
AcDbEntity
  8
03
100
AcDbLine
 10
162.6203874061735
 20
580.9995079086117
 30
0.0
 11
170.1203874061735
 21
580.9995079086117
 31
0.0
  0
LINE
  5
10E3
330
A
100
AcDbEntity
  8
03
100
AcDbLine
 10
170.1203874061735
 20
580.9995079086117
 30
0.0
 11
170.1203874061735
 21
579.4995079086118
 31
0.0
  0
LINE
  5
10E4
330
A
100
AcDbEntity
  8
03
100
AcDbLine
 10
170.1203874061735
 20
579.4995079086118
 30
0.0
 11
164.1203874061735
 21
579.4995079086118
 31
0.0
  0
LINE
  5
10E5
330
A
100
AcDbEntity
  8
03
100
AcDbLine
 10
164.1203874061735
 20
579.4995079086118
 30
0.0
 11
164.1203874061735
 21
572.4995079086117
 31
0.0
  0
LINE
  5
10E6
330
A
100
AcDbEntity
  8
03
100
AcDbLine
 10
164.1203874061735
 20
572.4995079086117
 30
0.0
 11
164.6203874061735
 21
571.9995079086118
 31
0.0
  0
LINE
  5
10E7
330
A
100
AcDbEntity
  8
03
100
AcDbLine
 10
164.6203874061735
 20
571.9995079086118
 30
0.0
 11
164.6203874061735
 21
564.9995079086117
 31
0.0
  0
LINE
  5
10E8
330
A
100
AcDbEntity
  8
03
100
AcDbLine
 10
164.6203874061735
 20
564.9995079086117
 30
0.0
 11
164.1203874061735
 21
564.4995079086117
 31
0.0
  0
LINE
  5
10E9
330
A
100
AcDbEntity
  8
03
100
AcDbLine
 10
164.1203874061735
 20
564.4995079086117
 30
0.0
 11
164.1203874061735
 21
553.4995079086118
 31
0.0
  0
ARC
  5
10EA
330
A
100
AcDbEntity
  8
03
100
AcDbCircle
 10
165.1203874061735
 20
553.4995079086118
 30
0.0
 40
1.0
100
AcDbArc
 50
179.99999989716
 51
269.99999979432
  0
LINE
  5
10EB
330
A
100
AcDbEntity
  8
03
100
AcDbLine
 10
165.1203874061735
 20
552.4995079086115
 30
0.0
 11
171.2403874061734
 21
552.4995079086115
 31
0.0
  0
LINE
  5
10EC
330
A
100
AcDbEntity
  8
03
100
AcDbLine
 10
180.0003874061735
 20
552.4995079086115
 30
0.0
 11
186.6203874061735
 21
552.4995079086115
 31
0.0
  0
ARC
  5
10ED
330
A
100
AcDbEntity
  8
03
100
AcDbCircle
 10
175.6203874061735
 20
554.4995079086118
 30
0.0
 40
2.0
100
AcDbArc
 50
134.6999999489227
 51
45.29999963971721
  0
ARC
  5
10EE
330
A
100
AcDbEntity
  8
03
100
AcDbCircle
 10
175.6203874061735
 20
554.4995079086118
 30
0.0
 40
3.5
100
AcDbArc
 50
135.8888888364532
 51
192.8555554380259
  0
ARC
  5
10EF
330
A
100
AcDbEntity
  8
03
100
AcDbCircle
 10
171.2403874061734
 20
553.4995079086118
 30
0.0
 40
1.0
100
AcDbArc
 50
269.99999979432
 51
12.85555523234598
  0
ARC
  5
10F0
330
A
100
AcDbEntity
  8
03
100
AcDbCircle
 10
175.6203874061735
 20
554.4995079086118
 30
0.0
 40
3.5
100
AcDbArc
 50
347.144444150614
 51
43.82222186362806
  0
ARC
  5
10F1
330
A
100
AcDbEntity
  8
03
100
AcDbCircle
 10
180.0003874061735
 20
553.4995079086118
 30
0.0
 40
1.0
100
AcDbArc
 50
167.1444443562941
 51
269.99999979432
  0
ARC
  5
10F2
330
A
100
AcDbEntity
  8
03
100
AcDbCircle
 10
177.6003874061735
 20
556.3995079086115
 30
0.0
 40
0.7600000000000004
100
AcDbArc
 50
43.82222186362809
 51
150.5777777085575
  0
LINE
  5
10F3
330
A
100
AcDbEntity
  8
03
100
AcDbLine
 10
174.3203874061735
 20
556.7795079086115
 30
0.0
 11
174.3403874061733
 21
556.7595079086116
 31
0.0
  0
ARC
  5
10F4
330
A
100
AcDbEntity
  8
03
100
AcDbCircle
 10
173.7203874061735
 20
556.4195079086118
 30
0.0
 40
0.7
100
AcDbArc
 50
314.6999997432428
 51
29.05555521383476
  0
ARC
  5
10F5
330
A
100
AcDbEntity
  8
03
100
AcDbCircle
 10
173.6603874061735
 20
556.3995079086115
 30
0.0
 40
0.7600000000000004
100
AcDbArc
 50
29.64444410205076
 51
135.8888888364532
  0
LINE
  5
10F6
330
A
100
AcDbEntity
  8
03
100
AcDbLine
 10
176.9403874061735
 20
556.7795079086115
 30
0.0
 11
176.9203874061735
 21
556.7595079086116
 31
0.0
  0
ARC
  5
10F7
330
A
100
AcDbEntity
  8
03
100
AcDbCircle
 10
177.5203874061735
 20
556.4195079086118
 30
0.0
 40
0.7
100
AcDbArc
 50
150.3444443754908
 51
225.2999998453971
  0
LINE
  5
10F8
330
A
100
AcDbEntity
  8
03
100
AcDbLine
 10
186.6203874061735
 20
552.4995079086115
 30
0.0
 11
187.1203874061735
 21
552.9995079086115
 31
0.0
  0
LINE
  5
10F9
330
A
100
AcDbEntity
  8
03
100
AcDbLine
 10
194.1203874061733
 20
552.9995079086115
 30
0.0
 11
194.6203874061735
 21
552.4995079086115
 31
0.0
  0
LINE
  5
10FA
330
A
100
AcDbEntity
  8
03
100
AcDbLine
 10
194.6203874061735
 20
552.4995079086115
 30
0.0
 11
199.6203874061735
 21
552.4995079086115
 31
0.0
  0
ARC
  5
10FB
330
A
100
AcDbEntity
  8
03
100
AcDbCircle
 10
199.6203874061735
 20
553.4995079086118
 30
0.0
 40
1.0
100
AcDbArc
 50
269.99999979432
 51
359.9999996914799
  0
LINE
  5
10FC
330
A
100
AcDbEntity
  8
03
100
AcDbLine
 10
200.6203874061735
 20
553.4995079086118
 30
0.0
 11
200.6203874061735
 21
558.5195079086116
 31
0.0
  0
ARC
  5
10FD
330
A
100
AcDbEntity
  8
03
100
AcDbCircle
 10
202.1003874061735
 20
558.5195079086116
 30
0.0
 40
1.479999999999999
100
AcDbArc
 50
90.0
 51
179.99999989716
  0
LINE
  5
10FE
330
A
100
AcDbEntity
  8
03
100
AcDbLine
 10
202.1003874061735
 20
559.9995079086117
 30
0.0
 11
202.1203874061735
 21
559.9995079086117
 31
0.0
  0
LINE
  5
10FF
330
A
100
AcDbEntity
  8
03
100
AcDbLine
 10
202.1203874061735
 20
559.9995079086117
 30
0.0
 11
202.1203874061735
 21
569.4995079086118
 31
0.0
  0
LINE
  5
1100
330
A
100
AcDbEntity
  8
03
100
AcDbLine
 10
205.6203874061734
 20
572.9995079086116
 30
0.0
 11
208.6203874061735
 21
572.9995079086116
 31
0.0
  0
ARC
  5
1101
330
A
100
AcDbEntity
  8
03
100
AcDbCircle
 10
205.6203874061734
 20
569.4995079086118
 30
0.0
 40
3.5
100
AcDbArc
 50
90.0
 51
180.0
  0
LINE
  5
1102
330
A
100
AcDbEntity
  8
03
100
AcDbLine
 10
208.6203874061735
 20
572.9995079086116
 30
0.0
 11
209.1203874061735
 21
573.4995079086117
 31
0.0
  0
LINE
  5
1103
330
A
100
AcDbEntity
  8
03
100
AcDbLine
 10
209.1203874061735
 20
573.4995079086117
 30
0.0
 11
216.1203874061734
 21
573.4995079086117
 31
0.0
  0
LINE
  5
1104
330
A
100
AcDbEntity
  8
03
100
AcDbLine
 10
203.6203874061734
 20
550.9995079086118
 30
0.0
 11
203.6203874061734
 21
552.9995079086115
 31
0.0
  0
LINE
  5
1105
330
A
100
AcDbEntity
  8
03
100
AcDbLine
 10
203.6203874061734
 20
552.9995079086115
 30
0.0
 11
206.1203874061733
 21
552.9995079086115
 31
0.0
  0
LINE
  5
1106
330
A
100
AcDbEntity
  8
03
100
AcDbLine
 10
206.1203874061733
 20
552.9995079086115
 30
0.0
 11
206.1203874061733
 21
555.4995079086116
 31
0.0
  0
LINE
  5
1107
330
A
100
AcDbEntity
  8
03
100
AcDbLine
 10
206.1203874061733
 20
555.4995079086116
 30
0.0
 11
205.1203874061735
 21
555.4995079086116
 31
0.0
  0
LINE
  5
1108
330
A
100
AcDbEntity
  8
03
100
AcDbLine
 10
205.1203874061735
 20
555.4995079086116
 30
0.0
 11
205.1203874061735
 21
554.4995079086118
 31
0.0
  0
LINE
  5
1109
330
A
100
AcDbEntity
  8
03
100
AcDbLine
 10
205.1203874061735
 20
554.4995079086118
 30
0.0
 11
203.1203874061735
 21
554.4995079086118
 31
0.0
  0
ARC
  5
110A
330
A
100
AcDbEntity
  8
03
100
AcDbCircle
 10
203.1203874061735
 20
555.4995079086116
 30
0.0
 40
1.0
100
AcDbArc
 50
179.99999989716
 51
269.99999979432
  0
LINE
  5
110B
330
A
100
AcDbEntity
  8
03
100
AcDbLine
 10
202.1203874061735
 20
555.4995079086116
 30
0.0
 11
202.1203874061735
 21
557.4995079086118
 31
0.0
  0
ARC
  5
110C
330
A
100
AcDbEntity
  8
03
100
AcDbCircle
 10
203.1203874061735
 20
557.4995079086118
 30
0.0
 40
1.0
100
AcDbArc
 50
90.0
 51
179.99999989716
  0
LINE
  5
110D
330
A
100
AcDbEntity
  8
03
100
AcDbLine
 10
203.1203874061735
 20
558.4995079086118
 30
0.0
 11
205.1203874061735
 21
558.4995079086118
 31
0.0
  0
LINE
  5
110E
330
A
100
AcDbEntity
  8
03
100
AcDbLine
 10
205.1203874061735
 20
558.4995079086118
 30
0.0
 11
205.1203874061735
 21
557.4995079086118
 31
0.0
  0
LINE
  5
110F
330
A
100
AcDbEntity
  8
03
100
AcDbLine
 10
205.1203874061735
 20
557.4995079086118
 30
0.0
 11
206.1203874061733
 21
557.4995079086118
 31
0.0
  0
LINE
  5
1110
330
A
100
AcDbEntity
  8
03
100
AcDbLine
 10
206.1203874061733
 20
557.4995079086118
 30
0.0
 11
206.1203874061733
 21
559.9995079086117
 31
0.0
  0
LINE
  5
1111
330
A
100
AcDbEntity
  8
03
100
AcDbLine
 10
206.1203874061733
 20
559.9995079086117
 30
0.0
 11
203.6203874061734
 21
559.9995079086117
 31
0.0
  0
LINE
  5
1112
330
A
100
AcDbEntity
  8
03
100
AcDbLine
 10
203.6203874061734
 20
559.9995079086117
 30
0.0
 11
203.6203874061734
 21
569.4995079086118
 31
0.0
  0
LINE
  5
1113
330
A
100
AcDbEntity
  8
03
100
AcDbLine
 10
205.1203874061735
 20
570.9995079086118
 30
0.0
 11
220.1203874061735
 21
570.9995079086118
 31
0.0
  0
ARC
  5
1114
330
A
100
AcDbEntity
  8
03
100
AcDbCircle
 10
205.1203874061735
 20
569.4995079086118
 30
0.0
 40
1.5
100
AcDbArc
 50
90.0
 51
180.0
  0
LINE
  5
1115
330
A
100
AcDbEntity
  8
03
100
AcDbLine
 10
262.6203874061735
 20
550.9995079086118
 30
0.0
 11
262.6203874061735
 21
580.9995079086117
 31
0.0
  0
LINE
  5
1116
330
A
100
AcDbEntity
  8
03
100
AcDbLine
 10
262.6203874061735
 20
580.9995079086117
 30
0.0
 11
255.1203874061735
 21
580.9995079086117
 31
0.0
  0
LINE
  5
1117
330
A
100
AcDbEntity
  8
03
100
AcDbLine
 10
255.1203874061735
 20
580.9995079086117
 30
0.0
 11
255.1203874061735
 21
579.4995079086118
 31
0.0
  0
LINE
  5
1118
330
A
100
AcDbEntity
  8
03
100
AcDbLine
 10
255.1203874061735
 20
579.4995079086118
 30
0.0
 11
261.1203874061735
 21
579.4995079086118
 31
0.0
  0
LINE
  5
1119
330
A
100
AcDbEntity
  8
03
100
AcDbLine
 10
261.1203874061735
 20
579.4995079086118
 30
0.0
 11
261.1203874061735
 21
572.4995079086117
 31
0.0
  0
LINE
  5
111A
330
A
100
AcDbEntity
  8
03
100
AcDbLine
 10
261.1203874061735
 20
572.4995079086117
 30
0.0
 11
260.6203874061735
 21
571.9995079086118
 31
0.0
  0
LINE
  5
111B
330
A
100
AcDbEntity
  8
03
100
AcDbLine
 10
260.6203874061735
 20
571.9995079086118
 30
0.0
 11
260.6203874061735
 21
564.9995079086117
 31
0.0
  0
LINE
  5
111C
330
A
100
AcDbEntity
  8
03
100
AcDbLine
 10
260.6203874061735
 20
564.9995079086117
 30
0.0
 11
261.1203874061735
 21
564.4995079086117
 31
0.0
  0
LINE
  5
111D
330
A
100
AcDbEntity
  8
03
100
AcDbLine
 10
261.1203874061735
 20
564.4995079086117
 30
0.0
 11
261.1203874061735
 21
553.4995079086118
 31
0.0
  0
ARC
  5
111E
330
A
100
AcDbEntity
  8
03
100
AcDbCircle
 10
260.1203874061734
 20
553.4995079086118
 30
0.0
 40
1.0
100
AcDbArc
 50
269.99999979432
 51
359.9999996914799
  0
LINE
  5
111F
330
A
100
AcDbEntity
  8
03
100
AcDbLine
 10
260.1203874061734
 20
552.4995079086115
 30
0.0
 11
254.0003874061735
 21
552.4995079086115
 31
0.0
  0
LINE
  5
1120
330
A
100
AcDbEntity
  8
03
100
AcDbLine
 10
245.2403874061735
 20
552.4995079086115
 30
0.0
 11
238.6203874061735
 21
552.4995079086115
 31
0.0
  0
ARC
  5
1121
330
A
100
AcDbEntity
  8
03
100
AcDbCircle
 10
249.6203874061734
 20
554.4995079086118
 30
0.0
 40
2.0
100
AcDbArc
 50
134.6999999489227
 51
45.29999963971721
  0
ARC
  5
1122
330
A
100
AcDbEntity
  8
03
100
AcDbCircle
 10
249.6203874061734
 20
554.4995079086118
 30
0.0
 40
3.5
100
AcDbArc
 50
347.144444150614
 51
44.11111075218687
  0
ARC
  5
1123
330
A
100
AcDbEntity
  8
03
100
AcDbCircle
 10
254.0003874061735
 20
553.4995079086118
 30
0.0
 40
1.0
100
AcDbArc
 50
167.1444443562941
 51
269.99999979432
  0
ARC
  5
1124
330
A
100
AcDbEntity
  8
03
100
AcDbCircle
 10
249.6203874061734
 20
554.4995079086118
 30
0.0
 40
3.5
100
AcDbArc
 50
136.177777725012
 51
192.8555554380259
  0
ARC
  5
1125
330
A
100
AcDbEntity
  8
03
100
AcDbCircle
 10
245.2403874061735
 20
553.4995079086118
 30
0.0
 40
1.0
100
AcDbArc
 50
269.99999979432
 51
12.85555523234598
  0
ARC
  5
1126
330
A
100
AcDbEntity
  8
03
100
AcDbCircle
 10
247.6403874061735
 20
556.3995079086115
 30
0.0
 40
0.7600000000000004
100
AcDbArc
 50
29.42222188008246
 51
136.177777725012
  0
LINE
  5
1127
330
A
100
AcDbEntity
  8
03
100
AcDbLine
 10
250.9203874061735
 20
556.7795079086115
 30
0.0
 11
250.9003874061735
 21
556.7595079086116
 31
0.0
  0
ARC
  5
1128
330
A
100
AcDbEntity
  8
03
100
AcDbCircle
 10
251.5203874061735
 20
556.4195079086118
 30
0.0
 40
0.7
100
AcDbArc
 50
150.944444374805
 51
225.2999998453971
  0
ARC
  5
1129
330
A
100
AcDbEntity
  8
03
100
AcDbCircle
 10
251.5803874061735
 20
556.3995079086115
 30
0.0
 40
0.7600000000000004
100
AcDbArc
 50
44.11111075218683
 51
150.3555554865892
  0
LINE
  5
112A
330
A
100
AcDbEntity
  8
03
100
AcDbLine
 10
248.3003874061735
 20
556.7795079086115
 30
0.0
 11
248.3203874061735
 21
556.7595079086116
 31
0.0
  0
ARC
  5
112B
330
A
100
AcDbEntity
  8
03
100
AcDbCircle
 10
247.7203874061735
 20
556.4195079086118
 30
0.0
 40
0.7
100
AcDbArc
 50
314.6999997432428
 51
29.65555521314916
  0
LINE
  5
112C
330
A
100
AcDbEntity
  8
03
100
AcDbLine
 10
238.6203874061735
 20
552.4995079086115
 30
0.0
 11
238.1203874061736
 21
552.9995079086115
 31
0.0
  0
LINE
  5
112D
330
A
100
AcDbEntity
  8
03
100
AcDbLine
 10
238.1203874061736
 20
552.9995079086115
 30
0.0
 11
231.1203874061735
 21
552.9995079086115
 31
0.0
  0
LINE
  5
112E
330
A
100
AcDbEntity
  8
03
100
AcDbLine
 10
231.1203874061735
 20
552.9995079086115
 30
0.0
 11
230.6203874061734
 21
552.4995079086115
 31
0.0
  0
LINE
  5
112F
330
A
100
AcDbEntity
  8
03
100
AcDbLine
 10
230.6203874061734
 20
552.4995079086115
 30
0.0
 11
225.6203874061735
 21
552.4995079086115
 31
0.0
  0
ARC
  5
1130
330
A
100
AcDbEntity
  8
03
100
AcDbCircle
 10
225.6203874061735
 20
553.4995079086118
 30
0.0
 40
1.0
100
AcDbArc
 50
179.99999989716
 51
269.99999979432
  0
LINE
  5
1131
330
A
100
AcDbEntity
  8
03
100
AcDbLine
 10
224.6203874061734
 20
553.4995079086118
 30
0.0
 11
224.6203874061734
 21
558.5195079086116
 31
0.0
  0
ARC
  5
1132
330
A
100
AcDbEntity
  8
03
100
AcDbCircle
 10
223.1403874061736
 20
558.5195079086116
 30
0.0
 40
1.479999999999999
100
AcDbArc
 50
359.9999996914799
 51
89.99999958864
  0
LINE
  5
1133
330
A
100
AcDbEntity
  8
03
100
AcDbLine
 10
223.1403874061736
 20
559.9995079086117
 30
0.0
 11
223.1203874061735
 21
559.9995079086117
 31
0.0
  0
LINE
  5
1134
330
A
100
AcDbEntity
  8
03
100
AcDbLine
 10
223.1203874061735
 20
559.9995079086117
 30
0.0
 11
223.1203874061735
 21
569.4995079086118
 31
0.0
  0
LINE
  5
1135
330
A
100
AcDbEntity
  8
03
100
AcDbLine
 10
219.6203874061735
 20
572.9995079086116
 30
0.0
 11
216.6203874061735
 21
572.9995079086116
 31
0.0
  0
ARC
  5
1136
330
A
100
AcDbEntity
  8
03
100
AcDbCircle
 10
219.6203874061735
 20
569.4995079086118
 30
0.0
 40
3.5
100
AcDbArc
 50
359.9999999999998
 51
90.0
  0
LINE
  5
1137
330
A
100
AcDbEntity
  8
03
100
AcDbLine
 10
216.6203874061735
 20
572.9995079086116
 30
0.0
 11
216.1203874061734
 21
573.4995079086117
 31
0.0
  0
LINE
  5
1138
330
A
100
AcDbEntity
  8
03
100
AcDbLine
 10
221.6203874061735
 20
550.9995079086118
 30
0.0
 11
221.6203874061735
 21
552.9995079086115
 31
0.0
  0
LINE
  5
1139
330
A
100
AcDbEntity
  8
03
100
AcDbLine
 10
221.6203874061735
 20
552.9995079086115
 30
0.0
 11
219.1203874061735
 21
552.9995079086115
 31
0.0
  0
LINE
  5
113A
330
A
100
AcDbEntity
  8
03
100
AcDbLine
 10
219.1203874061735
 20
552.9995079086115
 30
0.0
 11
219.1203874061735
 21
555.4995079086116
 31
0.0
  0
LINE
  5
113B
330
A
100
AcDbEntity
  8
03
100
AcDbLine
 10
219.1203874061735
 20
555.4995079086116
 30
0.0
 11
220.1203874061735
 21
555.4995079086116
 31
0.0
  0
LINE
  5
113C
330
A
100
AcDbEntity
  8
03
100
AcDbLine
 10
220.1203874061735
 20
555.4995079086116
 30
0.0
 11
220.1203874061735
 21
554.4995079086118
 31
0.0
  0
LINE
  5
113D
330
A
100
AcDbEntity
  8
03
100
AcDbLine
 10
220.1203874061735
 20
554.4995079086118
 30
0.0
 11
222.1203874061735
 21
554.4995079086118
 31
0.0
  0
ARC
  5
113E
330
A
100
AcDbEntity
  8
03
100
AcDbCircle
 10
222.1203874061735
 20
555.4995079086116
 30
0.0
 40
1.0
100
AcDbArc
 50
269.99999979432
 51
359.9999996914799
  0
LINE
  5
113F
330
A
100
AcDbEntity
  8
03
100
AcDbLine
 10
223.1203874061735
 20
555.4995079086116
 30
0.0
 11
223.1203874061735
 21
557.4995079086118
 31
0.0
  0
ARC
  5
1140
330
A
100
AcDbEntity
  8
03
100
AcDbCircle
 10
222.1203874061735
 20
557.4995079086118
 30
0.0
 40
1.0
100
AcDbArc
 50
359.9999996914799
 51
89.99999958864
  0
LINE
  5
1141
330
A
100
AcDbEntity
  8
03
100
AcDbLine
 10
222.1203874061735
 20
558.4995079086118
 30
0.0
 11
220.1203874061735
 21
558.4995079086118
 31
0.0
  0
LINE
  5
1142
330
A
100
AcDbEntity
  8
03
100
AcDbLine
 10
220.1203874061735
 20
558.4995079086118
 30
0.0
 11
220.1203874061735
 21
557.4995079086118
 31
0.0
  0
LINE
  5
1143
330
A
100
AcDbEntity
  8
03
100
AcDbLine
 10
220.1203874061735
 20
557.4995079086118
 30
0.0
 11
219.1203874061735
 21
557.4995079086118
 31
0.0
  0
LINE
  5
1144
330
A
100
AcDbEntity
  8
03
100
AcDbLine
 10
219.1203874061735
 20
557.4995079086118
 30
0.0
 11
219.1203874061735
 21
559.9995079086117
 31
0.0
  0
LINE
  5
1145
330
A
100
AcDbEntity
  8
03
100
AcDbLine
 10
219.1203874061735
 20
559.9995079086117
 30
0.0
 11
221.6203874061735
 21
559.9995079086117
 31
0.0
  0
LINE
  5
1146
330
A
100
AcDbEntity
  8
03
100
AcDbLine
 10
221.6203874061735
 20
559.9995079086117
 30
0.0
 11
221.6203874061735
 21
569.4995079086118
 31
0.0
  0
ARC
  5
1147
330
A
100
AcDbEntity
  8
03
100
AcDbCircle
 10
220.1203874061735
 20
569.4995079086118
 30
0.0
 40
1.5
100
AcDbArc
 50
359.9999999999998
 51
90.0
  0
LINE
  5
1148
330
A
100
AcDbEntity
  8
03
100
AcDbLine
 10
262.6203874061735
 20
550.9995079086118
 30
0.0
 11
221.6203874061735
 21
550.9995079086118
 31
0.0
  0
LINE
  5
1149
330
A
100
AcDbEntity
  8
03
100
AcDbLine
 10
203.6203874061734
 20
550.9995079086118
 30
0.0
 11
162.6203874061735
 21
550.9995079086118
 31
0.0
  0
LINE
  5
114A
330
A
100
AcDbEntity
  8
03
100
AcDbLine
 10
262.6203874061733
 20
242.4995079086115
 30
0.0
 11
262.6203874061733
 21
123.9995079086117
 31
0.0
  0
LINE
  5
114B
330
A
100
AcDbEntity
  8
03
100
AcDbLine
 10
162.6203874061733
 20
242.4995079086115
 30
0.0
 11
162.6203874061733
 21
123.9995079086117
 31
0.0
  0
LINE
  5
115A
330
A
100
AcDbEntity
  8
03
100
AcDbLine
 10
262.6203874061735
 20
550.9995079086118
 30
0.0
 11
262.6203874061735
 21
540.9995079086118
 31
0.0
  0
LINE
  5
115B
330
A
100
AcDbEntity
  8
03
100
AcDbLine
 10
262.6203874061735
 20
537.9995079086118
 30
0.0
 11
262.6203874061733
 21
245.4995079086117
 31
0.0
  0
LINE
  5
115C
330
A
100
AcDbEntity
  8
03
100
AcDbLine
 10
162.6203874061735
 20
550.9995079086118
 30
0.0
 11
162.6203874061735
 21
540.9995079086118
 31
0.0
  0
LINE
  5
115D
330
A
100
AcDbEntity
  8
03
100
AcDbLine
 10
162.6203874061735
 20
537.9995079086118
 30
0.0
 11
162.6203874061733
 21
245.4995079086117
 31
0.0
  0
LINE
  5
115E
330
A
100
AcDbEntity
  8
04
100
AcDbLine
 10
246.1203866432336
 20
329.4995079086116
 30
0.0
 11
246.1203866432336
 21
335.4995079086116
 31
0.0
  0
LINE
  5
115F
330
A
100
AcDbEntity
  8
04
100
AcDbLine
 10
246.1203866432336
 20
335.4995079086116
 30
0.0
 11
221.1203866432336
 21
335.4995079086116
 31
0.0
  0
LINE
  5
1160
330
A
100
AcDbEntity
  8
04
100
AcDbLine
 10
221.1203866432336
 20
335.4995079086116
 30
0.0
 11
221.1203866432336
 21
329.4995079086116
 31
0.0
  0
LINE
  5
1161
330
A
100
AcDbEntity
  8
04
100
AcDbLine
 10
246.1203866432336
 20
335.4995079086116
 30
0.0
 11
246.1203866432336
 21
354.9995079086115
 31
0.0
  0
LINE
  5
1162
330
A
100
AcDbEntity
  8
04
100
AcDbLine
 10
247.6203866432336
 20
354.9995079086115
 30
0.0
 11
219.6203866432336
 21
354.9995079086115
 31
0.0
  0
LINE
  5
1163
330
A
100
AcDbEntity
  8
04
100
AcDbLine
 10
221.1203866432336
 20
354.9995079086115
 30
0.0
 11
221.1203866432336
 21
335.4995079086116
 31
0.0
  0
LINE
  5
1164
330
A
100
AcDbEntity
  8
04
100
AcDbLine
 10
221.1203866432336
 20
338.9995079086116
 30
0.0
 11
246.1203866432336
 21
338.9995079086116
 31
0.0
  0
LINE
  5
1165
330
A
100
AcDbEntity
  8
06
100
AcDbLine
 10
244.1203866432336
 20
323.4995079086116
 30
0.0
 11
244.1203866432336
 21
310.3995079086116
 31
0.0
  0
LINE
  5
1166
330
A
100
AcDbEntity
  8
06
100
AcDbLine
 10
239.1203866432336
 20
323.4995079086116
 30
0.0
 11
239.1203866432336
 21
310.3995079086116
 31
0.0
  0
LINE
  5
1167
330
A
100
AcDbEntity
  8
06
100
AcDbLine
 10
244.1203866432336
 20
310.3995079086116
 30
0.0
 11
243.2203866432335
 21
309.4995079086116
 31
0.0
  0
LINE
  5
1168
330
A
100
AcDbEntity
  8
06
100
AcDbLine
 10
243.2203866432335
 20
309.4995079086116
 30
0.0
 11
240.0203866432335
 21
309.4995079086116
 31
0.0
  0
LINE
  5
1169
330
A
100
AcDbEntity
  8
06
100
AcDbLine
 10
240.0203866432335
 20
309.4995079086116
 30
0.0
 11
239.1203866432336
 21
310.3995079086116
 31
0.0
  0
LINE
  5
116A
330
A
100
AcDbEntity
  8
04
100
AcDbLine
 10
201.1203866432336
 20
329.4995079086116
 30
0.0
 11
201.1203866432336
 21
335.4995079086116
 31
0.0
  0
LINE
  5
116B
330
A
100
AcDbEntity
  8
04
100
AcDbLine
 10
201.1203866432336
 20
335.4995079086116
 30
0.0
 11
176.1203866432336
 21
335.4995079086116
 31
0.0
  0
LINE
  5
116C
330
A
100
AcDbEntity
  8
04
100
AcDbLine
 10
176.1203866432336
 20
335.4995079086116
 30
0.0
 11
176.1203866432336
 21
329.4995079086116
 31
0.0
  0
LINE
  5
116D
330
A
100
AcDbEntity
  8
04
100
AcDbLine
 10
201.1203866432336
 20
335.4995079086116
 30
0.0
 11
201.1203866432336
 21
354.9995079086115
 31
0.0
  0
LINE
  5
116E
330
A
100
AcDbEntity
  8
04
100
AcDbLine
 10
201.1203866432336
 20
354.9995079086115
 30
0.0
 11
176.1203866432336
 21
354.9995079086115
 31
0.0
  0
LINE
  5
116F
330
A
100
AcDbEntity
  8
04
100
AcDbLine
 10
176.1203866432336
 20
354.9995079086115
 30
0.0
 11
176.1203866432336
 21
335.4995079086116
 31
0.0
  0
LINE
  5
1170
330
A
100
AcDbEntity
  8
04
100
AcDbLine
 10
176.1203866432336
 20
339.4995079086116
 30
0.0
 11
201.1203866432336
 21
339.4995079086116
 31
0.0
  0
LINE
  5
1171
330
A
100
AcDbEntity
  8
06
100
AcDbLine
 10
199.1203866432336
 20
323.4995079086116
 30
0.0
 11
199.1203866432336
 21
310.3995079086116
 31
0.0
  0
LINE
  5
1172
330
A
100
AcDbEntity
  8
06
100
AcDbLine
 10
194.1203866432336
 20
323.4995079086116
 30
0.0
 11
194.1203866432336
 21
310.3995079086116
 31
0.0
  0
LINE
  5
1173
330
A
100
AcDbEntity
  8
06
100
AcDbLine
 10
199.1203866432336
 20
310.3995079086116
 30
0.0
 11
198.2203866432335
 21
309.4995079086116
 31
0.0
  0
LINE
  5
1174
330
A
100
AcDbEntity
  8
06
100
AcDbLine
 10
198.2203866432335
 20
309.4995079086116
 30
0.0
 11
195.0203866432336
 21
309.4995079086116
 31
0.0
  0
LINE
  5
1175
330
A
100
AcDbEntity
  8
06
100
AcDbLine
 10
195.0203866432336
 20
309.4995079086116
 30
0.0
 11
194.1203866432336
 21
310.3995079086116
 31
0.0
  0
LINE
  5
1176
330
A
100
AcDbEntity
  8
04
100
AcDbLine
 10
246.1203866432338
 20
159.4995079086119
 30
0.0
 11
246.1203866432338
 21
143.4995079086119
 31
0.0
  0
LINE
  5
1177
330
A
100
AcDbEntity
  8
04
100
AcDbLine
 10
246.1203866432338
 20
143.4995079086119
 30
0.0
 11
221.1203866432338
 21
143.4995079086119
 31
0.0
  0
LINE
  5
1178
330
A
100
AcDbEntity
  8
04
100
AcDbLine
 10
221.1203866432338
 20
143.4995079086119
 30
0.0
 11
221.1203866432338
 21
159.4995079086119
 31
0.0
  0
LINE
  5
1179
330
A
100
AcDbEntity
  8
06
100
AcDbLine
 10
228.1203866432336
 20
323.4995079086116
 30
0.0
 11
228.1203866432336
 21
310.3995079086116
 31
0.0
  0
LINE
  5
117A
330
A
100
AcDbEntity
  8
06
100
AcDbLine
 10
223.1203866432336
 20
323.4995079086116
 30
0.0
 11
223.1203866432336
 21
310.3995079086116
 31
0.0
  0
LINE
  5
117B
330
A
100
AcDbEntity
  8
06
100
AcDbLine
 10
228.1203866432336
 20
310.3995079086116
 30
0.0
 11
227.2203866432338
 21
309.4995079086116
 31
0.0
  0
LINE
  5
117C
330
A
100
AcDbEntity
  8
06
100
AcDbLine
 10
227.2203866432338
 20
309.4995079086116
 30
0.0
 11
224.0203866432335
 21
309.4995079086116
 31
0.0
  0
LINE
  5
117D
330
A
100
AcDbEntity
  8
06
100
AcDbLine
 10
224.0203866432335
 20
309.4995079086116
 30
0.0
 11
223.1203866432336
 21
310.3995079086116
 31
0.0
  0
LINE
  5
117E
330
A
100
AcDbEntity
  8
06
100
AcDbLine
 10
183.1203866432336
 20
323.4995079086116
 30
0.0
 11
183.1203866432336
 21
310.3995079086116
 31
0.0
  0
LINE
  5
117F
330
A
100
AcDbEntity
  8
06
100
AcDbLine
 10
178.1203866432336
 20
323.4995079086116
 30
0.0
 11
178.1203866432336
 21
310.3995079086116
 31
0.0
  0
LINE
  5
1180
330
A
100
AcDbEntity
  8
06
100
AcDbLine
 10
183.1203866432336
 20
310.3995079086116
 30
0.0
 11
182.2203866432336
 21
309.4995079086116
 31
0.0
  0
LINE
  5
1181
330
A
100
AcDbEntity
  8
06
100
AcDbLine
 10
182.2203866432336
 20
309.4995079086116
 30
0.0
 11
179.0203866432336
 21
309.4995079086116
 31
0.0
  0
LINE
  5
1182
330
A
100
AcDbEntity
  8
06
100
AcDbLine
 10
179.0203866432336
 20
309.4995079086116
 30
0.0
 11
178.1203866432336
 21
310.3995079086116
 31
0.0
  0
LINE
  5
1183
330
A
100
AcDbEntity
  8
KAKURE
100
AcDbLine
 10
245.6203866432336
 20
335.4995079086116
 30
0.0
 11
245.6203866432336
 21
334.4995079086116
 31
0.0
  0
LINE
  5
1184
330
A
100
AcDbEntity
  8
KAKURE
100
AcDbLine
 10
245.6203866432336
 20
334.4995079086116
 30
0.0
 11
237.6203866432336
 21
334.4995079086116
 31
0.0
  0
LINE
  5
1185
330
A
100
AcDbEntity
  8
KAKURE
100
AcDbLine
 10
237.6203866432336
 20
335.4995079086116
 30
0.0
 11
237.6203866432336
 21
334.4995079086116
 31
0.0
  0
LINE
  5
1186
330
A
100
AcDbEntity
  8
KAKURE
100
AcDbLine
 10
237.6203866432336
 20
334.4995079086116
 30
0.0
 11
239.1203866432336
 21
332.9995079086116
 31
0.0
  0
LINE
  5
1187
330
A
100
AcDbEntity
  8
KAKURE
100
AcDbLine
 10
239.1203866432336
 20
332.9995079086116
 30
0.0
 11
244.1203866432336
 21
332.9995079086116
 31
0.0
  0
LINE
  5
1188
330
A
100
AcDbEntity
  8
KAKURE
100
AcDbLine
 10
245.6203866432336
 20
334.4995079086116
 30
0.0
 11
244.1203866432336
 21
332.9995079086116
 31
0.0
  0
LINE
  5
1189
330
A
100
AcDbEntity
  8
KAKURE
100
AcDbLine
 10
244.1203866432336
 20
332.9995079086116
 30
0.0
 11
244.1203866432336
 21
323.4995079086116
 31
0.0
  0
LINE
  5
118A
330
A
100
AcDbEntity
  8
KAKURE
100
AcDbLine
 10
239.1203866432336
 20
332.9995079086116
 30
0.0
 11
239.1203866432336
 21
323.4995079086116
 31
0.0
  0
LINE
  5
118D
330
A
100
AcDbEntity
  8
KAKURE
100
AcDbLine
 10
200.6203866432336
 20
335.4995079086116
 30
0.0
 11
200.6203866432336
 21
334.4995079086116
 31
0.0
  0
LINE
  5
118E
330
A
100
AcDbEntity
  8
KAKURE
100
AcDbLine
 10
200.6203866432336
 20
334.4995079086116
 30
0.0
 11
192.6203866432336
 21
334.4995079086116
 31
0.0
  0
LINE
  5
118F
330
A
100
AcDbEntity
  8
KAKURE
100
AcDbLine
 10
192.6203866432336
 20
335.4995079086116
 30
0.0
 11
192.6203866432336
 21
334.4995079086116
 31
0.0
  0
LINE
  5
1190
330
A
100
AcDbEntity
  8
KAKURE
100
AcDbLine
 10
192.6203866432336
 20
334.4995079086116
 30
0.0
 11
194.1203866432336
 21
332.9995079086116
 31
0.0
  0
LINE
  5
1191
330
A
100
AcDbEntity
  8
KAKURE
100
AcDbLine
 10
194.1203866432336
 20
332.9995079086116
 30
0.0
 11
199.1203866432336
 21
332.9995079086116
 31
0.0
  0
LINE
  5
1192
330
A
100
AcDbEntity
  8
KAKURE
100
AcDbLine
 10
200.6203866432336
 20
334.4995079086116
 30
0.0
 11
199.1203866432336
 21
332.9995079086116
 31
0.0
  0
LINE
  5
1193
330
A
100
AcDbEntity
  8
KAKURE
100
AcDbLine
 10
199.1203866432336
 20
332.9995079086116
 30
0.0
 11
199.1203866432336
 21
323.4995079086116
 31
0.0
  0
LINE
  5
1194
330
A
100
AcDbEntity
  8
KAKURE
100
AcDbLine
 10
194.1203866432336
 20
332.9995079086116
 30
0.0
 11
194.1203866432336
 21
323.4995079086116
 31
0.0
  0
LINE
  5
1197
330
A
100
AcDbEntity
  8
KAKURE
100
AcDbLine
 10
245.6203866432336
 20
143.4995079086119
 30
0.0
 11
245.6203866432336
 21
149.4995079086119
 31
0.0
  0
LINE
  5
1198
330
A
100
AcDbEntity
  8
KAKURE
100
AcDbLine
 10
245.6203866432336
 20
149.4995079086119
 30
0.0
 11
237.6203866432336
 21
149.4995079086119
 31
0.0
  0
LINE
  5
1199
330
A
100
AcDbEntity
  8
KAKURE
100
AcDbLine
 10
237.6203866432336
 20
143.4995079086119
 30
0.0
 11
237.6203866432336
 21
149.4995079086119
 31
0.0
  0
LINE
  5
119A
330
A
100
AcDbEntity
  8
KAKURE
100
AcDbLine
 10
237.6203866432336
 20
149.4995079086119
 30
0.0
 11
239.1203866432336
 21
150.9995079086119
 31
0.0
  0
LINE
  5
119B
330
A
100
AcDbEntity
  8
KAKURE
100
AcDbLine
 10
245.6203866432336
 20
149.4995079086119
 30
0.0
 11
244.1203866432336
 21
150.9995079086119
 31
0.0
  0
LINE
  5
119C
330
A
100
AcDbEntity
  8
KAKURE
100
AcDbLine
 10
229.6203866432336
 20
335.4995079086116
 30
0.0
 11
229.6203866432336
 21
334.4995079086116
 31
0.0
  0
LINE
  5
119D
330
A
100
AcDbEntity
  8
KAKURE
100
AcDbLine
 10
229.6203866432336
 20
334.4995079086116
 30
0.0
 11
221.6203866432336
 21
334.4995079086116
 31
0.0
  0
LINE
  5
119E
330
A
100
AcDbEntity
  8
KAKURE
100
AcDbLine
 10
221.6203866432336
 20
335.4995079086116
 30
0.0
 11
221.6203866432336
 21
334.4995079086116
 31
0.0
  0
LINE
  5
119F
330
A
100
AcDbEntity
  8
KAKURE
100
AcDbLine
 10
221.6203866432336
 20
334.4995079086116
 30
0.0
 11
223.1203866432336
 21
332.9995079086116
 31
0.0
  0
LINE
  5
11A0
330
A
100
AcDbEntity
  8
KAKURE
100
AcDbLine
 10
223.1203866432336
 20
332.9995079086116
 30
0.0
 11
228.1203866432336
 21
332.9995079086116
 31
0.0
  0
LINE
  5
11A1
330
A
100
AcDbEntity
  8
KAKURE
100
AcDbLine
 10
229.6203866432336
 20
334.4995079086116
 30
0.0
 11
228.1203866432336
 21
332.9995079086116
 31
0.0
  0
LINE
  5
11A2
330
A
100
AcDbEntity
  8
KAKURE
100
AcDbLine
 10
228.1203866432336
 20
332.9995079086116
 30
0.0
 11
228.1203866432336
 21
323.4995079086116
 31
0.0
  0
LINE
  5
11A3
330
A
100
AcDbEntity
  8
KAKURE
100
AcDbLine
 10
223.1203866432336
 20
332.9995079086116
 30
0.0
 11
223.1203866432336
 21
323.4995079086116
 31
0.0
  0
LINE
  5
11A6
330
A
100
AcDbEntity
  8
KAKURE
100
AcDbLine
 10
184.6203866432336
 20
335.4995079086116
 30
0.0
 11
184.6203866432336
 21
334.4995079086116
 31
0.0
  0
LINE
  5
11A7
330
A
100
AcDbEntity
  8
KAKURE
100
AcDbLine
 10
184.6203866432336
 20
334.4995079086116
 30
0.0
 11
176.6203866432336
 21
334.4995079086116
 31
0.0
  0
LINE
  5
11A8
330
A
100
AcDbEntity
  8
KAKURE
100
AcDbLine
 10
176.6203866432336
 20
335.4995079086116
 30
0.0
 11
176.6203866432336
 21
334.4995079086116
 31
0.0
  0
LINE
  5
11A9
330
A
100
AcDbEntity
  8
KAKURE
100
AcDbLine
 10
176.6203866432336
 20
334.4995079086116
 30
0.0
 11
178.1203866432336
 21
332.9995079086116
 31
0.0
  0
LINE
  5
11AA
330
A
100
AcDbEntity
  8
KAKURE
100
AcDbLine
 10
178.1203866432336
 20
332.9995079086116
 30
0.0
 11
183.1203866432336
 21
332.9995079086116
 31
0.0
  0
LINE
  5
11AB
330
A
100
AcDbEntity
  8
KAKURE
100
AcDbLine
 10
184.6203866432336
 20
334.4995079086116
 30
0.0
 11
183.1203866432336
 21
332.9995079086116
 31
0.0
  0
LINE
  5
11AC
330
A
100
AcDbEntity
  8
KAKURE
100
AcDbLine
 10
183.1203866432336
 20
332.9995079086116
 30
0.0
 11
183.1203866432336
 21
323.4995079086116
 31
0.0
  0
LINE
  5
11AD
330
A
100
AcDbEntity
  8
KAKURE
100
AcDbLine
 10
178.1203866432336
 20
332.9995079086116
 30
0.0
 11
178.1203866432336
 21
323.4995079086116
 31
0.0
  0
LINE
  5
11B0
330
A
100
AcDbEntity
  8
KAKURE
100
AcDbLine
 10
229.6203866432336
 20
143.4995079086119
 30
0.0
 11
229.6203866432336
 21
149.4995079086119
 31
0.0
  0
LINE
  5
11B1
330
A
100
AcDbEntity
  8
KAKURE
100
AcDbLine
 10
229.6203866432336
 20
149.4995079086119
 30
0.0
 11
221.6203866432336
 21
149.4995079086119
 31
0.0
  0
LINE
  5
11B2
330
A
100
AcDbEntity
  8
KAKURE
100
AcDbLine
 10
221.6203866432336
 20
143.4995079086119
 30
0.0
 11
221.6203866432336
 21
149.4995079086119
 31
0.0
  0
LINE
  5
11B3
330
A
100
AcDbEntity
  8
KAKURE
100
AcDbLine
 10
221.6203866432336
 20
149.4995079086119
 30
0.0
 11
223.1203866432336
 21
150.9995079086119
 31
0.0
  0
LINE
  5
11B4
330
A
100
AcDbEntity
  8
KAKURE
100
AcDbLine
 10
229.6203866432336
 20
149.4995079086119
 30
0.0
 11
228.1203866432336
 21
150.9995079086119
 31
0.0
  0
LINE
  5
11C1
330
A
100
AcDbEntity
  8
CHUSIN
100
AcDbLine
 10
241.6203866432336
 20
337.9392121042611
 30
0.0
 11
241.6203866432336
 21
306.2791706192323
 31
0.0
  0
LINE
  5
11C2
330
A
100
AcDbEntity
  8
CHUSIN
100
AcDbLine
 10
225.6203866432336
 20
337.9392121042611
 30
0.0
 11
225.6203866432336
 21
306.2791706192323
 31
0.0
  0
LINE
  5
11C3
330
A
100
AcDbEntity
  8
CHUSIN
100
AcDbLine
 10
196.6203866432336
 20
337.9392121042611
 30
0.0
 11
196.6203866432336
 21
306.2791706192323
 31
0.0
  0
LINE
  5
11C4
330
A
100
AcDbEntity
  8
CHUSIN
100
AcDbLine
 10
180.6203866432336
 20
337.9392121042611
 30
0.0
 11
180.6203866432336
 21
306.2791706192323
 31
0.0
  0
LINE
  5
11C5
330
A
100
AcDbEntity
  8
CHUSIN
100
AcDbLine
 10
241.6203866432336
 20
177.5112735666325
 30
0.0
 11
241.6203866432336
 21
141.1933131589885
 31
0.0
  0
LINE
  5
11C6
330
A
100
AcDbEntity
  8
CHUSIN
100
AcDbLine
 10
225.6203866432336
 20
177.5112735666325
 30
0.0
 11
225.6203866432336
 21
141.1933131589885
 31
0.0
  0
LINE
  5
11C7
330
A
100
AcDbEntity
  8
CHUSIN
100
AcDbLine
 10
196.6203866432336
 20
183.0475480190171
 30
0.0
 11
196.6203866432336
 21
150.8633392024873
 31
0.0
  0
LINE
  5
11C8
330
A
100
AcDbEntity
  8
CHUSIN
100
AcDbLine
 10
180.6203866432336
 20
183.0475480190171
 30
0.0
 11
180.6203866432336
 21
150.8633392024873
 31
0.0
  0
LINE
  5
11C9
330
A
100
AcDbEntity
  8
03
100
AcDbLine
 10
163.1203874061731
 20
357.9995079086117
 30
0.0
 11
176.6203874061731
 21
357.9995079086117
 31
0.0
  0
LINE
  5
11CA
330
A
100
AcDbEntity
  8
03
100
AcDbLine
 10
176.6203874061731
 20
357.9995079086117
 30
0.0
 11
176.6203874061731
 21
359.9995079086117
 31
0.0
  0
LINE
  5
11CB
330
A
100
AcDbEntity
  8
03
100
AcDbLine
 10
176.6203874061731
 20
359.9995079086117
 30
0.0
 11
179.1203874061731
 21
359.9995079086117
 31
0.0
  0
LINE
  5
11CC
330
A
100
AcDbEntity
  8
03
100
AcDbLine
 10
179.1203874061731
 20
359.9995079086117
 30
0.0
 11
179.1203874061731
 21
361.9995079086117
 31
0.0
  0
LINE
  5
11CD
330
A
100
AcDbEntity
  8
03
100
AcDbLine
 10
179.1203874061731
 20
361.9995079086117
 30
0.0
 11
176.6203874061731
 21
361.9995079086117
 31
0.0
  0
LINE
  5
11CE
330
A
100
AcDbEntity
  8
03
100
AcDbLine
 10
176.6203874061731
 20
361.9995079086117
 30
0.0
 11
176.6203874061731
 21
366.6169319198422
 31
0.0
  0
ARC
  5
11CF
330
A
100
AcDbEntity
  8
03
100
AcDbCircle
 10
177.6203874061731
 20
366.6169319198422
 30
0.0
 40
1.0
100
AcDbArc
 50
113.5781784782015
 51
179.9999999999995
  0
ARC
  5
11D0
330
A
100
AcDbEntity
  8
03
100
AcDbCircle
 10
175.6203874061731
 20
371.1995048568537
 30
0.0
 40
4.0
100
AcDbArc
 50
89.99999999999978
 51
127.7089999999992
  0
LINE
  5
11D1
330
A
100
AcDbEntity
  8
03
100
AcDbLine
 10
180.5559724281458
 20
372.9995079086118
 30
0.0
 11
193.6203874061731
 21
372.9995079086118
 31
0.0
  0
ARC
  5
11D2
330
A
100
AcDbEntity
  8
03
100
AcDbCircle
 10
193.6203874061731
 20
371.9995079086118
 30
0.0
 40
1.0
100
AcDbArc
 50
359.9999999999998
 51
89.99999999999976
  0
LINE
  5
11D3
330
A
100
AcDbEntity
  8
03
100
AcDbLine
 10
194.6203874061731
 20
371.9995079086118
 30
0.0
 11
194.6203874061731
 21
366.4995079086118
 31
0.0
  0
LINE
  5
11D4
330
A
100
AcDbEntity
  8
03
100
AcDbLine
 10
194.6203874061731
 20
366.4995079086118
 30
0.0
 11
192.1203874061731
 21
366.4995079086118
 31
0.0
  0
LINE
  5
11D5
330
A
100
AcDbEntity
  8
03
100
AcDbLine
 10
192.1203874061731
 20
366.4995079086118
 30
0.0
 11
192.1203874061731
 21
364.4995079086118
 31
0.0
  0
LINE
  5
11D6
330
A
100
AcDbEntity
  8
03
100
AcDbLine
 10
192.1203874061731
 20
364.4995079086118
 30
0.0
 11
193.1203874061731
 21
364.4995079086118
 31
0.0
  0
LINE
  5
11D7
330
A
100
AcDbEntity
  8
03
100
AcDbLine
 10
193.1203874061731
 20
364.4995079086118
 30
0.0
 11
193.1203874061731
 21
365.2495079086118
 31
0.0
  0
LINE
  5
11D8
330
A
100
AcDbEntity
  8
03
100
AcDbLine
 10
193.1203874061731
 20
365.2495079086118
 30
0.0
 11
194.6203874061731
 21
365.2495079086118
 31
0.0
  0
ARC
  5
11D9
330
A
100
AcDbEntity
  8
03
100
AcDbCircle
 10
194.6203874061731
 20
363.7495079086118
 30
0.0
 40
1.5
100
AcDbArc
 50
359.9999999999998
 51
89.99999999999976
  0
LINE
  5
11DA
330
A
100
AcDbEntity
  8
03
100
AcDbLine
 10
196.1203874061729
 20
363.7495079086118
 30
0.0
 11
196.1203874061729
 21
362.7495079086118
 31
0.0
  0
ARC
  5
11DB
330
A
100
AcDbEntity
  8
03
100
AcDbCircle
 10
194.6203874061731
 20
362.7495079086118
 30
0.0
 40
1.5
100
AcDbArc
 50
269.9999999999996
 51
359.9999999999998
  0
LINE
  5
11DC
330
A
100
AcDbEntity
  8
03
100
AcDbLine
 10
194.6203874061731
 20
361.2495079086118
 30
0.0
 11
193.1203874061731
 21
361.2495079086118
 31
0.0
  0
LINE
  5
11DD
330
A
100
AcDbEntity
  8
03
100
AcDbLine
 10
193.1203874061731
 20
361.2495079086118
 30
0.0
 11
193.1203874061731
 21
361.9995079086117
 31
0.0
  0
LINE
  5
11DE
330
A
100
AcDbEntity
  8
03
100
AcDbLine
 10
193.1203874061731
 20
361.9995079086117
 30
0.0
 11
192.1203874061731
 21
361.9995079086117
 31
0.0
  0
LINE
  5
11DF
330
A
100
AcDbEntity
  8
03
100
AcDbLine
 10
192.1203874061731
 20
361.9995079086117
 30
0.0
 11
192.1203874061731
 21
359.9995079086117
 31
0.0
  0
LINE
  5
11E0
330
A
100
AcDbEntity
  8
03
100
AcDbLine
 10
192.1203874061731
 20
359.9995079086117
 30
0.0
 11
194.6203874061731
 21
359.9995079086117
 31
0.0
  0
LINE
  5
11E1
330
A
100
AcDbEntity
  8
03
100
AcDbLine
 10
194.6203874061731
 20
359.9995079086117
 30
0.0
 11
194.6203874061731
 21
357.9995079086117
 31
0.0
  0
LINE
  5
11E2
330
A
100
AcDbEntity
  8
03
100
AcDbLine
 10
194.6203874061731
 20
357.9995079086117
 30
0.0
 11
206.6203874061731
 21
357.9995079086117
 31
0.0
  0
ARC
  5
11E3
330
A
100
AcDbEntity
  8
03
100
AcDbCircle
 10
206.6203874061731
 20
358.9995079086115
 30
0.0
 40
1.0
100
AcDbArc
 50
269.9999999999996
 51
359.9999999999998
  0
LINE
  5
11E4
330
A
100
AcDbEntity
  8
03
100
AcDbLine
 10
207.6203874061731
 20
358.9995079086115
 30
0.0
 11
207.6203874061731
 21
361.9995079086117
 31
0.0
  0
LINE
  5
11E5
330
A
100
AcDbEntity
  8
03
100
AcDbLine
 10
207.6203874061731
 20
361.9995079086117
 30
0.0
 11
206.6203874061731
 21
361.9995079086117
 31
0.0
  0
LINE
  5
11E6
330
A
100
AcDbEntity
  8
03
100
AcDbLine
 10
206.6203874061731
 20
361.9995079086117
 30
0.0
 11
206.6203874061731
 21
360.7495079086115
 31
0.0
  0
LINE
  5
11E7
330
A
100
AcDbEntity
  8
03
100
AcDbLine
 10
206.6203874061731
 20
360.7495079086115
 30
0.0
 11
205.420387596908
 21
360.7495079086115
 31
0.0
  0
LINE
  5
11E8
330
A
100
AcDbEntity
  8
03
100
AcDbLine
 10
205.420387596908
 20
360.7495079086115
 30
0.0
 11
205.420387596908
 21
363.7995109603695
 31
0.0
  0
LINE
  5
11E9
330
A
100
AcDbEntity
  8
03
100
AcDbLine
 10
205.420387596908
 20
363.7995109603695
 30
0.0
 11
205.2203873108056
 21
363.9995079086117
 31
0.0
  0
LINE
  5
11EA
330
A
100
AcDbEntity
  8
03
100
AcDbLine
 10
205.2203873108056
 20
363.9995079086117
 30
0.0
 11
205.420387596908
 21
364.1995048568539
 31
0.0
  0
LINE
  5
11EB
330
A
100
AcDbEntity
  8
03
100
AcDbLine
 10
205.420387596908
 20
364.1995048568539
 30
0.0
 11
205.420387596908
 21
367.2495079086115
 31
0.0
  0
LINE
  5
11EC
330
A
100
AcDbEntity
  8
03
100
AcDbLine
 10
205.420387596908
 20
367.2495079086115
 30
0.0
 11
206.6203874061731
 21
367.2495079086115
 31
0.0
  0
LINE
  5
11ED
330
A
100
AcDbEntity
  8
03
100
AcDbLine
 10
206.6203874061731
 20
367.2495079086115
 30
0.0
 11
206.6203874061731
 21
365.9995079086117
 31
0.0
  0
LINE
  5
11EE
330
A
100
AcDbEntity
  8
03
100
AcDbLine
 10
206.6203874061731
 20
365.9995079086117
 30
0.0
 11
207.6203874061731
 21
365.9995079086117
 31
0.0
  0
LINE
  5
11EF
330
A
100
AcDbEntity
  8
03
100
AcDbLine
 10
207.6203874061731
 20
365.9995079086117
 30
0.0
 11
207.6203874061731
 21
368.9995079086116
 31
0.0
  0
LINE
  5
11F0
330
A
100
AcDbEntity
  8
03
100
AcDbLine
 10
207.6203874061731
 20
368.9995079086116
 30
0.0
 11
204.4203875969079
 21
368.9995079086116
 31
0.0
  0
ARC
  5
11F1
330
A
100
AcDbEntity
  8
03
100
AcDbCircle
 10
204.4203875969079
 20
367.9995079086117
 30
0.0
 40
1.0
100
AcDbArc
 50
89.99999999999978
 51
179.9999999999995
  0
LINE
  5
11F2
330
A
100
AcDbEntity
  8
03
100
AcDbLine
 10
203.420387596908
 20
367.9995079086117
 30
0.0
 11
203.420387596908
 21
361.2995109603695
 31
0.0
  0
ARC
  5
11F3
330
A
100
AcDbEntity
  8
03
100
AcDbCircle
 10
202.4203875969079
 20
361.2995109603695
 30
0.0
 40
1.0
100
AcDbArc
 50
270.0
 51
359.9999999999998
  0
LINE
  5
11F4
330
A
100
AcDbEntity
  8
03
100
AcDbLine
 10
202.4203875969079
 20
360.2995109603693
 30
0.0
 11
199.1203874061731
 21
360.2995109603693
 31
0.0
  0
ARC
  5
11F5
330
A
100
AcDbEntity
  8
03
100
AcDbCircle
 10
199.1203874061731
 20
361.2995109603695
 30
0.0
 40
1.0
100
AcDbArc
 50
179.9999999999995
 51
269.9999999999996
  0
LINE
  5
11F6
330
A
100
AcDbEntity
  8
03
100
AcDbLine
 10
198.1203874061731
 20
361.2995109603695
 30
0.0
 11
198.1203874061731
 21
365.0128974960141
 31
0.0
  0
ARC
  5
11F7
330
A
100
AcDbEntity
  8
03
100
AcDbCircle
 10
196.6203874061731
 20
365.0128974960141
 30
0.0
 40
1.5
100
AcDbArc
 50
359.9999999999998
 51
82.33774433923377
  0
LINE
  5
11F8
330
A
100
AcDbEntity
  8
03
100
AcDbLine
 10
196.8203872154383
 20
366.4995079086118
 30
0.0
 11
196.8203872154383
 21
374.199504856854
 31
0.0
  0
ARC
  5
11F9
330
A
100
AcDbEntity
  8
03
100
AcDbCircle
 10
195.8203881691126
 20
374.199504856854
 30
0.0
 40
1.0
100
AcDbArc
 50
359.9999999999998
 51
89.99999999999976
  0
LINE
  5
11FA
330
A
100
AcDbEntity
  8
03
100
AcDbLine
 10
195.8203881691126
 20
375.1995048568537
 30
0.0
 11
175.6203874061731
 21
375.1995048568537
 31
0.0
  0
ARC
  5
11FB
330
A
100
AcDbEntity
  8
03
100
AcDbCircle
 10
175.6203874061731
 20
371.1995048568537
 30
0.0
 40
1.799999999999999
100
AcDbArc
 50
232.2913222896228
 51
127.7089999999992
  0
ARC
  5
11FC
330
A
100
AcDbEntity
  8
03
100
AcDbCircle
 10
175.6203874061731
 20
371.1995048568537
 30
0.0
 40
4.0
100
AcDbArc
 50
232.2913222896228
 51
252.5423968762777
  0
ARC
  5
11FD
330
A
100
AcDbEntity
  8
03
100
AcDbCircle
 10
173.8465989540245
 20
373.4937782333187
 30
0.0
 40
1.099999999999998
100
AcDbArc
 50
127.708999999999
 51
307.7089999999992
  0
ARC
  5
11FE
330
A
100
AcDbEntity
  8
03
100
AcDbCircle
 10
173.8466103981165
 20
368.9052314803891
 30
0.0
 40
1.099999999999998
100
AcDbArc
 50
52.29132228962325
 51
232.2913222896227
  0
LINE
  5
11FF
330
A
100
AcDbEntity
  8
03
100
AcDbLine
 10
174.4203866432336
 20
367.3837547347837
 30
0.0
 11
174.4203866432336
 21
362.2995109603696
 31
0.0
  0
ARC
  5
1200
330
A
100
AcDbEntity
  8
03
100
AcDbCircle
 10
172.4203866432335
 20
362.2995109603696
 30
0.0
 40
2.0
100
AcDbArc
 50
269.9999999999993
 51
359.9999999999998
  0
ARC
  5
1201
330
A
100
AcDbEntity
  8
03
100
AcDbCircle
 10
175.6203874061731
 20
371.1995048568537
 30
0.0
 40
4.0
100
AcDbArc
 50
293.5781784782016
 51
9.206896221345735
  0
ARC
  5
1202
330
A
100
AcDbEntity
  8
03
100
AcDbCircle
 10
180.5559724281458
 20
371.9995079086118
 30
0.0
 40
1.0
100
AcDbArc
 50
89.99999999999978
 51
189.2068962213454
  0
LINE
  5
1203
330
A
100
AcDbEntity
  8
03
100
AcDbLine
 10
172.4203866432335
 20
360.2995109603696
 30
0.0
 11
167.4203866432335
 21
360.2995109603696
 31
0.0
  0
ARC
  5
1204
330
A
100
AcDbEntity
  8
03
100
AcDbCircle
 10
167.4203866432335
 20
362.2995109603696
 30
0.0
 40
2.0
100
AcDbArc
 50
179.9999999999995
 51
269.9999999999996
  0
LINE
  5
1205
330
A
100
AcDbEntity
  8
03
100
AcDbLine
 10
165.4203866432335
 20
362.2995109603696
 30
0.0
 11
165.4203866432335
 21
397.7995071456723
 31
0.0
  0
LINE
  5
1206
330
A
100
AcDbEntity
  8
03
100
AcDbLine
 10
165.4203866432335
 20
397.7995071456723
 30
0.0
 11
165.6203874061731
 21
397.9995079086118
 31
0.0
  0
LINE
  5
1207
330
A
100
AcDbEntity
  8
03
100
AcDbLine
 10
165.6203874061731
 20
397.9995079086118
 30
0.0
 11
165.6203874061731
 21
477.9995079086118
 31
0.0
  0
LINE
  5
1208
330
A
100
AcDbEntity
  8
03
100
AcDbLine
 10
165.6203874061731
 20
477.9995079086118
 30
0.0
 11
165.4203866432338
 21
478.1995086715512
 31
0.0
  0
LINE
  5
1209
330
A
100
AcDbEntity
  8
03
100
AcDbLine
 10
165.4203866432338
 20
478.1995086715512
 30
0.0
 11
165.4203866432339
 21
501.4995079086117
 31
0.0
  0
ARC
  5
120A
330
A
100
AcDbEntity
  8
03
100
AcDbCircle
 10
167.4203866432339
 20
501.4995079086117
 30
0.0
 40
2.0
100
AcDbArc
 50
89.99999999999978
 51
179.9999999999995
  0
LINE
  5
120B
330
A
100
AcDbEntity
  8
03
100
AcDbLine
 10
167.4203866432339
 20
503.4995079086118
 30
0.0
 11
174.1802018592983
 21
503.4995079086118
 31
0.0
  0
LINE
  5
120C
330
A
100
AcDbEntity
  8
03
100
AcDbLine
 10
178.7428849647671
 20
503.4995079086118
 30
0.0
 11
177.0605729530483
 21
503.4995079086118
 31
0.0
  0
ARC
  5
120D
330
A
100
AcDbEntity
  8
03
100
AcDbCircle
 10
175.6203874061734
 20
505.9995079086117
 30
0.0
 40
1.799999999999999
100
AcDbArc
 50
321.8653222896226
 51
218.1346777103768
  0
ARC
  5
120E
330
A
100
AcDbEntity
  8
03
100
AcDbCircle
 10
175.6203874061734
 20
505.9995079086117
 30
0.0
 40
4.0
100
AcDbArc
 50
321.3178125465104
 51
333.8961188626598
  0
ARC
  5
120F
330
A
100
AcDbEntity
  8
03
100
AcDbCircle
 10
180.1103776405484
 20
503.799507145672
 30
0.0
 40
1.0
100
AcDbArc
 50
89.99999999999978
 51
153.8961188626595
  0
ARC
  5
1210
330
A
100
AcDbEntity
  8
03
100
AcDbCircle
 10
177.9014161537319
 20
504.2087211654476
 30
0.0
 40
1.099999999999998
100
AcDbArc
 50
141.8653222896231
 51
220.1462568779954
  0
ARC
  5
1211
330
A
100
AcDbEntity
  8
03
100
AcDbCircle
 10
173.3393586586148
 20
504.2087211654476
 30
0.0
 40
1.099999999999998
100
AcDbArc
 50
319.8537431220043
 51
38.13467771037768
  0
LINE
  5
1212
330
A
100
AcDbEntity
  8
03
100
AcDbLine
 10
180.1103776405484
 20
504.7995071456723
 30
0.0
 11
205.1203874061733
 21
504.7995071456723
 31
0.0
  0
LINE
  5
1213
330
A
100
AcDbEntity
  8
03
100
AcDbLine
 10
205.1203874061733
 20
504.7995071456723
 30
0.0
 11
205.1203874061733
 21
503.4995079086115
 31
0.0
  0
LINE
  5
1214
330
A
100
AcDbEntity
  8
03
100
AcDbLine
 10
205.1203874061733
 20
503.4995079086115
 30
0.0
 11
207.4203875969081
 21
503.4995079086115
 31
0.0
  0
LINE
  5
1215
330
A
100
AcDbEntity
  8
03
100
AcDbLine
 10
207.4203875969081
 20
503.4995079086115
 30
0.0
 11
207.4203875969081
 21
505.7995071456723
 31
0.0
  0
LINE
  5
1216
330
A
100
AcDbEntity
  8
03
100
AcDbLine
 10
207.4203875969081
 20
505.7995071456723
 30
0.0
 11
220.1203874061734
 21
505.7995071456721
 31
0.0
  0
ARC
  5
1217
330
A
100
AcDbEntity
  8
03
100
AcDbCircle
 10
220.1203874061734
 20
509.4995079086117
 30
0.0
 40
3.699999999999998
100
AcDbArc
 50
269.9999999999996
 51
359.9999999999998
  0
LINE
  5
1218
330
A
100
AcDbEntity
  8
03
100
AcDbLine
 10
223.8203872154385
 20
509.4995079086117
 30
0.0
 11
223.8203872154385
 21
519.4995079086115
 31
0.0
  0
ARC
  5
1219
330
A
100
AcDbEntity
  8
03
100
AcDbCircle
 10
223.6203874061733
 20
520.9861183212093
 30
0.0
 40
1.5
100
AcDbArc
 50
277.662255660766
 51
359.9999999999998
  0
LINE
  5
121A
330
A
100
AcDbEntity
  8
03
100
AcDbLine
 10
225.1203874061733
 20
520.9861183212093
 30
0.0
 11
225.1203874061733
 21
524.9995079086117
 31
0.0
  0
ARC
  5
121B
330
A
100
AcDbEntity
  8
03
100
AcDbCircle
 10
226.1203874061734
 20
524.9995079086117
 30
0.0
 40
1.0
100
AcDbArc
 50
89.99999999999984
 51
179.9999999999995
  0
LINE
  5
121C
330
A
100
AcDbEntity
  8
03
100
AcDbLine
 10
226.1203874061734
 20
525.9995079086117
 30
0.0
 11
247.2139848182826
 21
525.9995079086117
 31
0.0
  0
ARC
  5
121D
330
A
100
AcDbEntity
  8
03
100
AcDbCircle
 10
249.6203874061734
 20
523.9995079086115
 30
0.0
 40
1.799999999999999
100
AcDbArc
 50
226.1123513152066
 51
133.887648684793
  0
LINE
  5
121E
330
A
100
AcDbEntity
  8
03
100
AcDbLine
 10
247.2139848182826
 20
521.9995079086117
 30
0.0
 11
246.1203874061733
 21
521.9995079086117
 31
0.0
  0
ARC
  5
121F
330
A
100
AcDbEntity
  8
03
100
AcDbCircle
 10
246.1203874061733
 20
518.9995079086116
 30
0.0
 40
3.0
100
AcDbArc
 50
89.99999999999978
 51
179.9999999999995
  0
LINE
  5
1220
330
A
100
AcDbEntity
  8
03
100
AcDbLine
 10
243.1203874061734
 20
518.9995079086116
 30
0.0
 11
243.1203874061734
 21
513.4995079086117
 31
0.0
  0
LINE
  5
1221
330
A
100
AcDbEntity
  8
03
100
AcDbLine
 10
243.1203874061734
 20
513.4995079086117
 30
0.0
 11
245.6203874061734
 21
510.9995079086115
 31
0.0
  0
LINE
  5
1222
330
A
100
AcDbEntity
  8
03
100
AcDbLine
 10
245.6203874061734
 20
510.9995079086115
 30
0.0
 11
251.6635316322474
 21
510.9995079086115
 31
0.0
  0
ARC
  5
1223
330
A
100
AcDbEntity
  8
03
100
AcDbCircle
 10
251.6635316322474
 20
507.9995079086115
 30
0.0
 40
3.0
100
AcDbArc
 50
19.47122063449054
 51
89.99999999999978
  0
ARC
  5
1224
330
A
100
AcDbEntity
  8
03
100
AcDbCircle
 10
257.3203881691128
 20
509.9995079086116
 30
0.0
 40
3.0
100
AcDbArc
 50
199.47122063449
 51
269.9999999999996
  0
LINE
  5
1225
330
A
100
AcDbEntity
  8
03
100
AcDbLine
 10
257.3203881691128
 20
506.9995079086115
 30
0.0
 11
257.3203881691128
 21
499.9995079086115
 31
0.0
  0
LINE
  5
1226
330
A
100
AcDbEntity
  8
03
100
AcDbLine
 10
257.3203881691128
 20
499.9995079086115
 30
0.0
 11
260.1203874061734
 21
499.9995079086115
 31
0.0
  0
LINE
  5
1227
330
A
100
AcDbEntity
  8
03
100
AcDbLine
 10
260.1203874061734
 20
499.9995079086115
 30
0.0
 11
260.1203874061734
 21
501.7495079086115
 31
0.0
  0
LINE
  5
1228
330
A
100
AcDbEntity
  8
03
100
AcDbLine
 10
260.1203874061734
 20
501.7495079086115
 30
0.0
 11
259.8203881691126
 21
502.049507145672
 31
0.0
  0
LINE
  5
1229
330
A
100
AcDbEntity
  8
03
100
AcDbLine
 10
259.8203881691126
 20
502.049507145672
 30
0.0
 11
259.8203881691126
 21
504.7995071456721
 31
0.0
  0
LINE
  5
122A
330
A
100
AcDbEntity
  8
03
100
AcDbLine
 10
259.8203881691126
 20
504.7995071456721
 30
0.0
 11
259.6203874061734
 21
504.9995079086115
 31
0.0
  0
LINE
  5
122B
330
A
100
AcDbEntity
  8
03
100
AcDbLine
 10
259.6203874061734
 20
504.9995079086115
 30
0.0
 11
259.8203881691126
 21
505.1995086715511
 31
0.0
  0
LINE
  5
122C
330
A
100
AcDbEntity
  8
03
100
AcDbLine
 10
259.8203881691126
 20
505.1995086715511
 30
0.0
 11
259.8203881691126
 21
507.9495048568538
 31
0.0
  0
LINE
  5
122D
330
A
100
AcDbEntity
  8
03
100
AcDbLine
 10
259.8203881691126
 20
507.9495048568538
 30
0.0
 11
260.1203874061734
 21
508.2495079086116
 31
0.0
  0
LINE
  5
122E
330
A
100
AcDbEntity
  8
03
100
AcDbLine
 10
260.1203874061734
 20
508.2495079086116
 30
0.0
 11
260.1203874061734
 21
510.4995079086116
 31
0.0
  0
LINE
  5
122F
330
A
100
AcDbEntity
  8
03
100
AcDbLine
 10
259.1203874061733
 20
510.4995079086116
 30
0.0
 11
259.1203874061733
 21
509.9995079086116
 31
0.0
  0
LINE
  5
1230
330
A
100
AcDbEntity
  8
03
100
AcDbLine
 10
257.1203874061733
 20
509.9995079086116
 30
0.0
 11
257.1203874061733
 21
511.7995109603693
 31
0.0
  0
LINE
  5
1231
330
A
100
AcDbEntity
  8
03
100
AcDbLine
 10
257.1203874061733
 20
511.7995109603693
 30
0.0
 11
255.4203866432338
 21
511.7995109603693
 31
0.0
  0
LINE
  5
1232
330
A
100
AcDbEntity
  8
03
100
AcDbLine
 10
255.4203866432338
 20
511.7995109603693
 30
0.0
 11
255.4203866432338
 21
512.8995094344904
 31
0.0
  0
LINE
  5
1233
330
A
100
AcDbEntity
  8
03
100
AcDbLine
 10
255.4203866432338
 20
512.8995094344904
 30
0.0
 11
246.0237534950405
 21
513.8118019149593
 31
0.0
  0
ARC
  5
1234
330
A
100
AcDbEntity
  8
03
100
AcDbCircle
 10
246.1203874061733
 20
514.8071250961115
 30
0.0
 40
1.0
100
AcDbArc
 50
179.9999999999995
 51
264.4546826911375
  0
LINE
  5
1235
330
A
100
AcDbEntity
  8
03
100
AcDbLine
 10
245.1203874061734
 20
514.8071250961115
 30
0.0
 11
245.1203874061734
 21
518.9995079086116
 31
0.0
  0
ARC
  5
1236
330
A
100
AcDbEntity
  8
03
100
AcDbCircle
 10
246.1203874061733
 20
518.9995079086116
 30
0.0
 40
1.0
100
AcDbArc
 50
89.99999999999978
 51
179.9999999999995
  0
LINE
  5
1237
330
A
100
AcDbEntity
  8
03
100
AcDbLine
 10
246.1203874061733
 20
519.9995079086115
 30
0.0
 11
252.6203874061733
 21
519.9995079086115
 31
0.0
  0
ARC
  5
1238
330
A
100
AcDbEntity
  8
03
100
AcDbCircle
 10
252.6203874061733
 20
520.9995079086115
 30
0.0
 40
1.0
100
AcDbArc
 50
269.9999999999993
 51
359.9999999999998
  0
LINE
  5
1239
330
A
100
AcDbEntity
  8
03
100
AcDbLine
 10
253.6203874061734
 20
520.9995079086115
 30
0.0
 11
253.6203874061734
 21
523.9995079086115
 31
0.0
  0
ARC
  5
123A
330
A
100
AcDbEntity
  8
03
100
AcDbCircle
 10
255.6203874061734
 20
523.9995079086115
 30
0.0
 40
2.0
100
AcDbArc
 50
89.99999999999978
 51
179.9999999999995
  0
LINE
  5
123B
330
A
100
AcDbEntity
  8
03
100
AcDbLine
 10
255.6203874061734
 20
525.9995079086116
 30
0.0
 11
258.8203881691128
 21
525.9995079086116
 31
0.0
  0
ARC
  5
123C
330
A
100
AcDbEntity
  8
03
100
AcDbCircle
 10
258.8203881691128
 20
524.9995079086115
 30
0.0
 40
1.0
100
AcDbArc
 50
359.9999999999998
 51
90.00000000000023
  0
LINE
  5
123D
330
A
100
AcDbEntity
  8
03
100
AcDbLine
 10
259.8203881691126
 20
524.9995079086115
 30
0.0
 11
259.8203881691126
 21
519.4995079086115
 31
0.0
  0
ARC
  5
123E
330
A
100
AcDbEntity
  8
03
100
AcDbCircle
 10
261.3203881691128
 20
519.4995079086115
 30
0.0
 40
1.5
100
AcDbArc
 50
179.9999999999995
 51
269.9999999999945
  0
LINE
  5
123F
330
A
100
AcDbEntity
  8
03
100
AcDbLine
 10
261.3203881691128
 20
517.9995079086116
 30
0.0
 11
262.1203874061734
 21
517.9995079086116
 31
0.0
  0
LINE
  5
1240
330
A
100
AcDbEntity
  8
03
100
AcDbLine
 10
262.1203874061734
 20
517.9995079086116
 30
0.0
 11
262.1203874061734
 21
527.9995079086115
 31
0.0
  0
LINE
  5
1241
330
A
100
AcDbEntity
  8
03
100
AcDbLine
 10
262.1203874061734
 20
527.9995079086115
 30
0.0
 11
221.6203874061733
 21
527.9995079086115
 31
0.0
  0
LINE
  5
1242
330
A
100
AcDbEntity
  8
03
100
AcDbLine
 10
221.6203874061733
 20
527.9995079086115
 30
0.0
 11
221.6203874061733
 21
525.9995079086117
 31
0.0
  0
LINE
  5
1243
330
A
100
AcDbEntity
  8
03
100
AcDbLine
 10
221.6203874061733
 20
525.9995079086117
 30
0.0
 11
219.1203874061733
 21
525.9995079086117
 31
0.0
  0
LINE
  5
1244
330
A
100
AcDbEntity
  8
03
100
AcDbLine
 10
219.1203874061733
 20
525.9995079086117
 30
0.0
 11
219.1203874061733
 21
523.9995079086115
 31
0.0
  0
LINE
  5
1245
330
A
100
AcDbEntity
  8
03
100
AcDbLine
 10
219.1203874061733
 20
523.9995079086115
 30
0.0
 11
220.1203874061734
 21
523.9995079086115
 31
0.0
  0
LINE
  5
1246
330
A
100
AcDbEntity
  8
03
100
AcDbLine
 10
220.1203874061734
 20
523.9995079086115
 30
0.0
 11
220.1203874061734
 21
524.7495079086117
 31
0.0
  0
LINE
  5
1247
330
A
100
AcDbEntity
  8
03
100
AcDbLine
 10
220.1203874061734
 20
524.7495079086117
 30
0.0
 11
221.6203874061733
 21
524.7495079086117
 31
0.0
  0
ARC
  5
1248
330
A
100
AcDbEntity
  8
03
100
AcDbCircle
 10
221.6203874061733
 20
523.2495079086117
 30
0.0
 40
1.5
100
AcDbArc
 50
359.9999999999998
 51
89.99999999999976
  0
LINE
  5
1249
330
A
100
AcDbEntity
  8
03
100
AcDbLine
 10
223.1203874061733
 20
523.2495079086117
 30
0.0
 11
223.1203874061733
 21
522.2495079086115
 31
0.0
  0
ARC
  5
124A
330
A
100
AcDbEntity
  8
03
100
AcDbCircle
 10
221.6203874061733
 20
522.2495079086115
 30
0.0
 40
1.5
100
AcDbArc
 50
269.9999999999996
 51
359.9999999999998
  0
LINE
  5
124B
330
A
100
AcDbEntity
  8
03
100
AcDbLine
 10
221.6203874061733
 20
520.7495079086116
 30
0.0
 11
220.1203874061734
 21
520.7495079086116
 31
0.0
  0
LINE
  5
124C
330
A
100
AcDbEntity
  8
03
100
AcDbLine
 10
220.1203874061734
 20
520.7495079086116
 30
0.0
 11
220.1203874061734
 21
521.4995079086117
 31
0.0
  0
LINE
  5
124D
330
A
100
AcDbEntity
  8
03
100
AcDbLine
 10
220.1203874061734
 20
521.4995079086117
 30
0.0
 11
219.1203874061733
 21
521.4995079086117
 31
0.0
  0
LINE
  5
124E
330
A
100
AcDbEntity
  8
03
100
AcDbLine
 10
219.1203874061733
 20
521.4995079086117
 30
0.0
 11
219.1203874061733
 21
519.4995079086115
 31
0.0
  0
LINE
  5
124F
330
A
100
AcDbEntity
  8
03
100
AcDbLine
 10
219.1203874061733
 20
519.4995079086115
 30
0.0
 11
221.6203874061733
 21
519.4995079086115
 31
0.0
  0
LINE
  5
1250
330
A
100
AcDbEntity
  8
03
100
AcDbLine
 10
221.6203874061733
 20
519.4995079086115
 30
0.0
 11
221.6203874061733
 21
509.4995079086117
 31
0.0
  0
ARC
  5
1251
330
A
100
AcDbEntity
  8
03
100
AcDbCircle
 10
220.1203874061734
 20
509.4995079086117
 30
0.0
 40
1.5
100
AcDbArc
 50
269.9999999999996
 51
359.9999999999998
  0
LINE
  5
1252
330
A
100
AcDbEntity
  8
03
100
AcDbLine
 10
220.1203874061734
 20
507.9995079086115
 30
0.0
 11
206.1203874061733
 21
507.9995079086115
 31
0.0
  0
LINE
  5
1253
330
A
100
AcDbEntity
  8
03
100
AcDbLine
 10
206.1203874061733
 20
507.9995079086115
 30
0.0
 11
206.1203874061733
 21
509.9995079086117
 31
0.0
  0
LINE
  5
1254
330
A
100
AcDbEntity
  8
03
100
AcDbLine
 10
206.1203874061733
 20
509.9995079086117
 30
0.0
 11
203.6203874061734
 21
509.9995079086117
 31
0.0
  0
LINE
  5
1255
330
A
100
AcDbEntity
  8
03
100
AcDbLine
 10
203.6203874061734
 20
508.9995079086117
 30
0.0
 11
205.1203874061733
 21
508.9995079086117
 31
0.0
  0
LINE
  5
1256
330
A
100
AcDbEntity
  8
03
100
AcDbLine
 10
205.1203874061733
 20
508.9995079086117
 30
0.0
 11
205.1203874061733
 21
506.9995079086115
 31
0.0
  0
LINE
  5
1257
330
A
100
AcDbEntity
  8
03
100
AcDbLine
 10
205.1203874061733
 20
506.9995079086115
 30
0.0
 11
180.2029641578823
 21
506.9995079086118
 31
0.0
  0
ARC
  5
1258
330
A
100
AcDbEntity
  8
03
100
AcDbCircle
 10
180.2029641578823
 20
507.9995079086118
 30
0.0
 40
1.0
100
AcDbArc
 50
203.5781784782014
 51
269.9999999999996
  0
ARC
  5
1259
330
A
100
AcDbEntity
  8
03
100
AcDbCircle
 10
175.6203874061734
 20
505.9995079086117
 30
0.0
 40
4.0
100
AcDbArc
 50
23.57817847820171
 51
170.7931037786536
  0
LINE
  5
125A
330
A
100
AcDbEntity
  8
03
100
AcDbLine
 10
170.6848023842006
 20
505.7995071456723
 30
0.0
 11
164.6203874061733
 21
505.7995071456723
 31
0.0
  0
ARC
  5
125B
330
A
100
AcDbEntity
  8
03
100
AcDbCircle
 10
170.6848023842006
 20
506.7995071456723
 30
0.0
 40
1.0
100
AcDbArc
 50
269.9999999999996
 51
350.793103778654
  0
LINE
  5
125C
330
A
100
AcDbEntity
  8
03
100
AcDbLine
 10
164.6203874061733
 20
505.7995071456723
 30
0.0
 11
164.6203874061733
 21
508.9995079086118
 31
0.0
  0
LINE
  5
125D
330
A
100
AcDbEntity
  8
03
100
AcDbLine
 10
164.6203874061733
 20
508.9995079086118
 30
0.0
 11
166.1203874061733
 21
508.9995079086118
 31
0.0
  0
LINE
  5
125E
330
A
100
AcDbEntity
  8
03
100
AcDbLine
 10
166.1203874061733
 20
509.9995079086117
 30
0.0
 11
163.1203874061734
 21
509.9995079086117
 31
0.0
  0
LINE
  5
125F
330
A
100
AcDbEntity
  8
03
100
AcDbLine
 10
163.1203874061734
 20
509.9995079086117
 30
0.0
 11
163.1203874061731
 21
357.9995079086117
 31
0.0
  0
ARC
  5
1260
330
A
100
AcDbEntity
  8
03
100
AcDbCircle
 10
166.1203874061733
 20
509.4995079086118
 30
0.0
 40
0.5
100
AcDbArc
 50
270.0000273207566
 51
89.99997267924319
  0
ARC
  5
1261
330
A
100
AcDbEntity
  8
03
100
AcDbCircle
 10
203.6203874061734
 20
509.4995079086117
 30
0.0
 40
0.5
100
AcDbArc
 50
90.00002366046905
 51
269.9999763395303
  0
ARC
  5
1262
330
A
100
AcDbEntity
  8
03
100
AcDbCircle
 10
247.8865769813686
 20
525.8019828841976
 30
0.0
 40
0.701
100
AcDbArc
 50
163.633523019757
 51
313.8876486847946
  0
ARC
  5
1263
330
A
100
AcDbEntity
  8
03
100
AcDbCircle
 10
247.8865769813686
 20
522.1970329330256
 30
0.0
 40
0.701
100
AcDbArc
 50
46.112351315205
 51
196.366476980242
  0
ARC
  5
1264
330
A
100
AcDbEntity
  8
03
100
AcDbCircle
 10
259.6203874061734
 20
510.4995079086116
 30
0.0
 40
0.5
100
AcDbArc
 50
359.9999999999998
 51
179.9999999999995
  0
ARC
  5
1265
330
A
100
AcDbEntity
  8
03
100
AcDbCircle
 10
258.1203874061734
 20
509.9995079086116
 30
0.0
 40
1.0
100
AcDbArc
 50
179.9999999999995
 51
359.9999999999998
  0
LINE
  5
1266
330
A
100
AcDbEntity
  8
03
100
AcDbLine
 10
255.6203874061734
 20
512.5995063827327
 30
0.0
 11
255.6203874061734
 21
513.9995079086116
 31
0.0
  0
ARC
  5
1267
330
A
100
AcDbEntity
  8
03
100
AcDbCircle
 10
254.6203874061733
 20
513.9995079086116
 30
0.0
 40
1.0
100
AcDbArc
 50
359.9999999999998
 51
89.99999999999976
  0
LINE
  5
1268
330
A
100
AcDbEntity
  8
03
100
AcDbLine
 10
254.6203874061733
 20
514.9995079086115
 30
0.0
 11
249.1203874061734
 21
514.9995079086115
 31
0.0
  0
ARC
  5
1269
330
A
100
AcDbEntity
  8
03
100
AcDbCircle
 10
249.1203874061734
 20
515.4995079086115
 30
0.0
 40
0.5
100
AcDbArc
 50
179.9999999999995
 51
270.0
  0
LINE
  5
126A
330
A
100
AcDbEntity
  8
03
100
AcDbLine
 10
248.6203874061733
 20
515.4995079086115
 30
0.0
 11
248.6203874061733
 21
515.5995063827329
 31
0.0
  0
LINE
  5
126B
330
A
100
AcDbEntity
  8
03
100
AcDbLine
 10
246.8203881691128
 20
515.5995063827329
 30
0.0
 11
246.8203881691128
 21
514.5995063827326
 31
0.0
  0
LINE
  5
126C
330
A
100
AcDbEntity
  8
03
100
AcDbLine
 10
245.6203874061734
 20
514.5995063827326
 30
0.0
 11
245.6203874061734
 21
516.9995079086117
 31
0.0
  0
ARC
  5
126D
330
A
100
AcDbEntity
  8
03
100
AcDbCircle
 10
246.6203874061733
 20
516.9995079086117
 30
0.0
 40
1.0
100
AcDbArc
 50
89.99999999999978
 51
179.9999999999995
  0
LINE
  5
126E
330
A
100
AcDbEntity
  8
03
100
AcDbLine
 10
246.6203874061733
 20
517.9995079086117
 30
0.0
 11
262.1203874061734
 21
517.9995079086116
 31
0.0
  0
LINE
  5
126F
330
A
100
AcDbEntity
  8
03
100
AcDbLine
 10
262.1203874061734
 20
517.9995079086116
 30
0.0
 11
262.120387406173
 21
357.9995079086117
 31
0.0
  0
LINE
  5
1270
330
A
100
AcDbEntity
  8
03
100
AcDbLine
 10
262.120387406173
 20
357.9995079086117
 30
0.0
 11
256.6203874061731
 21
357.9995079086117
 31
0.0
  0
ARC
  5
1271
330
A
100
AcDbEntity
  8
03
100
AcDbCircle
 10
256.6203874061731
 20
358.9995079086115
 30
0.0
 40
1.0
100
AcDbArc
 50
179.9999999999995
 51
269.9999999999996
  0
LINE
  5
1272
330
A
100
AcDbEntity
  8
03
100
AcDbLine
 10
255.620387406173
 20
358.9995079086115
 30
0.0
 11
255.620387406173
 21
363.3995094344906
 31
0.0
  0
LINE
  5
1273
330
A
100
AcDbEntity
  8
03
100
AcDbLine
 10
256.8203881691125
 20
363.3995094344906
 30
0.0
 11
256.8203881691125
 21
361.4995079086117
 31
0.0
  0
ARC
  5
1274
330
A
100
AcDbEntity
  8
03
100
AcDbCircle
 10
257.3203881691124
 20
361.4995079086117
 30
0.0
 40
0.5
100
AcDbArc
 50
179.9999999999995
 51
269.9999999999996
  0
LINE
  5
1275
330
A
100
AcDbEntity
  8
03
100
AcDbLine
 10
257.3203881691124
 20
360.9995079086115
 30
0.0
 11
259.6203874061731
 21
360.9995079086115
 31
0.0
  0
ARC
  5
1276
330
A
100
AcDbEntity
  8
03
100
AcDbCircle
 10
259.6203874061731
 20
361.4995079086117
 30
0.0
 40
0.5
100
AcDbArc
 50
269.9999999999996
 51
359.9999999999998
  0
LINE
  5
1277
330
A
100
AcDbEntity
  8
03
100
AcDbLine
 10
260.120387406173
 20
361.4995079086117
 30
0.0
 11
260.120387406173
 21
377.9995079086115
 31
0.0
  0
LINE
  5
1278
330
A
100
AcDbEntity
  8
03
100
AcDbLine
 10
260.120387406173
 20
377.9995079086115
 30
0.0
 11
259.8203881691125
 21
378.2995109603695
 31
0.0
  0
LINE
  5
1279
330
A
100
AcDbEntity
  8
03
100
AcDbLine
 10
259.8203881691125
 20
378.2995109603695
 30
0.0
 11
259.8203881691126
 21
497.6995086715509
 31
0.0
  0
LINE
  5
127A
330
A
100
AcDbEntity
  8
03
100
AcDbLine
 10
259.8203881691126
 20
497.6995086715509
 30
0.0
 11
260.1203874061734
 21
497.9995079086116
 31
0.0
  0
LINE
  5
127B
330
A
100
AcDbEntity
  8
03
100
AcDbLine
 10
260.1203874061734
 20
497.9995079086116
 30
0.0
 11
260.1203874061734
 21
514.4995079086116
 31
0.0
  0
ARC
  5
127C
330
A
100
AcDbEntity
  8
03
100
AcDbCircle
 10
259.6203874061734
 20
514.4995079086116
 30
0.0
 40
0.5
100
AcDbArc
 50
359.9999999999998
 51
90.00000000000184
  0
LINE
  5
127D
330
A
100
AcDbEntity
  8
03
100
AcDbLine
 10
259.6203874061734
 20
514.9995079086115
 30
0.0
 11
257.3203881691128
 21
514.9995079086115
 31
0.0
  0
ARC
  5
127E
330
A
100
AcDbEntity
  8
03
100
AcDbCircle
 10
257.3203881691128
 20
514.4995079086116
 30
0.0
 40
0.5
100
AcDbArc
 50
89.99999999999978
 51
179.9999999999995
  0
LINE
  5
127F
330
A
100
AcDbEntity
  8
03
100
AcDbLine
 10
256.8203881691128
 20
514.4995079086116
 30
0.0
 11
256.8203881691128
 21
512.5995063827327
 31
0.0
  0
ARC
  5
1280
330
A
100
AcDbEntity
  8
03
100
AcDbCircle
 10
256.2203858802944
 20
512.5995063827327
 30
0.0
 40
0.6
100
AcDbArc
 50
179.9999999999995
 51
359.9999999999998
  0
ARC
  5
1281
330
A
100
AcDbEntity
  8
03
100
AcDbCircle
 10
247.7203858802945
 20
515.5995063827329
 30
0.0
 40
0.9
100
AcDbArc
 50
359.9999999999998
 51
179.9999999999995
  0
ARC
  5
1282
330
A
100
AcDbEntity
  8
03
100
AcDbCircle
 10
246.2203858802944
 20
514.5995063827326
 30
0.0
 40
0.6
100
AcDbArc
 50
179.9999999999995
 51
359.9999999999998
  0
ARC
  5
1283
330
A
100
AcDbEntity
  8
03
100
AcDbCircle
 10
256.220385880294
 20
363.3995094344906
 30
0.0
 40
0.6
100
AcDbArc
 50
359.9999999999998
 51
179.9999999999995
  0
LINE
  5
1374
330
A
100
AcDbEntity
  8
06
100
AcDbLine
 10
253.6203866432336
 20
354.9995079086115
 30
0.0
 11
249.1203866432336
 21
354.9995079086115
 31
0.0
  0
ARC
  5
1375
330
A
100
AcDbEntity
  8
06
100
AcDbCircle
 10
251.1203866432336
 20
353.9995079086115
 30
0.0
 40
1.0
100
AcDbArc
 50
359.9999999999998
 51
89.99999999999976
  0
LINE
  5
1376
330
A
100
AcDbEntity
  8
06
100
AcDbLine
 10
249.1203866432336
 20
354.9995079086115
 30
0.0
 11
249.1203866432336
 21
352.4995079086115
 31
0.0
  0
LINE
  5
1377
330
A
100
AcDbEntity
  8
06
100
AcDbLine
 10
249.1203866432336
 20
352.4995079086115
 30
0.0
 11
250.1203866432336
 21
352.4995079086115
 31
0.0
  0
LINE
  5
1378
330
A
100
AcDbEntity
  8
06
100
AcDbLine
 10
250.1203866432336
 20
352.4995079086115
 30
0.0
 11
250.1203866432336
 21
330.4995079086117
 31
0.0
  0
ARC
  5
1379
330
A
100
AcDbEntity
  8
06
100
AcDbCircle
 10
249.1203866432336
 20
330.4995079086117
 30
0.0
 40
1.0
100
AcDbArc
 50
269.9999999999996
 51
359.9999999999998
  0
LINE
  5
137A
330
A
100
AcDbEntity
  8
06
100
AcDbLine
 10
249.1203866432336
 20
329.4995079086116
 30
0.0
 11
218.1203866432336
 21
329.4995079086116
 31
0.0
  0
ARC
  5
137B
330
A
100
AcDbEntity
  8
06
100
AcDbCircle
 10
218.1203866432336
 20
330.4995079086117
 30
0.0
 40
1.0
100
AcDbArc
 50
179.9999999999995
 51
269.9999999999996
  0
LINE
  5
137C
330
A
100
AcDbEntity
  8
06
100
AcDbLine
 10
217.1203866432336
 20
330.4995079086117
 30
0.0
 11
217.1203866432338
 21
352.4995079086115
 31
0.0
  0
LINE
  5
137D
330
A
100
AcDbEntity
  8
06
100
AcDbLine
 10
217.1203866432338
 20
352.4995079086115
 30
0.0
 11
218.1203866432336
 21
352.4995079086115
 31
0.0
  0
LINE
  5
137E
330
A
100
AcDbEntity
  8
06
100
AcDbLine
 10
218.1203866432336
 20
352.4995079086115
 30
0.0
 11
218.1203866432336
 21
354.9995079086115
 31
0.0
  0
LINE
  5
137F
330
A
100
AcDbEntity
  8
06
100
AcDbLine
 10
218.1203866432336
 20
354.9995079086115
 30
0.0
 11
213.6203866432336
 21
354.9995079086115
 31
0.0
  0
ARC
  5
1380
330
A
100
AcDbEntity
  8
06
100
AcDbCircle
 10
216.1203866432336
 20
353.9995079086115
 30
0.0
 40
1.0
100
AcDbArc
 50
89.99999999999976
 51
179.9999999999995
  0
LINE
  5
1382
330
A
100
AcDbEntity
  8
06
100
AcDbLine
 10
215.1203866432338
 20
353.9995079086115
 30
0.0
 11
215.1203866432336
 21
268.9995079086116
 31
0.0
  0
LINE
  5
1383
330
A
100
AcDbEntity
  8
06
100
AcDbLine
 10
215.1203866432336
 20
268.9995079086116
 30
0.0
 11
218.1203866432336
 21
268.9995079086116
 31
0.0
  0
LINE
  5
1384
330
A
100
AcDbEntity
  8
06
100
AcDbLine
 10
218.1203866432336
 20
268.9995079086116
 30
0.0
 11
218.1203866432336
 21
269.9995079086117
 31
0.0
  0
LINE
  5
1385
330
A
100
AcDbEntity
  8
06
100
AcDbLine
 10
218.1203866432336
 20
269.9995079086117
 30
0.0
 11
217.1203866432336
 21
269.9995079086117
 31
0.0
  0
LINE
  5
1386
330
A
100
AcDbEntity
  8
06
100
AcDbLine
 10
217.1203866432336
 20
269.9995079086117
 30
0.0
 11
217.1203866432336
 21
271.9995079086117
 31
0.0
  0
LINE
  5
1387
330
A
100
AcDbEntity
  8
06
100
AcDbLine
 10
217.1203866432336
 20
271.9995079086117
 30
0.0
 11
227.1203866432336
 21
271.9995079086117
 31
0.0
  0
LINE
  5
1388
330
A
100
AcDbEntity
  8
06
100
AcDbLine
 10
227.1203866432336
 20
271.9995079086117
 30
0.0
 11
227.1203866432336
 21
269.9995079086117
 31
0.0
  0
LINE
  5
1389
330
A
100
AcDbEntity
  8
06
100
AcDbLine
 10
227.1203866432336
 20
269.9995079086117
 30
0.0
 11
225.6203866432336
 21
269.9995079086117
 31
0.0
  0
LINE
  5
138A
330
A
100
AcDbEntity
  8
06
100
AcDbLine
 10
225.6203866432336
 20
269.9995079086117
 30
0.0
 11
225.6203866432336
 21
268.9995079086116
 31
0.0
  0
LINE
  5
138B
330
A
100
AcDbEntity
  8
06
100
AcDbLine
 10
225.6203866432336
 20
268.9995079086116
 30
0.0
 11
228.1203866432336
 21
268.9995079086116
 31
0.0
  0
LINE
  5
138C
330
A
100
AcDbEntity
  8
06
100
AcDbLine
 10
228.1203866432336
 20
268.9995079086116
 30
0.0
 11
228.1203866432336
 21
269.9995079086117
 31
0.0
  0
LINE
  5
138D
330
A
100
AcDbEntity
  8
06
100
AcDbLine
 10
228.1203866432336
 20
269.9995079086117
 30
0.0
 11
233.3203866313128
 21
269.9995079086117
 31
0.0
  0
LINE
  5
138E
330
A
100
AcDbEntity
  8
06
100
AcDbLine
 10
233.3203866313128
 20
269.9995079086117
 30
0.0
 11
233.6203866432336
 21
270.2995071456721
 31
0.0
  0
LINE
  5
138F
330
A
100
AcDbEntity
  8
06
100
AcDbLine
 10
233.6203866432336
 20
270.2995071456721
 30
0.0
 11
233.9203866551545
 21
269.9995079086117
 31
0.0
  0
LINE
  5
1390
330
A
100
AcDbEntity
  8
06
100
AcDbLine
 10
233.9203866551545
 20
269.9995079086117
 30
0.0
 11
249.1203866432336
 21
269.9995079086117
 31
0.0
  0
ARC
  5
1391
330
A
100
AcDbEntity
  8
06
100
AcDbCircle
 10
249.1203866432336
 20
268.9995079086116
 30
0.0
 40
1.0
100
AcDbArc
 50
359.9999999999998
 51
89.99999999999976
  0
LINE
  5
1392
330
A
100
AcDbEntity
  8
06
100
AcDbLine
 10
250.1203866432336
 20
268.9995079086116
 30
0.0
 11
250.1203866432336
 21
256.9995079086114
 31
0.0
  0
LINE
  5
1393
330
A
100
AcDbEntity
  8
06
100
AcDbLine
 10
250.1203866432336
 20
256.9995079086114
 30
0.0
 11
244.6203866432336
 21
256.9995079086114
 31
0.0
  0
LINE
  5
1394
330
A
100
AcDbEntity
  8
06
100
AcDbLine
 10
244.6203866432336
 20
256.9995079086114
 30
0.0
 11
244.6203866432336
 21
257.4995079086117
 31
0.0
  0
ARC
  5
1395
330
A
100
AcDbEntity
  8
06
100
AcDbCircle
 10
242.6203866432336
 20
257.4995079086117
 30
0.0
 40
2.0
100
AcDbArc
 50
359.9999999999998
 51
89.99999999999976
  0
LINE
  5
1396
330
A
100
AcDbEntity
  8
06
100
AcDbLine
 10
242.6203866432336
 20
259.4995079086117
 30
0.0
 11
240.1203866432336
 21
259.4995079086117
 31
0.0
  0
LINE
  5
1397
330
A
100
AcDbEntity
  8
06
100
AcDbLine
 10
240.1203866432336
 20
259.4995079086117
 30
0.0
 11
240.1203866432336
 21
256.9995079086114
 31
0.0
  0
LINE
  5
1398
330
A
100
AcDbEntity
  8
06
100
AcDbLine
 10
240.1203866432336
 20
256.9995079086114
 30
0.0
 11
242.6203866432336
 21
256.9995079086114
 31
0.0
  0
LINE
  5
1399
330
A
100
AcDbEntity
  8
06
100
AcDbLine
 10
242.6203866432336
 20
256.9995079086114
 30
0.0
 11
242.6203866432336
 21
254.9995079086115
 31
0.0
  0
LINE
  5
139A
330
A
100
AcDbEntity
  8
06
100
AcDbLine
 10
242.6203866432336
 20
254.9995079086115
 30
0.0
 11
251.1203866432336
 21
254.9995079086115
 31
0.0
  0
ARC
  5
139B
330
A
100
AcDbEntity
  8
06
100
AcDbCircle
 10
251.1203866432336
 20
255.9995079086116
 30
0.0
 40
1.0
100
AcDbArc
 50
269.9999999999996
 51
359.9999999999998
  0
LINE
  5
139C
330
A
100
AcDbEntity
  8
06
100
AcDbLine
 10
252.1203866432336
 20
255.9995079086116
 30
0.0
 11
252.1203866432336
 21
353.9995079086115
 31
0.0
  0
LINE
  5
139D
330
A
100
AcDbEntity
  8
06
100
AcDbLine
 10
246.1203866432336
 20
326.4995079086117
 30
0.0
 11
245.6203866432336
 21
326.9995079086116
 31
0.0
  0
LINE
  5
139E
330
A
100
AcDbEntity
  8
06
100
AcDbLine
 10
245.6203866432336
 20
326.9995079086116
 30
0.0
 11
221.6203866432336
 21
326.9995079086116
 31
0.0
  0
LINE
  5
139F
330
A
100
AcDbEntity
  8
06
100
AcDbLine
 10
221.6203866432336
 20
326.9995079086116
 30
0.0
 11
221.1203866432336
 21
326.4995079086117
 31
0.0
  0
LINE
  5
13A0
330
A
100
AcDbEntity
  8
06
100
AcDbLine
 10
250.1203866432336
 20
326.4995079086117
 30
0.0
 11
217.1203866432336
 21
326.4995079086117
 31
0.0
  0
LINE
  5
13A1
330
A
100
AcDbEntity
  8
06
100
AcDbLine
 10
217.1203866432336
 20
326.4995079086117
 30
0.0
 11
217.1203866432336
 21
273.9995079086117
 31
0.0
  0
LINE
  5
13A2
330
A
100
AcDbEntity
  8
06
100
AcDbLine
 10
217.1203866432336
 20
273.9995079086117
 30
0.0
 11
227.6203866432336
 21
273.9995079086117
 31
0.0
  0
ARC
  5
13A3
330
A
100
AcDbEntity
  8
06
100
AcDbCircle
 10
227.6203866432336
 20
272.9995079086114
 30
0.0
 40
1.0
100
AcDbArc
 50
359.9999999999998
 51
89.99999999999976
  0
LINE
  5
13A4
330
A
100
AcDbEntity
  8
06
100
AcDbLine
 10
228.6203866432336
 20
272.9995079086114
 30
0.0
 11
228.6203866432336
 21
272.4995079086117
 31
0.0
  0
LINE
  5
13A5
330
A
100
AcDbEntity
  8
06
100
AcDbLine
 10
228.6203866432336
 20
272.4995079086117
 30
0.0
 11
238.1203866432336
 21
272.4995079086117
 31
0.0
  0
LINE
  5
13A6
330
A
100
AcDbEntity
  8
06
100
AcDbLine
 10
238.1203866432336
 20
272.4995079086117
 30
0.0
 11
238.1203866432336
 21
274.4995079086117
 31
0.0
  0
LINE
  5
13A7
330
A
100
AcDbEntity
  8
06
100
AcDbLine
 10
238.1203866432336
 20
274.4995079086117
 30
0.0
 11
240.1203866432336
 21
274.4995079086117
 31
0.0
  0
LINE
  5
13A8
330
A
100
AcDbEntity
  8
06
100
AcDbLine
 10
240.1203866432336
 20
274.4995079086117
 30
0.0
 11
240.1203866432336
 21
271.9995079086117
 31
0.0
  0
LINE
  5
13A9
330
A
100
AcDbEntity
  8
06
100
AcDbLine
 10
240.1203866432336
 20
271.9995079086117
 30
0.0
 11
249.1203866432336
 21
271.9995079086117
 31
0.0
  0
ARC
  5
13AA
330
A
100
AcDbEntity
  8
06
100
AcDbCircle
 10
249.1203866432336
 20
272.9995079086114
 30
0.0
 40
1.0
100
AcDbArc
 50
269.9999999999996
 51
359.9999999999998
  0
LINE
  5
13AC
330
A
100
AcDbEntity
  8
06
100
AcDbLine
 10
250.1203866432336
 20
272.9995079086114
 30
0.0
 11
250.1203866432336
 21
326.4995079086117
 31
0.0
  0
LINE
  5
13AD
330
A
100
AcDbEntity
  8
06
100
AcDbLine
 10
215.1203866432336
 20
268.9995079086116
 30
0.0
 11
215.1203866432336
 21
257.2995071456722
 31
0.0
  0
ARC
  5
13AE
330
A
100
AcDbEntity
  8
06
100
AcDbCircle
 10
217.4203858802939
 20
257.2995071456722
 30
0.0
 40
2.299999999999998
100
AcDbArc
 50
179.9999999999995
 51
269.9999999999996
  0
LINE
  5
13AF
330
A
100
AcDbEntity
  8
06
100
AcDbLine
 10
217.4203858802939
 20
254.9995079086115
 30
0.0
 11
224.6203866432336
 21
254.9995079086115
 31
0.0
  0
LINE
  5
13B0
330
A
100
AcDbEntity
  8
06
100
AcDbLine
 10
224.6203866432336
 20
254.9995079086115
 30
0.0
 11
224.6203866432336
 21
256.9995079086114
 31
0.0
  0
LINE
  5
13B1
330
A
100
AcDbEntity
  8
06
100
AcDbLine
 10
224.6203866432336
 20
256.9995079086114
 30
0.0
 11
227.1203866432336
 21
256.9995079086114
 31
0.0
  0
LINE
  5
13B2
330
A
100
AcDbEntity
  8
06
100
AcDbLine
 10
227.1203866432336
 20
256.9995079086114
 30
0.0
 11
227.1203866432336
 21
259.4995079086117
 31
0.0
  0
LINE
  5
13B3
330
A
100
AcDbEntity
  8
06
100
AcDbLine
 10
227.1203866432336
 20
259.4995079086117
 30
0.0
 11
224.6203866432336
 21
259.4995079086117
 31
0.0
  0
LINE
  5
13B4
330
A
100
AcDbEntity
  8
06
100
AcDbLine
 10
224.6203866432336
 20
259.4995079086117
 30
0.0
 11
225.6203866432336
 21
269.9995079086117
 31
0.0
  0
LINE
  5
13B5
330
A
100
AcDbEntity
  8
06
100
AcDbLine
 10
227.1203866432336
 20
271.4995079086114
 30
0.0
 11
225.3666482399134
 21
271.4995079086114
 31
0.0
  0
ARC
  5
13B6
330
A
100
AcDbEntity
  8
06
100
AcDbCircle
 10
225.3666482399134
 20
270.4995079086117
 30
0.0
 40
1.0
100
AcDbArc
 50
89.99999999999976
 51
174.559667968994
  0
LINE
  5
13B7
330
A
100
AcDbEntity
  8
06
100
AcDbLine
 10
223.0959506462243
 20
257.2047004745296
 30
0.0
 11
224.3711524437098
 21
270.5943183944514
 31
0.0
  0
ARC
  5
13B8
330
A
100
AcDbEntity
  8
06
100
AcDbCircle
 10
222.1004558036949
 20
257.2995071456722
 30
0.0
 40
1.0
100
AcDbArc
 50
270.0
 51
354.5596679689943
  0
LINE
  5
13B9
330
A
100
AcDbEntity
  8
06
100
AcDbLine
 10
222.1004558036949
 20
256.2995071456721
 30
0.0
 11
217.4203858802939
 21
256.2995071456721
 31
0.0
  0
ARC
  5
13BA
330
A
100
AcDbEntity
  8
06
100
AcDbCircle
 10
217.4203858802939
 20
257.2995071456722
 30
0.0
 40
1.0
100
AcDbArc
 50
179.9999999999995
 51
270.0
  0
LINE
  5
13BB
330
A
100
AcDbEntity
  8
06
100
AcDbLine
 10
216.4203858802939
 20
257.2995071456722
 30
0.0
 11
216.4203858802939
 21
267.4995079086114
 31
0.0
  0
LINE
  5
13BC
330
A
100
AcDbEntity
  8
06
100
AcDbLine
 10
215.1203866432336
 20
268.9995079086116
 30
0.0
 11
218.1203866432336
 21
268.4995079086117
 31
0.0
  0
LINE
  5
13BD
330
A
100
AcDbEntity
  8
06
100
AcDbLine
 10
218.1203866432336
 20
268.4995079086117
 30
0.0
 11
218.1203866432336
 21
269.9995079086117
 31
0.0
  0
LINE
  5
13BE
330
A
100
AcDbEntity
  8
06
100
AcDbLine
 10
218.1203866432336
 20
269.9995079086117
 30
0.0
 11
217.6203866432336
 21
269.9995079086117
 31
0.0
  0
LINE
  5
13BF
330
A
100
AcDbEntity
  8
06
100
AcDbLine
 10
217.6203866432336
 20
269.9995079086117
 30
0.0
 11
217.9821458290247
 21
271.4465446517757
 31
0.0
  0
LINE
  5
13C0
330
A
100
AcDbEntity
  8
06
100
AcDbLine
 10
219.4203868339684
 20
271.2694892928889
 30
0.0
 11
219.4203868339684
 21
268.1799697921566
 31
0.0
  0
ARC
  5
13C1
330
A
100
AcDbEntity
  8
06
100
AcDbCircle
 10
218.4203868339685
 20
268.1799697921566
 30
0.0
 40
1.0
100
AcDbArc
 50
260.5376777919738
 51
359.9999999999998
  0
LINE
  5
13C2
330
A
100
AcDbEntity
  8
06
100
AcDbLine
 10
216.4203858802939
 20
267.4995079086114
 30
0.0
 11
218.2559876869348
 21
267.1935730026058
 31
0.0
  0
ARC
  5
13C3
330
A
100
AcDbEntity
  8
06
100
AcDbCircle
 10
218.6903682182459
 20
271.2694892928889
 30
0.0
 40
0.7300186566514812
100
AcDbArc
 50
359.9999999999998
 51
165.9637565320732
  0
LINE
  5
13C4
330
A
100
AcDbEntity
  8
06
100
AcDbLine
 10
250.1203866432336
 20
311.4995079086117
 30
0.0
 11
247.1203866432336
 21
311.4995079086117
 31
0.0
  0
LINE
  5
13C5
330
A
100
AcDbEntity
  8
06
100
AcDbLine
 10
247.1203866432336
 20
311.4995079086117
 30
0.0
 11
247.1203866432336
 21
323.4995079086116
 31
0.0
  0
LINE
  5
13C6
330
A
100
AcDbEntity
  8
06
100
AcDbLine
 10
247.1203866432336
 20
323.4995079086116
 30
0.0
 11
220.1203866432336
 21
323.4995079086116
 31
0.0
  0
LINE
  5
13C7
330
A
100
AcDbEntity
  8
06
100
AcDbLine
 10
220.1203866432336
 20
323.4995079086116
 30
0.0
 11
220.1203866432336
 21
311.4995079086117
 31
0.0
  0
LINE
  5
13C8
330
A
100
AcDbEntity
  8
06
100
AcDbLine
 10
220.1203866432336
 20
311.4995079086117
 30
0.0
 11
217.1203866432336
 21
311.4995079086117
 31
0.0
  0
ARC
  5
13C9
330
A
100
AcDbEntity
  8
06
100
AcDbCircle
 10
247.1203866432336
 20
323.4995079086116
 30
0.0
 40
3.0
100
AcDbArc
 50
359.9999999999998
 51
89.99999999999976
  0
ARC
  5
13CA
330
A
100
AcDbEntity
  8
06
100
AcDbCircle
 10
220.1203866432336
 20
323.4995079086116
 30
0.0
 40
3.0
100
AcDbArc
 50
89.99999999999978
 51
179.9999999999995
  0
LINE
  5
13CB
330
A
100
AcDbEntity
  8
06
100
AcDbLine
 10
208.6203866432336
 20
354.9995079086115
 30
0.0
 11
204.1203866432336
 21
354.9995079086115
 31
0.0
  0
ARC
  5
13CC
330
A
100
AcDbEntity
  8
06
100
AcDbCircle
 10
206.1203866432336
 20
353.9995079086115
 30
0.0
 40
1.0
100
AcDbArc
 50
359.9999999999998
 51
89.99999999999976
  0
LINE
  5
13CD
330
A
100
AcDbEntity
  8
06
100
AcDbLine
 10
204.1203866432336
 20
354.9995079086115
 30
0.0
 11
204.1203866432336
 21
352.4995079086115
 31
0.0
  0
LINE
  5
13CE
330
A
100
AcDbEntity
  8
06
100
AcDbLine
 10
204.1203866432336
 20
352.4995079086115
 30
0.0
 11
205.1203866432336
 21
352.4995079086115
 31
0.0
  0
LINE
  5
13CF
330
A
100
AcDbEntity
  8
06
100
AcDbLine
 10
205.1203866432336
 20
352.4995079086115
 30
0.0
 11
205.1203866432336
 21
330.4995079086117
 31
0.0
  0
ARC
  5
13D0
330
A
100
AcDbEntity
  8
06
100
AcDbCircle
 10
204.1203866432335
 20
330.4995079086117
 30
0.0
 40
1.0
100
AcDbArc
 50
269.9999999999996
 51
359.9999999999998
  0
LINE
  5
13D1
330
A
100
AcDbEntity
  8
06
100
AcDbLine
 10
204.1203866432335
 20
329.4995079086116
 30
0.0
 11
173.1203866432336
 21
329.4995079086116
 31
0.0
  0
ARC
  5
13D2
330
A
100
AcDbEntity
  8
06
100
AcDbCircle
 10
173.1203866432336
 20
330.4995079086117
 30
0.0
 40
1.0
100
AcDbArc
 50
179.9999999999995
 51
269.9999999999996
  0
LINE
  5
13D3
330
A
100
AcDbEntity
  8
06
100
AcDbLine
 10
172.1203866432336
 20
330.4995079086117
 30
0.0
 11
172.1203866432336
 21
352.4995079086115
 31
0.0
  0
LINE
  5
13D4
330
A
100
AcDbEntity
  8
06
100
AcDbLine
 10
172.1203866432336
 20
352.4995079086115
 30
0.0
 11
173.1203866432336
 21
352.4995079086115
 31
0.0
  0
LINE
  5
13D5
330
A
100
AcDbEntity
  8
06
100
AcDbLine
 10
173.1203866432336
 20
352.4995079086115
 30
0.0
 11
173.1203866432336
 21
354.9995079086115
 31
0.0
  0
LINE
  5
13D6
330
A
100
AcDbEntity
  8
06
100
AcDbLine
 10
173.1203866432336
 20
354.9995079086115
 30
0.0
 11
168.6203866432335
 21
354.9995079086115
 31
0.0
  0
ARC
  5
13D7
330
A
100
AcDbEntity
  8
06
100
AcDbCircle
 10
171.1203866432338
 20
353.9995079086115
 30
0.0
 40
1.0
100
AcDbArc
 50
89.99999999999976
 51
179.9999999999995
  0
LINE
  5
13D8
330
A
100
AcDbEntity
  8
06
100
AcDbLine
 10
170.1203866432338
 20
353.9995079086115
 30
0.0
 11
170.1203866432335
 21
268.9995079086116
 31
0.0
  0
LINE
  5
13D9
330
A
100
AcDbEntity
  8
06
100
AcDbLine
 10
170.1203866432335
 20
268.9995079086116
 30
0.0
 11
173.1203866432336
 21
268.9995079086116
 31
0.0
  0
LINE
  5
13DA
330
A
100
AcDbEntity
  8
06
100
AcDbLine
 10
173.1203866432336
 20
268.9995079086116
 30
0.0
 11
173.1203866432336
 21
269.9995079086117
 31
0.0
  0
LINE
  5
13DB
330
A
100
AcDbEntity
  8
06
100
AcDbLine
 10
173.1203866432336
 20
269.9995079086117
 30
0.0
 11
172.1203866432336
 21
269.9995079086117
 31
0.0
  0
LINE
  5
13DC
330
A
100
AcDbEntity
  8
06
100
AcDbLine
 10
172.1203866432336
 20
269.9995079086117
 30
0.0
 11
172.1203866432336
 21
271.9995079086117
 31
0.0
  0
LINE
  5
13DD
330
A
100
AcDbEntity
  8
06
100
AcDbLine
 10
172.1203866432336
 20
271.9995079086117
 30
0.0
 11
182.1203866432336
 21
271.9995079086117
 31
0.0
  0
LINE
  5
13DE
330
A
100
AcDbEntity
  8
06
100
AcDbLine
 10
182.1203866432336
 20
271.9995079086117
 30
0.0
 11
182.1203866432336
 21
269.9995079086117
 31
0.0
  0
LINE
  5
13DF
330
A
100
AcDbEntity
  8
06
100
AcDbLine
 10
182.1203866432336
 20
269.9995079086117
 30
0.0
 11
180.6203866432336
 21
269.9995079086117
 31
0.0
  0
LINE
  5
13E0
330
A
100
AcDbEntity
  8
06
100
AcDbLine
 10
180.6203866432336
 20
269.9995079086117
 30
0.0
 11
180.6203866432336
 21
268.9995079086116
 31
0.0
  0
LINE
  5
13E1
330
A
100
AcDbEntity
  8
06
100
AcDbLine
 10
180.6203866432336
 20
268.9995079086116
 30
0.0
 11
183.1203866432336
 21
268.9995079086116
 31
0.0
  0
LINE
  5
13E2
330
A
100
AcDbEntity
  8
06
100
AcDbLine
 10
183.1203866432336
 20
268.9995079086116
 30
0.0
 11
183.1203866432336
 21
269.9995079086117
 31
0.0
  0
LINE
  5
13E3
330
A
100
AcDbEntity
  8
06
100
AcDbLine
 10
183.1203866432336
 20
269.9995079086117
 30
0.0
 11
188.3203866313128
 21
269.9995079086117
 31
0.0
  0
LINE
  5
13E4
330
A
100
AcDbEntity
  8
06
100
AcDbLine
 10
188.3203866313128
 20
269.9995079086117
 30
0.0
 11
188.6203866432336
 21
270.2995071456721
 31
0.0
  0
LINE
  5
13E5
330
A
100
AcDbEntity
  8
06
100
AcDbLine
 10
188.6203866432336
 20
270.2995071456721
 30
0.0
 11
188.9203866551546
 21
269.9995079086117
 31
0.0
  0
LINE
  5
13E6
330
A
100
AcDbEntity
  8
06
100
AcDbLine
 10
188.9203866551546
 20
269.9995079086117
 30
0.0
 11
204.1203866432335
 21
269.9995079086117
 31
0.0
  0
ARC
  5
13E7
330
A
100
AcDbEntity
  8
06
100
AcDbCircle
 10
204.1203866432335
 20
268.9995079086116
 30
0.0
 40
1.0
100
AcDbArc
 50
359.9999999999998
 51
89.99999999999976
  0
LINE
  5
13E8
330
A
100
AcDbEntity
  8
06
100
AcDbLine
 10
205.1203866432336
 20
268.9995079086116
 30
0.0
 11
205.1203866432336
 21
256.9995079086114
 31
0.0
  0
LINE
  5
13E9
330
A
100
AcDbEntity
  8
06
100
AcDbLine
 10
205.1203866432336
 20
256.9995079086114
 30
0.0
 11
199.6203866432336
 21
256.9995079086114
 31
0.0
  0
LINE
  5
13EA
330
A
100
AcDbEntity
  8
06
100
AcDbLine
 10
199.6203866432336
 20
256.9995079086114
 30
0.0
 11
199.6203866432336
 21
257.4995079086117
 31
0.0
  0
ARC
  5
13EB
330
A
100
AcDbEntity
  8
06
100
AcDbCircle
 10
197.6203866432336
 20
257.4995079086117
 30
0.0
 40
2.0
100
AcDbArc
 50
359.9999999999998
 51
89.99999999999976
  0
LINE
  5
13EC
330
A
100
AcDbEntity
  8
06
100
AcDbLine
 10
197.6203866432336
 20
259.4995079086117
 30
0.0
 11
195.1203866432336
 21
259.4995079086117
 31
0.0
  0
LINE
  5
13ED
330
A
100
AcDbEntity
  8
06
100
AcDbLine
 10
195.1203866432336
 20
259.4995079086117
 30
0.0
 11
195.1203866432336
 21
256.9995079086114
 31
0.0
  0
LINE
  5
13EE
330
A
100
AcDbEntity
  8
06
100
AcDbLine
 10
195.1203866432336
 20
256.9995079086114
 30
0.0
 11
197.6203866432336
 21
256.9995079086114
 31
0.0
  0
LINE
  5
13EF
330
A
100
AcDbEntity
  8
06
100
AcDbLine
 10
197.6203866432336
 20
256.9995079086114
 30
0.0
 11
197.6203866432336
 21
254.9995079086115
 31
0.0
  0
LINE
  5
13F0
330
A
100
AcDbEntity
  8
06
100
AcDbLine
 10
197.6203866432336
 20
254.9995079086115
 30
0.0
 11
206.1203866432335
 21
254.9995079086115
 31
0.0
  0
ARC
  5
13F1
330
A
100
AcDbEntity
  8
06
100
AcDbCircle
 10
206.1203866432335
 20
255.9995079086116
 30
0.0
 40
1.0
100
AcDbArc
 50
269.9999999999996
 51
359.9999999999998
  0
LINE
  5
13F2
330
A
100
AcDbEntity
  8
06
100
AcDbLine
 10
207.1203866432336
 20
255.9995079086116
 30
0.0
 11
207.1203866432338
 21
353.9995079086115
 31
0.0
  0
LINE
  5
13F3
330
A
100
AcDbEntity
  8
06
100
AcDbLine
 10
201.1203866432336
 20
326.4995079086117
 30
0.0
 11
200.6203866432336
 21
326.9995079086116
 31
0.0
  0
LINE
  5
13F4
330
A
100
AcDbEntity
  8
06
100
AcDbLine
 10
200.6203866432336
 20
326.9995079086116
 30
0.0
 11
176.6203866432336
 21
326.9995079086116
 31
0.0
  0
LINE
  5
13F5
330
A
100
AcDbEntity
  8
06
100
AcDbLine
 10
176.6203866432336
 20
326.9995079086116
 30
0.0
 11
176.1203866432336
 21
326.4995079086117
 31
0.0
  0
LINE
  5
13F6
330
A
100
AcDbEntity
  8
06
100
AcDbLine
 10
205.1203866432336
 20
326.4995079086117
 30
0.0
 11
172.1203866432336
 21
326.4995079086117
 31
0.0
  0
LINE
  5
13F7
330
A
100
AcDbEntity
  8
06
100
AcDbLine
 10
172.1203866432336
 20
326.4995079086117
 30
0.0
 11
172.1203866432336
 21
273.9995079086117
 31
0.0
  0
LINE
  5
13F8
330
A
100
AcDbEntity
  8
06
100
AcDbLine
 10
172.1203866432336
 20
273.9995079086117
 30
0.0
 11
182.6203866432336
 21
273.9995079086117
 31
0.0
  0
ARC
  5
13F9
330
A
100
AcDbEntity
  8
06
100
AcDbCircle
 10
182.6203866432336
 20
272.9995079086114
 30
0.0
 40
1.0
100
AcDbArc
 50
359.9999999999998
 51
89.99999999999976
  0
LINE
  5
13FA
330
A
100
AcDbEntity
  8
06
100
AcDbLine
 10
183.6203866432336
 20
272.9995079086114
 30
0.0
 11
183.6203866432336
 21
272.4995079086117
 31
0.0
  0
LINE
  5
13FB
330
A
100
AcDbEntity
  8
06
100
AcDbLine
 10
183.6203866432336
 20
272.4995079086117
 30
0.0
 11
193.1203866432336
 21
272.4995079086117
 31
0.0
  0
LINE
  5
13FC
330
A
100
AcDbEntity
  8
06
100
AcDbLine
 10
193.1203866432336
 20
272.4995079086117
 30
0.0
 11
193.1203866432336
 21
274.4995079086117
 31
0.0
  0
LINE
  5
13FD
330
A
100
AcDbEntity
  8
06
100
AcDbLine
 10
193.1203866432336
 20
274.4995079086117
 30
0.0
 11
195.1203866432336
 21
274.4995079086117
 31
0.0
  0
LINE
  5
13FE
330
A
100
AcDbEntity
  8
06
100
AcDbLine
 10
195.1203866432336
 20
274.4995079086117
 30
0.0
 11
195.1203866432336
 21
271.9995079086117
 31
0.0
  0
LINE
  5
13FF
330
A
100
AcDbEntity
  8
06
100
AcDbLine
 10
195.1203866432336
 20
271.9995079086117
 30
0.0
 11
204.1203866432335
 21
271.9995079086117
 31
0.0
  0
ARC
  5
1400
330
A
100
AcDbEntity
  8
06
100
AcDbCircle
 10
204.1203866432335
 20
272.9995079086114
 30
0.0
 40
1.0
100
AcDbArc
 50
269.9999999999996
 51
359.9999999999998
  0
LINE
  5
1401
330
A
100
AcDbEntity
  8
06
100
AcDbLine
 10
205.1203866432336
 20
272.9995079086114
 30
0.0
 11
205.1203866432336
 21
326.4995079086117
 31
0.0
  0
LINE
  5
1402
330
A
100
AcDbEntity
  8
06
100
AcDbLine
 10
170.1203866432335
 20
268.9995079086116
 30
0.0
 11
170.1203866432335
 21
257.2995071456722
 31
0.0
  0
ARC
  5
1403
330
A
100
AcDbEntity
  8
06
100
AcDbCircle
 10
172.420385880294
 20
257.2995071456722
 30
0.0
 40
2.299999999999998
100
AcDbArc
 50
179.9999999999995
 51
269.9999999999996
  0
LINE
  5
1404
330
A
100
AcDbEntity
  8
06
100
AcDbLine
 10
172.420385880294
 20
254.9995079086115
 30
0.0
 11
179.6203866432336
 21
254.9995079086115
 31
0.0
  0
LINE
  5
1405
330
A
100
AcDbEntity
  8
06
100
AcDbLine
 10
179.6203866432336
 20
254.9995079086115
 30
0.0
 11
179.6203866432336
 21
256.9995079086114
 31
0.0
  0
LINE
  5
1406
330
A
100
AcDbEntity
  8
06
100
AcDbLine
 10
179.6203866432336
 20
256.9995079086114
 30
0.0
 11
182.1203866432336
 21
256.9995079086114
 31
0.0
  0
LINE
  5
1407
330
A
100
AcDbEntity
  8
06
100
AcDbLine
 10
182.1203866432336
 20
256.9995079086114
 30
0.0
 11
182.1203866432336
 21
259.4995079086117
 31
0.0
  0
LINE
  5
1408
330
A
100
AcDbEntity
  8
06
100
AcDbLine
 10
182.1203866432336
 20
259.4995079086117
 30
0.0
 11
179.6203866432336
 21
259.4995079086117
 31
0.0
  0
LINE
  5
1409
330
A
100
AcDbEntity
  8
06
100
AcDbLine
 10
179.6203866432336
 20
259.4995079086117
 30
0.0
 11
180.6203866432336
 21
269.9995079086117
 31
0.0
  0
LINE
  5
140A
330
A
100
AcDbEntity
  8
06
100
AcDbLine
 10
182.1203866432336
 20
271.4995079086114
 30
0.0
 11
180.3666482399134
 21
271.4995079086114
 31
0.0
  0
ARC
  5
140B
330
A
100
AcDbEntity
  8
06
100
AcDbCircle
 10
180.3666482399134
 20
270.4995079086117
 30
0.0
 40
1.0
100
AcDbArc
 50
89.99999999999976
 51
174.559667968994
  0
LINE
  5
140C
330
A
100
AcDbEntity
  8
06
100
AcDbLine
 10
178.0959506462243
 20
257.2047004745296
 30
0.0
 11
179.3711524437098
 21
270.5943183944514
 31
0.0
  0
ARC
  5
140D
330
A
100
AcDbEntity
  8
06
100
AcDbCircle
 10
177.1004558036949
 20
257.2995071456722
 30
0.0
 40
1.0
100
AcDbArc
 50
270.0
 51
354.5596679689943
  0
LINE
  5
140E
330
A
100
AcDbEntity
  8
06
100
AcDbLine
 10
177.1004558036949
 20
256.2995071456721
 30
0.0
 11
172.420385880294
 21
256.2995071456721
 31
0.0
  0
ARC
  5
140F
330
A
100
AcDbEntity
  8
06
100
AcDbCircle
 10
172.420385880294
 20
257.2995071456722
 30
0.0
 40
1.0
100
AcDbArc
 50
179.9999999999995
 51
270.0
  0
LINE
  5
1410
330
A
100
AcDbEntity
  8
06
100
AcDbLine
 10
171.4203858802942
 20
257.2995071456722
 30
0.0
 11
171.4203858802942
 21
267.4995079086114
 31
0.0
  0
LINE
  5
1411
330
A
100
AcDbEntity
  8
06
100
AcDbLine
 10
170.1203866432335
 20
268.9995079086116
 30
0.0
 11
173.1203866432336
 21
268.4995079086117
 31
0.0
  0
LINE
  5
1412
330
A
100
AcDbEntity
  8
06
100
AcDbLine
 10
173.1203866432336
 20
268.4995079086117
 30
0.0
 11
173.1203866432336
 21
269.9995079086117
 31
0.0
  0
LINE
  5
1413
330
A
100
AcDbEntity
  8
06
100
AcDbLine
 10
173.1203866432336
 20
269.9995079086117
 30
0.0
 11
172.6203866432336
 21
269.9995079086117
 31
0.0
  0
LINE
  5
1414
330
A
100
AcDbEntity
  8
06
100
AcDbLine
 10
172.6203866432336
 20
269.9995079086117
 30
0.0
 11
172.9821458290245
 21
271.4465446517757
 31
0.0
  0
LINE
  5
1415
330
A
100
AcDbEntity
  8
06
100
AcDbLine
 10
174.4203868339685
 20
271.2694892928889
 30
0.0
 11
174.4203868339685
 21
268.1799697921566
 31
0.0
  0
ARC
  5
1416
330
A
100
AcDbEntity
  8
06
100
AcDbCircle
 10
173.4203868339685
 20
268.1799697921566
 30
0.0
 40
1.0
100
AcDbArc
 50
260.5376777919738
 51
359.9999999999998
  0
LINE
  5
1417
330
A
100
AcDbEntity
  8
06
100
AcDbLine
 10
171.4203858802942
 20
267.4995079086114
 30
0.0
 11
173.2559876869348
 21
267.1935730026058
 31
0.0
  0
ARC
  5
1418
330
A
100
AcDbEntity
  8
06
100
AcDbCircle
 10
173.6903682182458
 20
271.2694892928889
 30
0.0
 40
0.7300186566514812
100
AcDbArc
 50
359.9999999999998
 51
165.9637565320732
  0
LINE
  5
1419
330
A
100
AcDbEntity
  8
06
100
AcDbLine
 10
205.1203866432336
 20
311.4995079086117
 30
0.0
 11
202.1203866432336
 21
311.4995079086117
 31
0.0
  0
LINE
  5
141A
330
A
100
AcDbEntity
  8
06
100
AcDbLine
 10
202.1203866432336
 20
311.4995079086117
 30
0.0
 11
202.1203866432336
 21
323.4995079086116
 31
0.0
  0
LINE
  5
141B
330
A
100
AcDbEntity
  8
06
100
AcDbLine
 10
202.1203866432336
 20
323.4995079086116
 30
0.0
 11
175.1203866432336
 21
323.4995079086116
 31
0.0
  0
LINE
  5
141C
330
A
100
AcDbEntity
  8
06
100
AcDbLine
 10
175.1203866432336
 20
323.4995079086116
 30
0.0
 11
175.1203866432336
 21
311.4995079086117
 31
0.0
  0
LINE
  5
141D
330
A
100
AcDbEntity
  8
06
100
AcDbLine
 10
175.1203866432336
 20
311.4995079086117
 30
0.0
 11
172.1203866432336
 21
311.4995079086117
 31
0.0
  0
ARC
  5
141E
330
A
100
AcDbEntity
  8
06
100
AcDbCircle
 10
202.1203866432336
 20
323.4995079086116
 30
0.0
 40
3.0
100
AcDbArc
 50
359.9999999999998
 51
89.99999999999976
  0
ARC
  5
141F
330
A
100
AcDbEntity
  8
06
100
AcDbCircle
 10
175.1203866432336
 20
323.4995079086116
 30
0.0
 40
3.0
100
AcDbArc
 50
89.99999999999978
 51
179.9999999999995
  0
LINE
  5
1420
330
A
100
AcDbEntity
  8
06
100
AcDbLine
 10
253.6203866432336
 20
133.9995079086119
 30
0.0
 11
249.1203866432336
 21
133.9995079086119
 31
0.0
  0
ARC
  5
1421
330
A
100
AcDbEntity
  8
06
100
AcDbCircle
 10
251.1203866432336
 20
134.9995079086119
 30
0.0
 40
1.0
100
AcDbArc
 50
270.0
 51
359.9999999999998
  0
LINE
  5
1422
330
A
100
AcDbEntity
  8
06
100
AcDbLine
 10
249.1203866432336
 20
133.9995079086119
 30
0.0
 11
249.1203866432336
 21
136.4995079086119
 31
0.0
  0
LINE
  5
1423
330
A
100
AcDbEntity
  8
06
100
AcDbLine
 10
249.1203866432336
 20
136.4995079086119
 30
0.0
 11
250.1203866432336
 21
136.4995079086119
 31
0.0
  0
LINE
  5
1424
330
A
100
AcDbEntity
  8
06
100
AcDbLine
 10
250.1203866432336
 20
136.4995079086119
 30
0.0
 11
250.1203866432336
 21
158.4995079086119
 31
0.0
  0
ARC
  5
1425
330
A
100
AcDbEntity
  8
06
100
AcDbCircle
 10
249.1203866432336
 20
158.4995079086119
 30
0.0
 40
1.0
100
AcDbArc
 50
359.9999999999998
 51
89.99999999999984
  0
LINE
  5
1426
330
A
100
AcDbEntity
  8
06
100
AcDbLine
 10
249.1203866432336
 20
159.4995079086119
 30
0.0
 11
218.1203866432336
 21
159.4995079086118
 31
0.0
  0
ARC
  5
1427
330
A
100
AcDbEntity
  8
06
100
AcDbCircle
 10
218.1203866432336
 20
158.4995079086118
 30
0.0
 40
1.0
100
AcDbArc
 50
89.99999999999984
 51
179.9999999999995
  0
LINE
  5
1428
330
A
100
AcDbEntity
  8
06
100
AcDbLine
 10
217.1203866432336
 20
158.4995079086118
 30
0.0
 11
217.1203866432338
 21
136.4995079086118
 31
0.0
  0
LINE
  5
1429
330
A
100
AcDbEntity
  8
06
100
AcDbLine
 10
217.1203866432338
 20
136.4995079086118
 30
0.0
 11
218.1203866432336
 21
136.4995079086118
 31
0.0
  0
LINE
  5
142A
330
A
100
AcDbEntity
  8
06
100
AcDbLine
 10
218.1203866432336
 20
136.4995079086118
 30
0.0
 11
218.1203866432336
 21
133.9995079086118
 31
0.0
  0
LINE
  5
142B
330
A
100
AcDbEntity
  8
06
100
AcDbLine
 10
218.1203866432336
 20
133.9995079086118
 30
0.0
 11
213.6203866432336
 21
133.9995079086118
 31
0.0
  0
ARC
  5
142C
330
A
100
AcDbEntity
  8
06
100
AcDbCircle
 10
216.1203866432336
 20
134.9995079086118
 30
0.0
 40
1.0
100
AcDbArc
 50
179.9999999999995
 51
270.0
  0
LINE
  5
142D
330
A
100
AcDbEntity
  8
06
100
AcDbLine
 10
215.1203866432338
 20
134.9995079086118
 30
0.0
 11
215.1203866432336
 21
219.9995079086118
 31
0.0
  0
LINE
  5
142E
330
A
100
AcDbEntity
  8
06
100
AcDbLine
 10
215.1203866432336
 20
219.9995079086118
 30
0.0
 11
218.1203866432336
 21
219.9995079086118
 31
0.0
  0
LINE
  5
142F
330
A
100
AcDbEntity
  8
06
100
AcDbLine
 10
218.1203866432336
 20
219.9995079086118
 30
0.0
 11
218.1203866432336
 21
218.9995079086118
 31
0.0
  0
LINE
  5
1430
330
A
100
AcDbEntity
  8
06
100
AcDbLine
 10
218.1203866432336
 20
218.9995079086118
 30
0.0
 11
217.1203866432336
 21
218.9995079086118
 31
0.0
  0
LINE
  5
1431
330
A
100
AcDbEntity
  8
06
100
AcDbLine
 10
217.1203866432336
 20
218.9995079086118
 30
0.0
 11
217.1203866432336
 21
216.9995079086118
 31
0.0
  0
LINE
  5
1432
330
A
100
AcDbEntity
  8
06
100
AcDbLine
 10
217.1203866432336
 20
216.9995079086118
 30
0.0
 11
227.1203866432336
 21
216.9995079086118
 31
0.0
  0
LINE
  5
1433
330
A
100
AcDbEntity
  8
06
100
AcDbLine
 10
227.1203866432336
 20
216.9995079086118
 30
0.0
 11
227.1203866432336
 21
218.9995079086118
 31
0.0
  0
LINE
  5
1434
330
A
100
AcDbEntity
  8
06
100
AcDbLine
 10
227.1203866432336
 20
218.9995079086118
 30
0.0
 11
225.6203866432336
 21
218.9995079086118
 31
0.0
  0
LINE
  5
1435
330
A
100
AcDbEntity
  8
06
100
AcDbLine
 10
225.6203866432336
 20
218.9995079086118
 30
0.0
 11
225.6203866432336
 21
219.9995079086118
 31
0.0
  0
LINE
  5
1436
330
A
100
AcDbEntity
  8
06
100
AcDbLine
 10
225.6203866432336
 20
219.9995079086118
 30
0.0
 11
228.1203866432336
 21
219.9995079086118
 31
0.0
  0
LINE
  5
1437
330
A
100
AcDbEntity
  8
06
100
AcDbLine
 10
228.1203866432336
 20
219.9995079086118
 30
0.0
 11
228.1203866432336
 21
218.9995079086118
 31
0.0
  0
LINE
  5
1438
330
A
100
AcDbEntity
  8
06
100
AcDbLine
 10
228.1203866432336
 20
218.9995079086118
 30
0.0
 11
233.3203866313128
 21
218.9995079086118
 31
0.0
  0
LINE
  5
1439
330
A
100
AcDbEntity
  8
06
100
AcDbLine
 10
233.3203866313128
 20
218.9995079086118
 30
0.0
 11
233.6203866432336
 21
218.6995086715513
 31
0.0
  0
LINE
  5
143A
330
A
100
AcDbEntity
  8
06
100
AcDbLine
 10
233.6203866432336
 20
218.6995086715513
 30
0.0
 11
233.9203866551545
 21
218.9995079086118
 31
0.0
  0
LINE
  5
143B
330
A
100
AcDbEntity
  8
06
100
AcDbLine
 10
233.9203866551545
 20
218.9995079086118
 30
0.0
 11
249.1203866432336
 21
218.9995079086118
 31
0.0
  0
ARC
  5
143C
330
A
100
AcDbEntity
  8
06
100
AcDbCircle
 10
249.1203866432336
 20
219.9995079086118
 30
0.0
 40
1.0
100
AcDbArc
 50
270.0
 51
359.9999999999998
  0
LINE
  5
143D
330
A
100
AcDbEntity
  8
06
100
AcDbLine
 10
250.1203866432336
 20
219.9995079086118
 30
0.0
 11
250.1203866432336
 21
231.9995079086118
 31
0.0
  0
LINE
  5
143E
330
A
100
AcDbEntity
  8
06
100
AcDbLine
 10
250.1203866432336
 20
231.9995079086118
 30
0.0
 11
244.6203866432336
 21
231.9995079086118
 31
0.0
  0
LINE
  5
143F
330
A
100
AcDbEntity
  8
06
100
AcDbLine
 10
244.6203866432336
 20
231.9995079086118
 30
0.0
 11
244.6203866432336
 21
231.4995079086118
 31
0.0
  0
ARC
  5
1440
330
A
100
AcDbEntity
  8
06
100
AcDbCircle
 10
242.6203866432336
 20
231.4995079086118
 30
0.0
 40
2.0
100
AcDbArc
 50
270.0
 51
359.9999999999998
  0
LINE
  5
1441
330
A
100
AcDbEntity
  8
06
100
AcDbLine
 10
242.6203866432336
 20
229.4995079086118
 30
0.0
 11
240.1203866432336
 21
229.4995079086118
 31
0.0
  0
LINE
  5
1442
330
A
100
AcDbEntity
  8
06
100
AcDbLine
 10
240.1203866432336
 20
229.4995079086118
 30
0.0
 11
240.1203866432336
 21
231.9995079086118
 31
0.0
  0
LINE
  5
1443
330
A
100
AcDbEntity
  8
06
100
AcDbLine
 10
240.1203866432336
 20
231.9995079086118
 30
0.0
 11
242.6203866432336
 21
231.9995079086118
 31
0.0
  0
LINE
  5
1444
330
A
100
AcDbEntity
  8
06
100
AcDbLine
 10
242.6203866432336
 20
231.9995079086118
 30
0.0
 11
242.6203866432336
 21
233.9995079086118
 31
0.0
  0
LINE
  5
1445
330
A
100
AcDbEntity
  8
06
100
AcDbLine
 10
242.6203866432336
 20
233.9995079086118
 30
0.0
 11
251.1203866432336
 21
233.9995079086119
 31
0.0
  0
ARC
  5
1446
330
A
100
AcDbEntity
  8
06
100
AcDbCircle
 10
251.1203866432336
 20
232.9995079086117
 30
0.0
 40
1.0
100
AcDbArc
 50
359.9999999999998
 51
89.99999999999984
  0
LINE
  5
1447
330
A
100
AcDbEntity
  8
06
100
AcDbLine
 10
252.1203866432336
 20
232.9995079086117
 30
0.0
 11
252.1203866432336
 21
134.9995079086119
 31
0.0
  0
LINE
  5
1448
330
A
100
AcDbEntity
  8
06
100
AcDbLine
 10
246.1203866432336
 20
162.4995079086119
 30
0.0
 11
245.6203866432336
 21
161.9995079086119
 31
0.0
  0
LINE
  5
1449
330
A
100
AcDbEntity
  8
06
100
AcDbLine
 10
245.6203866432336
 20
161.9995079086119
 30
0.0
 11
221.6203866432336
 21
161.9995079086118
 31
0.0
  0
LINE
  5
144A
330
A
100
AcDbEntity
  8
06
100
AcDbLine
 10
221.6203866432336
 20
161.9995079086118
 30
0.0
 11
221.1203866432336
 21
162.4995079086118
 31
0.0
  0
LINE
  5
144B
330
A
100
AcDbEntity
  8
06
100
AcDbLine
 10
250.1203866432336
 20
162.4995079086119
 30
0.0
 11
217.1203866432336
 21
162.4995079086118
 31
0.0
  0
LINE
  5
144C
330
A
100
AcDbEntity
  8
06
100
AcDbLine
 10
217.1203866432336
 20
162.4995079086118
 30
0.0
 11
217.1203866432336
 21
214.9995079086118
 31
0.0
  0
LINE
  5
144D
330
A
100
AcDbEntity
  8
06
100
AcDbLine
 10
217.1203866432336
 20
214.9995079086118
 30
0.0
 11
227.6203866432336
 21
214.9995079086118
 31
0.0
  0
ARC
  5
144E
330
A
100
AcDbEntity
  8
06
100
AcDbCircle
 10
227.6203866432336
 20
215.9995079086117
 30
0.0
 40
1.0
100
AcDbArc
 50
270.0
 51
359.9999999999998
  0
LINE
  5
144F
330
A
100
AcDbEntity
  8
06
100
AcDbLine
 10
228.6203866432336
 20
215.9995079086117
 30
0.0
 11
228.6203866432336
 21
216.4995079086116
 31
0.0
  0
LINE
  5
1450
330
A
100
AcDbEntity
  8
06
100
AcDbLine
 10
228.6203866432336
 20
216.4995079086116
 30
0.0
 11
238.1203866432336
 21
216.4995079086116
 31
0.0
  0
LINE
  5
1451
330
A
100
AcDbEntity
  8
06
100
AcDbLine
 10
238.1203866432336
 20
216.4995079086116
 30
0.0
 11
238.1203866432336
 21
214.4995079086118
 31
0.0
  0
LINE
  5
1452
330
A
100
AcDbEntity
  8
06
100
AcDbLine
 10
238.1203866432336
 20
214.4995079086118
 30
0.0
 11
240.1203866432336
 21
214.4995079086118
 31
0.0
  0
LINE
  5
1453
330
A
100
AcDbEntity
  8
06
100
AcDbLine
 10
240.1203866432336
 20
214.4995079086118
 30
0.0
 11
240.1203866432336
 21
216.9995079086118
 31
0.0
  0
LINE
  5
1454
330
A
100
AcDbEntity
  8
06
100
AcDbLine
 10
240.1203866432336
 20
216.9995079086118
 30
0.0
 11
249.1203866432336
 21
216.9995079086118
 31
0.0
  0
ARC
  5
1455
330
A
100
AcDbEntity
  8
06
100
AcDbCircle
 10
249.1203866432336
 20
215.9995079086117
 30
0.0
 40
1.0
100
AcDbArc
 50
359.9999999999998
 51
89.99999999999984
  0
LINE
  5
1456
330
A
100
AcDbEntity
  8
06
100
AcDbLine
 10
250.1203866432336
 20
215.9995079086117
 30
0.0
 11
250.1203866432336
 21
162.4995079086119
 31
0.0
  0
LINE
  5
1457
330
A
100
AcDbEntity
  8
06
100
AcDbLine
 10
215.1203866432336
 20
219.9995079086118
 30
0.0
 11
215.1203866432336
 21
231.6995086715511
 31
0.0
  0
ARC
  5
1458
330
A
100
AcDbEntity
  8
06
100
AcDbCircle
 10
217.4203858802939
 20
231.6995086715511
 30
0.0
 40
2.299999999999998
100
AcDbArc
 50
89.99999999999984
 51
179.9999999999995
  0
LINE
  5
1459
330
A
100
AcDbEntity
  8
06
100
AcDbLine
 10
217.4203858802939
 20
233.9995079086118
 30
0.0
 11
224.6203866432336
 21
233.9995079086118
 31
0.0
  0
LINE
  5
145A
330
A
100
AcDbEntity
  8
06
100
AcDbLine
 10
224.6203866432336
 20
233.9995079086118
 30
0.0
 11
224.6203866432336
 21
231.9995079086118
 31
0.0
  0
LINE
  5
145B
330
A
100
AcDbEntity
  8
06
100
AcDbLine
 10
224.6203866432336
 20
231.9995079086118
 30
0.0
 11
227.1203866432336
 21
231.9995079086118
 31
0.0
  0
LINE
  5
145C
330
A
100
AcDbEntity
  8
06
100
AcDbLine
 10
227.1203866432336
 20
231.9995079086118
 30
0.0
 11
227.1203866432336
 21
229.4995079086118
 31
0.0
  0
LINE
  5
145D
330
A
100
AcDbEntity
  8
06
100
AcDbLine
 10
227.1203866432336
 20
229.4995079086118
 30
0.0
 11
224.6203866432336
 21
229.4995079086118
 31
0.0
  0
LINE
  5
145E
330
A
100
AcDbEntity
  8
06
100
AcDbLine
 10
224.6203866432336
 20
229.4995079086118
 30
0.0
 11
225.6203866432336
 21
218.9995079086118
 31
0.0
  0
LINE
  5
145F
330
A
100
AcDbEntity
  8
06
100
AcDbLine
 10
227.1203866432336
 20
217.4995079086118
 30
0.0
 11
225.3666482399134
 21
217.4995079086118
 31
0.0
  0
ARC
  5
1460
330
A
100
AcDbEntity
  8
06
100
AcDbCircle
 10
225.3666482399134
 20
218.4995079086117
 30
0.0
 40
1.0
100
AcDbArc
 50
185.4403320310049
 51
270.0
  0
LINE
  5
1461
330
A
100
AcDbEntity
  8
06
100
AcDbLine
 10
223.0959506462243
 20
231.7943153426938
 30
0.0
 11
224.3711524437098
 21
218.4046974227718
 31
0.0
  0
ARC
  5
1462
330
A
100
AcDbEntity
  8
06
100
AcDbCircle
 10
222.1004558036949
 20
231.6995086715511
 30
0.0
 40
1.0
100
AcDbArc
 50
5.440332031005326
 51
89.99999999999969
  0
LINE
  5
1463
330
A
100
AcDbEntity
  8
06
100
AcDbLine
 10
222.1004558036949
 20
232.699508671551
 30
0.0
 11
217.4203858802939
 21
232.699508671551
 31
0.0
  0
ARC
  5
1464
330
A
100
AcDbEntity
  8
06
100
AcDbCircle
 10
217.4203858802939
 20
231.6995086715511
 30
0.0
 40
1.0
100
AcDbArc
 50
89.99999999999978
 51
179.9999999999995
  0
LINE
  5
1465
330
A
100
AcDbEntity
  8
06
100
AcDbLine
 10
216.4203858802939
 20
231.6995086715511
 30
0.0
 11
216.4203858802939
 21
221.4995079086118
 31
0.0
  0
LINE
  5
1466
330
A
100
AcDbEntity
  8
06
100
AcDbLine
 10
215.1203866432336
 20
219.9995079086118
 30
0.0
 11
218.1203866432336
 21
220.4995079086117
 31
0.0
  0
LINE
  5
1467
330
A
100
AcDbEntity
  8
06
100
AcDbLine
 10
218.1203866432336
 20
220.4995079086117
 30
0.0
 11
218.1203866432336
 21
218.9995079086118
 31
0.0
  0
LINE
  5
1468
330
A
100
AcDbEntity
  8
06
100
AcDbLine
 10
218.1203866432336
 20
218.9995079086118
 30
0.0
 11
217.6203866432336
 21
218.9995079086118
 31
0.0
  0
LINE
  5
1469
330
A
100
AcDbEntity
  8
06
100
AcDbLine
 10
217.6203866432336
 20
218.9995079086118
 30
0.0
 11
217.9821458290247
 21
217.5524711654475
 31
0.0
  0
LINE
  5
146A
330
A
100
AcDbEntity
  8
06
100
AcDbLine
 10
219.4203868339684
 20
217.7295265243345
 30
0.0
 11
219.4203868339684
 21
220.8190460250669
 31
0.0
  0
ARC
  5
146B
330
A
100
AcDbEntity
  8
06
100
AcDbCircle
 10
218.4203868339685
 20
220.8190460250669
 30
0.0
 40
1.0
100
AcDbArc
 50
359.9999999999998
 51
99.46232220802556
  0
LINE
  5
146C
330
A
100
AcDbEntity
  8
06
100
AcDbLine
 10
216.4203858802939
 20
221.4995079086118
 30
0.0
 11
218.2559876869348
 21
221.8054428146177
 31
0.0
  0
ARC
  5
146D
330
A
100
AcDbEntity
  8
06
100
AcDbCircle
 10
218.6903682182459
 20
217.7295265243345
 30
0.0
 40
0.7300186566514812
100
AcDbArc
 50
194.036243467926
 51
359.9999999999998
  0
LINE
  5
146E
330
A
100
AcDbEntity
  8
06
100
AcDbLine
 10
250.1203866432336
 20
177.4995079086119
 30
0.0
 11
247.1203866432336
 21
177.4995079086119
 31
0.0
  0
LINE
  5
146F
330
A
100
AcDbEntity
  8
06
100
AcDbLine
 10
247.1203866432336
 20
177.4995079086119
 30
0.0
 11
247.1203866432336
 21
165.4995079086119
 31
0.0
  0
LINE
  5
1470
330
A
100
AcDbEntity
  8
06
100
AcDbLine
 10
247.1203866432336
 20
165.4995079086119
 30
0.0
 11
220.1203866432336
 21
165.4995079086119
 31
0.0
  0
LINE
  5
1471
330
A
100
AcDbEntity
  8
06
100
AcDbLine
 10
220.1203866432336
 20
165.4995079086119
 30
0.0
 11
220.1203866432336
 21
177.4995079086119
 31
0.0
  0
LINE
  5
1472
330
A
100
AcDbEntity
  8
06
100
AcDbLine
 10
220.1203866432336
 20
177.4995079086119
 30
0.0
 11
217.1203866432336
 21
177.4995079086119
 31
0.0
  0
ARC
  5
1473
330
A
100
AcDbEntity
  8
06
100
AcDbCircle
 10
247.1203866432336
 20
165.4995079086119
 30
0.0
 40
3.0
100
AcDbArc
 50
270.0
 51
359.9999999999998
  0
ARC
  5
1474
330
A
100
AcDbEntity
  8
06
100
AcDbCircle
 10
220.1203866432336
 20
165.4995079086119
 30
0.0
 40
3.0
100
AcDbArc
 50
179.9999999999995
 51
270.0
  0
LINE
  5
1475
330
A
100
AcDbEntity
  8
06
100
AcDbLine
 10
208.6203866432336
 20
133.9995079086119
 30
0.0
 11
204.1203866432336
 21
133.9995079086119
 31
0.0
  0
ARC
  5
1476
330
A
100
AcDbEntity
  8
06
100
AcDbCircle
 10
206.1203866432336
 20
134.9995079086119
 30
0.0
 40
1.0
100
AcDbArc
 50
270.0
 51
359.9999999999998
  0
LINE
  5
1477
330
A
100
AcDbEntity
  8
06
100
AcDbLine
 10
204.1203866432336
 20
133.9995079086119
 30
0.0
 11
204.1203866432336
 21
136.4995079086119
 31
0.0
  0
LINE
  5
1478
330
A
100
AcDbEntity
  8
06
100
AcDbLine
 10
204.1203866432336
 20
136.4995079086119
 30
0.0
 11
205.1203866432336
 21
136.4995079086119
 31
0.0
  0
LINE
  5
1479
330
A
100
AcDbEntity
  8
06
100
AcDbLine
 10
205.1203866432336
 20
136.4995079086119
 30
0.0
 11
205.1203866432336
 21
158.4995079086119
 31
0.0
  0
ARC
  5
147A
330
A
100
AcDbEntity
  8
06
100
AcDbCircle
 10
204.1203866432335
 20
158.4995079086119
 30
0.0
 40
1.0
100
AcDbArc
 50
359.9999999999998
 51
89.99999999999984
  0
LINE
  5
147B
330
A
100
AcDbEntity
  8
06
100
AcDbLine
 10
204.1203866432335
 20
159.4995079086119
 30
0.0
 11
173.1203866432336
 21
159.4995079086118
 31
0.0
  0
ARC
  5
147C
330
A
100
AcDbEntity
  8
06
100
AcDbCircle
 10
173.1203866432336
 20
158.4995079086118
 30
0.0
 40
1.0
100
AcDbArc
 50
89.99999999999984
 51
179.9999999999995
  0
LINE
  5
147D
330
A
100
AcDbEntity
  8
06
100
AcDbLine
 10
172.1203866432336
 20
158.4995079086118
 30
0.0
 11
172.1203866432336
 21
136.4995079086118
 31
0.0
  0
LINE
  5
147E
330
A
100
AcDbEntity
  8
06
100
AcDbLine
 10
172.1203866432336
 20
136.4995079086118
 30
0.0
 11
173.1203866432336
 21
136.4995079086118
 31
0.0
  0
LINE
  5
147F
330
A
100
AcDbEntity
  8
06
100
AcDbLine
 10
173.1203866432336
 20
136.4995079086118
 30
0.0
 11
173.1203866432336
 21
133.9995079086118
 31
0.0
  0
LINE
  5
1480
330
A
100
AcDbEntity
  8
06
100
AcDbLine
 10
173.1203866432336
 20
133.9995079086118
 30
0.0
 11
168.6203866432335
 21
133.9995079086118
 31
0.0
  0
ARC
  5
1481
330
A
100
AcDbEntity
  8
06
100
AcDbCircle
 10
171.1203866432338
 20
134.9995079086118
 30
0.0
 40
1.0
100
AcDbArc
 50
179.9999999999995
 51
270.0
  0
LINE
  5
1482
330
A
100
AcDbEntity
  8
06
100
AcDbLine
 10
170.1203866432338
 20
134.9995079086118
 30
0.0
 11
170.1203866432335
 21
219.9995079086118
 31
0.0
  0
LINE
  5
1483
330
A
100
AcDbEntity
  8
06
100
AcDbLine
 10
170.1203866432335
 20
219.9995079086118
 30
0.0
 11
173.1203866432336
 21
219.9995079086118
 31
0.0
  0
LINE
  5
1484
330
A
100
AcDbEntity
  8
06
100
AcDbLine
 10
173.1203866432336
 20
219.9995079086118
 30
0.0
 11
173.1203866432336
 21
218.9995079086118
 31
0.0
  0
LINE
  5
1485
330
A
100
AcDbEntity
  8
06
100
AcDbLine
 10
173.1203866432336
 20
218.9995079086118
 30
0.0
 11
172.1203866432336
 21
218.9995079086118
 31
0.0
  0
LINE
  5
1486
330
A
100
AcDbEntity
  8
06
100
AcDbLine
 10
172.1203866432336
 20
218.9995079086118
 30
0.0
 11
172.1203866432336
 21
216.9995079086118
 31
0.0
  0
LINE
  5
1487
330
A
100
AcDbEntity
  8
06
100
AcDbLine
 10
172.1203866432336
 20
216.9995079086118
 30
0.0
 11
182.1203866432336
 21
216.9995079086118
 31
0.0
  0
LINE
  5
1488
330
A
100
AcDbEntity
  8
06
100
AcDbLine
 10
182.1203866432336
 20
216.9995079086118
 30
0.0
 11
182.1203866432336
 21
218.9995079086118
 31
0.0
  0
LINE
  5
1489
330
A
100
AcDbEntity
  8
06
100
AcDbLine
 10
182.1203866432336
 20
218.9995079086118
 30
0.0
 11
180.6203866432336
 21
218.9995079086118
 31
0.0
  0
LINE
  5
148A
330
A
100
AcDbEntity
  8
06
100
AcDbLine
 10
180.6203866432336
 20
218.9995079086118
 30
0.0
 11
180.6203866432336
 21
219.9995079086118
 31
0.0
  0
LINE
  5
148B
330
A
100
AcDbEntity
  8
06
100
AcDbLine
 10
180.6203866432336
 20
219.9995079086118
 30
0.0
 11
183.1203866432336
 21
219.9995079086118
 31
0.0
  0
LINE
  5
148C
330
A
100
AcDbEntity
  8
06
100
AcDbLine
 10
183.1203866432336
 20
219.9995079086118
 30
0.0
 11
183.1203866432336
 21
218.9995079086118
 31
0.0
  0
LINE
  5
148D
330
A
100
AcDbEntity
  8
06
100
AcDbLine
 10
183.1203866432336
 20
218.9995079086118
 30
0.0
 11
188.3203866313128
 21
218.9995079086118
 31
0.0
  0
LINE
  5
148E
330
A
100
AcDbEntity
  8
06
100
AcDbLine
 10
188.3203866313128
 20
218.9995079086118
 30
0.0
 11
188.6203866432336
 21
218.6995086715513
 31
0.0
  0
LINE
  5
148F
330
A
100
AcDbEntity
  8
06
100
AcDbLine
 10
188.6203866432336
 20
218.6995086715513
 30
0.0
 11
188.9203866551546
 21
218.9995079086118
 31
0.0
  0
LINE
  5
1490
330
A
100
AcDbEntity
  8
06
100
AcDbLine
 10
188.9203866551546
 20
218.9995079086118
 30
0.0
 11
204.1203866432335
 21
218.9995079086118
 31
0.0
  0
ARC
  5
1491
330
A
100
AcDbEntity
  8
06
100
AcDbCircle
 10
204.1203866432335
 20
219.9995079086118
 30
0.0
 40
1.0
100
AcDbArc
 50
270.0
 51
359.9999999999998
  0
LINE
  5
1492
330
A
100
AcDbEntity
  8
06
100
AcDbLine
 10
205.1203866432336
 20
219.9995079086118
 30
0.0
 11
205.1203866432336
 21
231.9995079086118
 31
0.0
  0
LINE
  5
1493
330
A
100
AcDbEntity
  8
06
100
AcDbLine
 10
205.1203866432336
 20
231.9995079086118
 30
0.0
 11
199.6203866432336
 21
231.9995079086118
 31
0.0
  0
LINE
  5
1494
330
A
100
AcDbEntity
  8
06
100
AcDbLine
 10
199.6203866432336
 20
231.9995079086118
 30
0.0
 11
199.6203866432336
 21
231.4995079086118
 31
0.0
  0
ARC
  5
1495
330
A
100
AcDbEntity
  8
06
100
AcDbCircle
 10
197.6203866432336
 20
231.4995079086118
 30
0.0
 40
2.0
100
AcDbArc
 50
270.0
 51
359.9999999999998
  0
LINE
  5
1496
330
A
100
AcDbEntity
  8
06
100
AcDbLine
 10
197.6203866432336
 20
229.4995079086118
 30
0.0
 11
195.1203866432336
 21
229.4995079086118
 31
0.0
  0
LINE
  5
1497
330
A
100
AcDbEntity
  8
06
100
AcDbLine
 10
195.1203866432336
 20
229.4995079086118
 30
0.0
 11
195.1203866432336
 21
231.9995079086118
 31
0.0
  0
LINE
  5
1498
330
A
100
AcDbEntity
  8
06
100
AcDbLine
 10
195.1203866432336
 20
231.9995079086118
 30
0.0
 11
197.6203866432336
 21
231.9995079086118
 31
0.0
  0
LINE
  5
1499
330
A
100
AcDbEntity
  8
06
100
AcDbLine
 10
197.6203866432336
 20
231.9995079086118
 30
0.0
 11
197.6203866432336
 21
233.9995079086118
 31
0.0
  0
LINE
  5
149A
330
A
100
AcDbEntity
  8
06
100
AcDbLine
 10
197.6203866432336
 20
233.9995079086118
 30
0.0
 11
206.1203866432335
 21
233.9995079086119
 31
0.0
  0
ARC
  5
149B
330
A
100
AcDbEntity
  8
06
100
AcDbCircle
 10
206.1203866432335
 20
232.9995079086117
 30
0.0
 40
1.0
100
AcDbArc
 50
359.9999999999998
 51
89.99999999999984
  0
LINE
  5
149C
330
A
100
AcDbEntity
  8
06
100
AcDbLine
 10
207.1203866432336
 20
232.9995079086117
 30
0.0
 11
207.1203866432338
 21
134.9995079086119
 31
0.0
  0
LINE
  5
149D
330
A
100
AcDbEntity
  8
06
100
AcDbLine
 10
201.1203866432336
 20
162.4995079086119
 30
0.0
 11
200.6203866432336
 21
161.9995079086119
 31
0.0
  0
LINE
  5
149E
330
A
100
AcDbEntity
  8
06
100
AcDbLine
 10
200.6203866432336
 20
161.9995079086119
 30
0.0
 11
176.6203866432336
 21
161.9995079086118
 31
0.0
  0
LINE
  5
149F
330
A
100
AcDbEntity
  8
06
100
AcDbLine
 10
176.6203866432336
 20
161.9995079086118
 30
0.0
 11
176.1203866432336
 21
162.4995079086118
 31
0.0
  0
LINE
  5
14A0
330
A
100
AcDbEntity
  8
06
100
AcDbLine
 10
205.1203866432336
 20
162.4995079086119
 30
0.0
 11
172.1203866432336
 21
162.4995079086118
 31
0.0
  0
LINE
  5
14A1
330
A
100
AcDbEntity
  8
06
100
AcDbLine
 10
172.1203866432336
 20
162.4995079086118
 30
0.0
 11
172.1203866432336
 21
214.9995079086118
 31
0.0
  0
LINE
  5
14A2
330
A
100
AcDbEntity
  8
06
100
AcDbLine
 10
172.1203866432336
 20
214.9995079086118
 30
0.0
 11
182.6203866432336
 21
214.9995079086118
 31
0.0
  0
ARC
  5
14A3
330
A
100
AcDbEntity
  8
06
100
AcDbCircle
 10
182.6203866432336
 20
215.9995079086117
 30
0.0
 40
1.0
100
AcDbArc
 50
270.0
 51
359.9999999999998
  0
LINE
  5
14A4
330
A
100
AcDbEntity
  8
06
100
AcDbLine
 10
183.6203866432336
 20
215.9995079086117
 30
0.0
 11
183.6203866432336
 21
216.4995079086116
 31
0.0
  0
LINE
  5
14A5
330
A
100
AcDbEntity
  8
06
100
AcDbLine
 10
183.6203866432336
 20
216.4995079086116
 30
0.0
 11
193.1203866432336
 21
216.4995079086116
 31
0.0
  0
LINE
  5
14A6
330
A
100
AcDbEntity
  8
06
100
AcDbLine
 10
193.1203866432336
 20
216.4995079086116
 30
0.0
 11
193.1203866432336
 21
214.4995079086118
 31
0.0
  0
LINE
  5
14A7
330
A
100
AcDbEntity
  8
06
100
AcDbLine
 10
193.1203866432336
 20
214.4995079086118
 30
0.0
 11
195.1203866432336
 21
214.4995079086118
 31
0.0
  0
LINE
  5
14A8
330
A
100
AcDbEntity
  8
06
100
AcDbLine
 10
195.1203866432336
 20
214.4995079086118
 30
0.0
 11
195.1203866432336
 21
216.9995079086118
 31
0.0
  0
LINE
  5
14A9
330
A
100
AcDbEntity
  8
06
100
AcDbLine
 10
195.1203866432336
 20
216.9995079086118
 30
0.0
 11
204.1203866432335
 21
216.9995079086118
 31
0.0
  0
ARC
  5
14AA
330
A
100
AcDbEntity
  8
06
100
AcDbCircle
 10
204.1203866432335
 20
215.9995079086117
 30
0.0
 40
1.0
100
AcDbArc
 50
359.9999999999998
 51
89.99999999999984
  0
LINE
  5
14AB
330
A
100
AcDbEntity
  8
06
100
AcDbLine
 10
205.1203866432336
 20
215.9995079086117
 30
0.0
 11
205.1203866432336
 21
162.4995079086119
 31
0.0
  0
LINE
  5
14AC
330
A
100
AcDbEntity
  8
06
100
AcDbLine
 10
170.1203866432335
 20
219.9995079086118
 30
0.0
 11
170.1203866432335
 21
231.6995086715511
 31
0.0
  0
ARC
  5
14AD
330
A
100
AcDbEntity
  8
06
100
AcDbCircle
 10
172.420385880294
 20
231.6995086715511
 30
0.0
 40
2.299999999999998
100
AcDbArc
 50
89.99999999999984
 51
179.9999999999995
  0
LINE
  5
14AE
330
A
100
AcDbEntity
  8
06
100
AcDbLine
 10
172.420385880294
 20
233.9995079086118
 30
0.0
 11
179.6203866432336
 21
233.9995079086118
 31
0.0
  0
LINE
  5
14AF
330
A
100
AcDbEntity
  8
06
100
AcDbLine
 10
179.6203866432336
 20
233.9995079086118
 30
0.0
 11
179.6203866432336
 21
231.9995079086118
 31
0.0
  0
LINE
  5
14B0
330
A
100
AcDbEntity
  8
06
100
AcDbLine
 10
179.6203866432336
 20
231.9995079086118
 30
0.0
 11
182.1203866432336
 21
231.9995079086118
 31
0.0
  0
LINE
  5
14B1
330
A
100
AcDbEntity
  8
06
100
AcDbLine
 10
182.1203866432336
 20
231.9995079086118
 30
0.0
 11
182.1203866432336
 21
229.4995079086118
 31
0.0
  0
LINE
  5
14B2
330
A
100
AcDbEntity
  8
06
100
AcDbLine
 10
182.1203866432336
 20
229.4995079086118
 30
0.0
 11
179.6203866432336
 21
229.4995079086118
 31
0.0
  0
LINE
  5
14B3
330
A
100
AcDbEntity
  8
06
100
AcDbLine
 10
179.6203866432336
 20
229.4995079086118
 30
0.0
 11
180.6203866432336
 21
218.9995079086118
 31
0.0
  0
LINE
  5
14B4
330
A
100
AcDbEntity
  8
06
100
AcDbLine
 10
182.1203866432336
 20
217.4995079086118
 30
0.0
 11
180.3666482399134
 21
217.4995079086118
 31
0.0
  0
ARC
  5
14B5
330
A
100
AcDbEntity
  8
06
100
AcDbCircle
 10
180.3666482399134
 20
218.4995079086117
 30
0.0
 40
1.0
100
AcDbArc
 50
185.4403320310049
 51
270.0
  0
LINE
  5
14B6
330
A
100
AcDbEntity
  8
06
100
AcDbLine
 10
178.0959506462243
 20
231.7943153426938
 30
0.0
 11
179.3711524437098
 21
218.4046974227718
 31
0.0
  0
ARC
  5
14B7
330
A
100
AcDbEntity
  8
06
100
AcDbCircle
 10
177.1004558036949
 20
231.6995086715511
 30
0.0
 40
1.0
100
AcDbArc
 50
5.440332031005326
 51
89.99999999999969
  0
LINE
  5
14B8
330
A
100
AcDbEntity
  8
06
100
AcDbLine
 10
177.1004558036949
 20
232.699508671551
 30
0.0
 11
172.420385880294
 21
232.699508671551
 31
0.0
  0
ARC
  5
14B9
330
A
100
AcDbEntity
  8
06
100
AcDbCircle
 10
172.420385880294
 20
231.6995086715511
 30
0.0
 40
1.0
100
AcDbArc
 50
89.99999999999978
 51
179.9999999999995
  0
LINE
  5
14BA
330
A
100
AcDbEntity
  8
06
100
AcDbLine
 10
171.4203858802942
 20
231.6995086715511
 30
0.0
 11
171.4203858802943
 21
221.4995079086118
 31
0.0
  0
LINE
  5
14BB
330
A
100
AcDbEntity
  8
06
100
AcDbLine
 10
170.1203866432335
 20
219.9995079086118
 30
0.0
 11
173.1203866432336
 21
220.4995079086117
 31
0.0
  0
LINE
  5
14BC
330
A
100
AcDbEntity
  8
06
100
AcDbLine
 10
173.1203866432336
 20
220.4995079086117
 30
0.0
 11
173.1203866432336
 21
218.9995079086118
 31
0.0
  0
LINE
  5
14BD
330
A
100
AcDbEntity
  8
06
100
AcDbLine
 10
173.1203866432336
 20
218.9995079086118
 30
0.0
 11
172.6203866432336
 21
218.9995079086118
 31
0.0
  0
LINE
  5
14BE
330
A
100
AcDbEntity
  8
06
100
AcDbLine
 10
172.6203866432336
 20
218.9995079086118
 30
0.0
 11
172.9821458290245
 21
217.5524711654475
 31
0.0
  0
LINE
  5
14BF
330
A
100
AcDbEntity
  8
06
100
AcDbLine
 10
174.4203868339685
 20
217.7295265243345
 30
0.0
 11
174.4203868339685
 21
220.8190460250669
 31
0.0
  0
ARC
  5
14C0
330
A
100
AcDbEntity
  8
06
100
AcDbCircle
 10
173.4203868339685
 20
220.8190460250669
 30
0.0
 40
1.0
100
AcDbArc
 50
359.9999999999998
 51
99.46232220802556
  0
LINE
  5
14C1
330
A
100
AcDbEntity
  8
06
100
AcDbLine
 10
171.4203858802943
 20
221.4995079086118
 30
0.0
 11
173.2559876869349
 21
221.8054428146177
 31
0.0
  0
ARC
  5
14C2
330
A
100
AcDbEntity
  8
06
100
AcDbCircle
 10
173.6903682182458
 20
217.7295265243345
 30
0.0
 40
0.7300186566514812
100
AcDbArc
 50
194.036243467926
 51
359.9999999999998
  0
LINE
  5
14C3
330
A
100
AcDbEntity
  8
06
100
AcDbLine
 10
205.1203866432336
 20
177.4995079086119
 30
0.0
 11
202.1203866432336
 21
177.4995079086119
 31
0.0
  0
LINE
  5
14C4
330
A
100
AcDbEntity
  8
06
100
AcDbLine
 10
202.1203866432336
 20
177.4995079086119
 30
0.0
 11
202.1203866432336
 21
165.4995079086119
 31
0.0
  0
LINE
  5
14C5
330
A
100
AcDbEntity
  8
06
100
AcDbLine
 10
202.1203866432336
 20
165.4995079086119
 30
0.0
 11
175.1203866432336
 21
165.4995079086119
 31
0.0
  0
LINE
  5
14C6
330
A
100
AcDbEntity
  8
06
100
AcDbLine
 10
175.1203866432336
 20
165.4995079086119
 30
0.0
 11
175.1203866432336
 21
177.4995079086119
 31
0.0
  0
LINE
  5
14C7
330
A
100
AcDbEntity
  8
06
100
AcDbLine
 10
175.1203866432336
 20
177.4995079086119
 30
0.0
 11
172.1203866432336
 21
177.4995079086119
 31
0.0
  0
ARC
  5
14C8
330
A
100
AcDbEntity
  8
06
100
AcDbCircle
 10
202.1203866432336
 20
165.4995079086119
 30
0.0
 40
3.0
100
AcDbArc
 50
270.0
 51
359.9999999999998
  0
ARC
  5
14C9
330
A
100
AcDbEntity
  8
06
100
AcDbCircle
 10
175.1203866432336
 20
165.4995079086119
 30
0.0
 40
3.0
100
AcDbArc
 50
179.9999999999995
 51
270.0
  0
LINE
  5
14CA
330
A
100
AcDbEntity
  8
06
100
AcDbLine
 10
253.6203866432336
 20
354.9995079086115
 30
0.0
 11
253.6203866432336
 21
245.4995079086117
 31
0.0
  0
LINE
  5
14CB
330
A
100
AcDbEntity
  8
06
100
AcDbLine
 10
253.6203866432336
 20
242.4995079086115
 30
0.0
 11
253.6203866432336
 21
133.9995079086119
 31
0.0
  0
LINE
  5
14CC
330
A
100
AcDbEntity
  8
06
100
AcDbLine
 10
213.6203866432336
 20
133.9995079086118
 30
0.0
 11
213.6203866432336
 21
242.4995079086115
 31
0.0
  0
LINE
  5
14CD
330
A
100
AcDbEntity
  8
06
100
AcDbLine
 10
213.6203866432336
 20
245.4995079086117
 30
0.0
 11
213.6203866432336
 21
354.9995079086115
 31
0.0
  0
LINE
  5
14D1
330
A
100
AcDbEntity
  8
06
100
AcDbLine
 10
208.6203866432336
 20
354.9995079086115
 30
0.0
 11
208.6203866432336
 21
299.3291619778677
 31
0.0
  0
LINE
  5
14D3
330
A
100
AcDbEntity
  8
06
100
AcDbLine
 10
208.6203866432336
 20
303.4553197242126
 30
0.0
 11
208.6203866432336
 21
245.4995079086117
 31
0.0
  0
LINE
  5
14D4
330
A
100
AcDbEntity
  8
06
100
AcDbLine
 10
208.6203866432336
 20
242.4995079086115
 30
0.0
 11
208.6203866432336
 21
133.9995079086118
 31
0.0
  0
LINE
  5
14D5
330
A
100
AcDbEntity
  8
06
100
AcDbLine
 10
168.6203866432335
 20
133.9995079086118
 30
0.0
 11
168.6203866432335
 21
242.4995079086115
 31
0.0
  0
LINE
  5
14D6
330
A
100
AcDbEntity
  8
06
100
AcDbLine
 10
168.6203866432335
 20
245.4995079086117
 30
0.0
 11
168.6203866432335
 21
354.9995079086115
 31
0.0
  0
LINE
  5
14D7
330
A
100
AcDbEntity
  8
03
100
AcDbLine
 10
207.6203874061731
 20
357.9995079086117
 30
0.0
 11
207.6203874061731
 21
368.9995079086116
 31
0.0
  0
LINE
  5
14D8
330
A
100
AcDbEntity
  8
03
100
AcDbLine
 10
207.6203874061731
 20
368.9995079086116
 30
0.0
 11
209.1203874061731
 21
368.9995079086116
 31
0.0
  0
LINE
  5
14D9
330
A
100
AcDbEntity
  8
03
100
AcDbLine
 10
209.1203874061731
 20
368.9995079086116
 30
0.0
 11
209.1203874061731
 21
357.9995079086117
 31
0.0
  0
ARC
  5
14DA
330
A
100
AcDbEntity
  8
03
100
AcDbCircle
 10
207.6203874061731
 20
357.9995079086117
 30
0.0
 40
1.5
100
AcDbArc
 50
270.0
 51
359.9999999999998
  0
LINE
  5
14DB
330
A
100
AcDbEntity
  8
03
100
AcDbLine
 10
207.6203874061731
 20
356.4995079086116
 30
0.0
 11
163.6203874061731
 21
356.4995079086116
 31
0.0
  0
LINE
  5
14DC
330
A
100
AcDbEntity
  8
03
100
AcDbLine
 10
163.6203874061731
 20
356.4995079086116
 30
0.0
 11
163.6203874061731
 21
357.9995079086117
 31
0.0
  0
LINE
  5
14DD
330
A
100
AcDbEntity
  8
03
100
AcDbLine
 10
163.6203874061731
 20
357.9995079086117
 30
0.0
 11
207.6203874061731
 21
357.9995079086117
 31
0.0
  0
LINE
  5
155E
330
A
100
AcDbEntity
  8
CHUSIN
100
AcDbLine
 10
169.1203874061731
 20
363.6355703029747
 30
0.0
 11
169.1203874061731
 21
352.3077163176886
 31
0.0
  0
LINE
  5
155F
330
A
100
AcDbEntity
  8
CHUSIN
100
AcDbLine
 10
213.0373050203606
 20
363.9995079086117
 30
0.0
 11
200.2591607384716
 21
363.9995079086117
 31
0.0
  0
LINE
  5
1764
330
A
100
AcDbEntity
  8
03
100
AcDbLine
 10
206.6203874061733
 20
519.9995079086115
 30
0.0
 11
216.6203874061733
 21
519.9995079086115
 31
0.0
  0
LINE
  5
1765
330
A
100
AcDbEntity
  8
03
100
AcDbLine
 10
216.6203874061733
 20
517.9995079086117
 30
0.0
 11
216.6203874061733
 21
519.9995079086115
 31
0.0
  0
LINE
  5
1766
330
A
100
AcDbEntity
  8
03
100
AcDbLine
 10
206.6203874061733
 20
507.9995079086115
 30
0.0
 11
206.6203874061733
 21
519.9995079086115
 31
0.0
  0
LINE
  5
1767
330
A
100
AcDbEntity
  8
03
100
AcDbLine
 10
218.6203874061733
 20
517.9995079086117
 30
0.0
 11
216.6203874061733
 21
517.9995079086117
 31
0.0
  0
LINE
  5
1768
330
A
100
AcDbEntity
  8
03
100
AcDbLine
 10
218.6203874061733
 20
517.9995079086117
 30
0.0
 11
218.6203874061733
 21
507.9995079086115
 31
0.0
  0
LINE
  5
1769
330
A
100
AcDbEntity
  8
03
100
AcDbLine
 10
215.6203874061734
 20
557.9995079086118
 30
0.0
 11
215.6203874061734
 21
540.9995079086118
 31
0.0
  0
LINE
  5
176A
330
A
100
AcDbEntity
  8
03
100
AcDbLine
 10
215.6203874061734
 20
537.9995079086118
 30
0.0
 11
215.6203874061734
 21
519.9995079086118
 31
0.0
  0
LINE
  5
176B
330
A
100
AcDbEntity
  8
03
100
AcDbLine
 10
209.6203874061733
 20
557.9995079086118
 30
0.0
 11
209.6203874061733
 21
540.9995079086118
 31
0.0
  0
LINE
  5
176C
330
A
100
AcDbEntity
  8
03
100
AcDbLine
 10
209.6203874061733
 20
537.9995079086118
 30
0.0
 11
209.6203874061735
 21
519.9995079086118
 31
0.0
  0
LINE
  5
1777
330
A
100
AcDbEntity
  8
CHUSIN
100
AcDbLine
 10
212.6203874061735
 20
570.326226986828
 30
0.0
 11
212.6203874061735
 21
516.1279450063391
 31
0.0
  0
LINE
  5
1A00
330
A
100
AcDbEntity
  8
03
100
AcDbLine
 10
204.3477848337174
 20
528.205603846416
 30
0.0
 11
209.6203874061735
 21
529.6995079086123
 31
0.0
  0
ARC
  5
1A01
330
A
100
AcDbEntity
  8
03
100
AcDbCircle
 10
204.6203874061733
 20
527.2434771201004
 30
0.0
 40
1.0
100
AcDbArc
 50
105.8191939475028
 51
180.0000000000035
  0
LINE
  5
1A02
330
A
100
AcDbEntity
  8
03
100
AcDbLine
 10
208.1203874061734
 20
522.0745079086119
 30
0.0
 11
208.1203874061734
 21
523.5745079086122
 31
0.0
  0
LINE
  5
1A03
330
A
100
AcDbEntity
  8
03
100
AcDbLine
 10
208.1203874061734
 20
525.074507908612
 30
0.0
 11
208.1203874061734
 21
527.5745079086119
 31
0.0
  0
LINE
  5
1A04
330
A
100
AcDbEntity
  8
03
100
AcDbLine
 10
208.1203874061733
 20
527.5745079086119
 30
0.0
 11
209.6203874061735
 21
527.9995079086122
 31
0.0
  0
LINE
  5
1A05
330
A
100
AcDbEntity
  8
03
100
AcDbLine
 10
208.1203874061733
 20
525.074507908612
 30
0.0
 11
209.6203874061735
 21
525.4995079086122
 31
0.0
  0
LINE
  5
1A06
330
A
100
AcDbEntity
  8
03
100
AcDbLine
 10
208.1203874061733
 20
523.5745079086122
 30
0.0
 11
209.6203874061735
 21
523.9995079086122
 31
0.0
  0
LINE
  5
1A07
330
A
100
AcDbEntity
  8
03
100
AcDbLine
 10
208.1203874061733
 20
522.0745079086119
 30
0.0
 11
209.6203874061735
 21
522.4995079086122
 31
0.0
  0
LINE
  5
1A0D
330
A
100
AcDbEntity
  8
03
100
AcDbLine
 10
217.1203874061735
 20
522.0745079086119
 30
0.0
 11
217.1203874061735
 21
523.5745079086122
 31
0.0
  0
LINE
  5
1A0E
330
A
100
AcDbEntity
  8
03
100
AcDbLine
 10
217.1203874061735
 20
525.074507908612
 30
0.0
 11
217.1203874061735
 21
527.5745079086119
 31
0.0
  0
LINE
  5
1A0F
330
A
100
AcDbEntity
  8
03
100
AcDbLine
 10
217.1203874061736
 20
527.5745079086119
 30
0.0
 11
215.6203874061734
 21
527.9995079086122
 31
0.0
  0
LINE
  5
1A10
330
A
100
AcDbEntity
  8
03
100
AcDbLine
 10
217.1203874061736
 20
525.074507908612
 30
0.0
 11
215.6203874061734
 21
525.4995079086122
 31
0.0
  0
LINE
  5
1A11
330
A
100
AcDbEntity
  8
03
100
AcDbLine
 10
217.1203874061736
 20
523.5745079086122
 30
0.0
 11
215.6203874061734
 21
523.9995079086122
 31
0.0
  0
LINE
  5
1A12
330
A
100
AcDbEntity
  8
03
100
AcDbLine
 10
217.1203874061736
 20
522.0745079086119
 30
0.0
 11
215.6203874061734
 21
522.4995079086122
 31
0.0
  0
LINE
  5
1A13
330
A
100
AcDbEntity
  8
03
100
AcDbLine
 10
217.2139688668785
 20
520.9683140883765
 30
0.0
 11
215.6203874061734
 21
521.499507908612
 31
0.0
  0
LINE
  5
1A14
330
A
100
AcDbEntity
  8
03
100
AcDbLine
 10
205.1203874061733
 20
523.9995079086119
 30
0.0
 11
206.8785278851135
 21
521.3622971902021
 31
0.0
  0
LINE
  5
1A15
330
A
100
AcDbEntity
  8
03
100
AcDbLine
 10
208.026805945468
 20
520.9683140883766
 30
0.0
 11
209.6203874061735
 21
521.499507908612
 31
0.0
  0
ARC
  5
1A16
330
A
100
AcDbEntity
  8
03
100
AcDbCircle
 10
207.7105781794513
 20
521.9169973864275
 30
0.0
 40
1.0
100
AcDbArc
 50
213.6900675259801
 51
288.4349488229214
  0
LINE
  5
1A18
330
A
100
AcDbEntity
  8
03
100
AcDbLine
 10
215.653613915617
 20
525.4900937309367
 30
0.0
 11
215.6203874061727
 21
525.4568672214924
 31
0.0
  0
LINE
  5
1A1B
330
A
100
AcDbEntity
  8
03
100
AcDbLine
 10
220.8929899786296
 20
528.205603846416
 30
0.0
 11
215.6203874061734
 21
529.6995079086123
 31
0.0
  0
ARC
  5
1A1C
330
A
100
AcDbEntity
  8
03
100
AcDbCircle
 10
220.6203874061734
 20
527.2434771201004
 30
0.0
 40
1.0
100
AcDbArc
 50
359.9999999999963
 51
74.18080605249709
  0
LINE
  5
1A21
330
A
100
AcDbEntity
  8
03
100
AcDbLine
 10
220.1203874061735
 20
523.9995079086119
 30
0.0
 11
218.3622469272334
 21
521.3622971902016
 31
0.0
  0
ARC
  5
1A23
330
A
100
AcDbEntity
  8
03
100
AcDbCircle
 10
217.5301966328955
 20
521.9169973864268
 30
0.0
 40
1.0
100
AcDbArc
 50
251.5650511770663
 51
326.3099324740167
  0
LINE
  5
1A24
330
A
100
AcDbEntity
  8
03
100
AcDbLine
 10
206.6203874061733
 20
519.9995079086115
 30
0.0
 11
218.6203874061733
 21
507.9995079086115
 31
0.0
  0
LINE
  5
1A25
330
A
100
AcDbEntity
  8
03
100
AcDbLine
 10
214.6203874061735
 20
557.9995079086118
 30
0.0
 11
214.6203874061735
 21
540.9995079086118
 31
0.0
  0
LINE
  5
1A26
330
A
100
AcDbEntity
  8
03
100
AcDbLine
 10
214.6203874061735
 20
537.9995079086118
 30
0.0
 11
214.6203874061735
 21
519.9995079086118
 31
0.0
  0
LINE
  5
1A27
330
A
100
AcDbEntity
  8
03
100
AcDbLine
 10
210.6203874061739
 20
557.9995079086118
 30
0.0
 11
210.6203874061736
 21
540.9995079086118
 31
0.0
  0
LINE
  5
1A28
330
A
100
AcDbEntity
  8
03
100
AcDbLine
 10
210.6203874061736
 20
537.9995079086118
 30
0.0
 11
210.6203874061733
 21
519.9995079086118
 31
0.0
  0
LINE
  5
1F51
330
A
100
AcDbEntity
  8
03
100
AcDbLine
 10
203.6203874061734
 20
550.9995079086118
 30
0.0
 11
209.8332445742006
 21
550.4559533383036
 31
0.0
  0
LINE
  5
1F52
330
A
100
AcDbEntity
  8
03
100
AcDbLine
 10
221.6203874061735
 20
550.9995079086118
 30
0.0
 11
215.3843920203514
 21
550.4539290065522
 31
0.0
  0
LINE
  5
1F6F
330
A
100
AcDbEntity
  8
03
100
AcDbLine
 10
163.1203874061734
 20
527.9995079086115
 30
0.0
 11
163.1203874061734
 21
509.9995079086116
 31
0.0
  0
LINE
  5
1F70
330
A
100
AcDbEntity
  8
03
100
AcDbLine
 10
164.7269891239716
 20
509.9995079086116
 30
0.0
 11
163.1203874061734
 21
509.9995079086116
 31
0.0
  0
LINE
  5
1F71
330
A
100
AcDbEntity
  8
03
100
AcDbLine
 10
209.6203874061733
 20
557.9995079086118
 30
0.0
 11
215.6203874061734
 21
557.9995079086118
 31
0.0
  0
POLYLINE
  5
20BC
330
A
100
AcDbEntity
  8
DEFPOINTS
100
AcDb2dPolyline
 66
     1
 10
0.0
 20
0.0
 30
0.0
 70
     1
  0
VERTEX
  5
2AAD
330
20BC
100
AcDbEntity
  8
DEFPOINTS
100
AcDbVertex
100
AcDb2dVertex
 10
0.0
 20
0.0
 30
0.0
  0
VERTEX
  5
2AAE
330
20BC
100
AcDbEntity
  8
DEFPOINTS
100
AcDbVertex
100
AcDb2dVertex
 10
420.0
 20
0.0
 30
0.0
  0
VERTEX
  5
2AAF
330
20BC
100
AcDbEntity
  8
DEFPOINTS
100
AcDbVertex
100
AcDb2dVertex
 10
420.0
 20
594.0
 30
0.0
  0
VERTEX
  5
2AB0
330
20BC
100
AcDbEntity
  8
DEFPOINTS
100
AcDbVertex
100
AcDb2dVertex
 10
0.0
 20
594.0
 30
0.0
  0
SEQEND
  5
2AB1
330
20BC
100
AcDbEntity
  8
DEFPOINTS
  0
DIMENSION
  5
2102
330
A
100
AcDbEntity
  8
SUNPOU
100
AcDbDimension
  2
*D1
 10
233.6203866432336
 20
431.3524942544272
 30
0.0
 11
216.6203866432336
 21
435.8524942544272
 31
0.0
 70
    32
  3
SUNPOU_2
100
AcDbAlignedDimension
 13
199.6203866432336
 23
417.3795079086119
 33
0.0
 14
233.6203866432336
 24
431.3524942544272
 34
0.0
100
AcDbRotatedDimension
  0
DIMENSION
  5
2118
330
A
100
AcDbEntity
  8
SUNPOU
100
AcDbDimension
  2
*D2
 10
163.1203874061731
 20
388.103176963634
 30
0.0
 11
153.553855605729
 21
392.5318460899648
 31
0.0
 70
   160
  3
SUNPOU_2
100
AcDbAlignedDimension
 13
162.6203874061733
 23
388.103176963634
 33
0.0
 14
163.1203874061731
 24
388.103176963634
 34
0.0
100
AcDbRotatedDimension
  0
DIMENSION
  5
2127
330
A
100
AcDbEntity
  8
SUNPOU
100
AcDbDimension
  2
*D3
 10
185.6203866432336
 20
388.103176963634
 30
0.0
 11
174.3703870247033
 21
392.603176963634
 31
0.0
 70
    32
  3
SUNPOU_2
100
AcDbAlignedDimension
 13
163.1203874061731
 23
388.103176963634
 33
0.0
 14
185.6203866432336
 24
388.1031769636338
 34
0.0
100
AcDbRotatedDimension
  0
DIMENSION
  5
214C
330
A
100
AcDbEntity
  8
SUNPOU
100
AcDbDimension
  2
*D4
 10
168.6203866432335
 20
300.4553197242123
 30
0.0
 11
165.6203870247034
 21
304.9687456167786
 31
0.0
 70
   160
  3
SUNPOU_2
100
AcDbAlignedDimension
 13
162.6203874061733
 23
300.4553197242123
 33
0.0
 14
168.6203866432335
 24
300.4553197242123
 34
0.0
100
AcDbRotatedDimension
  0
DIMENSION
  5
2166
330
A
100
AcDbEntity
  8
SUNPOU
100
AcDbDimension
  2
*D5
 10
208.6203866432336
 20
300.4553197242123
 30
0.0
 11
192.4874724001356
 21
304.9553197242126
 31
0.0
 70
   160
  3
SUNPOU_2
100
AcDbAlignedDimension
 13
168.6203866432335
 23
300.4553197242123
 33
0.0
 14
208.6203866432336
 24
300.4553197242123
 34
0.0
100
AcDbRotatedDimension
  0
DIMENSION
  5
2173
330
A
100
AcDbEntity
  8
SUNPOU
100
AcDbDimension
  2
*D6
 10
213.6203866432336
 20
300.4553197242123
 30
0.0
 11
211.1203866432336
 21
305.0229109018729
 31
0.0
 70
   160
  3
SUNPOU_2
100
AcDbAlignedDimension
 13
208.6203866432336
 23
300.4553197242123
 33
0.0
 14
213.6203866432336
 24
300.4553197242123
 34
0.0
100
AcDbRotatedDimension
  0
DIMENSION
  5
2182
330
A
100
AcDbEntity
  8
SUNPOU
100
AcDbDimension
  2
*D7
 10
253.6203866432336
 20
300.4553197242123
 30
0.0
 11
237.1729263996169
 21
304.9553197242126
 31
0.0
 70
   160
  3
SUNPOU_2
100
AcDbAlignedDimension
 13
213.6203866432336
 23
300.4553197242123
 33
0.0
 14
253.6203866432336
 24
300.4553197242123
 34
0.0
100
AcDbRotatedDimension
  0
DIMENSION
  5
218F
330
A
100
AcDbEntity
  8
SUNPOU
100
AcDbDimension
  2
*D8
 10
262.6203874061733
 20
300.4553197242123
 30
0.0
 11
258.1203870247033
 21
304.9553197242126
 31
0.0
 70
    32
  3
SUNPOU_2
100
AcDbAlignedDimension
 13
253.6203866432336
 23
300.4553197242123
 33
0.0
 14
262.6203874061733
 24
300.4553197242123
 34
0.0
100
AcDbRotatedDimension
  0
DIMENSION
  5
219E
330
A
100
AcDbEntity
  8
SUNPOU
100
AcDbDimension
  2
*D9
 10
163.1203874061731
 20
288.1294679691225
 30
0.0
 11
153.337631260178
 21
292.6805364922553
 31
0.0
 70
   160
  3
SUNPOU_2
100
AcDbAlignedDimension
 13
162.6203874061733
 23
288.1294679691225
 33
0.0
 14
163.1203874061731
 24
357.9995079086117
 34
0.0
100
AcDbRotatedDimension
  0
DIMENSION
  5
21AD
330
A
100
AcDbEntity
  8
SUNPOU
100
AcDbDimension
  2
*D10
 10
262.120387406173
 20
288.1294679691225
 30
0.0
 11
222.578686467116
 21
292.6743409490334
 31
0.0
 70
   160
  3
SUNPOU_2
100
AcDbAlignedDimension
 13
163.1203874061731
 23
357.9995079086117
 33
0.0
 14
262.120387406173
 24
357.9995079086117
 34
0.0
100
AcDbRotatedDimension
  0
DIMENSION
  5
21BA
330
A
100
AcDbEntity
  8
SUNPOU
100
AcDbDimension
  2
*D11
 10
262.6203874061733
 20
288.1743409490334
 30
0.0
 11
271.8049814478777
 21
292.6906660640218
 31
0.0
 70
   160
  3
SUNPOU_2
100
AcDbAlignedDimension
 13
262.120387406173
 23
357.9995079086117
 33
0.0
 14
262.6203874061733
 24
288.1743409490334
 34
0.0
100
AcDbRotatedDimension
  0
DIMENSION
  5
21C9
330
A
100
AcDbEntity
  8
SUNPOU
100
AcDbDimension
  2
*D12
 10
262.6203874061733
 20
276.3430579964849
 30
0.0
 11
222.4282312125756
 21
280.8430579964849
 31
0.0
 70
   160
  3
SUNPOU_2
100
AcDbAlignedDimension
 13
162.6203874061733
 23
276.3430579964849
 33
0.0
 14
262.6203874061733
 24
276.3430579964849
 34
0.0
100
AcDbRotatedDimension
  0
DIMENSION
  5
21D6
330
A
100
AcDbEntity
  8
SUNPOU
100
AcDbDimension
  2
*D13
 10
242.1203866432336
 20
73.06983912396919
 30
0.0
 11
233.6203866432336
 21
77.56983912396918
 31
0.0
 70
    32
  3
SUNPOU_2
100
AcDbAlignedDimension
 13
225.1203866432336
 23
100.9995079086116
 33
0.0
 14
242.1203866432336
 24
100.9995079086116
 34
0.0
100
AcDbRotatedDimension
  0
DIMENSION
  5
21E3
330
A
100
AcDbEntity
  8
SUNPOU
100
AcDbDimension
  2
*D14
 10
214.1203866432336
 20
73.06983912396919
 30
0.0
 11
188.3703870247035
 21
77.56983912396918
 31
0.0
 70
    32
  1
プレート51
  3
SUNPOU_2
100
AcDbAlignedDimension
 13
162.6203874061733
 23
98.99950790861179
 33
0.0
 14
214.1203866432336
 24
116.9995079086115
 34
0.0
100
AcDbRotatedDimension
  0
DIMENSION
  5
224A
330
A
100
AcDbEntity
  8
SUNPOU
100
AcDbDimension
  2
*D15
 10
144.3637961335675
 20
123.9995079086117
 30
0.0
 11
139.8637961335676
 21
106.4995079086117
 31
0.0
 70
    32
  3
SUNPOU_2
100
AcDbAlignedDimension
 13
168.6203866432335
 23
88.9995079086116
 33
0.0
 14
144.3637961335675
 24
123.9995079086117
 34
0.0
 50
90.0
100
AcDbRotatedDimension
  0
DIMENSION
  5
2257
330
A
100
AcDbEntity
  8
SUNPOU
100
AcDbDimension
  2
*D16
 10
293.5932134649181
 20
126.9995079086116
 30
0.0
 11
298.0932134649181
 21
115.5802031700009
 31
0.0
 70
   160
  3
SUNPOU_2
100
AcDbAlignedDimension
 13
243.1203866432336
 23
101.9995079068167
 33
0.0
 14
258.1203866468234
 24
126.9995079086116
 34
0.0
 50
90.0
100
AcDbRotatedDimension
  0
DIMENSION
  5
2264
330
A
100
AcDbEntity
  8
SUNPOU
100
AcDbDimension
  2
*D17
 10
272.8705118205267
 20
126.9995079086116
 30
0.0
 11
268.3107901928492
 21
115.3068499322648
 31
0.0
 70
   160
  3
SUNPOU_2
100
AcDbAlignedDimension
 13
272.8705118205267
 23
123.9995079086116
 33
0.0
 14
258.1203866468234
 24
126.9995079086116
 34
0.0
 50
90.0
100
AcDbRotatedDimension
  0
DIMENSION
  5
2273
330
A
100
AcDbEntity
  8
SUNPOU
100
AcDbDimension
  2
*D18
 10
293.5932134649181
 20
159.4995079086119
 30
0.0
 11
289.093213464918
 21
146.7495079086119
 31
0.0
 70
    32
  3
SUNPOU_2
100
AcDbAlignedDimension
 13
253.6203866432336
 23
133.9995079086119
 33
0.0
 14
249.1203866432336
 24
159.4995079086119
 34
0.0
 50
90.0
100
AcDbRotatedDimension
  0
DIMENSION
  5
22A3
330
A
100
AcDbEntity
  8
SUNPOU
100
AcDbDimension
  2
*D19
 10
306.9065296741921
 20
133.9995079086119
 30
0.0
 11
302.4065296741921
 21
128.9995079086118
 31
0.0
 70
    32
  3
SUNPOU_2
100
AcDbAlignedDimension
 13
306.9065296741921
 23
123.9995079086117
 33
0.0
 14
253.6203866432336
 24
133.9995079086119
 34
0.0
 50
90.0
100
AcDbRotatedDimension
  0
DIMENSION
  5
22B2
330
A
100
AcDbEntity
  8
SUNPOU
100
AcDbDimension
  2
*D20
 10
306.9065296741923
 20
354.9995079086115
 30
0.0
 11
302.4065296741921
 21
244.4995079086118
 31
0.0
 70
    32
  1
DH
  3
SUNPOU_2
100
AcDbAlignedDimension
 13
253.6203866432336
 23
133.9995079086119
 33
0.0
 14
253.6203866432336
 24
354.9995079086115
 34
0.0
 50
90.0
100
AcDbRotatedDimension
  0
DIMENSION
  5
22BF
330
A
100
AcDbEntity
  8
SUNPOU
100
AcDbDimension
  2
*D21
 10
306.9065296741923
 20
357.9995079086117
 30
0.0
 11
302.4465291965103
 21
365.4654021795863
 31
0.0
 70
   160
  3
SUNPOU_2
100
AcDbAlignedDimension
 13
253.6203866432336
 23
354.9995079086115
 33
0.0
 14
262.120387406173
 24
357.9995079086117
 34
0.0
 50
90.0
100
AcDbRotatedDimension
  0
DIMENSION
  5
22CE
330
A
100
AcDbEntity
  8
SUNPOU
100
AcDbDimension
  2
*D22
 10
293.5932134649181
 20
354.9995079086115
 30
0.0
 11
289.093213464918
 21
342.2495079086116
 31
0.0
 70
    32
  3
SUNPOU_2
100
AcDbAlignedDimension
 13
249.1203866432336
 23
329.4995079086116
 33
0.0
 14
253.6203866432336
 24
354.9995079086115
 34
0.0
 50
90.0
100
AcDbRotatedDimension
  0
DIMENSION
  5
22FC
330
A
100
AcDbEntity
  8
SUNPOU
100
AcDbDimension
  2
*D23
 10
325.2280654319316
 20
357.9995079086117
 30
0.0
 11
320.7280654319315
 21
240.9995079086117
 31
0.0
 70
    32
  1
H
  3
SUNPOU_2
100
AcDbAlignedDimension
 13
325.2280654319316
 23
123.9995079086117
 33
0.0
 14
262.120387406173
 24
357.9995079086117
 34
0.0
 50
90.0
100
AcDbRotatedDimension
  0
DIMENSION
  5
2309
330
A
100
AcDbEntity
  8
SUNPOU
100
AcDbDimension
  2
*D24
 10
325.2280654319319
 20
527.9995079086115
 30
0.0
 11
320.7280654319315
 21
442.9995079086117
 31
0.0
 70
    32
  3
SUNPOU_2
100
AcDbAlignedDimension
 13
262.120387406173
 23
357.9995079086117
 33
0.0
 14
262.1203874061734
 24
527.9995079086115
 34
0.0
 50
90.0
100
AcDbRotatedDimension
  0
TEXT
  5
2325
330
A
100
AcDbEntity
  8
MOJI
100
AcDbText
 10
331.6171610741578
 20
127.5360205486032
 30
0.0
 40
5.0
  1
Ｆ.Ｌ
 41
0.8
  7
0_8
 11
331.6171610741578
 21
130.0360205486032
 31
0.0
100
AcDbText
 73
     2
  0
DIMENSION
  5
2326
330
A
100
AcDbEntity
  8
SUNPOU
100
AcDbDimension
  2
*D25
 10
139.6669730972016
 20
375.1995079086118
 30
0.0
 11
135.1669730972014
 21
366.5995079086119
 31
0.0
 70
    32
  3
SUNPOU_2
100
AcDbAlignedDimension
 13
163.1203874061731
 23
357.9995079086117
 33
0.0
 14
168.6203866216949
 24
375.1995079086118
 34
0.0
 50
90.0
100
AcDbRotatedDimension
  0
POLYLINE
  5
233A
330
A
100
AcDbEntity
  8
SAISEN
100
AcDb2dPolyline
 66
     1
 10
0.0
 20
0.0
 30
0.0
 70
     1
  0
VERTEX
  5
2AB2
330
233A
100
AcDbEntity
  8
SAISEN
100
AcDbVertex
100
AcDb2dVertex
 10
80.02073813708305
 20
247.6038664323374
 30
0.0
  0
VERTEX
  5
2AB3
330
233A
100
AcDbEntity
  8
SAISEN
100
AcDbVertex
100
AcDb2dVertex
 10
90.02073813708305
 20
247.6038664323374
 30
0.0
  0
VERTEX
  5
2AB4
330
233A
100
AcDbEntity
  8
SAISEN
100
AcDbVertex
100
AcDb2dVertex
 10
90.02073813708305
 20
277.6038664323375
 30
0.0
  0
VERTEX
  5
2AB5
330
233A
100
AcDbEntity
  8
SAISEN
100
AcDbVertex
100
AcDb2dVertex
 10
80.02073813708305
 20
277.6038664323375
 30
0.0
  0
SEQEND
  5
2AB6
330
233A
100
AcDbEntity
  8
SAISEN
  0
MTEXT
  5
233B
330
A
100
AcDbEntity
  8
MOJI
100
AcDbMText
 10
85.02073813708305
 20
262.6038664323374
 30
0.0
 40
6.0
 41
10.0
 71
     5
 72
     1
  1
外\P\P部
  7
0_8
1001
ACAD
1000
MTEXTBEGIN
1070
    73
1070
     1
1070
    44
1040
1.0
1070
    74
1070
     0
1000
MTEXTEND
1000
MTEXTBEGIN
1070
    73
1070
     1
1070
    44
1040
1.0
1070
    74
1070
     0
1000
MTEXTEND
  0
POLYLINE
  5
2343
330
A
100
AcDbEntity
  8
SAISEN
100
AcDb2dPolyline
 66
     1
 10
0.0
 20
0.0
 30
0.0
 70
     1
  0
VERTEX
  5
2AB7
330
2343
100
AcDbEntity
  8
SAISEN
100
AcDbVertex
100
AcDb2dVertex
 10
347.5207381370829
 20
247.6038664323374
 30
0.0
  0
VERTEX
  5
2AB8
330
2343
100
AcDbEntity
  8
SAISEN
100
AcDbVertex
100
AcDb2dVertex
 10
357.5207381370828
 20
247.6038664323374
 30
0.0
  0
VERTEX
  5
2AB9
330
2343
100
AcDbEntity
  8
SAISEN
100
AcDbVertex
100
AcDb2dVertex
 10
357.5207381370828
 20
277.6038664323375
 30
0.0
  0
VERTEX
  5
2ABA
330
2343
100
AcDbEntity
  8
SAISEN
100
AcDbVertex
100
AcDb2dVertex
 10
347.5207381370829
 20
277.6038664323375
 30
0.0
  0
SEQEND
  5
2ABB
330
2343
100
AcDbEntity
  8
SAISEN
  0
MTEXT
  5
2344
330
A
100
AcDbEntity
  8
MOJI
100
AcDbMText
 10
352.5207381370829
 20
262.6038664323374
 30
0.0
 40
6.0
 41
10.0
 71
     5
 72
     1
  1
内\P\P部
  7
0_8
1001
ACAD
1000
MTEXTBEGIN
1070
    73
1070
     1
1070
    44
1040
1.0
1070
    74
1070
     0
1000
MTEXTEND
1000
MTEXTBEGIN
1070
    73
1070
     1
1070
    44
1040
1.0
1070
    74
1070
     0
1000
MTEXTEND
  0
LEADER
  5
2348
330
A
100
AcDbEntity
  8
HIKIDASI
100
AcDbLeader
  3
SUNPOU_2
 73
     0
 74
     0
 75
     1
 40
13.33333333333333
 41
46.59047619047615
 76
     3
 10
246.1203866432338
 20
157.89480703028
 30
0.0
 10
299.0590133064281
 20
105.3193347832859
 30
0.0
 10
304.0590133064282
 20
105.3193347832859
 30
0.0
340
2349
213
0.0
223
8.938467968596341
233
0.0
1001
ACAD
1000
DSTYLE
1002
{
1070
     5
1000
OPEN30
1070
    77
1070
     1
1070
   147
1040
1.0
1070
   342
1005
20AD
1002
}
1000
LEANOF
1010
0.0
1020
8.938467968596341
1030
0.0
1000
LEANOF
1010
0.0
1020
8.938467968596341
1030
0.0
1000
LEANOF
1010
0.0
1020
8.938467968596341
1030
0.0
  0
MTEXT
  5
2349
330
A
100
AcDbEntity
  8
HIKIDASI
 62
     6
100
AcDbMText
 10
306.0590133064282
 20
98.38086681468972
 30
0.0
 40
5.0
 41
0.0
 71
     7
 72
     1
  1
振れ止め取付ブロック\P（寺岡支給）
  7
SUNPOU
1001
ACAD
1000
MTEXTBEGIN
1070
    73
1070
     1
1070
    44
1040
1.0
1070
    74
1070
     0
1000
MTEXTEND
1000
MTEXTBEGIN
1070
    73
1070
     1
1070
    44
1040
1.0
1070
    74
1070
     0
1000
MTEXTEND
  0
LEADER
  5
234B
330
A
100
AcDbEntity
  8
HIKIDASI
100
AcDbLeader
  3
SUNPOU_2
 73
     0
 74
     0
 75
     1
 40
13.33333333333333
 41
52.26666666666666
 76
     3
 10
243.1203866432336
 20
113.9995079077141
 30
0.0
 10
270.5529790689859
 20
82.06375924729007
 30
0.0
 10
275.5529790689859
 20
82.06375924729007
 30
0.0
340
234C
213
0.0
223
8.408492761495722
233
0.0
1001
ACAD
1000
DSTYLE
1002
{
1070
     5
1000
OPEN30
1070
    77
1070
     1
1070
   147
1040
1.0
1070
   342
1005
20AD
1002
}
1000
LEANOF
1010
0.0
1020
8.408492761495722
1030
0.0
1000
LEANOF
1010
0.0
1020
8.408492761495722
1030
0.0
1000
LEANOF
1010
0.0
1020
8.408492761495722
1030
0.0
  0
MTEXT
  5
234C
330
A
100
AcDbEntity
  8
HIKIDASI
 62
     6
100
AcDbMText
 10
277.5529790689859
 20
75.65526648579434
 30
0.0
 40
5.0
 41
0.0
 71
     7
 72
     1
  1
ステンレスガイドレール{\FARIAL.TTF|c1;\P}（サッシ工事）
  7
SUNPOU
1001
ACAD
1000
MTEXTBEGIN
1070
    73
1070
     1
1070
    44
1040
1.0
1070
    74
1070
     0
1000
MTEXTEND
1000
MTEXTBEGIN
1070
    73
1070
     1
1070
    44
1040
1.0
1070
    74
1070
     0
1000
MTEXTEND
  0
MTEXT
  5
25E5
330
A
100
AcDbEntity
  8
MOJI
100
AcDbMText
 10
188.6203866432336
 20
105.4995079086116
 30
0.0
 40
5.0
 41
25.0
 71
     5
 72
     1
  1
PH\P寺岡支給
  7
0_8
1001
ACAD
1000
MTEXTBEGIN
1070
    73
1070
     1
1070
    44
1040
1.0
1070
    74
1070
     0
1000
MTEXTEND
1000
MTEXTBEGIN
1070
    73
1070
     1
1070
    44
1040
1.0
1070
    74
1070
     0
1000
MTEXTEND
  0
LINE
  5
29A5
330
A
100
AcDbEntity
  8
04
100
AcDbLine
 10
176.1203866432336
 20
329.4995079086116
 30
0.0
 11
201.1203866432336
 21
329.4995079086116
 31
0.0
  0
LINE
  5
29A6
330
A
100
AcDbEntity
  8
04
100
AcDbLine
 10
221.1203866432336
 20
329.4995079086116
 30
0.0
 11
246.1203866432336
 21
329.4995079086116
 31
0.0
  0
LINE
  5
29A7
330
A
100
AcDbEntity
  8
04
100
AcDbLine
 10
176.1203866432336
 20
159.4995079086116
 30
0.0
 11
201.1203866432336
 21
159.4995079086116
 31
0.0
  0
LINE
  5
29A8
330
A
100
AcDbEntity
  8
04
100
AcDbLine
 10
221.1203866432338
 20
159.4995079086119
 30
0.0
 11
246.1203866432338
 21
159.4995079086119
 31
0.0
  0
LINE
  5
29A9
330
A
100
AcDbEntity
  8
04
100
AcDbLine
 10
215.1203866432336
 20
125.9995079086116
 30
0.0
 11
215.1203866432336
 21
116.9995079086115
 31
0.0
  0
LINE
  5
29AA
330
A
100
AcDbEntity
  8
04
100
AcDbLine
 10
258.1203866432336
 20
125.9995079086116
 30
0.0
 11
258.1203866432336
 21
116.9995079086115
 31
0.0
  0
TEXT
  5
29C5
330
A
100
AcDbEntity
  8
MOJI
100
AcDbText
 10
388.0488190392161
 20
48.27151320611588
 30
0.0
 40
8.0
  1
Ｓ
 41
0.8
  7
0_8
 11
388.0488190392161
 21
56.27151320611588
 31
0.0
100
AcDbText
 73
     3
  0
CIRCLE
  5
29C6
330
A
100
AcDbEntity
  8
SAISEN
100
AcDbCircle
 10
391.0976380784321
 20
52.54302641223159
 30
0.0
 40
5.0
  0
MTEXT
  5
2A62
330
A
100
AcDbEntity
  8
MOJI
100
AcDbMText
 10
309.9999999999996
 20
32.00000000000022
 30
0.0
 40
7.0
 41
50.0
 71
     5
 72
     1
  1
図番１３－２
  7
0_80
1001
ACAD
1000
MTEXTBEGIN
1070
    73
1070
     1
1070
    44
1040
1.0
1070
    74
1070
     0
1000
MTEXTEND
1000
MTEXTBEGIN
1070
    73
1070
     1
1070
    44
1040
1.0
1070
    74
1070
     0
1000
MTEXTEND
  0
MTEXT
  5
2A63
330
A
100
AcDbEntity
  8
MOJI
100
AcDbMText
 10
359.9999999999998
 20
31.5
 30
0.0
 40
7.0
 41
49.99999999999994
 71
     5
 72
     1
  1
たて断面図　
  7
0_80
1001
ACAD
1000
MTEXTBEGIN
1070
    73
1070
     1
1070
    44
1040
1.0
1070
    74
1070
     0
1000
MTEXTEND
1000
MTEXTBEGIN
1070
    73
1070
     1
1070
    44
1040
1.0
1070
    74
1070
     0
1000
MTEXTEND
  0
LINE
  5
2A64
330
A
100
AcDbEntity
  8
SAISEN
100
AcDbLine
 10
285.0
 20
44.00000000000022
 30
0.0
 11
285.0
 21
20.0
 31
0.0
  0
LINE
  5
2A65
330
A
100
AcDbEntity
  8
SAISEN
100
AcDbLine
 10
225.0
 20
44.00000000000022
 30
0.0
 11
225.0
 21
20.0
 31
0.0
  0
MTEXT
  5
2A66
330
A
100
AcDbEntity
  8
MOJI
100
AcDbMText
 10
255.0000000000029
 20
32.0
 30
0.0
 40
7.0
 41
60.0
 71
     5
 72
     1
  1
片引き又は両引き
  7
0_8
1001
ACAD
1000
MTEXTBEGIN
1070
    73
1070
     1
1070
    44
1040
1.0
1070
    74
1070
     0
1000
MTEXTEND
1000
MTEXTBEGIN
1070
    73
1070
     1
1070
    44
1040
1.0
1070
    74
1070
     0
1000
MTEXTEND
  0
MTEXT
  5
2A67
330
A
100
AcDbEntity
  8
MOJI
100
AcDbMText
 10
185.0
 20
32.0
 30
0.0
 40
7.0
 41
80.0
 71
     5
 72
     1
  1
ＴＦＭ－１０００Ｓ\PＴＦＭ－１０００Ｄ
  7
0_8
1001
ACAD
1000
MTEXTBEGIN
1070
    73
1070
     1
1070
    44
1040
1.0
1070
    74
1070
     0
1000
MTEXTEND
1000
MTEXTBEGIN
1070
    73
1070
     1
1070
    44
1040
1.0
1070
    74
1070
     0
1000
MTEXTEND
  0
LINE
  5
2A68
330
A
100
AcDbEntity
  8
SAISEN
100
AcDbLine
 10
145.0
 20
44.00000000000022
 30
0.0
 11
145.0
 21
20.0
 31
0.0
  0
MTEXT
  5
2A69
330
A
100
AcDbEntity
  8
MOJI
100
AcDbMText
 10
90.0
 20
32.0
 30
0.0
 40
7.0
 41
110.0
 71
     5
 72
     1
  1
フルオープナーミニ\P（アルミフロント納り）
  7
0_8
1001
ACAD
1000
MTEXTBEGIN
1070
    73
1070
     1
1070
    44
1040
1.0
1070
    74
1070
     0
1000
MTEXTEND
1000
MTEXTBEGIN
1070
    73
1070
     1
1070
    44
1040
1.0
1070
    74
1070
     0
1000
MTEXTEND
  0
POLYLINE
  5
2A6A
330
A
100
AcDbEntity
  8
SAISEN
100
AcDb2dPolyline
 66
     1
 10
0.0
 20
0.0
 30
0.0
 70
     1
  0
VERTEX
  5
2ABC
330
2A6A
100
AcDbEntity
  8
SAISEN
100
AcDbVertex
100
AcDb2dVertex
 10
35.0
 20
20.0
 30
0.0
  0
VERTEX
  5
2ABD
330
2A6A
100
AcDbEntity
  8
SAISEN
100
AcDbVertex
100
AcDb2dVertex
 10
385.0
 20
20.0
 30
0.0
  0
VERTEX
  5
2ABE
330
2A6A
100
AcDbEntity
  8
SAISEN
100
AcDbVertex
100
AcDb2dVertex
 10
385.0
 20
44.00000000000022
 30
0.0
  0
VERTEX
  5
2ABF
330
2A6A
100
AcDbEntity
  8
SAISEN
100
AcDbVertex
100
AcDb2dVertex
 10
35.0
 20
44.00000000000022
 30
0.0
  0
SEQEND
  5
2AC0
330
2A6A
100
AcDbEntity
  8
SAISEN
  0
VIEWPORT
  5
254D
102
{ACAD_XDICTIONARY
360
2A9B
102
}
330
B
100
AcDbEntity
 67
     1
  8
0
100
AcDbViewport
 10
198.0712901201981
 20
285.1874510719598
 30
0.0
 40
1080.293461598231
 41
628.3220349619981
 68
     1
 69
     1
1001
ACAD
1000
MVIEW
1002
{
1070
    16
1010
0.0
1020
0.0
1030
0.0
1010
0.0
1020
0.0
1030
1.0
1040
0.0
1040
628.3220349619981
1040
198.0712901201981
1040
285.1874510719598
1040
50.0
1040
0.0
1040
0.0
1070
     0
1070
   100
1070
     1
1070
     1
1070
     0
1070
     0
1070
     0
1070
     0
1040
0.0
1040
0.0
1040
0.0
1040
10.0
1040
10.0
1040
10.0
1040
10.0
1070
     0
1002
{
1002
}
1002
}
  0
VIEWPORT
  5
2A84
102
{ACAD_XDICTIONARY
360
2AA1
102
}
330
B
100
AcDbEntity
 67
     1
  8
DEFPOINTS
100
AcDbViewport
 10
198.0712910739129
 20
285.1874501182452
 30
0.0
 40
396.4684615431749
 41
570.3811706726329
 68
     2
 69
     2
1001
ACAD
1000
MVIEW
1002
{
1070
    16
1010
0.0
1020
0.0
1030
0.0
1010
0.0
1020
0.0
1030
1.0
1040
0.0
1040
570.3811706726329
1040
210.0
1040
297.0
1040
50.0
1040
0.0
1040
0.0
1070
     0
1070
   100
1070
     1
1070
     1
1070
     0
1070
     0
1070
     0
1070
     0
1040
0.0
1040
0.0
1040
0.0
1040
1.0
1040
1.0
1040
0.0
1040
0.0
1070
     0
1002
{
1002
}
1002
}
  0
ENDSEC
  0
SECTION
  2
OBJECTS
  0
DICTIONARY
  5
19
330
0
100
AcDbDictionary
  3
ACAD_COLOR
350
1F96
  3
ACAD_GROUP
350
1A
  3
ACAD_LAYOUT
350
1F97
  3
ACAD_MATERIAL
350
1F95
  3
ACAD_MLINESTYLE
350
1B
  3
ACAD_PLOTSETTINGS
350
1F98
  3
ACADDIM
350
2347
  3
ASE_INDEX_DICTIONARY
350
2A6B
1001
ACAD
1000
TREAT_AS_HARD
1070
     0
1000
TREAT_AS_HARD
1070
     0
1000
TREAT_AS_HARD
1070
     0
  0
DICTIONARY
  5
2A52
330
2
100
AcDbDictionary
  3
ACAD_LAYERSTATES
350
2A53
1001
ACAD
1000
TREAT_AS_HARD
1070
     1
  0
DICTIONARY
  5
2A00
330
A
100
AcDbDictionary
  3
ACAD_LAYOUTSELFREF
350
2AAA
1001
ACAD
1000
TREAT_AS_HARD
1070
     0
1000
TREAT_AS_HARD
1070
     1
  0
DICTIONARY
  5
2A02
330
B
100
AcDbDictionary
  3
ACAD_LAYOUTSELFREF
350
2AAB
1001
ACAD
1000
TREAT_AS_HARD
1070
     0
1000
TREAT_AS_HARD
1070
     1
  0
DICTIONARY
  5
2A9B
330
254D
100
AcDbDictionary
  3
ACAD_XREC_ROUNDTRIP
350
2A9C
1001
ACAD
1000
TREAT_AS_HARD
1070
     1
  0
DICTIONARY
  5
2AA1
330
2A84
100
AcDbDictionary
  3
ACAD_XREC_ROUNDTRIP
350
2AA2
1001
ACAD
1000
TREAT_AS_HARD
1070
     1
  0
DICTIONARY
  5
1F96
102
{ACAD_REACTORS
330
19
102
}
330
19
100
AcDbDictionary
1001
ACAD
1000
TREAT_AS_HARD
1070
     0
1000
TREAT_AS_HARD
1070
     0
1000
TREAT_AS_HARD
1070
     0
  0
DICTIONARY
  5
1A
102
{ACAD_REACTORS
330
19
102
}
330
19
100
AcDbDictionary
  3
DAGROUP1615
350
1615
  3
DAGROUP161B
350
161B
  3
DAGROUP1621
350
1621
  3
DAGROUP1627
350
1627
  3
DAGROUP162D
350
162D
  3
DAGROUP1633
350
1633
  3
DAGROUP1639
350
1639
  3
DAGROUP163F
350
163F
  3
DAGROUP1645
350
1645
  3
DAGROUP164B
350
164B
  3
DAGROUP1651
350
1651
  3
DAGROUP1657
350
1657
  3
DAGROUP165D
350
165D
  3
DAGROUP1663
350
1663
  3
DAGROUP1669
350
1669
  3
DAGROUP166F
350
166F
  3
DAGROUP1675
350
1675
  3
DAGROUP167B
350
167B
  3
DAGROUP1681
350
1681
  3
DAGROUP1687
350
1687
  3
DAGROUP168D
350
168D
  3
DAGROUP1693
350
1693
  3
DAGROUP1697
350
1697
  3
DAGROUP169B
350
169B
  3
DAGROUP169F
350
169F
  3
DAGROUP16A3
350
16A3
  3
DAGROUP1B6E
350
1B6E
  3
DAGROUP1B74
350
1B74
  3
DAGROUP1B7A
350
1B7A
  3
DAGROUP1B80
350
1B80
  3
DAGROUP1B86
350
1B86
  3
DAGROUP1B8C
350
1B8C
  3
DAGROUP1B92
350
1B92
  3
DAGROUP1B98
350
1B98
  3
DAGROUP1B9E
350
1B9E
  3
DAGROUP1BA4
350
1BA4
  3
DAGROUP1BAA
350
1BAA
  3
DAGROUP1BB0
350
1BB0
  3
DAGROUP1BB6
350
1BB6
  3
DAGROUP1BBC
350
1BBC
  3
DAGROUP1BC2
350
1BC2
  3
DAGROUP1BC8
350
1BC8
  3
DAGROUP1BCE
350
1BCE
  3
DAGROUP1BD4
350
1BD4
  3
DAGROUP1BDA
350
1BDA
  3
DAGROUP1BE0
350
1BE0
  3
DAGROUP1BE6
350
1BE6
  3
DAGROUP1BEC
350
1BEC
  3
DAGROUP1BF2
350
1BF2
  3
DAGROUP1BF8
350
1BF8
  3
DAGROUP1BFE
350
1BFE
  3
DAGROUP1C04
350
1C04
  3
DAGROUP1C0A
350
1C0A
  3
DAGROUP1C10
350
1C10
  3
DAGROUP1C16
350
1C16
  3
DAGROUP1C1C
350
1C1C
  3
DAGROUP1C22
350
1C22
  3
DAGROUP1C28
350
1C28
  3
DAGROUP1C2E
350
1C2E
  3
DAGROUP1C34
350
1C34
  3
DAGROUP1C3A
350
1C3A
  3
DAGROUP1C40
350
1C40
  3
DAGROUP1C46
350
1C46
  3
DAGROUP1C4C
350
1C4C
  3
DAGROUP1C52
350
1C52
  3
DAGROUP1C58
350
1C58
  3
DAGROUP1C5E
350
1C5E
  3
DAGROUP1C64
350
1C64
  3
DAGROUP1C6A
350
1C6A
  3
DAGROUP1C70
350
1C70
  3
DAGROUP1C76
350
1C76
  3
DAGROUP1C7C
350
1C7C
  3
DAGROUP1C82
350
1C82
  3
DAGROUP1C88
350
1C88
  3
DAGROUP1C8E
350
1C8E
  3
DAGROUP1C94
350
1C94
  3
DAGROUP1C9A
350
1C9A
  3
DAGROUP1CA0
350
1CA0
  3
DAGROUP1CA6
350
1CA6
  3
DAGROUP1CAC
350
1CAC
  3
DAGROUP1CB2
350
1CB2
  3
DAGROUP1CB8
350
1CB8
  3
DAGROUP1CBE
350
1CBE
  3
DAGROUP1CC4
350
1CC4
  3
DAGROUP1CCA
350
1CCA
  3
DAGROUP1CD0
350
1CD0
  3
DAGROUP1CD6
350
1CD6
  3
DAGROUP1CDC
350
1CDC
  3
DAGROUP1CE2
350
1CE2
  3
DAGROUP1CE8
350
1CE8
  3
DAGROUP1CEE
350
1CEE
  3
DAGROUP1CF4
350
1CF4
  3
DAGROUP1CFA
350
1CFA
  3
DAGROUP1D00
350
1D00
  3
DAGROUP1D06
350
1D06
  3
DAGROUP1D0C
350
1D0C
  3
DAGROUP1D12
350
1D12
  3
DAGROUP1D18
350
1D18
  3
DAGROUP1D1E
350
1D1E
  3
DAGROUP1D24
350
1D24
  3
DAGROUP1D2A
350
1D2A
  3
DAGROUP1D30
350
1D30
  3
DAGROUP1D36
350
1D36
  3
DAGROUP1D3C
350
1D3C
  3
DAGROUP1D42
350
1D42
  3
DAGROUP1D48
350
1D48
  3
DAGROUP1D4C
350
1D4C
  3
DAGROUP1D50
350
1D50
  3
DAGROUP1D54
350
1D54
  3
DAGROUP1D58
350
1D58
  3
DAGROUP1D5C
350
1D5C
  3
DAGROUP1D60
350
1D60
  3
DAGROUP1D64
350
1D64
  3
DAGROUP1D68
350
1D68
  3
DAGROUP1D6C
350
1D6C
  3
DAGROUP1D70
350
1D70
  3
DAGROUP1D74
350
1D74
  3
DAGROUP1D78
350
1D78
  3
DAGROUP1D7C
350
1D7C
  3
DAGROUP1D80
350
1D80
  3
DAGROUP1D84
350
1D84
  3
DAGROUP1D88
350
1D88
  3
DAGROUP1D8C
350
1D8C
  3
DAGROUP1D90
350
1D90
  3
DAGROUP1D94
350
1D94
  3
DAGROUP1D98
350
1D98
  3
DAGROUP1D9C
350
1D9C
  3
DAGROUP1DA0
350
1DA0
  3
DAGROUP1DA4
350
1DA4
  3
DAGROUP1DA8
350
1DA8
  3
DAGROUP1DAC
350
1DAC
  3
DAGROUP1DB0
350
1DB0
  3
DAGROUP1DB4
350
1DB4
  3
DAGROUP1DB8
350
1DB8
  3
DAGROUP1DBC
350
1DBC
  3
DAGROUP1DC0
350
1DC0
  3
DAGROUP1DC4
350
1DC4
  3
DAGROUP1DC8
350
1DC8
  3
DAGROUP1DCC
350
1DCC
  3
DAGROUP1DD0
350
1DD0
  3
DAGROUP1DD4
350
1DD4
  3
DAGROUP1DD8
350
1DD8
  3
DAGROUP1DDC
350
1DDC
  3
DAGROUP1DE0
350
1DE0
  3
DAGROUP1DE4
350
1DE4
  3
DAGROUP1DE8
350
1DE8
  3
DAGROUP1DEC
350
1DEC
  3
DAGROUP1DF0
350
1DF0
  3
DAGROUP1DF4
350
1DF4
  3
DAGROUP1DF8
350
1DF8
  3
DAGROUP1DFC
350
1DFC
  3
DAGROUP1E00
350
1E00
  3
DAGROUP1E04
350
1E04
  3
DAGROUP1E08
350
1E08
  3
DAGROUP1E0C
350
1E0C
  3
DAGROUP1E10
350
1E10
  3
DAGROUP1E14
350
1E14
  3
DAGROUP1E18
350
1E18
  3
DAGROUP1E1C
350
1E1C
  3
DAGROUP1E20
350
1E20
  3
DAGROUP1E24
350
1E24
  3
DAGROUP1E28
350
1E28
  3
DAGROUP1E2C
350
1E2C
  3
DAGROUP1E30
350
1E30
  3
DAGROUP1E34
350
1E34
  3
DAGROUP1E38
350
1E38
  3
DAGROUP1E3B
350
1E3B
  3
DAGROUP1E3E
350
1E3E
  3
DAGROUP1F5E
350
1F5E
  3
DAGROUP1F62
350
1F62
  3
DAGROUP2E8
350
2E8
  3
DAGROUP2EB
350
2EB
  3
DAGROUP2EF
350
2EF
  3
DAGROUP2F3
350
2F3
  3
DAGROUP2F7
350
2F7
1001
ACAD
1000
TREAT_AS_HARD
1070
     0
1000
TREAT_AS_HARD
1070
     0
1000
TREAT_AS_HARD
1070
     0
  0
DICTIONARY
  5
1F97
102
{ACAD_REACTORS
330
19
102
}
330
19
100
AcDbDictionary
1001
ACAD
1000
TREAT_AS_HARD
1070
     0
1000
TREAT_AS_HARD
1070
     0
1000
TREAT_AS_HARD
1070
     0
  0
DICTIONARY
  5
1F95
102
{ACAD_REACTORS
330
19
102
}
330
19
100
AcDbDictionary
1001
ACAD
1000
TREAT_AS_HARD
1070
     0
1000
TREAT_AS_HARD
1070
     0
1000
TREAT_AS_HARD
1070
     0
  0
DICTIONARY
  5
1B
102
{ACAD_REACTORS
330
19
102
}
330
19
100
AcDbDictionary
  3
STANDARD
350
1C
1001
ACAD
1000
TREAT_AS_HARD
1070
     0
1000
TREAT_AS_HARD
1070
     0
1000
TREAT_AS_HARD
1070
     0
  0
DICTIONARY
  5
1F98
102
{ACAD_REACTORS
330
19
102
}
330
19
100
AcDbDictionary
1001
ACAD
1000
TREAT_AS_HARD
1070
     0
1000
TREAT_AS_HARD
1070
     0
1000
TREAT_AS_HARD
1070
     0
  0
XRECORD
  5
2347
102
{ACAD_REACTORS
330
19
102
}
330
19
100
AcDbXrecord
 90
   990106
  3

 60
     0
 61
     0
 62
     1
 63
     3
 64
     1
 65
     0
 66
     0
 67
     3
 68
     1
 69
     0
 70
     0
 71
     0
 72
     0
 40
0.0
170
     2
340
234C
  0
DICTIONARY
  5
2A6B
102
{ACAD_REACTORS
330
19
102
}
330
19
100
AcDbDictionary
  3
ASEBLOCKHIERARCHYINDEXRECORD
350
2A6C
1001
DCO15
1040
1508734151.828
1001
ACAD
1000
TREAT_AS_HARD
1070
     0
  0
DICTIONARY
  5
2A53
102
{ACAD_REACTORS
330
2A52
102
}
330
2A52
100
AcDbDictionary
1001
ACAD
1000
TREAT_AS_HARD
1070
     0
  0
XRECORD
  5
2AAA
102
{ACAD_REACTORS
330
2A00
102
}
330
2A00
100
AcDbXrecord
340
A
  0
XRECORD
  5
2AAB
102
{ACAD_REACTORS
330
2A02
102
}
330
2A02
100
AcDbXrecord
340
B
  0
XRECORD
  5
2A9C
102
{ACAD_REACTORS
330
2A9B
102
}
330
2A9B
100
AcDbXrecord
102
SHADEPLOT
 70
     0
  0
XRECORD
  5
2AA2
102
{ACAD_REACTORS
330
2AA1
102
}
330
2AA1
100
AcDbXrecord
102
SHADEPLOT
 70
     0
  0
GROUP
  5
1615
102
{ACAD_REACTORS
330
1A
102
}
330
1A
100
AcDbGroup
300

 70
     0
 71
     1
  0
GROUP
  5
161B
102
{ACAD_REACTORS
330
1A
102
}
330
1A
100
AcDbGroup
300

 70
     0
 71
     1
  0
GROUP
  5
1621
102
{ACAD_REACTORS
330
1A
102
}
330
1A
100
AcDbGroup
300

 70
     0
 71
     1
  0
GROUP
  5
1627
102
{ACAD_REACTORS
330
1A
102
}
330
1A
100
AcDbGroup
300

 70
     0
 71
     1
  0
GROUP
  5
162D
102
{ACAD_REACTORS
330
1A
102
}
330
1A
100
AcDbGroup
300

 70
     0
 71
     1
  0
GROUP
  5
1633
102
{ACAD_REACTORS
330
1A
102
}
330
1A
100
AcDbGroup
300

 70
     0
 71
     1
  0
GROUP
  5
1639
102
{ACAD_REACTORS
330
1A
102
}
330
1A
100
AcDbGroup
300

 70
     0
 71
     1
  0
GROUP
  5
163F
102
{ACAD_REACTORS
330
1A
102
}
330
1A
100
AcDbGroup
300

 70
     0
 71
     1
  0
GROUP
  5
1645
102
{ACAD_REACTORS
330
1A
102
}
330
1A
100
AcDbGroup
300

 70
     0
 71
     1
  0
GROUP
  5
164B
102
{ACAD_REACTORS
330
1A
102
}
330
1A
100
AcDbGroup
300

 70
     0
 71
     1
  0
GROUP
  5
1651
102
{ACAD_REACTORS
330
1A
102
}
330
1A
100
AcDbGroup
300

 70
     0
 71
     1
  0
GROUP
  5
1657
102
{ACAD_REACTORS
330
1A
102
}
330
1A
100
AcDbGroup
300

 70
     0
 71
     1
  0
GROUP
  5
165D
102
{ACAD_REACTORS
330
1A
102
}
330
1A
100
AcDbGroup
300

 70
     0
 71
     1
  0
GROUP
  5
1663
102
{ACAD_REACTORS
330
1A
102
}
330
1A
100
AcDbGroup
300

 70
     0
 71
     1
  0
GROUP
  5
1669
102
{ACAD_REACTORS
330
1A
102
}
330
1A
100
AcDbGroup
300

 70
     0
 71
     1
  0
GROUP
  5
166F
102
{ACAD_REACTORS
330
1A
102
}
330
1A
100
AcDbGroup
300

 70
     0
 71
     1
  0
GROUP
  5
1675
102
{ACAD_REACTORS
330
1A
102
}
330
1A
100
AcDbGroup
300

 70
     0
 71
     1
  0
GROUP
  5
167B
102
{ACAD_REACTORS
330
1A
102
}
330
1A
100
AcDbGroup
300

 70
     0
 71
     1
  0
GROUP
  5
1681
102
{ACAD_REACTORS
330
1A
102
}
330
1A
100
AcDbGroup
300

 70
     0
 71
     1
  0
GROUP
  5
1687
102
{ACAD_REACTORS
330
1A
102
}
330
1A
100
AcDbGroup
300

 70
     0
 71
     1
  0
GROUP
  5
168D
102
{ACAD_REACTORS
330
1A
102
}
330
1A
100
AcDbGroup
300

 70
     0
 71
     1
  0
GROUP
  5
1693
102
{ACAD_REACTORS
330
1A
102
}
330
1A
100
AcDbGroup
300

 70
     0
 71
     1
  0
GROUP
  5
1697
102
{ACAD_REACTORS
330
1A
102
}
330
1A
100
AcDbGroup
300

 70
     0
 71
     1
  0
GROUP
  5
169B
102
{ACAD_REACTORS
330
1A
102
}
330
1A
100
AcDbGroup
300

 70
     0
 71
     1
  0
GROUP
  5
169F
102
{ACAD_REACTORS
330
1A
102
}
330
1A
100
AcDbGroup
300

 70
     0
 71
     1
  0
GROUP
  5
16A3
102
{ACAD_REACTORS
330
1A
102
}
330
1A
100
AcDbGroup
300

 70
     0
 71
     1
  0
GROUP
  5
1B6E
102
{ACAD_REACTORS
330
1A
102
}
330
1A
100
AcDbGroup
300

 70
     0
 71
     1
  0
GROUP
  5
1B74
102
{ACAD_REACTORS
330
1A
102
}
330
1A
100
AcDbGroup
300

 70
     0
 71
     1
  0
GROUP
  5
1B7A
102
{ACAD_REACTORS
330
1A
102
}
330
1A
100
AcDbGroup
300

 70
     0
 71
     1
  0
GROUP
  5
1B80
102
{ACAD_REACTORS
330
1A
102
}
330
1A
100
AcDbGroup
300

 70
     0
 71
     1
  0
GROUP
  5
1B86
102
{ACAD_REACTORS
330
1A
102
}
330
1A
100
AcDbGroup
300

 70
     0
 71
     1
  0
GROUP
  5
1B8C
102
{ACAD_REACTORS
330
1A
102
}
330
1A
100
AcDbGroup
300

 70
     0
 71
     1
  0
GROUP
  5
1B92
102
{ACAD_REACTORS
330
1A
102
}
330
1A
100
AcDbGroup
300

 70
     0
 71
     1
  0
GROUP
  5
1B98
102
{ACAD_REACTORS
330
1A
102
}
330
1A
100
AcDbGroup
300

 70
     0
 71
     1
  0
GROUP
  5
1B9E
102
{ACAD_REACTORS
330
1A
102
}
330
1A
100
AcDbGroup
300

 70
     0
 71
     1
  0
GROUP
  5
1BA4
102
{ACAD_REACTORS
330
1A
102
}
330
1A
100
AcDbGroup
300

 70
     0
 71
     1
  0
GROUP
  5
1BAA
102
{ACAD_REACTORS
330
1A
102
}
330
1A
100
AcDbGroup
300

 70
     0
 71
     1
  0
GROUP
  5
1BB0
102
{ACAD_REACTORS
330
1A
102
}
330
1A
100
AcDbGroup
300

 70
     0
 71
     1
  0
GROUP
  5
1BB6
102
{ACAD_REACTORS
330
1A
102
}
330
1A
100
AcDbGroup
300

 70
     0
 71
     1
  0
GROUP
  5
1BBC
102
{ACAD_REACTORS
330
1A
102
}
330
1A
100
AcDbGroup
300

 70
     0
 71
     1
  0
GROUP
  5
1BC2
102
{ACAD_REACTORS
330
1A
102
}
330
1A
100
AcDbGroup
300

 70
     0
 71
     1
  0
GROUP
  5
1BC8
102
{ACAD_REACTORS
330
1A
102
}
330
1A
100
AcDbGroup
300

 70
     0
 71
     1
  0
GROUP
  5
1BCE
102
{ACAD_REACTORS
330
1A
102
}
330
1A
100
AcDbGroup
300

 70
     0
 71
     1
  0
GROUP
  5
1BD4
102
{ACAD_REACTORS
330
1A
102
}
330
1A
100
AcDbGroup
300

 70
     0
 71
     1
  0
GROUP
  5
1BDA
102
{ACAD_REACTORS
330
1A
102
}
330
1A
100
AcDbGroup
300

 70
     0
 71
     1
  0
GROUP
  5
1BE0
102
{ACAD_REACTORS
330
1A
102
}
330
1A
100
AcDbGroup
300

 70
     0
 71
     1
  0
GROUP
  5
1BE6
102
{ACAD_REACTORS
330
1A
102
}
330
1A
100
AcDbGroup
300

 70
     0
 71
     1
  0
GROUP
  5
1BEC
102
{ACAD_REACTORS
330
1A
102
}
330
1A
100
AcDbGroup
300

 70
     0
 71
     1
  0
GROUP
  5
1BF2
102
{ACAD_REACTORS
330
1A
102
}
330
1A
100
AcDbGroup
300

 70
     0
 71
     1
  0
GROUP
  5
1BF8
102
{ACAD_REACTORS
330
1A
102
}
330
1A
100
AcDbGroup
300

 70
     0
 71
     1
  0
GROUP
  5
1BFE
102
{ACAD_REACTORS
330
1A
102
}
330
1A
100
AcDbGroup
300

 70
     0
 71
     1
  0
GROUP
  5
1C04
102
{ACAD_REACTORS
330
1A
102
}
330
1A
100
AcDbGroup
300

 70
     0
 71
     1
  0
GROUP
  5
1C0A
102
{ACAD_REACTORS
330
1A
102
}
330
1A
100
AcDbGroup
300

 70
     0
 71
     1
  0
GROUP
  5
1C10
102
{ACAD_REACTORS
330
1A
102
}
330
1A
100
AcDbGroup
300

 70
     0
 71
     1
  0
GROUP
  5
1C16
102
{ACAD_REACTORS
330
1A
102
}
330
1A
100
AcDbGroup
300

 70
     0
 71
     1
  0
GROUP
  5
1C1C
102
{ACAD_REACTORS
330
1A
102
}
330
1A
100
AcDbGroup
300

 70
     0
 71
     1
  0
GROUP
  5
1C22
102
{ACAD_REACTORS
330
1A
102
}
330
1A
100
AcDbGroup
300

 70
     0
 71
     1
  0
GROUP
  5
1C28
102
{ACAD_REACTORS
330
1A
102
}
330
1A
100
AcDbGroup
300

 70
     0
 71
     1
  0
GROUP
  5
1C2E
102
{ACAD_REACTORS
330
1A
102
}
330
1A
100
AcDbGroup
300

 70
     0
 71
     1
  0
GROUP
  5
1C34
102
{ACAD_REACTORS
330
1A
102
}
330
1A
100
AcDbGroup
300

 70
     0
 71
     1
  0
GROUP
  5
1C3A
102
{ACAD_REACTORS
330
1A
102
}
330
1A
100
AcDbGroup
300

 70
     0
 71
     1
  0
GROUP
  5
1C40
102
{ACAD_REACTORS
330
1A
102
}
330
1A
100
AcDbGroup
300

 70
     0
 71
     1
  0
GROUP
  5
1C46
102
{ACAD_REACTORS
330
1A
102
}
330
1A
100
AcDbGroup
300

 70
     0
 71
     1
  0
GROUP
  5
1C4C
102
{ACAD_REACTORS
330
1A
102
}
330
1A
100
AcDbGroup
300

 70
     0
 71
     1
  0
GROUP
  5
1C52
102
{ACAD_REACTORS
330
1A
102
}
330
1A
100
AcDbGroup
300

 70
     0
 71
     1
  0
GROUP
  5
1C58
102
{ACAD_REACTORS
330
1A
102
}
330
1A
100
AcDbGroup
300

 70
     0
 71
     1
  0
GROUP
  5
1C5E
102
{ACAD_REACTORS
330
1A
102
}
330
1A
100
AcDbGroup
300

 70
     0
 71
     1
  0
GROUP
  5
1C64
102
{ACAD_REACTORS
330
1A
102
}
330
1A
100
AcDbGroup
300

 70
     0
 71
     1
  0
GROUP
  5
1C6A
102
{ACAD_REACTORS
330
1A
102
}
330
1A
100
AcDbGroup
300

 70
     0
 71
     1
  0
GROUP
  5
1C70
102
{ACAD_REACTORS
330
1A
102
}
330
1A
100
AcDbGroup
300

 70
     0
 71
     1
  0
GROUP
  5
1C76
102
{ACAD_REACTORS
330
1A
102
}
330
1A
100
AcDbGroup
300

 70
     0
 71
     1
  0
GROUP
  5
1C7C
102
{ACAD_REACTORS
330
1A
102
}
330
1A
100
AcDbGroup
300

 70
     0
 71
     1
  0
GROUP
  5
1C82
102
{ACAD_REACTORS
330
1A
102
}
330
1A
100
AcDbGroup
300

 70
     0
 71
     1
  0
GROUP
  5
1C88
102
{ACAD_REACTORS
330
1A
102
}
330
1A
100
AcDbGroup
300

 70
     0
 71
     1
  0
GROUP
  5
1C8E
102
{ACAD_REACTORS
330
1A
102
}
330
1A
100
AcDbGroup
300

 70
     0
 71
     1
  0
GROUP
  5
1C94
102
{ACAD_REACTORS
330
1A
102
}
330
1A
100
AcDbGroup
300

 70
     0
 71
     1
  0
GROUP
  5
1C9A
102
{ACAD_REACTORS
330
1A
102
}
330
1A
100
AcDbGroup
300

 70
     0
 71
     1
  0
GROUP
  5
1CA0
102
{ACAD_REACTORS
330
1A
102
}
330
1A
100
AcDbGroup
300

 70
     0
 71
     1
  0
GROUP
  5
1CA6
102
{ACAD_REACTORS
330
1A
102
}
330
1A
100
AcDbGroup
300

 70
     0
 71
     1
  0
GROUP
  5
1CAC
102
{ACAD_REACTORS
330
1A
102
}
330
1A
100
AcDbGroup
300

 70
     0
 71
     1
  0
GROUP
  5
1CB2
102
{ACAD_REACTORS
330
1A
102
}
330
1A
100
AcDbGroup
300

 70
     0
 71
     1
  0
GROUP
  5
1CB8
102
{ACAD_REACTORS
330
1A
102
}
330
1A
100
AcDbGroup
300

 70
     0
 71
     1
  0
GROUP
  5
1CBE
102
{ACAD_REACTORS
330
1A
102
}
330
1A
100
AcDbGroup
300

 70
     0
 71
     1
  0
GROUP
  5
1CC4
102
{ACAD_REACTORS
330
1A
102
}
330
1A
100
AcDbGroup
300

 70
     0
 71
     1
  0
GROUP
  5
1CCA
102
{ACAD_REACTORS
330
1A
102
}
330
1A
100
AcDbGroup
300

 70
     0
 71
     1
  0
GROUP
  5
1CD0
102
{ACAD_REACTORS
330
1A
102
}
330
1A
100
AcDbGroup
300

 70
     0
 71
     1
  0
GROUP
  5
1CD6
102
{ACAD_REACTORS
330
1A
102
}
330
1A
100
AcDbGroup
300

 70
     0
 71
     1
  0
GROUP
  5
1CDC
102
{ACAD_REACTORS
330
1A
102
}
330
1A
100
AcDbGroup
300

 70
     0
 71
     1
  0
GROUP
  5
1CE2
102
{ACAD_REACTORS
330
1A
102
}
330
1A
100
AcDbGroup
300

 70
     0
 71
     1
  0
GROUP
  5
1CE8
102
{ACAD_REACTORS
330
1A
102
}
330
1A
100
AcDbGroup
300

 70
     0
 71
     1
  0
GROUP
  5
1CEE
102
{ACAD_REACTORS
330
1A
102
}
330
1A
100
AcDbGroup
300

 70
     0
 71
     1
  0
GROUP
  5
1CF4
102
{ACAD_REACTORS
330
1A
102
}
330
1A
100
AcDbGroup
300

 70
     0
 71
     1
  0
GROUP
  5
1CFA
102
{ACAD_REACTORS
330
1A
102
}
330
1A
100
AcDbGroup
300

 70
     0
 71
     1
  0
GROUP
  5
1D00
102
{ACAD_REACTORS
330
1A
102
}
330
1A
100
AcDbGroup
300

 70
     0
 71
     1
  0
GROUP
  5
1D06
102
{ACAD_REACTORS
330
1A
102
}
330
1A
100
AcDbGroup
300

 70
     0
 71
     1
  0
GROUP
  5
1D0C
102
{ACAD_REACTORS
330
1A
102
}
330
1A
100
AcDbGroup
300

 70
     0
 71
     1
  0
GROUP
  5
1D12
102
{ACAD_REACTORS
330
1A
102
}
330
1A
100
AcDbGroup
300

 70
     0
 71
     1
  0
GROUP
  5
1D18
102
{ACAD_REACTORS
330
1A
102
}
330
1A
100
AcDbGroup
300

 70
     0
 71
     1
  0
GROUP
  5
1D1E
102
{ACAD_REACTORS
330
1A
102
}
330
1A
100
AcDbGroup
300

 70
     0
 71
     1
  0
GROUP
  5
1D24
102
{ACAD_REACTORS
330
1A
102
}
330
1A
100
AcDbGroup
300

 70
     0
 71
     1
  0
GROUP
  5
1D2A
102
{ACAD_REACTORS
330
1A
102
}
330
1A
100
AcDbGroup
300

 70
     0
 71
     1
  0
GROUP
  5
1D30
102
{ACAD_REACTORS
330
1A
102
}
330
1A
100
AcDbGroup
300

 70
     0
 71
     1
  0
GROUP
  5
1D36
102
{ACAD_REACTORS
330
1A
102
}
330
1A
100
AcDbGroup
300

 70
     0
 71
     1
  0
GROUP
  5
1D3C
102
{ACAD_REACTORS
330
1A
102
}
330
1A
100
AcDbGroup
300

 70
     0
 71
     1
  0
GROUP
  5
1D42
102
{ACAD_REACTORS
330
1A
102
}
330
1A
100
AcDbGroup
300

 70
     0
 71
     1
  0
GROUP
  5
1D48
102
{ACAD_REACTORS
330
1A
102
}
330
1A
100
AcDbGroup
300

 70
     0
 71
     1
  0
GROUP
  5
1D4C
102
{ACAD_REACTORS
330
1A
102
}
330
1A
100
AcDbGroup
300

 70
     0
 71
     1
  0
GROUP
  5
1D50
102
{ACAD_REACTORS
330
1A
102
}
330
1A
100
AcDbGroup
300

 70
     0
 71
     1
  0
GROUP
  5
1D54
102
{ACAD_REACTORS
330
1A
102
}
330
1A
100
AcDbGroup
300

 70
     0
 71
     1
  0
GROUP
  5
1D58
102
{ACAD_REACTORS
330
1A
102
}
330
1A
100
AcDbGroup
300

 70
     0
 71
     1
  0
GROUP
  5
1D5C
102
{ACAD_REACTORS
330
1A
102
}
330
1A
100
AcDbGroup
300

 70
     0
 71
     1
  0
GROUP
  5
1D60
102
{ACAD_REACTORS
330
1A
102
}
330
1A
100
AcDbGroup
300

 70
     0
 71
     1
  0
GROUP
  5
1D64
102
{ACAD_REACTORS
330
1A
102
}
330
1A
100
AcDbGroup
300

 70
     0
 71
     1
  0
GROUP
  5
1D68
102
{ACAD_REACTORS
330
1A
102
}
330
1A
100
AcDbGroup
300

 70
     0
 71
     1
  0
GROUP
  5
1D6C
102
{ACAD_REACTORS
330
1A
102
}
330
1A
100
AcDbGroup
300

 70
     0
 71
     1
  0
GROUP
  5
1D70
102
{ACAD_REACTORS
330
1A
102
}
330
1A
100
AcDbGroup
300

 70
     0
 71
     1
  0
GROUP
  5
1D74
102
{ACAD_REACTORS
330
1A
102
}
330
1A
100
AcDbGroup
300

 70
     0
 71
     1
  0
GROUP
  5
1D78
102
{ACAD_REACTORS
330
1A
102
}
330
1A
100
AcDbGroup
300

 70
     0
 71
     1
  0
GROUP
  5
1D7C
102
{ACAD_REACTORS
330
1A
102
}
330
1A
100
AcDbGroup
300

 70
     0
 71
     1
  0
GROUP
  5
1D80
102
{ACAD_REACTORS
330
1A
102
}
330
1A
100
AcDbGroup
300

 70
     0
 71
     1
  0
GROUP
  5
1D84
102
{ACAD_REACTORS
330
1A
102
}
330
1A
100
AcDbGroup
300

 70
     0
 71
     1
  0
GROUP
  5
1D88
102
{ACAD_REACTORS
330
1A
102
}
330
1A
100
AcDbGroup
300

 70
     0
 71
     1
  0
GROUP
  5
1D8C
102
{ACAD_REACTORS
330
1A
102
}
330
1A
100
AcDbGroup
300

 70
     0
 71
     1
  0
GROUP
  5
1D90
102
{ACAD_REACTORS
330
1A
102
}
330
1A
100
AcDbGroup
300

 70
     0
 71
     1
  0
GROUP
  5
1D94
102
{ACAD_REACTORS
330
1A
102
}
330
1A
100
AcDbGroup
300

 70
     0
 71
     1
  0
GROUP
  5
1D98
102
{ACAD_REACTORS
330
1A
102
}
330
1A
100
AcDbGroup
300

 70
     0
 71
     1
  0
GROUP
  5
1D9C
102
{ACAD_REACTORS
330
1A
102
}
330
1A
100
AcDbGroup
300

 70
     0
 71
     1
  0
GROUP
  5
1DA0
102
{ACAD_REACTORS
330
1A
102
}
330
1A
100
AcDbGroup
300

 70
     0
 71
     1
  0
GROUP
  5
1DA4
102
{ACAD_REACTORS
330
1A
102
}
330
1A
100
AcDbGroup
300

 70
     0
 71
     1
  0
GROUP
  5
1DA8
102
{ACAD_REACTORS
330
1A
102
}
330
1A
100
AcDbGroup
300

 70
     0
 71
     1
  0
GROUP
  5
1DAC
102
{ACAD_REACTORS
330
1A
102
}
330
1A
100
AcDbGroup
300

 70
     0
 71
     1
  0
GROUP
  5
1DB0
102
{ACAD_REACTORS
330
1A
102
}
330
1A
100
AcDbGroup
300

 70
     0
 71
     1
  0
GROUP
  5
1DB4
102
{ACAD_REACTORS
330
1A
102
}
330
1A
100
AcDbGroup
300

 70
     0
 71
     1
  0
GROUP
  5
1DB8
102
{ACAD_REACTORS
330
1A
102
}
330
1A
100
AcDbGroup
300

 70
     0
 71
     1
  0
GROUP
  5
1DBC
102
{ACAD_REACTORS
330
1A
102
}
330
1A
100
AcDbGroup
300

 70
     0
 71
     1
  0
GROUP
  5
1DC0
102
{ACAD_REACTORS
330
1A
102
}
330
1A
100
AcDbGroup
300

 70
     0
 71
     1
  0
GROUP
  5
1DC4
102
{ACAD_REACTORS
330
1A
102
}
330
1A
100
AcDbGroup
300

 70
     0
 71
     1
  0
GROUP
  5
1DC8
102
{ACAD_REACTORS
330
1A
102
}
330
1A
100
AcDbGroup
300

 70
     0
 71
     1
  0
GROUP
  5
1DCC
102
{ACAD_REACTORS
330
1A
102
}
330
1A
100
AcDbGroup
300

 70
     0
 71
     1
  0
GROUP
  5
1DD0
102
{ACAD_REACTORS
330
1A
102
}
330
1A
100
AcDbGroup
300

 70
     0
 71
     1
  0
GROUP
  5
1DD4
102
{ACAD_REACTORS
330
1A
102
}
330
1A
100
AcDbGroup
300

 70
     0
 71
     1
  0
GROUP
  5
1DD8
102
{ACAD_REACTORS
330
1A
102
}
330
1A
100
AcDbGroup
300

 70
     0
 71
     1
  0
GROUP
  5
1DDC
102
{ACAD_REACTORS
330
1A
102
}
330
1A
100
AcDbGroup
300

 70
     0
 71
     1
  0
GROUP
  5
1DE0
102
{ACAD_REACTORS
330
1A
102
}
330
1A
100
AcDbGroup
300

 70
     0
 71
     1
  0
GROUP
  5
1DE4
102
{ACAD_REACTORS
330
1A
102
}
330
1A
100
AcDbGroup
300

 70
     0
 71
     1
  0
GROUP
  5
1DE8
102
{ACAD_REACTORS
330
1A
102
}
330
1A
100
AcDbGroup
300

 70
     0
 71
     1
  0
GROUP
  5
1DEC
102
{ACAD_REACTORS
330
1A
102
}
330
1A
100
AcDbGroup
300

 70
     0
 71
     1
  0
GROUP
  5
1DF0
102
{ACAD_REACTORS
330
1A
102
}
330
1A
100
AcDbGroup
300

 70
     0
 71
     1
  0
GROUP
  5
1DF4
102
{ACAD_REACTORS
330
1A
102
}
330
1A
100
AcDbGroup
300

 70
     0
 71
     1
  0
GROUP
  5
1DF8
102
{ACAD_REACTORS
330
1A
102
}
330
1A
100
AcDbGroup
300

 70
     0
 71
     1
  0
GROUP
  5
1DFC
102
{ACAD_REACTORS
330
1A
102
}
330
1A
100
AcDbGroup
300

 70
     0
 71
     1
  0
GROUP
  5
1E00
102
{ACAD_REACTORS
330
1A
102
}
330
1A
100
AcDbGroup
300

 70
     0
 71
     1
  0
GROUP
  5
1E04
102
{ACAD_REACTORS
330
1A
102
}
330
1A
100
AcDbGroup
300

 70
     0
 71
     1
  0
GROUP
  5
1E08
102
{ACAD_REACTORS
330
1A
102
}
330
1A
100
AcDbGroup
300

 70
     0
 71
     1
  0
GROUP
  5
1E0C
102
{ACAD_REACTORS
330
1A
102
}
330
1A
100
AcDbGroup
300

 70
     0
 71
     1
  0
GROUP
  5
1E10
102
{ACAD_REACTORS
330
1A
102
}
330
1A
100
AcDbGroup
300

 70
     0
 71
     1
  0
GROUP
  5
1E14
102
{ACAD_REACTORS
330
1A
102
}
330
1A
100
AcDbGroup
300

 70
     0
 71
     1
  0
GROUP
  5
1E18
102
{ACAD_REACTORS
330
1A
102
}
330
1A
100
AcDbGroup
300

 70
     0
 71
     1
  0
GROUP
  5
1E1C
102
{ACAD_REACTORS
330
1A
102
}
330
1A
100
AcDbGroup
300

 70
     0
 71
     1
  0
GROUP
  5
1E20
102
{ACAD_REACTORS
330
1A
102
}
330
1A
100
AcDbGroup
300

 70
     0
 71
     1
  0
GROUP
  5
1E24
102
{ACAD_REACTORS
330
1A
102
}
330
1A
100
AcDbGroup
300

 70
     0
 71
     1
  0
GROUP
  5
1E28
102
{ACAD_REACTORS
330
1A
102
}
330
1A
100
AcDbGroup
300

 70
     0
 71
     1
  0
GROUP
  5
1E2C
102
{ACAD_REACTORS
330
1A
102
}
330
1A
100
AcDbGroup
300

 70
     0
 71
     1
  0
GROUP
  5
1E30
102
{ACAD_REACTORS
330
1A
102
}
330
1A
100
AcDbGroup
300

 70
     0
 71
     1
  0
GROUP
  5
1E34
102
{ACAD_REACTORS
330
1A
102
}
330
1A
100
AcDbGroup
300

 70
     0
 71
     1
  0
GROUP
  5
1E38
102
{ACAD_REACTORS
330
1A
102
}
330
1A
100
AcDbGroup
300

 70
     0
 71
     1
  0
GROUP
  5
1E3B
102
{ACAD_REACTORS
330
1A
102
}
330
1A
100
AcDbGroup
300

 70
     0
 71
     1
  0
GROUP
  5
1E3E
102
{ACAD_REACTORS
330
1A
102
}
330
1A
100
AcDbGroup
300

 70
     0
 71
     1
  0
GROUP
  5
1F5E
102
{ACAD_REACTORS
330
1A
102
}
330
1A
100
AcDbGroup
300

 70
     0
 71
     1
  0
GROUP
  5
1F62
102
{ACAD_REACTORS
330
1A
102
}
330
1A
100
AcDbGroup
300

 70
     0
 71
     1
  0
GROUP
  5
2E8
102
{ACAD_REACTORS
330
1A
102
}
330
1A
100
AcDbGroup
300

 70
     0
 71
     1
  0
GROUP
  5
2EB
102
{ACAD_REACTORS
330
1A
102
}
330
1A
100
AcDbGroup
300

 70
     0
 71
     1
  0
GROUP
  5
2EF
102
{ACAD_REACTORS
330
1A
102
}
330
1A
100
AcDbGroup
300

 70
     0
 71
     1
  0
GROUP
  5
2F3
102
{ACAD_REACTORS
330
1A
102
}
330
1A
100
AcDbGroup
300

 70
     0
 71
     1
  0
GROUP
  5
2F7
102
{ACAD_REACTORS
330
1A
102
}
330
1A
100
AcDbGroup
300

 70
     0
 71
     1
  0
MLINESTYLE
  5
1C
102
{ACAD_REACTORS
330
1B
102
}
330
1B
100
AcDbMlineStyle
  2
STANDARD
 70
     0
  3

 62
     0
 51
90.00000000000019
 52
90.00000000000019
 71
     2
 49
0.5
 62
   256
  6
BYLAYER
 49
-0.5
 62
   256
  6
BYLAYER
  0
XRECORD
  5
2A6C
102
{ACAD_REACTORS
330
2A6B
102
}
330
2A6B
100
AcDbXrecord
330
2544
330
2545
330
253C
330
253D
330
2530
330
2531
330
2528
330
2529
330
2593
330
2594
330
2514
330
2515
330
258A
330
258B
330
24FF
330
2500
330
2738
330
2739
330
277A
330
277B
330
2581
330
2582
330
25A5
330
25A6
330
24CC
330
24CD
330
24C3
330
24C4
330
24BA
330
24BB
330
2892
330
2893
330
24A9
330
24AA
330
249D
330
249E
330
2494
330
2495
330
2489
330
248A
330
2481
330
2482
330
2475
330
2476
330
246C
330
246D
330
2463
330
2464
330
245A
330
245B
  0
ENDSEC
  0
EOF
