  0
SECTION
  2
HEADER
  9
$ACADVER
  1
AC1012
  9
$DWGCODEPAGE
  3
dos932
  9
$INSBASE
 10
0.0
 20
0.0
 30
0.0
  9
$EXTMIN
 10
0.0
 20
0.0
 30
0.0
  9
$EXTMAX
 10
420.0
 20
594.0
 30
0.0
  9
$LIMMIN
 10
0.0
 20
0.0
  9
$LIMMAX
 10
420.0
 20
594.0
  9
$ORTHOMODE
 70
     0
  9
$REGENMODE
 70
     1
  9
$FILLMODE
 70
     1
  9
$QTEXTMODE
 70
     0
  9
$MIRRTEXT
 70
     1
  9
$DRAGMODE
 70
     2
  9
$LTSCALE
 40
1.0
  9
$OSMODE
 70
    37
  9
$ATTMODE
 70
     1
  9
$TEXTSIZE
 40
6.0
  9
$TRACEWID
 40
0.05
  9
$TEXTSTYLE
  7
STANDARD
  9
$CLAYER
  8
DEFPOINTS
  9
$CELTYPE
  6
CONTINUOUS
  9
$CECOLOR
 62
   256
  9
$CELTSCALE
 40
1.0
  9
$DELOBJ
 70
     1
  9
$DISPSILH
 70
     0
  9
$DIMSCALE
 40
2.0
  9
$DIMASZ
 40
2.5
  9
$DIMEXO
 40
1.5
  9
$DIMDLI
 40
0.0
  9
$DIMRND
 40
0.0
  9
$DIMDLE
 40
0.0
  9
$DIMEXE
 40
1.0
  9
$DIMTP
 40
0.0
  9
$DIMTM
 40
0.0
  9
$DIMTXT
 40
2.5
  9
$DIMCEN
 40
0.0
  9
$DIMTSZ
 40
0.0
  9
$DIMTOL
 70
     0
  9
$DIMLIM
 70
     0
  9
$DIMTIH
 70
     0
  9
$DIMTOH
 70
     0
  9
$DIMSE1
 70
     0
  9
$DIMSE2
 70
     0
  9
$DIMTAD
 70
     1
  9
$DIMZIN
 70
     8
  9
$DIMBLK
  1
OPEN30
  9
$DIMASO
 70
     1
  9
$DIMSHO
 70
     1
  9
$DIMPOST
  1

  9
$DIMAPOST
  1

  9
$DIMALT
 70
     0
  9
$DIMALTD
 70
     2
  9
$DIMALTF
 40
25.4
  9
$DIMLFAC
 40
1.0
  9
$DIMTOFL
 70
     1
  9
$DIMTVP
 40
0.0
  9
$DIMTIX
 70
     0
  9
$DIMSOXD
 70
     0
  9
$DIMSAH
 70
     0
  9
$DIMBLK1
  1

  9
$DIMBLK2
  1

  9
$DIMSTYLE
  2
SUNPOU_2
  9
$DIMCLRD
 70
   256
  9
$DIMCLRE
 70
   256
  9
$DIMCLRT
 70
     6
  9
$DIMTFAC
 40
1.0
  9
$DIMGAP
 40
1.0
  9
$DIMJUST
 70
     0
  9
$DIMSD1
 70
     0
  9
$DIMSD2
 70
     0
  9
$DIMTOLJ
 70
     1
  9
$DIMTZIN
 70
     0
  9
$DIMALTZ
 70
     0
  9
$DIMALTTZ
 70
     0
  9
$DIMFIT
 70
     3
  9
$DIMUPT
 70
     0
  9
$DIMUNIT
 70
     2
  9
$DIMDEC
 70
     1
  9
$DIMTDEC
 70
     1
  9
$DIMALTU
 70
     2
  9
$DIMALTTD
 70
     2
  9
$DIMTXSTY
  7
SUNPOU
  9
$DIMAUNIT
 70
     0
  9
$LUNITS
 70
     2
  9
$LUPREC
 70
     4
  9
$SKETCHINC
 40
0.1
  9
$FILLETRAD
 40
0.0
  9
$AUNITS
 70
     0
  9
$AUPREC
 70
     0
  9
$MENU
  1
acad
  9
$ELEVATION
 40
0.0
  9
$PELEVATION
 40
0.0
  9
$THICKNESS
 40
0.0
  9
$LIMCHECK
 70
     0
  9
$BLIPMODE
 70
     0
  9
$CHAMFERA
 40
0.0
  9
$CHAMFERB
 40
0.0
  9
$CHAMFERC
 40
0.0
  9
$CHAMFERD
 40
0.0
  9
$SKPOLY
 70
     0
  9
$TDCREATE
 40
2444972.375000000
  9
$TDUPDATE
 40
2453266.435443067
  9
$TDINDWG
 40
0.8081127083
  9
$TDUSRTIMER
 40
0.8081125231
  9
$USRTIMER
 70
     1
  9
$ANGBASE
 50
0.0
  9
$ANGDIR
 70
     0
  9
$PDMODE
 70
     0
  9
$PDSIZE
 40
1.0
  9
$PLINEWID
 40
0.0
  9
$COORDS
 70
     1
  9
$SPLFRAME
 70
     0
  9
$SPLINETYPE
 70
     6
  9
$SPLINESEGS
 70
     8
  9
$ATTDIA
 70
     0
  9
$ATTREQ
 70
     1
  9
$HANDLING
 70
-16383
  9
$HANDSEED
  5
176D
  9
$SURFTAB1
 70
     6
  9
$SURFTAB2
 70
     6
  9
$SURFTYPE
 70
     6
  9
$SURFU
 70
     6
  9
$SURFV
 70
     6
  9
$UCSNAME
  2

  9
$UCSORG
 10
0.0
 20
0.0
 30
0.0
  9
$UCSXDIR
 10
1.0
 20
0.0
 30
0.0
  9
$UCSYDIR
 10
0.0
 20
1.0
 30
0.0
  9
$PUCSNAME
  2

  9
$PUCSORG
 10
0.0
 20
0.0
 30
0.0
  9
$PUCSXDIR
 10
1.0
 20
0.0
 30
0.0
  9
$PUCSYDIR
 10
0.0
 20
1.0
 30
0.0
  9
$USERI1
 70
     0
  9
$USERI2
 70
     0
  9
$USERI3
 70
     0
  9
$USERI4
 70
     0
  9
$USERI5
 70
     0
  9
$USERR1
 40
0.0
  9
$USERR2
 40
0.0
  9
$USERR3
 40
0.0
  9
$USERR4
 40
0.0
  9
$USERR5
 40
0.0
  9
$WORLDVIEW
 70
     1
  9
$SHADEDGE
 70
     3
  9
$SHADEDIF
 70
    70
  9
$TILEMODE
 70
     1
  9
$MAXACTVP
 70
    16
  9
$PINSBASE
 10
0.0
 20
0.0
 30
0.0
  9
$PLIMCHECK
 70
     0
  9
$PEXTMIN
 10
-0.2055473772918503
 20
-0.0174202791267817
 30
-0.0015258207003583
  9
$PEXTMAX
 10
396.3139079836236
 20
570.3923158424973
 30
0.0000000349246037
  9
$PLIMMIN
 10
-11.94191342824453
 20
-11.7660021939814
  9
$PLIMMAX
 10
408.0435733360148
 20
582.1408996648767
  9
$UNITMODE
 70
     0
  9
$VISRETAIN
 70
     0
  9
$PLINEGEN
 70
     1
  9
$PSLTSCALE
 70
     0
  9
$TREEDEPTH
 70
  3020
  9
$PICKSTYLE
 70
     1
  9
$CMLSTYLE
  2
STANDARD
  9
$CMLJUST
 70
     0
  9
$CMLSCALE
 40
1.0
  9
$SAVEIMAGES
 70
     1
  0
ENDSEC
  0
SECTION
  2
CLASSES
  0
CLASS
  1
LWPOLYLINE
  2
AcDbPolyline
  3
AutoCAD 2000
 90
    32768
280
     0
281
     1
  0
CLASS
  1
IMAGE
  2
AcDbRasterImage
  3
ISM
 90
    32895
280
     0
281
     1
  0
CLASS
  1
OLE2FRAME
  2
AcDbOle2Frame
  3
AutoCAD 2000
 90
    32768
280
     0
281
     1
  0
CLASS
  1
HATCH
  2
AcDbHatch
  3
AutoCAD 2000
 90
    32768
280
     0
281
     1
  0
CLASS
  1
DICTIONARYVAR
  2
AcDbDictionaryVar
  3
AutoCAD 2000
 90
    32768
280
     0
281
     0
  0
CLASS
  1
RASTERVARIABLES
  2
AcDbRasterVariables
  3
ISM
 90
    32768
280
     0
281
     0
  0
CLASS
  1
IMAGEDEF
  2
AcDbRasterImageDef
  3
ISM
 90
    32768
280
     0
281
     0
  0
CLASS
  1
IMAGEDEF_REACTOR
  2
AcDbRasterImageDefReactor
  3
ISM
 90
    32769
280
     0
281
     0
  0
CLASS
  1
IDBUFFER
  2
AcDbIdBuffer
  3
AutoCAD 2000
 90
    32768
280
     0
281
     0
  0
CLASS
  1
SPATIAL_FILTER
  2
AcDbSpatialFilter
  3
AutoCAD 2000
 90
    32768
280
     0
281
     0
  0
CLASS
  1
XRECORD
  2
AcDbXrecord
  3
AutoCAD 2000
 90
    32768
280
     0
281
     0
  0
CLASS
  1
SORTENTSTABLE
  2
AcDbSortentsTable
  3
AutoCAD 2000
 90
    32768
280
     0
281
     0
  0
CLASS
  1
LAYER_INDEX
  2
AcDbLayerIndex
  3
AutoCAD 2000
 90
    32768
280
     0
281
     0
  0
CLASS
  1
SPATIAL_INDEX
  2
AcDbSpatialIndex
  3
AutoCAD 2000
 90
    32768
280
     0
281
     0
  0
CLASS
  1
OBJECT_PTR
  2
CAseDLPNTableRecord
  3
ASE-LPNTableRecord
 90
    32769
280
     0
281
     0
  0
CLASS
  1
LAYOUT
  2
AcDbLayout
  3
AutoCAD 2000
 90
    32768
280
     0
281
     0
  0
CLASS
  1
PLOTSETTINGS
  2
AcDbPlotSettings
  3
AutoCAD 2000
 90
    32768
280
     0
281
     0
  0
CLASS
  1
ACDBDICTIONARYWDFLT
  2
AcDbDictionaryWithDefault
  3
AutoCAD 2000
 90
    32768
280
     0
281
     0
  0
CLASS
  1
ACDBPLACEHOLDER
  2
AcDbPlaceHolder
  3
AutoCAD 2000
 90
    32768
280
     0
281
     0
  0
CLASS
  1
VBA_PROJECT
  2
AcDbVbaProject
  3
acad
 90
    32768
280
     0
281
     0
  0
CLASS
  1
WIPEOUT
  2
AcDbWipeout
  3
"WipeOut|Product Desc: Object Enabler for WipeOut entity^I^I^I^I^I^I|Company: Autodesk, Inc.^I^I^I^I^I^I|WEB Address: www.autodesk.com"
 90
    32895
280
     0
281
     1
  0
CLASS
  1
WIPEOUTVARIABLES
  2
AcDbWipeoutVariables
  3
"WipeOut|Product Desc:     WipeOut Dbx Application|Company:          Autodesk, Inc.|WEB Address:      www.autodesk.com"
 90
    32768
280
     0
281
     0
  0
CLASS
  1
RTEXT
  2
RText
  3
RText|AutoCAD Express Tool|expresstools@autodesk.com
 90
    32768
280
     0
281
     1
  0
CLASS
  1
ARCALIGNEDTEXT
  2
AcDbArcAlignedText
  3
ATEXT|AutoCAD Express Tool|expresstools@autodesk.com
 90
    32768
280
     0
281
     1
  0
CLASS
  1
LONG_TRANSACTION
  2
AcDbLongTransaction
  3
AutoCAD 2000
 90
    32768
280
     0
281
     0
  0
CLASS
  1
LWPOLYLINE
  2
AcDbPolyline
  3
AutoCAD 2000
 90
    32768
280
     0
281
     1
  0
CLASS
  1
HATCH
  2
AcDbHatch
  3
AutoCAD 2000
 90
    32768
280
     0
281
     1
  0
CLASS
  1
XRECORD
  2
AcDbXrecord
  3
AutoCAD 2000
 90
    32768
280
     0
281
     0
  0
CLASS
  1
LONG_TRANSACTION
  2
AcDbLongTransaction
  3
AutoCAD 2000
 90
    32768
280
     0
281
     0
  0
CLASS
  1
LWPOLYLINE
  2
AcDbPolyline
  3
AutoCAD 2000
 90
    32768
280
     0
281
     1
  0
CLASS
  1
HATCH
  2
AcDbHatch
  3
AutoCAD 2000
 90
    32768
280
     0
281
     1
  0
CLASS
  1
XRECORD
  2
AcDbXrecord
  3
AutoCAD 2000
 90
    32768
280
     0
281
     0
  0
CLASS
  1
LONG_TRANSACTION
  2
AcDbLongTransaction
  3
AutoCAD 2000
 90
    32768
280
     0
281
     0
  0
CLASS
  1
LWPOLYLINE
  2
AcDbPolyline
  3
AutoCAD 2000
 90
    32768
280
     0
281
     1
  0
CLASS
  1
HATCH
  2
AcDbHatch
  3
AutoCAD 2000
 90
    32768
280
     0
281
     1
  0
CLASS
  1
XRECORD
  2
AcDbXrecord
  3
AutoCAD 2000
 90
    32768
280
     0
281
     0
  0
ENDSEC
  0
SECTION
  2
TABLES
  0
TABLE
  2
VPORT
  5
7
330
0
100
AcDbSymbolTable
 70
     2
  0
VPORT
  5
1741
330
7
100
AcDbSymbolTableRecord
100
AcDbViewportTableRecord
  2
*ACTIVE
 70
     0
 10
0.0
 20
0.0
 11
1.0
 21
1.0
 12
228.3534136753863
 22
297.000001383014
 13
0.0
 23
0.0
 14
1.0
 24
1.0
 15
0.0
 25
0.0
 16
0.0
 26
0.0
 36
1.0
 17
0.0
 27
0.0
 37
0.0
 40
601.1004228510313
 41
1.780442804428044
 42
50.0
 43
0.0
 44
0.0
 50
0.0
 51
0.0
 71
     0
 72
   100
 73
     1
 74
     1
 75
     0
 76
     0
 77
     0
 78
     0
  0
ENDTAB
  0
TABLE
  2
LTYPE
  5
4
330
0
100
AcDbSymbolTable
 70
     4
  0
LTYPE
  5
11
330
4
100
AcDbSymbolTableRecord
100
AcDbLinetypeTableRecord
  2
BYBLOCK
 70
     0
  3

 72
    65
 73
     0
 40
0.0
  0
LTYPE
  5
12
330
4
100
AcDbSymbolTableRecord
100
AcDbLinetypeTableRecord
  2
BYLAYER
 70
     0
  3

 72
    65
 73
     0
 40
0.0
  0
LTYPE
  5
13
330
4
100
AcDbSymbolTableRecord
100
AcDbLinetypeTableRecord
  2
CONTINUOUS
 70
     0
  3
Solid line
 72
    65
 73
     0
 40
0.0
  0
LTYPE
  5
21
330
4
100
AcDbSymbolTableRecord
100
AcDbLinetypeTableRecord
  2
DASHED2
 70
     0
  3
CADPAC LINETYPE
 72
    65
 73
     2
 40
13.365
 49
8.91
 74
     0
 49
-4.455
 74
     0
  0
LTYPE
  5
7C8
330
4
100
AcDbSymbolTableRecord
100
AcDbLinetypeTableRecord
  2
CENTER2
 70
     0
  3
Center (.5x) ___ _ ___ _ ___ _ ___ _ ___ _ ___
 72
    65
 73
     4
 40
28.57499999999999
 49
19.05
 74
     0
 49
-3.174999999999998
 74
     0
 49
3.174999999999998
 74
     0
 49
-3.174999999999998
 74
     0
  0
LTYPE
  5
7CD
330
4
100
AcDbSymbolTableRecord
100
AcDbLinetypeTableRecord
  2
PHANTOM2
 70
     0
  3
Phantom (.5x) ___ _ _ ___ _ _ ___ _ _ ___ _ _
 72
    65
 73
     6
 40
31.75
 49
15.875
 74
     0
 49
-3.174999999999998
 74
     0
 49
3.174999999999998
 74
     0
 49
-3.174999999999998
 74
     0
 49
3.174999999999998
 74
     0
 49
-3.174999999999998
 74
     0
  0
ENDTAB
  0
TABLE
  2
LAYER
  5
2
102
{ACAD_XDICTIONARY
360
14F8
102
}
330
0
100
AcDbSymbolTable
 70
    12
  0
LAYER
  5
14
330
2
100
AcDbSymbolTableRecord
100
AcDbLayerTableRecord
  2
0
 70
     0
 62
     7
  6
CONTINUOUS
  0
LAYER
  5
7BF
330
2
100
AcDbSymbolTableRecord
100
AcDbLayerTableRecord
  2
DEFPOINTS
 70
     0
 62
     7
  6
CONTINUOUS
  0
LAYER
  5
7C2
330
2
100
AcDbSymbolTableRecord
100
AcDbLayerTableRecord
  2
03
 70
     0
 62
     3
  6
CONTINUOUS
  0
LAYER
  5
7C3
330
2
100
AcDbSymbolTableRecord
100
AcDbLayerTableRecord
  2
04
 70
     0
 62
     4
  6
CONTINUOUS
  0
LAYER
  5
7C5
330
2
100
AcDbSymbolTableRecord
100
AcDbLayerTableRecord
  2
06
 70
     0
 62
     6
  6
CONTINUOUS
  0
LAYER
  5
7C7
330
2
100
AcDbSymbolTableRecord
100
AcDbLayerTableRecord
  2
CHUSIN
 70
     0
 62
     6
  6
CENTER2
  0
LAYER
  5
7C9
330
2
100
AcDbSymbolTableRecord
100
AcDbLayerTableRecord
  2
HIKIDASI
 70
     0
 62
     6
  6
CONTINUOUS
  0
LAYER
  5
7CA
330
2
100
AcDbSymbolTableRecord
100
AcDbLayerTableRecord
  2
KAKURE
 70
     0
 62
     6
  6
DASHED2
  0
LAYER
  5
7CB
330
2
100
AcDbSymbolTableRecord
100
AcDbLayerTableRecord
  2
MOJI
 70
     0
 62
     3
  6
CONTINUOUS
  0
LAYER
  5
7CC
330
2
100
AcDbSymbolTableRecord
100
AcDbLayerTableRecord
  2
SOUZOU
 70
     0
 62
     6
  6
PHANTOM2
  0
LAYER
  5
7CE
330
2
100
AcDbSymbolTableRecord
100
AcDbLayerTableRecord
  2
SUNPOU
 70
     0
 62
     6
  6
CONTINUOUS
  0
LAYER
  5
1592
330
2
100
AcDbSymbolTableRecord
100
AcDbLayerTableRecord
  2
SAISEN
 70
     0
 62
     3
  6
CONTINUOUS
  0
ENDTAB
  0
TABLE
  2
STYLE
  5
3
330
0
100
AcDbSymbolTable
 70
     4
  0
STYLE
  5
17
330
3
100
AcDbSymbolTableRecord
100
AcDbTextStyleTableRecord
  2
STANDARD
 70
     4
 40
0.0
 41
0.8
 50
0.0
 71
     0
 42
6.0
  3
txt.shx
  4
bigfont.shx
  0
STYLE
  5
7D0
330
3
100
AcDbSymbolTableRecord
100
AcDbTextStyleTableRecord
  2
SUNPOU
 70
     0
 40
0.0
 41
0.8
 50
0.0
 71
     0
 42
0.2
  3
txt.shx
  4
extfont.shx
  0
STYLE
  5
7D7
330
3
100
AcDbSymbolTableRecord
100
AcDbTextStyleTableRecord
  2
0_8
 70
     0
 40
0.0
 41
0.8
 50
0.0
 71
     0
 42
2.5
  3
txt.shx
  4
extfont.shx
  0
STYLE
  5
1680
330
3
100
AcDbSymbolTableRecord
100
AcDbTextStyleTableRecord
  2
0_80
 70
     0
 40
0.0
 41
0.8
 50
0.0
 71
     0
 42
7.0
  3
txt.shx
  4
extfont.shx
  0
ENDTAB
  0
TABLE
  2
VIEW
  5
5
330
0
100
AcDbSymbolTable
 70
     1
  0
VIEW
  5
3D
330
5
100
AcDbSymbolTableRecord
100
AcDbViewTableRecord
  2
QQQQ
 70
     0
 40
477.5589
 10
2.707499999999979
 20
0.4900000000000091
 41
689.5365749999997
 11
0.0
 21
0.0
 31
1.0
 12
100.0
 22
100.0
 32
0.0
 42
50.0
 43
0.0
 44
0.0
 50
0.0
 71
     0
  0
ENDTAB
  0
TABLE
  2
UCS
  5
6
330
0
100
AcDbSymbolTable
 70
     0
  0
ENDTAB
  0
TABLE
  2
APPID
  5
8
330
0
100
AcDbSymbolTable
 70
     3
  0
APPID
  5
16
330
8
100
AcDbSymbolTableRecord
100
AcDbRegAppTableRecord
  2
ACAD
 70
     0
  0
APPID
  5
1617
330
8
100
AcDbSymbolTableRecord
100
AcDbRegAppTableRecord
  2
CONTENTBLOCKICON
 70
     0
  0
APPID
  5
167C
330
8
100
AcDbSymbolTableRecord
100
AcDbRegAppTableRecord
  2
DCO15
 70
     0
  0
ENDTAB
  0
TABLE
  2
DIMSTYLE
  5
9
330
0
100
AcDbSymbolTable
 70
     3
  0
DIMSTYLE
105
18
330
9
100
AcDbSymbolTableRecord
100
AcDbDimStyleTableRecord
  2
STANDARD
 70
     0
  3

  4

  5

  6

  7

 40
1.0
 41
0.18
 42
0.0625
 43
0.38
 44
0.18
 45
0.0
 46
0.0
 47
0.0
 48
0.0
140
0.18
141
0.09
142
0.0
143
25.4
144
1.0
145
0.0
146
1.0
147
0.09
 71
     0
 72
     0
 73
     1
 74
     1
 75
     0
 76
     0
 77
     0
 78
     0
170
     0
171
     2
172
     0
173
     0
174
     0
175
     0
176
     0
177
     0
178
     0
270
     2
271
     4
272
     4
273
     2
274
     2
340
17
275
     0
280
     0
281
     0
282
     0
283
     1
284
     0
285
     0
286
     0
287
     3
288
     0
  0
DIMSTYLE
105
7E5
102
{ACAD_REACTORS
330
815
330
9BE
330
9CC
330
A16
330
A23
330
A30
330
A3D
330
A4A
330
B39
330
B88
330
BA4
330
B95
330
B79
102
}
330
9
100
AcDbSymbolTableRecord
100
AcDbDimStyleTableRecord
  2
SUNPOU_2
 70
     0
  3

  4

  5
OPEN30
  6

  7

 40
2.0
 41
2.5
 42
1.5
 43
0.0
 44
1.0
 45
0.0
 46
0.0
 47
0.0
 48
0.0
140
2.5
141
0.0
142
0.0
143
25.4
144
1.0
145
0.0
146
1.0
147
1.0
 71
     0
 72
     0
 73
     0
 74
     0
 75
     0
 76
     0
 77
     1
 78
     8
170
     0
171
     2
172
     1
173
     0
174
     0
175
     0
176
   256
177
   256
178
     6
270
     2
271
     1
272
     1
273
     2
274
     2
340
7D0
275
     0
280
     0
281
     0
282
     0
283
     1
284
     0
285
     0
286
     0
287
     3
288
     0
  0
DIMSTYLE
105
82B
102
{ACAD_REACTORS
330
873
330
8AD
330
891
330
882
330
89E
330
864
330
CA4
330
CBE
330
CCB
330
CD8
330
CE5
330
855
102
}
330
9
100
AcDbSymbolTableRecord
100
AcDbDimStyleTableRecord
  2
SUNPOU_2_10
 70
     0
  3

  4

  5
OPEN30
  6

  7

 40
2.0
 41
2.5
 42
1.5
 43
0.0
 44
1.0
 45
0.0
 46
0.0
 47
0.0
 48
0.0
140
2.5
141
0.0
142
0.0
143
25.4
144
10.0
145
0.0
146
1.0
147
1.0
 71
     0
 72
     0
 73
     0
 74
     0
 75
     0
 76
     0
 77
     1
 78
     8
170
     0
171
     2
172
     1
173
     0
174
     0
175
     0
176
   256
177
   256
178
     6
270
     2
271
     1
272
     1
273
     2
274
     2
340
7D0
275
     0
280
     0
281
     0
282
     0
283
     1
284
     0
285
     0
286
     0
287
     3
288
     0
  0
ENDTAB
  0
TABLE
  2
BLOCK_RECORD
  5
1
330
0
100
AcDbSymbolTable
 70
    29
  0
BLOCK_RECORD
  5
A
102
{ACAD_XDICTIONARY
360
1613
102
}
330
1
100
AcDbSymbolTableRecord
100
AcDbBlockTableRecord
  2
*MODEL_SPACE
  0
BLOCK_RECORD
  5
B
102
{ACAD_XDICTIONARY
360
1615
102
}
330
1
100
AcDbSymbolTableRecord
100
AcDbBlockTableRecord
  2
*PAPER_SPACE
  0
BLOCK_RECORD
  5
7D1
330
1
100
AcDbSymbolTableRecord
100
AcDbBlockTableRecord
  2
_OPEN30
1001
CONTENTBLOCKICON
1071
        0
1004
2800000020000000200000000100080000000000000400000000000000000000000000000000000000000000000080000080000000808000800000008000800080800000C0C0C000C0DCC000F0CAA6000020400000206000002080000020A0000020C0000020E00000400000004020000040400000406000004080000040A0
1004
000040C0000040E00000600000006020000060400000606000006080000060A0000060C0000060E00000800000008020000080400000806000008080000080A0000080C0000080E00000A0000000A0200000A0400000A0600000A0800000A0A00000A0C00000A0E00000C0000000C0200000C0400000C0600000C0800000C0
1004
A00000C0C00000C0E00000E0000000E0200000E0400000E0600000E0800000E0A00000E0C00000E0E00040000000400020004000400040006000400080004000A0004000C0004000E00040200000402020004020400040206000402080004020A0004020C0004020E000404000004040200040404000404060004040800040
1004
40A0004040C0004040E00040600000406020004060400040606000406080004060A0004060C0004060E00040800000408020004080400040806000408080004080A0004080C0004080E00040A0000040A0200040A0400040A0600040A0800040A0A00040A0C00040A0E00040C0000040C0200040C0400040C0600040C08000
1004
40C0A00040C0C00040C0E00040E0000040E0200040E0400040E0600040E0800040E0A00040E0C00040E0E00080000000800020008000400080006000800080008000A0008000C0008000E00080200000802020008020400080206000802080008020A0008020C0008020E00080400000804020008040400080406000804080
1004
008040A0008040C0008040E00080600000806020008060400080606000806080008060A0008060C0008060E00080800000808020008080400080806000808080008080A0008080C0008080E00080A0000080A0200080A0400080A0600080A0800080A0A00080A0C00080A0E00080C0000080C0200080C0400080C0600080C0
1004
800080C0A00080C0C00080C0E00080E0000080E0200080E0400080E0600080E0800080E0A00080E0C00080E0E000C0000000C0002000C0004000C0006000C0008000C000A000C000C000C000E000C0200000C0202000C0204000C0206000C0208000C020A000C020C000C020E000C0400000C0402000C0404000C0406000C0
1004
408000C040A000C040C000C040E000C0600000C0602000C0604000C0606000C0608000C060A000C060C000C060E000C0800000C0802000C0804000C0806000C0808000C080A000C080C000C080E000C0A00000C0A02000C0A04000C0A06000C0A08000C0A0A000C0A0C000C0A0E000C0C00000C0C02000C0C04000C0C06000
1004
C0C08000C0C0A000F0FBFF00A4A0A000808080000000FF0000FF000000FFFF00FF000000FF00FF00FFFF0000FFFFFF0000000000000000000000000000000000000000000000000000000000000000000000000000000000000000000000000000000000000000000000000000000000000000000000000000000000000000
1004
00000000000000000000000000000000000000000000000000000000000000000000000000000000000000000000000000000000000000000000000000000000000000000000000000000000000000000000000000000000000000000000000000000000000000000000000000000000000000000000000000000000000000
1004
000000000000000000000000000000000000000000000000000000000000000000000000000000000000000000000000000000FFFF0000000000000000000000000000000000000000000000000000000000000000FFFFFFFF0000000000000000000000000000000000000000000000000000000000000000FFFFFFFF0000
1004
000000000000000000000000000000000000000000000000000000000000FFFFFF0000000000000000000000000000000000000000000000000000000000000000FFFFFFFF0000000000000000000000000000000000000000000000000000000000000000FFFFFF0000000000000000000000000000000000000000000000
1004
000000000000000000FFFFFFFF0000000000000000000000000000000000000000000000000000000000000000FFFFFFFF00000000FFFFFFFFFFFFFFFFFFFFFFFFFFFFFFFFFFFFFFFFFFFFFFFFFFFFFFFFFFFF00000000000000000000000000000000000000000000000000FFFFFFFF000000000000000000000000000000
1004
000000000000000000FFFFFFFF000000000000000000000000000000000000000000000000FFFFFFFF000000000000000000000000000000000000000000000000FFFFFFFF000000000000000000000000000000000000000000000000FFFFFFFF000000000000000000000000000000000000000000000000FFFFFFFF0000
1004
0000000000000000000000000000000000000000000000FFFFFF0000000000000000000000000000000000000000000000000000000000000000000000000000000000000000000000000000000000000000000000000000000000000000000000000000000000000000000000000000000000000000000000000000000000
1004
00000000000000000000000000000000000000000000000000000000000000000000000000000000000000000000000000000000000000000000000000000000000000000000000000000000000000000000000000000000000000000000000000000000000000000000000000000000000000000000000000000000000000
1004
0000000000000000000000000000000000000000000000000000000000000000000000000000000000000000000000000000000000000000
  0
BLOCK_RECORD
  5
816
330
1
100
AcDbSymbolTableRecord
100
AcDbBlockTableRecord
  2
*D1
  0
BLOCK_RECORD
  5
856
330
1
100
AcDbSymbolTableRecord
100
AcDbBlockTableRecord
  2
*D2
  0
BLOCK_RECORD
  5
865
330
1
100
AcDbSymbolTableRecord
100
AcDbBlockTableRecord
  2
*D3
  0
BLOCK_RECORD
  5
874
330
1
100
AcDbSymbolTableRecord
100
AcDbBlockTableRecord
  2
*D4
  0
BLOCK_RECORD
  5
883
330
1
100
AcDbSymbolTableRecord
100
AcDbBlockTableRecord
  2
*D5
  0
BLOCK_RECORD
  5
892
330
1
100
AcDbSymbolTableRecord
100
AcDbBlockTableRecord
  2
*D6
  0
BLOCK_RECORD
  5
89F
330
1
100
AcDbSymbolTableRecord
100
AcDbBlockTableRecord
  2
*D7
  0
BLOCK_RECORD
  5
8AE
330
1
100
AcDbSymbolTableRecord
100
AcDbBlockTableRecord
  2
*D8
  0
BLOCK_RECORD
  5
9BF
330
1
100
AcDbSymbolTableRecord
100
AcDbBlockTableRecord
  2
*D9
  0
BLOCK_RECORD
  5
9CD
330
1
100
AcDbSymbolTableRecord
100
AcDbBlockTableRecord
  2
*D10
  0
BLOCK_RECORD
  5
A17
330
1
100
AcDbSymbolTableRecord
100
AcDbBlockTableRecord
  2
*D11
  0
BLOCK_RECORD
  5
A24
330
1
100
AcDbSymbolTableRecord
100
AcDbBlockTableRecord
  2
*D12
  0
BLOCK_RECORD
  5
A31
330
1
100
AcDbSymbolTableRecord
100
AcDbBlockTableRecord
  2
*D13
  0
BLOCK_RECORD
  5
A3E
330
1
100
AcDbSymbolTableRecord
100
AcDbBlockTableRecord
  2
*D14
  0
BLOCK_RECORD
  5
A4B
330
1
100
AcDbSymbolTableRecord
100
AcDbBlockTableRecord
  2
*D15
  0
BLOCK_RECORD
  5
B3A
330
1
100
AcDbSymbolTableRecord
100
AcDbBlockTableRecord
  2
*D16
  0
BLOCK_RECORD
  5
B7A
330
1
100
AcDbSymbolTableRecord
100
AcDbBlockTableRecord
  2
*D17
  0
BLOCK_RECORD
  5
B89
330
1
100
AcDbSymbolTableRecord
100
AcDbBlockTableRecord
  2
*D18
  0
BLOCK_RECORD
  5
B96
330
1
100
AcDbSymbolTableRecord
100
AcDbBlockTableRecord
  2
*D19
  0
BLOCK_RECORD
  5
BA5
330
1
100
AcDbSymbolTableRecord
100
AcDbBlockTableRecord
  2
*D20
  0
BLOCK_RECORD
  5
CA5
330
1
100
AcDbSymbolTableRecord
100
AcDbBlockTableRecord
  2
*D21
  0
BLOCK_RECORD
  5
CBF
330
1
100
AcDbSymbolTableRecord
100
AcDbBlockTableRecord
  2
*D22
  0
BLOCK_RECORD
  5
CCC
330
1
100
AcDbSymbolTableRecord
100
AcDbBlockTableRecord
  2
*D23
  0
BLOCK_RECORD
  5
CD9
330
1
100
AcDbSymbolTableRecord
100
AcDbBlockTableRecord
  2
*D24
  0
BLOCK_RECORD
  5
CE6
330
1
100
AcDbSymbolTableRecord
100
AcDbBlockTableRecord
  2
*D25
  0
BLOCK_RECORD
  5
FDC
330
1
100
AcDbSymbolTableRecord
100
AcDbBlockTableRecord
  2
_DOTSMALL
1001
CONTENTBLOCKICON
1071
        0
1004
2800000020000000200000000100080000000000000400000000000000000000000000000000000000000000000080000080000000808000800000008000800080800000C0C0C000C0DCC000F0CAA6000020400000206000002080000020A0000020C0000020E00000400000004020000040400000406000004080000040A0
1004
000040C0000040E00000600000006020000060400000606000006080000060A0000060C0000060E00000800000008020000080400000806000008080000080A0000080C0000080E00000A0000000A0200000A0400000A0600000A0800000A0A00000A0C00000A0E00000C0000000C0200000C0400000C0600000C0800000C0
1004
A00000C0C00000C0E00000E0000000E0200000E0400000E0600000E0800000E0A00000E0C00000E0E00040000000400020004000400040006000400080004000A0004000C0004000E00040200000402020004020400040206000402080004020A0004020C0004020E000404000004040200040404000404060004040800040
1004
40A0004040C0004040E00040600000406020004060400040606000406080004060A0004060C0004060E00040800000408020004080400040806000408080004080A0004080C0004080E00040A0000040A0200040A0400040A0600040A0800040A0A00040A0C00040A0E00040C0000040C0200040C0400040C0600040C08000
1004
40C0A00040C0C00040C0E00040E0000040E0200040E0400040E0600040E0800040E0A00040E0C00040E0E00080000000800020008000400080006000800080008000A0008000C0008000E00080200000802020008020400080206000802080008020A0008020C0008020E00080400000804020008040400080406000804080
1004
008040A0008040C0008040E00080600000806020008060400080606000806080008060A0008060C0008060E00080800000808020008080400080806000808080008080A0008080C0008080E00080A0000080A0200080A0400080A0600080A0800080A0A00080A0C00080A0E00080C0000080C0200080C0400080C0600080C0
1004
800080C0A00080C0C00080C0E00080E0000080E0200080E0400080E0600080E0800080E0A00080E0C00080E0E000C0000000C0002000C0004000C0006000C0008000C000A000C000C000C000E000C0200000C0202000C0204000C0206000C0208000C020A000C020C000C020E000C0400000C0402000C0404000C0406000C0
1004
408000C040A000C040C000C040E000C0600000C0602000C0604000C0606000C0608000C060A000C060C000C060E000C0800000C0802000C0804000C0806000C0808000C080A000C080C000C080E000C0A00000C0A02000C0A04000C0A06000C0A08000C0A0A000C0A0C000C0A0E000C0C00000C0C02000C0C04000C0C06000
1004
C0C08000C0C0A000F0FBFF00A4A0A000808080000000FF0000FF000000FFFF00FF000000FF00FF00FFFF0000FFFFFF00000000FFFF000000FF0000000000000000000000000000FF000000FFFF00000000000000FFFF0000FF0000000000000000000000000000FF0000FFFF00000000000000000000FFFFFF000000000000
1004
0000000000000000FFFFFF0000000000000000000000000000FFFF000000000000000000000000FFFF00000000000000000000000000000000FF00FFFF0000000000000000FFFF00FF00000000000000000000000000000000FF0000FFFF000000000000FFFF0000FF00000000000000000000000000000000FF00000000FF
1004
FF0000FFFF00000000FF00000000000000000000000000000000FF000000000000FFFF000000000000FF00000000000000000000000000000000FF00000000FFFFFFFFFFFF00000000FF00000000000000000000000000000000FF000000FFFF00000000FFFF000000FF00000000000000000000000000000000FF00FFFF00
1004
00000000000000FFFF00FF00000000000000000000000000000000FFFFFF00000000000000000000FFFFFF000000000000000000000000000000FFFF0000000000000000000000000000FFFF000000000000000000000000FFFF00FF0000000000000000000000000000FF00FFFF0000000000000000FFFF000000FF000000
1004
0000000000000000000000FF000000FFFF000000FFFFFFFF00000000FF0000000000000000000000000000FF00000000FFFFFFFFFFFFFFFF00000000FF0000000000000000000000000000FF00000000FFFFFFFF000000FFFF000000FF0000000000000000000000000000FF000000FFFF0000000000000000FFFF00FF0000
1004
000000000000000000000000FF00FFFF000000000000000000000000FFFF0000000000000000000000000000FFFF000000000000000000000000000000FFFFFF00000000000000000000FFFFFF00000000000000000000000000000000FF00FFFF0000000000000000FFFF00FF00000000000000000000000000000000FF00
1004
0000FFFF00000000FFFF000000FF00000000000000000000000000000000FF00000000FFFFFFFFFFFF00000000FF00000000000000000000000000000000FF000000000000FFFF000000000000FF00000000000000000000000000000000FF00000000FFFF0000FFFF00000000FF00000000000000000000000000000000FF
1004
0000FFFF000000000000FFFF0000FF00000000000000000000000000000000FF00FFFF0000000000000000FFFF00FF00000000000000000000000000000000FFFF000000000000000000000000FFFF0000000000000000000000000000FFFFFF0000000000000000000000000000FFFFFF00000000000000000000FFFF0000
1004
FF0000000000000000000000000000FF0000FFFF00000000000000FFFF000000FF0000000000000000000000000000FF000000FFFF000000
  0
BLOCK_RECORD
  5
13A4
330
1
100
AcDbSymbolTableRecord
100
AcDbBlockTableRecord
  2
TEN
1001
CONTENTBLOCKICON
1071
        0
1004
2800000020000000200000000100080000000000000400000000000000000000000000000000000000000000000080000080000000808000800000008000800080800000C0C0C000C0DCC000F0CAA6000020400000206000002080000020A0000020C0000020E00000400000004020000040400000406000004080000040A0
1004
000040C0000040E00000600000006020000060400000606000006080000060A0000060C0000060E00000800000008020000080400000806000008080000080A0000080C0000080E00000A0000000A0200000A0400000A0600000A0800000A0A00000A0C00000A0E00000C0000000C0200000C0400000C0600000C0800000C0
1004
A00000C0C00000C0E00000E0000000E0200000E0400000E0600000E0800000E0A00000E0C00000E0E00040000000400020004000400040006000400080004000A0004000C0004000E00040200000402020004020400040206000402080004020A0004020C0004020E000404000004040200040404000404060004040800040
1004
40A0004040C0004040E00040600000406020004060400040606000406080004060A0004060C0004060E00040800000408020004080400040806000408080004080A0004080C0004080E00040A0000040A0200040A0400040A0600040A0800040A0A00040A0C00040A0E00040C0000040C0200040C0400040C0600040C08000
1004
40C0A00040C0C00040C0E00040E0000040E0200040E0400040E0600040E0800040E0A00040E0C00040E0E00080000000800020008000400080006000800080008000A0008000C0008000E00080200000802020008020400080206000802080008020A0008020C0008020E00080400000804020008040400080406000804080
1004
008040A0008040C0008040E00080600000806020008060400080606000806080008060A0008060C0008060E00080800000808020008080400080806000808080008080A0008080C0008080E00080A0000080A0200080A0400080A0600080A0800080A0A00080A0C00080A0E00080C0000080C0200080C0400080C0600080C0
1004
800080C0A00080C0C00080C0E00080E0000080E0200080E0400080E0600080E0800080E0A00080E0C00080E0E000C0000000C0002000C0004000C0006000C0008000C000A000C000C000C000E000C0200000C0202000C0204000C0206000C0208000C020A000C020C000C020E000C0400000C0402000C0404000C0406000C0
1004
408000C040A000C040C000C040E000C0600000C0602000C0604000C0606000C0608000C060A000C060C000C060E000C0800000C0802000C0804000C0806000C0808000C080A000C080C000C080E000C0A00000C0A02000C0A04000C0A06000C0A08000C0A0A000C0A0C000C0A0E000C0C00000C0C02000C0C04000C0C06000
1004
C0C08000C0C0A000F0FBFF00A4A0A000808080000000FF0000FF000000FFFF00FF000000FF00FF00FFFF0000FFFFFF0000000000000000000000000000000000000000000000000000000000000000000000000000000000000000000000FFFFFF00000000000000000000000000000000000000000000000000FFFFFFFFFF
1004
0000FFFFFFFF00000000000000000000000000000000000000FFFF00FF000000FFFFFFFFFFFFFFFFFF000000000000000000000000000000FF00FFFF00000000000000000000FFFFFFFF00000000000000000000000000FF00FF00000000000000000000000000000000FF0000000000000000000000FF00FF000000000000
1004
0000000000000000000000FFFF000000000000000000FFFFFF00000000000000000000000000000000000000FFFF00000000000000FFFF000000000000000000000000000000000000000000FF00FF000000000000FF0000000000000000000000000000000000000000000000FFFF000000000000FF000000000000000000
1004
0000000000000000000000000000FF00FF00000000FFFF000000000000000000000000000000000000000000000000FFFF00000000FFFF000000000000000000000000000000000000000000000000FFFF00000000FFFF00000000000000000000000000000000000000000000000000FF00000000FFFF0000000000000000
1004
0000000000000000000000000000000000FFFF0000FF00FF0000000000000000000000000000000000000000000000000000FF0000FF00FF0000000000000000000000000000000000000000000000000000FF0000FF00FF00000000000000000000000000000000000000000000000000FFFF000000FFFF00000000000000
1004
000000000000000000000000000000000000FF00000000FFFF000000000000000000000000000000000000000000000000FFFF00000000FFFF000000000000000000000000000000000000000000000000FFFF00000000FFFF0000000000000000000000000000000000000000000000FF00FF0000000000FF000000000000
1004
0000000000000000000000000000000000FFFF000000000000FFFF000000000000000000000000000000000000000000FF00FF00000000000000FFFFFF00000000000000000000000000000000000000FFFF000000000000000000FF00FF0000000000000000000000000000000000FFFF0000000000000000000000FF00FF
1004
00000000000000000000000000000000FF00000000000000000000000000FF00FFFF0000000000000000000000FFFFFF000000000000000000000000000000FFFF00FF00000000FFFFFFFFFFFFFFFF000000000000000000000000000000000000FFFFFFFFFFFF0000FFFFFFFF000000000000000000000000000000000000
1004
000000000000FFFFFFFF00000000000000000000000000000000000000000000000000000000000000000000000000000000000000000000
  0
BLOCK_RECORD
  5
1661
330
1
100
AcDbSymbolTableRecord
100
AcDbBlockTableRecord
  2
*U28
  0
ENDTAB
  0
ENDSEC
  0
SECTION
  2
BLOCKS
  0
BLOCK
  5
D
330
A
100
AcDbEntity
  8
0
100
AcDbBlockBegin
  2
*MODEL_SPACE
 70
     0
 10
0.0
 20
0.0
 30
0.0
  3
*MODEL_SPACE
  1

  0
ENDBLK
  5
E
330
A
100
AcDbEntity
  8
0
100
AcDbBlockEnd
  0
BLOCK
  5
F
330
B
100
AcDbEntity
 67
     1
  8
0
100
AcDbBlockBegin
  2
*PAPER_SPACE
 70
     0
 10
0.0
 20
0.0
 30
0.0
  3
*PAPER_SPACE
  1

  0
ENDBLK
  5
10
330
B
100
AcDbEntity
 67
     1
  8
0
100
AcDbBlockEnd
  0
BLOCK
  5
7D5
330
7D1
100
AcDbEntity
  8
0
100
AcDbBlockBegin
  2
_OPEN30
 70
     0
 10
0.0
 20
0.0
 30
0.0
  3
_OPEN30
  1

  0
LINE
  5
7D2
330
7D1
100
AcDbEntity
  8
0
  6
BYBLOCK
 62
     0
100
AcDbLine
 10
-1.0
 20
0.26794919
 30
0.0
 11
0.0
 21
0.0
 31
0.0
  0
LINE
  5
7D3
330
7D1
100
AcDbEntity
  8
0
  6
BYBLOCK
 62
     0
100
AcDbLine
 10
0.0
 20
0.0
 30
0.0
 11
-1.0
 21
-0.26794919
 31
0.0
  0
LINE
  5
7D4
330
7D1
100
AcDbEntity
  8
0
  6
BYBLOCK
 62
     0
100
AcDbLine
 10
0.0
 20
0.0
 30
0.0
 11
-1.0
 21
0.0
 31
0.0
  0
ENDBLK
  5
7D6
330
7D1
100
AcDbEntity
  8
0
100
AcDbBlockEnd
  0
BLOCK
  5
820
330
816
100
AcDbEntity
  8
0
100
AcDbBlockBegin
  2
*D1
 70
     1
 10
0.0
 20
0.0
 30
0.0
  3
*D1
  1

  0
LINE
  5
1403
330
816
100
AcDbEntity
  8
SUNPOU
100
AcDbLine
 10
49.95829560030053
 20
168.936563826537
 30
0.0
 11
50.9582956003005
 21
168.936563826537
 31
0.0
  0
LINE
  5
1404
330
816
100
AcDbEntity
  8
SUNPOU
100
AcDbLine
 10
65.93355875008615
 20
298.9365638265372
 30
0.0
 11
50.9582956003005
 21
298.9365638265372
 31
0.0
  0
LINE
  5
1405
330
816
100
AcDbEntity
  8
SUNPOU
100
AcDbLine
 10
52.9582956003005
 20
173.936563826537
 30
0.0
 11
52.95829560030052
 21
293.9365638265373
 31
0.0
  0
INSERT
  5
1406
330
816
100
AcDbEntity
  8
SUNPOU
100
AcDbBlockReference
  2
_OPEN30
 10
52.9582956003005
 20
168.936563826537
 30
0.0
 41
5.0
 42
5.0
 43
5.0
 50
270.0
  0
INSERT
  5
1407
330
816
100
AcDbEntity
  8
SUNPOU
100
AcDbBlockReference
  2
_OPEN30
 10
52.95829560030052
 20
298.9365638265372
 30
0.0
 41
5.0
 42
5.0
 43
5.0
 50
90.0
  0
MTEXT
  5
1408
330
816
100
AcDbEntity
  8
SUNPOU
 62
     6
100
AcDbMText
 10
48.45829560030047
 20
233.936563826537
 30
0.0
 40
5.0
 41
0.0
 71
     5
 72
     1
  1
\A1;130
  7
SUNPOU
 11
0.0000000000000001
 21
1.0
 31
0.0
1001
ACAD
1000
MTEXTBEGIN
1070
    73
1070
     1
1070
    44
1040
1.0
1070
    74
1070
     0
1000
MTEXTEND
1000
MTEXTBEGIN
1070
    73
1070
     1
1070
    44
1040
1.0
1070
    74
1070
     0
1000
MTEXTEND
  0
POINT
  5
1409
330
816
100
AcDbEntity
  8
DEFPOINTS
 62
     0
100
AcDbPoint
 10
52.95829560030052
 20
168.936563826537
 30
0.0
  0
POINT
  5
140A
330
816
100
AcDbEntity
  8
DEFPOINTS
 62
     0
100
AcDbPoint
 10
68.93355875008615
 20
298.9365638265372
 30
0.0
  0
POINT
  5
140B
330
816
100
AcDbEntity
  8
DEFPOINTS
 62
     0
100
AcDbPoint
 10
52.95829560030052
 20
298.9365638265372
 30
0.0
  0
ENDBLK
  5
821
330
816
100
AcDbEntity
  8
0
100
AcDbBlockEnd
  0
BLOCK
  5
862
330
856
100
AcDbEntity
  8
0
100
AcDbBlockBegin
  2
*D2
 70
     1
 10
0.0
 20
0.0
 30
0.0
  3
*D2
  1

  0
LINE
  5
161D
330
856
100
AcDbEntity
  8
SUNPOU
100
AcDbLine
 10
32.53890404053731
 20
432.6456543383675
 30
0.0
 11
32.53890404053731
 21
412.7811552171021
 31
0.0
  0
LINE
  5
161E
330
856
100
AcDbEntity
  8
SUNPOU
100
AcDbLine
 10
41.53890404053732
 20
432.6456543383675
 30
0.0
 11
41.53890404053732
 21
412.7811552171021
 31
0.0
  0
LINE
  5
161F
330
856
100
AcDbEntity
  8
SUNPOU
100
AcDbLine
 10
27.53890404053731
 20
414.7811552171021
 30
0.0
 11
22.53890404053731
 21
414.7811552171021
 31
0.0
  0
LINE
  5
1620
330
856
100
AcDbEntity
  8
SUNPOU
100
AcDbLine
 10
41.53890404053732
 20
414.7811552171021
 30
0.0
 11
46.53890404053732
 21
414.7811552171021
 31
0.0
  0
MTEXT
  5
1621
330
856
100
AcDbEntity
  8
SUNPOU
 62
     6
100
AcDbMText
 10
37.62699687073359
 20
410.8057337616921
 30
0.0
 40
5.0
 41
0.0
 71
     5
 72
     1
  1
\A1;90
  7
SUNPOU
 11
-1.0
 21
0.0000000000000001
 31
0.0
1001
ACAD
1000
MTEXTBEGIN
1070
    73
1070
     1
1070
    44
1040
1.0
1070
    74
1070
     0
1000
MTEXTEND
1000
MTEXTBEGIN
1070
    73
1070
     1
1070
    44
1040
1.0
1070
    74
1070
     0
1000
MTEXTEND
  0
LINE
  5
1622
330
856
100
AcDbEntity
  8
SUNPOU
100
AcDbLine
 10
32.53890404053731
 20
414.7811552171021
 30
0.0
 11
41.53890404053732
 21
414.7811552171021
 31
0.0
  0
INSERT
  5
1623
330
856
100
AcDbEntity
  8
SUNPOU
100
AcDbBlockReference
  2
_OPEN30
 10
32.53890404053731
 20
414.7811552171021
 30
0.0
 41
5.0
 42
5.0
 43
5.0
  0
INSERT
  5
1624
330
856
100
AcDbEntity
  8
SUNPOU
100
AcDbBlockReference
  2
_DOTSMALL
 10
41.53890404053732
 20
414.7811552171021
 30
0.0
 41
5.0
 42
5.0
 43
5.0
 50
180.0
  0
POINT
  5
1625
330
856
100
AcDbEntity
  8
DEFPOINTS
 62
     0
100
AcDbPoint
 10
32.53890404053731
 20
435.6456543383673
 30
0.0
  0
POINT
  5
1626
330
856
100
AcDbEntity
  8
DEFPOINTS
 62
     0
100
AcDbPoint
 10
41.53890404053732
 20
435.6456543383673
 30
0.0
  0
POINT
  5
1627
330
856
100
AcDbEntity
  8
DEFPOINTS
 62
     0
100
AcDbPoint
 10
41.53890404053732
 20
414.7811552171021
 30
0.0
  0
ENDBLK
  5
863
330
856
100
AcDbEntity
  8
0
100
AcDbBlockEnd
  0
BLOCK
  5
871
330
865
100
AcDbEntity
  8
0
100
AcDbBlockBegin
  2
*D3
 70
     1
 10
0.0
 20
0.0
 30
0.0
  3
*D3
  1

  0
LINE
  5
1628
330
865
100
AcDbEntity
  8
SUNPOU
100
AcDbLine
 10
41.53890404053732
 20
432.6456543383675
 30
0.0
 11
41.53890404053732
 21
412.7811552171021
 31
0.0
  0
LINE
  5
1629
330
865
100
AcDbEntity
  8
SUNPOU
100
AcDbLine
 10
43.53890404053731
 20
429.2456543383673
 30
0.0
 11
43.53890404053731
 21
412.7811552171021
 31
0.0
  0
LINE
  5
162A
330
865
100
AcDbEntity
  8
SUNPOU
100
AcDbLine
 10
36.53890404053731
 20
414.7811552171021
 30
0.0
 11
31.53890404053731
 21
414.7811552171021
 31
0.0
  0
LINE
  5
162B
330
865
100
AcDbEntity
  8
SUNPOU
100
AcDbLine
 10
48.53890404053732
 20
414.7811552171021
 30
0.0
 11
53.53890404053732
 21
414.7811552171021
 31
0.0
  0
MTEXT
  5
162C
330
865
100
AcDbEntity
  8
SUNPOU
 62
     6
100
AcDbMText
 10
52.3253622562813
 20
410.4309116399893
 30
0.0
 40
5.0
 41
0.0
 71
     5
 72
     1
  1
\A1;20
  7
SUNPOU
 11
-1.0
 21
0.0000000000000001
 31
0.0
1001
ACAD
1000
MTEXTBEGIN
1070
    73
1070
     1
1070
    44
1040
1.0
1070
    74
1070
     0
1000
MTEXTEND
1000
MTEXTBEGIN
1070
    73
1070
     1
1070
    44
1040
1.0
1070
    74
1070
     0
1000
MTEXTEND
  0
LINE
  5
162D
330
865
100
AcDbEntity
  8
SUNPOU
100
AcDbLine
 10
41.53890404053732
 20
414.7811552171021
 30
0.0
 11
43.53890404053731
 21
414.7811552171021
 31
0.0
  0
INSERT
  5
162E
330
865
100
AcDbEntity
  8
SUNPOU
100
AcDbBlockReference
  2
TEN
 10
41.53890404053732
 20
414.7811552171021
 30
0.0
 41
5.0
 42
5.0
 43
5.0
  0
INSERT
  5
162F
330
865
100
AcDbEntity
  8
SUNPOU
100
AcDbBlockReference
  2
_OPEN30
 10
43.53890404053731
 20
414.7811552171021
 30
0.0
 41
5.0
 42
5.0
 43
5.0
 50
180.0
  0
POINT
  5
1630
330
865
100
AcDbEntity
  8
DEFPOINTS
 62
     0
100
AcDbPoint
 10
41.53890404053732
 20
435.6456543383673
 30
0.0
  0
POINT
  5
1631
330
865
100
AcDbEntity
  8
DEFPOINTS
 62
     0
100
AcDbPoint
 10
43.53890404053731
 20
432.2456543383673
 30
0.0
  0
POINT
  5
1632
330
865
100
AcDbEntity
  8
DEFPOINTS
 62
     0
100
AcDbPoint
 10
43.53890404053731
 20
414.7811552171021
 30
0.0
  0
ENDBLK
  5
872
330
865
100
AcDbEntity
  8
0
100
AcDbBlockEnd
  0
BLOCK
  5
87E
330
874
100
AcDbEntity
  8
0
100
AcDbBlockBegin
  2
*D4
 70
     1
 10
0.0
 20
0.0
 30
0.0
  3
*D4
  1

  0
LINE
  5
1444
330
874
100
AcDbEntity
  8
SUNPOU
100
AcDbLine
 10
92.15729396692472
 20
497.2456543383676
 30
0.0
 11
61.36179128565756
 21
497.2456543383676
 31
0.0
  0
LINE
  5
1445
330
874
100
AcDbEntity
  8
SUNPOU
100
AcDbLine
 10
65.15729396692471
 20
432.2456543383673
 30
0.0
 11
61.36179128565753
 21
432.2456543383673
 31
0.0
  0
LINE
  5
1446
330
874
100
AcDbEntity
  8
SUNPOU
100
AcDbLine
 10
63.36179128565754
 20
492.2456543383673
 30
0.0
 11
63.36179128565754
 21
437.2456543383673
 31
0.0
  0
INSERT
  5
1447
330
874
100
AcDbEntity
  8
SUNPOU
100
AcDbBlockReference
  2
_OPEN30
 10
63.36179128565756
 20
497.2456543383676
 30
0.0
 41
5.0
 42
5.0
 43
5.0
 50
90.0
  0
INSERT
  5
1448
330
874
100
AcDbEntity
  8
SUNPOU
100
AcDbBlockReference
  2
_OPEN30
 10
63.36179128565754
 20
432.2456543383673
 30
0.0
 41
5.0
 42
5.0
 43
5.0
 50
270.0
  0
MTEXT
  5
1449
330
874
100
AcDbEntity
  8
SUNPOU
 62
     6
100
AcDbMText
 10
58.86179128565747
 20
464.7456543383674
 30
0.0
 40
5.0
 41
0.0
 71
     5
 72
     1
  1
\A1;650
  7
SUNPOU
 11
0.0000000000000001
 21
1.0
 31
0.0
1001
ACAD
1000
MTEXTBEGIN
1070
    73
1070
     1
1070
    44
1040
1.0
1070
    74
1070
     0
1000
MTEXTEND
1000
MTEXTBEGIN
1070
    73
1070
     1
1070
    44
1040
1.0
1070
    74
1070
     0
1000
MTEXTEND
  0
POINT
  5
144A
330
874
100
AcDbEntity
  8
DEFPOINTS
 62
     0
100
AcDbPoint
 10
95.15729396692472
 20
497.2456543383676
 30
0.0
  0
POINT
  5
144B
330
874
100
AcDbEntity
  8
DEFPOINTS
 62
     0
100
AcDbPoint
 10
68.15729396692471
 20
432.2456543383673
 30
0.0
  0
POINT
  5
144C
330
874
100
AcDbEntity
  8
DEFPOINTS
 62
     0
100
AcDbPoint
 10
63.36179128565754
 20
432.2456543383673
 30
0.0
  0
ENDBLK
  5
87F
330
874
100
AcDbEntity
  8
0
100
AcDbBlockEnd
  0
BLOCK
  5
88F
330
883
100
AcDbEntity
  8
0
100
AcDbBlockBegin
  2
*D5
 70
     1
 10
0.0
 20
0.0
 30
0.0
  3
*D5
  1

  0
LINE
  5
1480
330
883
100
AcDbEntity
  8
SUNPOU
100
AcDbLine
 10
106.6572939669248
 20
524.0456543383674
 30
0.0
 11
106.6572939669248
 21
543.5271107846745
 31
0.0
  0
LINE
  5
1481
330
883
100
AcDbEntity
  8
SUNPOU
100
AcDbLine
 10
106.9572939669249
 20
524.0456543383674
 30
0.0
 11
106.9572939669249
 21
543.5271107846745
 31
0.0
  0
LINE
  5
1482
330
883
100
AcDbEntity
  8
SUNPOU
100
AcDbLine
 10
101.6572939669247
 20
541.5271107846745
 30
0.0
 11
96.65729396692483
 21
541.5271107846745
 31
0.0
  0
LINE
  5
1483
330
883
100
AcDbEntity
  8
SUNPOU
100
AcDbLine
 10
111.9572939669249
 20
541.5271107846745
 30
0.0
 11
116.9572939669249
 21
541.5271107846745
 31
0.0
  0
MTEXT
  5
1484
330
883
100
AcDbEntity
  8
SUNPOU
 62
     6
100
AcDbMText
 10
103.3445898112784
 20
536.7714001259629
 30
0.0
 40
5.0
 41
0.0
 71
     5
 72
     1
  1
\A1;3
  7
SUNPOU
 11
-1.0
 21
0.0000000000000001
 31
0.0
1001
ACAD
1000
MTEXTBEGIN
1070
    73
1070
     1
1070
    44
1040
1.0
1070
    74
1070
     0
1000
MTEXTEND
1000
MTEXTBEGIN
1070
    73
1070
     1
1070
    44
1040
1.0
1070
    74
1070
     0
1000
MTEXTEND
  0
LINE
  5
1485
330
883
100
AcDbEntity
  8
SUNPOU
100
AcDbLine
 10
106.6572939669248
 20
541.5271107846745
 30
0.0
 11
106.9572939669249
 21
541.5271107846745
 31
0.0
  0
INSERT
  5
1486
330
883
100
AcDbEntity
  8
SUNPOU
100
AcDbBlockReference
  2
_OPEN30
 10
106.6572939669248
 20
541.5271107846745
 30
0.0
 41
5.0
 42
5.0
 43
5.0
  0
INSERT
  5
1487
330
883
100
AcDbEntity
  8
SUNPOU
100
AcDbBlockReference
  2
_OPEN30
 10
106.9572939669249
 20
541.5271107846745
 30
0.0
 41
5.0
 42
5.0
 43
5.0
 50
180.0
  0
POINT
  5
1488
330
883
100
AcDbEntity
  8
DEFPOINTS
 62
     0
100
AcDbPoint
 10
106.6572939669248
 20
521.0456543383675
 30
0.0
  0
POINT
  5
1489
330
883
100
AcDbEntity
  8
DEFPOINTS
 62
     0
100
AcDbPoint
 10
106.9572939669249
 20
521.0456543383675
 30
0.0
  0
POINT
  5
148A
330
883
100
AcDbEntity
  8
DEFPOINTS
 62
     0
100
AcDbPoint
 10
106.9572939669249
 20
541.5271107846745
 30
0.0
  0
ENDBLK
  5
890
330
883
100
AcDbEntity
  8
0
100
AcDbBlockEnd
  0
BLOCK
  5
89C
330
892
100
AcDbEntity
  8
0
100
AcDbBlockBegin
  2
*D6
 70
     1
 10
0.0
 20
0.0
 30
0.0
  3
*D6
  1

  0
LINE
  5
13FA
330
892
100
AcDbEntity
  8
SUNPOU
100
AcDbLine
 10
106.9572939669249
 20
524.0456543383674
 30
0.0
 11
106.9572939669249
 21
543.5271107846745
 31
0.0
  0
LINE
  5
13FB
330
892
100
AcDbEntity
  8
SUNPOU
100
AcDbLine
 10
247.1572939669246
 20
523.8456543383675
 30
0.0
 11
247.1572939669246
 21
543.5271107846745
 31
0.0
  0
LINE
  5
13FC
330
892
100
AcDbEntity
  8
SUNPOU
100
AcDbLine
 10
111.9572939669249
 20
541.5271107846745
 30
0.0
 11
242.1572939669247
 21
541.5271107846745
 31
0.0
  0
MTEXT
  5
13FD
330
892
100
AcDbEntity
  8
SUNPOU
 62
     6
100
AcDbMText
 10
179.4613211603405
 20
536.9415950569622
 30
0.0
 40
5.0
 41
0.0
 71
     5
 72
     1
  1
\A1;DH
  7
SUNPOU
 11
-1.0
 21
0.0000000000000001
 31
0.0
1001
ACAD
1000
MTEXTBEGIN
1070
    73
1070
     1
1070
    44
1040
1.0
1070
    74
1070
     0
1000
MTEXTEND
1000
MTEXTBEGIN
1070
    73
1070
     1
1070
    44
1040
1.0
1070
    74
1070
     0
1000
MTEXTEND
  0
INSERT
  5
13FE
330
892
100
AcDbEntity
  8
SUNPOU
100
AcDbBlockReference
  2
_OPEN30
 10
106.9572939669249
 20
541.5271107846745
 30
0.0
 41
5.0
 42
5.0
 43
5.0
 50
180.0
  0
INSERT
  5
13FF
330
892
100
AcDbEntity
  8
SUNPOU
100
AcDbBlockReference
  2
_OPEN30
 10
247.1572939669246
 20
541.5271107846745
 30
0.0
 41
5.0
 42
5.0
 43
5.0
  0
POINT
  5
1400
330
892
100
AcDbEntity
  8
DEFPOINTS
 62
     0
100
AcDbPoint
 10
106.9572939669249
 20
521.0456543383675
 30
0.0
  0
POINT
  5
1401
330
892
100
AcDbEntity
  8
DEFPOINTS
 62
     0
100
AcDbPoint
 10
247.1572939669246
 20
520.8456543383674
 30
0.0
  0
POINT
  5
1402
330
892
100
AcDbEntity
  8
DEFPOINTS
 62
     0
100
AcDbPoint
 10
247.1572939669246
 20
541.5271107846745
 30
0.0
  0
ENDBLK
  5
89D
330
892
100
AcDbEntity
  8
0
100
AcDbBlockEnd
  0
BLOCK
  5
8AB
330
89F
100
AcDbEntity
  8
0
100
AcDbBlockBegin
  2
*D7
 70
     1
 10
0.0
 20
0.0
 30
0.0
  3
*D7
  1

  0
LINE
  5
14D7
330
89F
100
AcDbEntity
  8
SUNPOU
100
AcDbLine
 10
247.1572939669246
 20
523.8456543383675
 30
0.0
 11
247.1572939669246
 21
543.5271107846745
 31
0.0
  0
LINE
  5
14D8
330
89F
100
AcDbEntity
  8
SUNPOU
100
AcDbLine
 10
248.1572939669247
 20
523.8456543383675
 30
0.0
 11
248.1572939669247
 21
543.5271107846745
 31
0.0
  0
LINE
  5
14D9
330
89F
100
AcDbEntity
  8
SUNPOU
100
AcDbLine
 10
242.1572939669247
 20
541.5271107846745
 30
0.0
 11
237.1572939669245
 21
541.5271107846745
 31
0.0
  0
LINE
  5
14DA
330
89F
100
AcDbEntity
  8
SUNPOU
100
AcDbLine
 10
253.1572939669247
 20
541.5271107846745
 30
0.0
 11
258.1572939669247
 21
541.5271107846745
 31
0.0
  0
MTEXT
  5
14DB
330
89F
100
AcDbEntity
  8
SUNPOU
 62
     6
100
AcDbMText
 10
257.4783002630073
 20
537.11605518025
 30
0.0
 40
5.0
 41
0.0
 71
     5
 72
     1
  1
\A1;10
  7
SUNPOU
 11
-1.0
 21
0.0000000000000001
 31
0.0
1001
ACAD
1000
MTEXTBEGIN
1070
    73
1070
     1
1070
    44
1040
1.0
1070
    74
1070
     0
1000
MTEXTEND
1000
MTEXTBEGIN
1070
    73
1070
     1
1070
    44
1040
1.0
1070
    74
1070
     0
1000
MTEXTEND
  0
LINE
  5
14DC
330
89F
100
AcDbEntity
  8
SUNPOU
100
AcDbLine
 10
247.1572939669246
 20
541.5271107846745
 30
0.0
 11
248.1572939669247
 21
541.5271107846745
 31
0.0
  0
INSERT
  5
14DD
330
89F
100
AcDbEntity
  8
SUNPOU
100
AcDbBlockReference
  2
_OPEN30
 10
247.1572939669246
 20
541.5271107846745
 30
0.0
 41
5.0
 42
5.0
 43
5.0
  0
INSERT
  5
14DE
330
89F
100
AcDbEntity
  8
SUNPOU
100
AcDbBlockReference
  2
_OPEN30
 10
248.1572939669247
 20
541.5271107846745
 30
0.0
 41
5.0
 42
5.0
 43
5.0
 50
180.0
  0
POINT
  5
14DF
330
89F
100
AcDbEntity
  8
DEFPOINTS
 62
     0
100
AcDbPoint
 10
247.1572939669246
 20
520.8456543383674
 30
0.0
  0
POINT
  5
14E0
330
89F
100
AcDbEntity
  8
DEFPOINTS
 62
     0
100
AcDbPoint
 10
248.1572939669247
 20
520.8456543383674
 30
0.0
  0
POINT
  5
14E1
330
89F
100
AcDbEntity
  8
DEFPOINTS
 62
     0
100
AcDbPoint
 10
248.1572939669247
 20
541.5271107846745
 30
0.0
  0
ENDBLK
  5
8AC
330
89F
100
AcDbEntity
  8
0
100
AcDbBlockEnd
  0
BLOCK
  5
8B8
330
8AE
100
AcDbEntity
  8
0
100
AcDbBlockBegin
  2
*D8
 70
     1
 10
0.0
 20
0.0
 30
0.0
  3
*D8
  1

  0
LINE
  5
13F1
330
8AE
100
AcDbEntity
  8
SUNPOU
100
AcDbLine
 10
248.1572939669247
 20
523.8456543383675
 30
0.0
 11
248.1572939669247
 21
559.280344077451
 31
0.0
  0
LINE
  5
13F2
330
8AE
100
AcDbEntity
  8
SUNPOU
100
AcDbLine
 10
106.6572939669248
 20
526.0456543383675
 30
0.0
 11
106.6572939669248
 21
559.280344077451
 31
0.0
  0
LINE
  5
13F3
330
8AE
100
AcDbEntity
  8
SUNPOU
100
AcDbLine
 10
243.1572939669246
 20
557.2803440774507
 30
0.0
 11
111.6572939669248
 21
557.2803440774507
 31
0.0
  0
MTEXT
  5
13F4
330
8AE
100
AcDbEntity
  8
SUNPOU
 62
     6
100
AcDbMText
 10
177.4072939669245
 20
551.6204932458129
 30
0.0
 40
5.0
 41
0.0
 71
     5
 72
     1
  1
\A1;H
  7
SUNPOU
 11
-1.0
 21
0.0000000000000001
 31
0.0
1001
ACAD
1000
MTEXTBEGIN
1070
    73
1070
     1
1070
    44
1040
1.0
1070
    74
1070
     0
1000
MTEXTEND
1000
MTEXTBEGIN
1070
    73
1070
     1
1070
    44
1040
1.0
1070
    74
1070
     0
1000
MTEXTEND
  0
INSERT
  5
13F5
330
8AE
100
AcDbEntity
  8
SUNPOU
100
AcDbBlockReference
  2
_OPEN30
 10
248.1572939669247
 20
557.2803440774507
 30
0.0
 41
5.0
 42
5.0
 43
5.0
  0
INSERT
  5
13F6
330
8AE
100
AcDbEntity
  8
SUNPOU
100
AcDbBlockReference
  2
_OPEN30
 10
106.6572939669248
 20
557.2803440774507
 30
0.0
 41
5.0
 42
5.0
 43
5.0
 50
180.0
  0
POINT
  5
13F7
330
8AE
100
AcDbEntity
  8
DEFPOINTS
 62
     0
100
AcDbPoint
 10
248.1572939669247
 20
520.8456543383674
 30
0.0
  0
POINT
  5
13F8
330
8AE
100
AcDbEntity
  8
DEFPOINTS
 62
     0
100
AcDbPoint
 10
106.6572939669248
 20
523.0456543383675
 30
0.0
  0
POINT
  5
13F9
330
8AE
100
AcDbEntity
  8
DEFPOINTS
 62
     0
100
AcDbPoint
 10
106.6572939669248
 20
557.2803440774507
 30
0.0
  0
ENDBLK
  5
8B9
330
8AE
100
AcDbEntity
  8
0
100
AcDbBlockEnd
  0
BLOCK
  5
9CA
330
9BF
100
AcDbEntity
  8
0
100
AcDbBlockBegin
  2
*D9
 70
     1
 10
0.0
 20
0.0
 30
0.0
  3
*D9
  1

  0
LINE
  5
143B
330
9BF
100
AcDbEntity
  8
SUNPOU
100
AcDbLine
 10
67.93355875008626
 20
300.9365633497001
 30
0.0
 11
67.93355875008626
 21
321.3346080769166
 31
0.0
  0
LINE
  5
143C
330
9BF
100
AcDbEntity
  8
SUNPOU
100
AcDbLine
 10
197.9335587500859
 20
300.9365633497001
 30
0.0
 11
197.9335587500859
 21
321.3346080769166
 31
0.0
  0
LINE
  5
143D
330
9BF
100
AcDbEntity
  8
SUNPOU
100
AcDbLine
 10
72.93355875008626
 20
319.3346080769167
 30
0.0
 11
192.9335587500858
 21
319.3346080769167
 31
0.0
  0
MTEXT
  5
143E
330
9BF
100
AcDbEntity
  8
SUNPOU
 62
     6
100
AcDbMText
 10
135.8513358582362
 20
314.7127014027021
 30
0.0
 40
5.0
 41
0.0
 71
     5
 72
     1
  1
\A1;130
  7
SUNPOU
 11
-1.0
 21
0.0000000000000001
 31
0.0
1001
ACAD
1000
MTEXTBEGIN
1070
    73
1070
     1
1070
    44
1040
1.0
1070
    74
1070
     0
1000
MTEXTEND
1000
MTEXTBEGIN
1070
    73
1070
     1
1070
    44
1040
1.0
1070
    74
1070
     0
1000
MTEXTEND
  0
INSERT
  5
143F
330
9BF
100
AcDbEntity
  8
SUNPOU
100
AcDbBlockReference
  2
_OPEN30
 10
67.93355875008626
 20
319.3346080769167
 30
0.0
 41
5.0
 42
5.0
 43
5.0
 50
180.0
  0
INSERT
  5
1440
330
9BF
100
AcDbEntity
  8
SUNPOU
100
AcDbBlockReference
  2
_OPEN30
 10
197.9335587500859
 20
319.3346080769167
 30
0.0
 41
5.0
 42
5.0
 43
5.0
  0
POINT
  5
1441
330
9BF
100
AcDbEntity
  8
DEFPOINTS
 62
     0
100
AcDbPoint
 10
67.93355875008626
 20
297.9365633497001
 30
0.0
  0
POINT
  5
1442
330
9BF
100
AcDbEntity
  8
DEFPOINTS
 62
     0
100
AcDbPoint
 10
197.9335587500859
 20
297.9365633497001
 30
0.0
  0
POINT
  5
1443
330
9BF
100
AcDbEntity
  8
DEFPOINTS
 62
     0
100
AcDbPoint
 10
197.9335587500859
 20
319.3346080769167
 30
0.0
  0
ENDBLK
  5
9CB
330
9BF
100
AcDbEntity
  8
0
100
AcDbBlockEnd
  0
BLOCK
  5
9D7
330
9CD
100
AcDbEntity
  8
0
100
AcDbBlockBegin
  2
*D10
 70
     1
 10
0.0
 20
0.0
 30
0.0
  3
*D10
  1

  0
LINE
  5
13E8
330
9CD
100
AcDbEntity
  8
SUNPOU
100
AcDbLine
 10
197.9335587500859
 20
300.9365633497001
 30
0.0
 11
197.9335587500859
 21
321.3346080769166
 31
0.0
  0
LINE
  5
13E9
330
9CD
100
AcDbEntity
  8
SUNPOU
100
AcDbLine
 10
240.9335587500859
 20
322.3346080769167
 30
0.0
 11
240.9335587500859
 21
321.3346080769166
 31
0.0
  0
LINE
  5
13EA
330
9CD
100
AcDbEntity
  8
SUNPOU
100
AcDbLine
 10
202.9335587500859
 20
319.3346080769167
 30
0.0
 11
235.9335587500858
 21
319.3346080769167
 31
0.0
  0
MTEXT
  5
13EB
330
9CD
100
AcDbEntity
  8
SUNPOU
 62
     6
100
AcDbMText
 10
220.8833797205473
 20
314.7271850074556
 30
0.0
 40
5.0
 41
0.0
 71
     5
 72
     1
  1
\A1;43
  7
SUNPOU
 11
-1.0
 21
0.0000000000000001
 31
0.0
1001
ACAD
1000
MTEXTBEGIN
1070
    73
1070
     1
1070
    44
1040
1.0
1070
    74
1070
     0
1000
MTEXTEND
1000
MTEXTBEGIN
1070
    73
1070
     1
1070
    44
1040
1.0
1070
    74
1070
     0
1000
MTEXTEND
  0
INSERT
  5
13EC
330
9CD
100
AcDbEntity
  8
SUNPOU
100
AcDbBlockReference
  2
_OPEN30
 10
197.9335587500859
 20
319.3346080769167
 30
0.0
 41
5.0
 42
5.0
 43
5.0
 50
180.0
  0
INSERT
  5
13ED
330
9CD
100
AcDbEntity
  8
SUNPOU
100
AcDbBlockReference
  2
_OPEN30
 10
240.9335587500859
 20
319.3346080769167
 30
0.0
 41
5.0
 42
5.0
 43
5.0
  0
POINT
  5
13EE
330
9CD
100
AcDbEntity
  8
DEFPOINTS
 62
     0
100
AcDbPoint
 10
197.9335587500859
 20
297.9365633497001
 30
0.0
  0
POINT
  5
13EF
330
9CD
100
AcDbEntity
  8
DEFPOINTS
 62
     0
100
AcDbPoint
 10
240.9335587500859
 20
319.3346080769167
 30
0.0
  0
POINT
  5
13F0
330
9CD
100
AcDbEntity
  8
DEFPOINTS
 62
     0
100
AcDbPoint
 10
240.9335587500859
 20
319.3346080769167
 30
0.0
  0
ENDBLK
  5
9D8
330
9CD
100
AcDbEntity
  8
0
100
AcDbBlockEnd
  0
BLOCK
  5
A21
330
A17
100
AcDbEntity
  8
0
100
AcDbBlockBegin
  2
*D11
 70
     1
 10
0.0
 20
0.0
 30
0.0
  3
*D11
  1

  0
LINE
  5
1494
330
A17
100
AcDbEntity
  8
SUNPOU
100
AcDbLine
 10
272.7616346218144
 20
138.9365638265374
 30
0.0
 11
271.7616346218436
 21
138.9365638265374
 31
0.0
  0
LINE
  5
1495
330
A17
100
AcDbEntity
  8
SUNPOU
100
AcDbLine
 10
265.5589696580864
 20
163.9365638265374
 30
0.0
 11
271.7616346218436
 21
163.9365638265374
 31
0.0
  0
LINE
  5
1496
330
A17
100
AcDbEntity
  8
SUNPOU
100
AcDbLine
 10
269.7616346218436
 20
143.9365638265373
 30
0.0
 11
269.7616346218436
 21
158.9365638265373
 31
0.0
  0
INSERT
  5
1497
330
A17
100
AcDbEntity
  8
SUNPOU
100
AcDbBlockReference
  2
_OPEN30
 10
269.7616346218436
 20
138.9365638265374
 30
0.0
 41
5.0
 42
5.0
 43
5.0
 50
270.0
  0
INSERT
  5
1498
330
A17
100
AcDbEntity
  8
SUNPOU
100
AcDbBlockReference
  2
_OPEN30
 10
269.7616346218436
 20
163.9365638265374
 30
0.0
 41
5.0
 42
5.0
 43
5.0
 50
90.0
  0
MTEXT
  5
1499
330
A17
100
AcDbEntity
  8
SUNPOU
 62
     6
100
AcDbMText
 10
265.2616346218436
 20
151.4365638265374
 30
0.0
 40
5.0
 41
0.0
 71
     5
 72
     1
  1
\A1;25
  7
SUNPOU
 11
0.0000000000000001
 21
1.0
 31
0.0
1001
ACAD
1000
MTEXTBEGIN
1070
    73
1070
     1
1070
    44
1040
1.0
1070
    74
1070
     0
1000
MTEXTEND
1000
MTEXTBEGIN
1070
    73
1070
     1
1070
    44
1040
1.0
1070
    74
1070
     0
1000
MTEXTEND
  0
POINT
  5
149A
330
A17
100
AcDbEntity
  8
DEFPOINTS
 62
     0
100
AcDbPoint
 10
269.7616346218144
 20
138.9365638265374
 30
0.0
  0
POINT
  5
149B
330
A17
100
AcDbEntity
  8
DEFPOINTS
 62
     0
100
AcDbPoint
 10
262.5589696580866
 20
163.9365638265374
 30
0.0
  0
POINT
  5
149C
330
A17
100
AcDbEntity
  8
DEFPOINTS
 62
     0
100
AcDbPoint
 10
269.7616346218436
 20
163.9365638265374
 30
0.0
  0
ENDBLK
  5
A22
330
A17
100
AcDbEntity
  8
0
100
AcDbBlockEnd
  0
BLOCK
  5
A2E
330
A24
100
AcDbEntity
  8
0
100
AcDbBlockBegin
  2
*D12
 70
     1
 10
0.0
 20
0.0
 30
0.0
  3
*D12
  1

  0
LINE
  5
148B
330
A24
100
AcDbEntity
  8
SUNPOU
100
AcDbLine
 10
265.5589696580864
 20
163.9365638265374
 30
0.0
 11
271.7616346218436
 21
163.9365638265374
 31
0.0
  0
LINE
  5
148C
330
A24
100
AcDbEntity
  8
SUNPOU
100
AcDbLine
 10
253.9335587500858
 20
390.6388128608927
 30
0.0
 11
271.7616346218436
 21
390.6388128608927
 31
0.0
  0
LINE
  5
148D
330
A24
100
AcDbEntity
  8
SUNPOU
100
AcDbLine
 10
269.7616346218436
 20
168.9365638265373
 30
0.0
 11
269.7616346218436
 21
385.6388128608926
 31
0.0
  0
INSERT
  5
148E
330
A24
100
AcDbEntity
  8
SUNPOU
100
AcDbBlockReference
  2
_OPEN30
 10
269.7616346218436
 20
163.9365638265374
 30
0.0
 41
5.0
 42
5.0
 43
5.0
 50
270.0
  0
INSERT
  5
148F
330
A24
100
AcDbEntity
  8
SUNPOU
100
AcDbBlockReference
  2
_OPEN30
 10
269.7616346218436
 20
390.6388128608927
 30
0.0
 41
5.0
 42
5.0
 43
5.0
 50
90.0
  0
MTEXT
  5
1490
330
A24
100
AcDbEntity
  8
SUNPOU
 62
     6
100
AcDbMText
 10
265.2616346218436
 20
277.2876883437151
 30
0.0
 40
5.0
 41
0.0
 71
     5
 72
     1
  1
\A1;250～350
  7
SUNPOU
 11
0.0000000000000001
 21
1.0
 31
0.0
1001
ACAD
1000
MTEXTBEGIN
1070
    73
1070
     1
1070
    44
1040
1.0
1070
    74
1070
     0
1000
MTEXTEND
1000
MTEXTBEGIN
1070
    73
1070
     1
1070
    44
1040
1.0
1070
    74
1070
     0
1000
MTEXTEND
  0
POINT
  5
1491
330
A24
100
AcDbEntity
  8
DEFPOINTS
 62
     0
100
AcDbPoint
 10
262.5589696580866
 20
163.9365638265374
 30
0.0
  0
POINT
  5
1492
330
A24
100
AcDbEntity
  8
DEFPOINTS
 62
     0
100
AcDbPoint
 10
250.9335587500859
 20
390.6388128608927
 30
0.0
  0
POINT
  5
1493
330
A24
100
AcDbEntity
  8
DEFPOINTS
 62
     0
100
AcDbPoint
 10
269.7616346218436
 20
390.6388128608927
 30
0.0
  0
ENDBLK
  5
A2F
330
A24
100
AcDbEntity
  8
0
100
AcDbBlockEnd
  0
BLOCK
  5
A3B
330
A31
100
AcDbEntity
  8
0
100
AcDbBlockBegin
  2
*D13
 70
     1
 10
0.0
 20
0.0
 30
0.0
  3
*D13
  1

  0
LINE
  5
140C
330
A31
100
AcDbEntity
  8
SUNPOU
100
AcDbLine
 10
67.93355875008604
 20
193.7319320863805
 30
0.0
 11
67.93355875008604
 21
192.7319320863805
 31
0.0
  0
LINE
  5
140D
330
A31
100
AcDbEntity
  8
SUNPOU
100
AcDbLine
 10
87.93355874918836
 20
177.7720182535993
 30
0.0
 11
87.93355874918836
 21
192.7319320863805
 31
0.0
  0
LINE
  5
140E
330
A31
100
AcDbEntity
  8
SUNPOU
100
AcDbLine
 10
72.93355875008605
 20
190.7319320863805
 30
0.0
 11
82.93355874918836
 21
190.7319320863805
 31
0.0
  0
MTEXT
  5
140F
330
A31
100
AcDbEntity
  8
SUNPOU
 62
     6
100
AcDbMText
 10
79.71731794167499
 20
186.1697461047766
 30
0.0
 40
5.0
 41
0.0
 71
     5
 72
     1
  1
\A1;20
  7
SUNPOU
 11
-1.0
 21
0.0000000000000001
 31
0.0
1001
ACAD
1000
MTEXTBEGIN
1070
    73
1070
     1
1070
    44
1040
1.0
1070
    74
1070
     0
1000
MTEXTEND
1000
MTEXTBEGIN
1070
    73
1070
     1
1070
    44
1040
1.0
1070
    74
1070
     0
1000
MTEXTEND
  0
INSERT
  5
1410
330
A31
100
AcDbEntity
  8
SUNPOU
100
AcDbBlockReference
  2
_OPEN30
 10
67.93355875008604
 20
190.7319320863805
 30
0.0
 41
5.0
 42
5.0
 43
5.0
 50
180.0
  0
INSERT
  5
1411
330
A31
100
AcDbEntity
  8
SUNPOU
100
AcDbBlockReference
  2
_OPEN30
 10
87.93355874918836
 20
190.7319320863805
 30
0.0
 41
5.0
 42
5.0
 43
5.0
  0
POINT
  5
1412
330
A31
100
AcDbEntity
  8
DEFPOINTS
 62
     0
100
AcDbPoint
 10
67.93355875008604
 20
190.7319320863805
 30
0.0
  0
POINT
  5
1413
330
A31
100
AcDbEntity
  8
DEFPOINTS
 62
     0
100
AcDbPoint
 10
87.93355874918836
 20
174.7720182535993
 30
0.0
  0
POINT
  5
1414
330
A31
100
AcDbEntity
  8
DEFPOINTS
 62
     0
100
AcDbPoint
 10
87.93355874918836
 20
190.7319320863805
 30
0.0
  0
ENDBLK
  5
A3C
330
A31
100
AcDbEntity
  8
0
100
AcDbBlockEnd
  0
BLOCK
  5
A48
330
A3E
100
AcDbEntity
  8
0
100
AcDbBlockBegin
  2
*D14
 70
     1
 10
0.0
 20
0.0
 30
0.0
  3
*D14
  1

  0
LINE
  5
1420
330
A3E
100
AcDbEntity
  8
SUNPOU
100
AcDbLine
 10
87.93355874918836
 20
177.7720182535993
 30
0.0
 11
87.93355874918836
 21
192.7319320863805
 31
0.0
  0
LINE
  5
1421
330
A3E
100
AcDbEntity
  8
SUNPOU
100
AcDbLine
 10
177.9335587491883
 20
177.7720182535993
 30
0.0
 11
177.9335587491883
 21
192.7319320863805
 31
0.0
  0
LINE
  5
1422
330
A3E
100
AcDbEntity
  8
SUNPOU
100
AcDbLine
 10
92.93355874918836
 20
190.7319320863805
 30
0.0
 11
172.9335587491883
 21
190.7319320863805
 31
0.0
  0
MTEXT
  5
1423
330
A3E
100
AcDbEntity
  8
SUNPOU
 62
     6
100
AcDbMText
 10
136.4514288826002
 20
185.9614766025879
 30
0.0
 40
5.0
 41
0.0
 71
     5
 72
     1
  1
\A1;90
  7
SUNPOU
 11
-1.0
 21
0.0000000000000001
 31
0.0
1001
ACAD
1000
MTEXTBEGIN
1070
    73
1070
     1
1070
    44
1040
1.0
1070
    74
1070
     0
1000
MTEXTEND
1000
MTEXTBEGIN
1070
    73
1070
     1
1070
    44
1040
1.0
1070
    74
1070
     0
1000
MTEXTEND
  0
INSERT
  5
1424
330
A3E
100
AcDbEntity
  8
SUNPOU
100
AcDbBlockReference
  2
_OPEN30
 10
87.93355874918836
 20
190.7319320863805
 30
0.0
 41
5.0
 42
5.0
 43
5.0
 50
180.0
  0
INSERT
  5
1425
330
A3E
100
AcDbEntity
  8
SUNPOU
100
AcDbBlockReference
  2
_OPEN30
 10
177.9335587491883
 20
190.7319320863805
 30
0.0
 41
5.0
 42
5.0
 43
5.0
  0
POINT
  5
1426
330
A3E
100
AcDbEntity
  8
DEFPOINTS
 62
     0
100
AcDbPoint
 10
87.93355874918836
 20
174.7720182535993
 30
0.0
  0
POINT
  5
1427
330
A3E
100
AcDbEntity
  8
DEFPOINTS
 62
     0
100
AcDbPoint
 10
177.9335587491883
 20
174.7720182535993
 30
0.0
  0
POINT
  5
1428
330
A3E
100
AcDbEntity
  8
DEFPOINTS
 62
     0
100
AcDbPoint
 10
177.9335587491883
 20
190.7319320863805
 30
0.0
  0
ENDBLK
  5
A49
330
A3E
100
AcDbEntity
  8
0
100
AcDbBlockEnd
  0
BLOCK
  5
A55
330
A4B
100
AcDbEntity
  8
0
100
AcDbBlockBegin
  2
*D15
 70
     1
 10
0.0
 20
0.0
 30
0.0
  3
*D15
  1

  0
LINE
  5
1432
330
A4B
100
AcDbEntity
  8
SUNPOU
100
AcDbLine
 10
177.9335587491883
 20
177.7720182535993
 30
0.0
 11
177.9335587491883
 21
192.7319320863805
 31
0.0
  0
LINE
  5
1433
330
A4B
100
AcDbEntity
  8
SUNPOU
100
AcDbLine
 10
197.9335587500859
 20
193.7319320863805
 30
0.0
 11
197.9335587500859
 21
192.7319320863805
 31
0.0
  0
LINE
  5
1434
330
A4B
100
AcDbEntity
  8
SUNPOU
100
AcDbLine
 10
182.9335587491883
 20
190.7319320863805
 30
0.0
 11
192.9335587500858
 21
190.7319320863805
 31
0.0
  0
MTEXT
  5
1435
330
A4B
100
AcDbEntity
  8
SUNPOU
 62
     6
100
AcDbMText
 10
189.5686040220024
 20
186.1697461047766
 30
0.0
 40
5.0
 41
0.0
 71
     5
 72
     1
  1
\A1;20
  7
SUNPOU
 11
-1.0
 21
0.0000000000000001
 31
0.0
1001
ACAD
1000
MTEXTBEGIN
1070
    73
1070
     1
1070
    44
1040
1.0
1070
    74
1070
     0
1000
MTEXTEND
1000
MTEXTBEGIN
1070
    73
1070
     1
1070
    44
1040
1.0
1070
    74
1070
     0
1000
MTEXTEND
  0
INSERT
  5
1436
330
A4B
100
AcDbEntity
  8
SUNPOU
100
AcDbBlockReference
  2
_OPEN30
 10
177.9335587491883
 20
190.7319320863805
 30
0.0
 41
5.0
 42
5.0
 43
5.0
 50
180.0
  0
INSERT
  5
1437
330
A4B
100
AcDbEntity
  8
SUNPOU
100
AcDbBlockReference
  2
_OPEN30
 10
197.9335587500859
 20
190.7319320863805
 30
0.0
 41
5.0
 42
5.0
 43
5.0
  0
POINT
  5
1438
330
A4B
100
AcDbEntity
  8
DEFPOINTS
 62
     0
100
AcDbPoint
 10
177.9335587491883
 20
174.7720182535993
 30
0.0
  0
POINT
  5
1439
330
A4B
100
AcDbEntity
  8
DEFPOINTS
 62
     0
100
AcDbPoint
 10
197.9335587500859
 20
190.7319320863805
 30
0.0
  0
POINT
  5
143A
330
A4B
100
AcDbEntity
  8
DEFPOINTS
 62
     0
100
AcDbPoint
 10
197.9335587500859
 20
190.7319320863805
 30
0.0
  0
ENDBLK
  5
A56
330
A4B
100
AcDbEntity
  8
0
100
AcDbBlockEnd
  0
BLOCK
  5
B44
330
B3A
100
AcDbEntity
  8
0
100
AcDbBlockBegin
  2
*D16
 70
     1
 10
0.0
 20
0.0
 30
0.0
  3
*D16
  1

  0
LINE
  5
1429
330
B3A
100
AcDbEntity
  8
SUNPOU
100
AcDbLine
 10
197.9335587500859
 20
139.9365638265372
 30
0.0
 11
197.9335587500859
 21
126.6013250517922
 31
0.0
  0
LINE
  5
142A
330
B3A
100
AcDbEntity
  8
SUNPOU
100
AcDbLine
 10
182.9335587500859
 20
131.6013250517922
 30
0.0
 11
182.9335587500859
 21
130.6013250517922
 31
0.0
  0
LINE
  5
142B
330
B3A
100
AcDbEntity
  8
SUNPOU
100
AcDbLine
 10
192.9335587500858
 20
128.6013250517922
 30
0.0
 11
187.9335587500859
 21
128.6013250517922
 31
0.0
  0
MTEXT
  5
142C
330
B3A
100
AcDbEntity
  8
SUNPOU
 62
     6
100
AcDbMText
 10
192.1908757599458
 20
123.755768574062
 30
0.0
 40
5.0
 41
0.0
 71
     5
 72
     1
  1
\A1;15
  7
SUNPOU
 11
-1.0
 21
0.0000000000000001
 31
0.0
1001
ACAD
1000
MTEXTBEGIN
1070
    73
1070
     1
1070
    44
1040
1.0
1070
    74
1070
     0
1000
MTEXTEND
1000
MTEXTBEGIN
1070
    73
1070
     1
1070
    44
1040
1.0
1070
    74
1070
     0
1000
MTEXTEND
  0
INSERT
  5
142D
330
B3A
100
AcDbEntity
  8
SUNPOU
100
AcDbBlockReference
  2
_OPEN30
 10
197.9335587500859
 20
128.6013250517922
 30
0.0
 41
5.0
 42
5.0
 43
5.0
  0
INSERT
  5
142E
330
B3A
100
AcDbEntity
  8
SUNPOU
100
AcDbBlockReference
  2
_OPEN30
 10
182.9335587500859
 20
128.6013250517922
 30
0.0
 41
5.0
 42
5.0
 43
5.0
 50
180.0
  0
POINT
  5
142F
330
B3A
100
AcDbEntity
  8
DEFPOINTS
 62
     0
100
AcDbPoint
 10
197.9335587500859
 20
142.936563826537
 30
0.0
  0
POINT
  5
1430
330
B3A
100
AcDbEntity
  8
DEFPOINTS
 62
     0
100
AcDbPoint
 10
182.9335587500859
 20
128.6013250517922
 30
0.0
  0
POINT
  5
1431
330
B3A
100
AcDbEntity
  8
DEFPOINTS
 62
     0
100
AcDbPoint
 10
182.9335587500859
 20
128.6013250517922
 30
0.0
  0
ENDBLK
  5
B45
330
B3A
100
AcDbEntity
  8
0
100
AcDbBlockEnd
  0
BLOCK
  5
B86
330
B7A
100
AcDbEntity
  8
0
100
AcDbBlockBegin
  2
*D17
 70
     1
 10
0.0
 20
0.0
 30
0.0
  3
*D17
  1

  0
LINE
  5
1633
330
B7A
100
AcDbEntity
  8
SUNPOU
100
AcDbLine
 10
367.9335587500859
 20
95.93656382653728
 30
0.0
 11
367.9335587500859
 21
85.29400277405477
 31
0.0
  0
LINE
  5
1634
330
B7A
100
AcDbEntity
  8
SUNPOU
100
AcDbLine
 10
357.9335587500859
 20
95.93656382653705
 30
0.0
 11
357.9335587500859
 21
85.29400277405477
 31
0.0
  0
LINE
  5
1635
330
B7A
100
AcDbEntity
  8
SUNPOU
100
AcDbLine
 10
372.9335587500859
 20
87.29400277405478
 30
0.0
 11
377.9335587500859
 21
87.29400277405478
 31
0.0
  0
LINE
  5
1636
330
B7A
100
AcDbEntity
  8
SUNPOU
100
AcDbLine
 10
352.9335587500859
 20
87.29400277405478
 30
0.0
 11
347.9335587500859
 21
87.29400277405478
 31
0.0
  0
MTEXT
  5
1637
330
B7A
100
AcDbEntity
  8
SUNPOU
 62
     6
100
AcDbMText
 10
360.9996994472077
 20
81.69446610012938
 30
0.0
 40
5.0
 41
0.0
 71
     5
 72
     1
  1
\A1;10
  7
SUNPOU
 11
-1.0
 21
0.0000000000000001
 31
0.0
1001
ACAD
1000
MTEXTBEGIN
1070
    73
1070
     1
1070
    44
1040
1.0
1070
    74
1070
     0
1000
MTEXTEND
1000
MTEXTBEGIN
1070
    73
1070
     1
1070
    44
1040
1.0
1070
    74
1070
     0
1000
MTEXTEND
  0
LINE
  5
1638
330
B7A
100
AcDbEntity
  8
SUNPOU
100
AcDbLine
 10
367.9335587500859
 20
87.29400277405478
 30
0.0
 11
357.9335587500859
 21
87.29400277405478
 31
0.0
  0
INSERT
  5
1639
330
B7A
100
AcDbEntity
  8
SUNPOU
100
AcDbBlockReference
  2
_OPEN30
 10
367.9335587500859
 20
87.29400277405478
 30
0.0
 41
5.0
 42
5.0
 43
5.0
 50
180.0
  0
INSERT
  5
163A
330
B7A
100
AcDbEntity
  8
SUNPOU
100
AcDbBlockReference
  2
_OPEN30
 10
357.9335587500859
 20
87.29400277405478
 30
0.0
 41
5.0
 42
5.0
 43
5.0
  0
POINT
  5
163B
330
B7A
100
AcDbEntity
  8
DEFPOINTS
 62
     0
100
AcDbPoint
 10
367.9335587500859
 20
98.93656382653729
 30
0.0
  0
POINT
  5
163C
330
B7A
100
AcDbEntity
  8
DEFPOINTS
 62
     0
100
AcDbPoint
 10
357.9335587500859
 20
98.93656382653706
 30
0.0
  0
POINT
  5
163D
330
B7A
100
AcDbEntity
  8
DEFPOINTS
 62
     0
100
AcDbPoint
 10
357.9335587500859
 20
87.29400277405478
 30
0.0
  0
ENDBLK
  5
B87
330
B7A
100
AcDbEntity
  8
0
100
AcDbBlockEnd
  0
BLOCK
  5
B93
330
B89
100
AcDbEntity
  8
0
100
AcDbBlockBegin
  2
*D18
 70
     1
 10
0.0
 20
0.0
 30
0.0
  3
*D18
  1

  0
LINE
  5
13DF
330
B89
100
AcDbEntity
  8
SUNPOU
100
AcDbLine
 10
357.9335587500859
 20
95.93656382653705
 30
0.0
 11
357.9335587500859
 21
85.29400277405477
 31
0.0
  0
LINE
  5
13E0
330
B89
100
AcDbEntity
  8
SUNPOU
100
AcDbLine
 10
185.9335587500859
 20
95.93656382653705
 30
0.0
 11
185.9335587500859
 21
85.29400277405477
 31
0.0
  0
LINE
  5
13E1
330
B89
100
AcDbEntity
  8
SUNPOU
100
AcDbLine
 10
352.9335587500859
 20
87.29400277405478
 30
0.0
 11
190.9335587500859
 21
87.29400277405478
 31
0.0
  0
MTEXT
  5
13E2
330
B89
100
AcDbEntity
  8
SUNPOU
 62
     6
100
AcDbMText
 10
272.9585118811455
 20
82.48425009613674
 30
0.0
 40
5.0
 41
0.0
 71
     5
 72
     1
  1
\A1;DH
  7
SUNPOU
 11
-1.0
 21
0.0000000000000001
 31
0.0
1001
ACAD
1000
MTEXTBEGIN
1070
    73
1070
     1
1070
    44
1040
1.0
1070
    74
1070
     0
1000
MTEXTEND
1000
MTEXTBEGIN
1070
    73
1070
     1
1070
    44
1040
1.0
1070
    74
1070
     0
1000
MTEXTEND
  0
INSERT
  5
13E3
330
B89
100
AcDbEntity
  8
SUNPOU
100
AcDbBlockReference
  2
_OPEN30
 10
357.9335587500859
 20
87.29400277405478
 30
0.0
 41
5.0
 42
5.0
 43
5.0
  0
INSERT
  5
13E4
330
B89
100
AcDbEntity
  8
SUNPOU
100
AcDbBlockReference
  2
_OPEN30
 10
185.9335587500859
 20
87.29400277405478
 30
0.0
 41
5.0
 42
5.0
 43
5.0
 50
180.0
  0
POINT
  5
13E5
330
B89
100
AcDbEntity
  8
DEFPOINTS
 62
     0
100
AcDbPoint
 10
357.9335587500859
 20
98.93656382653706
 30
0.0
  0
POINT
  5
13E6
330
B89
100
AcDbEntity
  8
DEFPOINTS
 62
     0
100
AcDbPoint
 10
185.9335587500859
 20
98.93656382653706
 30
0.0
  0
POINT
  5
13E7
330
B89
100
AcDbEntity
  8
DEFPOINTS
 62
     0
100
AcDbPoint
 10
185.9335587500859
 20
87.29400277405478
 30
0.0
  0
ENDBLK
  5
B94
330
B89
100
AcDbEntity
  8
0
100
AcDbBlockEnd
  0
BLOCK
  5
BA2
330
B96
100
AcDbEntity
  8
0
100
AcDbBlockBegin
  2
*D19
 70
     1
 10
0.0
 20
0.0
 30
0.0
  3
*D19
  1

  0
LINE
  5
1415
330
B96
100
AcDbEntity
  8
SUNPOU
100
AcDbLine
 10
185.9335587500859
 20
95.93656382653705
 30
0.0
 11
185.9335587500859
 21
85.29400277405477
 31
0.0
  0
LINE
  5
1416
330
B96
100
AcDbEntity
  8
SUNPOU
100
AcDbLine
 10
182.9335587500859
 20
95.93656382653705
 30
0.0
 11
182.9335587500859
 21
85.29400277405477
 31
0.0
  0
LINE
  5
1417
330
B96
100
AcDbEntity
  8
SUNPOU
100
AcDbLine
 10
190.9335587500859
 20
87.29400277405478
 30
0.0
 11
195.9335587500858
 21
87.29400277405478
 31
0.0
  0
LINE
  5
1418
330
B96
100
AcDbEntity
  8
SUNPOU
100
AcDbLine
 10
177.9335587500859
 20
87.29400277405478
 30
0.0
 11
172.9335587500858
 21
87.29400277405478
 31
0.0
  0
MTEXT
  5
1419
330
B96
100
AcDbEntity
  8
SUNPOU
 62
     6
100
AcDbMText
 10
179.3740192672579
 20
82.51239030512762
 30
0.0
 40
5.0
 41
0.0
 71
     5
 72
     1
  1
\A1;3
  7
SUNPOU
 11
-1.0
 21
0.0000000000000001
 31
0.0
1001
ACAD
1000
MTEXTBEGIN
1070
    73
1070
     1
1070
    44
1040
1.0
1070
    74
1070
     0
1000
MTEXTEND
1000
MTEXTBEGIN
1070
    73
1070
     1
1070
    44
1040
1.0
1070
    74
1070
     0
1000
MTEXTEND
  0
LINE
  5
141A
330
B96
100
AcDbEntity
  8
SUNPOU
100
AcDbLine
 10
185.9335587500859
 20
87.29400277405478
 30
0.0
 11
182.9335587500859
 21
87.29400277405478
 31
0.0
  0
INSERT
  5
141B
330
B96
100
AcDbEntity
  8
SUNPOU
100
AcDbBlockReference
  2
_OPEN30
 10
185.9335587500859
 20
87.29400277405478
 30
0.0
 41
5.0
 42
5.0
 43
5.0
 50
180.0
  0
INSERT
  5
141C
330
B96
100
AcDbEntity
  8
SUNPOU
100
AcDbBlockReference
  2
_OPEN30
 10
182.9335587500859
 20
87.29400277405478
 30
0.0
 41
5.0
 42
5.0
 43
5.0
  0
POINT
  5
141D
330
B96
100
AcDbEntity
  8
DEFPOINTS
 62
     0
100
AcDbPoint
 10
185.9335587500859
 20
98.93656382653706
 30
0.0
  0
POINT
  5
141E
330
B96
100
AcDbEntity
  8
DEFPOINTS
 62
     0
100
AcDbPoint
 10
182.9335587500859
 20
98.93656382653706
 30
0.0
  0
POINT
  5
141F
330
B96
100
AcDbEntity
  8
DEFPOINTS
 62
     0
100
AcDbPoint
 10
182.9335587500859
 20
87.29400277405478
 30
0.0
  0
ENDBLK
  5
BA3
330
B96
100
AcDbEntity
  8
0
100
AcDbBlockEnd
  0
BLOCK
  5
BAF
330
BA5
100
AcDbEntity
  8
0
100
AcDbBlockBegin
  2
*D20
 70
     1
 10
0.0
 20
0.0
 30
0.0
  3
*D20
  1

  0
LINE
  5
13D6
330
BA5
100
AcDbEntity
  8
SUNPOU
100
AcDbLine
 10
182.9335587500859
 20
95.93656382653705
 30
0.0
 11
182.9335587500859
 21
69.66420515545121
 31
0.0
  0
LINE
  5
13D7
330
BA5
100
AcDbEntity
  8
SUNPOU
100
AcDbLine
 10
367.9335587500859
 20
74.6642051554512
 30
0.0
 11
367.9335587500859
 21
73.6642051554512
 31
0.0
  0
LINE
  5
13D8
330
BA5
100
AcDbEntity
  8
SUNPOU
100
AcDbLine
 10
187.9335587500859
 20
71.66420515545119
 30
0.0
 11
362.9335587500859
 21
71.66420515545119
 31
0.0
  0
MTEXT
  5
13D9
330
BA5
100
AcDbEntity
  8
SUNPOU
 62
     6
100
AcDbMText
 10
276.0912612599753
 20
67.11222635267927
 30
0.0
 40
5.0
 41
0.0
 71
     5
 72
     1
  1
\A1;H
  7
SUNPOU
 11
-1.0
 21
0.0000000000000001
 31
0.0
1001
ACAD
1000
MTEXTBEGIN
1070
    73
1070
     1
1070
    44
1040
1.0
1070
    74
1070
     0
1000
MTEXTEND
1000
MTEXTBEGIN
1070
    73
1070
     1
1070
    44
1040
1.0
1070
    74
1070
     0
1000
MTEXTEND
  0
INSERT
  5
13DA
330
BA5
100
AcDbEntity
  8
SUNPOU
100
AcDbBlockReference
  2
_OPEN30
 10
182.9335587500859
 20
71.66420515545119
 30
0.0
 41
5.0
 42
5.0
 43
5.0
 50
180.0
  0
INSERT
  5
13DB
330
BA5
100
AcDbEntity
  8
SUNPOU
100
AcDbBlockReference
  2
_OPEN30
 10
367.9335587500859
 20
71.66420515545119
 30
0.0
 41
5.0
 42
5.0
 43
5.0
  0
POINT
  5
13DC
330
BA5
100
AcDbEntity
  8
DEFPOINTS
 62
     0
100
AcDbPoint
 10
182.9335587500859
 20
98.93656382653706
 30
0.0
  0
POINT
  5
13DD
330
BA5
100
AcDbEntity
  8
DEFPOINTS
 62
     0
100
AcDbPoint
 10
367.9335587500859
 20
71.66420515545119
 30
0.0
  0
POINT
  5
13DE
330
BA5
100
AcDbEntity
  8
DEFPOINTS
 62
     0
100
AcDbPoint
 10
367.9335587500859
 20
71.66420515545119
 30
0.0
  0
ENDBLK
  5
BB0
330
BA5
100
AcDbEntity
  8
0
100
AcDbBlockEnd
  0
BLOCK
  5
CAF
330
CA5
100
AcDbEntity
  8
0
100
AcDbBlockBegin
  2
*D21
 70
     1
 10
0.0
 20
0.0
 30
0.0
  3
*D21
  1

  0
LINE
  5
14CE
330
CA5
100
AcDbEntity
  8
SUNPOU
100
AcDbLine
 10
251.1572939669246
 20
432.2456543383673
 30
0.0
 11
258.9721246882084
 21
432.2456543383673
 31
0.0
  0
LINE
  5
14CF
330
CA5
100
AcDbEntity
  8
SUNPOU
100
AcDbLine
 10
251.1572939669246
 20
519.8456543383675
 30
0.0
 11
258.9721246882084
 21
519.8456543383673
 31
0.0
  0
LINE
  5
14D0
330
CA5
100
AcDbEntity
  8
SUNPOU
100
AcDbLine
 10
256.9721246882085
 20
437.2456543383673
 30
0.0
 11
256.9721246882085
 21
514.8456543383673
 31
0.0
  0
INSERT
  5
14D1
330
CA5
100
AcDbEntity
  8
SUNPOU
100
AcDbBlockReference
  2
_OPEN30
 10
256.9721246882085
 20
432.2456543383673
 30
0.0
 41
5.0
 42
5.0
 43
5.0
 50
270.0
  0
INSERT
  5
14D2
330
CA5
100
AcDbEntity
  8
SUNPOU
100
AcDbBlockReference
  2
_OPEN30
 10
256.9721246882085
 20
519.8456543383673
 30
0.0
 41
5.0
 42
5.0
 43
5.0
 50
90.0
  0
MTEXT
  5
14D3
330
CA5
100
AcDbEntity
  8
SUNPOU
 62
     6
100
AcDbMText
 10
252.4721246882084
 20
476.0456543383674
 30
0.0
 40
5.0
 41
0.0
 71
     5
 72
     1
  1
\A1;W
  7
SUNPOU
 11
0.0000000000000001
 21
1.0
 31
0.0
1001
ACAD
1000
MTEXTBEGIN
1070
    73
1070
     1
1070
    44
1040
1.0
1070
    74
1070
     0
1000
MTEXTEND
1000
MTEXTBEGIN
1070
    73
1070
     1
1070
    44
1040
1.0
1070
    74
1070
     0
1000
MTEXTEND
  0
POINT
  5
14D4
330
CA5
100
AcDbEntity
  8
DEFPOINTS
 62
     0
100
AcDbPoint
 10
248.1572939669247
 20
432.2456543383673
 30
0.0
  0
POINT
  5
14D5
330
CA5
100
AcDbEntity
  8
DEFPOINTS
 62
     0
100
AcDbPoint
 10
248.1572939669247
 20
519.8456543383675
 30
0.0
  0
POINT
  5
14D6
330
CA5
100
AcDbEntity
  8
DEFPOINTS
 62
     0
100
AcDbPoint
 10
256.9721246882085
 20
519.8456543383673
 30
0.0
  0
ENDBLK
  5
CB0
330
CA5
100
AcDbEntity
  8
0
100
AcDbBlockEnd
  0
BLOCK
  5
CC9
330
CBF
100
AcDbEntity
  8
0
100
AcDbBlockBegin
  2
*D22
 70
     1
 10
0.0
 20
0.0
 30
0.0
  3
*D22
  1

  0
LINE
  5
14C5
330
CBF
100
AcDbEntity
  8
SUNPOU
100
AcDbLine
 10
250.1572939669247
 20
431.2456543383674
 30
0.0
 11
267.1395495182705
 21
431.2456543383674
 31
0.0
  0
LINE
  5
14C6
330
CBF
100
AcDbEntity
  8
SUNPOU
100
AcDbLine
 10
250.1572939669247
 20
520.8456543383674
 30
0.0
 11
267.1395495182705
 21
520.8456543383674
 31
0.0
  0
LINE
  5
14C7
330
CBF
100
AcDbEntity
  8
SUNPOU
100
AcDbLine
 10
265.1395495182705
 20
436.2456543383673
 30
0.0
 11
265.1395495182705
 21
515.8456543383673
 31
0.0
  0
INSERT
  5
14C8
330
CBF
100
AcDbEntity
  8
SUNPOU
100
AcDbBlockReference
  2
_OPEN30
 10
265.1395495182705
 20
431.2456543383674
 30
0.0
 41
5.0
 42
5.0
 43
5.0
 50
270.0
  0
INSERT
  5
14C9
330
CBF
100
AcDbEntity
  8
SUNPOU
100
AcDbBlockReference
  2
_OPEN30
 10
265.1395495182705
 20
520.8456543383674
 30
0.0
 41
5.0
 42
5.0
 43
5.0
 50
90.0
  0
MTEXT
  5
14CA
330
CBF
100
AcDbEntity
  8
SUNPOU
 62
     6
100
AcDbMText
 10
260.6395495182705
 20
476.0456543383674
 30
0.0
 40
5.0
 41
0.0
 71
     5
 72
     1
  1
\A1;DW
  7
SUNPOU
 11
0.0000000000000001
 21
1.0
 31
0.0
1001
ACAD
1000
MTEXTBEGIN
1070
    73
1070
     1
1070
    44
1040
1.0
1070
    74
1070
     0
1000
MTEXTEND
1000
MTEXTBEGIN
1070
    73
1070
     1
1070
    44
1040
1.0
1070
    74
1070
     0
1000
MTEXTEND
  0
POINT
  5
14CB
330
CBF
100
AcDbEntity
  8
DEFPOINTS
 62
     0
100
AcDbPoint
 10
247.1572939669246
 20
431.2456543383674
 30
0.0
  0
POINT
  5
14CC
330
CBF
100
AcDbEntity
  8
DEFPOINTS
 62
     0
100
AcDbPoint
 10
247.1572939669246
 20
520.8456543383674
 30
0.0
  0
POINT
  5
14CD
330
CBF
100
AcDbEntity
  8
DEFPOINTS
 62
     0
100
AcDbPoint
 10
265.1395495182705
 20
520.8456543383674
 30
0.0
  0
ENDBLK
  5
CCA
330
CBF
100
AcDbEntity
  8
0
100
AcDbBlockEnd
  0
BLOCK
  5
CD6
330
CCC
100
AcDbEntity
  8
0
100
AcDbBlockBegin
  2
*D23
 70
     1
 10
0.0
 20
0.0
 30
0.0
  3
*D23
  1

  0
LINE
  5
144D
330
CCC
100
AcDbEntity
  8
SUNPOU
100
AcDbLine
 10
44.53890404053743
 20
492.2456543383673
 30
0.0
 11
53.97102910958484
 21
492.2456543383673
 31
0.0
  0
LINE
  5
144E
330
CCC
100
AcDbEntity
  8
SUNPOU
100
AcDbLine
 10
44.53890404053743
 20
464.7456543383674
 30
0.0
 11
53.97102910958484
 21
464.7456543383674
 31
0.0
  0
LINE
  5
144F
330
CCC
100
AcDbEntity
  8
SUNPOU
100
AcDbLine
 10
51.97102910958482
 20
487.2456543383673
 30
0.0
 11
51.97102910958482
 21
469.7456543383673
 31
0.0
  0
INSERT
  5
1450
330
CCC
100
AcDbEntity
  8
SUNPOU
100
AcDbBlockReference
  2
_OPEN30
 10
51.97102910958482
 20
492.2456543383673
 30
0.0
 41
5.0
 42
5.0
 43
5.0
 50
90.0
  0
INSERT
  5
1451
330
CCC
100
AcDbEntity
  8
SUNPOU
100
AcDbBlockReference
  2
_OPEN30
 10
51.97102910958482
 20
464.7456543383674
 30
0.0
 41
5.0
 42
5.0
 43
5.0
 50
270.0
  0
MTEXT
  5
1452
330
CCC
100
AcDbEntity
  8
SUNPOU
 62
     6
100
AcDbMText
 10
47.47102910958473
 20
478.4956543383676
 30
0.0
 40
5.0
 41
0.0
 71
     5
 72
     1
  1
\A1;275
  7
SUNPOU
 11
0.0000000000000001
 21
1.0
 31
0.0
1001
ACAD
1000
MTEXTBEGIN
1070
    73
1070
     1
1070
    44
1040
1.0
1070
    74
1070
     0
1000
MTEXTEND
1000
MTEXTBEGIN
1070
    73
1070
     1
1070
    44
1040
1.0
1070
    74
1070
     0
1000
MTEXTEND
  0
POINT
  5
1453
330
CCC
100
AcDbEntity
  8
DEFPOINTS
 62
     0
100
AcDbPoint
 10
41.53890404053742
 20
492.2456543383673
 30
0.0
  0
POINT
  5
1454
330
CCC
100
AcDbEntity
  8
DEFPOINTS
 62
     0
100
AcDbPoint
 10
41.53890404053742
 20
464.7456543383674
 30
0.0
  0
POINT
  5
1455
330
CCC
100
AcDbEntity
  8
DEFPOINTS
 62
     0
100
AcDbPoint
 10
51.97102910958482
 20
464.7456543383674
 30
0.0
  0
ENDBLK
  5
CD7
330
CCC
100
AcDbEntity
  8
0
100
AcDbBlockEnd
  0
BLOCK
  5
CE3
330
CD9
100
AcDbEntity
  8
0
100
AcDbBlockBegin
  2
*D24
 70
     1
 10
0.0
 20
0.0
 30
0.0
  3
*D24
  1

  0
LINE
  5
1461
330
CD9
100
AcDbEntity
  8
SUNPOU
100
AcDbLine
 10
44.53890404053743
 20
464.7456543383674
 30
0.0
 11
53.97102910958484
 21
464.7456543383674
 31
0.0
  0
LINE
  5
1462
330
CD9
100
AcDbEntity
  8
SUNPOU
100
AcDbLine
 10
44.53890404053732
 20
437.2456543383673
 30
0.0
 11
53.97102910958483
 21
437.2456543383673
 31
0.0
  0
LINE
  5
1463
330
CD9
100
AcDbEntity
  8
SUNPOU
100
AcDbLine
 10
51.97102910958482
 20
459.7456543383676
 30
0.0
 11
51.97102910958482
 21
442.2456543383673
 31
0.0
  0
INSERT
  5
1464
330
CD9
100
AcDbEntity
  8
SUNPOU
100
AcDbBlockReference
  2
_OPEN30
 10
51.97102910958482
 20
464.7456543383674
 30
0.0
 41
5.0
 42
5.0
 43
5.0
 50
90.0
  0
INSERT
  5
1465
330
CD9
100
AcDbEntity
  8
SUNPOU
100
AcDbBlockReference
  2
_OPEN30
 10
51.97102910958482
 20
437.2456543383673
 30
0.0
 41
5.0
 42
5.0
 43
5.0
 50
270.0
  0
MTEXT
  5
1466
330
CD9
100
AcDbEntity
  8
SUNPOU
 62
     6
100
AcDbMText
 10
47.47102910958473
 20
450.9956543383673
 30
0.0
 40
5.0
 41
0.0
 71
     5
 72
     1
  1
\A1;275
  7
SUNPOU
 11
0.0000000000000001
 21
1.0
 31
0.0
1001
ACAD
1000
MTEXTBEGIN
1070
    73
1070
     1
1070
    44
1040
1.0
1070
    74
1070
     0
1000
MTEXTEND
1000
MTEXTBEGIN
1070
    73
1070
     1
1070
    44
1040
1.0
1070
    74
1070
     0
1000
MTEXTEND
  0
POINT
  5
1467
330
CD9
100
AcDbEntity
  8
DEFPOINTS
 62
     0
100
AcDbPoint
 10
41.53890404053742
 20
464.7456543383674
 30
0.0
  0
POINT
  5
1468
330
CD9
100
AcDbEntity
  8
DEFPOINTS
 62
     0
100
AcDbPoint
 10
41.53890404053732
 20
437.2456543383673
 30
0.0
  0
POINT
  5
1469
330
CD9
100
AcDbEntity
  8
DEFPOINTS
 62
     0
100
AcDbPoint
 10
51.97102910958482
 20
437.2456543383673
 30
0.0
  0
ENDBLK
  5
CE4
330
CD9
100
AcDbEntity
  8
0
100
AcDbBlockEnd
  0
BLOCK
  5
CF2
330
CE6
100
AcDbEntity
  8
0
100
AcDbBlockBegin
  2
*D25
 70
     1
 10
0.0
 20
0.0
 30
0.0
  3
*D25
  1

  0
LINE
  5
1456
330
CE6
100
AcDbEntity
  8
SUNPOU
100
AcDbLine
 10
44.53890404053732
 20
437.2456543383673
 30
0.0
 11
53.97102910958483
 21
437.2456543383673
 31
0.0
  0
LINE
  5
1457
330
CE6
100
AcDbEntity
  8
SUNPOU
100
AcDbLine
 10
46.53890404053732
 20
432.2456543383673
 30
0.0
 11
53.97102910958483
 21
432.2456543383673
 31
0.0
  0
LINE
  5
1458
330
CE6
100
AcDbEntity
  8
SUNPOU
100
AcDbLine
 10
51.97102910958482
 20
442.2456543383673
 30
0.0
 11
51.97102910958482
 21
447.2456543383674
 31
0.0
  0
LINE
  5
1459
330
CE6
100
AcDbEntity
  8
SUNPOU
100
AcDbLine
 10
51.97102910958482
 20
427.2456543383674
 30
0.0
 11
51.97102910958482
 21
422.2456543383676
 31
0.0
  0
MTEXT
  5
145A
330
CE6
100
AcDbEntity
  8
SUNPOU
 62
     6
100
AcDbMText
 10
47.66355184824078
 20
423.9778234333277
 30
0.0
 40
5.0
 41
0.0
 71
     5
 72
     1
  1
\A1;50
  7
SUNPOU
 11
0.0000000000000001
 21
1.0
 31
0.0
1001
ACAD
1000
MTEXTBEGIN
1070
    73
1070
     1
1070
    44
1040
1.0
1070
    74
1070
     0
1000
MTEXTEND
1000
MTEXTBEGIN
1070
    73
1070
     1
1070
    44
1040
1.0
1070
    74
1070
     0
1000
MTEXTEND
  0
LINE
  5
145B
330
CE6
100
AcDbEntity
  8
SUNPOU
100
AcDbLine
 10
51.97102910958482
 20
437.2456543383673
 30
0.0
 11
51.97102910958482
 21
432.2456543383673
 31
0.0
  0
INSERT
  5
145C
330
CE6
100
AcDbEntity
  8
SUNPOU
100
AcDbBlockReference
  2
_OPEN30
 10
51.97102910958482
 20
437.2456543383673
 30
0.0
 41
5.0
 42
5.0
 43
5.0
 50
270.0
  0
INSERT
  5
145D
330
CE6
100
AcDbEntity
  8
SUNPOU
100
AcDbBlockReference
  2
_OPEN30
 10
51.97102910958482
 20
432.2456543383673
 30
0.0
 41
5.0
 42
5.0
 43
5.0
 50
90.0
  0
POINT
  5
145E
330
CE6
100
AcDbEntity
  8
DEFPOINTS
 62
     0
100
AcDbPoint
 10
41.53890404053732
 20
437.2456543383673
 30
0.0
  0
POINT
  5
145F
330
CE6
100
AcDbEntity
  8
DEFPOINTS
 62
     0
100
AcDbPoint
 10
43.53890404053731
 20
432.2456543383673
 30
0.0
  0
POINT
  5
1460
330
CE6
100
AcDbEntity
  8
DEFPOINTS
 62
     0
100
AcDbPoint
 10
51.97102910958482
 20
432.2456543383673
 30
0.0
  0
ENDBLK
  5
CF3
330
CE6
100
AcDbEntity
  8
0
100
AcDbBlockEnd
  0
BLOCK
  5
FDE
330
FDC
100
AcDbEntity
  8
0
100
AcDbBlockBegin
  2
_DOTSMALL
 70
     0
 10
0.0
 20
0.0
 30
0.0
  3
_DOTSMALL
  1

  0
POLYLINE
  5
FDD
330
FDC
100
AcDbEntity
  8
0
  6
BYBLOCK
 62
     0
100
AcDb2dPolyline
 66
     1
 10
0.0
 20
0.0
 30
0.0
 70
     1
 40
0.5
 41
0.5
  0
VERTEX
  5
174B
330
FDD
100
AcDbEntity
  8
0
  6
BYBLOCK
 62
     0
100
AcDbVertex
100
AcDb2dVertex
 10
-0.0625
 20
0.0
 30
0.0
 42
1.0
  0
VERTEX
  5
174C
330
FDD
100
AcDbEntity
  8
0
  6
BYBLOCK
 62
     0
100
AcDbVertex
100
AcDb2dVertex
 10
0.0625
 20
0.0
 30
0.0
 42
1.0
  0
SEQEND
  5
174D
330
FDD
100
AcDbEntity
  8
0
  6
BYBLOCK
 62
     0
  0
ENDBLK
  5
FDF
330
FDC
100
AcDbEntity
  8
0
100
AcDbBlockEnd
  0
BLOCK
  5
13A7
330
13A4
100
AcDbEntity
  8
0
100
AcDbBlockBegin
  2
TEN
 70
     0
 10
0.0
 20
0.0
 30
0.0
  3
TEN
  1

  0
INSERT
  5
13A5
330
13A4
100
AcDbEntity
  8
0
  6
CONTINUOUS
 62
     0
100
AcDbBlockReference
  2
*U28
 10
0.0
 20
0.0
 30
0.0
1001
ACAD
1002
{
1000
R14_HATCH_DATA
1000
13A5
1011
1.0
1021
0.0
1031
0.0
1011
0.0
1021
1.0
1031
0.0
1011
0.0
1021
0.0
1031
1.0
1040
0.0
1010
0.0
1020
0.0
1030
1.0
1000
SOLID
1070
     1
1070
     0
1071
        1
1071
        7
1070
     1
1070
     1
1071
        2
1040
-0.25
1040
0.0
1040
1.0
1040
0.25
1040
0.0
1040
1.0
1071
        0
1070
     0
1070
     1
1040
0.0221984815052297
1071
        1
1040
0.0853393633610722
1040
0.0559468107396697
1040
0.0
1002
}
  0
CIRCLE
  5
13A6
330
13A4
100
AcDbEntity
  8
0
  6
CONTINUOUS
 62
     0
100
AcDbCircle
 10
0.0
 20
0.0
 30
0.0
 40
0.25
  0
ENDBLK
  5
13A8
330
13A4
100
AcDbEntity
  8
0
100
AcDbBlockEnd
  0
BLOCK
  5
1668
330
1661
100
AcDbEntity
  8
0
100
AcDbBlockBegin
  2
*U28
 70
     1
 10
0.0
 20
0.0
 30
0.0
  3
*U28
  1

  0
SOLID
  5
1662
330
1661
100
AcDbEntity
  8
0
  6
CONTINUOUS
 62
     0
100
AcDbTrace
 10
-0.25
 20
0.0
 30
0.0
 11
-0.1767766952966369
 21
-0.1767766952966368
 31
0.0
 12
-0.1767766952966368
 22
0.1767766952966369
 32
0.0
 13
-0.1767766952966368
 23
0.1767766952966369
 33
0.0
  0
SOLID
  5
1663
330
1661
100
AcDbEntity
  8
0
  6
CONTINUOUS
 62
     0
100
AcDbTrace
 10
-0.0000000000000001
 20
-0.25
 30
0.0
 11
-0.1767766952966368
 21
0.1767766952966369
 31
0.0
 12
-0.1767766952966369
 22
-0.1767766952966368
 32
0.0
 13
-0.1767766952966369
 23
-0.1767766952966368
 33
0.0
  0
SOLID
  5
1664
330
1661
100
AcDbEntity
  8
0
  6
CONTINUOUS
 62
     0
100
AcDbTrace
 10
-0.1767766952966368
 20
0.1767766952966369
 30
0.0
 11
-0.0000000000000001
 21
-0.25
 31
0.0
 12
0.0000000000000001
 22
0.25
 32
0.0
 13
0.0000000000000001
 23
0.25
 33
0.0
  0
SOLID
  5
1665
330
1661
100
AcDbEntity
  8
0
  6
CONTINUOUS
 62
     0
100
AcDbTrace
 10
0.1767766952966368
 20
-0.1767766952966369
 30
0.0
 11
0.0000000000000001
 21
0.25
 31
0.0
 12
-0.0000000000000001
 22
-0.25
 32
0.0
 13
-0.0000000000000001
 23
-0.25
 33
0.0
  0
SOLID
  5
1666
330
1661
100
AcDbEntity
  8
0
  6
CONTINUOUS
 62
     0
100
AcDbTrace
 10
0.0000000000000001
 20
0.25
 30
0.0
 11
0.1767766952966368
 21
-0.1767766952966369
 31
0.0
 12
0.1767766952966369
 22
0.1767766952966369
 32
0.0
 13
0.1767766952966369
 23
0.1767766952966369
 33
0.0
  0
SOLID
  5
1667
330
1661
100
AcDbEntity
  8
0
  6
CONTINUOUS
 62
     0
100
AcDbTrace
 10
0.25
 20
0.0
 30
0.0
 11
0.1767766952966369
 21
0.1767766952966369
 31
0.0
 12
0.1767766952966368
 22
-0.1767766952966369
 32
0.0
 13
0.1767766952966368
 23
-0.1767766952966369
 33
0.0
  0
ENDBLK
  5
1669
330
1661
100
AcDbEntity
  8
0
100
AcDbBlockEnd
  0
ENDSEC
  0
SECTION
  2
ENTITIES
  0
ARC
  5
107
330
A
100
AcDbEntity
  8
03
100
AcDbCircle
 10
69.33355875008601
 20
141.3365638265372
 30
0.0
 40
1.6
100
AcDbArc
 50
0.0
 51
90.0
  0
ARC
  5
29F
330
A
100
AcDbEntity
  8
04
100
AcDbCircle
 10
235.5335587500859
 20
277.0365638265372
 30
0.0
 40
0.4000000000000055
100
AcDbArc
 50
359.9999999999997
 51
90.0
  0
ARC
  5
2A0
330
A
100
AcDbEntity
  8
04
100
AcDbCircle
 10
246.3335587500858
 20
277.0365638265372
 30
0.0
 40
0.4000000000000055
100
AcDbArc
 50
90.0
 51
180.0000000000002
  0
ARC
  5
2A4
330
A
100
AcDbEntity
  8
04
100
AcDbCircle
 10
233.5872973941418
 20
281.2480068133003
 30
0.0
 40
3.81144298676312
100
AcDbArc
 50
229.9255796616116
 51
270.0
  0
ARC
  5
2A5
330
A
100
AcDbEntity
  8
04
100
AcDbCircle
 10
248.2798201060298
 20
281.2480068133003
 30
0.0
 40
3.811442986763138
100
AcDbArc
 50
270.0
 51
310.0744203383856
  0
ARC
  5
2C7
330
A
100
AcDbEntity
  8
04
100
AcDbCircle
 10
248.2798201060298
 20
262.7480068133003
 30
0.0
 40
3.81144298676312
100
AcDbArc
 50
270.0
 51
310.0744203383857
  0
ARC
  5
2C8
330
A
100
AcDbEntity
  8
04
100
AcDbCircle
 10
233.5872973941418
 20
262.7480068133003
 30
0.0
 40
3.811442986763128
100
AcDbArc
 50
229.9255796616141
 51
270.0
  0
ARC
  5
2C9
330
A
100
AcDbEntity
  8
04
100
AcDbCircle
 10
248.2798201060298
 20
261.125120839774
 30
0.0
 40
3.811442986763128
100
AcDbArc
 50
49.92557966161379
 51
90.0
  0
ARC
  5
2CA
330
A
100
AcDbEntity
  8
04
100
AcDbCircle
 10
233.5872973941418
 20
261.125120839774
 30
0.0
 40
3.81144298676312
100
AcDbArc
 50
90.0
 51
130.0744203383861
  0
ARC
  5
2D8
330
A
100
AcDbEntity
  8
04
100
AcDbCircle
 10
233.5872973941418
 20
323.625120839774
 30
0.0
 40
3.81144298676312
100
AcDbArc
 50
90.0
 51
130.0744203383862
  0
ARC
  5
2D9
330
A
100
AcDbEntity
  8
04
100
AcDbCircle
 10
248.2798201060298
 20
323.625120839774
 30
0.0
 40
3.811442986763138
100
AcDbArc
 50
49.92557966161363
 51
90.0
  0
ARC
  5
2DF
330
A
100
AcDbEntity
  8
04
100
AcDbCircle
 10
246.3335587500858
 20
327.8365638265373
 30
0.0
 40
0.4000000000000055
100
AcDbArc
 50
180.0000000000002
 51
269.9999999999996
  0
ARC
  5
2E0
330
A
100
AcDbEntity
  8
04
100
AcDbCircle
 10
235.5335587500859
 20
327.8365638265373
 30
0.0
 40
0.4000000000000055
100
AcDbArc
 50
269.9999999999996
 51
359.9999999999997
  0
ARC
  5
2EC
330
A
100
AcDbEntity
  8
04
100
AcDbCircle
 10
248.2798201060298
 20
342.1251208397741
 30
0.0
 40
3.81144298676312
100
AcDbArc
 50
49.92557966161388
 51
90.0
  0
ARC
  5
2ED
330
A
100
AcDbEntity
  8
04
100
AcDbCircle
 10
233.5872973941418
 20
342.1251208397741
 30
0.0
 40
3.811442986763128
100
AcDbArc
 50
90.0
 51
130.0744203383862
  0
ARC
  5
2EE
330
A
100
AcDbEntity
  8
04
100
AcDbCircle
 10
248.2798201060298
 20
343.7480068133007
 30
0.0
 40
3.811442986763128
100
AcDbArc
 50
270.0
 51
310.0744203383857
  0
ARC
  5
2EF
330
A
100
AcDbEntity
  8
04
100
AcDbCircle
 10
233.5872973941418
 20
343.7480068133007
 30
0.0
 40
3.81144298676312
100
AcDbArc
 50
229.9255796616141
 51
270.0
  0
ARC
  5
304
330
A
100
AcDbEntity
  8
04
100
AcDbCircle
 10
196.9335587500859
 20
297.9365638265371
 30
0.0
 40
1.0
100
AcDbArc
 50
0.0
 51
90.0
  0
ARC
  5
305
330
A
100
AcDbEntity
  8
04
100
AcDbCircle
 10
68.93355875008615
 20
297.9365638265371
 30
0.0
 40
1.0
100
AcDbArc
 50
90.0
 51
180.0
  0
ARC
  5
354
330
A
100
AcDbEntity
  8
SOUZOU
100
AcDbCircle
 10
359.0389040405373
 20
430.9956543383673
 30
0.0
 40
90.0182
100
AcDbArc
 50
86.49711662218447
 51
176.4971166221844
  0
ARC
  5
398
330
A
100
AcDbEntity
  8
06
100
AcDbCircle
 10
367.0389040405375
 20
455.8941836087567
 30
0.0
 40
1.6
100
AcDbArc
 50
281.0182899455629
 51
321.3178125465101
  0
ARC
  5
399
330
A
100
AcDbEntity
  8
06
100
AcDbCircle
 10
367.0389040405375
 20
455.8941836087567
 30
0.0
 40
1.6
100
AcDbArc
 50
38.68218745348929
 51
78.98171005443661
  0
ARC
  5
3A2
330
A
100
AcDbEntity
  8
06
100
AcDbCircle
 10
392.2349464347313
 20
461.8941836087566
 30
0.0
 40
5.0
100
AcDbArc
 50
270.0000000000004
 51
294.6199773286567
  0
ARC
  5
3A6
330
A
100
AcDbEntity
  8
04
100
AcDbCircle
 10
380.1389040405373
 20
432.6456543383675
 30
0.0
 40
0.4
100
AcDbArc
 50
270.0000000000004
 51
359.9999999999997
  0
ARC
  5
3AA
330
A
100
AcDbEntity
  8
06
100
AcDbCircle
 10
394.9844918517051
 20
455.8941836087567
 30
0.0
 40
1.6
100
AcDbArc
 50
257.9925724547265
 51
114.619977328657
  0
ARC
  5
3BB
330
A
100
AcDbEntity
  8
KAKURE
 48
0.2
100
AcDbCircle
 10
334.1403747701481
 20
438.9956543383673
 30
0.0
 40
1.6
100
AcDbArc
 50
81.35008745348882
 51
168.9817100544364
  0
ARC
  5
3C2
330
A
100
AcDbEntity
  8
KAKURE
 48
0.2
100
AcDbCircle
 10
348.6003971666082
 20
460.4839838365831
 30
0.0
 40
5.0
100
AcDbArc
 50
312.6679000000003
 51
337.2878773286566
  0
ARC
  5
3C4
330
A
100
AcDbEntity
  8
KAKURE
 48
0.2
100
AcDbCircle
 10
354.6886095293875
 20
457.9357157530213
 30
0.0
 40
1.6
100
AcDbArc
 50
5.980741747759299
 51
157.287877328657
  0
ARC
  5
3C6
330
A
100
AcDbEntity
  8
KAKURE
 48
0.1
100
AcDbCircle
 10
372.000325174449
 20
443.9325711152654
 30
0.0
 40
5.145969437138407
100
AcDbArc
 50
300.7695590814484
 51
337.9947007852848
  0
ARC
  5
3CA
330
A
100
AcDbEntity
  8
KAKURE
 48
0.2
100
AcDbCircle
 10
356.7333710912082
 20
451.6604508060011
 30
0.0
 40
5.0
100
AcDbArc
 50
111.5780684781448
 51
132.6678999999994
  0
CIRCLE
  5
3D8
330
A
100
AcDbEntity
  8
03
100
AcDbCircle
 10
359.0389040405373
 20
430.9956543383673
 30
0.0
 40
1.0
  0
ARC
  5
3DC
330
A
100
AcDbEntity
  8
06
100
AcDbCircle
 10
375.9390175768501
 20
443.4270619509746
 30
0.0
 40
4.737177393701556
100
AcDbArc
 50
194.5081777120718
 51
234.1513101971058
  0
LINE
  5
3FA
330
A
100
AcDbEntity
  8
06
100
AcDbLine
 10
370.5389040405373
 20
456.8941836087566
 30
0.0
 11
376.2485516522872
 21
456.8941836087566
 31
0.0
  0
LINE
  5
3FB
330
A
100
AcDbEntity
  8
06
100
AcDbLine
 10
376.2485516522872
 20
454.8941836087567
 30
0.0
 11
370.5389040405373
 21
454.8941836087567
 31
0.0
  0
LINE
  5
3FD
330
A
100
AcDbEntity
  8
06
100
AcDbLine
 10
373.1647052519007
 20
439.5872649793848
 30
0.0
 11
373.8976658083708
 21
440.0648755243458
 31
0.0
  0
LINE
  5
3FE
330
A
100
AcDbEntity
  8
06
100
AcDbLine
 10
380.5389040405373
 20
444.6013383720196
 30
0.0
 11
376.7498756659716
 21
441.9895745305868
 31
0.0
  0
LINE
  5
3FF
330
A
100
AcDbEntity
  8
06
100
AcDbLine
 10
380.5389040405373
 20
448.2983733422763
 30
0.0
 11
374.1491294961412
 21
444.3674118178527
 31
0.0
  0
LINE
  5
401
330
A
100
AcDbEntity
  8
03
100
AcDbLine
 10
367.5389040405375
 20
552.93416769964
 30
0.0
 11
367.5389040405373
 21
519.8456543383675
 31
0.0
  0
LINE
  5
402
330
A
100
AcDbEntity
  8
03
100
AcDbLine
 10
360.5389040405373
 20
552.93416769964
 30
0.0
 11
360.5389040405373
 21
521.3456543383673
 31
0.0
  0
LINE
  5
403
330
A
100
AcDbEntity
  8
03
100
AcDbLine
 10
365.0389040405373
 20
521.3456543383673
 30
0.0
 11
365.0389040405373
 21
519.8456543383675
 31
0.0
  0
LINE
  5
404
330
A
100
AcDbEntity
  8
03
100
AcDbLine
 10
367.5389040405373
 20
519.8456543383675
 30
0.0
 11
365.0389040405373
 21
519.8456543383675
 31
0.0
  0
LINE
  5
405
330
A
100
AcDbEntity
  8
03
100
AcDbLine
 10
360.5389040405373
 20
521.3456543383673
 30
0.0
 11
365.0389040405373
 21
521.3456543383673
 31
0.0
  0
LINE
  5
406
330
A
100
AcDbEntity
  8
03
100
AcDbLine
 10
360.5389040405373
 20
524.3456543383675
 30
0.0
 11
367.5389040405373
 21
524.3456543383675
 31
0.0
  0
LINE
  5
407
330
A
100
AcDbEntity
  8
03
100
AcDbLine
 10
367.5389040405373
 20
497.2456543383676
 30
0.0
 11
367.5389040405373
 21
519.8456543383675
 31
0.0
  0
LINE
  5
408
330
A
100
AcDbEntity
  8
03
100
AcDbLine
 10
367.5389040405375
 20
388.6513503412516
 30
0.0
 11
367.5389040405373
 21
432.2456543383673
 31
0.0
  0
LINE
  5
409
330
A
100
AcDbEntity
  8
03
100
AcDbLine
 10
360.5389040405373
 20
388.6513503412516
 30
0.0
 11
360.5389040405373
 21
430.7456543383676
 31
0.0
  0
LINE
  5
40A
330
A
100
AcDbEntity
  8
03
100
AcDbLine
 10
365.0389040405373
 20
430.7456543383676
 30
0.0
 11
365.0389040405373
 21
432.2456543383673
 31
0.0
  0
LINE
  5
40B
330
A
100
AcDbEntity
  8
03
100
AcDbLine
 10
367.5389040405373
 20
432.2456543383673
 30
0.0
 11
365.0389040405373
 21
432.2456543383673
 31
0.0
  0
LINE
  5
40C
330
A
100
AcDbEntity
  8
03
100
AcDbLine
 10
360.5389040405373
 20
430.7456543383676
 30
0.0
 11
365.0389040405373
 21
430.7456543383676
 31
0.0
  0
LINE
  5
40D
330
A
100
AcDbEntity
  8
03
100
AcDbLine
 10
360.5389040405373
 20
427.7456543383673
 30
0.0
 11
367.5389040405373
 21
427.7456543383673
 31
0.0
  0
LINE
  5
40E
330
A
100
AcDbEntity
  8
KAKURE
 48
0.3
100
AcDbLine
 10
371.3528997966954
 20
442.2403128764247
 30
0.0
 11
354.8945279490918
 21
456.3100374434013
 31
0.0
  0
LINE
  5
40F
330
A
100
AcDbEntity
  8
KAKURE
 48
0.3
100
AcDbLine
 10
374.1491294961412
 20
444.3674118178527
 30
0.0
 11
356.2799006866458
 21
458.1024264390367
 31
0.0
  0
LINE
  5
410
330
A
100
AcDbEntity
  8
SOUZOU
100
AcDbLine
 10
358.7889040405373
 20
432.4956543383674
 30
0.0
 11
358.7889040405373
 21
436.4956543383674
 31
0.0
  0
LINE
  5
411
330
A
100
AcDbEntity
  8
KAKURE
 48
0.2
100
AcDbLine
 10
349.3298492837944
 20
451.6363505040962
 30
0.0
 11
353.3446319559581
 21
455.3369229020772
 31
0.0
  0
LINE
  5
412
330
A
100
AcDbEntity
  8
KAKURE
 48
0.2
100
AcDbLine
 10
347.9743536296942
 20
453.1069393425267
 30
0.0
 11
351.9891363018581
 21
456.8075117405075
 31
0.0
  0
LINE
  5
415
330
A
100
AcDbEntity
  8
KAKURE
 48
0.2
100
AcDbLine
 10
340.2344294349564
 20
445.9727674143423
 30
0.0
 11
334.3810093783445
 21
440.5774555222516
 31
0.0
  0
LINE
  5
416
330
A
100
AcDbEntity
  8
KAKURE
 48
0.2
100
AcDbLine
 10
341.5899250890563
 20
444.502178575912
 30
0.0
 11
335.7469023404389
 21
439.1164502638353
 31
0.0
  0
LINE
  5
419
330
A
100
AcDbEntity
  8
KAKURE
 48
0.2
100
AcDbLine
 10
332.1403747701481
 20
437.0956543383674
 30
0.0
 11
332.5698688126592
 21
439.3014500830925
 31
0.0
  0
LINE
  5
41A
330
A
100
AcDbEntity
  8
KAKURE
 48
0.2
100
AcDbLine
 10
336.1403747701481
 20
437.0956543383674
 30
0.0
 11
335.7469023404389
 21
439.1164502638353
 31
0.0
  0
LINE
  5
41B
330
A
100
AcDbEntity
  8
KAKURE
 48
0.2
100
AcDbLine
 10
330.1403747701481
 20
437.0956543383674
 30
0.0
 11
330.1403747701481
 21
436.4956543383674
 31
0.0
  0
LINE
  5
41C
330
A
100
AcDbEntity
  8
KAKURE
 48
0.2
100
AcDbLine
 10
338.1403747701481
 20
437.0956543383674
 30
0.0
 11
338.1403747701481
 21
436.4956543383674
 31
0.0
  0
LINE
  5
41D
330
A
100
AcDbEntity
  8
KAKURE
 48
0.2
100
AcDbLine
 10
338.1403747701481
 20
437.0956543383674
 30
0.0
 11
330.1403747701481
 21
437.0956543383674
 31
0.0
  0
LINE
  5
41E
330
A
100
AcDbEntity
  8
SOUZOU
100
AcDbLine
 10
358.7889040405373
 20
436.4956543383674
 30
0.0
 11
269.1889040405373
 21
436.4956543383674
 31
0.0
  0
LINE
  5
41F
330
A
100
AcDbEntity
  8
SOUZOU
100
AcDbLine
 10
358.7889040405373
 20
432.4956543383674
 30
0.0
 11
269.1889040405373
 21
432.4956543383674
 31
0.0
  0
LINE
  5
420
330
A
100
AcDbEntity
  8
KAKURE
 48
0.2
100
AcDbLine
 10
338.1403747701481
 20
436.4956543383674
 30
0.0
 11
330.1403747701481
 21
436.4956543383674
 31
0.0
  0
LINE
  5
421
330
A
100
AcDbEntity
  8
SOUZOU
100
AcDbLine
 10
269.1889040405373
 20
432.4956543383674
 30
0.0
 11
269.1889040405373
 21
436.4956543383674
 31
0.0
  0
LINE
  5
422
330
A
100
AcDbEntity
  8
06
100
AcDbLine
 10
360.5389040405373
 20
520.8456543383674
 30
0.0
 11
364.5389040405373
 21
520.8456543383674
 31
0.0
  0
LINE
  5
423
330
A
100
AcDbEntity
  8
06
100
AcDbLine
 10
360.5389040405373
 20
431.2456543383674
 30
0.0
 11
360.5389040405373
 21
520.8456543383674
 31
0.0
  0
LINE
  5
424
330
A
100
AcDbEntity
  8
06
100
AcDbLine
 10
364.5389040405373
 20
431.2456543383674
 30
0.0
 11
364.5389040405373
 21
520.8456543383674
 31
0.0
  0
LINE
  5
425
330
A
100
AcDbEntity
  8
04
100
AcDbLine
 10
367.5389040405373
 20
497.2456543383676
 30
0.0
 11
380.5389040405373
 21
497.2456543383676
 31
0.0
  0
LINE
  5
426
330
A
100
AcDbEntity
  8
04
100
AcDbLine
 10
380.5389040405373
 20
432.6456543383675
 30
0.0
 11
380.5389040405373
 21
497.2456543383676
 31
0.0
  0
LINE
  5
427
330
A
100
AcDbEntity
  8
06
100
AcDbLine
 10
380.5389040405373
 20
444.6013383720196
 30
0.0
 11
394.6516302655414
 21
454.3291905849842
 31
0.0
  0
LINE
  5
428
330
A
100
AcDbEntity
  8
06
100
AcDbLine
 10
380.5389040405373
 20
448.2983733422763
 30
0.0
 11
391.2603879010548
 21
454.8941836087567
 31
0.0
  0
LINE
  5
429
330
A
100
AcDbEntity
  8
06
100
AcDbLine
 10
386.7748442399549
 20
454.8941836087567
 30
0.0
 11
391.2603879010548
 21
454.8941836087567
 31
0.0
  0
LINE
  5
42A
330
A
100
AcDbEntity
  8
06
100
AcDbLine
 10
386.7748442399549
 20
456.8941836087566
 30
0.0
 11
392.2349464347313
 21
456.8941836087566
 31
0.0
  0
LINE
  5
42C
330
A
100
AcDbEntity
  8
04
100
AcDbLine
 10
367.5389040405373
 20
432.2456543383673
 30
0.0
 11
380.1389040405373
 21
432.2456543383673
 31
0.0
  0
LINE
  5
42D
330
A
100
AcDbEntity
  8
06
100
AcDbLine
 10
364.5389040405373
 20
451.8941836087567
 30
0.0
 11
364.5389040405373
 21
459.8941836087568
 31
0.0
  0
LINE
  5
42E
330
A
100
AcDbEntity
  8
06
100
AcDbLine
 10
370.5389040405373
 20
456.8941836087566
 30
0.0
 11
368.2879036402172
 21
456.8941836087566
 31
0.0
  0
LINE
  5
42F
330
A
100
AcDbEntity
  8
06
100
AcDbLine
 10
370.5389040405373
 20
454.8941836087567
 30
0.0
 11
368.2879036402172
 21
454.8941836087567
 31
0.0
  0
LINE
  5
430
330
A
100
AcDbEntity
  8
04
100
AcDbLine
 10
367.5389040405373
 20
432.2456543383673
 30
0.0
 11
367.5389040405373
 21
497.2456543383676
 31
0.0
  0
LINE
  5
433
330
A
100
AcDbEntity
  8
06
100
AcDbLine
 10
365.1389040405373
 20
457.8941836087566
 30
0.0
 11
367.3446997852625
 21
457.4646895662453
 31
0.0
  0
LINE
  5
434
330
A
100
AcDbEntity
  8
06
100
AcDbLine
 10
365.1389040405373
 20
453.8941836087566
 30
0.0
 11
367.3446997852625
 21
454.3236776512677
 31
0.0
  0
LINE
  5
435
330
A
100
AcDbEntity
  8
06
100
AcDbLine
 10
365.1389040405373
 20
459.8941836087568
 30
0.0
 11
364.5389040405373
 21
459.8941836087568
 31
0.0
  0
LINE
  5
436
330
A
100
AcDbEntity
  8
06
100
AcDbLine
 10
365.1389040405373
 20
451.8941836087567
 30
0.0
 11
364.5389040405373
 21
451.8941836087567
 31
0.0
  0
LINE
  5
437
330
A
100
AcDbEntity
  8
06
100
AcDbLine
 10
365.1389040405373
 20
451.8941836087567
 30
0.0
 11
365.1389040405373
 21
459.8941836087568
 31
0.0
  0
LINE
  5
438
330
A
100
AcDbEntity
  8
06
100
AcDbLine
 10
360.5389040405373
 20
431.2456543383674
 30
0.0
 11
364.5389040405373
 21
431.2456543383674
 31
0.0
  0
LINE
  5
439
330
A
100
AcDbEntity
  8
04
100
AcDbLine
 10
67.93355875008604
 20
168.936563826537
 30
0.0
 11
197.9335587500859
 21
168.936563826537
 31
0.0
  0
LINE
  5
43A
330
A
100
AcDbEntity
  8
03
100
AcDbLine
 10
111.1672939669247
 20
456.3941836087566
 30
0.0
 11
111.1672939669247
 21
459.5941836087567
 31
0.0
  0
LINE
  5
43B
330
A
100
AcDbEntity
  8
03
100
AcDbLine
 10
111.1672939669247
 20
452.1941836087567
 30
0.0
 11
111.1672939669247
 21
455.3941836087566
 31
0.0
  0
LINE
  5
442
330
A
100
AcDbEntity
  8
03
100
AcDbLine
 10
108.7572939669247
 20
456.9941836087566
 30
0.0
 11
110.7572939669247
 21
456.9941836087566
 31
0.0
  0
LINE
  5
443
330
A
100
AcDbEntity
  8
03
100
AcDbLine
 10
112.4172939669248
 20
451.8941836087566
 30
0.0
 11
111.1672939669247
 21
452.1941836087567
 31
0.0
  0
LINE
  5
444
330
A
100
AcDbEntity
  8
03
100
AcDbLine
 10
113.6672939669245
 20
452.1941836087567
 30
0.0
 11
112.4172939669248
 21
451.8941836087566
 31
0.0
  0
LINE
  5
445
330
A
100
AcDbEntity
  8
03
100
AcDbLine
 10
112.4172939669247
 20
459.8941836087566
 30
0.0
 11
111.1672939669247
 21
459.5941836087567
 31
0.0
  0
LINE
  5
446
330
A
100
AcDbEntity
  8
03
100
AcDbLine
 10
113.6672939669245
 20
459.5941836087567
 30
0.0
 11
112.4172939669247
 21
459.8941836087566
 31
0.0
  0
LINE
  5
447
330
A
100
AcDbEntity
  8
03
100
AcDbLine
 10
113.6672939669245
 20
452.1941836087567
 30
0.0
 11
113.6672939669245
 21
459.5941836087567
 31
0.0
  0
LINE
  5
448
330
A
100
AcDbEntity
  8
03
100
AcDbLine
 10
108.748930012091
 20
443.4956543383673
 30
0.0
 11
108.7572939669247
 21
456.9941836087566
 31
0.0
  0
LINE
  5
449
330
A
100
AcDbEntity
  8
03
100
AcDbLine
 10
110.7572939669247
 20
443.7456543383674
 30
0.0
 11
110.7572939669247
 21
456.9941836087566
 31
0.0
  0
LINE
  5
44A
330
A
100
AcDbEntity
  8
03
100
AcDbLine
 10
110.8572939669245
 20
440.7456543383673
 30
0.0
 11
111.1572939669247
 21
441.5698975642039
 31
0.0
  0
LINE
  5
44B
330
A
100
AcDbEntity
  8
03
100
AcDbLine
 10
111.1572939669247
 20
442.9214111125311
 30
0.0
 11
110.8572939669245
 21
443.7456543383674
 31
0.0
  0
LINE
  5
44C
330
A
100
AcDbEntity
  8
03
100
AcDbLine
 10
110.8572939669245
 20
443.7456543383674
 30
0.0
 11
110.7572939669247
 21
443.7456543383674
 31
0.0
  0
LINE
  5
44D
330
A
100
AcDbEntity
  8
03
100
AcDbLine
 10
110.8572939669245
 20
440.7456543383673
 30
0.0
 11
110.7572939669247
 21
440.7456543383673
 31
0.0
  0
LINE
  5
44E
330
A
100
AcDbEntity
  8
03
100
AcDbLine
 10
111.1572939669247
 20
441.5698975642039
 30
0.0
 11
111.1572939669247
 21
442.9214111125311
 31
0.0
  0
LINE
  5
44F
330
A
100
AcDbEntity
  8
03
100
AcDbLine
 10
108.2772939669248
 20
443.4956543383673
 30
0.0
 11
108.748930012091
 21
443.4956543383673
 31
0.0
  0
LINE
  5
450
330
A
100
AcDbEntity
  8
03
100
AcDbLine
 10
108.2772939669248
 20
440.9956543383676
 30
0.0
 11
108.748930012091
 21
440.9956543383676
 31
0.0
  0
LINE
  5
451
330
A
100
AcDbEntity
  8
03
100
AcDbLine
 10
108.7572939669247
 20
440.4956543383674
 30
0.0
 11
110.7572939669247
 21
440.4956543383674
 31
0.0
  0
ARC
  5
457
330
A
100
AcDbEntity
  8
KAKURE
100
AcDbCircle
 10
72.33355875008554
 20
171.8365638265369
 30
0.0
 40
2.9
100
AcDbArc
 50
180.0
 51
270.0
  0
ARC
  5
45C
330
A
100
AcDbEntity
  8
KAKURE
100
AcDbCircle
 10
193.5335587500859
 20
171.8365638265369
 30
0.0
 40
2.9
100
AcDbArc
 50
270.0
 51
0.0000000000000799
  0
LINE
  5
4DD
330
A
100
AcDbEntity
  8
03
100
AcDbLine
 10
213.1572939669247
 20
427.7456543383673
 30
0.0
 11
68.15729396692471
 21
427.7456543383673
 31
0.0
  0
LINE
  5
4DE
330
A
100
AcDbEntity
  8
03
100
AcDbLine
 10
248.1572939669247
 20
427.7456543383673
 30
0.0
 11
218.1572939669246
 21
427.7456543383673
 31
0.0
  0
LINE
  5
4DF
330
A
100
AcDbEntity
  8
03
100
AcDbLine
 10
218.1572939669246
 20
432.2456543383673
 30
0.0
 11
248.1572939669247
 21
432.2456543383673
 31
0.0
  0
LINE
  5
4E0
330
A
100
AcDbEntity
  8
03
100
AcDbLine
 10
108.1572939669247
 20
432.2456543383673
 30
0.0
 11
213.1572939669247
 21
432.2456543383673
 31
0.0
  0
LINE
  5
4E1
330
A
100
AcDbEntity
  8
03
100
AcDbLine
 10
218.1572939669246
 20
524.3456543383675
 30
0.0
 11
248.1572939669247
 21
524.3456543383675
 31
0.0
  0
LINE
  5
4E2
330
A
100
AcDbEntity
  8
03
100
AcDbLine
 10
68.15729396692471
 20
524.3456543383675
 30
0.0
 11
213.1572939669247
 21
524.3456543383675
 31
0.0
  0
LINE
  5
4E3
330
A
100
AcDbEntity
  8
03
100
AcDbLine
 10
218.1572939669246
 20
519.8456543383675
 30
0.0
 11
248.1572939669247
 21
519.8456543383675
 31
0.0
  0
LINE
  5
4E4
330
A
100
AcDbEntity
  8
03
100
AcDbLine
 10
68.15729396692471
 20
519.8456543383675
 30
0.0
 11
213.1572939669247
 21
519.8456543383675
 31
0.0
  0
LINE
  5
4E5
330
A
100
AcDbEntity
  8
SAISEN
100
AcDbLine
 10
213.1572939669247
 20
420.37544297442
 30
0.0
 11
213.1572939669247
 21
531.4600565735076
 31
0.0
  0
LINE
  5
4E6
330
A
100
AcDbEntity
  8
SAISEN
100
AcDbLine
 10
218.1572939669246
 20
531.4600565735076
 30
0.0
 11
218.1572939669246
 21
420.37544297442
 31
0.0
  0
LINE
  5
4E7
330
A
100
AcDbEntity
  8
03
100
AcDbLine
 10
68.15729396692471
 20
432.2456543383673
 30
0.0
 11
93.15729396692473
 21
432.2456543383673
 31
0.0
  0
LINE
  5
4E9
330
A
100
AcDbEntity
  8
03
100
AcDbLine
 10
71.15729396692471
 20
432.2456543383673
 30
0.0
 11
71.15729396692471
 21
519.8456543383675
 31
0.0
  0
LINE
  5
4EA
330
A
100
AcDbEntity
  8
04
100
AcDbLine
 10
43.53890404053743
 20
519.8456543383675
 30
0.0
 11
43.53890404053731
 21
432.2456543383673
 31
0.0
  0
LINE
  5
4EB
330
A
100
AcDbEntity
  8
04
100
AcDbLine
 10
28.53890404053743
 20
432.2456543383673
 30
0.0
 11
28.53890404053743
 21
519.8456543383675
 31
0.0
  0
LINE
  5
4EC
330
A
100
AcDbEntity
  8
04
100
AcDbLine
 10
43.53890404053731
 20
432.2456543383673
 30
0.0
 11
28.53890404053743
 21
432.2456543383673
 31
0.0
  0
LINE
  5
4ED
330
A
100
AcDbEntity
  8
04
100
AcDbLine
 10
43.53890404053743
 20
519.8456543383675
 30
0.0
 11
28.53890404053743
 21
519.8456543383675
 31
0.0
  0
LINE
  5
4EE
330
A
100
AcDbEntity
  8
03
100
AcDbLine
 10
68.15729396692471
 20
427.7456543383673
 30
0.0
 11
68.15729396692471
 21
524.3456543383675
 31
0.0
  0
LINE
  5
4EF
330
A
100
AcDbEntity
  8
03
100
AcDbLine
 10
108.1572939669247
 20
519.8456543383675
 30
0.0
 11
108.1572939669247
 21
432.2456543383673
 31
0.0
  0
LINE
  5
4F0
330
A
100
AcDbEntity
  8
03
100
AcDbLine
 10
108.1572939669247
 20
432.2456543383673
 30
0.0
 11
93.15729396692473
 21
432.2456543383673
 31
0.0
  0
LINE
  5
4F1
330
A
100
AcDbEntity
  8
03
100
AcDbLine
 10
248.1572939669247
 20
570.455775558682
 30
0.0
 11
248.1572939669247
 21
412.0262348231793
 31
0.0
  0
LINE
  5
4F2
330
A
100
AcDbEntity
  8
03
100
AcDbLine
 10
93.15729396692473
 20
432.2456543383673
 30
0.0
 11
93.15729396692473
 21
519.8456543383675
 31
0.0
  0
LINE
  5
4F3
330
A
100
AcDbEntity
  8
CHUSIN
100
AcDbLine
 10
193.1572939669245
 20
431.2456543383674
 30
0.0
 11
247.1572939669246
 21
520.8456543383674
 31
0.0
  0
LINE
  5
4F4
330
A
100
AcDbEntity
  8
CHUSIN
100
AcDbLine
 10
193.1572939669245
 20
431.2456543383674
 30
0.0
 11
106.9572939669249
 21
520.8456543383674
 31
0.0
  0
LINE
  5
4F6
330
A
100
AcDbEntity
  8
KAKURE
 48
0.2
100
AcDbLine
 10
346.0336722174071
 20
451.1141422100013
 30
0.0
 11
342.3784262329778
 21
447.7449679601486
 31
0.0
  0
LINE
  5
4F7
330
A
100
AcDbEntity
  8
KAKURE
 48
0.2
100
AcDbLine
 10
347.1858435233921
 20
449.8641416973355
 30
0.0
 11
343.530597538963
 21
446.4949674474828
 31
0.0
  0
LINE
  5
4FA
330
A
100
AcDbEntity
  8
KAKURE
 48
0.2
100
AcDbLine
 10
341.9057223177464
 20
445.4732601819649
 30
0.0
 11
343.2827727436722
 21
446.7425380515094
 31
0.0
  0
LINE
  5
4FB
330
A
100
AcDbEntity
  8
KAKURE
 48
0.2
100
AcDbLine
 10
341.2279744906965
 20
446.2085546011801
 30
0.0
 11
342.6050249166221
 21
447.4778324707247
 31
0.0
  0
LINE
  5
4FE
330
A
100
AcDbEntity
  8
KAKURE
 48
0.2
100
AcDbLine
 10
340.3467046648369
 20
445.8722556941586
 30
0.0
 11
340.9801496954055
 21
446.4561252052066
 31
0.0
  0
LINE
  5
4FF
330
A
100
AcDbEntity
  8
KAKURE
 48
0.2
100
AcDbLine
 10
341.4988759708221
 20
444.6222551814931
 30
0.0
 11
342.1323210013905
 21
445.2061246925408
 31
0.0
  0
LINE
  5
501
330
A
100
AcDbEntity
  8
KAKURE
 48
0.2
100
AcDbLine
 10
348.3363042280543
 20
451.4005633172586
 30
0.0
 11
346.959244839748
 21
450.1312771867595
 31
0.0
  0
LINE
  5
502
330
A
100
AcDbEntity
  8
KAKURE
 48
0.2
100
AcDbLine
 10
347.6585564010042
 20
452.135857736474
 30
0.0
 11
346.2814970126979
 21
450.8665716059746
 31
0.0
  0
LINE
  5
505
330
A
100
AcDbEntity
  8
KAKURE
 48
0.2
100
AcDbLine
 10
348.0654027479283
 20
452.9868627369458
 30
0.0
 11
347.4319577173598
 21
452.4029932258978
 31
0.0
  0
LINE
  5
506
330
A
100
AcDbEntity
  8
KAKURE
 48
0.2
100
AcDbLine
 10
349.2175740539136
 20
451.7368622242798
 30
0.0
 11
348.5841290233451
 21
451.1529927132321
 31
0.0
  0
LINE
  5
507
330
A
100
AcDbEntity
  8
KAKURE
100
AcDbLine
 10
218.1572939669246
 20
431.2456543383674
 30
0.0
 11
247.1572939669246
 21
431.2456543383674
 31
0.0
  0
LINE
  5
508
330
A
100
AcDbEntity
  8
KAKURE
100
AcDbLine
 10
106.9572939669247
 20
431.2456543383674
 30
0.0
 11
213.1572939669247
 21
431.2456543383674
 31
0.0
  0
LINE
  5
509
330
A
100
AcDbEntity
  8
KAKURE
100
AcDbLine
 10
213.1572939669247
 20
520.8456543383674
 30
0.0
 11
106.9572939669249
 21
520.8456543383674
 31
0.0
  0
LINE
  5
50A
330
A
100
AcDbEntity
  8
KAKURE
100
AcDbLine
 10
247.1572939669246
 20
520.8456543383674
 30
0.0
 11
218.1572939669246
 21
520.8456543383674
 31
0.0
  0
LINE
  5
50B
330
A
100
AcDbEntity
  8
KAKURE
100
AcDbLine
 10
247.1572939669246
 20
431.2456543383674
 30
0.0
 11
247.1572939669246
 21
432.2456543383673
 31
0.0
  0
LINE
  5
50C
330
A
100
AcDbEntity
  8
KAKURE
100
AcDbLine
 10
106.9572939669249
 20
520.8456543383674
 30
0.0
 11
106.9572939669247
 21
431.2456543383674
 31
0.0
  0
LINE
  5
50D
330
A
100
AcDbEntity
  8
06
100
AcDbLine
 10
218.1572939669246
 20
439.2456543383674
 30
0.0
 11
247.1572939669246
 21
439.2456543383674
 31
0.0
  0
LINE
  5
50E
330
A
100
AcDbEntity
  8
06
100
AcDbLine
 10
197.1572939669247
 20
439.2456543383674
 30
0.0
 11
213.1572939669247
 21
439.2456543383674
 31
0.0
  0
LINE
  5
50F
330
A
100
AcDbEntity
  8
06
100
AcDbLine
 10
213.1572939669247
 20
512.8456543383673
 30
0.0
 11
197.1572939669247
 21
512.8456543383673
 31
0.0
  0
LINE
  5
510
330
A
100
AcDbEntity
  8
06
100
AcDbLine
 10
247.1572939669246
 20
512.8456543383673
 30
0.0
 11
218.1572939669246
 21
512.8456543383673
 31
0.0
  0
LINE
  5
511
330
A
100
AcDbEntity
  8
06
100
AcDbLine
 10
197.1572939669247
 20
512.8456543383673
 30
0.0
 11
197.1572939669247
 21
439.2456543383674
 31
0.0
  0
LINE
  5
512
330
A
100
AcDbEntity
  8
06
100
AcDbLine
 10
189.1572939669247
 20
439.2456543383674
 30
0.0
 11
189.1572939669247
 21
512.8456543383673
 31
0.0
  0
LINE
  5
513
330
A
100
AcDbEntity
  8
06
100
AcDbLine
 10
235.1572939669245
 20
439.2456543383674
 30
0.0
 11
235.1572939669245
 21
512.8456543383673
 31
0.0
  0
LINE
  5
514
330
A
100
AcDbEntity
  8
06
100
AcDbLine
 10
108.1572939669247
 20
439.2456543383674
 30
0.0
 11
189.1572939669247
 21
439.2456543383674
 31
0.0
  0
LINE
  5
515
330
A
100
AcDbEntity
  8
06
100
AcDbLine
 10
118.9572939669249
 20
512.8456543383673
 30
0.0
 11
118.9572939669248
 21
439.2456543383674
 31
0.0
  0
LINE
  5
516
330
A
100
AcDbEntity
  8
06
100
AcDbLine
 10
189.1572939669247
 20
512.8456543383673
 30
0.0
 11
108.1572939669247
 21
512.8456543383673
 31
0.0
  0
LINE
  5
517
330
A
100
AcDbEntity
  8
KAKURE
 48
0.2
100
AcDbLine
 10
346.0336722174071
 20
451.1141422100013
 30
0.0
 11
346.0612289689068
 21
451.1055422922196
 31
0.0
  0
LINE
  5
518
330
A
100
AcDbEntity
  8
KAKURE
 48
0.2
100
AcDbLine
 10
347.1858435233921
 20
449.8641416973355
 30
0.0
 11
347.1795128835393
 21
449.8923065005143
 31
0.0
  0
LINE
  5
519
330
A
100
AcDbEntity
  8
KAKURE
 48
0.2
100
AcDbLine
 10
348.0654027479283
 20
452.9868627369458
 30
0.0
 11
348.0929594994281
 21
452.9782628191639
 31
0.0
  0
LINE
  5
51A
330
A
100
AcDbEntity
  8
KAKURE
 48
0.2
100
AcDbLine
 10
349.2175740539136
 20
451.7368622242798
 30
0.0
 11
349.2112434140606
 21
451.765027027459
 31
0.0
  0
LINE
  5
51B
330
A
100
AcDbEntity
  8
KAKURE
 48
0.2
100
AcDbLine
 10
347.4319577173598
 20
452.4029932258978
 30
0.0
 11
347.4382883572129
 21
452.3748284227186
 31
0.0
  0
LINE
  5
51C
330
A
100
AcDbEntity
  8
KAKURE
 48
0.2
100
AcDbLine
 10
348.5841290233451
 20
451.1529927132321
 30
0.0
 11
348.5565722718455
 21
451.1615926310136
 31
0.0
  0
LINE
  5
51F
330
A
100
AcDbEntity
  8
06
100
AcDbLine
 10
383.9972581017048
 20
456.7441836087566
 30
0.0
 11
380.5389040405373
 21
456.7441836087566
 31
0.0
  0
LINE
  5
520
330
A
100
AcDbEntity
  8
06
100
AcDbLine
 10
383.9972581017048
 20
455.0441836087567
 30
0.0
 11
380.5389040405373
 21
455.0441836087567
 31
0.0
  0
LINE
  5
523
330
A
100
AcDbEntity
  8
06
100
AcDbLine
 10
383.9972581017048
 20
456.7441836087566
 30
0.0
 11
384.0116918517047
 21
456.7191836087566
 31
0.0
  0
LINE
  5
524
330
A
100
AcDbEntity
  8
06
100
AcDbLine
 10
383.9972581017048
 20
455.0441836087567
 30
0.0
 11
384.0116918517047
 21
455.0691836087566
 31
0.0
  0
LINE
  5
526
330
A
100
AcDbEntity
  8
06
100
AcDbLine
 10
386.7604104899549
 20
456.7441836087566
 30
0.0
 11
386.7748442399549
 21
456.7191836087566
 31
0.0
  0
LINE
  5
527
330
A
100
AcDbEntity
  8
06
100
AcDbLine
 10
386.7604104899549
 20
455.0441836087567
 30
0.0
 11
386.7748442399549
 21
455.0691836087566
 31
0.0
  0
LINE
  5
528
330
A
100
AcDbEntity
  8
06
100
AcDbLine
 10
385.884491851705
 20
455.3941836087567
 30
0.0
 11
384.0116918517047
 21
455.3941836087567
 31
0.0
  0
LINE
  5
529
330
A
100
AcDbEntity
  8
06
100
AcDbLine
 10
385.884491851705
 20
456.3941836087566
 30
0.0
 11
384.0116918517047
 21
456.3941836087566
 31
0.0
  0
LINE
  5
52C
330
A
100
AcDbEntity
  8
06
100
AcDbLine
 10
385.8989256017047
 20
456.7441836087566
 30
0.0
 11
385.884491851705
 21
456.7191836087566
 31
0.0
  0
LINE
  5
52D
330
A
100
AcDbEntity
  8
06
100
AcDbLine
 10
385.8989256017047
 20
455.0441836087567
 30
0.0
 11
385.884491851705
 21
455.0691836087566
 31
0.0
  0
LINE
  5
52E
330
A
100
AcDbEntity
  8
06
100
AcDbLine
 10
386.7604104899549
 20
456.7441836087566
 30
0.0
 11
385.8989256017047
 21
456.7441836087566
 31
0.0
  0
LINE
  5
52F
330
A
100
AcDbEntity
  8
06
100
AcDbLine
 10
386.7604104899549
 20
455.0441836087567
 30
0.0
 11
385.8989256017047
 21
455.0441836087567
 31
0.0
  0
LINE
  5
531
330
A
100
AcDbEntity
  8
04
100
AcDbLine
 10
221.9335587500859
 20
323.9754084013723
 30
0.0
 11
221.9335587500859
 21
351.0666441108927
 31
0.0
  0
LINE
  5
532
330
A
100
AcDbEntity
  8
04
100
AcDbLine
 10
221.9335587500859
 20
251.436563826537
 30
0.0
 11
221.9335587500859
 21
306.8102513557233
 31
0.0
  0
LINE
  5
53A
330
A
100
AcDbEntity
  8
04
100
AcDbLine
 10
250.9335587500859
 20
356.0666441108927
 30
0.0
 11
250.9335587500859
 21
390.6388128608927
 31
0.0
  0
LINE
  5
53B
330
A
100
AcDbEntity
  8
04
100
AcDbLine
 10
250.9335587500859
 20
345.9365638265376
 30
0.0
 11
250.9335587500859
 21
351.0666441108927
 31
0.0
  0
LINE
  5
53D
330
A
100
AcDbEntity
  8
04
100
AcDbLine
 10
230.9335587500858
 20
345.9365638265376
 30
0.0
 11
230.9335587500858
 21
351.0666441108927
 31
0.0
  0
LINE
  5
53F
330
A
100
AcDbEntity
  8
04
100
AcDbLine
 10
203.9335587500858
 20
356.0666441108927
 30
0.0
 11
203.9335587500858
 21
385.6388128608926
 31
0.0
  0
LINE
  5
540
330
A
100
AcDbEntity
  8
04
100
AcDbLine
 10
203.9335587500858
 20
246.436563826537
 30
0.0
 11
203.9335587500858
 21
351.0666441108927
 31
0.0
  0
LINE
  5
541
330
A
100
AcDbEntity
  8
SAISEN
100
AcDbLine
 10
260.8302256620372
 20
351.0666441108927
 30
0.0
 11
195.9952925810585
 21
351.0666441108927
 31
0.0
  0
LINE
  5
542
330
A
100
AcDbEntity
  8
SAISEN
100
AcDbLine
 10
260.8302256620372
 20
356.0666441108927
 30
0.0
 11
195.9952925810585
 21
356.0666441108927
 31
0.0
  0
LINE
  5
543
330
A
100
AcDbEntity
  8
04
100
AcDbLine
 10
231.1335587500859
 20
340.8314567437813
 30
0.0
 11
231.1335587500859
 21
345.0416709092933
 31
0.0
  0
LINE
  5
546
330
A
100
AcDbEntity
  8
04
100
AcDbLine
 10
250.7335587500858
 20
340.8314567437813
 30
0.0
 11
250.7335587500858
 21
345.0416709092933
 31
0.0
  0
LINE
  5
547
330
A
100
AcDbEntity
  8
04
100
AcDbLine
 10
221.9335587500859
 20
379.6388128608926
 30
0.0
 11
230.9335587500858
 21
379.6388128608926
 31
0.0
  0
LINE
  5
548
330
A
100
AcDbEntity
  8
04
100
AcDbLine
 10
221.9335587500859
 20
369.6388128608926
 30
0.0
 11
230.9335587500858
 21
369.6388128608926
 31
0.0
  0
LINE
  5
549
330
A
100
AcDbEntity
  8
04
100
AcDbLine
 10
230.9335587500858
 20
390.6388128608927
 30
0.0
 11
250.9335587500859
 21
390.6388128608927
 31
0.0
  0
LINE
  5
54A
330
A
100
AcDbEntity
  8
04
100
AcDbLine
 10
221.9335587500859
 20
385.6388128608926
 30
0.0
 11
203.9335587500858
 21
385.6388128608926
 31
0.0
  0
LINE
  5
54B
330
A
100
AcDbEntity
  8
04
100
AcDbLine
 10
245.9335587500858
 20
327.8365638265373
 30
0.0
 11
245.9335587500858
 21
339.9365638265373
 31
0.0
  0
LINE
  5
54D
330
A
100
AcDbEntity
  8
04
100
AcDbLine
 10
233.5872973941418
 20
345.9365638265376
 30
0.0
 11
230.9335587500858
 21
345.9365638265376
 31
0.0
  0
LINE
  5
54F
330
A
100
AcDbEntity
  8
04
100
AcDbLine
 10
235.9335587500858
 20
327.8365638265373
 30
0.0
 11
235.9335587500858
 21
339.9365638265373
 31
0.0
  0
LINE
  5
550
330
A
100
AcDbEntity
  8
04
100
AcDbLine
 10
250.7335587500858
 20
278.331456743781
 30
0.0
 11
250.7335587500858
 21
326.5416709092935
 31
0.0
  0
LINE
  5
552
330
A
100
AcDbEntity
  8
04
100
AcDbLine
 10
231.1335587500859
 20
278.3314567437813
 30
0.0
 11
231.1335587500859
 21
326.5416709092935
 31
0.0
  0
LINE
  5
553
330
A
100
AcDbEntity
  8
04
100
AcDbLine
 10
228.4335587500859
 20
138.9365638265374
 30
0.0
 11
253.4335587500859
 21
138.9365638265374
 31
0.0
  0
LINE
  5
556
330
A
100
AcDbEntity
  8
04
100
AcDbLine
 10
253.4335587500859
 20
144.936563826537
 30
0.0
 11
253.4335587500859
 21
138.9365638265374
 31
0.0
  0
LINE
  5
557
330
A
100
AcDbEntity
  8
04
100
AcDbLine
 10
228.4335587500859
 20
144.936563826537
 30
0.0
 11
228.4335587500859
 21
138.9365638265374
 31
0.0
  0
LINE
  5
558
330
A
100
AcDbEntity
  8
04
100
AcDbLine
 10
228.4335587500859
 20
144.936563826537
 30
0.0
 11
253.4335587500859
 21
144.936563826537
 31
0.0
  0
LINE
  5
559
330
A
100
AcDbEntity
  8
04
100
AcDbLine
 10
249.4335587500859
 20
153.9365638265373
 30
0.0
 11
254.4335587500858
 21
153.9365638265373
 31
0.0
  0
LINE
  5
55A
330
A
100
AcDbEntity
  8
04
100
AcDbLine
 10
227.4335587500858
 20
153.9365638265373
 30
0.0
 11
232.433558750086
 21
153.9365638265373
 31
0.0
  0
LINE
  5
55B
330
A
100
AcDbEntity
  8
04
100
AcDbLine
 10
254.4335587500858
 20
168.936563826537
 30
0.0
 11
254.4335587500858
 21
203.9365638265373
 31
0.0
  0
LINE
  5
55C
330
A
100
AcDbEntity
  8
04
100
AcDbLine
 10
227.4335587500858
 20
168.936563826537
 30
0.0
 11
227.4335587500858
 21
203.9365638265373
 31
0.0
  0
LINE
  5
55F
330
A
100
AcDbEntity
  8
04
100
AcDbLine
 10
199.1335587500859
 20
252.9365638265371
 30
0.0
 11
199.1335587500859
 21
168.936563826537
 31
0.0
  0
LINE
  5
560
330
A
100
AcDbEntity
  8
04
100
AcDbLine
 10
231.1335587500859
 20
264.0416709092934
 30
0.0
 11
231.1335587500859
 21
259.8314567437812
 31
0.0
  0
LINE
  5
563
330
A
100
AcDbEntity
  8
04
100
AcDbLine
 10
250.7335587500858
 20
264.0416709092934
 30
0.0
 11
250.7335587500858
 21
259.8314567437812
 31
0.0
  0
LINE
  5
56A
330
A
100
AcDbEntity
  8
04
100
AcDbLine
 10
226.4335587500859
 20
168.9365638265373
 30
0.0
 11
227.4335587500858
 21
168.9365638265373
 31
0.0
  0
LINE
  5
56B
330
A
100
AcDbEntity
  8
04
100
AcDbLine
 10
226.4335587500859
 20
158.9365638265373
 30
0.0
 11
227.4335587500858
 21
158.9365638265373
 31
0.0
  0
LINE
  5
56D
330
A
100
AcDbEntity
  8
04
100
AcDbLine
 10
223.9335587500859
 20
166.936563826537
 30
0.0
 11
226.4335587500859
 21
166.936563826537
 31
0.0
  0
LINE
  5
56E
330
A
100
AcDbEntity
  8
04
100
AcDbLine
 10
226.4335587500859
 20
160.9365638265372
 30
0.0
 11
223.9335587500859
 21
160.9365638265372
 31
0.0
  0
LINE
  5
56F
330
A
100
AcDbEntity
  8
04
100
AcDbLine
 10
223.9335587500859
 20
160.9365638265372
 30
0.0
 11
223.9335587500859
 21
166.936563826537
 31
0.0
  0
LINE
  5
571
330
A
100
AcDbEntity
  8
04
100
AcDbLine
 10
232.433558750086
 20
158.9365638265373
 30
0.0
 11
235.4335587500858
 21
158.9365638265373
 31
0.0
  0
LINE
  5
573
330
A
100
AcDbEntity
  8
04
100
AcDbLine
 10
246.4335587500858
 20
158.9365638265373
 30
0.0
 11
249.4335587500859
 21
158.9365638265373
 31
0.0
  0
LINE
  5
574
330
A
100
AcDbEntity
  8
04
100
AcDbLine
 10
256.4335587500859
 20
168.9365638265373
 30
0.0
 11
254.4335587500858
 21
168.9365638265373
 31
0.0
  0
LINE
  5
575
330
A
100
AcDbEntity
  8
04
100
AcDbLine
 10
256.4335587500859
 20
158.9365638265373
 30
0.0
 11
254.4335587500858
 21
158.9365638265373
 31
0.0
  0
LINE
  5
576
330
A
100
AcDbEntity
  8
04
100
AcDbLine
 10
256.4335587500859
 20
158.9365638265373
 30
0.0
 11
256.4335587500859
 21
168.9365638265373
 31
0.0
  0
LINE
  5
577
330
A
100
AcDbEntity
  8
04
100
AcDbLine
 10
254.4335587500858
 20
203.9365638265373
 30
0.0
 11
250.9335587500859
 21
213.9365638265374
 31
0.0
  0
LINE
  5
578
330
A
100
AcDbEntity
  8
04
100
AcDbLine
 10
227.4335587500858
 20
203.9365638265373
 30
0.0
 11
230.9335587500858
 21
213.9365638265374
 31
0.0
  0
LINE
  5
579
330
A
100
AcDbEntity
  8
04
100
AcDbLine
 10
250.9335587500859
 20
213.9365638265374
 30
0.0
 11
250.9335587500859
 21
258.9365638265373
 31
0.0
  0
LINE
  5
57A
330
A
100
AcDbEntity
  8
04
100
AcDbLine
 10
230.9335587500858
 20
213.9365638265374
 30
0.0
 11
230.9335587500858
 21
258.9365638265373
 31
0.0
  0
LINE
  5
57D
330
A
100
AcDbEntity
  8
04
100
AcDbLine
 10
199.1335587500859
 20
252.9365638265371
 30
0.0
 11
197.9335587500859
 21
252.9365638265371
 31
0.0
  0
LINE
  5
57E
330
A
100
AcDbEntity
  8
04
100
AcDbLine
 10
245.9335587500858
 20
264.9365638265371
 30
0.0
 11
245.9335587500858
 21
277.0365638265372
 31
0.0
  0
LINE
  5
582
330
A
100
AcDbEntity
  8
04
100
AcDbLine
 10
235.9335587500858
 20
277.0365638265372
 30
0.0
 11
235.9335587500858
 21
264.9365638265371
 31
0.0
  0
LINE
  5
583
330
A
100
AcDbEntity
  8
04
100
AcDbLine
 10
233.5872973941418
 20
258.9365638265371
 30
0.0
 11
230.9335587500858
 21
258.9365638265373
 31
0.0
  0
LINE
  5
584
330
A
100
AcDbEntity
  8
04
100
AcDbLine
 10
224.9335587500858
 20
218.9365638265373
 30
0.0
 11
227.9335587500859
 21
227.1789960849011
 31
0.0
  0
LINE
  5
585
330
A
100
AcDbEntity
  8
04
100
AcDbLine
 10
227.9335587500859
 20
240.6941315681736
 30
0.0
 11
224.9335587500858
 21
248.9365638265371
 31
0.0
  0
LINE
  5
587
330
A
100
AcDbEntity
  8
04
100
AcDbLine
 10
224.9335587500858
 20
248.9365638265371
 30
0.0
 11
223.9335587500859
 21
248.9365638265371
 31
0.0
  0
LINE
  5
588
330
A
100
AcDbEntity
  8
04
100
AcDbLine
 10
224.9335587500858
 20
218.9365638265373
 30
0.0
 11
223.9335587500859
 21
218.9365638265373
 31
0.0
  0
LINE
  5
589
330
A
100
AcDbEntity
  8
04
100
AcDbLine
 10
227.9335587500859
 20
227.1789960849011
 30
0.0
 11
227.9335587500859
 21
240.6941315681736
 31
0.0
  0
LINE
  5
58A
330
A
100
AcDbEntity
  8
04
100
AcDbLine
 10
203.9335587500858
 20
246.436563826537
 30
0.0
 11
199.1335587500859
 21
246.436563826537
 31
0.0
  0
LINE
  5
58B
330
A
100
AcDbEntity
  8
04
100
AcDbLine
 10
203.9335587500858
 20
221.436563826537
 30
0.0
 11
199.1335587500859
 21
221.436563826537
 31
0.0
  0
LINE
  5
58C
330
A
100
AcDbEntity
  8
04
100
AcDbLine
 10
223.9335587500859
 20
251.436563826537
 30
0.0
 11
221.9335587500859
 21
251.436563826537
 31
0.0
  0
LINE
  5
58D
330
A
100
AcDbEntity
  8
04
100
AcDbLine
 10
223.9335587500859
 20
208.936563826537
 30
0.0
 11
203.9335587500858
 21
208.936563826537
 31
0.0
  0
LINE
  5
58E
330
A
100
AcDbEntity
  8
04
100
AcDbLine
 10
223.9335587500859
 20
208.936563826537
 30
0.0
 11
223.9335587500859
 21
218.9365638265373
 31
0.0
  0
LINE
  5
58F
330
A
100
AcDbEntity
  8
04
100
AcDbLine
 10
68.93355875008603
 20
298.9365638265372
 30
0.0
 11
196.9335587500858
 21
298.9365638265372
 31
0.0
  0
LINE
  5
590
330
A
100
AcDbEntity
  8
04
100
AcDbLine
 10
197.9335587500859
 20
297.9365638265371
 30
0.0
 11
197.9335587500859
 21
168.936563826537
 31
0.0
  0
LINE
  5
591
330
A
100
AcDbEntity
  8
04
100
AcDbLine
 10
67.93355875008604
 20
168.936563826537
 30
0.0
 11
67.93355875008604
 21
297.9365638265371
 31
0.0
  0
LINE
  5
598
330
A
100
AcDbEntity
  8
04
100
AcDbLine
 10
167.860761878173
 20
166.9365638265372
 30
0.0
 11
170.160761878173
 21
164.6365638265371
 31
0.0
  0
LINE
  5
599
330
A
100
AcDbEntity
  8
04
100
AcDbLine
 10
165.860761878173
 20
166.9365638265372
 30
0.0
 11
168.160761878173
 21
164.6365638265371
 31
0.0
  0
LINE
  5
59A
330
A
100
AcDbEntity
  8
04
100
AcDbLine
 10
75.23355875008599
 20
166.9365638265372
 30
0.0
 11
187.9335587500859
 21
166.9365638265372
 31
0.0
  0
LINE
  5
59B
330
A
100
AcDbEntity
  8
04
100
AcDbLine
 10
187.9335587500859
 20
164.6365638265371
 30
0.0
 11
75.23355875008599
 21
164.6365638265371
 31
0.0
  0
LINE
  5
59C
330
A
100
AcDbEntity
  8
04
100
AcDbLine
 10
187.9335587500859
 20
166.9365638265372
 30
0.0
 11
187.9335587500859
 21
164.6365638265371
 31
0.0
  0
LINE
  5
688
330
A
100
AcDbEntity
  8
06
100
AcDbLine
 10
91.07420021981932
 20
409.3860760166716
 30
0.0
 11
95.68356038975695
 21
404.8485947539113
 31
0.0
  0
LINE
  5
689
330
A
100
AcDbEntity
  8
06
100
AcDbLine
 10
92.41071000610205
 20
410.0670617662808
 30
0.0
 11
97.02007017603898
 21
405.5295805035206
 31
0.0
  0
LINE
  5
6A6
330
A
100
AcDbEntity
  8
KAKURE
100
AcDbLine
 10
101.2959650305384
 20
432.2456543383673
 30
0.0
 11
101.2959650305384
 21
410.4598328394528
 31
0.0
  0
LINE
  5
6A7
330
A
100
AcDbEntity
  8
KAKURE
100
AcDbLine
 10
73.78051557790377
 20
408.2098328394527
 30
0.0
 11
166.6257060525239
 21
408.2098328394527
 31
0.0
  0
LINE
  5
6A8
330
A
100
AcDbEntity
  8
KAKURE
100
AcDbLine
 10
166.6257060525239
 20
410.4598328394528
 30
0.0
 11
101.2959650305384
 21
410.4598328394528
 31
0.0
  0
LINE
  5
6AD
330
A
100
AcDbEntity
  8
KAKURE
 48
0.2
100
AcDbLine
 10
342.3784262329778
 20
447.7449679601486
 30
0.0
 11
342.3847568728309
 21
447.7168031569696
 31
0.0
  0
LINE
  5
6AE
330
A
100
AcDbEntity
  8
KAKURE
 48
0.2
100
AcDbLine
 10
343.530597538963
 20
446.4949674474828
 30
0.0
 11
343.5030407874632
 21
446.5035673652645
 31
0.0
  0
LINE
  5
6B0
330
A
100
AcDbEntity
  8
KAKURE
 48
0.2
100
AcDbLine
 10
340.3467046648369
 20
445.8722556941586
 30
0.0
 11
340.3530353046901
 21
445.8440908909798
 31
0.0
  0
LINE
  5
6B1
330
A
100
AcDbEntity
  8
KAKURE
 48
0.2
100
AcDbLine
 10
341.4988759708221
 20
444.6222551814931
 30
0.0
 11
341.4713192193226
 21
444.6308550992745
 31
0.0
  0
LINE
  5
6B2
330
A
100
AcDbEntity
  8
KAKURE
 48
0.2
100
AcDbLine
 10
340.9801496954055
 20
446.4561252052066
 30
0.0
 11
341.0077064469051
 21
446.4475252874248
 31
0.0
  0
LINE
  5
6B5
330
A
100
AcDbEntity
  8
06
100
AcDbLine
 10
380.5389040405373
 20
456.7441836087566
 30
0.0
 11
379.0261256017048
 21
456.7441836087566
 31
0.0
  0
LINE
  5
6B6
330
A
100
AcDbEntity
  8
06
100
AcDbLine
 10
380.5389040405373
 20
455.0441836087567
 30
0.0
 11
379.0261256017048
 21
455.0441836087567
 31
0.0
  0
LINE
  5
6B9
330
A
100
AcDbEntity
  8
06
100
AcDbLine
 10
379.0261256017048
 20
456.7441836087566
 30
0.0
 11
379.0116918517047
 21
456.7191836087566
 31
0.0
  0
LINE
  5
6BA
330
A
100
AcDbEntity
  8
06
100
AcDbLine
 10
379.0261256017048
 20
455.0441836087567
 30
0.0
 11
379.0116918517047
 21
455.0691836087566
 31
0.0
  0
LINE
  5
6BC
330
A
100
AcDbEntity
  8
06
100
AcDbLine
 10
376.2629854022873
 20
456.7441836087566
 30
0.0
 11
376.2485516522872
 21
456.7191836087566
 31
0.0
  0
LINE
  5
6BD
330
A
100
AcDbEntity
  8
06
100
AcDbLine
 10
376.2629854022873
 20
455.0441836087567
 30
0.0
 11
376.2485516522872
 21
455.0691836087566
 31
0.0
  0
LINE
  5
6C0
330
A
100
AcDbEntity
  8
06
100
AcDbLine
 10
377.1389040405371
 20
455.3941836087567
 30
0.0
 11
379.0116918517047
 21
455.3941836087567
 31
0.0
  0
LINE
  5
6C1
330
A
100
AcDbEntity
  8
06
100
AcDbLine
 10
377.1389040405371
 20
456.3941836087566
 30
0.0
 11
379.0116918517047
 21
456.3941836087566
 31
0.0
  0
LINE
  5
6C4
330
A
100
AcDbEntity
  8
06
100
AcDbLine
 10
377.1244702905373
 20
456.7441836087566
 30
0.0
 11
377.1389040405371
 21
456.7191836087566
 31
0.0
  0
LINE
  5
6C5
330
A
100
AcDbEntity
  8
06
100
AcDbLine
 10
377.1244702905373
 20
455.0441836087567
 30
0.0
 11
377.1389040405371
 21
455.0691836087566
 31
0.0
  0
LINE
  5
6C6
330
A
100
AcDbEntity
  8
06
100
AcDbLine
 10
376.2629854022873
 20
456.7441836087566
 30
0.0
 11
377.1244702905373
 21
456.7441836087566
 31
0.0
  0
LINE
  5
6C7
330
A
100
AcDbEntity
  8
06
100
AcDbLine
 10
376.2629854022873
 20
455.0441836087567
 30
0.0
 11
377.1244702905373
 21
455.0441836087567
 31
0.0
  0
LINE
  5
6D9
330
A
100
AcDbEntity
  8
CHUSIN
100
AcDbLine
 10
240.9335587500859
 20
136.014044000314
 30
0.0
 11
240.9335587500859
 21
400.1798081375689
 31
0.0
  0
LINE
  5
6DB
330
A
100
AcDbEntity
  8
CHUSIN
100
AcDbLine
 10
219.6101324487842
 20
163.9365638265374
 30
0.0
 11
262.5589696580866
 21
163.9365638265374
 31
0.0
  0
LINE
  5
6E4
330
A
100
AcDbEntity
  8
CHUSIN
100
AcDbLine
 10
177.9335587491883
 20
158.9365638256399
 30
0.0
 11
177.9335587491883
 21
174.7720182535993
 31
0.0
  0
LINE
  5
6E5
330
A
100
AcDbEntity
  8
CHUSIN
100
AcDbLine
 10
87.93355874918836
 20
174.7720182535993
 30
0.0
 11
87.93355874918836
 21
158.9365638256399
 31
0.0
  0
LINE
  5
6E6
330
A
100
AcDbEntity
  8
CHUSIN
100
AcDbLine
 10
39.40553021665731
 20
133.9365638265372
 30
0.0
 11
90.92043793049787
 21
133.9365638265372
 31
0.0
  0
LINE
  5
6EB
330
A
100
AcDbEntity
  8
KAKURE
100
AcDbLine
 10
174.8757060525234
 20
411.9598328394529
 30
0.0
 11
166.6257060525239
 21
411.9598328394529
 31
0.0
  0
LINE
  5
6EC
330
A
100
AcDbEntity
  8
KAKURE
100
AcDbLine
 10
174.8757060525234
 20
406.7098328394529
 30
0.0
 11
174.8757060525234
 21
411.9598328394529
 31
0.0
  0
LINE
  5
6ED
330
A
100
AcDbEntity
  8
KAKURE
100
AcDbLine
 10
166.6257060525239
 20
406.7098328394529
 30
0.0
 11
174.8757060525234
 21
406.7098328394529
 31
0.0
  0
LINE
  5
6EE
330
A
100
AcDbEntity
  8
KAKURE
100
AcDbLine
 10
166.6257060525239
 20
411.9598328394529
 30
0.0
 11
166.6257060525239
 21
406.7098328394529
 31
0.0
  0
LINE
  5
701
330
A
100
AcDbEntity
  8
SAISEN
100
AcDbLine
 10
210.1013991277747
 20
472.1021582871278
 30
0.0
 11
200.7998293407005
 21
481.4037280742023
 31
0.0
  0
LINE
  5
702
330
A
100
AcDbEntity
  8
SAISEN
100
AcDbLine
 10
200.0136468342428
 20
479.455182022435
 30
0.0
 11
209.8020644378971
 21
469.6667644187811
 31
0.0
  0
LINE
  5
703
330
A
100
AcDbEntity
  8
SAISEN
100
AcDbLine
 10
211.9752832418559
 20
468.8338567627736
 30
0.0
 11
198.649666203927
 21
482.1594738007022
 31
0.0
  0
LINE
  5
704
330
A
100
AcDbEntity
  8
SAISEN
100
AcDbLine
 10
168.1599463630551
 20
473.7635827299794
 30
0.0
 11
153.9314410877294
 21
487.992088005306
 31
0.0
  0
LINE
  5
705
330
A
100
AcDbEntity
  8
SAISEN
100
AcDbLine
 10
153.2148637540375
 20
485.9739367807723
 30
0.0
 11
167.8606116731779
 21
471.3281888616326
 31
0.0
  0
LINE
  5
706
330
A
100
AcDbEntity
  8
SAISEN
100
AcDbLine
 10
170.0338304771368
 20
470.4952812056251
 30
0.0
 11
152.3063741430259
 21
488.2227375397357
 31
0.0
  0
LINE
  5
707
330
A
100
AcDbEntity
  8
SAISEN
100
AcDbLine
 10
88.15994636305537
 20
473.7635827299794
 30
0.0
 11
73.93144108772947
 21
487.992088005306
 31
0.0
  0
LINE
  5
708
330
A
100
AcDbEntity
  8
SAISEN
100
AcDbLine
 10
73.21486375403776
 20
485.9739367807723
 30
0.0
 11
87.86061167317791
 21
471.3281888616326
 31
0.0
  0
LINE
  5
709
330
A
100
AcDbEntity
  8
SAISEN
100
AcDbLine
 10
90.03383047713681
 20
470.4952812056251
 30
0.0
 11
72.30637414302589
 21
488.2227375397357
 31
0.0
  0
LINE
  5
719
330
A
100
AcDbEntity
  8
03
100
AcDbLine
 10
34.13890404053744
 20
492.2456543383673
 30
0.0
 11
30.93890404053741
 21
492.2456543383673
 31
0.0
  0
LINE
  5
71A
330
A
100
AcDbEntity
  8
03
100
AcDbLine
 10
32.53890404053731
 20
490.6456543383675
 30
0.0
 11
32.53890404053731
 21
493.8456543383674
 31
0.0
  0
LINE
  5
71B
330
A
100
AcDbEntity
  8
03
100
AcDbLine
 10
43.13890404053745
 20
492.2456543383673
 30
0.0
 11
39.9389040405374
 21
492.2456543383673
 31
0.0
  0
LINE
  5
71C
330
A
100
AcDbEntity
  8
03
100
AcDbLine
 10
41.53890404053732
 20
490.6456543383675
 30
0.0
 11
41.53890404053732
 21
493.8456543383674
 31
0.0
  0
LINE
  5
71D
330
A
100
AcDbEntity
  8
03
100
AcDbLine
 10
43.13890404053745
 20
464.7456543383674
 30
0.0
 11
39.9389040405374
 21
464.7456543383674
 31
0.0
  0
LINE
  5
71E
330
A
100
AcDbEntity
  8
03
100
AcDbLine
 10
41.53890404053732
 20
463.1456543383674
 30
0.0
 11
41.53890404053732
 21
466.3456543383674
 31
0.0
  0
LINE
  5
71F
330
A
100
AcDbEntity
  8
03
100
AcDbLine
 10
34.13890404053744
 20
464.7456543383674
 30
0.0
 11
30.93890404053741
 21
464.7456543383674
 31
0.0
  0
LINE
  5
720
330
A
100
AcDbEntity
  8
03
100
AcDbLine
 10
32.53890404053731
 20
463.1456543383674
 30
0.0
 11
32.53890404053731
 21
466.3456543383674
 31
0.0
  0
LINE
  5
721
330
A
100
AcDbEntity
  8
03
100
AcDbLine
 10
34.13890404053744
 20
437.2456543383673
 30
0.0
 11
30.93890404053741
 21
437.2456543383673
 31
0.0
  0
LINE
  5
722
330
A
100
AcDbEntity
  8
03
100
AcDbLine
 10
32.53890404053731
 20
435.6456543383673
 30
0.0
 11
32.53890404053731
 21
438.8456543383674
 31
0.0
  0
LINE
  5
723
330
A
100
AcDbEntity
  8
03
100
AcDbLine
 10
43.13890404053745
 20
437.2456543383673
 30
0.0
 11
39.9389040405374
 21
437.2456543383673
 31
0.0
  0
LINE
  5
724
330
A
100
AcDbEntity
  8
03
100
AcDbLine
 10
41.53890404053732
 20
435.6456543383673
 30
0.0
 11
41.53890404053732
 21
438.8456543383674
 31
0.0
  0
LINE
  5
725
330
A
100
AcDbEntity
  8
03
100
AcDbLine
 10
226.4335587500859
 20
168.9365638265373
 30
0.0
 11
47.93355875008592
 21
168.936563826537
 31
0.0
  0
LINE
  5
726
330
A
100
AcDbEntity
  8
03
100
AcDbLine
 10
275.208081549559
 20
168.936563826537
 30
0.0
 11
256.4335587500859
 21
168.9365638265373
 31
0.0
  0
LINE
  5
72B
330
A
100
AcDbEntity
  8
06
100
AcDbLine
 10
357.9335587500859
 20
138.936563826537
 30
0.0
 11
280.2080815495591
 21
138.936563826537
 31
0.0
  0
LINE
  5
72C
330
A
100
AcDbEntity
  8
06
100
AcDbLine
 10
357.9335587500859
 20
98.93656382653706
 30
0.0
 11
280.2080815495591
 21
98.93656382653706
 31
0.0
  0
LINE
  5
72D
330
A
100
AcDbEntity
  8
03
100
AcDbLine
 10
367.9335587500859
 20
168.936563826537
 30
0.0
 11
280.2080815495591
 21
168.936563826537
 31
0.0
  0
LINE
  5
72E
330
A
100
AcDbEntity
  8
03
100
AcDbLine
 10
367.9335587500859
 20
98.93656382653729
 30
0.0
 11
280.2080815495591
 21
98.93656382653729
 31
0.0
  0
LINE
  5
72F
330
A
100
AcDbEntity
  8
SAISEN
100
AcDbLine
 10
280.2080815495591
 20
91.1625333599342
 30
0.0
 11
280.2080815495591
 21
177.4622340699378
 31
0.0
  0
LINE
  5
730
330
A
100
AcDbEntity
  8
SAISEN
100
AcDbLine
 10
275.208081549559
 20
91.1625333599342
 30
0.0
 11
275.208081549559
 21
177.4622340699378
 31
0.0
  0
LINE
  5
731
330
A
100
AcDbEntity
  8
06
100
AcDbLine
 10
275.208081549559
 20
138.9365638265372
 30
0.0
 11
185.9335587500859
 21
138.9365638283321
 31
0.0
  0
LINE
  5
732
330
A
100
AcDbEntity
  8
06
100
AcDbLine
 10
275.208081549559
 20
98.93656382653729
 30
0.0
 11
185.9335587500859
 21
98.93656382653729
 31
0.0
  0
LINE
  5
733
330
A
100
AcDbEntity
  8
03
100
AcDbLine
 10
275.208081549559
 20
98.93656382653729
 30
0.0
 11
182.9335587500859
 21
98.93656382653729
 31
0.0
  0
LINE
  5
734
330
A
100
AcDbEntity
  8
06
100
AcDbLine
 10
357.9335587500859
 20
98.93656382653706
 30
0.0
 11
357.9335587500859
 21
138.936563826537
 31
0.0
  0
LINE
  5
735
330
A
100
AcDbEntity
  8
03
100
AcDbLine
 10
367.9335587500859
 20
46.56046540646467
 30
0.0
 11
367.9335587500859
 21
262.8403884997712
 31
0.0
  0
LINE
  5
736
330
A
100
AcDbEntity
  8
06
100
AcDbLine
 10
185.9335587500859
 20
98.93656382833215
 30
0.0
 11
185.9335587500859
 21
138.9365638283321
 31
0.0
  0
LINE
  5
738
330
A
100
AcDbEntity
  8
03
100
AcDbLine
 10
70.93355875008592
 20
124.9365638265372
 30
0.0
 11
47.93355875008592
 21
124.9365638265372
 31
0.0
  0
LINE
  5
739
330
A
100
AcDbEntity
  8
03
100
AcDbLine
 10
69.3335587500859
 20
142.936563826537
 30
0.0
 11
47.93355875008592
 21
142.936563826537
 31
0.0
  0
LINE
  5
73A
330
A
100
AcDbEntity
  8
03
100
AcDbLine
 10
197.9335587500859
 20
142.936563826537
 30
0.0
 11
182.9335587500859
 21
142.936563826537
 31
0.0
  0
LINE
  5
73C
330
A
100
AcDbEntity
  8
03
100
AcDbLine
 10
47.93355875008592
 20
142.936563826537
 30
0.0
 11
47.93355875008592
 21
168.936563826537
 31
0.0
  0
LINE
  5
73D
330
A
100
AcDbEntity
  8
03
100
AcDbLine
 10
47.93355875008592
 20
104.9365638265372
 30
0.0
 11
47.93355875008592
 21
124.9365638265372
 31
0.0
  0
LINE
  5
73E
330
A
100
AcDbEntity
  8
03
100
AcDbLine
 10
70.93355875008592
 20
124.9365638265373
 30
0.0
 11
70.93355875008592
 21
141.3365638265372
 31
0.0
  0
LINE
  5
73F
330
A
100
AcDbEntity
  8
03
100
AcDbLine
 10
197.9335587500859
 20
168.936563826537
 30
0.0
 11
197.9335587500859
 21
142.936563826537
 31
0.0
  0
LINE
  5
741
330
A
100
AcDbEntity
  8
03
100
AcDbLine
 10
182.9335587500859
 20
98.93656382653729
 30
0.0
 11
182.9335587500859
 21
142.936563826537
 31
0.0
  0
LINE
  5
743
330
A
100
AcDbEntity
  8
03
100
AcDbLine
 10
182.9335587500859
 20
98.93656382653729
 30
0.0
 11
70.93355875008592
 21
98.93656382653729
 31
0.0
  0
LINE
  5
79C
330
A
100
AcDbEntity
  8
03
100
AcDbLine
 10
108.2772939669248
 20
444.7456543383673
 30
0.0
 11
108.1572939669247
 21
444.7456543383673
 31
0.0
  0
LINE
  5
79D
330
A
100
AcDbEntity
  8
03
100
AcDbLine
 10
108.2772939669248
 20
439.7456543383674
 30
0.0
 11
108.2772939669248
 21
444.7456543383673
 31
0.0
  0
LINE
  5
79E
330
A
100
AcDbEntity
  8
03
100
AcDbLine
 10
108.1572939669247
 20
439.7456543383674
 30
0.0
 11
108.2772939669248
 21
439.7456543383674
 31
0.0
  0
LINE
  5
79F
330
A
100
AcDbEntity
  8
03
100
AcDbLine
 10
108.1572939669247
 20
432.2456543383673
 30
0.0
 11
95.15729396692472
 21
432.2456543383673
 31
0.0
  0
LINE
  5
7A0
330
A
100
AcDbEntity
  8
03
100
AcDbLine
 10
108.1572939669247
 20
497.2456543383676
 30
0.0
 11
108.1572939669247
 21
432.2456543383673
 31
0.0
  0
LINE
  5
7A1
330
A
100
AcDbEntity
  8
03
100
AcDbLine
 10
95.15729396692472
 20
497.2456543383676
 30
0.0
 11
108.1572939669247
 21
497.2456543383676
 31
0.0
  0
LINE
  5
7A2
330
A
100
AcDbEntity
  8
03
100
AcDbLine
 10
95.15729396692472
 20
432.2456543383673
 30
0.0
 11
95.15729396692472
 21
497.2456543383676
 31
0.0
  0
LINE
  5
7A8
330
A
100
AcDbEntity
  8
KAKURE
100
AcDbLine
 10
196.4335587500858
 20
181.936563826537
 30
0.0
 11
196.4335587500858
 21
171.8365638265369
 31
0.0
  0
LINE
  5
7A9
330
A
100
AcDbEntity
  8
KAKURE
100
AcDbLine
 10
193.4335587500859
 20
181.936563826537
 30
0.0
 11
196.4335587500858
 21
181.936563826537
 31
0.0
  0
LINE
  5
7AA
330
A
100
AcDbEntity
  8
KAKURE
100
AcDbLine
 10
193.4335587500859
 20
171.936563826537
 30
0.0
 11
193.4335587500859
 21
181.936563826537
 31
0.0
  0
LINE
  5
7AB
330
A
100
AcDbEntity
  8
KAKURE
100
AcDbLine
 10
138.9335587500859
 20
171.936563826537
 30
0.0
 11
138.9335587500859
 21
168.936563826537
 31
0.0
  0
LINE
  5
7AC
330
A
100
AcDbEntity
  8
KAKURE
100
AcDbLine
 10
126.9335587500859
 20
171.936563826537
 30
0.0
 11
126.9335587500859
 21
168.936563826537
 31
0.0
  0
LINE
  5
7AD
330
A
100
AcDbEntity
  8
KAKURE
100
AcDbLine
 10
72.43355875008603
 20
171.936563826537
 30
0.0
 11
193.4335587500859
 21
171.936563826537
 31
0.0
  0
LINE
  5
7AE
330
A
100
AcDbEntity
  8
KAKURE
100
AcDbLine
 10
72.33355875008545
 20
168.936563826537
 30
0.0
 11
193.5335587500859
 21
168.936563826537
 31
0.0
  0
LINE
  5
7AF
330
A
100
AcDbEntity
  8
KAKURE
100
AcDbLine
 10
72.43355875008603
 20
181.936563826537
 30
0.0
 11
72.43355875008603
 21
171.936563826537
 31
0.0
  0
LINE
  5
7B0
330
A
100
AcDbEntity
  8
KAKURE
100
AcDbLine
 10
69.43355875008603
 20
181.936563826537
 30
0.0
 11
72.43355875008603
 21
181.936563826537
 31
0.0
  0
LINE
  5
7B1
330
A
100
AcDbEntity
  8
KAKURE
100
AcDbLine
 10
69.43355875008546
 20
171.8365638265369
 30
0.0
 11
69.43355875008603
 21
181.936563826537
 31
0.0
  0
POLYLINE
  5
7E4
330
A
100
AcDbEntity
  8
DEFPOINTS
100
AcDb2dPolyline
 66
     1
 10
0.0
 20
0.0
 30
0.0
 70
     1
  0
VERTEX
  5
1745
330
7E4
100
AcDbEntity
  8
DEFPOINTS
100
AcDbVertex
100
AcDb2dVertex
 10
0.0
 20
0.0
 30
0.0
  0
VERTEX
  5
1746
330
7E4
100
AcDbEntity
  8
DEFPOINTS
100
AcDbVertex
100
AcDb2dVertex
 10
420.0
 20
0.0
 30
0.0
  0
VERTEX
  5
1747
330
7E4
100
AcDbEntity
  8
DEFPOINTS
100
AcDbVertex
100
AcDb2dVertex
 10
420.0
 20
594.0
 30
0.0
  0
VERTEX
  5
1748
330
7E4
100
AcDbEntity
  8
DEFPOINTS
100
AcDbVertex
100
AcDb2dVertex
 10
0.0
 20
594.0
 30
0.0
  0
SEQEND
  5
1749
330
7E4
100
AcDbEntity
  8
DEFPOINTS
  0
LINE
  5
80E
330
A
100
AcDbEntity
  8
04
100
AcDbLine
 10
250.9335587500859
 20
356.0666441108927
 30
0.0
 11
250.9335587500859
 21
376.3643950765373
 31
0.0
  0
LINE
  5
811
330
A
100
AcDbEntity
  8
04
100
AcDbLine
 10
203.9335587500858
 20
356.0666441108927
 30
0.0
 11
203.9335587500858
 21
376.3643950765373
 31
0.0
  0
DIMENSION
  5
815
330
A
100
AcDbEntity
  8
SUNPOU
100
AcDbDimension
  2
*D1
 10
52.95829560030052
 20
298.9365638265372
 30
0.0
 11
48.45829560030047
 21
233.936563826537
 31
0.0
 70
    32
  3
SUNPOU_2
100
AcDbAlignedDimension
 13
52.95829560030052
 23
168.936563826537
 33
0.0
 14
68.93355875008615
 24
298.9365638265372
 34
0.0
 50
90.0
100
AcDbRotatedDimension
  0
DIMENSION
  5
855
330
A
100
AcDbEntity
  8
SUNPOU
100
AcDbDimension
  2
*D2
 10
41.53890404053732
 20
414.7811552171021
 30
0.0
 11
37.62699687073359
 21
410.8057337616921
 31
0.0
 70
   160
 53
180.0
  3
SUNPOU_2_10
100
AcDbAlignedDimension
 13
32.53890404053731
 23
435.6456543383673
 33
0.0
 14
41.53890404053732
 24
435.6456543383673
 34
0.0
100
AcDbRotatedDimension
1001
ACAD
1000
DSTYLE
1002
{
1070
     7
1000
DOTSMALL
1070
     5
1000

1070
   173
1070
     1
1070
     6
1000
OPEN30
1002
}
  0
DIMENSION
  5
864
330
A
100
AcDbEntity
  8
SUNPOU
100
AcDbDimension
  2
*D3
 10
43.53890404053731
 20
414.7811552171021
 30
0.0
 11
52.3253622562813
 21
410.4309116399893
 31
0.0
 70
   160
 53
180.0
  3
SUNPOU_2_10
100
AcDbAlignedDimension
 13
41.53890404053732
 23
435.6456543383673
 33
0.0
 14
43.53890404053731
 24
432.2456543383673
 34
0.0
100
AcDbRotatedDimension
1001
ACAD
1000
DSTYLE
1002
{
1070
     6
1000
TEN
1070
     5
1000

1070
   173
1070
     1
1070
     7
1000
OPEN30
1002
}
  0
DIMENSION
  5
873
330
A
100
AcDbEntity
  8
SUNPOU
100
AcDbDimension
  2
*D4
 10
63.36179128565754
 20
432.2456543383673
 30
0.0
 11
58.86179128565747
 21
464.7456543383674
 31
0.0
 70
    32
  3
SUNPOU_2_10
100
AcDbAlignedDimension
 13
95.15729396692472
 23
497.2456543383676
 33
0.0
 14
68.15729396692471
 24
432.2456543383673
 34
0.0
 50
90.0
100
AcDbRotatedDimension
  0
DIMENSION
  5
882
330
A
100
AcDbEntity
  8
SUNPOU
100
AcDbDimension
  2
*D5
 10
106.9572939669249
 20
541.5271107846745
 30
0.0
 11
103.3445898112784
 21
536.7714001259629
 31
0.0
 70
   160
 53
180.0
  3
SUNPOU_2_10
100
AcDbAlignedDimension
 13
106.6572939669248
 23
521.0456543383675
 33
0.0
 14
106.9572939669249
 24
521.0456543383675
 34
0.0
100
AcDbRotatedDimension
  0
DIMENSION
  5
891
330
A
100
AcDbEntity
  8
SUNPOU
100
AcDbDimension
  2
*D6
 10
247.1572939669246
 20
541.5271107846745
 30
0.0
 11
179.4613211603405
 21
536.9415950569622
 31
0.0
 70
   160
  1
DH
 53
180.0
  3
SUNPOU_2_10
100
AcDbAlignedDimension
 13
106.9572939669249
 23
521.0456543383675
 33
0.0
 14
247.1572939669246
 24
520.8456543383674
 34
0.0
100
AcDbRotatedDimension
  0
DIMENSION
  5
89E
330
A
100
AcDbEntity
  8
SUNPOU
100
AcDbDimension
  2
*D7
 10
248.1572939669247
 20
541.5271107846745
 30
0.0
 11
257.4783002630073
 21
537.11605518025
 31
0.0
 70
   160
 53
180.0
  3
SUNPOU_2_10
100
AcDbAlignedDimension
 13
247.1572939669246
 23
520.8456543383674
 33
0.0
 14
248.1572939669247
 24
520.8456543383674
 34
0.0
100
AcDbRotatedDimension
  0
DIMENSION
  5
8AD
330
A
100
AcDbEntity
  8
SUNPOU
100
AcDbDimension
  2
*D8
 10
106.6572939669248
 20
557.2803440774507
 30
0.0
 11
177.4072939669245
 21
551.6204932458129
 31
0.0
 70
   160
  1
H
 53
180.0
  3
SUNPOU_2_10
100
AcDbAlignedDimension
 13
248.1572939669247
 23
520.8456543383674
 33
0.0
 14
106.6572939669248
 24
523.0456543383675
 34
0.0
100
AcDbRotatedDimension
  0
LEADER
  5
8D7
330
A
100
AcDbEntity
  8
HIKIDASI
100
AcDbLeader
  3
SUNPOU_2_10
 73
     0
 75
     1
 40
13.33333333333333
 41
30.93333333333334
 76
     3
 10
83.47994382844181
 20
408.2098328394527
 30
0.0
 10
68.82807044063021
 20
399.4162890428516
 30
0.0
 10
68.82807044063021
 20
394.4162890428517
 30
0.0
340
8D8
211
0.0000000000000001
221
1.0
231
0.0
213
-8.666666666666671
223
-2.732310622065085
233
0.0
1001
ACAD
1000
DSTYLE
1002
{
1070
     5
1000
OPEN30
1070
    77
1070
     1
1070
   147
1040
1.0
1070
   342
1005
7D1
1002
}
1000
LEANOF
1010
-8.666666666666671
1020
-2.732310622065085
1030
0.0
1000
LEANOF
1010
-8.666666666666671
1020
-2.732310622065085
1030
0.0
1000
LEANOF
1010
-8.666666666666671
1020
-2.732310622065085
1030
0.0
  0
MTEXT
  5
8D8
330
A
100
AcDbEntity
  8
HIKIDASI
100
AcDbMText
 10
68.82807044063021
 20
379.6819329982501
 30
0.0
 40
5.0
 41
0.0
 71
     5
 72
     1
  1
電源100V5A\P(電気工事)
  7
SUNPOU
 11
0.0000000000000001
 21
1.0
 31
0.0
1001
ACAD
1000
MTEXTBEGIN
1070
    73
1070
     1
1070
    44
1040
1.0
1070
    74
1070
     0
1000
MTEXTEND
1000
MTEXTBEGIN
1070
    73
1070
     1
1070
    44
1040
1.0
1070
    74
1070
     0
1000
MTEXTEND
  0
LEADER
  5
8D9
330
A
100
AcDbEntity
  8
HIKIDASI
100
AcDbLeader
  3
SUNPOU_2_10
 73
     0
 75
     1
 40
13.33333333333333
 41
27.46666666666667
 76
     3
 10
170.7507060525235
 20
406.7098328394529
 30
0.0
 10
158.2629576410045
 20
398.0768204208218
 30
0.0
 10
158.2629576410045
 20
393.0768204208218
 30
0.0
340
8DA
211
0.0000000000000001
221
1.0
231
0.0
213
-8.666666666666683
223
-5.200911046154486
233
0.0
1001
ACAD
1000
DSTYLE
1002
{
1070
     5
1000
OPEN30
1070
    77
1070
     1
1070
   147
1040
1.0
1070
   342
1005
7D1
1002
}
1000
LEANOF
1010
-8.666666666666683
1020
-5.200911046154486
1030
0.0
1000
LEANOF
1010
-8.666666666666683
1020
-5.200911046154486
1030
0.0
1000
LEANOF
1010
-8.666666666666683
1020
-5.200911046154486
1030
0.0
  0
MTEXT
  5
8DA
330
A
100
AcDbEntity
  8
HIKIDASI
100
AcDbMText
 10
158.2629576410045
 20
396.2777314669763
 30
0.0
 40
5.0
 41
0.0
 71
     6
 72
     1
  1
電源スイッチ\P(電源工事)
  7
SUNPOU
 11
0.0000000000000001
 21
1.0
 31
0.0
1001
ACAD
1000
MTEXTBEGIN
1070
    73
1070
     1
1070
    44
1040
1.0
1070
    74
1070
     0
1000
MTEXTEND
1000
MTEXTBEGIN
1070
    73
1070
     1
1070
    44
1040
1.0
1070
    74
1070
     0
1000
MTEXTEND
  0
LEADER
  5
9B5
330
A
100
AcDbEntity
  8
HIKIDASI
100
AcDbLeader
  3
SUNPOU_2
 73
     0
 74
     0
 75
     1
 40
5.000000000000004
 41
85.06666666666673
 76
     3
 10
250.9335587500859
 20
236.4365638265374
 30
0.0
 10
295.1301390144866
 20
270.9098652736366
 30
0.0
 10
295.1301390144866
 20
275.9098652736367
 30
0.0
340
9B6
211
0.0000000000000001
221
1.0
231
0.0
213
-0.1549682019426655
223
5.374184299097123
233
0.0
1001
ACAD
1000
DSTYLE
1002
{
1070
     5
1000
OPEN30
1070
    77
1070
     1
1070
   147
1040
1.0
1070
   342
1005
7D1
1002
}
1000
LEANOF
1010
-0.1549682019426655
1020
5.374184299097123
1030
0.0
1000
LEANOF
1010
-0.1549682019426655
1020
5.374184299097123
1030
0.0
1000
LEANOF
1010
-0.1549682019426655
1020
5.374184299097123
1030
0.0
  0
MTEXT
  5
9B6
330
A
100
AcDbEntity
  8
HIKIDASI
100
AcDbMText
 10
293.2851072164293
 20
272.5356809745396
 30
0.0
 40
5.0
 41
0.0
 71
     7
 72
     1
  1
アジャスタブルアーム(押しアーム方式)
  7
SUNPOU
 11
0.0000000000000001
 21
1.0
 31
0.0
1001
ACAD
1000
MTEXTBEGIN
1070
    73
1070
     1
1070
    44
1040
1.0
1070
    74
1070
     0
1000
MTEXTEND
1000
MTEXTBEGIN
1070
    73
1070
     1
1070
    44
1040
1.0
1070
    74
1070
     0
1000
MTEXTEND
  0
LEADER
  5
9B7
330
A
100
AcDbEntity
  8
HIKIDASI
100
AcDbLeader
  3
SUNPOU_2
 73
     0
 75
     1
 40
21.66666666666666
 41
33.6
 76
     3
 10
104.7152330974837
 20
165.6366179016164
 30
0.0
 10
99.45429528935616
 20
156.0705519898898
 30
0.0
 10
99.45429528935616
 20
151.0705519898898
 30
0.0
340
9B8
211
0.0000000000000001
221
1.0
231
0.0
213
-17.54789492301904
223
-0.1656758650967447
233
0.0
1001
ACAD
1000
DSTYLE
1002
{
1070
     5
1000
OPEN30
1070
    77
1070
     1
1070
   147
1040
1.0
1070
   342
1005
7D1
1002
}
1000
LEANOF
1010
-17.54789492301904
1020
-0.1656758650967447
1030
0.0
1000
LEANOF
1010
-17.54789492301904
1020
-0.1656758650967447
1030
0.0
1000
LEANOF
1010
-17.54789492301904
1020
-0.1656758650967447
1030
0.0
  0
MTEXT
  5
9B8
330
A
100
AcDbEntity
  8
HIKIDASI
100
AcDbMText
 10
104.1688568790418
 20
132.4362278549864
 30
0.0
 40
5.0
 41
0.0
 71
     5
 72
     1
  1
補強板スチール\P2.3t(通し)\P(サッシ工事)
  7
SUNPOU
 11
0.0000000000000001
 21
1.0
 31
0.0
1001
ACAD
1000
MTEXTBEGIN
1070
    73
1070
     1
1070
    44
1040
1.0
1070
    74
1070
     0
1000
MTEXTEND
1000
MTEXTBEGIN
1070
    73
1070
     1
1070
    44
1040
1.0
1070
    74
1070
     0
1000
MTEXTEND
  0
LINE
  5
9BB
330
A
100
AcDbEntity
  8
HIKIDASI
100
AcDbLine
 10
107.2088786331393
 20
156.0705519898898
 30
0.0
 11
107.2088786331393
 21
115.4705519898898
 31
0.0
  0
LINE
  5
9BC
330
A
100
AcDbEntity
  8
HIKIDASI
100
AcDbLine
 10
115.0025106498004
 20
115.4705519898898
 30
0.0
 11
115.0025106498004
 21
156.0705519898898
 31
0.0
  0
DIMENSION
  5
9BE
330
A
100
AcDbEntity
  8
SUNPOU
100
AcDbDimension
  2
*D9
 10
197.9335587500859
 20
319.3346080769167
 30
0.0
 11
135.8513358582362
 21
314.7127014027021
 31
0.0
 70
   160
 53
180.0
  3
SUNPOU_2
100
AcDbAlignedDimension
 13
67.93355875008626
 23
297.9365633497001
 33
0.0
 14
197.9335587500859
 24
297.9365633497001
 34
0.0
100
AcDbRotatedDimension
  0
DIMENSION
  5
9CC
330
A
100
AcDbEntity
  8
SUNPOU
100
AcDbDimension
  2
*D10
 10
240.9335587500859
 20
319.3346080769167
 30
0.0
 11
220.8833797205473
 21
314.7271850074556
 31
0.0
 70
   160
  1
<>
 53
180.0
  3
SUNPOU_2
100
AcDbAlignedDimension
 13
197.9335587500859
 23
297.9365633497001
 33
0.0
 14
240.9335587500859
 24
319.3346080769167
 34
0.0
100
AcDbRotatedDimension
  0
DIMENSION
  5
A16
330
A
100
AcDbEntity
  8
SUNPOU
100
AcDbDimension
  2
*D11
 10
269.7616346218436
 20
163.9365638265374
 30
0.0
 11
265.2616346218436
 21
151.4365638265374
 31
0.0
 70
    32
  3
SUNPOU_2
100
AcDbAlignedDimension
 13
269.7616346218144
 23
138.9365638265374
 33
0.0
 14
262.5589696580866
 24
163.9365638265374
 34
0.0
 50
90.0
100
AcDbRotatedDimension
  0
DIMENSION
  5
A23
330
A
100
AcDbEntity
  8
SUNPOU
100
AcDbDimension
  2
*D12
 10
269.7616346218436
 20
390.6388128608927
 30
0.0
 11
265.2616346218436
 21
277.2876883437151
 31
0.0
 70
    32
  1
250～350
  3
SUNPOU_2
100
AcDbAlignedDimension
 13
262.5589696580866
 23
163.9365638265374
 33
0.0
 14
250.9335587500859
 24
390.6388128608927
 34
0.0
 50
90.0
100
AcDbRotatedDimension
  0
DIMENSION
  5
A30
330
A
100
AcDbEntity
  8
SUNPOU
100
AcDbDimension
  2
*D13
 10
87.93355874918836
 20
190.7319320863805
 30
0.0
 11
79.71731794167499
 21
186.1697461047766
 31
0.0
 70
   160
 53
180.0
  3
SUNPOU_2
100
AcDbAlignedDimension
 13
67.93355875008604
 23
190.7319320863805
 33
0.0
 14
87.93355874918836
 24
174.7720182535993
 34
0.0
100
AcDbRotatedDimension
  0
DIMENSION
  5
A3D
330
A
100
AcDbEntity
  8
SUNPOU
100
AcDbDimension
  2
*D14
 10
177.9335587491883
 20
190.7319320863805
 30
0.0
 11
136.4514288826002
 21
185.9614766025879
 31
0.0
 70
   160
 53
180.0
  3
SUNPOU_2
100
AcDbAlignedDimension
 13
87.93355874918836
 23
174.7720182535993
 33
0.0
 14
177.9335587491883
 24
174.7720182535993
 34
0.0
100
AcDbRotatedDimension
  0
DIMENSION
  5
A4A
330
A
100
AcDbEntity
  8
SUNPOU
100
AcDbDimension
  2
*D15
 10
197.9335587500859
 20
190.7319320863805
 30
0.0
 11
189.5686040220024
 21
186.1697461047766
 31
0.0
 70
   160
 53
180.0
  3
SUNPOU_2
100
AcDbAlignedDimension
 13
177.9335587491883
 23
174.7720182535993
 33
0.0
 14
197.9335587500859
 24
190.7319320863805
 34
0.0
100
AcDbRotatedDimension
  0
DIMENSION
  5
B39
330
A
100
AcDbEntity
  8
SUNPOU
100
AcDbDimension
  2
*D16
 10
182.9335587500859
 20
128.6013250517922
 30
0.0
 11
192.1908757599458
 21
123.755768574062
 31
0.0
 70
   160
 53
180.0
  3
SUNPOU_2
100
AcDbAlignedDimension
 13
197.9335587500859
 23
142.936563826537
 33
0.0
 14
182.9335587500859
 24
128.6013250517922
 34
0.0
100
AcDbRotatedDimension
  0
DIMENSION
  5
B79
330
A
100
AcDbEntity
  8
SUNPOU
100
AcDbDimension
  2
*D17
 10
357.9335587500859
 20
87.29400277405478
 30
0.0
 11
360.9996994472077
 21
81.69446610012938
 31
0.0
 70
   160
 53
180.0
  3
SUNPOU_2
100
AcDbAlignedDimension
 13
367.9335587500859
 23
98.93656382653729
 33
0.0
 14
357.9335587500859
 24
98.93656382653706
 34
0.0
100
AcDbRotatedDimension
1001
ACAD
1000
DSTYLE
1002
{
1070
     6
1000
OPEN30
1070
     5
1000

1070
   173
1070
     1
1070
     7
1000
OPEN30
1002
}
  0
DIMENSION
  5
B88
330
A
100
AcDbEntity
  8
SUNPOU
100
AcDbDimension
  2
*D18
 10
185.9335587500859
 20
87.29400277405478
 30
0.0
 11
272.9585118811455
 21
82.48425009613674
 31
0.0
 70
   160
  1
DH
 53
180.0
  3
SUNPOU_2
100
AcDbAlignedDimension
 13
357.9335587500859
 23
98.93656382653706
 33
0.0
 14
185.9335587500859
 24
98.93656382653706
 34
0.0
100
AcDbRotatedDimension
  0
DIMENSION
  5
B95
330
A
100
AcDbEntity
  8
SUNPOU
100
AcDbDimension
  2
*D19
 10
182.9335587500859
 20
87.29400277405478
 30
0.0
 11
179.3740192672579
 21
82.51239030512762
 31
0.0
 70
   160
 53
180.0
  3
SUNPOU_2
100
AcDbAlignedDimension
 13
185.9335587500859
 23
98.93656382653706
 33
0.0
 14
182.9335587500859
 24
98.93656382653706
 34
0.0
100
AcDbRotatedDimension
  0
DIMENSION
  5
BA4
330
A
100
AcDbEntity
  8
SUNPOU
100
AcDbDimension
  2
*D20
 10
367.9335587500859
 20
71.66420515545119
 30
0.0
 11
276.0912612599753
 21
67.11222635267927
 31
0.0
 70
   160
  1
H
 53
180.0
  3
SUNPOU_2
100
AcDbAlignedDimension
 13
182.9335587500859
 23
98.93656382653706
 33
0.0
 14
367.9335587500859
 24
71.66420515545119
 34
0.0
100
AcDbRotatedDimension
  0
DIMENSION
  5
CA4
330
A
100
AcDbEntity
  8
SUNPOU
100
AcDbDimension
  2
*D21
 10
256.9721246882085
 20
519.8456543383673
 30
0.0
 11
252.4721246882084
 21
476.0456543383674
 31
0.0
 70
    32
  1
W
  3
SUNPOU_2_10
100
AcDbAlignedDimension
 13
248.1572939669247
 23
432.2456543383673
 33
0.0
 14
248.1572939669247
 24
519.8456543383675
 34
0.0
 50
90.0
100
AcDbRotatedDimension
  0
DIMENSION
  5
CBE
330
A
100
AcDbEntity
  8
SUNPOU
100
AcDbDimension
  2
*D22
 10
265.1395495182705
 20
520.8456543383674
 30
0.0
 11
260.6395495182705
 21
476.0456543383674
 31
0.0
 70
    32
  1
DW
  3
SUNPOU_2_10
100
AcDbAlignedDimension
 13
247.1572939669246
 23
431.2456543383674
 33
0.0
 14
247.1572939669246
 24
520.8456543383674
 34
0.0
 50
90.0
100
AcDbRotatedDimension
  0
DIMENSION
  5
CCB
330
A
100
AcDbEntity
  8
SUNPOU
100
AcDbDimension
  2
*D23
 10
51.97102910958482
 20
464.7456543383674
 30
0.0
 11
47.47102910958473
 21
478.4956543383676
 31
0.0
 70
    32
  3
SUNPOU_2_10
100
AcDbAlignedDimension
 13
41.53890404053742
 23
492.2456543383673
 33
0.0
 14
41.53890404053742
 24
464.7456543383674
 34
0.0
 50
90.0
100
AcDbRotatedDimension
  0
DIMENSION
  5
CD8
330
A
100
AcDbEntity
  8
SUNPOU
100
AcDbDimension
  2
*D24
 10
51.97102910958482
 20
437.2456543383673
 30
0.0
 11
47.47102910958473
 21
450.9956543383673
 31
0.0
 70
    32
  3
SUNPOU_2_10
100
AcDbAlignedDimension
 13
41.53890404053742
 23
464.7456543383674
 33
0.0
 14
41.53890404053732
 24
437.2456543383673
 34
0.0
 50
90.0
100
AcDbRotatedDimension
  0
DIMENSION
  5
CE5
330
A
100
AcDbEntity
  8
SUNPOU
100
AcDbDimension
  2
*D25
 10
51.97102910958482
 20
432.2456543383673
 30
0.0
 11
47.66355184824078
 21
423.9778234333277
 31
0.0
 70
   160
  3
SUNPOU_2_10
100
AcDbAlignedDimension
 13
41.53890404053732
 23
437.2456543383673
 33
0.0
 14
43.53890404053731
 24
432.2456543383673
 34
0.0
 50
90.0
100
AcDbRotatedDimension
  0
LEADER
  5
D54
330
A
100
AcDbEntity
  8
HIKIDASI
100
AcDbLeader
  3
SUNPOU_2_10
 73
     0
 74
     0
 75
     1
 40
5.0
 41
29.06666666666668
 76
     3
 10
41.53890404053732
 20
492.2456543383673
 30
0.0
 10
58.0641848161904
 20
503.5462423520075
 30
0.0
 10
58.0641848161904
 20
508.5462423520075
 30
0.0
340
D55
211
0.0000000000000001
221
1.0
231
0.0
213
0.0
223
3.923190441034421
233
0.0
1001
ACAD
1000
DSTYLE
1002
{
1070
     5
1000
OPEN30
1070
    77
1070
     1
1070
   147
1040
1.0
1070
   342
1005
7D1
1002
}
1000
LEANOF
1010
0.0
1020
3.923190441034421
1030
0.0
1000
LEANOF
1010
0.0
1020
3.923190441034421
1030
0.0
1000
LEANOF
1010
0.0
1020
3.923190441034421
1030
0.0
  0
MTEXT
  5
D55
330
A
100
AcDbEntity
  8
HIKIDASI
100
AcDbMText
 10
56.0641848161904
 20
506.6230519109731
 30
0.0
 40
5.0
 41
0.0
 71
     7
 72
     1
  1
6-M5タップ
  7
SUNPOU
 11
0.0000000000000001
 21
1.0
 31
0.0
1001
ACAD
1000
MTEXTBEGIN
1070
    73
1070
     1
1070
    44
1040
1.0
1070
    74
1070
     0
1000
MTEXTEND
1000
MTEXTBEGIN
1070
    73
1070
     1
1070
    44
1040
1.0
1070
    74
1070
     0
1000
MTEXTEND
  0
LINE
  5
F7B
330
A
100
AcDbEntity
  8
CHUSIN
100
AcDbLine
 10
118.4235146720429
 20
133.9365638265372
 30
0.0
 11
396.2755451566819
 21
133.9365638265372
 31
0.0
  0
MTEXT
  5
134D
330
A
100
AcDbEntity
  8
MOJI
100
AcDbMText
 10
338.2640393702974
 20
208.8107684515446
 30
0.0
 40
6.0
 41
10.0
 71
     5
 72
     1
  1
内\P\P部
  7
0_8
 11
0.0000000000000001
 21
1.0
 31
0.0
1001
ACAD
1000
MTEXTBEGIN
1070
    73
1070
     1
1070
    44
1040
1.0
1070
    74
1070
     0
1000
MTEXTEND
1000
MTEXTBEGIN
1070
    73
1070
     1
1070
    44
1040
1.0
1070
    74
1070
     0
1000
MTEXTEND
  0
POLYLINE
  5
134E
330
A
100
AcDbEntity
  8
SAISEN
100
AcDb2dPolyline
 66
     1
 10
0.0
 20
0.0
 30
0.0
 70
     1
  0
VERTEX
  5
174E
330
134E
100
AcDbEntity
  8
SAISEN
100
AcDbVertex
100
AcDb2dVertex
 10
353.2640393702974
 20
203.8107684515446
 30
0.0
  0
VERTEX
  5
174F
330
134E
100
AcDbEntity
  8
SAISEN
100
AcDbVertex
100
AcDb2dVertex
 10
353.2640393702974
 20
213.8107684515446
 30
0.0
  0
VERTEX
  5
1750
330
134E
100
AcDbEntity
  8
SAISEN
100
AcDbVertex
100
AcDb2dVertex
 10
323.2640393702973
 20
213.8107684515446
 30
0.0
  0
VERTEX
  5
1751
330
134E
100
AcDbEntity
  8
SAISEN
100
AcDbVertex
100
AcDb2dVertex
 10
323.2640393702973
 20
203.8107684515446
 30
0.0
  0
SEQEND
  5
1752
330
134E
100
AcDbEntity
  8
SAISEN
  0
MTEXT
  5
134F
330
A
100
AcDbEntity
  8
MOJI
100
AcDbMText
 10
338.2640393702974
 20
65.26072273139232
 30
0.0
 40
6.0
 41
10.0
 71
     5
 72
     1
  1
外\P\P部
  7
0_8
 11
0.0000000000000001
 21
1.0
 31
0.0
1001
ACAD
1000
MTEXTBEGIN
1070
    73
1070
     1
1070
    44
1040
1.0
1070
    74
1070
     0
1000
MTEXTEND
1000
MTEXTBEGIN
1070
    73
1070
     1
1070
    44
1040
1.0
1070
    74
1070
     0
1000
MTEXTEND
  0
POLYLINE
  5
1350
330
A
100
AcDbEntity
  8
SAISEN
100
AcDb2dPolyline
 66
     1
 10
0.0
 20
0.0
 30
0.0
 70
     1
  0
VERTEX
  5
1753
330
1350
100
AcDbEntity
  8
SAISEN
100
AcDbVertex
100
AcDb2dVertex
 10
353.2640393702974
 20
60.26072273139231
 30
0.0
  0
VERTEX
  5
1754
330
1350
100
AcDbEntity
  8
SAISEN
100
AcDbVertex
100
AcDb2dVertex
 10
353.2640393702974
 20
70.26072273139232
 30
0.0
  0
VERTEX
  5
1755
330
1350
100
AcDbEntity
  8
SAISEN
100
AcDbVertex
100
AcDb2dVertex
 10
323.2640393702973
 20
70.26072273139232
 30
0.0
  0
VERTEX
  5
1756
330
1350
100
AcDbEntity
  8
SAISEN
100
AcDbVertex
100
AcDb2dVertex
 10
323.2640393702973
 20
60.26072273139231
 30
0.0
  0
SEQEND
  5
1757
330
1350
100
AcDbEntity
  8
SAISEN
  0
POLYLINE
  5
1367
330
A
100
AcDbEntity
  8
SAISEN
100
AcDb2dPolyline
 66
     1
 10
0.0
 20
0.0
 30
0.0
 70
     1
  0
VERTEX
  5
1758
330
1367
100
AcDbEntity
  8
SAISEN
100
AcDbVertex
100
AcDb2dVertex
 10
328.8354697483757
 20
476.190800934429
 30
0.0
  0
VERTEX
  5
1759
330
1367
100
AcDbEntity
  8
SAISEN
100
AcDbVertex
100
AcDb2dVertex
 10
338.8354697483757
 20
476.190800934429
 30
0.0
  0
VERTEX
  5
175A
330
1367
100
AcDbEntity
  8
SAISEN
100
AcDbVertex
100
AcDb2dVertex
 10
338.8354697483757
 20
506.1908009344291
 30
0.0
  0
VERTEX
  5
175B
330
1367
100
AcDbEntity
  8
SAISEN
100
AcDbVertex
100
AcDb2dVertex
 10
328.8354697483757
 20
506.1908009344291
 30
0.0
  0
SEQEND
  5
175C
330
1367
100
AcDbEntity
  8
SAISEN
  0
MTEXT
  5
1368
330
A
100
AcDbEntity
  8
MOJI
100
AcDbMText
 10
333.8354697483757
 20
491.1908009344291
 30
0.0
 40
6.0
 41
30.0
 71
     5
 72
     1
  1
外　　部
  7
0_8
 11
0.0000000000000001
 21
1.0
 31
0.0
1001
ACAD
1000
MTEXTBEGIN
1070
    73
1070
     1
1070
    44
1040
1.0
1070
    74
1070
     0
1000
MTEXTEND
1000
MTEXTBEGIN
1070
    73
1070
     1
1070
    44
1040
1.0
1070
    74
1070
     0
1000
MTEXTEND
  0
POLYLINE
  5
136F
330
A
100
AcDbEntity
  8
SAISEN
100
AcDb2dPolyline
 66
     1
 10
0.0
 20
0.0
 30
0.0
 70
     1
  0
VERTEX
  5
175D
330
136F
100
AcDbEntity
  8
SAISEN
100
AcDbVertex
100
AcDb2dVertex
 10
388.8354697483757
 20
476.190800934429
 30
0.0
  0
VERTEX
  5
175E
330
136F
100
AcDbEntity
  8
SAISEN
100
AcDbVertex
100
AcDb2dVertex
 10
398.8354697483757
 20
476.190800934429
 30
0.0
  0
VERTEX
  5
175F
330
136F
100
AcDbEntity
  8
SAISEN
100
AcDbVertex
100
AcDb2dVertex
 10
398.8354697483757
 20
506.1908009344291
 30
0.0
  0
VERTEX
  5
1760
330
136F
100
AcDbEntity
  8
SAISEN
100
AcDbVertex
100
AcDb2dVertex
 10
388.8354697483757
 20
506.1908009344291
 30
0.0
  0
SEQEND
  5
1761
330
136F
100
AcDbEntity
  8
SAISEN
  0
MTEXT
  5
1370
330
A
100
AcDbEntity
  8
MOJI
100
AcDbMText
 10
393.8354697483757
 20
491.1908009344291
 30
0.0
 40
6.0
 41
30.0
 71
     5
 72
     1
  1
内　　部
  7
0_8
 11
0.0000000000000001
 21
1.0
 31
0.0
1001
ACAD
1000
MTEXTBEGIN
1070
    73
1070
     1
1070
    44
1040
1.0
1070
    74
1070
     0
1000
MTEXTEND
1000
MTEXTBEGIN
1070
    73
1070
     1
1070
    44
1040
1.0
1070
    74
1070
     0
1000
MTEXTEND
  0
MTEXT
  5
1377
330
A
100
AcDbEntity
  8
MOJI
100
AcDbMText
 10
68.94331369837096
 20
555.5924980783503
 30
0.0
 40
6.0
 41
35.0
 71
     5
 72
     1
  1
内　観　図
  7
0_8
 11
0.0000000000000001
 21
1.0
 31
0.0
1001
ACAD
1000
MTEXTBEGIN
1070
    73
1070
     1
1070
    44
1040
1.0
1070
    74
1070
     0
1000
MTEXTEND
1000
MTEXTBEGIN
1070
    73
1070
     1
1070
    44
1040
1.0
1070
    74
1070
     0
1000
MTEXTEND
  0
POLYLINE
  5
1378
330
A
100
AcDbEntity
  8
SAISEN
100
AcDb2dPolyline
 66
     1
 10
0.0
 20
0.0
 30
0.0
 70
     1
  0
VERTEX
  5
1762
330
1378
100
AcDbEntity
  8
SAISEN
100
AcDbVertex
100
AcDb2dVertex
 10
73.94331369837096
 20
573.0924980783502
 30
0.0
  0
VERTEX
  5
1763
330
1378
100
AcDbEntity
  8
SAISEN
100
AcDbVertex
100
AcDb2dVertex
 10
63.94331369837097
 20
573.0924980783502
 30
0.0
  0
VERTEX
  5
1764
330
1378
100
AcDbEntity
  8
SAISEN
100
AcDbVertex
100
AcDb2dVertex
 10
63.94331369837097
 20
538.0924980783503
 30
0.0
  0
VERTEX
  5
1765
330
1378
100
AcDbEntity
  8
SAISEN
100
AcDbVertex
100
AcDb2dVertex
 10
73.94331369837096
 20
538.0924980783503
 30
0.0
  0
SEQEND
  5
1766
330
1378
100
AcDbEntity
  8
SAISEN
  0
LINE
  5
1501
330
A
100
AcDbEntity
  8
04
  6
CONTINUOUS
100
AcDbLine
 10
75.23355875008599
 20
166.9365638265372
 30
0.0
 11
75.23355875008599
 21
164.6365638265371
 31
0.0
  0
LINE
  5
1504
330
A
100
AcDbEntity
  8
04
100
AcDbLine
 10
95.27679948580358
 20
166.9365638265372
 30
0.0
 11
97.5767994858036
 21
164.6365638265371
 31
0.0
  0
LINE
  5
1505
330
A
100
AcDbEntity
  8
04
100
AcDbLine
 10
93.27679948580362
 20
166.9365638265372
 30
0.0
 11
95.57679948580355
 21
164.6365638265371
 31
0.0
  0
LINE
  5
1506
330
A
100
AcDbEntity
  8
04
  6
CONTINUOUS
100
AcDbLine
 10
226.4335587500859
 20
166.936563826537
 30
0.0
 11
226.4335587500859
 21
168.936563826537
 31
0.0
  0
LINE
  5
1507
330
A
100
AcDbEntity
  8
04
  6
CONTINUOUS
100
AcDbLine
 10
226.4335587500859
 20
160.9365638265372
 30
0.0
 11
226.4335587500859
 21
158.9365638265373
 31
0.0
  0
LINE
  5
1509
330
A
100
AcDbEntity
  8
04
  6
CONTINUOUS
100
AcDbLine
 10
227.4335587500858
 20
158.9365638265373
 30
0.0
 11
227.4335587500858
 21
153.9365638265373
 31
0.0
  0
LINE
  5
150C
330
A
100
AcDbEntity
  8
04
  6
CONTINUOUS
100
AcDbLine
 10
232.433558750086
 20
158.9365638265373
 30
0.0
 11
232.433558750086
 21
153.9365638265373
 31
0.0
  0
LINE
  5
150D
330
A
100
AcDbEntity
  8
04
  6
CONTINUOUS
100
AcDbLine
 10
249.4335587500859
 20
158.9365638265373
 30
0.0
 11
249.4335587500859
 21
153.9365638265373
 31
0.0
  0
LINE
  5
150E
330
A
100
AcDbEntity
  8
04
  6
CONTINUOUS
100
AcDbLine
 10
254.4335587500858
 20
158.9365638265373
 30
0.0
 11
254.4335587500858
 21
153.9365638265373
 31
0.0
  0
LINE
  5
1513
330
A
100
AcDbEntity
  8
04
  6
CONTINUOUS
100
AcDbLine
 10
203.9335587500858
 20
221.436563826537
 30
0.0
 11
203.9335587500858
 21
208.936563826537
 31
0.0
  0
LINE
  5
1514
330
A
100
AcDbEntity
  8
04
  6
CONTINUOUS
100
AcDbLine
 10
223.9335587500859
 20
251.436563826537
 30
0.0
 11
223.9335587500859
 21
248.9365638265371
 31
0.0
  0
LINE
  5
1516
330
A
100
AcDbEntity
  8
04
  6
CONTINUOUS
100
AcDbLine
 10
235.5335587500859
 20
277.4365638265371
 30
0.0
 11
233.5872973941418
 21
277.4365638265373
 31
0.0
  0
LINE
  5
1517
330
A
100
AcDbEntity
  8
04
  6
CONTINUOUS
100
AcDbLine
 10
246.3335587500858
 20
277.4365638265371
 30
0.0
 11
248.2798201060298
 21
277.4365638265373
 31
0.0
  0
LINE
  5
1518
330
A
100
AcDbEntity
  8
04
  6
CONTINUOUS
100
AcDbLine
 10
246.3335587500858
 20
327.4365638265373
 30
0.0
 11
248.2798201060298
 21
327.4365638265371
 31
0.0
  0
LINE
  5
1519
330
A
100
AcDbEntity
  8
04
  6
CONTINUOUS
100
AcDbLine
 10
235.5335587500859
 20
327.4365638265373
 30
0.0
 11
233.5872973941418
 21
327.4365638265371
 31
0.0
  0
LINE
  5
151A
330
A
100
AcDbEntity
  8
04
  6
CONTINUOUS
100
AcDbLine
 10
250.9335587500859
 20
345.9365638265376
 30
0.0
 11
248.2798201060298
 21
345.9365638265376
 31
0.0
  0
LINE
  5
151B
330
A
100
AcDbEntity
  8
04
  6
CONTINUOUS
100
AcDbLine
 10
250.9335587500859
 20
258.9365638265373
 30
0.0
 11
248.2798201060298
 21
258.9365638265373
 31
0.0
  0
LINE
  5
151C
330
A
100
AcDbEntity
  8
03
  6
CONTINUOUS
100
AcDbLine
 10
108.748930012091
 20
440.9956543383676
 30
0.0
 11
108.7572939669247
 21
440.4956543383674
 31
0.0
  0
LINE
  5
151F
330
A
100
AcDbEntity
  8
03
  6
CONTINUOUS
100
AcDbLine
 10
110.7572939669247
 20
440.7456543383673
 30
0.0
 11
110.7572939669247
 21
440.4956543383674
 31
0.0
  0
LINE
  5
1520
330
A
100
AcDbEntity
  8
03
  6
CONTINUOUS
100
AcDbLine
 10
111.1672939669247
 20
456.3941836087566
 30
0.0
 11
110.7572939669247
 21
456.3941836087566
 31
0.0
  0
LINE
  5
1521
330
A
100
AcDbEntity
  8
03
  6
CONTINUOUS
100
AcDbLine
 10
111.1672939669247
 20
455.3941836087566
 30
0.0
 11
110.7572939669247
 21
455.3941836087566
 31
0.0
  0
LINE
  5
1528
330
A
100
AcDbEntity
  8
KAKURE
  6
CONTINUOUS
 48
0.2
100
AcDbLine
 10
340.2344294349564
 20
445.9727674143423
 30
0.0
 11
340.3530353046901
 21
445.8440908909798
 31
0.0
  0
LINE
  5
1529
330
A
100
AcDbEntity
  8
KAKURE
  6
CONTINUOUS
 48
0.2
100
AcDbLine
 10
341.5899250890563
 20
444.502178575912
 30
0.0
 11
341.4713192193226
 21
444.6308550992745
 31
0.0
  0
LINE
  5
152A
330
A
100
AcDbEntity
  8
KAKURE
  6
CONTINUOUS
 48
0.2
100
AcDbLine
 10
342.1323210013905
 20
445.2061246925408
 30
0.0
 11
341.8951092619231
 21
445.4634777392661
 31
0.0
  0
LINE
  5
152B
330
A
100
AcDbEntity
  8
KAKURE
  6
CONTINUOUS
 48
0.2
100
AcDbLine
 10
341.0077064469051
 20
446.4475252874248
 30
0.0
 11
341.2173614348731
 21
446.1987721584812
 31
0.0
  0
LINE
  5
152C
330
A
100
AcDbEntity
  8
KAKURE
  6
CONTINUOUS
 48
0.2
100
AcDbLine
 10
342.3847568728309
 20
447.7168031569696
 30
0.0
 11
342.6050249166221
 21
447.4778324707247
 31
0.0
  0
LINE
  5
152D
330
A
100
AcDbEntity
  8
KAKURE
  6
CONTINUOUS
 48
0.2
100
AcDbLine
 10
343.5030407874632
 20
446.5035673652645
 30
0.0
 11
343.2827727436722
 21
446.7425380515094
 31
0.0
  0
LINE
  5
152E
330
A
100
AcDbEntity
  8
KAKURE
  6
CONTINUOUS
 48
0.2
100
AcDbLine
 10
346.0612289689068
 20
451.1055422922196
 30
0.0
 11
346.2814970126979
 21
450.8665716059746
 31
0.0
  0
LINE
  5
152F
330
A
100
AcDbEntity
  8
KAKURE
  6
CONTINUOUS
 48
0.2
100
AcDbLine
 10
347.1795128835393
 20
449.8923065005143
 30
0.0
 11
346.959244839748
 21
450.1312771867595
 31
0.0
  0
LINE
  5
1530
330
A
100
AcDbEntity
  8
KAKURE
  6
CONTINUOUS
 48
0.2
100
AcDbLine
 10
348.5565722718455
 20
451.1615926310136
 30
0.0
 11
348.3363042280543
 21
451.4005633172586
 31
0.0
  0
LINE
  5
1531
330
A
100
AcDbEntity
  8
KAKURE
  6
CONTINUOUS
 48
0.2
100
AcDbLine
 10
347.4382883572129
 20
452.3748284227186
 30
0.0
 11
347.6585564010042
 21
452.135857736474
 31
0.0
  0
LINE
  5
1532
330
A
100
AcDbEntity
  8
KAKURE
  6
CONTINUOUS
 48
0.2
100
AcDbLine
 10
348.0929594994281
 20
452.9782628191639
 30
0.0
 11
347.9743536296942
 21
453.1069393425267
 31
0.0
  0
LINE
  5
1533
330
A
100
AcDbEntity
  8
KAKURE
  6
CONTINUOUS
 48
0.2
100
AcDbLine
 10
349.2112434140606
 20
451.765027027459
 30
0.0
 11
349.3298492837944
 21
451.6363505040962
 31
0.0
  0
LINE
  5
1540
330
A
100
AcDbEntity
  8
KAKURE
  6
CONTINUOUS
 48
0.1
100
AcDbLine
 10
373.9361103064136
 20
440.0908182462607
 30
0.0
 11
374.6329333188223
 21
439.5109904243652
 31
0.0
  0
LINE
  5
1546
330
A
100
AcDbEntity
  8
06
  6
CONTINUOUS
100
AcDbLine
 10
376.2485516522872
 20
456.8941836087566
 30
0.0
 11
376.2485516522872
 21
456.7191919860236
 31
0.0
  0
LINE
  5
1547
330
A
100
AcDbEntity
  8
06
  6
CONTINUOUS
100
AcDbLine
 10
376.2485516522872
 20
454.8941836087567
 30
0.0
 11
376.2485516522872
 21
455.0691919860236
 31
0.0
  0
LINE
  5
1548
330
A
100
AcDbEntity
  8
06
  6
CONTINUOUS
100
AcDbLine
 10
377.1389040405371
 20
456.7191836087566
 30
0.0
 11
377.1389040405371
 21
456.3941836087566
 31
0.0
  0
LINE
  5
1549
330
A
100
AcDbEntity
  8
06
  6
CONTINUOUS
100
AcDbLine
 10
377.1389040405371
 20
455.0691836087566
 30
0.0
 11
377.1389040405371
 21
455.3941836087567
 31
0.0
  0
LINE
  5
154A
330
A
100
AcDbEntity
  8
06
  6
CONTINUOUS
100
AcDbLine
 10
379.0116918517047
 20
456.7191836087566
 30
0.0
 11
379.0116918517047
 21
456.3941836087566
 31
0.0
  0
LINE
  5
154B
330
A
100
AcDbEntity
  8
06
  6
CONTINUOUS
100
AcDbLine
 10
379.0116918517047
 20
455.3941836087567
 30
0.0
 11
379.0116918517047
 21
455.0691836087566
 31
0.0
  0
LINE
  5
154C
330
A
100
AcDbEntity
  8
06
  6
CONTINUOUS
100
AcDbLine
 10
384.0116918517047
 20
456.7191836087566
 30
0.0
 11
384.0116918517047
 21
456.3941836087566
 31
0.0
  0
LINE
  5
154D
330
A
100
AcDbEntity
  8
06
  6
CONTINUOUS
100
AcDbLine
 10
384.0116918517047
 20
455.0691836087566
 30
0.0
 11
384.0116918517047
 21
455.3941836087568
 31
0.0
  0
LINE
  5
154E
330
A
100
AcDbEntity
  8
06
  6
CONTINUOUS
100
AcDbLine
 10
385.884491851705
 20
456.7191836087566
 30
0.0
 11
385.884491851705
 21
456.3941836087566
 31
0.0
  0
LINE
  5
154F
330
A
100
AcDbEntity
  8
06
  6
CONTINUOUS
100
AcDbLine
 10
385.884491851705
 20
455.3941836087567
 30
0.0
 11
385.884491851705
 21
455.0691836087566
 31
0.0
  0
LINE
  5
1550
330
A
100
AcDbEntity
  8
06
  6
CONTINUOUS
100
AcDbLine
 10
386.7748442399549
 20
456.8941836087566
 30
0.0
 11
386.7748442399549
 21
456.7042818257133
 31
0.0
  0
LINE
  5
1551
330
A
100
AcDbEntity
  8
06
  6
CONTINUOUS
100
AcDbLine
 10
386.7748442399549
 20
454.8941836087567
 30
0.0
 11
386.7748442399549
 21
455.0691836087566
 31
0.0
  0
LINE
  5
1552
330
A
100
AcDbEntity
  8
04
  6
CONTINUOUS
100
AcDbLine
 10
221.9335587500859
 20
385.6388128608926
 30
0.0
 11
221.9335587500859
 21
379.6388128608926
 31
0.0
  0
LINE
  5
1553
330
A
100
AcDbEntity
  8
04
  6
CONTINUOUS
100
AcDbLine
 10
221.9335587500859
 20
369.6388128608926
 30
0.0
 11
221.9335587500859
 21
356.0666441108927
 31
0.0
  0
LINE
  5
1554
330
A
100
AcDbEntity
  8
04
  6
CONTINUOUS
100
AcDbLine
 10
230.9335587500858
 20
379.6388128608926
 30
0.0
 11
230.9335587500858
 21
390.6388128608927
 31
0.0
  0
LINE
  5
1555
330
A
100
AcDbEntity
  8
04
  6
CONTINUOUS
100
AcDbLine
 10
230.9335587500858
 20
369.6388128608926
 30
0.0
 11
230.9335587500858
 21
356.0666441108927
 31
0.0
  0
LINE
  5
1562
330
A
100
AcDbEntity
  8
04
  6
CONTINUOUS
100
AcDbLine
 10
235.9335587500858
 20
339.9365638265373
 30
0.0
 11
233.5872973941418
 21
339.9365638265376
 31
0.0
  0
LINE
  5
1563
330
A
100
AcDbEntity
  8
04
  6
CONTINUOUS
100
AcDbLine
 10
245.9335587500858
 20
339.9365638265373
 30
0.0
 11
248.2798201060298
 21
339.9365638265375
 31
0.0
  0
LINE
  5
1564
330
A
100
AcDbEntity
  8
04
  6
CONTINUOUS
100
AcDbLine
 10
235.9335587500858
 20
264.9365638265371
 30
0.0
 11
233.5872973941418
 21
264.9365638265373
 31
0.0
  0
LINE
  5
1565
330
A
100
AcDbEntity
  8
04
  6
CONTINUOUS
100
AcDbLine
 10
245.9335587500858
 20
264.9365638265371
 30
0.0
 11
248.2798201060298
 21
264.9365638265373
 31
0.0
  0
LINE
  5
1566
330
A
100
AcDbEntity
  8
04
  6
CONTINUOUS
100
AcDbLine
 10
235.4335587500858
 20
158.9365638265373
 30
0.0
 11
235.4335587500858
 21
144.936563826537
 31
0.0
  0
LINE
  5
1567
330
A
100
AcDbEntity
  8
04
  6
CONTINUOUS
100
AcDbLine
 10
246.4335587500858
 20
158.9365638265373
 30
0.0
 11
246.4335587500858
 21
144.936563826537
 31
0.0
  0
LINE
  5
1588
330
A
100
AcDbEntity
  8
03
  6
CONTINUOUS
100
AcDbLine
 10
47.93355875008592
 20
104.9365638265372
 30
0.0
 11
70.93355875008592
 21
104.9365638265372
 31
0.0
  0
LINE
  5
1589
330
A
100
AcDbEntity
  8
03
  6
CONTINUOUS
100
AcDbLine
 10
70.93355875008592
 20
104.9365638265372
 30
0.0
 11
70.93355875008592
 21
98.93656382653729
 31
0.0
  0
MTEXT
  5
1591
330
A
100
AcDbEntity
  8
03
  6
CONTINUOUS
100
AcDbMText
 10
96.73657751784368
 20
237.8936300679054
 30
0.0
 40
6.0
 41
0.0
 71
     5
 72
     1
  1
HOG-900
  7
0_8
 11
0.0000000000000001
 21
1.0
 31
0.0
1001
ACAD
1000
MTEXTBEGIN
1070
    73
1070
     1
1070
    44
1040
1.0
1070
    74
1070
     0
1000
MTEXTEND
1000
MTEXTBEGIN
1070
    73
1070
     1
1070
    44
1040
1.0
1070
    74
1070
     0
1000
MTEXTEND
  0
MTEXT
  5
1598
330
A
100
AcDbEntity
  8
SAISEN
  6
CONTINUOUS
100
AcDbMText
 10
361.7696376261521
 20
259.5678774633459
 30
0.0
 40
5.0
 41
0.0
 71
     5
 72
     1
  1
F.L
  7
0_8
 11
0.0000000000000001
 21
1.0
 31
0.0
1001
ACAD
1000
MTEXTBEGIN
1070
    73
1070
     1
1070
    44
1040
1.0
1070
    74
1070
     0
1000
MTEXTEND
1000
MTEXTBEGIN
1070
    73
1070
     1
1070
    44
1040
1.0
1070
    74
1070
     0
1000
MTEXTEND
  0
MTEXT
  5
159E
330
A
100
AcDbEntity
  8
SAISEN
  6
CONTINUOUS
100
AcDbMText
 10
242.4658706469311
 20
566.4779692877999
 30
0.0
 40
5.0
 41
0.0
 71
     5
 72
     1
  1
F.L
  7
0_8
 11
0.0000000000000001
 21
1.0
 31
0.0
1001
ACAD
1000
MTEXTBEGIN
1070
    73
1070
     1
1070
    44
1040
1.0
1070
    74
1070
     0
1000
MTEXTEND
1000
MTEXTBEGIN
1070
    73
1070
     1
1070
    44
1040
1.0
1070
    74
1070
     0
1000
MTEXTEND
  0
LINE
  5
15E6
330
A
100
AcDbEntity
  8
KAKURE
100
AcDbLine
 10
247.1572939669246
 20
519.8456543383675
 30
0.0
 11
247.1572939669246
 21
520.8456543383674
 31
0.0
  0
LINE
  5
15E7
330
A
100
AcDbEntity
  8
06
  6
CONTINUOUS
100
AcDbLine
 10
247.1572939669246
 20
519.8456543383675
 30
0.0
 11
247.1572939669246
 21
432.2456543383673
 31
0.0
  0
MTEXT
  5
1690
330
A
100
AcDbEntity
  8
MOJI
100
AcDbMText
 10
310.9999999999967
 20
29.00000000000023
 30
0.0
 40
7.0
 41
50.0
 71
     5
 72
     1
  1
図番１０－１
  7
0_80
1001
ACAD
1000
MTEXTBEGIN
1070
    73
1070
     1
1070
    44
1040
1.0
1070
    74
1070
     0
1000
MTEXTEND
1000
MTEXTBEGIN
1070
    73
1070
     1
1070
    44
1040
1.0
1070
    74
1070
     0
1000
MTEXTEND
  0
MTEXT
  5
1691
330
A
100
AcDbEntity
  8
MOJI
100
AcDbMText
 10
365.999999999997
 20
29.00000000000023
 30
0.0
 40
7.0
 41
49.99999999999993
 71
     5
 72
     1
  1
姿図･平面図　\Pたて断面図 　
  7
0_80
1001
ACAD
1000
MTEXTBEGIN
1070
    73
1070
     1
1070
    44
1040
1.0
1070
    74
1070
     0
1000
MTEXTEND
1000
MTEXTBEGIN
1070
    73
1070
     1
1070
    44
1040
1.0
1070
    74
1070
     0
1000
MTEXTEND
  0
MTEXT
  5
1692
330
A
100
AcDbEntity
  8
MOJI
100
AcDbMText
 10
185.9999999999969
 20
29.0
 30
0.0
 40
7.0
 41
80.0
 71
     5
 72
     1
  1
ＨＯＧ－９００\P{\H0.7143x;\U+203B開閉共電動}
  7
0_8
1001
ACAD
1000
MTEXTBEGIN
1070
    73
1070
     1
1070
    44
1040
1.0
1070
    74
1070
     0
1000
MTEXTEND
1000
MTEXTBEGIN
1070
    73
1070
     1
1070
    44
1040
1.0
1070
    74
1070
     0
1000
MTEXTEND
  0
POLYLINE
  5
1693
330
A
100
AcDbEntity
  8
SAISEN
100
AcDb2dPolyline
 66
     1
 10
0.0
 20
0.0
 30
0.0
 70
     1
  0
VERTEX
  5
1768
330
1693
100
AcDbEntity
  8
SAISEN
100
AcDbVertex
100
AcDb2dVertex
 10
35.99999999999698
 20
17.0
 30
0.0
  0
VERTEX
  5
1769
330
1693
100
AcDbEntity
  8
SAISEN
100
AcDbVertex
100
AcDb2dVertex
 10
385.999999999997
 20
17.0
 30
0.0
  0
VERTEX
  5
176A
330
1693
100
AcDbEntity
  8
SAISEN
100
AcDbVertex
100
AcDb2dVertex
 10
385.999999999997
 20
41.00000000000021
 30
0.0
  0
VERTEX
  5
176B
330
1693
100
AcDbEntity
  8
SAISEN
100
AcDbVertex
100
AcDb2dVertex
 10
35.99999999999698
 20
41.00000000000021
 30
0.0
  0
SEQEND
  5
176C
330
1693
100
AcDbEntity
  8
SAISEN
  0
MTEXT
  5
1694
330
A
100
AcDbEntity
  8
MOJI
100
AcDbMText
 10
90.99999999999701
 20
29.0
 30
0.0
 40
7.0
 41
110.0
 71
     5
 72
     1
  1
直付け納り
  7
0_8
1001
ACAD
1000
MTEXTBEGIN
1070
    73
1070
     1
1070
    44
1040
1.0
1070
    74
1070
     0
1000
MTEXTEND
1000
MTEXTBEGIN
1070
    73
1070
     1
1070
    44
1040
1.0
1070
    74
1070
     0
1000
MTEXTEND
  0
LINE
  5
1695
330
A
100
AcDbEntity
  8
SAISEN
100
AcDbLine
 10
145.9999999999969
 20
41.00000000000021
 30
0.0
 11
145.9999999999969
 21
17.0
 31
0.0
  0
MTEXT
  5
1696
330
A
100
AcDbEntity
  8
MOJI
100
AcDbMText
 10
255.9999999999999
 20
29.0
 30
0.0
 40
5.0
 41
60.0
 71
     5
 72
     1
  1
片開き　押しｱｰﾑ\P\U+203B両開きはｴﾝｼﾞﾝ２台使用
  7
0_8
1001
ACAD
1000
MTEXTBEGIN
1070
    73
1070
     1
1070
    44
1040
1.0
1070
    74
1070
     0
1000
MTEXTEND
1000
MTEXTBEGIN
1070
    73
1070
     1
1070
    44
1040
1.0
1070
    74
1070
     0
1000
MTEXTEND
  0
LINE
  5
1697
330
A
100
AcDbEntity
  8
SAISEN
100
AcDbLine
 10
225.999999999997
 20
41.00000000000021
 30
0.0
 11
225.999999999997
 21
17.0
 31
0.0
  0
LINE
  5
1698
330
A
100
AcDbEntity
  8
SAISEN
100
AcDbLine
 10
285.999999999997
 20
41.00000000000021
 30
0.0
 11
285.999999999997
 21
17.0
 31
0.0
  0
CIRCLE
  5
16A1
330
A
100
AcDbEntity
  8
SAISEN
100
AcDbCircle
 10
392.0976380784293
 20
49.54302641223165
 30
0.0
 40
5.0
  0
TEXT
  5
16A2
330
A
100
AcDbEntity
  8
MOJI
100
AcDbText
 10
389.0488190392131
 20
45.27151320611595
 30
0.0
 40
8.0
  1
Ｓ
 41
0.8
  7
0_8
 11
389.0488190392131
 21
53.27151320611595
 31
0.0
100
AcDbText
 73
     3
  0
VIEWPORT
  5
806
102
{ACAD_XDICTIONARY
360
1734
102
}
330
B
100
AcDbEntity
 67
     1
  8
0
100
AcDbViewport
 10
198.0508299538852
 20
285.1874487354476
 30
0.0
 40
1032.48931623203
 41
600.5181104138734
 68
     1
 69
     1
1001
ACAD
1000
MVIEW
1002
{
1070
    16
1010
0.0
1020
0.0
1030
0.0
1010
0.0
1020
0.0
1030
1.0
1040
0.0
1040
600.5181104138734
1040
198.0508299538852
1040
285.1874487354476
1040
50.0
1040
0.0
1040
0.0
1070
     0
1070
   100
1070
     1
1070
     1
1070
     0
1070
     0
1070
     0
1070
     0
1040
0.0
1040
0.0
1040
0.0
1040
10.0
1040
10.0
1040
10.0
1040
10.0
1070
     0
1002
{
1002
}
1002
}
  0
VIEWPORT
  5
16BA
102
{ACAD_XDICTIONARY
360
1736
102
}
330
B
100
AcDbEntity
 67
     1
  8
DEFPOINTS
  6
CONTINUOUS
100
AcDbViewport
 10
198.0508309076476
 20
285.1874477816851
 30
0.0
 40
396.4883172119752
 41
570.409736121624
 68
     2
 69
     2
1001
ACAD
1000
MVIEW
1002
{
1070
    16
1010
0.0
1020
0.0
1030
0.0
1010
0.0
1020
0.0
1030
1.0
1040
0.0
1040
570.409736121624
1040
210.0
1040
297.0
1040
50.0
1040
0.0
1040
0.0
1070
     0
1070
   100
1070
     1
1070
     1
1070
     0
1070
     0
1070
     0
1070
     0
1040
0.0
1040
0.0
1040
0.0
1040
1.0
1040
1.0
1040
0.0
1040
0.0
1070
     0
1002
{
1002
}
1002
}
  0
ENDSEC
  0
SECTION
  2
OBJECTS
  0
DICTIONARY
  5
19
330
0
100
AcDbDictionary
  3
ACAD_COLOR
350
1674
  3
ACAD_GROUP
350
1A
  3
ACAD_LAYOUT
350
3EA
  3
ACAD_MATERIAL
350
1673
  3
ACAD_MLINESTYLE
350
1B
  3
ACAD_PLOTSETTINGS
350
3EB
  3
ACADDIM
350
8D6
  3
ASE_INDEX_DICTIONARY
350
1718
  3
DWGPROPS
350
1730
1001
ACAD
1000
TREAT_AS_HARD
1070
     0
1000
TREAT_AS_HARD
1070
     0
1000
TREAT_AS_HARD
1070
     0
  0
DICTIONARY
  5
14F8
330
2
100
AcDbDictionary
  3
ACAD_LAYERFILTERS
350
14F9
  3
ACAD_LAYERSTATES
350
15EA
1001
ACAD
1000
TREAT_AS_HARD
1070
     1
1000
TREAT_AS_HARD
1070
     1
1000
TREAT_AS_HARD
1070
     1
  0
DICTIONARY
  5
1613
330
A
100
AcDbDictionary
  3
ACAD_LAYOUTSELFREF
350
1742
1001
ACAD
1000
TREAT_AS_HARD
1070
     1
1000
TREAT_AS_HARD
1070
     1
  0
DICTIONARY
  5
1615
330
B
100
AcDbDictionary
  3
ACAD_LAYOUTSELFREF
350
1743
1001
ACAD
1000
TREAT_AS_HARD
1070
     1
1000
TREAT_AS_HARD
1070
     1
  0
DICTIONARY
  5
1734
330
806
100
AcDbDictionary
  3
ACAD_XREC_ROUNDTRIP
350
1735
1001
ACAD
1000
TREAT_AS_HARD
1070
     1
  0
DICTIONARY
  5
1736
330
16BA
100
AcDbDictionary
  3
ACAD_XREC_ROUNDTRIP
350
1737
1001
ACAD
1000
TREAT_AS_HARD
1070
     1
  0
DICTIONARY
  5
1674
102
{ACAD_REACTORS
330
19
102
}
330
19
100
AcDbDictionary
1001
ACAD
1000
TREAT_AS_HARD
1070
     0
1000
TREAT_AS_HARD
1070
     0
  0
DICTIONARY
  5
1A
102
{ACAD_REACTORS
330
19
102
}
330
19
100
AcDbDictionary
  3
DAGROUP15C
350
15C
  3
DAGROUP1D8
350
1D8
  3
DAGROUP1DB
350
1DB
  3
DAGROUP1DE
350
1DE
  3
DAGROUP1E1
350
1E1
  3
DAGROUP1E4
350
1E4
  3
DAGROUP1E7
350
1E7
  3
DAGROUP1EA
350
1EA
  3
DAGROUP1ED
350
1ED
  3
DAGROUP1F0
350
1F0
  3
DAGROUP1F3
350
1F3
  3
DAGROUP1F6
350
1F6
  3
DAGROUP1F9
350
1F9
  3
DAGROUP1FD
350
1FD
  3
DAGROUP201
350
201
  3
DAGROUP205
350
205
  3
DAGROUP209
350
209
  3
DAGROUP20D
350
20D
  3
DAGROUP211
350
211
  3
DAGROUP215
350
215
  3
DAGROUP219
350
219
  3
DAGROUP21D
350
21D
  3
DAGROUP221
350
221
  3
DAGROUP225
350
225
  3
DAGROUP229
350
229
  3
DAGROUP22D
350
22D
  3
DAGROUP231
350
231
  3
DAGROUP235
350
235
  3
DAGROUP239
350
239
  3
DAGROUP23D
350
23D
  3
DAGROUP241
350
241
  3
DAGROUP245
350
245
  3
DAGROUP249
350
249
  3
DAGROUP24D
350
24D
  3
DAGROUP250
350
250
  3
DAGROUP253
350
253
  3
DAGROUP256
350
256
  3
DAGROUP259
350
259
1001
ACAD
1000
TREAT_AS_HARD
1070
     0
1000
TREAT_AS_HARD
1070
     0
1000
TREAT_AS_HARD
1070
     0
  0
DICTIONARY
  5
3EA
102
{ACAD_REACTORS
330
19
102
}
330
19
100
AcDbDictionary
1001
ACAD
1000
TREAT_AS_HARD
1070
     0
1000
TREAT_AS_HARD
1070
     0
1000
TREAT_AS_HARD
1070
     0
  0
DICTIONARY
  5
1673
102
{ACAD_REACTORS
330
19
102
}
330
19
100
AcDbDictionary
1001
ACAD
1000
TREAT_AS_HARD
1070
     0
1000
TREAT_AS_HARD
1070
     0
  0
DICTIONARY
  5
1B
102
{ACAD_REACTORS
330
19
102
}
330
19
100
AcDbDictionary
  3
STANDARD
350
1C
1001
ACAD
1000
TREAT_AS_HARD
1070
     0
1000
TREAT_AS_HARD
1070
     0
1000
TREAT_AS_HARD
1070
     0
  0
DICTIONARY
  5
3EB
102
{ACAD_REACTORS
330
19
102
}
330
19
100
AcDbDictionary
1001
ACAD
1000
TREAT_AS_HARD
1070
     0
1000
TREAT_AS_HARD
1070
     0
1000
TREAT_AS_HARD
1070
     0
  0
XRECORD
  5
8D6
102
{ACAD_REACTORS
330
19
102
}
330
19
100
AcDbXrecord
 90
   990106
  3

 60
     0
 61
     0
 62
     4
 63
     4
 64
     1
 65
     0
 66
     0
 67
     3
 68
     1
 69
     1
 70
     0
 71
     0
 72
     0
 40
0.0
170
     1
340
D55
  0
DICTIONARY
  5
1718
102
{ACAD_REACTORS
330
19
102
}
330
19
100
AcDbDictionary
  3
ASEBLOCKHIERARCHYINDEXRECORD
350
1719
1001
DCO15
1040
1508820074.031
1001
ACAD
1000
TREAT_AS_HARD
1070
     0
  0
XRECORD
  5
1730
102
{ACAD_REACTORS
330
19
102
}
330
19
100
AcDbXrecord
  1
DWGPROPS COOKIE
  2

  3

  4

  6

  7

  8

  9

300
=
301
=
302
=
303
=
304
=
305
=
306
=
307
=
308
=
309
=
 40
0.8074703472222221
 41
2444972.375
 42
2453266.423621411
  1

 90
        0
  0
DICTIONARY
  5
14F9
102
{ACAD_REACTORS
330
14F8
102
}
330
14F8
100
AcDbDictionary
  3
HIHYOJI
350
14FA
  3
TUIKA
350
1560
1001
ACAD
1000
TREAT_AS_HARD
1070
     1
1000
TREAT_AS_HARD
1070
     0
1000
TREAT_AS_HARD
1070
     0
  0
DICTIONARY
  5
15EA
102
{ACAD_REACTORS
330
14F8
102
}
330
14F8
100
AcDbDictionary
1001
ACAD
1000
TREAT_AS_HARD
1070
     0
1000
TREAT_AS_HARD
1070
     0
1000
TREAT_AS_HARD
1070
     0
  0
XRECORD
  5
1742
102
{ACAD_REACTORS
330
1613
102
}
330
1613
100
AcDbXrecord
340
A
  0
XRECORD
  5
1743
102
{ACAD_REACTORS
330
1615
102
}
330
1615
100
AcDbXrecord
340
B
  0
XRECORD
  5
1735
102
{ACAD_REACTORS
330
1734
102
}
330
1734
100
AcDbXrecord
102
SHADEPLOT
 70
     0
  0
XRECORD
  5
1737
102
{ACAD_REACTORS
330
1736
102
}
330
1736
100
AcDbXrecord
102
SHADEPLOT
 70
     0
  0
GROUP
  5
15C
102
{ACAD_REACTORS
330
1A
102
}
330
1A
100
AcDbGroup
300

 70
     0
 71
     1
  0
GROUP
  5
1D8
102
{ACAD_REACTORS
330
1A
102
}
330
1A
100
AcDbGroup
300

 70
     0
 71
     1
  0
GROUP
  5
1DB
102
{ACAD_REACTORS
330
1A
102
}
330
1A
100
AcDbGroup
300

 70
     0
 71
     1
  0
GROUP
  5
1DE
102
{ACAD_REACTORS
330
1A
102
}
330
1A
100
AcDbGroup
300

 70
     0
 71
     1
  0
GROUP
  5
1E1
102
{ACAD_REACTORS
330
1A
102
}
330
1A
100
AcDbGroup
300

 70
     0
 71
     1
  0
GROUP
  5
1E4
102
{ACAD_REACTORS
330
1A
102
}
330
1A
100
AcDbGroup
300

 70
     0
 71
     1
  0
GROUP
  5
1E7
102
{ACAD_REACTORS
330
1A
102
}
330
1A
100
AcDbGroup
300

 70
     0
 71
     1
  0
GROUP
  5
1EA
102
{ACAD_REACTORS
330
1A
102
}
330
1A
100
AcDbGroup
300

 70
     0
 71
     1
  0
GROUP
  5
1ED
102
{ACAD_REACTORS
330
1A
102
}
330
1A
100
AcDbGroup
300

 70
     0
 71
     1
  0
GROUP
  5
1F0
102
{ACAD_REACTORS
330
1A
102
}
330
1A
100
AcDbGroup
300

 70
     0
 71
     1
  0
GROUP
  5
1F3
102
{ACAD_REACTORS
330
1A
102
}
330
1A
100
AcDbGroup
300

 70
     0
 71
     1
  0
GROUP
  5
1F6
102
{ACAD_REACTORS
330
1A
102
}
330
1A
100
AcDbGroup
300

 70
     0
 71
     1
  0
GROUP
  5
1F9
102
{ACAD_REACTORS
330
1A
102
}
330
1A
100
AcDbGroup
300

 70
     0
 71
     1
  0
GROUP
  5
1FD
102
{ACAD_REACTORS
330
1A
102
}
330
1A
100
AcDbGroup
300

 70
     0
 71
     1
  0
GROUP
  5
201
102
{ACAD_REACTORS
330
1A
102
}
330
1A
100
AcDbGroup
300

 70
     0
 71
     1
  0
GROUP
  5
205
102
{ACAD_REACTORS
330
1A
102
}
330
1A
100
AcDbGroup
300

 70
     0
 71
     1
  0
GROUP
  5
209
102
{ACAD_REACTORS
330
1A
102
}
330
1A
100
AcDbGroup
300

 70
     0
 71
     1
  0
GROUP
  5
20D
102
{ACAD_REACTORS
330
1A
102
}
330
1A
100
AcDbGroup
300

 70
     0
 71
     1
  0
GROUP
  5
211
102
{ACAD_REACTORS
330
1A
102
}
330
1A
100
AcDbGroup
300

 70
     0
 71
     1
  0
GROUP
  5
215
102
{ACAD_REACTORS
330
1A
102
}
330
1A
100
AcDbGroup
300

 70
     0
 71
     1
  0
GROUP
  5
219
102
{ACAD_REACTORS
330
1A
102
}
330
1A
100
AcDbGroup
300

 70
     0
 71
     1
  0
GROUP
  5
21D
102
{ACAD_REACTORS
330
1A
102
}
330
1A
100
AcDbGroup
300

 70
     0
 71
     1
  0
GROUP
  5
221
102
{ACAD_REACTORS
330
1A
102
}
330
1A
100
AcDbGroup
300

 70
     0
 71
     1
  0
GROUP
  5
225
102
{ACAD_REACTORS
330
1A
102
}
330
1A
100
AcDbGroup
300

 70
     0
 71
     1
  0
GROUP
  5
229
102
{ACAD_REACTORS
330
1A
102
}
330
1A
100
AcDbGroup
300

 70
     0
 71
     1
  0
GROUP
  5
22D
102
{ACAD_REACTORS
330
1A
102
}
330
1A
100
AcDbGroup
300

 70
     0
 71
     1
  0
GROUP
  5
231
102
{ACAD_REACTORS
330
1A
102
}
330
1A
100
AcDbGroup
300

 70
     0
 71
     1
  0
GROUP
  5
235
102
{ACAD_REACTORS
330
1A
102
}
330
1A
100
AcDbGroup
300

 70
     0
 71
     1
  0
GROUP
  5
239
102
{ACAD_REACTORS
330
1A
102
}
330
1A
100
AcDbGroup
300

 70
     0
 71
     1
  0
GROUP
  5
23D
102
{ACAD_REACTORS
330
1A
102
}
330
1A
100
AcDbGroup
300

 70
     0
 71
     1
  0
GROUP
  5
241
102
{ACAD_REACTORS
330
1A
102
}
330
1A
100
AcDbGroup
300

 70
     0
 71
     1
  0
GROUP
  5
245
102
{ACAD_REACTORS
330
1A
102
}
330
1A
100
AcDbGroup
300

 70
     0
 71
     1
  0
GROUP
  5
249
102
{ACAD_REACTORS
330
1A
102
}
330
1A
100
AcDbGroup
300

 70
     0
 71
     1
  0
GROUP
  5
24D
102
{ACAD_REACTORS
330
1A
102
}
330
1A
100
AcDbGroup
300

 70
     0
 71
     1
  0
GROUP
  5
250
102
{ACAD_REACTORS
330
1A
102
}
330
1A
100
AcDbGroup
300

 70
     0
 71
     1
  0
GROUP
  5
253
102
{ACAD_REACTORS
330
1A
102
}
330
1A
100
AcDbGroup
300

 70
     0
 71
     1
  0
GROUP
  5
256
102
{ACAD_REACTORS
330
1A
102
}
330
1A
100
AcDbGroup
300

 70
     0
 71
     1
  0
GROUP
  5
259
102
{ACAD_REACTORS
330
1A
102
}
330
1A
100
AcDbGroup
300

 70
     0
 71
     1
  0
MLINESTYLE
  5
1C
102
{ACAD_REACTORS
330
1B
102
}
330
1B
100
AcDbMlineStyle
  2
STANDARD
 70
     0
  3

 62
     0
 51
90.0
 52
90.0
 71
     2
 49
0.5
 62
   256
  6
BYLAYER
 49
-0.5
 62
   256
  6
BYLAYER
  0
XRECORD
  5
1719
102
{ACAD_REACTORS
330
1718
102
}
330
1718
100
AcDbXrecord
330
1406
330
1407
330
1623
330
1624
330
162E
330
162F
330
1447
330
1448
330
1486
330
1487
330
13FE
330
13FF
330
14DD
330
14DE
330
13F5
330
13F6
330
143F
330
1440
330
13EC
330
13ED
330
1497
330
1498
330
148E
330
148F
330
1410
330
1411
330
1424
330
1425
330
1436
330
1437
330
142D
330
142E
330
1639
330
163A
330
13E3
330
13E4
330
141B
330
141C
330
13DA
330
13DB
330
14D1
330
14D2
330
14C8
330
14C9
330
1450
330
1451
330
1464
330
1465
330
145C
330
145D
330
13A5
  0
XRECORD
  5
14FA
102
{ACAD_REACTORS
330
14F9
102
}
330
14F9
100
AcDbXrecord
  1
hihyoji
  1
08,09,*_h
  1
*
  1
*
 70
     0
  1
*
  1
*
  0
XRECORD
  5
1560
102
{ACAD_REACTORS
330
14F9
102
}
330
14F9
100
AcDbXrecord
  1
tuika
  1
*_t
  1
*
  1
*
 70
     0
  1
*
  1
*
  0
ENDSEC
  0
EOF
